0
SECTION
2
HEADER
9
$ACADVER
1
AC1015
9
$DWGCODEPAGE
3
ANSI_1252
9
$HANDSEED
5
222
9
$ANGBASE
50
0
9
$ANGDIR
70
0
9
$ATTMODE
70
1
9
$AUNITS
70
0
9
$AUPREC
70
0
9
$CECOLOR
62
256
9
$CELTSCALE
40
1
9
$CELTYPE
6
ByLayer
9
$CELWEIGHT
370
18
9
$CLAYER
8
0
9
$CMLJUST
70
0
9
$CMLSCALE
40
1
9
$CMLSTYLE
2
Standard
9
$DIMSTYLE
2
Standard
9
$TEXTSIZE
40
0.2
9
$TEXTSTYLE
7
Standard
9
$LUNITS
70
2
9
$LUPREC
70
4
9
$EXTNAMES
290
1
9
$INSUNITS
70
4
9
$LTSCALE
40
1
9
$LWDISPLAY
290
1
9
$PDMODE
70
0
9
$PDSIZE
40
0
9
$PLINEGEN
70
0
0
ENDSEC
0
SECTION
2
CLASSES
0
CLASS
1
RASTERVARIABLES
2
AcDbRasterVariables
3
ISM
90
0
280
0
281
0
0
ENDSEC
0
SECTION
2
TABLES
0
TABLE
2
VPORT
5
218
100
AcDbSymbolTable
0
VPORT
5
1
100
AcDbSymbolTableRecord
100
AcDbViewportTableRecord
2
*Active
70
0
10
0
20
0
11
1
21
1
12
-1
22
1
13
0
23
0
14
0.5
24
0.5
15
10
25
10
16
0
26
0
36
1
17
0
27
0
37
0
0
ENDTAB
0
TABLE
2
LTYPE
5
219
100
AcDbSymbolTable
0
LTYPE
5
14
100
AcDbSymbolTableRecord
100
AcDbLinetypeTableRecord
70
0
2
ByBlock
3

72
65
73
0
40
0
0
LTYPE
5
15
100
AcDbSymbolTableRecord
100
AcDbLinetypeTableRecord
70
0
2
ByLayer
3

72
65
73
0
40
0
0
LTYPE
5
16
100
AcDbSymbolTableRecord
100
AcDbLinetypeTableRecord
70
0
2
Continuous
3
Solid line
72
65
73
0
40
0
0
LTYPE
5
6E
100
AcDbSymbolTableRecord
100
AcDbLinetypeTableRecord
70
0
2
CENTER
3
____ _ ____ _ ____ _ ____
72
65
73
4
40
47.5
49
22
74
0
49
-8.5
74
0
49
8.5
74
0
49
-8.5
74
0
0
LTYPE
5
6F
100
AcDbSymbolTableRecord
100
AcDbLinetypeTableRecord
70
0
2
DASHED
3
__ __ __ __ __ __ __ __ __
72
65
73
2
40
25.72
49
12.86
74
0
49
-12.86
74
0
0
ENDTAB
0
TABLE
2
LAYER
5
21a
100
AcDbSymbolTable
0
LAYER
5
10
100
AcDbSymbolTableRecord
100
AcDbLayerTableRecord
2
0
70
0
62
7
6
Continuous
290
1
370
-3
390
0
0
LAYER
5
71
100
AcDbSymbolTableRecord
100
AcDbLayerTableRecord
2
80
70
0
62
-6
6
Continuous
290
1
370
-3
390
0
0
LAYER
5
73
100
AcDbSymbolTableRecord
100
AcDbLayerTableRecord
2
81
70
0
62
-3
6
Continuous
290
1
370
-3
390
0
0
LAYER
5
75
100
AcDbSymbolTableRecord
100
AcDbLayerTableRecord
2
1
70
0
62
4
6
Continuous
290
1
370
-3
390
0
0
LAYER
5
8B
100
AcDbSymbolTableRecord
100
AcDbLayerTableRecord
2
4
70
0
62
-2
6
CENTER
290
1
370
-3
390
0
0
LAYER
5
AA
100
AcDbSymbolTableRecord
100
AcDbLayerTableRecord
2
2
70
0
62
7
6
Continuous
290
1
370
-3
390
0
0
LAYER
5
12D
100
AcDbSymbolTableRecord
100
AcDbLayerTableRecord
2
Defpoints
70
0
62
7
6
Continuous
290
0
370
-3
390
0
0
LAYER
5
204
100
AcDbSymbolTableRecord
100
AcDbLayerTableRecord
2
SK1
70
0
62
4
6
Continuous
290
1
370
-3
390
0
0
LAYER
5
205
100
AcDbSymbolTableRecord
100
AcDbLayerTableRecord
2
SK4
70
0
62
2
6
CENTER
290
1
370
-3
390
0
0
LAYER
5
206
100
AcDbSymbolTableRecord
100
AcDbLayerTableRecord
2
SK2
70
0
62
7
6
Continuous
290
1
370
-3
390
0
0
LAYER
5
207
100
AcDbSymbolTableRecord
100
AcDbLayerTableRecord
2
SK6
70
0
62
5
6
Continuous
290
1
370
-3
390
0
0
ENDTAB
0
TABLE
2
STYLE
5
21b
100
AcDbSymbolTable
0
STYLE
5
11
100
AcDbSymbolTableRecord
100
AcDbTextStyleTableRecord
2
Standard
3
txt
70
0
71
0
40
0
41
1
42
0
50
0
0
STYLE
5
112
100
AcDbSymbolTableRecord
100
AcDbTextStyleTableRecord
2
iso_b_vert
3
simplex.shx
70
0
71
0
40
0
41
1
42
0
50
0
0
STYLE
5
113
100
AcDbSymbolTableRecord
100
AcDbTextStyleTableRecord
2
DWGDirectTextStyle
3
simplex
70
0
71
0
40
0
41
1
42
0
50
0
0
ENDTAB
0
TABLE
2
DIMSTYLE
5
21c
100
AcDbSymbolTable
100
AcDbDimStyleTable
0
DIMSTYLE
105
27
100
AcDbSymbolTableRecord
100
AcDbDimStyleTableRecord
2
Standard
70
0
3
<>
41
0.18
42
0.0625
44
0.18
140
0.18
147
0.09
73
0
74
0
77
1
271
2
275
0
278
52
280
0
340
11
0
ENDTAB
0
TABLE
2
VIEW
5
21d
100
AcDbSymbolTable
0
ENDTAB
0
TABLE
2
UCS
5
21e
100
AcDbSymbolTable
0
ENDTAB
0
TABLE
2
APPID
5
21f
100
AcDbSymbolTable
0
APPID
5
12
100
AcDbSymbolTableRecord
100
AcDbRegAppTableRecord
2
ACAD
70
0
0
APPID
5
129
100
AcDbSymbolTableRecord
100
AcDbRegAppTableRecord
2
ACAD_DSTYLE_DIMBREAK
70
0
0
APPID
5
1C3
100
AcDbSymbolTableRecord
100
AcDbRegAppTableRecord
2
ACAD_DSTYLE_DIM_LINETYPE
70
0
0
APPID
5
1C4
100
AcDbSymbolTableRecord
100
AcDbRegAppTableRecord
2
ACAD_DSTYLE_DIM_EXT1_LINETYPE
70
0
0
APPID
5
1C5
100
AcDbSymbolTableRecord
100
AcDbRegAppTableRecord
2
ACAD_DSTYLE_DIM_EXT2_LINETYPE
70
0
0
APPID
5
200
100
AcDbSymbolTableRecord
100
AcDbRegAppTableRecord
2
ACAD_MLEADERVER
70
0
0
ENDTAB
0
TABLE
2
BLOCK_RECORD
5
220
100
AcDbSymbolTable
0
BLOCK_RECORD
5
1F
100
AcDbSymbolTableRecord
100
AcDbBlockTableRecord
2
*Model_Space
340
0
70
0
0
BLOCK_RECORD
5
1B
100
AcDbSymbolTableRecord
100
AcDbBlockTableRecord
2
*Paper_Space
340
0
70
0
0
BLOCK_RECORD
5
23
100
AcDbSymbolTableRecord
100
AcDbBlockTableRecord
2
*Paper_Space0
340
0
70
0
0
BLOCK_RECORD
5
12E
100
AcDbSymbolTableRecord
100
AcDbBlockTableRecord
2
*D1
340
0
70
0
0
BLOCK_RECORD
5
13A
100
AcDbSymbolTableRecord
100
AcDbBlockTableRecord
2
_U0
340
0
70
0
0
BLOCK_RECORD
5
146
100
AcDbSymbolTableRecord
100
AcDbBlockTableRecord
2
*D3
340
0
70
0
0
BLOCK_RECORD
5
152
100
AcDbSymbolTableRecord
100
AcDbBlockTableRecord
2
_U1
340
0
70
0
0
BLOCK_RECORD
5
15E
100
AcDbSymbolTableRecord
100
AcDbBlockTableRecord
2
*D5
340
0
70
0
0
BLOCK_RECORD
5
16A
100
AcDbSymbolTableRecord
100
AcDbBlockTableRecord
2
_U2
340
0
70
0
0
BLOCK_RECORD
5
176
100
AcDbSymbolTableRecord
100
AcDbBlockTableRecord
2
*D7
340
0
70
0
0
BLOCK_RECORD
5
184
100
AcDbSymbolTableRecord
100
AcDbBlockTableRecord
2
_U3
340
0
70
0
0
BLOCK_RECORD
5
190
100
AcDbSymbolTableRecord
100
AcDbBlockTableRecord
2
*D9
340
0
70
0
0
BLOCK_RECORD
5
19C
100
AcDbSymbolTableRecord
100
AcDbBlockTableRecord
2
_U4
340
0
70
0
0
ENDTAB
0
ENDSEC
0
SECTION
2
BLOCKS
0
BLOCK
5
20
100
AcDbEntity
8
0
100
AcDbBlockBegin
2
*Model_Space
70
0
10
0
20
0
30
0
3
*Model_Space
0
ENDBLK
5
21
100
AcDbEntity
8
0
100
AcDbBlockEnd
0
BLOCK
5
1C
100
AcDbEntity
8
0
100
AcDbBlockBegin
2
*Paper_Space
70
0
10
0
20
0
30
0
3
*Paper_Space
0
ENDBLK
5
1D
100
AcDbEntity
8
0
100
AcDbBlockEnd
0
BLOCK
5
24
100
AcDbEntity
8
0
100
AcDbBlockBegin
2
*Paper_Space0
70
0
10
0
20
0
30
0
3
*Paper_Space0
0
ENDBLK
5
25
100
AcDbEntity
8
0
100
AcDbBlockEnd
0
BLOCK
5
12F
100
AcDbEntity
8
0
100
AcDbBlockBegin
2
*D1
70
1
10
0
20
0
30
0
3
*D1
0
LINE
5
131
100
AcDbEntity
8
0
62
256
6
ByLayer
370
-2
48
1
60
0
100
AcDbLine
10
0
20
-1.5875
30
0
11
0
21
-16.013398
31
0
39
0
210
0
220
0
230
1
0
LINE
5
132
100
AcDbEntity
8
0
62
256
6
ByLayer
370
-2
48
1
60
0
100
AcDbLine
10
88.8777
20
-5.3875
30
0
11
88.8777
21
-16.013398
31
0
39
0
210
0
220
0
230
1
0
LINE
5
133
100
AcDbEntity
8
0
62
256
6
ByLayer
370
-2
48
1
60
0
100
AcDbLine
10
3.5
20
-14.013398
30
0
11
85.3777
21
-14.013398
31
0
39
0
210
0
220
0
230
1
0
SOLID
5
134
100
AcDbEntity
8
0
62
256
6
ByLayer
370
-1
48
1
60
0
100
AcDbTrace
10
3.5
20
-13.430065
30
0
11
3.5
21
-14.596732
31
0
12
0
22
-14.013398
32
0
13
0
23
-14.013398
33
0
39
0
210
0
220
0
230
1
0
SOLID
5
135
100
AcDbEntity
8
0
62
256
6
ByLayer
370
-1
48
1
60
0
100
AcDbTrace
10
85.3777
20
-14.596732
30
0
11
85.3777
21
-13.430065
31
0
12
88.8777
22
-14.013398
32
0
13
88.8777
23
-14.013398
33
0
39
0
210
0
220
0
230
1
0
MTEXT
5
136
100
AcDbEntity
8
0
62
256
6
ByLayer
370
18
48
1
60
0
100
AcDbMText
10
44.43885
20
-7.013398
30
0
210
0
220
0
230
1
1
\A1;88.88
40
3.5
41
0
44
1
50
0
71
5
72
5
7
iso_b_vert
0
POINT
5
137
100
AcDbEntity
8
Defpoints
62
0
6
ByLayer
370
-1
48
1
60
0
100
AcDbPoint
10
0
20
0
30
0
39
0
210
0
220
0
230
1
50
360
0
POINT
5
138
100
AcDbEntity
8
Defpoints
62
0
6
ByLayer
370
-1
48
1
60
0
100
AcDbPoint
10
88.8777
20
-3.8
30
0
39
0
210
0
220
0
230
1
50
360
0
POINT
5
139
100
AcDbEntity
8
Defpoints
62
0
6
ByLayer
370
-1
48
1
60
0
100
AcDbPoint
10
88.8777
20
-14.013398
30
0
39
0
210
0
220
0
230
1
50
360
0
ENDBLK
5
130
100
AcDbEntity
8
0
100
AcDbBlockEnd
0
BLOCK
5
141
100
AcDbEntity
8
0
100
AcDbBlockBegin
2
_U0
70
0
10
0
20
0
30
0
3
_U0
0
MTEXT
5
13B
100
AcDbEntity
8
SK2
62
256
6
ByLayer
370
13
48
1
60
0
100
AcDbMText
10
39.301551
20
-12.980765
30
0
210
0
220
0
230
1
1
\W0.7317;88,88
40
3.5
41
0
44
1.084337
50
0
71
7
72
5
7
iso_b_vert
0
LINE
5
13C
100
AcDbEntity
8
SK2
62
256
6
ByLayer
370
13
48
1
60
0
100
AcDbLine
10
0
20
-1.5875
30
0
11
0
21
-16.013398
31
0
39
0
210
0
220
0
230
1
0
LINE
5
13D
100
AcDbEntity
8
SK2
62
256
6
ByLayer
370
13
48
1
60
0
100
AcDbLine
10
88.8777
20
-5.3875
30
0
11
88.8777
21
-16.013398
31
0
39
0
210
0
220
0
230
1
0
LINE
5
13E
100
AcDbEntity
8
SK2
62
256
6
ByLayer
370
13
48
1
60
0
100
AcDbLine
10
0
20
-14.013398
30
0
11
88.8777
21
-14.013398
31
0
39
0
210
0
220
0
230
1
0
SOLID
5
13F
100
AcDbEntity
8
SK2
62
256
6
ByLayer
370
18
48
1
60
0
100
AcDbTrace
10
0
20
-14.013398
30
0
11
3.499998
21
-13.552615
31
0
12
3.500002
22
-14.474182
32
0
13
3.500002
23
-14.474182
33
0
39
0
210
0
220
0
230
1
0
SOLID
5
140
100
AcDbEntity
8
SK2
62
256
6
ByLayer
370
18
48
1
60
0
100
AcDbTrace
10
88.8777
20
-14.013398
30
0
11
85.377702
21
-14.474182
31
0
12
85.377698
22
-13.552615
32
0
13
85.377698
23
-13.552615
33
0
39
0
210
0
220
0
230
1
0
ENDBLK
5
142
100
AcDbEntity
8
0
100
AcDbBlockEnd
0
BLOCK
5
147
100
AcDbEntity
8
0
100
AcDbBlockBegin
2
*D3
70
1
10
0
20
0
30
0
3
*D3
0
LINE
5
149
100
AcDbEntity
8
0
62
256
6
ByLayer
370
-2
48
1
60
0
100
AcDbLine
10
-36
20
-5.5875
30
0
11
-36
21
-34.692985
31
0
39
0
210
0
220
0
230
1
0
LINE
5
14A
100
AcDbEntity
8
0
62
256
6
ByLayer
370
-2
48
1
60
0
100
AcDbLine
10
90
20
-1.5875
30
0
11
90
21
-34.692985
31
0
39
0
210
0
220
0
230
1
0
LINE
5
14B
100
AcDbEntity
8
0
62
256
6
ByLayer
370
-2
48
1
60
0
100
AcDbLine
10
-32.5
20
-32.692985
30
0
11
86.5
21
-32.692985
31
0
39
0
210
0
220
0
230
1
0
SOLID
5
14C
100
AcDbEntity
8
0
62
256
6
ByLayer
370
-1
48
1
60
0
100
AcDbTrace
10
-32.5
20
-32.109652
30
0
11
-32.5
21
-33.276319
31
0
12
-36
22
-32.692985
32
0
13
-36
23
-32.692985
33
0
39
0
210
0
220
0
230
1
0
SOLID
5
14D
100
AcDbEntity
8
0
62
256
6
ByLayer
370
-1
48
1
60
0
100
AcDbTrace
10
86.5
20
-33.276319
30
0
11
86.5
21
-32.109652
31
0
12
90
22
-32.692985
32
0
13
90
23
-32.692985
33
0
39
0
210
0
220
0
230
1
0
MTEXT
5
14E
100
AcDbEntity
8
0
62
256
6
ByLayer
370
18
48
1
60
0
100
AcDbMText
10
27
20
-25.692985
30
0
210
0
220
0
230
1
1
\A1;126.00
40
3.5
41
0
44
1
50
0
71
5
72
5
7
iso_b_vert
0
POINT
5
14F
100
AcDbEntity
8
Defpoints
62
0
6
ByLayer
370
-1
48
1
60
0
100
AcDbPoint
10
-36
20
-4
30
0
39
0
210
0
220
0
230
1
50
360
0
POINT
5
150
100
AcDbEntity
8
Defpoints
62
0
6
ByLayer
370
-1
48
1
60
0
100
AcDbPoint
10
90
20
0
30
0
39
0
210
0
220
0
230
1
50
360
0
POINT
5
151
100
AcDbEntity
8
Defpoints
62
0
6
ByLayer
370
-1
48
1
60
0
100
AcDbPoint
10
90
20
-32.692985
30
0
39
0
210
0
220
0
230
1
50
360
0
ENDBLK
5
148
100
AcDbEntity
8
0
100
AcDbBlockEnd
0
BLOCK
5
159
100
AcDbEntity
8
0
100
AcDbBlockBegin
2
_U1
70
0
10
0
20
0
30
0
3
_U1
0
MTEXT
5
153
100
AcDbEntity
8
SK2
62
256
6
ByLayer
370
13
48
1
60
0
100
AcDbMText
10
20.992401
20
-31.660352
30
0
210
0
220
0
230
1
1
\W0.6930;126,00
40
3.5
41
0
44
1.084337
50
0
71
7
72
5
7
iso_b_vert
0
LINE
5
154
100
AcDbEntity
8
SK2
62
256
6
ByLayer
370
13
48
1
60
0
100
AcDbLine
10
-36
20
-5.5875
30
0
11
-36
21
-34.692985
31
0
39
0
210
0
220
0
230
1
0
LINE
5
155
100
AcDbEntity
8
SK2
62
256
6
ByLayer
370
13
48
1
60
0
100
AcDbLine
10
90
20
-1.5875
30
0
11
90
21
-34.692985
31
0
39
0
210
0
220
0
230
1
0
LINE
5
156
100
AcDbEntity
8
SK2
62
256
6
ByLayer
370
13
48
1
60
0
100
AcDbLine
10
-36
20
-32.692985
30
0
11
90
21
-32.692985
31
0
39
0
210
0
220
0
230
1
0
SOLID
5
157
100
AcDbEntity
8
SK2
62
256
6
ByLayer
370
18
48
1
60
0
100
AcDbTrace
10
-36
20
-32.692985
30
0
11
-32.500002
21
-32.232202
31
0
12
-32.499998
22
-33.153769
32
0
13
-32.499998
23
-33.153769
33
0
39
0
210
0
220
0
230
1
0
SOLID
5
158
100
AcDbEntity
8
SK2
62
256
6
ByLayer
370
18
48
1
60
0
100
AcDbTrace
10
90
20
-32.692985
30
0
11
86.500002
21
-33.153769
31
0
12
86.499998
22
-32.232202
32
0
13
86.499998
23
-32.232202
33
0
39
0
210
0
220
0
230
1
0
ENDBLK
5
15A
100
AcDbEntity
8
0
100
AcDbBlockEnd
0
BLOCK
5
15F
100
AcDbEntity
8
0
100
AcDbBlockBegin
2
*D5
70
1
10
0
20
0
30
0
3
*D5
0
LINE
5
161
100
AcDbEntity
8
0
62
256
6
ByLayer
370
-2
48
1
60
0
100
AcDbLine
10
28.08
20
5.3875
30
0
11
28.08
21
17.409119
31
0
39
0
210
0
220
0
230
1
0
LINE
5
162
100
AcDbEntity
8
0
62
256
6
ByLayer
370
-2
48
1
60
0
100
AcDbLine
10
90
20
1.5875
30
0
11
90
21
17.409119
31
0
39
0
210
0
220
0
230
1
0
LINE
5
163
100
AcDbEntity
8
0
62
256
6
ByLayer
370
-2
48
1
60
0
100
AcDbLine
10
31.58
20
15.409119
30
0
11
86.5
21
15.409119
31
0
39
0
210
0
220
0
230
1
0
SOLID
5
164
100
AcDbEntity
8
0
62
256
6
ByLayer
370
-1
48
1
60
0
100
AcDbTrace
10
31.58
20
15.992453
30
0
11
31.58
21
14.825786
31
0
12
28.08
22
15.409119
32
0
13
28.08
23
15.409119
33
0
39
0
210
0
220
0
230
1
0
SOLID
5
165
100
AcDbEntity
8
0
62
256
6
ByLayer
370
-1
48
1
60
0
100
AcDbTrace
10
86.5
20
14.825786
30
0
11
86.5
21
15.992453
31
0
12
90
22
15.409119
32
0
13
90
23
15.409119
33
0
39
0
210
0
220
0
230
1
0
MTEXT
5
166
100
AcDbEntity
8
0
62
256
6
ByLayer
370
18
48
1
60
0
100
AcDbMText
10
59.04
20
22.409119
30
0
210
0
220
0
230
1
1
\A1;61.92
40
3.5
41
0
44
1
50
0
71
5
72
5
7
iso_b_vert
0
POINT
5
167
100
AcDbEntity
8
Defpoints
62
0
6
ByLayer
370
-1
48
1
60
0
100
AcDbPoint
10
28.08
20
3.8
30
0
39
0
210
0
220
0
230
1
50
360
0
POINT
5
168
100
AcDbEntity
8
Defpoints
62
0
6
ByLayer
370
-1
48
1
60
0
100
AcDbPoint
10
90
20
0
30
0
39
0
210
0
220
0
230
1
50
360
0
POINT
5
169
100
AcDbEntity
8
Defpoints
62
0
6
ByLayer
370
-1
48
1
60
0
100
AcDbPoint
10
90
20
15.409119
30
0
39
0
210
0
220
0
230
1
50
360
0
ENDBLK
5
160
100
AcDbEntity
8
0
100
AcDbBlockEnd
0
BLOCK
5
171
100
AcDbEntity
8
0
100
AcDbBlockBegin
2
_U2
70
0
10
0
20
0
30
0
3
_U2
0
MTEXT
5
16B
100
AcDbEntity
8
SK2
62
256
6
ByLayer
370
13
48
1
60
0
100
AcDbMText
10
54.340135
20
16.441753
30
0
210
0
220
0
230
1
1
\W0.6713;61,92
40
3.5
41
0
44
1.084337
50
0
71
7
72
5
7
iso_b_vert
0
LINE
5
16C
100
AcDbEntity
8
SK2
62
256
6
ByLayer
370
13
48
1
60
0
100
AcDbLine
10
28.08
20
5.3875
30
0
11
28.08
21
17.409119
31
0
39
0
210
0
220
0
230
1
0
LINE
5
16D
100
AcDbEntity
8
SK2
62
256
6
ByLayer
370
13
48
1
60
0
100
AcDbLine
10
90
20
1.5875
30
0
11
90
21
17.409119
31
0
39
0
210
0
220
0
230
1
0
LINE
5
16E
100
AcDbEntity
8
SK2
62
256
6
ByLayer
370
13
48
1
60
0
100
AcDbLine
10
28.08
20
15.409119
30
0
11
90
21
15.409119
31
0
39
0
210
0
220
0
230
1
0
SOLID
5
16F
100
AcDbEntity
8
SK2
62
256
6
ByLayer
370
18
48
1
60
0
100
AcDbTrace
10
28.08
20
15.409119
30
0
11
31.579998
21
15.869903
31
0
12
31.580002
22
14.948335
32
0
13
31.580002
23
14.948335
33
0
39
0
210
0
220
0
230
1
0
SOLID
5
170
100
AcDbEntity
8
SK2
62
256
6
ByLayer
370
18
48
1
60
0
100
AcDbTrace
10
90
20
15.409119
30
0
11
86.500002
21
14.948335
31
0
12
86.499998
22
15.869903
32
0
13
86.499998
23
15.869903
33
0
39
0
210
0
220
0
230
1
0
ENDBLK
5
172
100
AcDbEntity
8
0
100
AcDbBlockEnd
0
BLOCK
5
177
100
AcDbEntity
8
0
100
AcDbBlockBegin
2
*D7
70
1
10
0
20
0
30
0
3
*D7
0
LINE
5
179
100
AcDbEntity
8
0
62
256
6
ByLayer
370
-2
48
1
60
0
100
AcDbLine
10
90
20
-1.5875
30
0
11
90
21
-18.602503
31
0
39
0
210
0
220
0
230
1
0
LINE
5
17A
100
AcDbEntity
8
0
62
256
6
ByLayer
370
-2
48
1
60
0
100
AcDbLine
10
88.8777
20
-5.3875
30
0
11
88.8777
21
-18.602503
31
0
39
0
210
0
220
0
230
1
0
LINE
5
17B
100
AcDbEntity
8
0
62
256
6
ByLayer
370
-2
48
1
60
0
100
AcDbLine
10
90
20
-16.602503
30
0
11
117.666667
21
-16.602503
31
0
39
0
210
0
220
0
230
1
0
LINE
5
17C
100
AcDbEntity
8
0
62
256
6
ByLayer
370
-2
48
1
60
0
100
AcDbLine
10
93.5
20
-16.602503
30
0
11
97
21
-16.602503
31
0
39
0
210
0
220
0
230
1
0
LINE
5
17D
100
AcDbEntity
8
0
62
256
6
ByLayer
370
-2
48
1
60
0
100
AcDbLine
10
85.3777
20
-16.602503
30
0
11
81.8777
21
-16.602503
31
0
39
0
210
0
220
0
230
1
0
SOLID
5
17E
100
AcDbEntity
8
0
62
256
6
ByLayer
370
-1
48
1
60
0
100
AcDbTrace
10
93.5
20
-16.01917
30
0
11
93.5
21
-17.185837
31
0
12
90
22
-16.602503
32
0
13
90
23
-16.602503
33
0
39
0
210
0
220
0
230
1
0
SOLID
5
17F
100
AcDbEntity
8
0
62
256
6
ByLayer
370
-1
48
1
60
0
100
AcDbTrace
10
85.3777
20
-17.185837
30
0
11
85.3777
21
-16.01917
31
0
12
88.8777
22
-16.602503
32
0
13
88.8777
23
-16.602503
33
0
39
0
210
0
220
0
230
1
0
MTEXT
5
180
100
AcDbEntity
8
0
62
256
6
ByLayer
370
18
48
1
60
0
100
AcDbMText
10
107.333333
20
-9.602503
30
0
210
0
220
0
230
1
1
\A1;1.12
40
3.5
41
0
44
1
50
0
71
5
72
5
7
iso_b_vert
0
POINT
5
181
100
AcDbEntity
8
Defpoints
62
0
6
ByLayer
370
-1
48
1
60
0
100
AcDbPoint
10
90
20
0
30
0
39
0
210
0
220
0
230
1
50
360
0
POINT
5
182
100
AcDbEntity
8
Defpoints
62
0
6
ByLayer
370
-1
48
1
60
0
100
AcDbPoint
10
88.8777
20
-3.8
30
0
39
0
210
0
220
0
230
1
50
360
0
POINT
5
183
100
AcDbEntity
8
Defpoints
62
0
6
ByLayer
370
-1
48
1
60
0
100
AcDbPoint
10
88.8777
20
-16.602503
30
0
39
0
210
0
220
0
230
1
50
360
0
ENDBLK
5
178
100
AcDbEntity
8
0
100
AcDbBlockEnd
0
BLOCK
5
18B
100
AcDbEntity
8
0
100
AcDbBlockBegin
2
_U3
70
0
10
0
20
0
30
0
3
_U3
0
MTEXT
5
185
100
AcDbEntity
8
SK2
62
256
6
ByLayer
370
13
48
1
60
0
100
AcDbMText
10
97.026726
20
-15.56987
30
0
210
0
220
0
230
1
1
\W0.5583;1,12
40
3.5
41
0
44
1.084337
50
0
71
7
72
5
7
iso_b_vert
0
LINE
5
186
100
AcDbEntity
8
SK2
62
256
6
ByLayer
370
13
48
1
60
0
100
AcDbLine
10
90
20
-1.5875
30
0
11
90
21
-18.602503
31
0
39
0
210
0
220
0
230
1
0
LINE
5
187
100
AcDbEntity
8
SK2
62
256
6
ByLayer
370
13
48
1
60
0
100
AcDbLine
10
88.8777
20
-5.3875
30
0
11
88.8777
21
-18.602503
31
0
39
0
210
0
220
0
230
1
0
LINE
5
188
100
AcDbEntity
8
SK2
62
256
6
ByLayer
370
13
48
1
60
0
100
AcDbLine
10
80.1277
20
-16.602503
30
0
11
103.121624
21
-16.602503
31
0
39
0
210
0
220
0
230
1
0
SOLID
5
189
100
AcDbEntity
8
SK2
62
256
6
ByLayer
370
18
48
1
60
0
100
AcDbTrace
10
90
20
-16.602503
30
0
11
93.499998
21
-16.141719
31
0
12
93.500002
22
-17.063287
32
0
13
93.500002
23
-17.063287
33
0
39
0
210
0
220
0
230
1
0
SOLID
5
18A
100
AcDbEntity
8
SK2
62
256
6
ByLayer
370
18
48
1
60
0
100
AcDbTrace
10
88.8777
20
-16.602503
30
0
11
85.377702
21
-17.063287
31
0
12
85.377698
22
-16.141719
32
0
13
85.377698
23
-16.141719
33
0
39
0
210
0
220
0
230
1
0
ENDBLK
5
18C
100
AcDbEntity
8
0
100
AcDbBlockEnd
0
BLOCK
5
191
100
AcDbEntity
8
0
100
AcDbBlockBegin
2
*D9
70
1
10
0
20
0
30
0
3
*D9
0
LINE
5
193
100
AcDbEntity
8
0
62
256
6
ByLayer
370
-2
48
1
60
0
100
AcDbLine
10
-36
20
-5.5875
30
0
11
-36
21
-24.343428
31
0
39
0
210
0
220
0
230
1
0
LINE
5
194
100
AcDbEntity
8
0
62
256
6
ByLayer
370
-2
48
1
60
0
100
AcDbLine
10
88.8777
20
-5.3875
30
0
11
88.8777
21
-24.343428
31
0
39
0
210
0
220
0
230
1
0
LINE
5
195
100
AcDbEntity
8
0
62
256
6
ByLayer
370
-2
48
1
60
0
100
AcDbLine
10
-32.5
20
-22.343428
30
0
11
85.3777
21
-22.343428
31
0
39
0
210
0
220
0
230
1
0
SOLID
5
196
100
AcDbEntity
8
0
62
256
6
ByLayer
370
-1
48
1
60
0
100
AcDbTrace
10
-32.5
20
-21.760095
30
0
11
-32.5
21
-22.926762
31
0
12
-36
22
-22.343428
32
0
13
-36
23
-22.343428
33
0
39
0
210
0
220
0
230
1
0
SOLID
5
197
100
AcDbEntity
8
0
62
256
6
ByLayer
370
-1
48
1
60
0
100
AcDbTrace
10
85.3777
20
-22.926762
30
0
11
85.3777
21
-21.760095
31
0
12
88.8777
22
-22.343428
32
0
13
88.8777
23
-22.343428
33
0
39
0
210
0
220
0
230
1
0
MTEXT
5
198
100
AcDbEntity
8
0
62
256
6
ByLayer
370
18
48
1
60
0
100
AcDbMText
10
26.43885
20
-15.343428
30
0
210
0
220
0
230
1
1
\A1;124.88
40
3.5
41
0
44
1
50
0
71
5
72
5
7
iso_b_vert
0
POINT
5
199
100
AcDbEntity
8
Defpoints
62
0
6
ByLayer
370
-1
48
1
60
0
100
AcDbPoint
10
-36
20
-4
30
0
39
0
210
0
220
0
230
1
50
360
0
POINT
5
19A
100
AcDbEntity
8
Defpoints
62
0
6
ByLayer
370
-1
48
1
60
0
100
AcDbPoint
10
88.8777
20
-3.8
30
0
39
0
210
0
220
0
230
1
50
360
0
POINT
5
19B
100
AcDbEntity
8
Defpoints
62
0
6
ByLayer
370
-1
48
1
60
0
100
AcDbPoint
10
88.8777
20
-22.343428
30
0
39
0
210
0
220
0
230
1
50
360
0
ENDBLK
5
192
100
AcDbEntity
8
0
100
AcDbBlockEnd
0
BLOCK
5
1A3
100
AcDbEntity
8
0
100
AcDbBlockBegin
2
_U4
70
0
10
0
20
0
30
0
3
_U4
0
MTEXT
5
19D
100
AcDbEntity
8
SK2
62
256
6
ByLayer
370
13
48
1
60
0
100
AcDbMText
10
20.246985
20
-21.310795
30
0
210
0
220
0
230
1
1
\W0.7145;124,88
40
3.5
41
0
44
1.084337
50
0
71
7
72
5
7
iso_b_vert
0
LINE
5
19E
100
AcDbEntity
8
SK2
62
256
6
ByLayer
370
13
48
1
60
0
100
AcDbLine
10
-36
20
-5.5875
30
0
11
-36
21
-24.343428
31
0
39
0
210
0
220
0
230
1
0
LINE
5
19F
100
AcDbEntity
8
SK2
62
256
6
ByLayer
370
13
48
1
60
0
100
AcDbLine
10
88.8777
20
-5.3875
30
0
11
88.8777
21
-24.343428
31
0
39
0
210
0
220
0
230
1
0
LINE
5
1A0
100
AcDbEntity
8
SK2
62
256
6
ByLayer
370
13
48
1
60
0
100
AcDbLine
10
-36
20
-22.343428
30
0
11
88.8777
21
-22.343428
31
0
39
0
210
0
220
0
230
1
0
SOLID
5
1A1
100
AcDbEntity
8
SK2
62
256
6
ByLayer
370
18
48
1
60
0
100
AcDbTrace
10
-36
20
-22.343428
30
0
11
-32.500002
21
-21.882645
31
0
12
-32.499998
22
-22.804212
32
0
13
-32.499998
23
-22.804212
33
0
39
0
210
0
220
0
230
1
0
SOLID
5
1A2
100
AcDbEntity
8
SK2
62
256
6
ByLayer
370
18
48
1
60
0
100
AcDbTrace
10
88.8777
20
-22.343428
30
0
11
85.377702
21
-22.804212
31
0
12
85.377698
22
-21.882645
32
0
13
85.377698
23
-21.882645
33
0
39
0
210
0
220
0
230
1
0
ENDBLK
5
1A4
100
AcDbEntity
8
0
100
AcDbBlockEnd
0
ENDSEC
0
SECTION
2
ENTITIES
0
ARC
5
B3
100
AcDbEntity
8
1
62
256
6
ByLayer
370
18
48
1
60
0
100
AcDbCircle
39
0
10
0.866494
20
-4.54506
30
0
40
0.800000000000002
210
0
220
0
230
1
100
AcDbArc
50
89.96419
51
122.789823
0
ARC
5
B4
100
AcDbEntity
8
1
62
256
6
ByLayer
370
18
48
1
60
0
100
AcDbCircle
39
0
10
0.866494
20
4.54506
30
0
40
0.800000000000002
210
0
220
0
230
1
100
AcDbArc
50
237.210177
51
270.03581
0
ARC
5
B5
100
AcDbEntity
8
1
62
256
6
ByLayer
370
18
48
1
60
0
100
AcDbCircle
39
0
10
0
20
-3.2
30
0
40
0.799999999999998
210
0
220
0
230
1
100
AcDbArc
50
270
51
302.789823
0
ARC
5
B6
100
AcDbEntity
8
1
62
256
6
ByLayer
370
18
48
1
60
0
100
AcDbCircle
39
0
10
0
20
3.2
30
0
40
0.799999999999998
210
0
220
0
230
1
100
AcDbArc
50
57.210177
51
90
0
ELLIPSE
5
B7
100
AcDbEntity
8
1
62
256
6
ByLayer
370
13
48
1
60
0
100
AcDbEllipse
10
8.167566
20
0.995512
30
0
11
0.0623466239006155
21
0.0781850272635062
31
0
210
0
220
0
230
1
40
0.337213
41
2.11804258785947
42
2.74979016710653
0
POINT
5
70
100
AcDbEntity
8
80
62
256
6
ByLayer
370
18
48
1
60
0
100
AcDbPoint
10
0
20
0
30
0
39
0
210
0
220
0
230
1
50
360
0
POINT
5
72
100
AcDbEntity
8
81
62
256
6
ByLayer
370
18
48
1
60
0
100
AcDbPoint
10
90
20
0
30
0
39
0
210
0
220
0
230
1
50
360
0
POINT
5
74
100
AcDbEntity
8
1
62
256
6
ByLayer
370
18
48
1
60
1
100
AcDbPoint
10
88.8777
20
-3.8
30
0
39
0
210
0
220
0
230
1
50
360
0
POINT
5
76
100
AcDbEntity
8
1
62
256
6
ByLayer
370
18
48
1
60
1
100
AcDbPoint
10
-36
20
-4
30
0
39
0
210
0
220
0
230
1
50
360
0
POINT
5
77
100
AcDbEntity
8
1
62
256
6
ByLayer
370
18
48
1
60
1
100
AcDbPoint
10
28.08
20
3.8
30
0
39
0
210
0
220
0
230
1
50
360
0
POINT
5
78
100
AcDbEntity
8
1
62
256
6
ByLayer
370
18
48
1
60
1
100
AcDbPoint
10
88.8777
20
-3.8
30
0
39
0
210
0
220
0
230
1
50
360
0
POINT
5
79
100
AcDbEntity
8
1
62
256
6
ByLayer
370
18
48
1
60
1
100
AcDbPoint
10
-36
20
-4
30
0
39
0
210
0
220
0
230
1
50
360
0
POINT
5
7A
100
AcDbEntity
8
1
62
256
6
ByLayer
370
18
48
1
60
1
100
AcDbPoint
10
88.8777
20
-3.8
30
0
39
0
210
0
220
0
230
1
50
360
0
SPLINE
5
B8
100
AcDbEntity
8
SK1
62
256
6
ByLayer
370
18
48
1
60
0
100
AcDbSpline
70
4
71
3
72
12
73
8
40
0
40
0
40
0
40
0
40
0.5
40
0.5
40
0.75
40
0.75
40
1
40
1
40
1
40
1
41
1
10
-35.5
20
-2.77936865510318
30
0
41
1
10
-35.4764535706457
20
-2.79653444641104
30
0
41
1
10
-35.453758325367
20
-2.8088046282154
30
0
41
1
10
-35.4256589034923
20
-2.81611916311721
30
0
41
1
10
-35.4170915256394
20
-2.81668439117777
30
0
41
1
10
-35.4042768359918
20
-2.81187293925683
30
0
41
1
10
-35.4
20
-2.80625407765447
30
0
41
1
10
-35.4
20
-2.79684973694952
30
0
0
SPLINE
5
B9
100
AcDbEntity
8
SK1
62
256
6
ByLayer
370
18
48
1
60
0
100
AcDbSpline
70
4
71
3
72
8
73
4
40
0
40
0
40
0
40
0
40
1
40
1
40
1
40
1
41
1
10
-36
20
-2.41299422300997
30
0
41
1
10
-35.8338572189358
20
-2.53547535384169
30
0
41
1
10
-35.6671078248234
20
-2.6575438975712
30
0
41
1
10
-35.5
20
-2.77936865510307
30
0
0
SPLINE
5
BA
100
AcDbEntity
8
SK1
62
256
6
ByLayer
370
18
48
1
60
0
100
AcDbSpline
70
4
71
3
72
8
73
4
40
0
40
0
40
0
40
0
40
1
40
1
40
1
40
1
41
1
10
-35.5
20
-1.72225577623041
30
0
41
1
10
-35.6671088782559
20
-1.60043025072639
30
0
41
1
10
-35.8338584626699
20
-1.47836155808324
30
0
41
1
10
-36
20
-1.35588134413732
30
0
0
SPLINE
5
BB
100
AcDbEntity
8
SK1
62
256
6
ByLayer
370
18
48
1
60
0
100
AcDbSpline
70
4
71
3
72
12
73
8
40
0
40
0
40
0
40
0
40
0.25
40
0.25
40
0.5
40
0.5
40
1
40
1
40
1
40
1
41
1
10
-35.4
20
-1.88068524192658
30
0
41
1
10
-35.4
20
-1.86660409174203
30
0
41
1
10
-35.4042405317345
20
-1.85036040086516
30
0
41
1
10
-35.4170629445097
20
-1.8192443013784
30
0
41
1
10
-35.4255309618335
20
-1.80429690522465
30
0
41
1
10
-35.4538111153162
20
-1.76282709187919
30
0
41
1
10
-35.4764597265186
20
-1.73941707979068
30
0
41
1
10
-35.5
20
-1.72225577623035
30
0
0
SPLINE
5
BC
100
AcDbEntity
8
1
62
256
6
ByLayer
370
18
48
1
60
0
100
AcDbSpline
70
4
71
3
72
41
73
37
40
0
40
0
40
0
40
0
40
0.0625000000000001
40
0.0625000000000001
40
0.125
40
0.125
40
0.1875
40
0.1875
40
0.25
40
0.25
40
0.3125
40
0.3125
40
0.375000000000001
40
0.375000000000001
40
0.437500000000001
40
0.437500000000001
40
0.500000000000001
40
0.500000000000001
40
0.625000000000001
40
0.625000000000001
40
0.750000000000001
40
0.750000000000001
40
0.781250000000001
40
0.796875000000001
40
0.796875000000001
40
0.812500000000002
40
0.812500000000002
40
0.828125000000002
40
0.828125000000002
40
0.843750000000002
40
0.843750000000002
40
0.859375000000002
40
0.859375000000002
40
0.875000000000002
40
0.875000000000002
40
1
40
1
40
1
40
1
41
1
10
87.027348355165
20
-1.92727889138274
30
0
41
1
10
87.1049424832807
20
-1.94263020544739
30
0
41
1
10
87.182660974466
20
-1.95501497789437
30
0
41
1
10
87.3384225344222
20
-1.97204208833551
30
0
41
1
10
87.4167318889995
20
-1.97663718576891
30
0
41
1
10
87.5704488003099
20
-1.97585829059631
30
0
41
1
10
87.6461876813096
20
-1.97055887328477
30
0
41
1
10
87.7948336716907
20
-1.94754111434742
30
0
41
1
10
87.8683068515869
20
-1.92958122450955
30
0
41
1
10
88.0085596621645
20
-1.87907208382566
30
0
41
1
10
88.0751461919125
20
-1.84674837094605
30
0
41
1
10
88.2004103454047
20
-1.76630683513756
30
0
41
1
10
88.2595924031963
20
-1.71749204370039
30
0
41
1
10
88.365860832388
20
-1.60672546275416
30
0
41
1
10
88.4132296270703
20
-1.54491347161718
30
0
41
1
10
88.4980557738364
20
-1.41023778824152
30
0
41
1
10
88.5356758783066
20
-1.33688215689159
30
0
41
1
10
88.6337937111855
20
-1.10898286338048
30
0
41
1
10
88.6810686434694
20
-0.945642115217311
30
0
41
1
10
88.7554493443363
20
-0.606274503712598
30
0
41
1
10
88.7822920717094
20
-0.430224451031421
30
0
41
1
10
88.8080313091629
20
-0.20788827415123
30
0
41
1
10
88.8151586013599
20
-0.140944937252641
30
0
41
1
10
88.8215002158938
20
-0.0736811279404606
30
0
41
1
10
88.8255634053056
20
-0.0287714681341527
30
0
41
1
10
88.828264206387
20
-0.0065049161639763
30
0
41
1
10
88.8285074126461
20
0.0395398782538621
30
0
41
1
10
88.8254855313576
20
0.0631609530816775
30
0
41
1
10
88.8164639787117
20
0.109744252463315
30
0
41
1
10
88.8103336156487
20
0.133018694106056
30
0
41
1
10
88.7963646500006
20
0.17931347343162
30
0
41
1
10
88.788660392078
20
0.202305313753669
30
0
41
1
10
88.7737053203749
20
0.248386987420133
30
0
41
1
10
88.7664059572019
20
0.271466328840091
30
0
41
1
10
88.7009368500712
20
0.479229060862593
30
0
41
1
10
88.6471732637291
20
0.664996357462627
30
0
41
1
10
88.5967454076762
20
0.851049250907607
30
0
0
SPLINE
5
BD
100
AcDbEntity
8
1
62
256
6
ByLayer
370
13
48
1
60
0
100
AcDbSpline
70
4
71
3
72
10
73
6
40
0
40
0
40
0
40
0
40
0.5
40
0.5
40
1
40
1
40
1
40
1
41
1
10
8.00340288294205
20
1.11234345516408
30
0
41
1
10
8.00889000370125
20
1.08468616548836
30
0
41
1
10
8.02076240992196
20
1.05837917434704
30
0
41
1
10
8.05780442932456
20
1.01016357817079
30
0
41
1
10
8.08202022672276
20
0.989350087898003
30
0
41
1
10
8.11260976101823
20
0.972783575825162
30
0
0
SPLINE
5
BE
100
AcDbEntity
8
1
62
256
6
ByLayer
370
18
48
1
60
0
100
AcDbSpline
70
4
71
3
72
16
73
12
40
0
40
0
40
0
40
0
40
0.25
40
0.25
40
0.5
40
0.5
40
0.75
40
0.75
40
0.875
40
0.875
40
1
40
1
40
1
40
1
41
1
10
8.24901479369601
20
-3.0487545772564
30
0
41
1
10
8.22521253870849
20
-3.06325808561698
30
0
41
1
10
8.20146611064098
20
-3.08000073240856
30
0
41
1
10
8.15412607640724
20
-3.11865815153689
30
0
41
1
10
8.13029571192936
20
-3.14074474517406
30
0
41
1
10
8.08390153387239
20
-3.19189507544442
30
0
41
1
10
8.06138257923837
20
-3.22101223628368
30
0
41
1
10
8.03333495033326
20
-3.26852936165162
30
0
41
1
10
8.02477554795388
20
-3.28539622506517
30
0
41
1
10
8.01120658643023
20
-3.31879189325483
30
0
41
1
10
8.00609150934264
20
-3.33565219104949
30
0
41
1
10
8.00316416122482
20
-3.35117859567282
30
0
0
SPLINE
5
BF
100
AcDbEntity
8
1
62
256
6
ByLayer
370
18
48
1
60
0
100
AcDbSpline
70
4
71
3
72
10
73
6
40
0
40
0
40
0
40
0
40
0.5
40
0.5
40
1
40
1
40
1
40
1
41
1
10
8.11040765463395
20
0.937312372894041
30
0
41
1
10
8.08569318058341
20
0.953414769752129
30
0
41
1
10
8.06449520574162
20
0.973288654249558
30
0
41
1
10
8.02977419478813
20
1.01976616375987
30
0
41
1
10
8.01696716476897
20
1.04548613601023
30
0
41
1
10
8.00906120378306
20
1.07286919125016
30
0
0
SPLINE
5
C0
100
AcDbEntity
8
1
62
256
6
ByLayer
370
13
48
1
60
0
100
AcDbSpline
70
4
71
3
72
10
73
6
40
0
40
0
40
0
40
0
40
0.5
40
0.5
40
1
40
1
40
1
40
1
41
1
10
8.11260976101823
20
0.972783575825105
30
0
41
1
10
8.13328163644135
20
0.961588215005037
30
0
41
1
10
8.15584620722871
20
0.950605341853048
30
0
41
1
10
8.20218397775264
20
0.930061827882099
30
0
41
1
10
8.22589485087667
20
0.92049490149941
30
0
41
1
10
8.2501264940795
20
0.911573443136007
30
0
0
SPLINE
5
C1
100
AcDbEntity
8
1
62
256
6
ByLayer
370
18
48
1
60
0
100
AcDbSpline
70
4
71
3
72
14
73
10
40
0
40
0
40
0
40
0
40
0.338410406469363
40
0.338410406469363
40
0.507615609704041
40
0.507615609704041
40
0.676820812938719
40
0.676820812938719
40
1
40
1
40
1
40
1
41
1
10
88.7052864227006
20
-3.58718519284733
30
0
41
1
10
88.284897103429
20
-3.59952382831881
30
0
41
1
10
87.8665241315907
20
-3.58099431375271
30
0
41
1
10
87.2380996017187
20
-3.50811022238071
30
0
41
1
10
87.0284823035577
20
-3.47631748865524
30
0
41
1
10
86.6081106560347
20
-3.39786713609647
30
0
41
1
10
86.3967503311569
20
-3.35103244166621
30
0
41
1
10
85.7850942845932
20
-3.1949280741793
30
0
41
1
10
85.3868858552884
20
-3.06775462145427
30
0
41
1
10
84.9892956761798
20
-2.91849372266788
30
0
0
SPLINE
5
C2
100
AcDbEntity
8
1
62
256
6
ByLayer
370
13
48
1
60
0
100
AcDbSpline
70
4
71
3
72
22
73
18
40
0
40
0
40
0
40
0
40
0.160105562256498
40
0.160105562256498
40
0.236710474763097
40
0.236710474763097
40
0.313315387269697
40
0.313315387269697
40
0.466525212282896
40
0.466525212282896
40
0.619735037296096
40
0.619735037296096
40
0.696339949802695
40
0.696339949802695
40
0.772944862309295
40
0.772944862309295
40
1
40
1
40
1
40
1
41
1
10
84.9892960804771
20
-2.91849387444663
30
0
41
1
10
84.554229446536
20
-2.75516380835509
30
0
41
1
10
84.1199031081619
20
-2.56538617213837
30
0
41
1
10
83.4737527301214
20
-2.25079191766176
30
0
41
1
10
83.2640099119113
20
-2.14368578237364
30
0
41
1
10
82.8423930790862
20
-1.91973118972774
30
0
41
1
10
82.6317450745666
20
-1.80356898140812
30
0
41
1
10
82.0033246968711
20
-1.44613269752676
30
0
41
1
10
81.5873240016464
20
-1.19514564186818
30
0
41
1
10
80.7547774979536
20
-0.677591170512983
30
0
41
1
10
80.3381734372942
20
-0.411090624280632
30
0
41
1
10
79.7086420942543
20
-0.0059726763705612
30
0
41
1
10
79.4972693249445
20
0.130333582445417
30
0
41
1
10
79.0765055524325
20
0.400329972062536
30
0
41
1
10
78.8670097307148
20
0.534089251857154
30
0
41
1
10
78.0389123143233
20
1.05787644690295
30
0
41
1
10
77.4241361658717
20
1.43395928524222
30
0
41
1
10
76.8040678222741
20
1.77993746991063
30
0
0
SPLINE
5
C3
100
AcDbEntity
8
1
62
256
6
ByLayer
370
18
48
1
60
0
100
AcDbSpline
70
4
71
3
72
14
73
10
40
0
40
0
40
0
40
0
40
0.350395459188212
40
0.350395459188212
40
0.540004591617612
40
0.540004591617612
40
0.729613724047013
40
0.729613724047013
40
1
40
1
40
1
40
1
41
1
10
53.4497770902598
20
-3.56890640591635
30
0
41
1
10
53.0642926146703
20
-3.56865029799687
30
0
41
1
10
52.6783370626857
20
-3.54277109148117
30
0
41
1
10
52.0785845323558
20
-3.46294209725519
30
0
41
1
10
51.8667416165664
20
-3.42714962768616
30
0
41
1
10
51.4462891206958
20
-3.3416445361708
30
0
41
1
10
51.2369436284701
20
-3.29189610375389
30
0
41
1
10
50.7302258046545
20
-3.15492980618868
30
0
41
1
10
50.4333855649107
20
-3.06083974743112
30
0
41
1
10
50.1364431591209
20
-2.95412551443738
30
0
0
SPLINE
5
C4
100
AcDbEntity
8
1
62
256
6
ByLayer
370
13
48
1
60
0
100
AcDbSpline
70
4
71
3
72
24
73
20
40
0
40
0
40
0
40
0
40
0.191802032468869
40
0.191802032468869
40
0.266317754337599
40
0.266317754337599
40
0.340833476206327
40
0.340833476206327
40
0.415349198075057
40
0.415349198075057
40
0.489864919943785
40
0.489864919943785
40
0.787927807418693
40
0.787927807418693
40
0.862443529287422
40
0.862443529287422
40
0.936959251156149
40
0.936959251156149
40
1
40
1
40
1
40
1
41
1
10
50.1364431594362
20
-2.95412551455067
30
0
41
1
10
49.6004587940434
20
-2.76150512982454
30
0
41
1
10
49.0641415649925
20
-2.52775435984091
30
0
41
1
10
48.3099231731949
20
-2.15389382591999
30
0
41
1
10
48.0984740679011
20
-2.04415868638532
30
0
41
1
10
47.6772167131395
20
-1.81723367652196
30
0
41
1
10
47.4668547122077
20
-1.69988530487492
30
0
41
1
10
47.045996832277
20
-1.45838634371557
30
0
41
1
10
46.8355199426647
20
-1.33418522769455
30
0
41
1
10
46.4136228398709
20
-1.08005835746417
30
0
41
1
10
46.2018489329511
20
-0.949917242697836
30
0
41
1
10
45.1497161391594
20
-0.294435048189655
30
0
41
1
10
44.3211525831427
20
0.248944427327302
30
0
41
1
10
43.2717758850806
20
0.904127940144122
30
0
41
1
10
43.0608826234806
20
1.03412514547878
30
0
41
1
10
42.6382148362953
20
1.28950545208625
30
0
41
1
10
42.42789907121
20
1.41401218678286
30
0
41
1
10
42.0408687498654
20
1.63729333825998
30
0
41
1
10
41.8639288189891
20
1.73698150736951
30
0
41
1
10
41.6872049699565
20
1.83376823806924
30
0
0
SPLINE
5
C5
100
AcDbEntity
8
1
62
256
6
ByLayer
370
18
48
1
60
0
100
AcDbSpline
70
4
71
3
72
14
73
10
40
0
40
0
40
0
40
0
40
0.0392635060912349
40
0.0392635060912349
40
0.802055350424462
40
0.802055350424462
40
0.992753311507767
40
0.992753311507767
40
1
40
1
40
1
40
1
41
1
10
18.4421377606642
20
-3.54679951464979
30
0
41
1
10
18.3986994969872
20
-3.5467382189677
30
0
41
1
10
18.355304529047
20
-3.54635330750145
30
0
41
1
10
17.4701537512252
20
-3.53187295676062
30
0
41
1
10
16.6406846298047
20
-3.39699311633819
30
0
41
1
10
15.5890723465881
20
-3.08968299343712
30
0
41
1
10
15.3774134411645
20
-3.02106064730032
30
0
41
1
10
15.1579992248729
20
-2.94330199150926
30
0
41
1
10
15.149967959372
20
-2.94044660148438
30
0
41
1
10
15.1419380890581
20
-2.93758256728864
30
0
0
SPLINE
5
C6
100
AcDbEntity
8
1
62
256
6
ByLayer
370
13
48
1
60
0
100
AcDbSpline
70
4
71
3
72
18
73
14
40
0
40
0
40
0
40
0
40
0.0877577599786662
40
0.0877577599786662
40
0.270206207982932
40
0.270206207982932
40
0.452654655987198
40
0.452654655987198
40
0.54387887998933
40
0.54387887998933
40
0.635103103991464
40
0.635103103991464
40
1
40
1
40
1
40
1
41
1
10
15.1419390333258
20
-2.93758290408294
30
0
41
1
10
14.9386610491269
20
-2.86507924841425
30
0
41
1
10
14.7362771859828
20
-2.78703588297822
30
0
41
1
10
14.1148122651499
20
-2.5310347434245
30
0
41
1
10
13.6975143371684
20
-2.33620079761244
30
0
41
1
10
12.861544846195
20
-1.91003200675527
30
0
41
1
10
12.4428782150712
20
-1.67871833914549
30
0
41
1
10
11.8092070074603
20
-1.30995082572073
30
0
41
1
10
11.5972168967316
20
-1.18348649271849
30
0
41
1
10
11.1764980789999
20
-0.927978487036853
30
0
41
1
10
10.9670271388527
20
-0.798518151239506
30
0
41
1
10
9.92219419683568
20
-0.145766970484857
30
0
41
1
10
9.09414159156603
20
0.393445759427266
30
0
41
1
10
8.25012649407952
20
0.911573443135978
30
0
0
SPLINE
5
C7
100
AcDbEntity
8
1
62
256
6
ByLayer
370
18
48
1
60
0
100
AcDbSpline
70
4
71
3
72
8
73
4
40
0
40
0
40
0
40
0
40
1
40
1
40
1
40
1
41
1
10
89.9718690817605
20
-0.0194369730197081
30
0
41
1
10
89.9465352371231
20
-0.0665893590256132
30
0
41
1
10
89.9212848516517
20
-0.113816445864643
30
0
41
1
10
89.8961183021299
20
-0.161117857119024
30
0
0
SPLINE
5
C8
100
AcDbEntity
8
1
62
256
6
ByLayer
370
18
48
1
60
0
100
AcDbSpline
70
4
71
3
72
10
73
6
40
0
40
0
40
0
40
0
40
0.5
40
0.5
40
1
40
1
40
1
40
1
41
1
10
89.9748783679312
20
-0.160470854755999
30
0
41
1
10
89.9768979853534
20
-0.144635838251219
30
0
41
1
10
89.9802342101426
20
-0.126867706165484
30
0
41
1
10
89.9887768033577
20
-0.0885797166876898
30
0
41
1
10
89.9940015912856
20
-0.06810993863661
30
0
41
1
10
89.999927058909
20
-0.0471493124391031
30
0
0
SPLINE
5
C9
100
AcDbEntity
8
1
62
256
6
ByLayer
370
18
48
1
60
0
100
AcDbSpline
70
4
71
3
72
8
73
4
40
0
40
0
40
0
40
0
40
1
40
1
40
1
40
1
41
1
10
88.6962173026861
20
0.969893936726777
30
0
41
1
10
89.0827298431024
20
0.976588742347815
30
0
41
1
10
89.468304302089
20
0.987895167471265
30
0
41
1
10
89.8493558221714
20
1.01475049327087
30
0
0
SPLINE
5
CA
100
AcDbEntity
8
1
62
256
6
ByLayer
370
18
48
1
60
0
100
AcDbSpline
70
4
71
3
72
14
73
10
40
0
40
0
40
0
40
0
40
0.25
40
0.25
40
0.5
40
0.5
40
0.75
40
0.75
40
1
40
1
40
1
40
1
41
1
10
88.705286422718
20
-3.58718519284682
30
0
41
1
10
88.7077257390594
20
-3.58652966526191
30
0
41
1
10
88.7095573137872
20
-3.58747180121068
30
0
41
1
10
88.7115715073816
20
-3.59366363950437
30
0
41
1
10
88.7117131072367
20
-3.59898789687199
30
0
41
1
10
88.7092695019174
20
-3.61533333309688
30
0
41
1
10
88.7066086994777
20
-3.62644019228986
30
0
41
1
10
88.6986754520472
20
-3.65208847289765
30
0
41
1
10
88.6935361297328
20
-3.66622593582966
30
0
41
1
10
88.6881664012161
20
-3.67955361711017
30
0
0
SPLINE
5
CB
100
AcDbEntity
8
1
62
256
6
ByLayer
370
18
48
1
60
0
100
AcDbSpline
70
4
71
3
72
8
73
4
40
0
40
0
40
0
40
0
40
1
40
1
40
1
40
1
41
1
10
88.7701881962903
20
3.69948422827224
30
0
41
1
10
89.1412158331978
20
2.81822700332938
30
0
41
1
10
89.5069258984209
20
1.92558456880892
30
0
41
1
10
89.8493558221692
20
1.01475049326993
30
0
0
SPLINE
5
CC
100
AcDbEntity
8
1
62
256
6
ByLayer
370
18
48
1
60
0
100
AcDbSpline
70
4
71
3
72
56
73
52
40
0
40
0
40
0
40
0
40
0.0624999999999955
40
0.0624999999999955
40
0.0937499999999926
40
0.0937499999999926
40
0.12499999999999
40
0.12499999999999
40
0.249999999999978
40
0.249999999999978
40
0.281249999999976
40
0.281249999999976
40
0.312499999999974
40
0.312499999999974
40
0.37499999999997
40
0.37499999999997
40
0.406249999999967
40
0.406249999999967
40
0.437499999999965
40
0.437499999999965
40
0.499999999999961
40
0.499999999999961
40
0.531249999999959
40
0.531249999999959
40
0.562499999999957
40
0.562499999999957
40
0.624999999999952
40
0.624999999999952
40
0.687499999999948
40
0.687499999999948
40
0.718749999999946
40
0.718749999999946
40
0.749999999999943
40
0.749999999999943
40
0.812499999999938
40
0.812499999999938
40
0.874999999999933
40
0.874999999999933
40
0.878906249999934
40
0.878906249999934
40
0.882812499999935
40
0.882812499999935
40
0.886718749999936
40
0.886718749999936
40
0.890624999999936
40
0.890624999999936
40
0.906249999999944
40
0.906249999999944
40
0.937499999999962
40
0.937499999999962
40
1
40
1
40
1
40
1
41
1
10
8.00316416122294
20
-3.35117859567387
30
0
41
1
10
7.87709808300158
20
-3.42371124015946
30
0
41
1
10
7.75535821753931
20
-3.48809762268985
30
0
41
1
10
7.57856634565545
20
-3.57052990462529
30
0
41
1
10
7.52060514374364
20
-3.59564352794246
30
0
41
1
10
7.40651567989238
20
-3.64073157763318
30
0
41
1
10
7.35019518318296
20
-3.66076298934601
30
0
41
1
10
7.07543466023063
20
-3.7460943095424
30
0
41
1
10
6.87876115921898
20
-3.76751587620615
30
0
41
1
10
6.65818103405553
20
-3.72322672197484
30
0
41
1
10
6.61525663189926
20
-3.71067651784071
30
0
41
1
10
6.53352910005253
20
-3.67843294728323
30
0
41
1
10
6.49453819616218
20
-3.65872513433538
30
0
41
1
10
6.38310774235674
20
-3.58866857792287
30
0
41
1
10
6.3161422978898
20
-3.52747012202752
30
0
41
1
10
6.22746505860852
20
-3.41196226592902
30
0
41
1
10
6.19988326679854
20
-3.36948948206228
30
0
41
1
10
6.14904558448814
20
-3.27597521307868
30
0
41
1
10
6.12595095452085
20
-3.22513198391144
30
0
41
1
10
6.06512014758815
20
-3.06266513215189
30
0
41
1
10
6.0352204328189
20
-2.94030690819059
30
0
41
1
10
6.00885540616821
20
-2.73438915417293
30
0
41
1
10
6.00318198418535
20
-2.66152222714695
30
0
41
1
10
5.99885460208841
20
-2.51111246655518
30
0
41
1
10
6.00013581494261
20
-2.43344174471429
30
0
41
1
10
6.01466661917129
20
-2.19328874694398
30
0
41
1
10
6.03851160393461
20
-2.02370693967106
30
0
41
1
10
6.11884172000137
20
-1.66588509457904
30
0
41
1
10
6.17380121593411
20
-1.48467317921882
30
0
41
1
10
6.27807901279851
20
-1.21079832293191
30
0
41
1
10
6.31649998006023
20
-1.11916048062403
30
0
41
1
10
6.40080616216864
20
-0.935396343946564
30
0
41
1
10
6.44632207241284
20
-0.844120439292766
30
0
41
1
10
6.59130703303296
20
-0.574571483032031
30
0
41
1
10
6.69963225685686
20
-0.399498539620623
30
0
41
1
10
6.93805079237717
20
-0.0585259626590187
30
0
41
1
10
7.06754871414608
20
0.106302375757224
30
0
41
1
10
7.21301456405286
20
0.273427574755345
30
0
41
1
10
7.2216010689844
20
0.283230200502857
30
0
41
1
10
7.23883306393358
20
0.302779335043681
30
0
41
1
10
7.24883084442513
20
0.311667463970366
30
0
41
1
10
7.27288169379148
20
0.321699094295809
30
0
41
1
10
7.28618661100973
20
0.322729150359521
30
0
41
1
10
7.3123684190646
20
0.323341130644053
30
0
41
1
10
7.32545688144154
20
0.323778783600801
30
0
41
1
10
7.39091173415278
20
0.32529077794436
30
0
41
1
10
7.44331498718856
20
0.325459970567635
30
0
41
1
10
7.60027905416513
20
0.322882650107005
30
0
41
1
10
7.70467578214112
20
0.317049485458028
30
0
41
1
10
8.01714323775741
20
0.287443853864431
30
0
41
1
10
8.22366133844196
20
0.251512816426583
30
0
41
1
10
8.42671047106859
20
0.19991949774149
30
0
0
SPLINE
5
CD
100
AcDbEntity
8
1
62
256
6
ByLayer
370
18
48
1
60
0
100
AcDbSpline
70
4
71
3
72
14
73
10
40
0
40
0
40
0
40
0
40
0.25
40
0.25
40
0.5
40
0.5
40
0.75
40
0.75
40
1
40
1
40
1
40
1
41
1
10
88.5967454076762
20
0.851049250907636
30
0
41
1
10
88.5927198517065
20
0.865901485258263
30
0
41
1
10
88.5911169509604
20
0.881527090758652
30
0
41
1
10
88.5957597652051
20
0.911680053563259
30
0
41
1
10
88.6023394976659
20
0.926290473624647
30
0
41
1
10
88.6230546714305
20
0.949221184977233
30
0
41
1
10
88.6368117261772
20
0.957389680431248
30
0
41
1
10
88.6655609379384
20
0.967427904266515
30
0
41
1
10
88.6809087593567
20
0.969628776581544
30
0
41
1
10
88.6962173026859
20
0.969893936728226
30
0
0
SPLINE
5
CE
100
AcDbEntity
8
1
62
256
6
ByLayer
370
18
48
1
60
0
100
AcDbSpline
70
4
71
3
72
8
73
4
40
0
40
0
40
0
40
0
40
1
40
1
40
1
40
1
41
1
10
89.8961183021464
20
-0.161117857089408
30
0
41
1
10
89.7691745518259
20
-0.509892944634032
30
0
41
1
10
89.6422308015055
20
-0.858668032178628
30
0
41
1
10
89.5152870511851
20
-1.20744311972317
30
0
0
SPLINE
5
CF
100
AcDbEntity
8
1
62
256
6
ByLayer
370
18
48
1
60
0
100
AcDbSpline
70
4
71
3
72
8
73
4
40
0
40
0
40
0
40
0
40
1
40
1
40
1
40
1
41
1
10
8.00906120378488
20
1.07286919124383
30
0
41
1
10
8.00532610245082
20
1.08580607346806
30
0
41
1
10
8.00340398938499
20
1.09896025334265
30
0
41
1
10
8.00340288294746
20
1.11234345517153
30
0
0
SPLINE
5
D0
100
AcDbEntity
8
1
62
256
6
ByLayer
370
18
48
1
60
0
100
AcDbSpline
70
4
71
3
72
8
73
4
40
0
40
0
40
0
40
0
40
1
40
1
40
1
40
1
41
1
10
89.3013030530914
20
-1.79535932261078
30
0
41
1
10
89.0841325349125
20
-2.39203041747541
30
0
41
1
10
88.8669620167337
20
-2.98870151234002
30
0
41
1
10
88.6497914985549
20
-3.58537260720468
30
0
0
SPLINE
5
D1
100
AcDbEntity
8
1
62
256
6
ByLayer
370
18
48
1
60
0
100
AcDbSpline
70
4
71
3
72
18
73
14
40
0
40
0
40
0
40
0
40
0.241492387604798
40
0.241492387604798
40
0.355726959724309
40
0.355726959724309
40
0.469961531843819
40
0.469961531843819
40
0.698430676082839
40
0.698430676082839
40
0.926899820321858
40
0.926899820321858
40
1
40
1
40
1
40
1
41
1
10
27.0177088682769
20
0.0003439433113499
30
0
41
1
10
27.4593768592134
20
-0.289112627964357
30
0
41
1
10
27.9001450217617
20
-0.578081370672095
30
0
41
1
10
28.5534987451171
20
-0.994651124350526
30
0
41
1
10
28.7639652292775
20
-1.1269913273606
30
0
41
1
10
29.1870722983162
20
-1.38745684721246
30
0
41
1
10
29.3984427006095
20
-1.51489585510655
30
0
41
1
10
30.0288876491588
20
-1.88476505360251
30
0
41
1
10
30.4463697108736
20
-2.11546772582508
30
0
41
1
10
31.281425719305
20
-2.53827413829194
30
0
41
1
10
31.6992988823133
20
-2.7300870104358
30
0
41
1
10
32.2551331584949
20
-2.95254508817155
30
0
41
1
10
32.3905235351492
20
-3.004156111567
30
0
41
1
10
32.5258397320902
20
-3.05303876527111
30
0
0
SPLINE
5
D2
100
AcDbEntity
8
1
62
256
6
ByLayer
370
13
48
1
60
0
100
AcDbSpline
70
4
71
3
72
16
73
12
40
0
40
0
40
0
40
0
40
0.0504743661825975
40
0.0504743661825975
40
0.190646459274975
40
0.190646459274975
40
0.751334831644461
40
0.751334831644461
40
0.891506924736833
40
0.891506924736833
40
1
40
1
40
1
40
1
41
1
10
32.5258387916698
20
-3.05303842554642
30
0
41
1
10
32.601983234847
20
-3.08054543124541
30
0
41
1
10
32.6781041896963
20
-3.10718850422072
30
0
41
1
10
32.9650397263907
20
-3.20427897217377
30
0
41
1
10
33.1750390189762
20
-3.26862101379336
30
0
41
1
10
34.222246185004
20
-3.55449722192267
30
0
41
1
10
35.0517258584913
20
-3.66839355573313
30
0
41
1
10
36.1093848861233
20
-3.65291749473391
30
0
41
1
10
36.3204817463357
20
-3.64189712889024
30
0
41
1
10
36.6930915967019
20
-3.60874185338918
30
0
41
1
10
36.8552275315145
20
-3.58969266691605
30
0
41
1
10
37.0171089784731
20
-3.56616249712536
30
0
0
SPLINE
5
D3
100
AcDbEntity
8
1
62
256
6
ByLayer
370
18
48
1
60
0
100
AcDbSpline
70
4
71
3
72
18
73
14
40
0
40
0
40
0
40
0
40
0.0633346162818324
40
0.0633346162818324
40
0.332724808367346
40
0.332724808367346
40
0.602115000452858
40
0.602115000452858
40
0.736810096495619
40
0.736810096495619
40
0.871505192538379
40
0.871505192538379
40
1
40
1
40
1
40
1
41
1
10
62.0160219831851
20
0.0013888043415591
30
0
41
1
10
62.1150051794248
20
-0.0638838008138976
30
0
41
1
10
62.2141721509798
20
-0.129272636562689
30
0
41
1
10
62.736278246046
20
-0.472995672734555
30
0
41
1
10
63.1545194177845
20
-0.746894928421256
30
0
41
1
10
63.9888921132372
20
-1.27624501321728
30
0
41
1
10
64.4050804774143
20
-1.53162176886417
30
0
41
1
10
65.032304668697
20
-1.89422140623012
30
0
41
1
10
65.2418598902117
20
-2.01168944388553
30
0
41
1
10
65.6628379066053
20
-2.23852539925866
30
0
41
1
10
65.8746507155045
20
-2.34804610450521
30
0
41
1
10
66.285456419849
20
-2.55026336024841
30
0
41
1
10
66.4852401454248
20
-2.64384868029342
30
0
41
1
10
66.6845856889387
20
-2.73199692993586
30
0
0
SPLINE
5
D4
100
AcDbEntity
8
1
62
256
6
ByLayer
370
13
48
1
60
0
100
AcDbSpline
70
4
71
3
72
16
73
12
40
0
40
0
40
0
40
0
40
0.359792884626613
40
0.359792884626613
40
0.477911490573369
40
0.477911490573369
40
0.596030096520123
40
0.596030096520123
40
0.832267308413635
40
0.832267308413635
40
1
40
1
40
1
40
1
41
1
10
66.6845866034984
20
-2.73199733434333
30
0
41
1
10
67.3210991846591
20
-3.01345564390974
30
0
41
1
10
67.9531443641303
20
-3.23948126777279
30
0
41
1
10
68.8015426496165
20
-3.45329269450392
30
0
41
1
10
69.0123468080852
20
-3.49915856476784
30
0
41
1
10
69.4346506365934
20
-3.57574934112563
30
0
41
1
10
69.6446827951978
20
-3.606262024503
30
0
41
1
10
70.2728411031269
20
-3.67446298825445
30
0
41
1
10
70.6890513385716
20
-3.68883886593289
30
0
41
1
10
71.4017366450624
20
-3.66078240595309
30
0
41
1
10
71.6979616057965
20
-3.63361365053186
30
0
41
1
10
71.9955848492733
20
-3.59082687738248
30
0
0
SPLINE
5
D5
100
AcDbEntity
8
1
62
256
6
ByLayer
370
18
48
1
60
0
100
AcDbSpline
70
4
71
3
72
27
73
23
40
0
40
0
40
0
40
0
40
0.0284201538661663
40
0.0284201538661663
40
0.317856029819583
40
0.317856029819583
40
0.462573967796291
40
0.498753452290468
40
0.516843194537556
40
0.516843194537556
40
0.534932936784645
40
0.534932936784645
40
0.543977807908189
40
0.543977807908189
40
0.553022679031733
40
0.553022679031733
40
0.571112421278822
40
0.607291905772999
40
0.607291905772999
40
0.896727781726415
40
0.896727781726415
40
1
40
1
40
1
40
1
41
1
10
8.42671047106859
20
0.199919497741462
30
0
41
1
10
8.42671047106859
20
0.185117857652045
30
0
41
1
10
8.42671047106859
20
0.170089277285314
30
0
41
1
10
8.42671047106859
20
-0.0005070474581714
30
0
41
1
10
8.42671047106859
20
-0.179080742248374
30
0
41
1
10
8.42671047106859
20
-0.480231107703958
30
0
41
1
10
8.42671047106896
20
-0.612673919051872
30
0
41
1
10
8.42671047106853
20
-0.76792625212741
30
0
41
1
10
8.42671047106862
20
-0.811053127509751
30
0
41
1
10
8.42671047106862
20
-0.839979042137657
30
0
41
1
10
8.42671047106882
20
-0.853777051613832
30
0
41
1
10
8.42671047106882
20
-0.880371638717691
30
0
41
1
10
8.42671047106933
20
-0.890041008082136
30
0
41
1
10
8.42671047106933
20
-0.911735241816956
30
0
41
1
10
8.42671047106862
20
-0.924061725235077
30
0
41
1
10
8.42671047106862
20
-0.962479637482062
30
0
41
1
10
8.42671047106859
20
-1.03947637469886
30
0
41
1
10
8.42671047106859
20
-1.11695790013476
30
0
41
1
10
8.42671047106859
20
-1.58380359104578
30
0
41
1
10
8.42671047106859
20
-2.01264112287814
30
0
41
1
10
8.42671047106859
20
-2.61507441737785
30
0
41
1
10
8.42671047106859
20
-2.77542660498332
30
0
41
1
10
8.42671047106859
20
-2.93780369301507
30
0
0
SPLINE
5
D6
100
AcDbEntity
8
1
62
256
6
ByLayer
370
18
48
1
60
0
100
AcDbSpline
70
4
71
3
72
16
73
12
40
0
40
0
40
0
40
0
40
0.124999999999991
40
0.124999999999991
40
0.249999999999982
40
0.249999999999982
40
0.499999999999988
40
0.499999999999988
40
0.749999999999994
40
0.749999999999994
40
1
40
1
40
1
40
1
41
1
10
8.00316416122482
20
3.35117859567285
30
0
41
1
10
8.00608525382674
20
3.33568536977197
30
0
41
1
10
8.01113711599621
20
3.31900626673561
30
0
41
1
10
8.02462954034377
20
3.28571286856109
30
0
41
1
10
8.03309183569758
20
3.26896962389742
30
0
41
1
10
8.06135532396672
20
3.22100240187871
30
0
41
1
10
8.08364711550911
20
3.19222082825095
30
0
41
1
10
8.12982339008309
20
3.14122094136351
30
0
41
1
10
8.15338812266492
20
3.11930098652974
30
0
41
1
10
8.20117315127516
20
3.08020058951939
30
0
41
1
10
8.22523790212566
20
3.06324263084227
30
0
41
1
10
8.24901479369834
20
3.04875457725703
30
0
0
SPLINE
5
D7
100
AcDbEntity
8
1
62
256
6
ByLayer
370
18
48
1
60
0
100
AcDbSpline
70
4
71
3
72
84
73
80
40
0
40
0
40
0
40
0
40
0.0147633342345686
40
0.0147633342345686
40
0.0412197209145577
40
0.0412197209145577
40
0.0676761075945467
40
0.0676761075945467
40
0.0941324942745358
40
0.0941324942745358
40
0.120588880954525
40
0.120588880954525
40
0.147045267634514
40
0.147045267634514
40
0.173501654314503
40
0.173501654314503
40
0.199958040994492
40
0.199958040994492
40
0.226414427674481
40
0.226414427674481
40
0.25287081435447
40
0.25287081435447
40
0.279327201034459
40
0.279327201034459
40
0.305783587714448
40
0.305783587714448
40
0.332239974394437
40
0.332239974394437
40
0.358696361074426
40
0.358696361074426
40
0.385152747754415
40
0.385152747754415
40
0.411609134434404
40
0.411609134434404
40
0.438065521114393
40
0.438065521114393
40
0.464521907794383
40
0.464521907794383
40
0.490978294474372
40
0.490978294474372
40
0.517434681154361
40
0.517434681154361
40
0.54389106783435
40
0.54389106783435
40
0.570347454514339
40
0.570347454514339
40
0.596803841194328
40
0.596803841194328
40
0.623260227874317
40
0.623260227874317
40
0.649716614554306
40
0.649716614554306
40
0.676173001234296
40
0.676173001234296
40
0.702629387914286
40
0.702629387914286
40
0.729085774594275
40
0.729085774594275
40
0.755542161274265
40
0.755542161274265
40
0.781998547954254
40
0.781998547954254
40
0.808454934634244
40
0.808454934634244
40
0.834911321314234
40
0.834911321314234
40
0.861367707994223
40
0.861367707994223
40
0.887824094674213
40
0.887824094674213
40
0.914280481354202
40
0.914280481354202
40
0.940736868034192
40
0.940736868034192
40
0.967193254714182
40
0.967193254714182
40
0.993649641394172
40
0.993649641394172
40
1
40
1
40
1
40
1
41
1
10
11.2199390618485
20
1.62577765814919
30
0
41
1
10
11.3368682702311
20
1.69690085396914
30
0
41
1
10
11.4538356976865
20
1.76706576530654
30
0
41
1
10
11.7809857539461
20
1.9594355849303
30
0
41
1
10
11.9909425543543
20
2.07810444363889
30
0
41
1
10
12.4095747079632
20
2.30745945537294
30
0
41
1
10
12.618751202959
20
2.41749030850642
30
0
41
1
10
13.0384893899266
20
2.6263898296113
30
0
41
1
10
13.2485011573992
20
2.72614849973294
30
0
41
1
10
13.6674188370227
20
2.91297784291763
30
0
41
1
10
13.8771764671762
20
2.99974204153668
30
0
41
1
10
14.295957317589
20
3.16125384440323
30
0
41
1
10
14.5053161986262
20
3.23578978501621
30
0
41
1
10
14.9256186479443
20
3.37016219093101
30
0
41
1
10
15.1350753022538
20
3.43033959594547
30
0
41
1
10
15.5534949252683
20
3.5360438910931
30
0
41
1
10
15.7631667362186
20
3.58122325006923
30
0
41
1
10
16.1825784975919
20
3.65668853334162
30
0
41
1
10
16.3922770601935
20
3.68692918124191
30
0
41
1
10
16.8116620460576
20
3.7311307562789
30
0
41
1
10
17.0210997612922
20
3.74537867552078
30
0
41
1
10
17.4395528464764
20
3.75801083755803
30
0
41
1
10
17.6494897658538
20
3.7563425958362
30
0
41
1
10
18.0694850461255
20
3.73708504723817
30
0
41
1
10
18.2784656730087
20
3.71940826372491
30
0
41
1
10
18.6972815599403
20
3.66858439417743
30
0
41
1
10
18.9069114179492
20
3.6354806179416
30
0
41
1
10
19.3259064998046
20
3.5534624954692
30
0
41
1
10
19.5359900037399
20
3.50473861749728
30
0
41
1
10
19.955300726767
20
3.39315536270112
30
0
41
1
10
20.1642259532748
20
3.32982262483117
30
0
41
1
10
20.5828693351902
20
3.18948737162739
30
0
41
1
10
20.79310416595
20
3.11268078426849
30
0
41
1
10
21.2125234457766
20
2.94520314494568
30
0
41
1
10
21.4216798383412
20
2.85507908612595
30
0
41
1
10
21.8407121691758
20
2.66398436470931
30
0
41
1
10
22.0498330394903
20
2.56225708369209
30
0
41
1
10
22.468827591464
20
2.34790675138421
30
0
41
1
10
22.6792860624477
20
2.23598210293685
30
0
41
1
10
23.09810067895
20
2.0026532102479
30
0
41
1
10
23.3069310756472
20
1.88117859977007
30
0
41
1
10
23.7260547946573
20
1.63200570897868
30
0
41
1
10
23.935899119031
20
1.50319760980784
30
0
41
1
10
24.3550139936561
20
1.23917499192694
30
0
41
1
10
24.5646409621549
20
1.10523033108589
30
0
41
1
10
24.9833177270437
20
0.832518073840845
30
0
41
1
10
25.1921235733076
20
0.69337364536571
30
0
41
1
10
25.6116843567588
20
0.413889615040318
30
0
41
1
10
25.8218355360249
20
0.272851567761137
30
0
41
1
10
26.2402320871284
20
-0.0102041873231258
30
0
41
1
10
26.4495383414905
20
-0.151375716079883
30
0
41
1
10
26.8684867356222
20
-0.432831858342212
30
0
41
1
10
27.077925239977
20
-0.574078281342594
30
0
41
1
10
27.4973458432144
20
-0.852054388938569
30
0
41
1
10
27.7069658133874
20
-0.988780936150221
30
0
41
1
10
28.1251537359657
20
-1.25897002768931
30
0
41
1
10
28.3343394870488
20
-1.39153991269717
30
0
41
1
10
28.7539709337402
20
-1.65015150229738
30
0
41
1
10
28.9635689744518
20
-1.77697967485349
30
0
41
1
10
29.3820564334651
20
-2.02144209318894
30
0
41
1
10
29.5916351599106
20
-2.13886841945629
30
0
41
1
10
30.010106558147
20
-2.36578588963292
30
0
41
1
10
30.2197227254849
20
-2.47491232802508
30
0
41
1
10
30.6393592709375
20
-2.68098543829006
30
0
41
1
10
30.8484528744563
20
-2.7787129736875
30
0
41
1
10
31.266549141985
20
-2.96208525691282
30
0
41
1
10
31.4761825769535
20
-3.04717805625344
30
0
41
1
10
31.8954403786232
20
-3.20521638023564
30
0
41
1
10
32.1048259863031
20
-3.27791442867687
30
0
41
1
10
32.5237605202054
20
-3.40797888701002
30
0
41
1
10
32.7329191970375
20
-3.46599622745737
30
0
41
1
10
33.1511583511533
20
-3.56749314997603
30
0
41
1
10
33.3613154103724
20
-3.61066130019742
30
0
41
1
10
33.7805714940389
20
-3.68161456079739
30
0
41
1
10
33.9892732950456
20
-3.70944122306347
30
0
41
1
10
34.4078521202806
20
-3.74901795918851
30
0
41
1
10
34.6172951164875
20
-3.76094877107155
30
0
41
1
10
34.8770298149663
20
-3.76586421891579
30
0
41
1
10
34.9273255093705
20
-3.76635227872774
30
0
41
1
10
34.9776300705194
20
-3.76637897624025
30
0
0
SPLINE
5
D8
100
AcDbEntity
8
1
62
256
6
ByLayer
370
18
48
1
60
0
100
AcDbSpline
70
4
71
3
72
84
73
80
40
0
40
0
40
0
40
0
40
0.0223935026461712
40
0.0223935026461712
40
0.048801026259017
40
0.048801026259017
40
0.0752085498718628
40
0.0752085498718628
40
0.101616073484709
40
0.101616073484709
40
0.128023597097555
40
0.128023597097555
40
0.154431120710401
40
0.154431120710401
40
0.180838644323247
40
0.180838644323247
40
0.207246167936093
40
0.207246167936093
40
0.233653691548939
40
0.233653691548939
40
0.260061215161785
40
0.260061215161785
40
0.286468738774631
40
0.286468738774631
40
0.312876262387477
40
0.312876262387477
40
0.339283786000323
40
0.339283786000323
40
0.365691309613169
40
0.365691309613169
40
0.392098833226015
40
0.392098833226015
40
0.418506356838861
40
0.418506356838861
40
0.444913880451707
40
0.444913880451707
40
0.471321404064553
40
0.471321404064553
40
0.497728927677399
40
0.497728927677399
40
0.524136451290245
40
0.524136451290245
40
0.550543974903091
40
0.550543974903091
40
0.576951498515937
40
0.576951498515937
40
0.603359022128783
40
0.603359022128783
40
0.629766545741629
40
0.629766545741629
40
0.656174069354475
40
0.656174069354475
40
0.682581592967321
40
0.682581592967321
40
0.708989116580167
40
0.708989116580167
40
0.735396640193014
40
0.735396640193014
40
0.761804163805859
40
0.761804163805859
40
0.788211687418706
40
0.788211687418706
40
0.814619211031552
40
0.814619211031552
40
0.841026734644398
40
0.841026734644398
40
0.867434258257244
40
0.867434258257244
40
0.89384178187009
40
0.89384178187009
40
0.920249305482936
40
0.920249305482936
40
0.946656829095782
40
0.946656829095782
40
0.973064352708628
40
0.973064352708628
40
0.999471876321474
40
0.999471876321474
40
1
40
1
40
1
40
1
41
1
10
46.2261304166833
20
1.63532387203415
30
0
41
1
10
46.4036221164158
20
1.7435596470674
30
0
41
1
10
46.5806954931503
20
1.84950249089462
30
0
41
1
10
46.96677439784
20
2.07389787385756
30
0
41
1
10
47.1763611558548
20
2.19053652827336
30
0
41
1
10
47.5955524158331
20
2.41581399852072
30
0
41
1
10
47.8044419426081
20
2.52367584900804
30
0
41
1
10
48.2229454954332
20
2.72696822215843
30
0
41
1
10
48.4318832336864
20
2.82325681475754
30
0
41
1
10
48.8499846690091
20
3.00409089111673
30
0
41
1
10
49.0601360352261
20
3.08808340563147
30
0
41
1
10
49.4787287021236
20
3.2427765599935
30
0
41
1
10
49.6872101180348
20
3.31367246672511
30
0
41
1
10
50.1055557059602
20
3.4404295193597
30
0
41
1
10
50.3148745748148
20
3.49673271911922
30
0
41
1
10
50.7337749090907
20
3.59489029832847
30
0
41
1
10
50.9430575998839
20
3.63613398809278
30
0
41
1
10
51.3613273638042
20
3.70321980000503
30
0
41
1
10
51.5698201657843
20
3.72915840166994
30
0
41
1
10
51.9883461694107
20
3.76497749569163
30
0
41
1
10
52.1984756730103
20
3.7749643622715
30
0
41
1
10
52.6165519612904
20
3.77893775484878
30
0
41
1
10
52.8254059253723
20
3.77290366458322
30
0
41
1
10
53.2437581118778
20
3.74506048481825
30
0
41
1
10
53.4526709757146
20
3.72311037855127
30
0
41
1
10
53.8716223007846
20
3.66343541623485
30
0
41
1
10
54.0811356050889
20
3.62604503023451
30
0
41
1
10
54.4988957570994
20
3.53574932354653
30
0
41
1
10
54.7075440067788
20
3.48294612043182
30
0
41
1
10
55.1263825912952
20
3.36321749492509
30
0
41
1
10
55.3359978551563
20
3.29573995494718
30
0
41
1
10
55.7539367290455
20
3.14736194398037
30
0
41
1
10
55.9632023962499
20
3.06693477135093
30
0
41
1
10
56.3811424295375
20
2.89269528177007
30
0
41
1
10
56.5899956835203
20
2.79875773443382
30
0
41
1
10
57.0093461810111
20
2.60033884846527
30
0
41
1
10
57.2184204109232
20
2.4955349671672
30
0
41
1
10
57.6358986420569
20
2.27528057430823
30
0
41
1
10
57.8450395206297
20
2.16069389654737
30
0
41
1
10
58.2636132799565
20
1.92203068896785
30
0
41
1
10
58.4728455052227
20
1.79739192280053
30
0
41
1
10
58.8912256160573
20
1.54318417003299
30
0
41
1
10
59.1002880439628
20
1.41291441508685
30
0
41
1
10
59.5178397333044
20
1.14556529920532
30
0
41
1
10
59.7272233878727
20
1.00931626561339
30
0
41
1
10
60.1463567602007
20
0.733111990955507
30
0
41
1
10
60.3549385236159
20
0.592719946633167
30
0
41
1
10
60.7726927175029
20
0.311093346733003
30
0
41
1
10
60.9819423819165
20
0.169982943189524
30
0
41
1
10
61.4000735820334
20
-0.114489295006138
30
0
41
1
10
61.6095768704878
20
-0.257069183306612
30
0
41
1
10
62.0280093871374
20
-0.538846818371184
30
0
41
1
10
62.2365660096479
20
-0.679332730502693
30
0
41
1
10
62.6541829635764
20
-0.956815427038265
30
0
41
1
10
62.8639759803026
20
-1.09328079196533
30
0
41
1
10
63.2825580866253
20
-1.36253451577036
30
0
41
1
10
63.4911364750458
20
-1.49461428399721
30
0
41
1
10
63.9092489531852
20
-1.75052361043439
30
0
41
1
10
64.1180267043398
20
-1.87537802571475
30
0
41
1
10
64.5360500266066
20
-2.11743781842284
30
0
41
1
10
64.7459794458914
20
-2.23377001764587
30
0
41
1
10
65.1639916794446
20
-2.45674338802902
30
0
41
1
10
65.3722857127011
20
-2.56367631274233
30
0
41
1
10
65.7904206452412
20
-2.76519756450645
30
0
41
1
10
65.9999409517052
20
-2.86059174594325
30
0
41
1
10
66.4181347540407
20
-3.03942314261738
30
0
41
1
10
66.6271793423136
20
-3.12204926777446
30
0
41
1
10
67.0450389995385
20
-3.2740431305719
30
0
41
1
10
67.2533995459664
20
-3.34369845614515
30
0
41
1
10
67.6718904070247
20
-3.46813618343776
30
0
41
1
10
67.8817080197799
20
-3.52309132379057
30
0
41
1
10
68.2992339751868
20
-3.61814550899015
30
0
41
1
10
68.5079285476571
20
-3.65799307362912
30
0
41
1
10
68.9260420612192
20
-3.72213362269733
30
0
41
1
10
69.1351292182342
20
-3.74662431922951
30
0
41
1
10
69.5534229578394
20
-3.7794309918597
30
0
41
1
10
69.7626657070215
20
-3.78780371911253
30
0
41
1
10
69.975521266561
20
-3.78825075053118
30
0
41
1
10
69.979694649326
20
-3.7882563060133
30
0
41
1
10
69.9838679915653
20
-3.78825865292219
30
0
0
SPLINE
5
D9
100
AcDbEntity
8
1
62
256
6
ByLayer
370
18
48
1
60
0
100
AcDbSpline
70
4
71
3
72
32
73
28
40
0
40
0
40
0
40
0
40
0.0038187368213692
40
0.0038187368213692
40
0.0868338420862556
40
0.0868338420862556
40
0.169848947351141
40
0.169848947351141
40
0.252864052616027
40
0.252864052616027
40
0.335879157880912
40
0.335879157880912
40
0.418894263145799
40
0.418894263145799
40
0.501909368410685
40
0.501909368410685
40
0.58492447367557
40
0.58492447367557
40
0.667939578940457
40
0.667939578940457
40
0.750954684205342
40
0.750954684205342
40
0.833969789470228
40
0.833969789470228
40
0.916984894735114
40
0.916984894735114
40
1
40
1
40
1
40
1
41
1
10
81.2246616907131
20
1.64065529817378
30
0
41
1
10
81.2342713385433
20
1.64655168825706
30
0
41
1
10
81.2438826439019
20
1.65243953284531
30
0
41
1
10
81.4624740483972
20
1.78612382665202
30
0
41
1
10
81.6720389615663
20
1.91082637797112
30
0
41
1
10
82.0895907426857
20
2.15196750655701
30
0
41
1
10
82.2983934394687
20
2.26756298602513
30
0
41
1
10
82.7159226874847
20
2.48909163090499
30
0
41
1
10
82.9241950599763
20
2.59549414114886
30
0
41
1
10
83.3426660768226
20
2.79629204836971
30
0
41
1
10
83.552012581775
20
2.89066468883024
30
0
41
1
10
83.9690613141604
20
3.06751002569379
30
0
41
1
10
84.1775903735133
20
3.14944974781704
30
0
41
1
10
84.5955381678197
20
3.29972350251995
30
0
41
1
10
84.8046383013227
20
3.36861486024483
30
0
41
1
10
85.2222967941277
20
3.49120990216727
30
0
41
1
10
85.4313047008019
20
3.54488944109892
30
0
41
1
10
85.8483543430967
20
3.63779257989088
30
0
41
1
10
86.0568264861385
20
3.67672606086342
30
0
41
1
10
86.4755924371968
20
3.73880229023322
30
0
41
1
10
86.6843583543944
20
3.76207675597235
30
0
41
1
10
87.1013121505787
20
3.79260514745624
30
0
41
1
10
87.3102435520493
20
3.79985542763546
30
0
41
1
10
87.7278004678385
20
3.79845099940525
30
0
41
1
10
87.9368671434373
20
3.7896369195536
30
0
41
1
10
88.354455379255
20
3.75633527556991
30
0
41
1
10
88.5625390638575
20
3.73181369664073
30
0
41
1
10
88.7701881962998
20
3.69948422824982
30
0
0
SPLINE
5
DA
100
AcDbEntity
8
1
62
256
6
ByLayer
370
18
48
1
60
0
100
AcDbSpline
70
4
71
3
72
42
73
38
40
0
40
0
40
0
40
0
40
0.0702795243301062
40
0.0702795243301062
40
0.10541928649516
40
0.10541928649516
40
0.140559048660214
40
0.140559048660214
40
0.210838572990322
40
0.210838572990322
40
0.245978335155376
40
0.245978335155376
40
0.281118097320431
40
0.281118097320431
40
0.421677145980653
40
0.421677145980653
40
0.456816908145708
40
0.456816908145708
40
0.491956670310764
40
0.491956670310764
40
0.562236194640873
40
0.562236194640873
40
0.632515718970982
40
0.632515718970982
40
0.667655481136036
40
0.667655481136036
40
0.70279524330109
40
0.70279524330109
40
0.773074767631196
40
0.773074767631196
40
0.808214529796249
40
0.808214529796249
40
0.843354291961301
40
0.843354291961301
40
0.98391334062151
40
0.98391334062151
40
1
40
1
40
1
40
1
41
1
10
88.6430428496748
20
-3.79131894224167
30
0
41
1
10
88.2227825401127
20
-3.81037853594165
30
0
41
1
10
87.8030338786332
20
-3.79693093612426
30
0
41
1
10
87.1698512084624
20
-3.72803454721387
30
0
41
1
10
86.9590028532195
20
-3.69697688936222
30
0
41
1
10
86.5396856311288
20
-3.61969260341178
30
0
41
1
10
86.3307721831728
20
-3.57342675025467
30
0
41
1
10
85.7050469530597
20
-3.41270008544828
30
0
41
1
10
85.2892544308277
20
-3.27632064544437
30
0
41
1
10
84.6625489596444
20
-3.0313550886298
30
0
41
1
10
84.4531391241424
20
-2.94296940112221
30
0
41
1
10
84.0325186776672
20
-2.75318252229229
30
0
41
1
10
83.8207892013912
20
-2.65146924351094
30
0
41
1
10
82.7696945913463
20
-2.11925044265604
30
0
41
1
10
81.9430298475892
20
-1.61451139966334
30
0
41
1
10
80.8943264125862
20
-0.928673253600749
30
0
41
1
10
80.6832378891601
20
-0.788379990654761
30
0
41
1
10
80.2612735191135
20
-0.505176339221862
30
0
41
1
10
80.0513531397893
20
-0.362902691314417
30
0
41
1
10
79.4236078201656
20
0.0642187133550181
30
0
41
1
10
79.0073968309248
20
0.348766755911242
30
0
41
1
10
78.1736916947216
20
0.908824448466873
30
0
41
1
10
77.755880629667
20
1.18386693309569
30
0
41
1
10
77.1231117472422
20
1.58205098472448
30
0
41
1
10
76.9119243829932
20
1.7117377820214
30
0
41
1
10
76.4922571116117
20
1.96150040908199
30
0
41
1
10
76.2831921090906
20
2.08199841066039
30
0
41
1
10
75.6572414492043
20
2.42921842803415
30
0
41
1
10
75.2411937232921
20
2.64119641616688
30
0
41
1
10
74.6144596804606
20
2.92479293731779
30
0
41
1
10
74.4050837985398
20
3.01356476769047
30
0
41
1
10
73.9844492264214
20
3.17849134790873
30
0
41
1
10
73.7725747277469
20
3.25485840648648
30
0
41
1
10
72.7204347790811
20
3.59862096211802
30
0
41
1
10
71.8932237185426
20
3.75514936063453
30
0
41
1
10
70.9581842288655
20
3.78722297704175
30
0
41
1
10
70.8619212068048
20
3.78883184127983
30
0
41
1
10
70.765499233061
20
3.78874087229849
30
0
0
SPLINE
5
DB
100
AcDbEntity
8
1
62
256
6
ByLayer
370
18
48
1
60
0
100
AcDbSpline
70
4
71
3
72
52
73
48
40
0
40
0
40
0
40
0
40
0.0197375734801945
40
0.0197375734801945
40
0.0523065955754895
40
0.0523065955754895
40
0.0848756176707845
40
0.0848756176707845
40
0.150013661861373
40
0.150013661861373
40
0.215151706051961
40
0.215151706051961
40
0.247720728147255
40
0.247720728147255
40
0.280289750242548
40
0.280289750242548
40
0.345427794433134
40
0.345427794433134
40
0.410565838623719
40
0.410565838623719
40
0.443134860719013
40
0.443134860719013
40
0.475703882814307
40
0.475703882814307
40
0.540841927004894
40
0.540841927004894
40
0.573410949100188
40
0.573410949100188
40
0.589695460147835
40
0.589695460147835
40
0.605979971195483
40
0.605979971195483
40
0.736256059576664
40
0.736256059576664
40
0.768825081671958
40
0.768825081671958
40
0.801394103767252
40
0.801394103767252
40
0.866532147957839
40
0.866532147957839
40
0.931670192148426
40
0.931670192148426
40
0.964239214243719
40
0.964239214243719
40
0.996808236339012
40
0.996808236339012
40
1
40
1
40
1
40
1
41
1
10
55.0914037133928
20
-3.57834154130052
30
0
41
1
10
54.9649502568571
20
-3.60585010728744
30
0
41
1
10
54.8384304230133
20
-3.63060069687157
30
0
41
1
10
54.5026952925583
20
-3.68873750735565
30
0
41
1
10
54.2932684162377
20
-3.7173099735605
30
0
41
1
10
53.8727747677751
20
-3.75863833425387
30
0
41
1
10
53.6609018553524
20
-3.77138151153304
30
0
41
1
10
53.0279533888387
20
-3.78497977269169
30
0
41
1
10
52.6101769497098
20
-3.76150074520387
30
0
41
1
10
51.7752879843043
20
-3.65242313900185
30
0
41
1
10
51.3585088403499
20
-3.56677053287541
30
0
41
1
10
50.7292247414295
20
-3.39319317404886
30
0
41
1
10
50.5187887195905
20
-3.3278070391367
30
0
41
1
10
50.0956921913694
20
-3.18217784437076
30
0
41
1
10
49.8849291121438
20
-3.10259605167124
30
0
41
1
10
49.2551605596224
20
-2.84578993632658
30
0
41
1
10
48.8382850215371
20
-2.65000026506456
30
0
41
1
10
48.0034518037479
20
-2.2172016129791
30
0
41
1
10
47.5856164134295
20
-1.98006141814349
30
0
41
1
10
46.9530597022928
20
-1.59879568219571
30
0
41
1
10
46.740976668313
20
-1.4672100160075
30
0
41
1
10
46.3199698331771
20
-1.20034391324322
30
0
41
1
10
46.1103331799204
20
-1.06462170459301
30
0
41
1
10
45.4828501547165
20
-0.652348033376086
30
0
41
1
10
45.0661356033888
20
-0.371128428086962
30
0
41
1
10
44.4390295528776
20
0.0536386647885649
30
0
41
1
10
44.229578125855
20
0.195602979313492
30
0
41
1
10
43.91418301779
20
0.408234136195006
30
0
41
1
10
43.8088468988344
20
0.47905650682884
30
0
41
1
10
43.5976869224382
20
0.620477761348837
30
0
41
1
10
43.4917111340414
20
0.691191090526729
30
0
41
1
10
42.5413321643784
20
1.32158286230401
30
0
41
1
10
41.7124714170696
20
1.84403201285156
30
0
41
1
10
40.6638426709236
20
2.40701365458895
30
0
41
1
10
40.4534383885849
20
2.51502695837164
30
0
41
1
10
40.0304497074295
20
2.72075139577021
30
0
41
1
10
39.8190963708639
20
2.81787789378885
30
0
41
1
10
39.188786688202
20
3.08900273982695
30
0
41
1
10
38.7713883718507
20
3.24345751054239
30
0
41
1
10
37.936333077647
20
3.49604143763895
30
0
41
1
10
37.5184585227572
20
3.59398770433174
30
0
41
1
10
36.8861177080546
20
3.69463440657691
30
0
41
1
10
36.6738427241037
20
3.72046354007611
30
0
41
1
10
36.2522909471968
20
3.75565702019981
30
0
41
1
10
36.0424393991397
20
3.76515272897541
30
0
41
1
10
35.8125379935299
20
3.76680968570196
30
0
41
1
10
35.7920231944344
20
3.76688093626126
30
0
41
1
10
35.7715126349005
20
3.76687562698166
30
0
0
SPLINE
5
DC
100
AcDbEntity
8
1
62
256
6
ByLayer
370
18
48
1
60
0
100
AcDbSpline
70
4
71
3
72
32
73
28
40
0
40
0
40
0
40
0
40
0.0013665824956021
40
0.0013665824956021
40
0.0539262360484654
40
0.0539262360484654
40
0.159045543154192
40
0.159045543154192
40
0.264164850259919
40
0.264164850259919
40
0.316724503812782
40
0.316724503812782
40
0.369284157365645
40
0.369284157365645
40
0.579522771577095
40
0.579522771577095
40
0.632082425129958
40
0.632082425129958
40
0.684642078682822
40
0.684642078682822
40
0.789761385788548
40
0.789761385788548
40
0.842321039341411
40
0.842321039341411
40
0.894880692894273
40
0.894880692894273
40
1
40
1
40
1
40
1
41
1
10
20.1120488510049
20
-3.55309701914484
30
0
41
1
10
20.1065575973147
20
-3.55429778348477
30
0
41
1
10
20.1010657063739
20
-3.55549352177073
30
0
41
1
10
19.8843267011735
20
-3.60247954599021
30
0
41
1
10
19.6720467510101
20
-3.64074001822658
30
0
41
1
10
19.0399958162872
20
-3.73097316433714
30
0
41
1
10
18.6219738620264
20
-3.75916062807374
30
0
41
1
10
17.7860725660521
20
-3.75213182574461
30
0
41
1
10
17.3681233542952
20
-3.71691352752543
30
0
41
1
10
16.7362588685285
20
-3.61641298039024
30
0
41
1
10
16.5240718820036
20
-3.57477382221993
30
0
41
1
10
16.101248943562
20
-3.47649904026687
30
0
41
1
10
15.8908415709372
20
-3.41998514057275
30
0
41
1
10
14.8416758479261
20
-3.10260551462295
30
0
41
1
10
14.0115573011093
20
-2.73767346981097
30
0
41
1
10
12.9522578521519
20
-2.17102757686843
30
0
41
1
10
12.7408275076959
20
-2.05297228607347
30
0
41
1
10
12.3201069045897
20
-1.80985619748236
30
0
41
1
10
12.1104751624004
20
-1.68460950418716
30
0
41
1
10
11.4825233757713
20
-1.29960185323122
30
0
41
1
10
11.0651477221977
20
-1.03058029883087
30
0
41
1
10
10.4360823716467
20
-0.6154507319159
30
0
41
1
10
10.2258899869134
20
-0.475144536051204
30
0
41
1
10
9.80364680029157
20
-0.191854408086812
30
0
41
1
10
9.59122555933334
20
-0.0486468520371659
30
0
41
1
10
8.95638292107725
20
0.378540763503111
30
0
41
1
10
8.53427220101602
20
0.661148893712948
30
0
41
1
10
8.11040765463324
20
0.937312372894496
30
0
0
SPLINE
5
DD
100
AcDbEntity
8
1
62
256
6
ByLayer
370
18
48
1
60
0
100
AcDbSpline
70
4
71
3
72
18
73
14
40
0
40
0
40
0
40
0
40
0.249999999999995
40
0.249999999999995
40
0.374999999999995
40
0.374999999999995
40
0.499999999999995
40
0.499999999999995
40
0.749999999999999
40
0.749999999999999
40
0.874999999999999
40
0.874999999999999
40
1
40
1
40
1
40
1
41
1
10
88.6497914985547
20
-3.58537260720496
30
0
41
1
10
88.5727041930301
20
-3.57424846760972
30
0
41
1
10
88.5013740103071
20
-3.54664385408745
30
0
41
1
10
88.403837434202
20
-3.47816024449196
30
0
41
1
10
88.372875527215
20
-3.45067906868493
30
0
41
1
10
88.3155474747374
20
-3.3874659108539
30
0
41
1
10
88.2890041788521
20
-3.35163869008864
30
0
41
1
10
88.2157777479475
20
-3.23141297595856
30
0
41
1
10
88.1754403295483
20
-3.13438534419797
30
0
41
1
10
88.1287498580613
20
-2.96134821033041
30
0
41
1
10
88.1155323376707
20
-2.89896670931665
30
0
41
1
10
88.0944400607757
20
-2.76737440503865
30
0
41
1
10
88.0864718833147
20
-2.6978686754976
30
0
41
1
10
88.0810981071985
20
-2.62462971157075
30
0
0
SPLINE
5
DE
100
AcDbEntity
8
1
62
256
6
ByLayer
370
18
48
1
60
0
100
AcDbSpline
70
4
71
3
72
8
73
4
40
0
40
0
40
0
40
0
40
1
40
1
40
1
40
1
41
1
10
88.6430428496748
20
3.79131894224167
30
0
41
1
10
88.517457190867
20
3.7970144875429
30
0
41
1
10
88.3918519846966
20
3.79980363073383
30
0
41
1
10
88.2661493343086
20
3.79968573208191
30
0
0
SPLINE
5
DF
100
AcDbEntity
8
1
62
256
6
ByLayer
370
18
48
1
60
0
100
AcDbSpline
70
4
71
3
72
50
73
46
40
0
40
0
40
0
40
0
40
0.0800537261211891
40
0.0800537261211891
40
0.112569841350786
40
0.112569841350786
40
0.145085956580382
40
0.145085956580382
40
0.210118187039576
40
0.210118187039576
40
0.242634302269173
40
0.242634302269173
40
0.275150417498769
40
0.275150417498769
40
0.340182647957962
40
0.340182647957962
40
0.405214878417155
40
0.405214878417155
40
0.437730993646753
40
0.437730993646753
40
0.47024710887635
40
0.47024710887635
40
0.60031156979474
40
0.60031156979474
40
0.632827685024339
40
0.632827685024339
40
0.665343800253937
40
0.665343800253937
40
0.730376030713134
40
0.730376030713134
40
0.762892145942732
40
0.762892145942732
40
0.795408261172329
40
0.795408261172329
40
0.860440491631525
40
0.860440491631525
40
0.92547272209072
40
0.92547272209072
40
0.957988837320318
40
0.957988837320318
40
0.974246894935117
40
0.974246894935117
40
0.990504952549916
40
0.990504952549916
40
1
40
1
40
1
40
1
41
1
10
72.5983906072568
20
-3.58728209240712
30
0
41
1
10
72.085196922798
20
-3.69967318989225
30
0
41
1
10
71.5725693653633
20
-3.76613788485631
30
0
41
1
10
70.8438944127533
20
-3.79114760546386
30
0
41
1
10
70.6320218535424
20
-3.79023101333459
30
0
41
1
10
70.2113309230148
20
-3.77218914639065
30
0
41
1
10
70.0018720792662
20
-3.75512596038152
30
0
41
1
10
69.3749844241572
20
-3.68046376918065
30
0
41
1
10
68.9588190863813
20
-3.59948524018986
30
0
41
1
10
68.3325115696537
20
-3.43340046381653
30
0
41
1
10
68.1233417210968
20
-3.37062926383061
30
0
41
1
10
67.7034838571403
20
-3.23050902510096
30
0
41
1
10
67.492262624761
20
-3.15285032426328
30
0
41
1
10
66.8591110538819
20
-2.90029583791417
30
0
41
1
10
66.4410907771055
20
-2.7073441128328
30
0
41
1
10
65.6067563176657
20
-2.28032602456361
30
0
41
1
10
65.190435945328
20
-2.04624598209821
30
0
41
1
10
64.5620972519704
20
-1.67024382799488
30
0
41
1
10
64.3520044058024
20
-1.54076618371536
30
0
41
1
10
63.929697886163
20
-1.27443682363435
30
0
41
1
10
63.7184213900634
20
-1.1380928115999
30
0
41
1
10
62.6688031315509
20
-0.450107281412301
30
0
41
1
10
61.8413631228725
20
0.126000811774333
30
0
41
1
10
60.7889471551916
20
0.828392336919649
30
0
41
1
10
60.5769818910508
20
0.968466145484228
30
0
41
1
10
60.1558577830027
20
1.24191025455292
30
0
41
1
10
59.9461867997512
20
1.37560181344168
30
0
41
1
10
59.3186515963491
20
1.76615140053494
30
0
41
1
10
58.9023881976442
20
2.01265027590918
30
0
41
1
10
58.2758328597932
20
2.35485809078659
30
0
41
1
10
58.0667005377486
20
2.46443260990335
30
0
41
1
10
57.646954143863
20
2.6733772680314
30
0
41
1
10
57.4358954548105
20
2.77291179981483
30
0
41
1
10
56.8019452905283
20
3.05317907630291
30
0
41
1
10
56.383524740837
20
3.21323874031188
30
0
41
1
10
55.5484598859444
20
3.47644290289028
30
0
41
1
10
55.1320347442042
20
3.57969406274964
30
0
41
1
10
54.5035789871281
20
3.68861698486458
30
0
41
1
10
54.2935333805042
20
3.71729775455739
30
0
41
1
10
53.9769510162474
20
3.74839239811712
30
0
41
1
10
53.8710207638987
20
3.75676892419244
30
0
41
1
10
53.6599430602514
20
3.76939739156805
30
0
41
1
10
53.5546492733829
20
3.7736690126842
30
0
41
1
10
53.3881618066215
20
3.77723825713358
30
0
41
1
10
53.3268482599174
20
3.77786830428312
30
0
41
1
10
53.2655937900294
20
3.77781524467056
30
0
0
SPLINE
5
E0
100
AcDbEntity
8
1
62
256
6
ByLayer
370
18
48
1
60
0
100
AcDbSpline
70
4
71
3
72
46
73
42
40
0
40
0
40
0
40
0
40
0.0258813467468468
40
0.0258813467468468
40
0.0584780077890015
40
0.0584780077890015
40
0.0910746688311562
40
0.0910746688311562
40
0.156267990915466
40
0.156267990915466
40
0.18886465195762
40
0.18886465195762
40
0.221461312999774
40
0.221461312999774
40
0.351847957168394
40
0.351847957168394
40
0.384444618210549
40
0.384444618210549
40
0.417041279252705
40
0.417041279252705
40
0.482234601337016
40
0.482234601337016
40
0.547427923421327
40
0.547427923421327
40
0.580024584463481
40
0.580024584463481
40
0.612621245505637
40
0.612621245505637
40
0.677814567589947
40
0.677814567589947
40
0.710411228632102
40
0.710411228632102
40
0.743007889674257
40
0.743007889674257
40
0.873394533842878
40
0.873394533842878
40
0.905991194885035
40
0.905991194885035
40
0.93858785592719
40
0.93858785592719
40
1
40
1
40
1
40
1
41
1
10
37.5979534808793
20
-3.56663261224855
30
0
41
1
10
37.4310876858822
20
-3.60294730580358
30
0
41
1
10
37.2637333760911
20
-3.63455523919367
30
0
41
1
10
36.8840185195845
20
-3.6949379276561
30
0
41
1
10
36.6729596371213
20
-3.7205417373024
30
0
41
1
10
36.2528203293693
20
-3.75560834844595
30
0
41
1
10
36.0434884627384
20
-3.76510979212222
30
0
41
1
10
35.4163632246242
20
-3.76973541648186
30
0
41
1
10
34.9994949171997
20
-3.74100773189181
30
0
41
1
10
34.3710204556842
20
-3.65070943761262
30
0
41
1
10
34.1609804285897
20
-3.61274581417086
30
0
41
1
10
33.7390268609173
20
-3.52107998164448
30
0
41
1
10
33.5267789264202
20
-3.46719427591373
30
0
41
1
10
32.4734432145616
20
-3.16309301762095
30
0
41
1
10
31.6444763333252
20
-2.80774880530547
30
0
41
1
10
30.5928776436275
20
-2.25443379959981
30
0
41
1
10
30.3810976848501
20
-2.13797452263688
30
0
41
1
10
29.9581814593091
20
-1.89671899568844
30
0
41
1
10
29.7478144880427
20
-1.77227463466539
30
0
41
1
10
29.1185020300745
20
-1.38964796037905
30
0
41
1
10
28.7012857688864
20
-1.12227145942677
30
0
41
1
10
27.8653369141759
20
-0.571898070719982
30
0
41
1
10
27.4464103324278
20
-0.289186115233235
30
0
41
1
10
26.8118205977133
20
0.139424305672179
30
0
41
1
10
26.6001417733836
20
0.282313559150907
30
0
41
1
10
26.1794220234665
20
0.564415561111474
30
0
41
1
10
25.969857479443
20
0.704077831355789
30
0
41
1
10
25.3422298165822
20
1.11703198277601
30
0
41
1
10
24.9251390756145
20
1.38416780170624
30
0
41
1
10
24.2967922169366
20
1.76589045409017
30
0
41
1
10
24.0868227308112
20
1.88987078175214
30
0
41
1
10
23.6650112754289
20
2.13011179277311
30
0
41
1
10
23.452630069976
20
2.24682242881138
30
0
41
1
10
22.3977343857341
20
2.8009964289318
30
0
41
1
10
21.5683609833623
20
3.15528211044293
30
0
41
1
10
20.5169442634628
20
3.45770713222691
30
0
41
1
10
20.3055442590741
20
3.51120888532088
30
0
41
1
10
19.8820071232126
20
3.60293853683098
30
0
41
1
10
19.6713199328625
20
3.64084568237206
30
0
41
1
10
19.065583555532
20
3.72731661175337
30
0
41
1
10
18.6721964923624
20
3.75570295315094
30
0
41
1
10
18.2784144484459
20
3.75593690564551
30
0
0
SPLINE
5
E1
100
AcDbEntity
8
1
62
256
6
ByLayer
370
18
48
1
60
0
100
AcDbSpline
70
4
71
3
72
8
73
4
40
0
40
0
40
0
40
0
40
1
40
1
40
1
40
1
41
1
10
89.999927058909
20
0.0471493124389042
30
0
41
1
10
90.0000243135692
20
0.0157164787362376
30
0
41
1
10
90.0000243135692
20
-0.0157164787354134
30
0
41
1
10
89.999927058909
20
-0.04714931243808
30
0
0
SPLINE
5
E2
100
AcDbEntity
8
1
62
256
6
ByLayer
370
18
48
1
60
0
100
AcDbSpline
70
4
71
3
72
8
73
4
40
0
40
0
40
0
40
0
40
1
40
1
40
1
40
1
41
1
10
88.6881664012146
20
-3.67955361711381
30
0
41
1
10
88.6731312289037
20
-3.71687095707503
30
0
41
1
10
88.6580885626538
20
-3.75412779997507
30
0
41
1
10
88.6430428496748
20
-3.79131894224167
30
0
0
SPLINE
5
E3
100
AcDbEntity
8
1
62
256
6
ByLayer
370
18
48
1
60
0
100
AcDbSpline
70
4
71
3
72
36
73
32
40
0
40
0
40
0
40
0
40
0.069493751220757
40
0.069493751220757
40
0.138987502441514
40
0.138987502441514
40
0.208481253662271
40
0.208481253662271
40
0.277975004883028
40
0.277975004883028
40
0.347468756103785
40
0.347468756103785
40
0.416962507324542
40
0.416962507324542
40
0.486456258545299
40
0.486456258545299
40
0.555950009766056
40
0.555950009766056
40
0.625443760986813
40
0.625443760986813
40
0.69493751220757
40
0.69493751220757
40
0.764431263428327
40
0.764431263428327
40
0.833925014649084
40
0.833925014649084
40
0.903418765869841
40
0.903418765869841
40
0.972912517090598
40
0.972912517090598
40
1
40
1
40
1
40
1
41
1
10
8.42671047106859
20
0.199919497741462
30
0
41
1
10
8.63574775161035
20
0.0571251175106227
30
0
41
1
10
8.84553291663468
20
-0.0838434044702865
30
0
41
1
10
9.26519954621205
20
-0.364294278194905
30
0
41
1
10
9.4740671081901
20
-0.50527210592756
30
0
41
1
10
9.89358631925853
20
-0.783216549535297
30
0
41
1
10
10.1041274643451
20
-0.920862025178707
30
0
41
1
10
10.5230975863955
20
-1.1922955712804
30
0
41
1
10
10.7324721776965
20
-1.3253007673689
30
0
41
1
10
11.1517128386431
20
-1.58496117374557
30
0
41
1
10
11.361031023601
20
-1.71249503217521
30
0
41
1
10
11.7809857539461
20
-1.95943558493028
30
0
41
1
10
11.9909425543543
20
-2.07810444363889
30
0
41
1
10
12.4095747079632
20
-2.30745945537294
30
0
41
1
10
12.618751202959
20
-2.41749030850642
30
0
41
1
10
13.0384893899266
20
-2.62638982961127
30
0
41
1
10
13.2485011573992
20
-2.72614849973294
30
0
41
1
10
13.6674188370227
20
-2.91297784291763
30
0
41
1
10
13.8771764671762
20
-2.99974204153668
30
0
41
1
10
14.295957317589
20
-3.16125384440323
30
0
41
1
10
14.5053161986262
20
-3.23578978501621
30
0
41
1
10
14.9256186479443
20
-3.37016219093101
30
0
41
1
10
15.1350753022538
20
-3.43033959594547
30
0
41
1
10
15.5534949252683
20
-3.5360438910931
30
0
41
1
10
15.7631667362186
20
-3.58122325006923
30
0
41
1
10
16.1825784975919
20
-3.65668853334162
30
0
41
1
10
16.3922770601935
20
-3.68692918124191
30
0
41
1
10
16.8116620460575
20
-3.7311307562789
30
0
41
1
10
17.0210997612922
20
-3.74537867552078
30
0
41
1
10
17.3118792535683
20
-3.75415665755412
30
0
41
1
10
17.393540131357
20
-3.75540549412358
30
0
41
1
10
17.4752704645955
20
-3.75544267510219
30
0
0
SPLINE
5
E4
100
AcDbEntity
8
1
62
256
6
ByLayer
370
18
48
1
60
0
100
AcDbSpline
70
4
71
3
72
84
73
80
40
0
40
0
40
0
40
0
40
0.0191821747054292
40
0.0191821747054292
40
0.045607928510399
40
0.045607928510399
40
0.0720336823153686
40
0.0720336823153686
40
0.0984594361203382
40
0.0984594361203382
40
0.124885189925308
40
0.124885189925308
40
0.151310943730278
40
0.151310943730278
40
0.177736697535247
40
0.177736697535247
40
0.204162451340217
40
0.204162451340217
40
0.230588205145187
40
0.230588205145187
40
0.257013958950156
40
0.257013958950156
40
0.283439712755126
40
0.283439712755126
40
0.309865466560096
40
0.309865466560096
40
0.336291220365065
40
0.336291220365065
40
0.362716974170035
40
0.362716974170035
40
0.389142727975005
40
0.389142727975005
40
0.415568481779974
40
0.415568481779974
40
0.441994235584944
40
0.441994235584944
40
0.468419989389914
40
0.468419989389914
40
0.494845743194883
40
0.494845743194883
40
0.521271496999853
40
0.521271496999853
40
0.547697250804823
40
0.547697250804823
40
0.574123004609792
40
0.574123004609792
40
0.600548758414762
40
0.600548758414762
40
0.626974512219732
40
0.626974512219732
40
0.653400266024701
40
0.653400266024701
40
0.679826019829671
40
0.679826019829671
40
0.706251773634641
40
0.706251773634641
40
0.73267752743961
40
0.73267752743961
40
0.75910328124458
40
0.75910328124458
40
0.78552903504955
40
0.78552903504955
40
0.811954788854519
40
0.811954788854519
40
0.838380542659489
40
0.838380542659489
40
0.864806296464459
40
0.864806296464459
40
0.891232050269428
40
0.891232050269428
40
0.917657804074398
40
0.917657804074398
40
0.944083557879368
40
0.944083557879368
40
0.970509311684337
40
0.970509311684337
40
0.996935065489307
40
0.996935065489307
40
1
40
1
40
1
40
1
41
1
10
28.716641466934
20
1.62657584268041
30
0
41
1
10
28.8688503993066
20
1.71933599370516
30
0
41
1
10
29.0209248976527
20
1.81048454432943
30
0
41
1
10
29.3820564334651
20
2.02144209318891
30
0
41
1
10
29.5916351599106
20
2.13886841945626
30
0
41
1
10
30.010106558147
20
2.36578588963289
30
0
41
1
10
30.2197227254849
20
2.47491232802506
30
0
41
1
10
30.6393592709375
20
2.68098543829004
30
0
41
1
10
30.8484528744563
20
2.7787129736875
30
0
41
1
10
31.266549141985
20
2.96208525691279
30
0
41
1
10
31.4761825769534
20
3.04717805625342
30
0
41
1
10
31.8954403786232
20
3.20521638023561
30
0
41
1
10
32.1048259863031
20
3.27791442867684
30
0
41
1
10
32.5237605202053
20
3.40797888701002
30
0
41
1
10
32.7329191970374
20
3.46599622745734
30
0
41
1
10
33.1511583511533
20
3.56749314997603
30
0
41
1
10
33.3613154103723
20
3.61066130019742
30
0
41
1
10
33.7805714940388
20
3.68161456079739
30
0
41
1
10
33.9892732950455
20
3.70944122306344
30
0
41
1
10
34.4078521202806
20
3.74901795918851
30
0
41
1
10
34.6172951164875
20
3.76094877107155
30
0
41
1
10
35.036211504401
20
3.76887671319074
30
0
41
1
10
35.24600276939
20
3.76479734302205
30
0
41
1
10
35.6647585145618
20
3.74084906602562
30
0
41
1
10
35.8734378620833
20
3.72085368551541
30
0
41
1
10
36.2920083556251
20
3.66527829042843
30
0
41
1
10
36.5022855264454
20
3.6297315106726
30
0
41
1
10
36.920989980223
20
3.54307870096525
30
0
41
1
10
37.1299973072457
20
3.49220476495148
30
0
41
1
10
37.5486585080819
20
3.37629132820285
30
0
41
1
10
37.7576052182375
20
3.3108055364122
30
0
41
1
10
38.1766405547172
20
3.16584118843394
30
0
41
1
10
38.3866866447467
20
3.08694799137155
30
0
41
1
10
38.8049275721193
20
2.91587893827298
30
0
41
1
10
39.0136621308028
20
2.82381739957427
30
0
41
1
10
39.4326236527722
20
2.62890711003504
30
0
41
1
10
39.6424304854607
20
2.52511428023939
30
0
41
1
10
40.0609275185997
20
2.30736299028541
30
0
41
1
10
40.2703750441263
20
2.19420219436296
30
0
41
1
10
40.6886421734383
20
1.95818213756553
30
0
41
1
10
40.897383170157
20
1.83516373246485
30
0
41
1
10
41.3169895146591
20
1.58282105453651
30
0
41
1
10
41.5265901737631
20
1.45304971774925
30
0
41
1
10
41.9444918920195
20
1.18742726930495
30
0
41
1
10
42.1537190293434
20
1.05249583737341
30
0
41
1
10
42.5724418570962
20
0.778026237992634
30
0
41
1
10
42.7818577873836
20
0.63765221970408
30
0
41
1
10
43.2007550621787
20
0.356947397705994
30
0
41
1
10
43.4100694567188
20
0.216080079657473
30
0
41
1
10
43.8279009691953
20
-0.0674691645376413
30
0
41
1
10
44.0370896968761
20
-0.209156811431086
30
0
41
1
10
44.4566766677877
20
-0.491370947187278
30
0
41
1
10
44.6657052137255
20
-0.632287071940709
30
0
41
1
10
45.0838114654875
20
-0.909679048148632
30
0
41
1
10
45.2932116866268
20
-1.04598896111162
30
0
41
1
10
45.7114699425039
20
-1.31558705486574
30
0
41
1
10
45.9211383494229
20
-1.44832266430939
30
0
41
1
10
46.3401443670841
20
-1.70548372682481
30
0
41
1
10
46.548939422899
20
-1.83104534273426
30
0
41
1
10
46.9667743978399
20
-2.0738978738575
30
0
41
1
10
47.1763611558546
20
-2.19053652827333
30
0
41
1
10
47.5955524158331
20
-2.41581399852066
30
0
41
1
10
47.804441942608
20
-2.52367584900801
30
0
41
1
10
48.2229454954331
20
-2.7269682221584
30
0
41
1
10
48.4318832336864
20
-2.82325681475748
30
0
41
1
10
48.849984669009
20
-3.00409089111673
30
0
41
1
10
49.060136035226
20
-3.08808340563144
30
0
41
1
10
49.4787287021235
20
-3.24277655999347
30
0
41
1
10
49.6872101180347
20
-3.31367246672508
30
0
41
1
10
50.1055557059601
20
-3.4404295193597
30
0
41
1
10
50.3148745748148
20
-3.49673271911919
30
0
41
1
10
50.7337749090906
20
-3.59489029832844
30
0
41
1
10
50.9430575998839
20
-3.63613398809275
30
0
41
1
10
51.3613273638042
20
-3.70321980000503
30
0
41
1
10
51.5698201657843
20
-3.72915840166994
30
0
41
1
10
51.9883461694106
20
-3.76497749569163
30
0
41
1
10
52.1984756730101
20
-3.77496436227148
30
0
41
1
10
52.43175865901
20
-3.77718148127815
30
0
41
1
10
52.4560010232752
20
-3.77730400818396
30
0
41
1
10
52.4802416998917
20
-3.77731884723238
30
0
0
SPLINE
5
E5
100
AcDbEntity
8
1
62
256
6
ByLayer
370
18
48
1
60
0
100
AcDbSpline
70
4
71
3
72
82
73
78
40
0
40
0
40
0
40
0
40
0.0258384306188062
40
0.0258384306188062
40
0.0522041760140905
40
0.0522041760140905
40
0.0785699214093748
40
0.0785699214093748
40
0.104935666804659
40
0.104935666804659
40
0.131301412199943
40
0.131301412199943
40
0.157667157595227
40
0.157667157595227
40
0.184032902990511
40
0.184032902990511
40
0.210398648385795
40
0.210398648385795
40
0.23676439378108
40
0.23676439378108
40
0.263130139176364
40
0.263130139176364
40
0.289495884571648
40
0.289495884571648
40
0.315861629966932
40
0.315861629966932
40
0.342227375362216
40
0.342227375362216
40
0.3685931207575
40
0.3685931207575
40
0.394958866152785
40
0.394958866152785
40
0.421324611548068
40
0.421324611548068
40
0.447690356943353
40
0.447690356943353
40
0.474056102338637
40
0.474056102338637
40
0.500421847733921
40
0.500421847733921
40
0.526787593129205
40
0.526787593129205
40
0.553153338524489
40
0.553153338524489
40
0.579519083919773
40
0.579519083919773
40
0.605884829315057
40
0.605884829315057
40
0.632250574710341
40
0.632250574710341
40
0.658616320105626
40
0.658616320105626
40
0.68498206550091
40
0.68498206550091
40
0.711347810896194
40
0.711347810896194
40
0.737713556291478
40
0.737713556291478
40
0.764079301686762
40
0.764079301686762
40
0.790445047082046
40
0.790445047082046
40
0.81681079247733
40
0.81681079247733
40
0.843176537872615
40
0.843176537872615
40
0.869542283267899
40
0.869542283267899
40
0.895908028663183
40
0.895908028663183
40
0.922273774058467
40
0.922273774058467
40
0.948639519453751
40
0.948639519453751
40
0.975005264849035
40
0.975005264849035
40
1
40
1
40
1
40
1
41
1
10
63.7127357552471
20
1.63024249900556
30
0
41
1
10
63.9176001547137
20
1.75551625599402
30
0
41
1
10
64.1222069365205
20
1.87779862303844
30
0
41
1
10
64.5360500266065
20
2.11743781842282
30
0
41
1
10
64.7459794458913
20
2.23377001764584
30
0
41
1
10
65.1639916794446
20
2.45674338802897
30
0
41
1
10
65.3722857127011
20
2.5636763127423
30
0
41
1
10
65.7904206452411
20
2.76519756450642
30
0
41
1
10
65.9999409517052
20
2.86059174594325
30
0
41
1
10
66.4181347540407
20
3.03942314261738
30
0
41
1
10
66.6271793423135
20
3.12204926777446
30
0
41
1
10
67.0450389995385
20
3.27404313057184
30
0
41
1
10
67.2533995459664
20
3.34369845614512
30
0
41
1
10
67.6718904070246
20
3.46813618343774
30
0
41
1
10
67.8817080197798
20
3.52309132379057
30
0
41
1
10
68.2992339751868
20
3.61814550899012
30
0
41
1
10
68.507928547657
20
3.65799307362912
30
0
41
1
10
68.9260420612192
20
3.72213362269733
30
0
41
1
10
69.1351292182342
20
3.74662431922951
30
0
41
1
10
69.5534229578394
20
3.7794309918597
30
0
41
1
10
69.7626657070215
20
3.7878037191125
30
0
41
1
10
70.1800299644205
20
3.7886802521779
30
0
41
1
10
70.3885918935445
20
3.78109419493222
30
0
41
1
10
70.8073629641342
20
3.75008111844232
30
0
41
1
10
71.0166315179999
20
3.72652521086809
30
0
41
1
10
71.4340579277736
20
3.66383203232834
30
0
41
1
10
71.6431498037563
20
3.62494703231658
30
0
41
1
10
72.0608523708125
20
3.53165926243312
30
0
41
1
10
72.2698775087442
20
3.4770894568905
30
0
41
1
10
72.6885632215544
20
3.35428739198255
30
0
41
1
10
72.8973583509863
20
3.2857256188542
30
0
41
1
10
73.3144732029442
20
3.13463622605747
30
0
41
1
10
73.5235256666983
20
3.05271226070047
30
0
41
1
10
73.9420323107702
20
2.87562711008192
30
0
41
1
10
74.1509011225073
20
2.78020843608812
30
0
41
1
10
74.5687839072979
20
2.5796327975728
30
0
41
1
10
74.7776517961946
20
2.47394048259008
30
0
41
1
10
75.1949936524466
20
2.25136780472766
30
0
41
1
10
75.4045132509554
20
2.13508663945691
30
0
41
1
10
75.8229761390467
20
1.89446637297468
30
0
41
1
10
76.0312951425151
20
1.76945625371303
30
0
41
1
10
76.4487145139112
20
1.51340813506781
30
0
41
1
10
76.6578579296005
20
1.38247214200672
30
0
41
1
10
77.0759418260673
20
1.11323710953005
30
0
41
1
10
77.2850576101403
20
0.97595767362003
30
0
41
1
10
77.7029844246485
20
0.699298612902425
30
0
41
1
10
77.9113588597453
20
0.558719068647918
30
0
41
1
10
78.3287905914158
20
0.275734745415804
30
0
41
1
10
78.5386682836409
20
0.133802869963233
30
0
41
1
10
78.9565916420606
20
-0.151067984002537
30
0
41
1
10
79.1649277941869
20
-0.293597767729636
30
0
41
1
10
79.5827005129458
20
-0.575407302692952
30
0
41
1
10
79.7913793934686
20
-0.715799173729835
30
0
41
1
10
80.2093755051666
20
-0.993993473649226
30
0
41
1
10
80.4188723307359
20
-1.13046441548118
30
0
41
1
10
80.83639073873
20
-1.39857734420363
30
0
41
1
10
81.0445174540973
20
-1.53051344581451
30
0
41
1
10
81.4624740483971
20
-1.78612382665196
30
0
41
1
10
81.6720389615662
20
-1.91082637797109
30
0
41
1
10
82.0895907426857
20
-2.15196750655696
30
0
41
1
10
82.2983934394686
20
-2.26756298602504
30
0
41
1
10
82.7159226874846
20
-2.48909163090499
30
0
41
1
10
82.9241950599762
20
-2.59549414114886
30
0
41
1
10
83.3426660768226
20
-2.79629204836965
30
0
41
1
10
83.552012581775
20
-2.89066468883027
30
0
41
1
10
83.9690613141604
20
-3.06751002569374
30
0
41
1
10
84.1775903735133
20
-3.14944974781704
30
0
41
1
10
84.5955381678197
20
-3.29972350251993
30
0
41
1
10
84.8046383013227
20
-3.36861486024483
30
0
41
1
10
85.2222967941277
20
-3.49120990216724
30
0
41
1
10
85.4313047008019
20
-3.54488944109889
30
0
41
1
10
85.8483543430967
20
-3.63779257989088
30
0
41
1
10
86.0568264861384
20
-3.67672606086342
30
0
41
1
10
86.4755924371968
20
-3.73880229023322
30
0
41
1
10
86.6843583543944
20
-3.76207675597235
30
0
41
1
10
87.0904714192168
20
-3.79181141420807
30
0
41
1
10
87.2885160502294
20
-3.79907973382208
30
0
41
1
10
87.4864516175684
20
-3.79919823977338
30
0
0
SPLINE
5
E6
100
AcDbEntity
8
1
62
256
6
ByLayer
370
18
48
1
60
0
100
AcDbSpline
70
4
71
3
72
18
73
14
40
0
40
0
40
0
40
0
40
0.125
40
0.125
40
0.25
40
0.25
40
0.375
40
0.375
40
0.5
40
0.5
40
0.75
40
0.75
40
1
40
1
40
1
40
1
41
1
10
89.5152870511761
20
-1.20744311974843
30
0
41
1
10
89.5115267506489
20
-1.22834890880253
30
0
41
1
10
89.5067640538981
20
-1.25059643581969
30
0
41
1
10
89.4953250011405
20
-1.29766622078219
30
0
41
1
10
89.4885580509094
20
-1.32278493381074
30
0
41
1
10
89.4735369376758
20
-1.37405415012432
30
0
41
1
10
89.4653203483559
20
-1.40013438947318
30
0
41
1
10
89.4475776188493
20
-1.45313957756656
30
0
41
1
10
89.4380136457532
20
-1.48013742802473
30
0
41
1
10
89.4085198055257
20
-1.55942759616687
30
0
41
1
10
89.3871634381419
20
-1.6117259400813
30
0
41
1
10
89.3443565550612
20
-1.70875470545983
30
0
41
1
10
89.3225492527007
20
-1.75435379696759
30
0
41
1
10
89.3013030531101
20
-1.79535932257517
30
0
0
SPLINE
5
E7
100
AcDbEntity
8
1
62
256
6
ByLayer
370
18
48
1
60
0
100
AcDbSpline
70
4
71
3
72
8
73
4
40
0
40
0
40
0
40
0
40
1
40
1
40
1
40
1
41
1
10
88.7701881962911
20
-3.69948422827039
30
0
41
1
10
89.1412178379471
20
-2.81822224168971
30
0
41
1
10
89.5069277362295
20
-1.92557968039628
30
0
41
1
10
89.8493558221685
20
-1.01475049327144
30
0
0
SPLINE
5
E8
100
AcDbEntity
8
1
62
256
6
ByLayer
370
18
48
1
60
0
100
AcDbSpline
70
4
71
3
72
8
73
4
40
0
40
0
40
0
40
0
40
1
40
1
40
1
40
1
41
1
10
89.8493558221689
20
-1.01475049327047
30
0
41
1
10
89.896710730269
20
-0.729954866628077
30
0
41
1
10
89.9385643134847
20
-0.445194904565881
30
0
41
1
10
89.9748783679311
20
-0.16047085475617
30
0
0
SPLINE
5
E9
100
AcDbEntity
8
1
62
256
6
ByLayer
370
18
48
1
60
0
100
AcDbSpline
70
4
71
3
72
8
73
4
40
0
40
0
40
0
40
0
40
1
40
1
40
1
40
1
41
1
10
87.0273483551649
20
-1.92727889138271
30
0
41
1
10
87.3649090174169
20
-2.19477615254675
30
0
41
1
10
87.7173441304626
20
-2.4241921089567
30
0
41
1
10
88.0810981071974
20
-2.62462971157035
30
0
0
SPLINE
5
EA
100
AcDbEntity
8
1
62
256
6
ByLayer
370
18
48
1
60
0
100
AcDbSpline
70
4
71
3
72
19
73
15
40
0
40
0
40
0
40
0
40
0.125
40
0.125
40
0.25
40
0.25
40
0.5
40
0.5
40
0.625
40
0.625
40
0.75
40
0.875
40
0.875
40
1
40
1
40
1
40
1
41
1
10
8.00340288294743
20
1.11234345517445
30
0
41
1
10
8.00339289782983
20
1.23312102987319
30
0
41
1
10
8.00338241153247
20
1.35231847493401
30
0
41
1
10
8.00336093112898
20
1.58477790287344
30
0
41
1
10
8.00334997902826
20
1.6976415638708
30
0
41
1
10
8.00331687590852
20
2.02642833393889
30
0
41
1
10
8.00329447804239
20
2.23264578495034
30
0
41
1
10
8.00326184142762
20
2.52187886199775
30
0
41
1
10
8.00325121202528
20
2.614116551515
30
0
41
1
10
8.00323092952422
20
2.78803670854461
30
0
41
1
10
8.00321153339871
20
2.9521926804417
30
0
41
1
10
8.00319425319134
20
3.09701477968758
30
0
41
1
10
8.00317820064794
20
3.23197369626652
30
0
41
1
10
8.00317076406273
20
3.29473454932452
30
0
41
1
10
8.00316416122485
20
3.35117859567279
30
0
0
SPLINE
5
EB
100
AcDbEntity
8
1
62
256
6
ByLayer
370
18
48
1
60
0
100
AcDbSpline
70
4
71
3
72
82
73
78
40
0
40
0
40
0
40
0
40
0.0134683949105622
40
0.0134683949105622
40
0.0394694388614971
40
0.0394694388614971
40
0.065470482812432
40
0.065470482812432
40
0.0914715267633669
40
0.0914715267633669
40
0.117472570714302
40
0.117472570714302
40
0.143473614665237
40
0.143473614665237
40
0.169474658616172
40
0.169474658616172
40
0.195475702567106
40
0.195475702567106
40
0.221476746518041
40
0.221476746518041
40
0.247477790468976
40
0.247477790468976
40
0.273478834419911
40
0.273478834419911
40
0.299479878370846
40
0.299479878370846
40
0.325480922321781
40
0.325480922321781
40
0.351481966272716
40
0.351481966272716
40
0.37748301022365
40
0.37748301022365
40
0.403484054174585
40
0.403484054174585
40
0.42948509812552
40
0.42948509812552
40
0.455486142076455
40
0.455486142076455
40
0.48148718602739
40
0.48148718602739
40
0.533489273929259
40
0.533489273929259
40
0.559490317880194
40
0.559490317880194
40
0.585491361831129
40
0.585491361831129
40
0.611492405782064
40
0.611492405782064
40
0.637493449732999
40
0.637493449732999
40
0.663494493683933
40
0.663494493683933
40
0.689495537634868
40
0.689495537634868
40
0.715496581585803
40
0.715496581585803
40
0.741497625536738
40
0.741497625536738
40
0.767498669487673
40
0.767498669487673
40
0.793499713438608
40
0.793499713438608
40
0.819500757389543
40
0.819500757389543
40
0.845501801340477
40
0.845501801340477
40
0.871502845291412
40
0.871502845291412
40
0.897503889242347
40
0.897503889242347
40
0.923504933193282
40
0.923504933193282
40
0.949505977144217
40
0.949505977144217
40
0.975507021095152
40
0.975507021095152
40
1
40
1
40
1
40
1
41
1
10
81.2158809494907
20
-1.64449523937182
30
0
41
1
10
81.110093419362
20
-1.705014841994
30
0
41
1
10
81.0042793582219
20
-1.76466385850955
30
0
41
1
10
80.6939767771415
20
-1.93670128733527
30
0
41
1
10
80.4891288864694
20
-2.04657123292347
30
0
41
1
10
80.0806971198557
20
-2.25630137480624
30
0
41
1
10
79.8765756040135
20
-2.35678982750107
30
0
41
1
10
79.4680663553572
20
-2.54861481659623
30
0
41
1
10
79.2635608505236
20
-2.63979877037701
30
0
41
1
10
78.8543676570312
20
-2.81031463695203
30
0
41
1
10
78.6500949154249
20
-2.89008389384639
30
0
41
1
10
78.2416705331518
20
-3.03813221521264
30
0
41
1
10
78.0375075065533
20
-3.10607400359308
30
0
41
1
10
77.6285357132817
20
-3.22828652472822
30
0
41
1
10
77.4237235082991
20
-3.28329822935899
30
0
41
1
10
77.0149631271107
20
-3.38030606887728
30
0
41
1
10
76.8107686508429
20
-3.42194502790642
30
0
41
1
10
76.4021115118945
20
-3.49033586585884
30
0
41
1
10
76.1973341702986
20
-3.51782718877357
30
0
41
1
10
75.7880929782805
20
-3.5592144436894
30
0
41
1
10
75.5838403234338
20
-3.57267674557244
30
0
41
1
10
75.1754683820362
20
-3.58396752335472
30
0
41
1
10
74.9711705760321
20
-3.58249330692402
30
0
41
1
10
74.5618200180185
20
-3.56604321515184
30
0
41
1
10
74.3572013649567
20
-3.55052145206807
30
0
41
1
10
73.9486654878369
20
-3.5042824288588
30
0
41
1
10
73.7444977112527
20
-3.47412530631192
30
0
41
1
10
73.3357504489331
20
-3.40072089089898
30
0
41
1
10
73.1308498122697
20
-3.35692401905686
30
0
41
1
10
72.7219407145845
20
-3.25525880160117
30
0
41
1
10
72.5177780316073
20
-3.19786097756273
30
0
41
1
10
72.1092211024794
20
-3.07126655590611
30
0
41
1
10
71.904869629592
20
-3.0015984876334
30
0
41
1
10
71.4953575417417
20
-2.84929638755975
30
0
41
1
10
71.2909353547334
20
-2.76736035049538
30
0
41
1
10
70.8822175582226
20
-2.59375958013322
30
0
41
1
10
70.6779914414772
20
-2.50136061086522
30
0
41
1
10
70.2690905628969
20
-2.30598806524952
30
0
41
1
10
70.064096331922
20
-2.20339443993632
30
0
41
1
10
69.4505475439401
20
-1.88419817437145
30
0
41
1
10
69.0423154352658
20
-1.65371803698844
30
0
41
1
10
68.4280001969494
20
-1.29158761883539
30
0
41
1
10
68.2236262869806
20
-1.16830270253419
30
0
41
1
10
67.815150660659
20
-0.916731727913799
30
0
41
1
10
67.610921757187
20
-0.789014185117168
30
0
41
1
10
67.2017584626876
20
-0.530829675016321
30
0
41
1
10
66.9968324967173
20
-0.400242855411051
30
0
41
1
10
66.5881087326774
20
-0.138377884704056
30
0
41
1
10
66.3839636752795
20
-0.0070107544798361
30
0
41
1
10
65.9752062731613
20
0.255172239239755
30
0
41
1
10
65.7704168633757
20
0.386321705424194
30
0
41
1
10
65.3612411390143
20
0.646405187428428
30
0
41
1
10
65.1568282039371
20
0.775050307002743
30
0
41
1
10
64.7479996228766
20
1.0289248931343
30
0
41
1
10
64.5436627652712
20
1.15421767933307
30
0
41
1
10
64.1342229018389
20
1.39939363344706
30
0
41
1
10
63.9293220276517
20
1.51948285622157
30
0
41
1
10
63.5203619368081
20
1.75293134087607
30
0
41
1
10
63.3159932751341
20
1.86638886975462
30
0
41
1
10
62.9069919350702
20
2.08450475245203
30
0
41
1
10
62.701983494617
20
2.18991470939287
30
0
41
1
10
62.2925095157453
20
2.39167606157423
30
0
41
1
10
62.0880317676404
20
2.48808712630449
30
0
41
1
10
61.6792414952625
20
2.66889185612951
30
0
41
1
10
61.4747781100589
20
2.75414601578518
30
0
41
1
10
61.064902517108
20
2.91432671451383
30
0
41
1
10
60.8601620078805
20
2.98896863057658
30
0
41
1
10
60.4514189067967
20
3.12402587729716
30
0
41
1
10
60.2470687094547
20
3.18520523981138
30
0
41
1
10
59.8378079948765
20
3.29566335232431
30
0
41
1
10
59.6327281736722
20
3.34482243629188
30
0
41
1
10
59.2236165763724
20
3.42741729622605
30
0
41
1
10
59.0192899094943
20
3.46170415561934
30
0
41
1
10
58.6104109487225
20
3.51767261294276
30
0
41
1
10
58.4057339329448
20
3.53887463270428
30
0
41
1
10
58.0078595037078
20
3.56458394809692
30
0
41
1
10
57.8152922944493
20
3.5703030917262
30
0
41
1
10
57.6227081160088
20
3.57007046231493
30
0
0
SPLINE
5
EC
100
AcDbEntity
8
1
62
256
6
ByLayer
370
18
48
1
60
0
100
AcDbSpline
70
4
71
3
72
78
73
74
40
0
40
0
40
0
40
0
40
0.0127137200003168
40
0.0127137200003168
40
0.0387744921425393
40
0.0387744921425393
40
0.0648352642847618
40
0.0648352642847618
40
0.090896036426984
40
0.090896036426984
40
0.116956808569206
40
0.116956808569206
40
0.143017580711429
40
0.143017580711429
40
0.169078352853651
40
0.169078352853651
40
0.195139124995874
40
0.195139124995874
40
0.221199897138096
40
0.221199897138096
40
0.247260669280318
40
0.247260669280318
40
0.273321441422541
40
0.273321441422541
40
0.299382213564763
40
0.299382213564763
40
0.325442985706986
40
0.325442985706986
40
0.351503757849208
40
0.351503757849208
40
0.403625302133654
40
0.403625302133654
40
0.429686074275877
40
0.429686074275877
40
0.455746846418099
40
0.455746846418099
40
0.507868390702544
40
0.507868390702544
40
0.559989934986988
40
0.559989934986988
40
0.586050707129211
40
0.586050707129211
40
0.612111479271434
40
0.612111479271434
40
0.638172251413657
40
0.638172251413657
40
0.664233023555879
40
0.664233023555879
40
0.690293795698102
40
0.690293795698102
40
0.716354567840325
40
0.716354567840325
40
0.742415339982548
40
0.742415339982548
40
0.76847611212477
40
0.76847611212477
40
0.794536884266993
40
0.794536884266993
40
0.820597656409216
40
0.820597656409216
40
0.846658428551439
40
0.846658428551439
40
0.872719200693661
40
0.872719200693661
40
0.898779972835884
40
0.898779972835884
40
0.924840744978107
40
0.924840744978107
40
0.950901517120329
40
0.950901517120329
40
0.976962289262552
40
0.976962289262552
40
1
40
1
40
1
40
1
41
1
10
46.2212862022695
20
-1.63517836939806
30
0
41
1
10
46.1213254735736
20
-1.69200770835963
30
0
41
1
10
46.0213991320578
20
-1.74799560257696
30
0
41
1
10
45.7171006737715
20
-1.9155573159517
30
0
41
1
10
45.5126528253937
20
-2.024513207165
30
0
41
1
10
45.1035027819124
20
-2.23445883139058
30
0
41
1
10
44.8986511429535
20
-2.33551688996533
30
0
41
1
10
44.4889029846422
20
-2.52617275581289
30
0
41
1
10
44.2842959699992
20
-2.61666334161879
30
0
41
1
10
43.8751675516039
20
-2.787491286597
30
0
41
1
10
43.6705882760263
20
-2.86761827630417
30
0
41
1
10
43.2608947621472
20
-3.01434932917348
30
0
41
1
10
43.0557853775796
20
-3.08207315630801
30
0
41
1
10
42.6462854635134
20
-3.20524179192503
30
0
41
1
10
42.4417029930326
20
-3.26066834900627
30
0
41
1
10
42.0323695358668
20
-3.35641493916586
30
0
41
1
10
41.8272016013518
20
-3.39785176133034
30
0
41
1
10
41.4172613823592
20
-3.46753713672425
30
0
41
1
10
41.2126339203258
20
-3.49561167044192
30
0
41
1
10
40.8034868774519
20
-3.535839599404
30
0
41
1
10
40.5988061529981
20
-3.54894996100393
30
0
41
1
10
40.1886821400881
20
-3.56154660039368
30
0
41
1
10
39.9837083650161
20
-3.56072392841739
30
0
41
1
10
39.5744338417576
20
-3.54335868504907
30
0
41
1
10
39.3698696425351
20
-3.52776075194336
30
0
41
1
10
38.9603464548917
20
-3.48315010430662
30
0
41
1
10
38.7550276524387
20
-3.45365409691163
30
0
41
1
10
38.3454140007818
20
-3.37959623476993
30
0
41
1
10
38.1409181254747
20
-3.33571579429687
30
0
41
1
10
37.5269554760697
20
-3.18515076616129
30
0
41
1
10
37.1165391470267
20
-3.05679008373591
30
0
41
1
10
36.502417785686
20
-2.83115747561359
30
0
41
1
10
36.2978520441097
20
-2.74980794997063
30
0
41
1
10
35.8881416470046
20
-2.57580338985747
30
0
41
1
10
35.6827763820816
20
-2.48344702718072
30
0
41
1
10
35.0681740079623
20
-2.19283406055172
30
0
41
1
10
34.6590884017633
20
-1.97922841325851
30
0
41
1
10
33.8386821026697
20
-1.52389975900553
30
0
41
1
10
33.4301597660809
20
-1.28219085889287
30
0
41
1
10
32.8152319342161
20
-0.906814519060674
30
0
41
1
10
32.6099903999241
20
-0.779269979623223
30
0
41
1
10
32.2005308812414
20
-0.522110036799603
30
0
41
1
10
31.9959177386797
20
-0.392507086310047
30
0
41
1
10
31.5863925226843
20
-0.131964156036474
30
0
41
1
10
31.3812430438489
20
-0.0007707327371804
30
0
41
1
10
30.971212332089
20
0.260733586602669
30
0
41
1
10
30.7664553834771
20
0.390909650056159
30
0
41
1
10
30.3570153981703
20
0.649253446670741
30
0
41
1
10
30.1523642972048
20
0.777415343443067
30
0
41
1
10
29.7421643005155
20
1.0303132788961
30
0
41
1
10
29.5369408804564
20
1.15504286556543
30
0
41
1
10
29.1274046484503
20
1.39893983850061
30
0
41
1
10
28.9227865993128
20
1.51798165559418
30
0
41
1
10
28.5130958133697
20
1.74964991754695
30
0
41
1
10
28.3077508222854
20
1.86275853322215
30
0
41
1
10
27.897774071457
20
2.08015797623207
30
0
41
1
10
27.6931349995315
20
2.18446410428999
30
0
41
1
10
27.2837734924163
20
2.38395933513158
30
0
41
1
10
27.0789374624279
20
2.47947104784259
30
0
41
1
10
26.6685048706139
20
2.66011106778933
30
0
41
1
10
26.4636654776552
20
2.74479940864037
30
0
41
1
10
26.0542448771756
20
2.90247523728968
30
0
41
1
10
25.8495190330079
20
2.97619072221099
30
0
41
1
10
25.4396973169451
20
3.11075808792873
30
0
41
1
10
25.2343815042098
20
3.17162424808313
30
0
41
1
10
24.8246343644781
20
3.27956893142741
30
0
41
1
10
24.6198805371114
20
3.32780592096452
30
0
41
1
10
24.2103374250252
20
3.41021646968341
30
0
41
1
10
24.005317331825
20
3.44428893779133
30
0
41
1
10
23.5948692811725
20
3.49792493111656
30
0
41
1
10
23.390002798321
20
3.51833620963393
30
0
41
1
10
23.0040920072369
20
3.54290923587732
30
0
41
1
10
22.8230899037824
20
3.54849723224254
30
0
41
1
10
22.6419033029159
20
3.54828211555537
30
0
0
SPLINE
5
ED
100
AcDbEntity
8
1
62
256
6
ByLayer
370
18
48
1
60
0
100
AcDbSpline
70
4
71
3
72
14
73
10
40
0
40
0
40
0
40
0
40
0.116997987096841
40
0.116997987096841
40
0.558498993548428
40
0.558498993548428
40
0.779249496774214
40
0.779249496774214
40
1
40
1
40
1
40
1
41
1
10
11.2118348395738
20
-1.63398967728543
30
0
41
1
10
11.1032443198465
20
-1.69517773135212
30
0
41
1
10
10.9946706522088
20
-1.75542483409481
30
0
41
1
10
10.476246260459
20
-2.03820091766275
30
0
41
1
10
10.0652142913083
20
-2.24739625923942
30
0
41
1
10
9.45146462400973
20
-2.53018950549978
30
0
41
1
10
9.24693205571748
20
-2.61924617794506
30
0
41
1
10
8.83833864133032
20
-2.78755007728708
30
0
41
1
10
8.63318941674788
20
-2.86566948800814
30
0
41
1
10
8.42671047106865
20
-2.93780369301109
30
0
0
SPLINE
5
EE
100
AcDbEntity
8
1
62
256
6
ByLayer
370
18
48
1
60
0
100
AcDbSpline
70
4
71
3
72
14
73
10
40
0
40
0
40
0
40
0
40
0.299292759915655
40
0.299292759915655
40
0.44893913987348
40
0.44893913987348
40
0.598585519831304
40
0.598585519831304
40
1
40
1
40
1
40
1
41
1
10
8.00316416122479
20
3.35117859567279
30
0
41
1
10
7.87709808300338
20
3.42371124015847
30
0
41
1
10
7.75535821754102
20
3.488097622689
30
0
41
1
10
7.57856634565707
20
3.57052990462458
30
0
41
1
10
7.52060514374517
20
3.5956435279418
30
0
41
1
10
7.40651567989389
20
3.64073157763264
30
0
41
1
10
7.35019518318444
20
3.6607629893455
30
0
41
1
10
7.14783844037558
20
3.72360814566213
30
0
41
1
10
7.01083783245238
20
3.74832099839207
30
0
41
1
10
6.88335898173861
20
3.74894919082592
30
0
0
SPLINE
5
EF
100
AcDbEntity
8
1
62
256
6
ByLayer
370
18
48
1
60
0
100
AcDbSpline
70
4
71
3
72
42
73
38
40
0
40
0
40
0
40
0
40
0.0312500000000032
40
0.0312500000000032
40
0.0625000000000064
40
0.0625000000000064
40
0.125000000000013
40
0.125000000000013
40
0.187500000000019
40
0.187500000000019
40
0.250000000000026
40
0.250000000000026
40
0.312500000000032
40
0.312500000000032
40
0.375000000000039
40
0.375000000000039
40
0.437500000000045
40
0.437500000000045
40
0.500000000000051
40
0.500000000000051
40
0.531250000000049
40
0.531250000000049
40
0.562500000000047
40
0.562500000000047
40
0.62500000000004
40
0.62500000000004
40
0.687500000000034
40
0.687500000000034
40
0.750000000000027
40
0.750000000000027
40
0.81250000000002
40
0.81250000000002
40
0.875000000000013
40
0.875000000000013
40
0.937500000000007
40
0.937500000000007
40
1
40
1
40
1
40
1
41
1
10
89.5152870511849
20
-1.20744311972456
30
0
41
1
10
89.5147782375346
20
-1.18608529779323
30
0
41
1
10
89.512711867967
20
-1.16645359522064
30
0
41
1
10
89.5059567552522
20
-1.13198516402809
30
0
41
1
10
89.5012547996355
20
-1.11686440223076
30
0
41
1
10
89.48369287233
20
-1.0776645435663
30
0
41
1
10
89.467976194765
20
-1.06053105118701
30
0
41
1
10
89.4302388197222
20
-1.04041683770799
30
0
41
1
10
89.4088204651633
20
-1.03789608576517
30
0
41
1
10
89.3623002293921
20
-1.04543040257241
30
0
41
1
10
89.3368972224273
20
-1.05571665636896
30
0
41
1
10
89.2845686307703
20
-1.0875484586233
30
0
41
1
10
89.2571266380616
20
-1.1093397267081
30
0
41
1
10
89.2013121231823
20
-1.16389951447331
30
0
41
1
10
89.1733789965215
20
-1.19612445113506
30
0
41
1
10
89.1174548115904
20
-1.27164826770263
30
0
41
1
10
89.0893122688556
20
-1.31537969964768
30
0
41
1
10
89.036858451369
20
-1.41104031247838
30
0
41
1
10
89.0119284225884
20
-1.4641699370099
30
0
41
1
10
88.9804932231626
20
-1.54655700911988
30
0
41
1
10
88.9708280227445
20
-1.57497927315788
30
0
41
1
10
88.9543951806622
20
-1.63056710171924
30
0
41
1
10
88.9475053988371
20
-1.65798922942923
30
0
41
1
10
88.9310666695723
20
-1.73906999534412
30
0
41
1
10
88.9263999687956
20
-1.78938277644494
30
0
41
1
10
88.9294193380456
20
-1.87389709622465
30
0
41
1
10
88.9369707919195
20
-1.90814100178207
30
0
41
1
10
88.9606259409016
20
-1.95926930456605
30
0
41
1
10
88.9768727680637
20
-1.97657214728295
30
0
41
1
10
89.0144627991512
20
-1.99591986306669
30
0
41
1
10
89.0362979666488
20
-1.99827944406681
30
0
41
1
10
89.083277017719
20
-1.98988816957734
30
0
41
1
10
89.1085498223544
20
-1.97923258598516
30
0
41
1
10
89.1616114154826
20
-1.9459004165742
30
0
41
1
10
89.1888249145939
20
-1.92364721426637
30
0
41
1
10
89.2446359820059
20
-1.86781383077039
30
0
41
1
10
89.2733360185024
20
-1.83395989554714
30
0
41
1
10
89.3013030530907
20
-1.79535932261194
30
0
0
SPLINE
5
F0
100
AcDbEntity
8
1
62
256
6
ByLayer
370
18
48
1
60
0
100
AcDbSpline
70
4
71
3
72
8
73
4
40
0
40
0
40
0
40
0
40
1
40
1
40
1
40
1
41
1
10
88.7701881962975
20
-3.69948422825203
30
0
41
1
10
88.7217678123428
20
-3.74640995771705
30
0
41
1
10
88.6794818128782
20
-3.7772951761379
30
0
41
1
10
88.6430428496748
20
-3.79131894224179
30
0
0
SPLINE
5
F1
100
AcDbEntity
8
1
62
256
6
ByLayer
370
18
48
1
60
0
100
AcDbSpline
70
4
71
3
72
14
73
10
40
0
40
0
40
0
40
0
40
0.331767864359796
40
0.331767864359796
40
0.526466484127889
40
0.526466484127889
40
0.721165103895982
40
0.721165103895982
40
1
40
1
40
1
40
1
41
1
10
70.9436609287324
20
-3.57999798174669
30
0
41
1
10
70.5887154928744
20
-3.57954050769104
30
0
41
1
10
70.2337609834084
20
-3.55730812844945
30
0
41
1
10
69.6676158381067
20
-3.4872825126495
30
0
41
1
10
69.4575874966025
20
-3.45384666104948
30
0
41
1
10
69.0353311996306
20
-3.37193173669064
30
0
41
1
10
68.8249102548853
20
-3.32376916992069
30
0
41
1
10
68.3153163955574
20
-3.19024350671376
30
0
41
1
10
68.0166119349362
20
-3.09781473096268
30
0
41
1
10
67.718167496025
20
-2.99259857490657
30
0
0
SPLINE
5
F2
100
AcDbEntity
8
1
62
256
6
ByLayer
370
13
48
1
60
0
100
AcDbSpline
70
4
71
3
72
22
73
18
40
0
40
0
40
0
40
0
40
0.191376515202333
40
0.191376515202333
40
0.26590402629819
40
0.26590402629819
40
0.340431537394048
40
0.340431537394048
40
0.489486559585759
40
0.489486559585759
40
0.63854158177747
40
0.63854158177747
40
0.787596603969181
40
0.787596603969181
40
0.936651626160892
40
0.936651626160892
40
1
40
1
40
1
40
1
41
1
10
67.718167495972
20
-2.99259857488787
30
0
41
1
10
67.183047396956
20
-2.80394275656175
30
0
41
1
10
66.6487632572813
20
-2.57417602479049
30
0
41
1
10
65.898731526377
20
-2.20595084953993
30
0
41
1
10
65.687047173621
20
-2.09710351544635
30
0
41
1
10
65.2664428064612
20
-1.87229671103941
30
0
41
1
10
65.0570312615185
20
-1.75610134776736
30
0
41
1
10
64.4301509865111
20
-1.3980691381847
30
0
41
1
10
64.0139946993983
20
-1.14687336810547
30
0
41
1
10
63.1796884862071
20
-0.627854669786984
30
0
41
1
10
62.7613314157737
20
-0.360183899968092
30
0
41
1
10
61.9162393681574
20
0.181839046690982
30
0
41
1
10
61.4979733983495
20
0.45094715909886
30
0
41
1
10
60.6634449519776
20
0.975329810269329
30
0
41
1
10
60.2473623472885
20
1.23095892376418
30
0
41
1
10
59.6515358806362
20
1.57877448775599
30
0
41
1
10
59.4734893036132
20
1.68046310205617
30
0
41
1
10
59.2948631994604
20
1.77975569007106
30
0
0
SPLINE
5
F3
100
AcDbEntity
8
1
62
256
6
ByLayer
370
18
48
1
60
0
100
AcDbSpline
70
4
71
3
72
14
73
10
40
0
40
0
40
0
40
0
40
0.0030824225116911
40
0.0030824225116911
40
0.688004101989669
40
0.688004101989669
40
0.859234521859165
40
0.859234521859165
40
1
40
1
40
1
40
1
41
1
10
35.9436896953309
20
-3.55796126376478
30
0
41
1
10
35.9398855489881
20
-3.55795585453612
30
0
41
1
10
35.936081333045
20
-3.55794795136106
30
0
41
1
10
35.0869568926811
20
-3.55562706318031
30
0
41
1
10
34.2574827712103
20
-3.43084864002594
30
0
41
1
10
33.2103979915562
20
-3.13682590345053
30
0
41
1
10
33.0004422105251
20
-3.07113203674447
30
0
41
1
10
32.6161563741678
20
-2.93911494466045
30
0
41
1
10
32.4420661831649
20
-2.8748948080403
30
0
41
1
10
32.2687104740528
20
-2.80687414037411
30
0
0
SPLINE
5
F4
100
AcDbEntity
8
1
62
256
6
ByLayer
370
13
48
1
60
0
100
AcDbSpline
70
4
71
3
72
24
73
20
40
0
40
0
40
0
40
0
40
0.0140669610221774
40
0.0140669610221774
40
0.172195714870397
40
0.172195714870397
40
0.330324468718615
40
0.330324468718615
40
0.409388845642726
40
0.409388845642726
40
0.488453222566836
40
0.488453222566836
40
0.804710730263287
40
0.804710730263287
40
0.8837751071874
40
0.8837751071874
40
0.962839484111512
40
0.962839484111512
40
1
40
1
40
1
40
1
41
1
10
32.2687104743476
20
-2.80687414048984
30
0
41
1
10
32.2311922443097
20
-2.79215287708448
30
0
41
1
10
32.1937084167301
20
-2.7772536002891
30
0
41
1
10
31.7354636966187
20
-2.59279658003246
30
0
41
1
10
31.3177174489233
20
-2.40123598954108
30
0
41
1
10
30.4827857038793
20
-1.98121512777379
30
0
41
1
10
30.0653133463507
20
-1.75300696365045
30
0
41
1
10
29.4349960057401
20
-1.38864081690218
30
0
41
1
10
29.2236395169131
20
-1.2632914631572
30
0
41
1
10
28.8009243651705
20
-1.00777737337825
30
0
41
1
10
28.5905895333758
20
-0.878151985035942
30
0
41
1
10
27.5420507011008
20
-0.223854305512077
30
0
41
1
10
26.7125784440354
20
0.318284049528785
30
0
41
1
10
25.6575973344269
20
0.971816202509586
30
0
41
1
10
25.445639740695
20
1.10124762005432
30
0
41
1
10
25.024690921305
20
1.35287517269265
30
0
41
1
10
24.8150604838481
20
1.47564211252842
30
0
41
1
10
24.5075203080152
20
1.65086530970186
30
0
41
1
10
24.4092645895229
20
1.70606338730548
30
0
41
1
10
24.3110505626105
20
1.76039502543583
30
0
0
SPLINE
5
F5
100
AcDbEntity
8
1
62
256
6
ByLayer
370
18
48
1
60
0
100
AcDbSpline
70
4
71
3
72
8
73
4
40
0
40
0
40
0
40
0
40
1
40
1
40
1
40
1
41
1
10
88.6497914985541
20
-3.58537260720854
30
0
41
1
10
88.6590307488224
20
-3.58923951307389
30
0
41
1
10
88.668968894796
20
-3.5910952932995
30
0
41
1
10
88.6796225226706
20
-3.59096163869864
30
0
0
SPLINE
5
F6
100
AcDbEntity
8
1
62
256
6
ByLayer
370
18
48
1
60
0
100
AcDbSpline
70
4
71
3
72
8
73
4
40
0
40
0
40
0
40
0
40
1
40
1
40
1
40
1
41
1
10
89.9999270589091
20
0.0471493124390179
30
0
41
1
10
89.9920376987583
20
0.0234210025064669
30
0
41
1
10
89.9819131620766
20
-0.0007425206413529
30
0
41
1
10
89.9718690817606
20
-0.0194369730196513
30
0
0
SPLINE
5
F7
100
AcDbEntity
8
1
62
256
6
ByLayer
370
18
48
1
60
0
100
AcDbSpline
70
4
71
3
72
16
73
12
40
0
40
0
40
0
40
0
40
0.248381266586196
40
0.248381266586196
40
0.377881401581575
40
0.377881401581575
40
0.507381536576954
40
0.507381536576954
40
0.766381806567714
40
0.766381806567714
40
1
40
1
40
1
40
1
41
1
10
9.51081347062384
20
0.0053131152523065
30
0
41
1
10
9.91221922435597
20
-0.257017337074359
30
0
41
1
10
10.312303165205
20
-0.518728192169903
30
0
41
1
10
10.9233562966287
20
-0.909155222396237
30
0
41
1
10
11.133183197393
20
-1.04158069664359
30
0
41
1
10
11.5544706416468
20
-1.30244632037974
30
0
41
1
10
11.7666743334478
20
-1.43130788004513
30
0
41
1
10
12.4006112750262
20
-1.80620029944293
30
0
41
1
10
12.8193336281896
20
-2.04041734914085
30
0
41
1
10
13.6144503133533
20
-2.44910024448927
30
0
41
1
10
13.990972513669
20
-2.62715199667133
30
0
41
1
10
14.3692398239672
20
-2.78671846910623
30
0
0
SPLINE
5
F8
100
AcDbEntity
8
1
62
256
6
ByLayer
370
13
48
1
60
0
100
AcDbSpline
70
4
71
3
72
20
73
16
40
0
40
0
40
0
40
0
40
0.0237749130832346
40
0.0237749130832346
40
0.145075250573802
40
0.145075250573802
40
0.26637558806437
40
0.26637558806437
40
0.751576938026644
40
0.751576938026644
40
0.872877275517213
40
0.872877275517213
40
0.994177613007782
40
0.994177613007782
40
1
40
1
40
1
40
1
41
1
10
14.3692398239261
20
-2.78671846908884
30
0
41
1
10
14.4103376925968
20
-2.80405499738481
30
0
41
1
10
14.4514561611042
20
-2.82117331952179
30
0
41
1
10
14.7025059981105
20
-2.92427702709199
30
0
41
1
10
14.9130349337834
20
-3.00469280964654
30
0
41
1
10
15.3361510465929
20
-3.15295148869117
30
0
41
1
10
15.5478715535496
20
-3.22045285045087
30
0
41
1
10
16.5997767070643
20
-3.52078704814113
30
0
41
1
10
17.4291333043395
20
-3.64568235945902
30
0
41
1
10
18.4820755561917
20
-3.64582553132172
30
0
41
1
10
18.6942368396648
20
-3.63795613705398
30
0
41
1
10
19.1166334918474
20
-3.60664033817761
30
0
41
1
10
19.3268591078369
20
-3.58325983955498
30
0
41
1
10
19.5465909506538
20
-3.55092415623778
30
0
41
1
10
19.5566536800279
20
-3.54942595567729
30
0
41
1
10
19.566715176234
20
-3.54791059668253
30
0
0
SPLINE
5
F9
100
AcDbEntity
8
1
62
256
6
ByLayer
370
18
48
1
60
0
100
AcDbSpline
70
4
71
3
72
18
73
14
40
0
40
0
40
0
40
0
40
0.258130191860934
40
0.258130191860934
40
0.370263165387473
40
0.370263165387473
40
0.482396138914013
40
0.482396138914013
40
0.594529112440552
40
0.594529112440552
40
0.70666208596709
40
0.70666208596709
40
1
40
1
40
1
40
1
41
1
10
44.5148445531548
20
0.0021143460572546
30
0
41
1
10
44.995208085584
20
-0.313646564408458
30
0
41
1
10
45.4754110537279
20
-0.62935865033208
30
0
41
1
10
46.1707544214124
20
-1.07168727132426
30
0
41
1
10
46.3827257695901
20
-1.20440962268469
30
0
41
1
10
46.8048135789383
20
-1.46304386232714
30
0
41
1
10
47.0153754374133
20
-1.58922995811127
30
0
41
1
10
47.436411320028
20
-1.83416685382247
30
0
41
1
10
47.6468958139487
20
-1.95292464946613
30
0
41
1
10
48.0684383184537
20
-2.18213209785685
30
0
41
1
10
48.280133296259
20
-2.2927590822639
30
0
41
1
10
49.0433546072773
20
-2.67277052414957
30
0
41
1
10
49.5882554833655
20
-2.90888780710554
30
0
41
1
10
50.1330258170575
20
-3.10046901496122
30
0
0
SPLINE
5
FA
100
AcDbEntity
8
1
62
256
6
ByLayer
370
13
48
1
60
0
100
AcDbSpline
70
4
71
3
72
16
73
12
40
0
40
0
40
0
40
0
40
0.196370301276483
40
0.196370301276483
40
0.33825457924388
40
0.33825457924388
40
0.480138857211276
40
0.480138857211276
40
0.763907413146062
40
0.763907413146062
40
1
40
1
40
1
40
1
41
1
10
50.1330258175737
20
-3.10046901514278
30
0
41
1
10
50.4212431676553
20
-3.20182737596113
30
0
41
1
10
50.709423978042
20
-3.29071978956247
30
0
41
1
10
51.2075788502158
20
-3.42090431144595
30
0
41
1
10
51.4170496954867
20
-3.46853973027714
30
0
41
1
10
51.8378618786154
20
-3.5492458649961
30
0
41
1
10
52.0498980465403
20
-3.58232469537148
30
0
41
1
10
52.6817857719831
20
-3.65751800280398
30
0
41
1
10
53.0991967442587
20
-3.67635711365369
30
0
41
1
10
53.8634788244404
20
-3.65441072566787
30
0
41
1
10
54.2101172530744
20
-3.62313870040495
30
0
41
1
10
54.5583431378918
20
-3.57071340636847
30
0
0
SPLINE
5
FB
100
AcDbEntity
8
1
62
256
6
ByLayer
370
18
48
1
60
0
100
AcDbSpline
70
4
71
3
72
18
73
14
40
0
40
0
40
0
40
0
40
0.0733736373655335
40
0.0733736373655335
40
0.314055458164787
40
0.314055458164787
40
0.554737278964041
40
0.554737278964041
40
0.675078189363666
40
0.675078189363666
40
0.795419099763291
40
0.795419099763291
40
1
40
1
40
1
40
1
41
1
10
79.5138919674496
20
0.0028946160742009
30
0
41
1
10
79.6424642300743
20
-0.0821608526607918
30
0
41
1
10
79.7709905276496
20
-0.167215843413715
30
0
41
1
10
80.3186101438538
20
-0.528805923815639
30
0
41
1
10
80.7351661284834
20
-0.801303195432411
30
0
41
1
10
81.5678118116716
20
-1.32878837287782
30
0
41
1
10
81.9839405583292
20
-1.58372669567393
30
0
41
1
10
82.6128364276844
20
-1.94550710592699
30
0
41
1
10
82.8238641475567
20
-2.0629268992673
30
0
41
1
10
83.2455001798583
20
-2.2883504523312
30
0
41
1
10
83.4552408977334
20
-2.39586272132016
30
0
41
1
10
84.0198216876933
20
-2.67104567367403
30
0
41
1
10
84.3734980330303
20
-2.82821875261339
30
0
41
1
10
84.7273077504215
20
-2.96746566445054
30
0
0
SPLINE
5
FC
100
AcDbEntity
8
1
62
256
6
ByLayer
370
13
48
1
60
0
100
AcDbSpline
70
4
71
3
72
14
73
10
40
0
40
0
40
0
40
0
40
0.36507823247767
40
0.36507823247767
40
0.523808674358253
40
0.523808674358253
40
0.682539116238835
40
0.682539116238835
40
1
40
1
40
1
40
1
41
1
10
84.7273077496968
20
-2.96746566416533
30
0
41
1
10
85.2059859813208
20
-3.15585637887077
30
0
41
1
10
85.6849083381823
20
-3.3114348986376
30
0
41
1
10
86.3792832584348
20
-3.48105648203182
30
0
41
1
10
86.5907394362247
20
-3.52530266789472
30
0
41
1
10
87.0111606000106
20
-3.59805633964589
30
0
41
1
10
87.2207941250766
20
-3.62674396936566
30
0
41
1
10
87.8492724558803
20
-3.6895644190266
30
0
41
1
10
88.2676595721841
20
-3.70040731458306
30
0
41
1
10
88.6881664012085
20
-3.67955361711054
30
0
0
SPLINE
5
FD
100
AcDbEntity
8
1
62
256
6
ByLayer
370
13
48
1
60
0
100
AcDbSpline
70
4
71
3
72
18
73
14
40
0
40
0
40
0
40
0
40
0.250000000000001
40
0.250000000000001
40
0.375000000000001
40
0.375000000000001
40
0.500000000000001
40
0.500000000000001
40
0.750000000000001
40
0.750000000000001
40
0.875
40
0.875
40
1
40
1
40
1
40
1
41
1
10
8.2501264940795
20
0.911573443136007
30
0
41
1
10
8.25003870710066
20
1.13460439240825
30
0
41
1
10
8.24994164796291
20
1.34926259472846
30
0
41
1
10
8.2497895844011
20
1.65885792365862
30
0
41
1
10
8.24973765805788
20
1.76024088856721
30
0
41
1
10
8.24963476556101
20
1.95520027360323
30
0
41
1
10
8.24958359399852
20
2.0492155475813
30
0
41
1
10
8.24943270037042
20
2.32107225653598
30
0
41
1
10
8.24933546567451
20
2.48902825756025
30
0
41
1
10
8.2492022158284
20
2.71917277327302
30
0
41
1
10
8.24916039056617
20
2.79139583418748
30
0
41
1
10
8.24908277956001
20
2.92693487194114
30
0
41
1
10
8.24904687114093
20
2.99047677828844
30
0
41
1
10
8.24901479369811
20
3.0487545695907
30
0
0
SPLINE
5
FE
100
AcDbEntity
8
1
62
256
6
ByLayer
370
18
48
1
60
0
100
AcDbSpline
70
4
71
3
72
8
73
4
40
0
40
0
40
0
40
0
40
1
40
1
40
1
40
1
41
1
10
88.7701881962973
20
3.69948422825223
30
0
41
1
10
88.7217678123426
20
3.74640995771713
30
0
41
1
10
88.6794818128781
20
3.77729517613793
30
0
41
1
10
88.6430428496747
20
3.79131894224179
30
0
0
SPLINE
5
FF
100
AcDbEntity
8
1
62
256
6
ByLayer
370
18
48
1
60
0
100
AcDbSpline
70
4
71
3
72
66
73
62
40
0
40
0
40
0
40
0
40
0.0303195685903989
40
0.0303195685903989
40
0.0606391371807977
40
0.0606391371807977
40
0.0909587057711966
40
0.0909587057711966
40
0.121278274361595
40
0.121278274361595
40
0.181917411542393
40
0.181917411542393
40
0.212236980132792
40
0.212236980132792
40
0.242556548723191
40
0.242556548723191
40
0.27287611731359
40
0.27287611731359
40
0.303195685903988
40
0.303195685903988
40
0.363834823084787
40
0.363834823084787
40
0.424473960265585
40
0.424473960265585
40
0.454793528855985
40
0.454793528855985
40
0.485113097446384
40
0.485113097446384
40
0.515432666036783
40
0.515432666036783
40
0.545752234627182
40
0.545752234627182
40
0.576071803217582
40
0.576071803217582
40
0.606391371807981
40
0.606391371807981
40
0.63671094039838
40
0.63671094039838
40
0.66703050898878
40
0.66703050898878
40
0.697350077579179
40
0.697350077579179
40
0.727669646169578
40
0.727669646169578
40
0.757989214759977
40
0.757989214759977
40
0.788308783350377
40
0.788308783350377
40
0.818628351940776
40
0.818628351940776
40
0.848947920531175
40
0.848947920531175
40
0.879267489121574
40
0.879267489121574
40
0.909587057711974
40
0.909587057711974
40
0.939906626302373
40
0.939906626302373
40
0.970226194892772
40
0.970226194892772
40
1
40
1
40
1
40
1
41
1
10
8.42671047106862
20
2.93780369301123
30
0
41
1
10
8.63326533049235
20
2.86564296725291
30
0
41
1
10
8.83860256324903
20
2.78745196218236
30
0
41
1
10
9.24782771180506
20
2.61886662067036
30
0
41
1
10
9.45280947926716
20
2.52960195259598
30
0
41
1
10
9.8631397285271
20
2.3404723668049
30
0
41
1
10
10.0687413648784
20
2.24068910664042
30
0
41
1
10
10.478963737524
20
2.03305040230396
30
0
41
1
10
10.6838166115168
20
1.92501243188869
30
0
41
1
10
11.2987390993345
20
1.58950646634978
30
0
41
1
10
11.7098110539633
20
1.35034840901045
30
0
41
1
10
12.3246393224999
20
0.979055404760004
30
0
41
1
10
12.5295783618448
20
0.853079366659387
30
0
41
1
10
12.9399814830056
20
0.597591893466813
30
0
41
1
10
13.1454834567529
20
0.468269867802689
30
0
41
1
10
13.5555280262842
20
0.208794499411994
30
0
41
1
10
13.7603074146917
20
0.0783845885559913
30
0
41
1
10
14.1703206187247
20
-0.182288841830115
30
0
41
1
10
14.3757933887503
20
-0.312793154584
30
0
41
1
10
14.9914048654294
20
-0.701490711931427
30
0
41
1
10
15.4004813830955
20
-0.956112093461456
30
0
41
1
10
16.2216046989171
20
-1.44769212039077
30
0
41
1
10
16.6312963990842
20
-1.68311068244466
30
0
41
1
10
17.2463357546044
20
-2.01353974239046
30
0
41
1
10
17.4518640002061
20
-2.12003562892673
30
0
41
1
10
17.8620175929052
20
-2.32376634027037
30
0
41
1
10
18.0668400049093
20
-2.42098263905686
30
0
41
1
10
18.4766061229454
20
-2.60521277300305
30
0
41
1
10
18.6815018322497
20
-2.69226338614587
30
0
41
1
10
19.0921319717331
20
-2.85591147573229
30
0
41
1
10
19.2971101391091
20
-2.93186544487796
30
0
41
1
10
19.706777982344
20
-3.0704033145085
30
0
41
1
10
19.911601126853
20
-3.13334136922927
30
0
41
1
10
20.3215220716631
20
-3.24836093783335
30
0
41
1
10
20.5268632146292
20
-3.29954879137483
30
0
41
1
10
20.9367606991053
20
-3.38645202067806
30
0
41
1
10
21.1415152838174
20
-3.42301842010602
30
0
41
1
10
21.5510124600654
20
-3.48384190724676
30
0
41
1
10
21.7559811616503
20
-3.50705470430145
30
0
41
1
10
22.166495357941
20
-3.53791756178035
30
0
41
1
10
22.3713898613571
20
-3.54611529262394
30
0
41
1
10
22.7808472050603
20
-3.54978356686573
30
0
41
1
10
22.9855687875137
20
-3.54421921670766
30
0
41
1
10
23.3957558317935
20
-3.51783583067493
30
0
41
1
10
23.6011494898679
20
-3.49723561420555
30
0
41
1
10
24.0109549345357
20
-3.44341700017273
30
0
41
1
10
24.2156717941856
20
-3.40926547670762
30
0
41
1
10
24.6253978034403
20
-3.32657000091174
30
0
41
1
10
24.8307531805247
20
-3.27808367225029
30
0
41
1
10
25.2409708680051
20
-3.16975765259392
30
0
41
1
10
25.4456608745478
20
-3.10891821990688
30
0
41
1
10
25.8552107751243
20
-2.97420008864279
30
0
41
1
10
26.0600867024163
20
-2.90033585916711
30
0
41
1
10
26.4702735191242
20
-2.74214070017317
30
0
41
1
10
26.6753992039245
20
-2.65718695647627
30
0
41
1
10
27.0849877271171
20
-2.47669442824065
30
0
41
1
10
27.2896795931387
20
-2.38116465784208
30
0
41
1
10
27.6992360600435
20
-2.18140481354956
30
0
41
1
10
27.9045423660599
20
-2.07665747298415
30
0
41
1
10
28.3108195963574
20
-1.8610413580688
30
0
41
1
10
28.5117914546134
20
-1.75034215353097
30
0
41
1
10
28.7127859565048
20
-1.63673048300981
30
0
0
SPLINE
5
100
100
AcDbEntity
8
1
62
256
6
ByLayer
370
18
48
1
60
0
100
AcDbSpline
70
4
71
3
72
76
73
72
40
0
40
0
40
0
40
0
40
0.010674291049775
40
0.010674291049775
40
0.0367146600900974
40
0.0367146600900974
40
0.0627550291304199
40
0.0627550291304199
40
0.0887953981707424
40
0.0887953981707424
40
0.114835767211065
40
0.114835767211065
40
0.140876136251387
40
0.140876136251387
40
0.16691650529171
40
0.16691650529171
40
0.192956874332032
40
0.192956874332032
40
0.218997243372354
40
0.218997243372354
40
0.245037612412677
40
0.245037612412677
40
0.271077981452999
40
0.271077981452999
40
0.297118350493322
40
0.297118350493322
40
0.323158719533644
40
0.323158719533644
40
0.349199088573967
40
0.349199088573967
40
0.37523945761429
40
0.37523945761429
40
0.427320195694934
40
0.427320195694934
40
0.453360564735257
40
0.453360564735257
40
0.479400933775579
40
0.479400933775579
40
0.505441302815902
40
0.505441302815902
40
0.531481671856225
40
0.531481671856225
40
0.583562409936871
40
0.583562409936871
40
0.609602778977195
40
0.609602778977195
40
0.635643148017519
40
0.635643148017519
40
0.687723886098167
40
0.687723886098167
40
0.739804624178816
40
0.739804624178816
40
0.765844993219141
40
0.765844993219141
40
0.791885362259465
40
0.791885362259465
40
0.81792573129979
40
0.81792573129979
40
0.843966100340115
40
0.843966100340115
40
0.87000646938044
40
0.87000646938044
40
0.896046838420765
40
0.896046838420765
40
0.922087207461089
40
0.922087207461089
40
0.948127576501414
40
0.948127576501414
40
0.974167945541739
40
0.974167945541739
40
1
40
1
40
1
40
1
41
1
10
40.1480397739565
20
3.55934311354201
30
0
41
1
10
40.231989408546
20
3.5591409298313
30
0
41
1
10
40.3159063284093
20
3.55769398815755
30
0
41
1
10
40.6044091729497
20
3.54863667905195
30
0
41
1
10
40.8089046356473
20
3.53544066695375
30
0
41
1
10
41.2182096491689
20
3.49492606794479
30
0
41
1
10
41.423470689575
20
3.46661279419618
30
0
41
1
10
41.8331027087243
20
3.39671352813124
30
0
41
1
10
42.0376033015488
20
3.35530585579289
30
0
41
1
10
42.4466771509832
20
3.25938680411699
30
0
41
1
10
42.6514661051618
20
3.20379464621874
30
0
41
1
10
43.061746477759
20
3.08016605086775
30
0
41
1
10
43.2663956785809
20
3.01248488888956
30
0
41
1
10
43.6755178043577
20
2.8657443418345
30
0
41
1
10
43.8801237621681
20
2.78551014965717
30
0
41
1
10
44.2898068927183
20
2.61427173404144
30
0
41
1
10
44.4950613032918
20
2.52340462865681
30
0
41
1
10
44.9044523266416
20
2.3327173757726
30
0
41
1
10
45.1089285953413
20
2.23174798342518
30
0
41
1
10
45.5182900064972
20
2.02154533461132
30
0
41
1
10
45.7232927082207
20
1.91222896195322
30
0
41
1
10
46.1330304593226
20
1.68644197617536
30
0
41
1
10
46.3375684710558
20
1.56969212121857
30
0
41
1
10
46.7466754174583
20
1.33055868938706
30
0
41
1
10
46.9511668507675
20
1.20818484067141
30
0
41
1
10
47.3605970739907
20
0.9588208339473
30
0
41
1
10
47.5656015173045
20
0.831647301656631
30
0
41
1
10
47.9747158632143
20
0.575048141834685
30
0
41
1
10
48.1790457219439
20
0.445406605025653
30
0
41
1
10
48.5880182905173
20
0.184646665390744
30
0
41
1
10
48.7930021239555
20
0.0533252273502853
30
0
41
1
10
49.4072346978877
20
-0.339767629241635
30
0
41
1
10
49.815281855025
20
-0.600742866372229
30
0
41
1
10
50.429965888361
20
-0.982423672165396
30
0
41
1
10
50.6348675948138
20
-1.10800612409199
30
0
41
1
10
51.0437852646701
20
-1.35434369679601
30
0
41
1
10
51.2481578420504
20
-1.47467809985852
30
0
41
1
10
51.6574343624353
20
-1.70896119532242
30
0
41
1
10
51.8625689184335
20
-1.82313568381272
30
0
41
1
10
52.2719029412595
20
-2.04413151773025
30
0
41
1
10
52.4763228555656
20
-2.15013924443141
30
0
41
1
10
53.0898034087312
20
-2.45464170130393
30
0
41
1
10
53.4998021806277
20
-2.64104358579544
30
0
41
1
10
54.1130680726456
20
-2.88381623566107
30
0
41
1
10
54.3174796696769
20
-2.95895156230938
30
0
41
1
10
54.7266443971232
20
-3.09843836502594
30
0
41
1
10
54.931629294769
20
-3.16197310786737
30
0
41
1
10
55.5453242306482
20
-3.33167303062996
30
0
41
1
10
55.9536548612419
20
-3.41971471199548
30
0
41
1
10
56.7731642140493
20
-3.53657342721289
30
0
41
1
10
57.1812338174134
20
-3.56809163356888
30
0
41
1
10
57.7953107339825
20
-3.57091925508553
30
0
41
1
10
58.0002157581281
20
-3.56517599556096
30
0
41
1
10
58.4091289685016
20
-3.53855527383573
30
0
41
1
10
58.613454637487
20
-3.51732312646703
30
0
41
1
10
59.0223626740263
20
-3.4612153933866
30
0
41
1
10
59.2272264999461
20
-3.42677826023569
30
0
41
1
10
59.6365016575315
20
-3.3439692149631
30
0
41
1
10
59.840767631102
20
-3.294919115227
30
0
41
1
10
60.2494214902258
20
-3.18451495919791
30
0
41
1
10
60.4537121573819
20
-3.12332335722948
30
0
41
1
10
60.8628845817347
20
-2.98801313667457
30
0
41
1
10
61.0676850006447
20
-2.91327871650086
30
0
41
1
10
61.4764447703428
20
-2.75345484279217
30
0
41
1
10
61.680590129984
20
-2.66831874939405
30
0
41
1
10
62.0892694070011
20
-2.48751619587662
30
0
41
1
10
62.2942833168194
20
-2.39082639058429
30
0
41
1
10
62.7034994080372
20
-2.18914323295007
30
0
41
1
10
62.9077523670123
20
-2.08410650185797
30
0
41
1
10
63.3146590337756
20
-1.86709316594411
30
0
41
1
10
63.5174659660434
20
-1.75453998999737
30
0
41
1
10
63.7206259993204
20
-1.63861326786412
30
0
0
SPLINE
5
101
100
AcDbEntity
8
1
62
256
6
ByLayer
370
18
48
1
60
0
100
AcDbSpline
70
4
71
3
72
38
73
34
40
0
40
0
40
0
40
0
40
0.021223132436184
40
0.021223132436184
40
0.0727377044132268
40
0.0727377044132268
40
0.17576684836731
40
0.17576684836731
40
0.278795992321395
40
0.278795992321395
40
0.330310564298439
40
0.330310564298439
40
0.381825136275481
40
0.381825136275481
40
0.433339708252525
40
0.433339708252525
40
0.484854280229568
40
0.484854280229568
40
0.53636885220661
40
0.53636885220661
40
0.587883424183654
40
0.587883424183654
40
0.639397996160697
40
0.639397996160697
40
0.69091256813774
40
0.69091256813774
40
0.793941712091827
40
0.793941712091827
40
0.896970856045914
40
0.896970856045914
40
0.948485428022957
40
0.948485428022957
40
1
40
1
40
1
40
1
41
1
10
75.1266048246142
20
3.58169931821558
30
0
41
1
10
75.2107406370696
20
3.581770094143
30
0
41
1
10
75.2948823498945
20
3.58065961081394
30
0
41
1
10
75.5833467896612
20
3.57270566077784
30
0
41
1
10
75.788250038723
20
3.55919818837339
30
0
41
1
10
76.4015930920735
20
3.49717088105581
30
0
41
1
10
76.8093159924611
20
3.42908642707153
30
0
41
1
10
77.628291924761
20
3.23477384284445
30
0
41
1
10
78.0359326378943
20
3.1126708365486
30
0
41
1
10
78.6493725596245
20
2.89036496132942
30
0
41
1
10
78.8542932384136
20
2.81034003517138
30
0
41
1
10
79.2630379647385
20
2.64002226809652
30
0
41
1
10
79.4671540813281
20
2.54902957675014
30
0
41
1
10
79.8758096112356
20
2.35716308062195
30
0
41
1
10
80.0804732932447
20
2.25641703999426
30
0
41
1
10
80.4894493959648
20
2.04640592080008
30
0
41
1
10
80.6936070061973
20
1.9368989456452
30
0
41
1
10
81.1019381319492
20
1.71052737457904
30
0
41
1
10
81.3060486924573
20
1.5936179520761
30
0
41
1
10
81.7150358272697
20
1.35363941061547
30
0
41
1
10
81.9197657007976
20
1.23059412352094
30
0
41
1
10
82.3281989647031
20
0.980543494767545
30
0
41
1
10
82.532186800704
20
0.853401631748596
30
0
41
1
10
82.9406161768979
20
0.595867757496507
30
0
41
1
10
83.1453510560198
20
0.465278181388328
30
0
41
1
10
83.7587204965793
20
0.0719624390267199
30
0
41
1
10
84.1663203976605
20
-0.192063836948392
30
0
41
1
10
84.9847056045049
20
-0.714687800595698
30
0
41
1
10
85.3927325819629
20
-0.972035301819631
30
0
41
1
10
86.0056575433189
20
-1.34337977551218
30
0
41
1
10
86.2104046236894
20
-1.46513219995177
30
0
41
1
10
86.6191170021021
20
-1.70159417861097
30
0
41
1
10
86.8232049133944
20
-1.81636950474456
30
0
41
1
10
87.0273483551647
20
-1.92727889138283
30
0
0
SPLINE
5
102
100
AcDbEntity
8
1
62
256
6
ByLayer
370
18
48
1
60
0
100
AcDbSpline
70
4
71
3
72
8
73
4
40
0
40
0
40
0
40
0
40
1
40
1
40
1
40
1
41
1
10
89.8493558221688
20
1.01475049327087
30
0
41
1
10
89.8967114640506
20
0.729950453615999
30
0
41
1
10
89.9385648774663
20
0.445190482610769
30
0
41
1
10
89.9748783679311
20
0.160470854756227
30
0
0
SPLINE
5
103
100
AcDbEntity
8
1
62
256
6
ByLayer
370
18
48
1
60
0
100
AcDbSpline
70
4
71
3
72
8
73
4
40
0
40
0
40
0
40
0
40
1
40
1
40
1
40
1
41
1
10
8.24901479372031
20
3.04875457724364
30
0
41
1
10
8.30745084625374
20
3.01314754013998
30
0
41
1
10
8.3666691043
20
2.97613111726176
30
0
41
1
10
8.42671047106862
20
2.93780369301123
30
0
0
SPLINE
5
104
100
AcDbEntity
8
1
62
256
6
ByLayer
370
18
48
1
60
0
100
AcDbSpline
70
4
71
3
72
8
73
4
40
0
40
0
40
0
40
0
40
1
40
1
40
1
40
1
41
1
10
8.42671047106859
20
-2.93780369301112
30
0
41
1
10
8.36666910435048
20
-2.97613111722944
30
0
41
1
10
8.30745084635331
20
-3.01314754007765
30
0
41
1
10
8.2490147938677
20
-3.04875457715374
30
0
0
SPLINE
5
105
100
AcDbEntity
8
1
62
256
6
ByLayer
370
18
48
1
60
0
100
AcDbSpline
70
4
71
3
72
10
73
6
40
0
40
0
40
0
40
0
40
0.5
40
0.5
40
1
40
1
40
1
40
1
41
1
10
89.9748783679311
20
0.160470854756198
30
0
41
1
10
89.9768979853533
20
0.144635838251361
30
0
41
1
10
89.9802342101426
20
0.126867706165598
30
0
41
1
10
89.9887768033577
20
0.0885797166876614
30
0
41
1
10
89.9940015912856
20
0.0681099386364963
30
0
41
1
10
89.999927058909
20
0.0471493124389326
30
0
0
SPLINE
5
106
100
AcDbEntity
8
1
62
256
6
ByLayer
370
18
48
1
60
0
100
AcDbSpline
70
4
71
3
72
17
73
13
40
0
40
0
40
0
40
0
40
0.145364159229125
40
0.249781847248758
40
0.315030722830193
40
0.376655619718736
40
0.448049954609801
40
0.527318150099735
40
0.638314297386632
40
0.737082105537011
40
0.863076229390313
40
1
40
1
40
1
40
1
41
1
10
35.9304717437499
20
-3.55796392070209
30
0
41
1
10
36.134871253296
20
-3.5580679353582
30
0
41
1
10
36.4860987615346
20
-3.55819381617215
30
0
41
1
10
36.9290672739818
20
-3.55807005701857
30
0
41
1
10
37.2543136113331
20
-3.55812248104203
30
0
41
1
10
37.5330644658519
20
-3.55831207042849
30
0
41
1
10
37.8315825353773
20
-3.55843129330492
30
0
41
1
10
38.1994796799913
20
-3.5582510348369
30
0
41
1
10
38.6061110476377
20
-3.55903804668188
30
0
41
1
10
39.0769282598037
20
-3.55860655410422
30
0
41
1
10
39.5862336452632
20
-3.55822101554278
30
0
41
1
10
39.9550123972566
20
-3.55869371900394
30
0
41
1
10
40.1469607892993
20
-3.5590838759197
30
0
0
SPLINE
5
107
100
AcDbEntity
8
1
62
256
6
ByLayer
370
18
48
1
60
0
100
AcDbSpline
70
4
71
3
72
17
73
13
40
0
40
0
40
0
40
0
40
0.142842690900621
40
0.245446652093283
40
0.309590115537038
40
0.371502914220207
40
0.444357532410169
40
0.525768025806069
40
0.63675427269208
40
0.731312385723888
40
0.856691068964754
40
1
40
1
40
1
40
1
41
1
10
18.4296409446448
20
-3.54680914455793
30
0
41
1
10
18.630458411447
20
-3.54686459131651
30
0
41
1
10
18.9755193609303
20
-3.54694148043492
30
0
41
1
10
19.4107285152536
20
-3.54724014271744
30
0
41
1
10
19.7321891713995
20
-3.54715082785245
30
0
41
1
10
20.0117439262158
20
-3.54703915508119
30
0
41
1
10
20.3156614676108
20
-3.54753872891143
30
0
41
1
10
20.6885334998252
20
-3.54791520742532
30
0
41
1
10
21.0920794752446
20
-3.54731101041102
30
0
41
1
10
21.5565059715306
20
-3.54822029311452
30
0
41
1
10
22.067610782769
20
-3.54779247037058
30
0
41
1
10
22.4447617510908
20
-3.54823953951447
30
0
41
1
10
22.64585329225
20
-3.54850946355373
30
0
0
SPLINE
5
108
100
AcDbEntity
8
1
62
256
6
ByLayer
370
18
48
1
60
0
100
AcDbSpline
70
4
71
3
72
15
73
11
40
0
40
0
40
0
40
0
40
0.175725360443714
40
0.365874786500683
40
0.497677160426071
40
0.577436859883321
40
0.653075509653238
40
0.734476088763027
40
0.868862623790096
40
1
40
1
40
1
40
1
41
1
10
57.6266323792591
20
3.57012987334915
30
0
41
1
10
57.4779588493715
20
3.57006049628356
30
0
41
1
10
57.1684080457098
20
3.56995057922381
30
0
41
1
10
56.7473623607191
20
3.56930887539917
30
0
41
1
10
56.4074809115243
20
3.5696666906041
30
0
41
1
10
56.1645241645698
20
3.56992830750096
30
0
41
1
10
55.9642295515062
20
3.56995724047644
30
0
41
1
10
55.7177002117454
20
3.56965412591208
30
0
41
1
10
55.4241796444217
20
3.56946692536289
30
0
41
1
10
55.1995756114533
20
3.56950448611971
30
0
41
1
10
55.0886430045692
20
3.56950339037158
30
0
0
SPLINE
5
109
100
AcDbEntity
8
1
62
256
6
ByLayer
370
18
48
1
60
0
100
AcDbSpline
70
4
71
2
72
6
73
3
40
0
40
0
40
0
40
1
40
1
40
1
41
1
10
79.5180057479259
20
0.0001799515421794
30
0
41
1
10
79.5179954228942
20
0.0001874433976923
30
0
41
1
10
79.5179850978319
20
0.0001951075155944
30
0
0
SPLINE
5
10A
100
AcDbEntity
8
1
62
256
6
ByLayer
370
18
48
1
60
0
100
AcDbSpline
70
4
71
3
72
13
73
9
40
0
40
0
40
0
40
0
40
0.229400787438256
40
0.440798166400887
40
0.606514273856122
40
0.792747519453751
40
0.951016527802413
40
1
40
1
40
1
40
1
41
1
10
40.1461208685901
20
3.55908288760511
30
0
41
1
10
39.9544520156729
20
3.55869341364331
30
0
41
1
10
39.585952883005
20
3.55822080313172
30
0
41
1
10
39.0769285951534
20
3.55860731093853
30
0
41
1
10
38.6061098830445
20
3.55903588021852
30
0
41
1
10
38.1782953738711
20
3.55821868076419
30
0
41
1
10
37.8485565102545
20
3.55841577734998
30
0
41
1
10
37.6748692409759
20
3.55836584952448
30
0
41
1
10
37.6338187397733
20
3.55834894457263
30
0
0
SPLINE
5
10B
100
AcDbEntity
8
1
62
256
6
ByLayer
370
18
48
1
60
0
100
AcDbSpline
70
4
71
3
72
17
73
13
40
0
40
0
40
0
40
0
40
0.146835039935185
40
0.259114492520082
40
0.337008842713952
40
0.384565483322993
40
0.427501950042237
40
0.470461738686167
40
0.537032589640978
40
0.646711594688452
40
0.815338821765393
40
1
40
1
40
1
40
1
41
1
10
53.428454980228
20
-3.56888810312782
30
0
41
1
10
53.6339081941083
20
-3.56890349423841
30
0
41
1
10
53.9966281551388
20
-3.56900023106678
30
0
41
1
10
54.4689047264163
20
-3.56896725164606
30
0
41
1
10
54.8020824818668
20
-3.5694071893526
30
0
41
1
10
55.0377257348243
20
-3.56951180462332
30
0
41
1
10
55.2245954941912
20
-3.56951681911522
30
0
41
1
10
55.4382072828732
20
-3.56950006585217
30
0
41
1
10
55.7454030669878
20
-3.56967124632985
30
0
41
1
10
56.2285958717285
20
-3.5700944064275
30
0
41
1
10
56.8773888676117
20
-3.56922500340801
30
0
41
1
10
57.3723739349616
20
-3.56973896724568
30
0
41
1
10
57.6310920011734
20
-3.57010244242457
30
0
0
SPLINE
5
10C
100
AcDbEntity
8
1
62
256
6
ByLayer
370
18
48
1
60
0
100
AcDbSpline
70
4
71
3
72
13
73
9
40
0
40
0
40
0
40
0
40
0.240444575107277
40
0.450954023925509
40
0.609716069774905
40
0.796060774109595
40
0.958687572220119
40
1
40
1
40
1
40
1
41
1
10
22.6454278758717
20
3.54850909032012
30
0
41
1
10
22.4444780044692
20
3.54823938720011
30
0
41
1
10
22.0674686615557
20
3.54779166033302
30
0
41
1
10
21.5565062580807
20
3.54822262916201
30
0
41
1
10
21.0920785936818
20
3.54730422297351
30
0
41
1
10
20.6668106373902
20
3.54797664847146
30
0
41
1
10
20.3400446861965
20
3.54748843028219
30
0
41
1
10
20.1692913000641
20
3.5472935162465
30
0
41
1
10
20.134701708679
20
3.54725843508183
30
0
0
SPLINE
5
10D
100
AcDbEntity
8
1
62
256
6
ByLayer
370
18
48
1
60
0
100
AcDbSpline
70
4
71
1
72
4
73
2
40
0
40
0
40
1
40
1
41
1
10
88.4576305035038
20
-3.59084446885186
30
0
41
1
10
88.6812499809389
20
-3.59118629793878
30
0
0
SPLINE
5
10E
100
AcDbEntity
8
1
62
256
6
ByLayer
370
18
48
1
60
0
100
AcDbSpline
70
4
71
3
72
13
73
9
40
0
40
0
40
0
40
0
40
0.172018117008971
40
0.357042274179655
40
0.483579849181927
40
0.63300691218803
40
0.837177736889302
40
1
40
1
40
1
40
1
41
1
10
75.1287003265204
20
3.58188296009251
30
0
41
1
10
74.9827030690279
20
3.58176628073812
30
0
41
1
10
74.6796489439257
20
3.58150181464947
30
0
41
1
10
74.2690824632563
20
3.58184007053933
30
0
41
1
10
73.8777265486913
20
3.58089187908053
30
0
41
1
10
73.4701029002047
20
3.58115506469187
30
0
41
1
10
73.0317335730007
20
3.58104633929594
30
0
41
1
10
72.720018046618
20
3.58074419374879
30
0
41
1
10
72.5818519982051
20
3.58065790194954
30
0
0
SPLINE
5
10F
100
AcDbEntity
8
1
62
256
6
ByLayer
370
18
48
1
60
0
100
AcDbSpline
70
4
71
3
72
16
73
12
40
0
40
0
40
0
40
0
40
0.154477694931814
40
0.267674688025796
40
0.366123561775226
40
0.492684290361132
40
0.616460705241233
40
0.707049290429901
40
0.783761364275409
40
0.895930313353703
40
1
40
1
40
1
40
1
41
1
10
70.9277145998599
20
-3.57998743938231
30
0
41
1
10
71.1438748230584
20
-3.58005152960774
30
0
41
1
10
71.51841723964
20
-3.5801636281611
30
0
41
1
10
72.0315440724884
20
-3.58059259056503
30
0
41
1
10
72.5040289379675
20
-3.58051886811282
30
0
41
1
10
72.9927357394193
20
-3.58103666609534
30
0
41
1
10
73.4701028996402
20
-3.58115506746455
30
0
41
1
10
73.8777265499253
20
-3.58089187222424
30
0
41
1
10
74.2690824584715
20
-3.58184009611577
30
0
41
1
10
74.6793485889994
20
-3.58150191989856
30
0
41
1
10
74.9821024131142
20
-3.58176603683839
30
0
41
1
10
75.1277994032231
20
-3.5818824414722
30
0
0
SPLINE
5
110
100
AcDbEntity
8
1
62
256
6
ByLayer
370
18
48
1
60
0
100
AcDbSpline
70
4
71
2
72
6
73
3
40
0
40
0
40
0
40
1
40
1
40
1
41
1
10
9.50724058194723
20
0.0076467418398067
30
0
41
1
10
9.50722822760571
20
0.0077537674071095
30
0
41
1
10
9.50721587307663
20
0.007861014048018
30
0
0
LINE
5
7B
100
AcDbEntity
8
SK1
62
256
6
ByLayer
370
18
48
1
60
0
100
AcDbLine
10
-35.4
20
-2.79685
30
0
11
-35.4
21
-1.880685
31
0
39
0
210
0
220
0
230
1
0
LINE
5
7D
100
AcDbEntity
8
SK1
62
256
6
ByLayer
370
18
48
1
60
0
100
AcDbLine
10
-36
20
-2.76
30
0
11
-36
21
-2.412994
31
0
39
0
210
0
220
0
230
1
0
LINE
5
7E
100
AcDbEntity
8
SK1
62
256
6
ByLayer
370
18
48
1
60
0
100
AcDbLine
10
-34.76
20
4
30
0
11
-34.76
21
-4
31
0
39
0
210
0
220
0
230
1
0
LINE
5
7F
100
AcDbEntity
8
SK1
62
256
6
ByLayer
370
18
48
1
60
0
100
AcDbLine
10
-36
20
2.76
30
0
11
-36
21
-1.355881
31
0
39
0
210
0
220
0
230
1
0
LINE
5
80
100
AcDbEntity
8
SK1
62
256
6
ByLayer
370
13
48
1
60
0
100
AcDbLine
10
-35.5
20
-1.72219
30
0
11
-35.5
21
-2.779369
31
0
39
0
210
0
220
0
230
1
0
LINE
5
81
100
AcDbEntity
8
SK1
62
256
6
ByLayer
370
18
48
1
60
0
100
AcDbLine
10
0
20
-4
30
0
11
0
21
4
31
0
39
0
210
0
220
0
230
1
0
LINE
5
82
100
AcDbEntity
8
SK1
62
256
6
ByLayer
370
18
48
1
60
0
100
AcDbLine
10
-36
20
-1.355825
30
0
11
-36
21
-2.412994
31
0
39
0
210
0
220
0
230
1
0
LINE
5
83
100
AcDbEntity
8
1
62
256
6
ByLayer
370
18
48
1
60
0
100
AcDbLine
10
88.081098
20
-2.62463
30
0
11
89.896118
21
-0.161118
31
0
39
0
210
0
220
0
230
1
0
LINE
5
84
100
AcDbEntity
8
1
62
256
6
ByLayer
370
13
48
1
60
0
100
AcDbLine
10
0.866994
20
3.745061
30
0
11
0.866994
21
-3.745061
31
0
39
0
210
0
220
0
230
1
0
LINE
5
85
100
AcDbEntity
8
1
62
256
6
ByLayer
370
18
48
1
60
0
100
AcDbLine
10
0
20
-4
30
0
11
0
21
4
31
0
39
0
210
0
220
0
230
1
0
LINE
5
86
100
AcDbEntity
8
1
62
256
6
ByLayer
370
13
48
1
60
0
100
AcDbLine
10
88.696217
20
0.969894
30
0
11
89.974878
21
0.160471
31
0
39
0
210
0
220
0
230
1
0
LINE
5
87
100
AcDbEntity
8
1
62
256
6
ByLayer
370
13
48
1
60
0
100
AcDbLine
10
88.596745
20
0.851049
30
0
11
89.971869
21
-0.019437
31
0
39
0
210
0
220
0
230
1
0
LINE
5
88
100
AcDbEntity
8
1
62
256
6
ByLayer
370
13
48
1
60
0
100
AcDbLine
10
0.433247
20
3.87253
30
0
11
0.433247
21
-3.87253
31
0
39
0
210
0
220
0
230
1
0
LINE
5
89
100
AcDbEntity
8
80
62
256
6
ByLayer
370
18
48
1
60
0
100
AcDbLine
10
0
20
0
30
0
11
-5
21
0
31
0
39
0
210
0
220
0
230
1
0
LINE
5
8A
100
AcDbEntity
8
4
62
256
6
ByLayer
370
18
48
0.05
60
0
100
AcDbLine
10
90
20
0
30
0
11
0
21
0
31
0
39
0
210
0
220
0
230
1
0
LINE
5
8C
100
AcDbEntity
8
SK4
62
256
6
ByLayer
370
18
48
0.05
60
0
100
AcDbLine
10
95
20
0
30
0
11
-41
21
0
31
0
39
0
210
0
220
0
230
1
0
LINE
5
8E
100
AcDbEntity
8
SK1
62
256
6
ByLayer
370
18
48
1
60
0
100
AcDbLine
10
-36
20
-2.76
30
0
11
-34.76
21
-4
31
0
39
0
210
0
220
0
230
1
0
LINE
5
8F
100
AcDbEntity
8
SK1
62
256
6
ByLayer
370
18
48
1
60
0
100
AcDbLine
10
-34.76
20
4
30
0
11
-36
21
2.76
31
0
39
0
210
0
220
0
230
1
0
LINE
5
90
100
AcDbEntity
8
SK1
62
256
6
ByLayer
370
18
48
1
60
0
100
AcDbLine
10
-34.76
20
-4
30
0
11
0
21
-4
31
0
39
0
210
0
220
0
230
1
0
LINE
5
91
100
AcDbEntity
8
SK1
62
256
6
ByLayer
370
18
48
1
60
0
100
AcDbLine
10
0
20
4
30
0
11
-34.76
21
4
31
0
39
0
210
0
220
0
230
1
0
LINE
5
92
100
AcDbEntity
8
1
62
256
6
ByLayer
370
18
48
1
60
0
100
AcDbLine
10
0.866994
20
-3.745061
30
0
11
6.882958
21
-3.748821
31
0
39
0
210
0
220
0
230
1
0
LINE
5
93
100
AcDbEntity
8
1
62
256
6
ByLayer
370
18
48
1
60
0
100
AcDbLine
10
17.474385
20
-3.75544
30
0
11
18.268192
21
-3.755936
31
0
39
0
210
0
220
0
230
1
0
LINE
5
94
100
AcDbEntity
8
1
62
256
6
ByLayer
370
18
48
1
60
0
100
AcDbLine
10
34.976821
20
-3.766379
30
0
11
35.768439
21
-3.766874
31
0
39
0
210
0
220
0
230
1
0
LINE
5
95
100
AcDbEntity
8
1
62
256
6
ByLayer
370
18
48
1
60
0
100
AcDbLine
10
52.479984
20
-3.777319
30
0
11
53.268226
21
-3.777811
31
0
39
0
210
0
220
0
230
1
0
LINE
5
96
100
AcDbEntity
8
1
62
256
6
ByLayer
370
18
48
1
60
0
100
AcDbLine
10
69.983396
20
-3.788258
30
0
11
70.768045
21
-3.788749
31
0
39
0
210
0
220
0
230
1
0
LINE
5
97
100
AcDbEntity
8
1
62
256
6
ByLayer
370
18
48
1
60
0
100
AcDbLine
10
87.485598
20
-3.799197
30
0
11
88.2688
21
-3.799687
31
0
39
0
210
0
220
0
230
1
0
LINE
5
98
100
AcDbEntity
8
1
62
256
6
ByLayer
370
18
48
1
60
0
100
AcDbLine
10
88.268507
20
3.799687
30
0
11
87.485598
21
3.799197
31
0
39
0
210
0
220
0
230
1
0
LINE
5
99
100
AcDbEntity
8
1
62
256
6
ByLayer
370
18
48
1
60
0
100
AcDbLine
10
70.767911
20
3.788749
30
0
11
69.983396
21
3.788258
31
0
39
0
210
0
220
0
230
1
0
LINE
5
9A
100
AcDbEntity
8
1
62
256
6
ByLayer
370
18
48
1
60
0
100
AcDbLine
10
53.26788
20
3.777811
30
0
11
52.479984
21
3.777319
31
0
39
0
210
0
220
0
230
1
0
LINE
5
9B
100
AcDbEntity
8
1
62
256
6
ByLayer
370
18
48
1
60
0
100
AcDbLine
10
35.768656
20
3.766874
30
0
11
34.976821
21
3.766379
31
0
39
0
210
0
220
0
230
1
0
LINE
5
9C
100
AcDbEntity
8
1
62
256
6
ByLayer
370
18
48
1
60
0
100
AcDbLine
10
18.268393
20
3.755937
30
0
11
17.474385
21
3.75544
31
0
39
0
210
0
220
0
230
1
0
LINE
5
9D
100
AcDbEntity
8
1
62
256
6
ByLayer
370
18
48
1
60
0
100
AcDbLine
10
6.882958
20
3.748821
30
0
11
0.866994
21
3.745061
31
0
39
0
210
0
220
0
230
1
0
LINE
5
9E
100
AcDbEntity
8
81
62
256
6
ByLayer
370
18
48
1
60
0
100
AcDbLine
10
90
20
0
30
0
11
95
21
0
31
0
39
0
210
0
220
0
230
1
0
LINE
5
9F
100
AcDbEntity
8
SK2
62
256
6
ByLayer
370
13
48
1
60
0
100
AcDbLine
10
-44.625163
20
-4
30
0
11
-44.625163
21
33.117107
31
0
39
0
210
0
220
0
230
1
0
LINE
5
A1
100
AcDbEntity
8
SK2
62
256
6
ByLayer
370
13
48
1
60
0
100
AcDbLine
10
-37.5875
20
4
30
0
11
-46.625163
21
4
31
0
39
0
210
0
220
0
230
1
0
LINE
5
A2
100
AcDbEntity
8
SK2
62
256
6
ByLayer
370
13
48
1
60
0
100
AcDbLine
10
-37.5875
20
-4
30
0
11
-46.625163
21
-4
31
0
39
0
210
0
220
0
230
1
0
LINE
5
A3
100
AcDbEntity
8
1
62
256
6
ByLayer
370
18
48
1
60
1
100
AcDbLine
10
-44.625163
20
4
30
0
11
-44.164379
21
0.500002
31
0
39
0
210
0
220
0
230
1
0
LINE
5
A4
100
AcDbEntity
8
1
62
256
6
ByLayer
370
18
48
1
60
1
100
AcDbLine
10
-44.164379
20
0.500002
30
0
11
-45.085946
21
0.499998
31
0
39
0
210
0
220
0
230
1
0
LINE
5
A5
100
AcDbEntity
8
1
62
256
6
ByLayer
370
18
48
1
60
1
100
AcDbLine
10
-45.085946
20
0.499998
30
0
11
-44.625163
21
4
31
0
39
0
210
0
220
0
230
1
0
LINE
5
A6
100
AcDbEntity
8
1
62
256
6
ByLayer
370
18
48
1
60
1
100
AcDbLine
10
-44.625163
20
-4
30
0
11
-45.085946
21
-0.500002
31
0
39
0
210
0
220
0
230
1
0
LINE
5
A7
100
AcDbEntity
8
1
62
256
6
ByLayer
370
18
48
1
60
1
100
AcDbLine
10
-45.085946
20
-0.500002
30
0
11
-44.164379
21
-0.499998
31
0
39
0
210
0
220
0
230
1
0
LINE
5
A8
100
AcDbEntity
8
1
62
256
6
ByLayer
370
18
48
1
60
1
100
AcDbLine
10
-44.164379
20
-0.499998
30
0
11
-44.625163
21
-4
31
0
39
0
210
0
220
0
230
1
0
LINE
5
A9
100
AcDbEntity
8
2
62
256
6
ByLayer
370
13
48
1
60
0
100
AcDbLine
10
102.083343
20
-3.8
30
0
11
102.083343
21
31.510193
31
0
39
0
210
0
220
0
230
1
0
LINE
5
AB
100
AcDbEntity
8
2
62
256
6
ByLayer
370
13
48
1
60
0
100
AcDbLine
10
90.4652
20
3.8
30
0
11
104.083343
21
3.8
31
0
39
0
210
0
220
0
230
1
0
LINE
5
AC
100
AcDbEntity
8
2
62
256
6
ByLayer
370
13
48
1
60
0
100
AcDbLine
10
90.4652
20
-3.8
30
0
11
104.083343
21
-3.8
31
0
39
0
210
0
220
0
230
1
0
LINE
5
AD
100
AcDbEntity
8
1
62
256
6
ByLayer
370
18
48
1
60
1
100
AcDbLine
10
102.083343
20
3.8
30
0
11
102.544126
21
0.300002
31
0
39
0
210
0
220
0
230
1
0
LINE
5
AE
100
AcDbEntity
8
1
62
256
6
ByLayer
370
18
48
1
60
1
100
AcDbLine
10
102.544126
20
0.300002
30
0
11
101.622559
21
0.299998
31
0
39
0
210
0
220
0
230
1
0
LINE
5
AF
100
AcDbEntity
8
1
62
256
6
ByLayer
370
18
48
1
60
1
100
AcDbLine
10
101.622559
20
0.299998
30
0
11
102.083343
21
3.8
31
0
39
0
210
0
220
0
230
1
0
LINE
5
B0
100
AcDbEntity
8
1
62
256
6
ByLayer
370
18
48
1
60
1
100
AcDbLine
10
102.083343
20
-3.8
30
0
11
101.622559
21
-0.300002
31
0
39
0
210
0
220
0
230
1
0
LINE
5
B1
100
AcDbEntity
8
1
62
256
6
ByLayer
370
18
48
1
60
1
100
AcDbLine
10
101.622559
20
-0.300002
30
0
11
102.544126
21
-0.299998
31
0
39
0
210
0
220
0
230
1
0
LINE
5
B2
100
AcDbEntity
8
1
62
256
6
ByLayer
370
18
48
1
60
1
100
AcDbLine
10
102.544126
20
-0.299998
30
0
11
102.083343
21
-3.8
31
0
39
0
210
0
220
0
230
1
0
LINE
5
117
100
AcDbEntity
8
1
62
256
6
ByLayer
370
18
48
1
60
1
100
AcDbLine
10
-44.625163
20
4
30
0
11
-44.164379
21
0.500002
31
0
39
0
210
0
220
0
230
1
0
LINE
5
118
100
AcDbEntity
8
1
62
256
6
ByLayer
370
18
48
1
60
1
100
AcDbLine
10
-44.164379
20
0.500002
30
0
11
-45.085946
21
0.499998
31
0
39
0
210
0
220
0
230
1
0
LINE
5
119
100
AcDbEntity
8
1
62
256
6
ByLayer
370
18
48
1
60
1
100
AcDbLine
10
-45.085946
20
0.499998
30
0
11
-44.625163
21
4
31
0
39
0
210
0
220
0
230
1
0
LINE
5
11B
100
AcDbEntity
8
1
62
256
6
ByLayer
370
18
48
1
60
1
100
AcDbLine
10
-44.625163
20
-4
30
0
11
-45.085946
21
-0.500002
31
0
39
0
210
0
220
0
230
1
0
LINE
5
11C
100
AcDbEntity
8
1
62
256
6
ByLayer
370
18
48
1
60
1
100
AcDbLine
10
-45.085946
20
-0.500002
30
0
11
-44.164379
21
-0.499998
31
0
39
0
210
0
220
0
230
1
0
LINE
5
11D
100
AcDbEntity
8
1
62
256
6
ByLayer
370
18
48
1
60
1
100
AcDbLine
10
-44.164379
20
-0.499998
30
0
11
-44.625163
21
-4
31
0
39
0
210
0
220
0
230
1
0
LINE
5
121
100
AcDbEntity
8
1
62
256
6
ByLayer
370
18
48
1
60
1
100
AcDbLine
10
102.083343
20
3.8
30
0
11
102.544126
21
0.300002
31
0
39
0
210
0
220
0
230
1
0
LINE
5
122
100
AcDbEntity
8
1
62
256
6
ByLayer
370
18
48
1
60
1
100
AcDbLine
10
102.544126
20
0.300002
30
0
11
101.622559
21
0.299998
31
0
39
0
210
0
220
0
230
1
0
LINE
5
123
100
AcDbEntity
8
1
62
256
6
ByLayer
370
18
48
1
60
1
100
AcDbLine
10
101.622559
20
0.299998
30
0
11
102.083343
21
3.8
31
0
39
0
210
0
220
0
230
1
0
LINE
5
125
100
AcDbEntity
8
1
62
256
6
ByLayer
370
18
48
1
60
1
100
AcDbLine
10
102.083343
20
-3.8
30
0
11
101.622559
21
-0.300002
31
0
39
0
210
0
220
0
230
1
0
LINE
5
126
100
AcDbEntity
8
1
62
256
6
ByLayer
370
18
48
1
60
1
100
AcDbLine
10
101.622559
20
-0.300002
30
0
11
102.544126
21
-0.299998
31
0
39
0
210
0
220
0
230
1
0
LINE
5
127
100
AcDbEntity
8
1
62
256
6
ByLayer
370
18
48
1
60
1
100
AcDbLine
10
102.544126
20
-0.299998
30
0
11
102.083343
21
-3.8
31
0
39
0
210
0
220
0
230
1
0
MTEXT
5
111
100
AcDbEntity
8
SK6
62
256
6
ByLayer
370
13
48
1
60
0
100
AcDbMText
10
-2.145193
20
36.340328
30
0
210
0
220
0
230
1
1
\W0.7670;462.1-0760-057A1-XM X2BM
40
3.5
41
0
44
1.084337
50
0
71
7
72
5
7
iso_b_vert
0
MTEXT
5
115
100
AcDbEntity
8
SK2
62
256
6
ByLayer
370
18
48
1
60
0
100
AcDbMText
10
-46.189796
20
17.409024
30
0
210
0
220
0
230
1
1
%%c
40
3.5
41
0
44
1.084337
50
90
71
7
72
5
7
iso_b_vert
0
MTEXT
5
116
100
AcDbEntity
8
SK2
62
256
6
ByLayer
370
18
48
1
60
0
100
AcDbMText
10
-46.189796
20
22.63168
30
0
210
0
220
0
230
1
1
\W0.7317;8,000
40
3.5
41
0
44
1.084337
50
90
71
7
72
5
7
iso_b_vert
0
MTEXT
5
11F
100
AcDbEntity
8
2
62
256
6
ByLayer
370
18
48
1
60
0
100
AcDbMText
10
100.518709
20
15.80211
30
0
210
0
220
0
230
1
1
%%c
40
3.5
41
0
44
1.084337
50
90
71
7
72
5
7
iso_b_vert
0
MTEXT
5
120
100
AcDbEntity
8
2
62
256
6
ByLayer
370
18
48
1
60
0
100
AcDbMText
10
100.518709
20
21.024766
30
0
210
0
220
0
230
1
1
\W0.7317;7,600
40
3.5
41
0
44
1.084337
50
90
71
7
72
5
7
iso_b_vert
0
HATCH
5
11A
100
AcDbEntity
8
SK2
62
256
6
ByLayer
370
13
48
1
60
0
100
AcDbHatch
10
0
20
0
30
0
210
0
220
0
230
1
2
ANSI31
70
0
71
0
91
1
92
5
93
3
72
1
10
-44.6251625675374
20
4
11
-44.1643788259847
21
0.500001692553184
72
1
10
-44.1643788259847
20
0.500001692553184
11
-45.0859463090902
21
0.499998307446816
72
1
10
-45.0859463090902
20
0.499998307446816
11
-44.6251625675374
21
4
97
0
75
0
76
1
52
0
41
0.0062
77
0
78
1
53
45
43
0
44
0
45
-0.0139193969876572
46
0.0139193969876572
79
0
47
0
98
1
10
0
20
0
0
HATCH
5
11E
100
AcDbEntity
8
SK2
62
256
6
ByLayer
370
13
48
1
60
0
100
AcDbHatch
10
0
20
0
30
0
210
0
220
0
230
1
2
ANSI31
70
0
71
0
91
1
92
5
93
3
72
1
10
-44.6251625675374
20
-4
11
-45.0859463090902
21
-0.500001692553184
72
1
10
-45.0859463090902
20
-0.500001692553184
11
-44.1643788259847
21
-0.499998307446816
72
1
10
-44.1643788259847
20
-0.499998307446816
11
-44.6251625675374
21
-4
97
0
75
0
76
1
52
0
41
0.0062
77
0
78
1
53
45
43
0
44
0
45
-0.0139193969876572
46
0.0139193969876572
79
0
47
0
98
1
10
0
20
0
0
HATCH
5
124
100
AcDbEntity
8
2
62
256
6
ByLayer
370
13
48
1
60
0
100
AcDbHatch
10
0
20
0
30
0
210
0
220
0
230
1
2
ANSI31
70
0
71
0
91
1
92
5
93
3
72
1
10
102.083342615295
20
3.80000000000001
11
102.544126356848
21
0.300001692553195
72
1
10
102.544126356848
20
0.300001692553195
11
101.622558873742
21
0.299998307446827
72
1
10
101.622558873742
20
0.299998307446827
11
102.083342615295
21
3.80000000000001
97
0
75
0
76
1
52
0
41
0.0062
77
0
78
1
53
45
43
0
44
0
45
-0.0139193969876572
46
0.0139193969876572
79
0
47
0
98
1
10
0
20
0
0
HATCH
5
128
100
AcDbEntity
8
2
62
256
6
ByLayer
370
13
48
1
60
0
100
AcDbHatch
10
0
20
0
30
0
210
0
220
0
230
1
2
ANSI31
70
0
71
0
91
1
92
5
93
3
72
1
10
102.083342615295
20
-3.79999999999998
11
101.622558873742
21
-0.300001692553167
72
1
10
101.622558873742
20
-0.300001692553167
11
102.544126356848
21
-0.299998307446799
72
1
10
102.544126356848
20
-0.299998307446799
11
102.083342615295
21
-3.79999999999998
97
0
75
0
76
1
52
0
41
0.0062
77
0
78
1
53
45
43
0
44
0
45
-0.0139193969876572
46
0.0139193969876572
79
0
47
0
98
1
10
0
20
0
0
DIMENSION
5
12A
100
AcDbEntity
8
SK2
62
256
6
ByLayer
370
13
48
1
60
0
100
AcDbDimension
2
_U0
10
88.8777
20
-14.013398
30
0
11
44.43885
21
-14.013398
31
0
70
32
71
1
72
1
41
1
210
0
220
0
230
1
3
Standard
100
AcDbAlignedDimension
13
0
23
0
33
0
14
88.8777
24
-3.8
34
0
50
0
100
AcDbRotatedDimension
1001
ACAD
1000
DSTYLE
1002
{
1070
   371
1070
    13
1070
   372
1070
    13
1070
   170
1070
     0
1070
   144
1040
1.0
1070
   277
1070
     2
1070
   278
1070
    44
1070
   146
1040
1.0
1070
   345
1005
16
1070
   347
1005
16
1070
   346
1005
16
1070
   344
1005
0
1070
   343
1005
0
1070
   172
1070
     1
1070
    76
1070
     0
1070
    75
1070
     0
1070
   282
1070
     0
1070
   281
1070
     0
1070
    71
1070
     0
1070
    74
1070
     0
1070
   279
1070
     0
1070
   173
1070
     1
1070
   340
1005
112
1070
   271
1070
     2
1070
   272
1070
     2
1070
    77
1070
     1
1070
    73
1070
     1
1070
   171
1070
     3
1070
   274
1070
     4
1070
   177
1070
    35
1070
   176
1070
    35
1070
   178
1070
    35
1070
    48
1040
-0.1
1070
    41
1040
3.5
1070
   147
1040
1.75
1070
    42
1040
1.5875
1070
    44
1040
2.0
1070
   140
1040
3.5
1002
}
1001
ACAD_DSTYLE_DIM_LINETYPE
1070
   380
1005
16
1001
ACAD_DSTYLE_DIM_EXT1_LINETYPE
1070
   381
1005
16
1001
ACAD_DSTYLE_DIM_EXT2_LINETYPE
1070
   382
1005
16
0
DIMENSION
5
143
100
AcDbEntity
8
SK2
62
256
6
ByLayer
370
13
48
1
60
0
100
AcDbDimension
2
_U1
10
90
20
-32.692985
30
0
11
27
21
-32.692985
31
0
70
32
71
1
72
1
41
1
210
0
220
0
230
1
3
Standard
100
AcDbAlignedDimension
13
-36
23
-4
33
0
14
90
24
0
34
0
50
0
100
AcDbRotatedDimension
1001
ACAD
1000
DSTYLE
1002
{
1070
   371
1070
    13
1070
   372
1070
    13
1070
   170
1070
     0
1070
   144
1040
1.0
1070
   277
1070
     2
1070
   278
1070
    44
1070
   146
1040
1.0
1070
   345
1005
16
1070
   347
1005
16
1070
   346
1005
16
1070
   344
1005
0
1070
   343
1005
0
1070
   172
1070
     1
1070
    76
1070
     0
1070
    75
1070
     0
1070
   282
1070
     0
1070
   281
1070
     0
1070
    71
1070
     0
1070
    74
1070
     0
1070
   279
1070
     0
1070
   173
1070
     1
1070
   340
1005
112
1070
   271
1070
     2
1070
   272
1070
     2
1070
    77
1070
     1
1070
    73
1070
     1
1070
   171
1070
     3
1070
   274
1070
     4
1070
   177
1070
    35
1070
   176
1070
    35
1070
   178
1070
    35
1070
    48
1040
-0.1
1070
    41
1040
3.5
1070
   147
1040
1.75
1070
    42
1040
1.5875
1070
    44
1040
2.0
1070
   140
1040
3.5
1002
}
1001
ACAD_DSTYLE_DIM_LINETYPE
1070
   380
1005
16
1001
ACAD_DSTYLE_DIM_EXT1_LINETYPE
1070
   381
1005
16
1001
ACAD_DSTYLE_DIM_EXT2_LINETYPE
1070
   382
1005
16
0
DIMENSION
5
15B
100
AcDbEntity
8
SK2
62
256
6
ByLayer
370
13
48
1
60
0
100
AcDbDimension
2
_U2
10
90
20
15.409119
30
0
11
59.04
21
15.409119
31
0
70
32
71
1
72
1
41
1
210
0
220
0
230
1
3
Standard
100
AcDbAlignedDimension
13
28.08
23
3.8
33
0
14
90
24
0
34
0
50
0
100
AcDbRotatedDimension
1001
ACAD
1000
DSTYLE
1002
{
1070
   371
1070
    13
1070
   372
1070
    13
1070
   170
1070
     0
1070
   144
1040
1.0
1070
   277
1070
     2
1070
   278
1070
    44
1070
   146
1040
1.0
1070
   345
1005
16
1070
   347
1005
16
1070
   346
1005
16
1070
   344
1005
0
1070
   343
1005
0
1070
   172
1070
     1
1070
    76
1070
     0
1070
    75
1070
     0
1070
   282
1070
     0
1070
   281
1070
     0
1070
    71
1070
     0
1070
    74
1070
     0
1070
   279
1070
     0
1070
   173
1070
     1
1070
   340
1005
112
1070
   271
1070
     2
1070
   272
1070
     2
1070
    77
1070
     1
1070
    73
1070
     1
1070
   171
1070
     3
1070
   274
1070
     4
1070
   177
1070
    35
1070
   176
1070
    35
1070
   178
1070
    35
1070
    48
1040
-0.1
1070
    41
1040
3.5
1070
   147
1040
1.75
1070
    42
1040
1.5875
1070
    44
1040
2.0
1070
   140
1040
3.5
1002
}
1001
ACAD_DSTYLE_DIM_LINETYPE
1070
   380
1005
16
1001
ACAD_DSTYLE_DIM_EXT1_LINETYPE
1070
   381
1005
16
1001
ACAD_DSTYLE_DIM_EXT2_LINETYPE
1070
   382
1005
16
0
DIMENSION
5
173
100
AcDbEntity
8
SK2
62
256
6
ByLayer
370
13
48
1
60
0
100
AcDbDimension
2
_U3
10
88.8777
20
-16.602503
30
0
11
107.333333
21
-16.602503
31
0
70
32
71
1
72
1
41
1
210
0
220
0
230
1
3
Standard
100
AcDbAlignedDimension
13
90
23
0
33
0
14
88.8777
24
-3.8
34
0
50
0
100
AcDbRotatedDimension
1001
ACAD
1000
DSTYLE
1002
{
1070
   371
1070
    13
1070
   372
1070
    13
1070
   170
1070
     0
1070
   144
1040
1.0
1070
   277
1070
     2
1070
   278
1070
    44
1070
   146
1040
1.0
1070
   345
1005
16
1070
   347
1005
16
1070
   346
1005
16
1070
   344
1005
0
1070
   343
1005
0
1070
   172
1070
     1
1070
    76
1070
     0
1070
    75
1070
     0
1070
   282
1070
     0
1070
   281
1070
     0
1070
    71
1070
     0
1070
    74
1070
     0
1070
   279
1070
     0
1070
   173
1070
     1
1070
   340
1005
112
1070
   271
1070
     2
1070
   272
1070
     2
1070
    77
1070
     1
1070
    73
1070
     1
1070
   171
1070
     3
1070
   274
1070
     4
1070
   177
1070
    35
1070
   176
1070
    35
1070
   178
1070
    35
1070
    48
1040
-0.1
1070
    41
1040
3.5
1070
   147
1040
1.75
1070
    42
1040
1.5875
1070
    44
1040
2.0
1070
   140
1040
3.5
1002
}
1001
ACAD_DSTYLE_DIM_LINETYPE
1070
   380
1005
16
1001
ACAD_DSTYLE_DIM_EXT1_LINETYPE
1070
   381
1005
16
1001
ACAD_DSTYLE_DIM_EXT2_LINETYPE
1070
   382
1005
16
0
DIMENSION
5
18D
100
AcDbEntity
8
SK2
62
256
6
ByLayer
370
13
48
1
60
0
100
AcDbDimension
2
_U4
10
88.8777
20
-22.343428
30
0
11
26.43885
21
-22.343428
31
0
70
32
71
1
72
1
41
1
210
0
220
0
230
1
3
Standard
100
AcDbAlignedDimension
13
-36
23
-4
33
0
14
88.8777
24
-3.8
34
0
50
0
100
AcDbRotatedDimension
1001
ACAD
1000
DSTYLE
1002
{
1070
   371
1070
    13
1070
   372
1070
    13
1070
   170
1070
     0
1070
   144
1040
1.0
1070
   277
1070
     2
1070
   278
1070
    44
1070
   146
1040
1.0
1070
   345
1005
16
1070
   347
1005
16
1070
   346
1005
16
1070
   344
1005
0
1070
   343
1005
0
1070
   172
1070
     1
1070
    76
1070
     0
1070
    75
1070
     0
1070
   282
1070
     0
1070
   281
1070
     0
1070
    71
1070
     0
1070
    74
1070
     0
1070
   279
1070
     0
1070
   173
1070
     1
1070
   340
1005
112
1070
   271
1070
     2
1070
   272
1070
     2
1070
    77
1070
     1
1070
    73
1070
     1
1070
   171
1070
     3
1070
   274
1070
     4
1070
   177
1070
    35
1070
   176
1070
    35
1070
   178
1070
    35
1070
    48
1040
-0.1
1070
    41
1040
3.5
1070
   147
1040
1.75
1070
    42
1040
1.5875
1070
    44
1040
2.0
1070
   140
1040
3.5
1002
}
1001
ACAD_DSTYLE_DIM_LINETYPE
1070
   380
1005
16
1001
ACAD_DSTYLE_DIM_EXT1_LINETYPE
1070
   381
1005
16
1001
ACAD_DSTYLE_DIM_EXT2_LINETYPE
1070
   382
1005
16
0
ENDSEC
0
SECTION
2
OBJECTS
0
DICTIONARY
5
215
330
0
100
AcDbDictionary
280
0
281
1
3
ACAD_GROUP
350
216
3
ACAD_MLINESTYLE
350
217
0
DICTIONARY
5
216
330
0
100
AcDbDictionary
280
0
281
1
0
DICTIONARY
5
217
330
0
100
AcDbDictionary
280
0
281
1
3
Standard
350
18
0
MLINESTYLE
5
18
330
217
100
AcDbMlineStyle
2
Standard
70
0
3

62
256
51
90
52
90
71
2
49
-0.5
62
256
6
ByLayer
49
0.5
62
256
6
ByLayer
0
RASTERVARIABLES
5
203
330

100
AcDbRasterVariables
90
0
70
1
71
1
72
1
0
ENDSEC
0
EOF
