0
SECTION
2
HEADER
9
$ACADVER
1
AC1015
9
$DWGCODEPAGE
3
ANSI_1252
9
$HANDSEED
5
216
9
$ANGBASE
50
0
9
$ANGDIR
70
0
9
$ATTMODE
70
1
9
$AUNITS
70
0
9
$AUPREC
70
0
9
$CECOLOR
62
256
9
$CELTSCALE
40
1
9
$CELTYPE
6
ByLayer
9
$CELWEIGHT
370
18
9
$CLAYER
8
0
9
$CMLJUST
70
0
9
$CMLSCALE
40
1
9
$CMLSTYLE
2
Standard
9
$DIMSTYLE
2
Standard
9
$TEXTSIZE
40
0.2
9
$TEXTSTYLE
7
Standard
9
$LUNITS
70
2
9
$LUPREC
70
4
9
$EXTNAMES
290
1
9
$INSUNITS
70
4
9
$LTSCALE
40
1
9
$LWDISPLAY
290
1
9
$PDMODE
70
0
9
$PDSIZE
40
0
9
$PLINEGEN
70
0
0
ENDSEC
0
SECTION
2
CLASSES
0
CLASS
1
RASTERVARIABLES
2
AcDbRasterVariables
3
ISM
90
0
280
0
281
0
0
ENDSEC
0
SECTION
2
TABLES
0
TABLE
2
VPORT
5
20c
100
AcDbSymbolTable
0
VPORT
5
1
100
AcDbSymbolTableRecord
100
AcDbViewportTableRecord
2
*Active
70
0
10
0
20
0
11
1
21
1
12
-1
22
1
13
0
23
0
14
0.5
24
0.5
15
10
25
10
16
0
26
0
36
1
17
0
27
0
37
0
0
ENDTAB
0
TABLE
2
LTYPE
5
20d
100
AcDbSymbolTable
0
LTYPE
5
14
100
AcDbSymbolTableRecord
100
AcDbLinetypeTableRecord
70
0
2
ByBlock
3

72
65
73
0
40
0
0
LTYPE
5
15
100
AcDbSymbolTableRecord
100
AcDbLinetypeTableRecord
70
0
2
ByLayer
3

72
65
73
0
40
0
0
LTYPE
5
16
100
AcDbSymbolTableRecord
100
AcDbLinetypeTableRecord
70
0
2
Continuous
3
Solid line
72
65
73
0
40
0
0
LTYPE
5
6E
100
AcDbSymbolTableRecord
100
AcDbLinetypeTableRecord
70
0
2
CENTER
3
____ _ ____ _ ____ _ ____
72
65
73
4
40
47.5
49
22
74
0
49
-8.5
74
0
49
8.5
74
0
49
-8.5
74
0
0
LTYPE
5
6F
100
AcDbSymbolTableRecord
100
AcDbLinetypeTableRecord
70
0
2
DASHED
3
__ __ __ __ __ __ __ __ __
72
65
73
2
40
25.72
49
12.86
74
0
49
-12.86
74
0
0
ENDTAB
0
TABLE
2
LAYER
5
20e
100
AcDbSymbolTable
0
LAYER
5
10
100
AcDbSymbolTableRecord
100
AcDbLayerTableRecord
2
0
70
0
62
7
6
Continuous
290
1
370
-3
390
0
0
LAYER
5
71
100
AcDbSymbolTableRecord
100
AcDbLayerTableRecord
2
80
70
0
62
-6
6
Continuous
290
1
370
-3
390
0
0
LAYER
5
73
100
AcDbSymbolTableRecord
100
AcDbLayerTableRecord
2
81
70
0
62
-3
6
Continuous
290
1
370
-3
390
0
0
LAYER
5
75
100
AcDbSymbolTableRecord
100
AcDbLayerTableRecord
2
1
70
0
62
4
6
Continuous
290
1
370
-3
390
0
0
LAYER
5
8E
100
AcDbSymbolTableRecord
100
AcDbLayerTableRecord
2
4
70
0
62
-2
6
CENTER
290
1
370
-3
390
0
0
LAYER
5
AB
100
AcDbSymbolTableRecord
100
AcDbLayerTableRecord
2
2
70
0
62
7
6
Continuous
290
1
370
-3
390
0
0
LAYER
5
121
100
AcDbSymbolTableRecord
100
AcDbLayerTableRecord
2
Defpoints
70
0
62
7
6
Continuous
290
0
370
-3
390
0
0
LAYER
5
1f8
100
AcDbSymbolTableRecord
100
AcDbLayerTableRecord
2
SK1
70
0
62
4
6
Continuous
290
1
370
-3
390
0
0
LAYER
5
1f9
100
AcDbSymbolTableRecord
100
AcDbLayerTableRecord
2
SK4
70
0
62
2
6
CENTER
290
1
370
-3
390
0
0
LAYER
5
1fa
100
AcDbSymbolTableRecord
100
AcDbLayerTableRecord
2
SK2
70
0
62
7
6
Continuous
290
1
370
-3
390
0
0
LAYER
5
1fb
100
AcDbSymbolTableRecord
100
AcDbLayerTableRecord
2
SK6
70
0
62
5
6
Continuous
290
1
370
-3
390
0
0
ENDTAB
0
TABLE
2
STYLE
5
20f
100
AcDbSymbolTable
0
STYLE
5
11
100
AcDbSymbolTableRecord
100
AcDbTextStyleTableRecord
2
Standard
3
txt
70
0
71
0
40
0
41
1
42
0
50
0
0
STYLE
5
106
100
AcDbSymbolTableRecord
100
AcDbTextStyleTableRecord
2
iso_b_vert
3
simplex.shx
70
0
71
0
40
0
41
1
42
0
50
0
0
STYLE
5
107
100
AcDbSymbolTableRecord
100
AcDbTextStyleTableRecord
2
DWGDirectTextStyle
3
simplex
70
0
71
0
40
0
41
1
42
0
50
0
0
ENDTAB
0
TABLE
2
DIMSTYLE
5
210
100
AcDbSymbolTable
100
AcDbDimStyleTable
0
DIMSTYLE
105
27
100
AcDbSymbolTableRecord
100
AcDbDimStyleTableRecord
2
Standard
70
0
3
<>
41
0.18
42
0.0625
44
0.18
140
0.18
147
0.09
73
0
74
0
77
1
271
2
275
0
278
52
280
0
340
11
0
ENDTAB
0
TABLE
2
VIEW
5
211
100
AcDbSymbolTable
0
ENDTAB
0
TABLE
2
UCS
5
212
100
AcDbSymbolTable
0
ENDTAB
0
TABLE
2
APPID
5
213
100
AcDbSymbolTable
0
APPID
5
12
100
AcDbSymbolTableRecord
100
AcDbRegAppTableRecord
2
ACAD
70
0
0
APPID
5
11D
100
AcDbSymbolTableRecord
100
AcDbRegAppTableRecord
2
ACAD_DSTYLE_DIMBREAK
70
0
0
APPID
5
1B7
100
AcDbSymbolTableRecord
100
AcDbRegAppTableRecord
2
ACAD_DSTYLE_DIM_LINETYPE
70
0
0
APPID
5
1B8
100
AcDbSymbolTableRecord
100
AcDbRegAppTableRecord
2
ACAD_DSTYLE_DIM_EXT1_LINETYPE
70
0
0
APPID
5
1B9
100
AcDbSymbolTableRecord
100
AcDbRegAppTableRecord
2
ACAD_DSTYLE_DIM_EXT2_LINETYPE
70
0
0
APPID
5
1F4
100
AcDbSymbolTableRecord
100
AcDbRegAppTableRecord
2
ACAD_MLEADERVER
70
0
0
ENDTAB
0
TABLE
2
BLOCK_RECORD
5
214
100
AcDbSymbolTable
0
BLOCK_RECORD
5
1F
100
AcDbSymbolTableRecord
100
AcDbBlockTableRecord
2
*Model_Space
340
0
70
0
0
BLOCK_RECORD
5
1B
100
AcDbSymbolTableRecord
100
AcDbBlockTableRecord
2
*Paper_Space
340
0
70
0
0
BLOCK_RECORD
5
23
100
AcDbSymbolTableRecord
100
AcDbBlockTableRecord
2
*Paper_Space0
340
0
70
0
0
BLOCK_RECORD
5
122
100
AcDbSymbolTableRecord
100
AcDbBlockTableRecord
2
*D1
340
0
70
0
0
BLOCK_RECORD
5
12E
100
AcDbSymbolTableRecord
100
AcDbBlockTableRecord
2
_U0
340
0
70
0
0
BLOCK_RECORD
5
13A
100
AcDbSymbolTableRecord
100
AcDbBlockTableRecord
2
*D3
340
0
70
0
0
BLOCK_RECORD
5
146
100
AcDbSymbolTableRecord
100
AcDbBlockTableRecord
2
_U1
340
0
70
0
0
BLOCK_RECORD
5
152
100
AcDbSymbolTableRecord
100
AcDbBlockTableRecord
2
*D5
340
0
70
0
0
BLOCK_RECORD
5
15E
100
AcDbSymbolTableRecord
100
AcDbBlockTableRecord
2
_U2
340
0
70
0
0
BLOCK_RECORD
5
16A
100
AcDbSymbolTableRecord
100
AcDbBlockTableRecord
2
*D7
340
0
70
0
0
BLOCK_RECORD
5
178
100
AcDbSymbolTableRecord
100
AcDbBlockTableRecord
2
_U3
340
0
70
0
0
BLOCK_RECORD
5
184
100
AcDbSymbolTableRecord
100
AcDbBlockTableRecord
2
*D9
340
0
70
0
0
BLOCK_RECORD
5
190
100
AcDbSymbolTableRecord
100
AcDbBlockTableRecord
2
_U4
340
0
70
0
0
ENDTAB
0
ENDSEC
0
SECTION
2
BLOCKS
0
BLOCK
5
20
100
AcDbEntity
8
0
100
AcDbBlockBegin
2
*Model_Space
70
0
10
0
20
0
30
0
3
*Model_Space
0
ENDBLK
5
21
100
AcDbEntity
8
0
100
AcDbBlockEnd
0
BLOCK
5
1C
100
AcDbEntity
8
0
100
AcDbBlockBegin
2
*Paper_Space
70
0
10
0
20
0
30
0
3
*Paper_Space
0
ENDBLK
5
1D
100
AcDbEntity
8
0
100
AcDbBlockEnd
0
BLOCK
5
24
100
AcDbEntity
8
0
100
AcDbBlockBegin
2
*Paper_Space0
70
0
10
0
20
0
30
0
3
*Paper_Space0
0
ENDBLK
5
25
100
AcDbEntity
8
0
100
AcDbBlockEnd
0
BLOCK
5
123
100
AcDbEntity
8
0
100
AcDbBlockBegin
2
*D1
70
1
10
0
20
0
30
0
3
*D1
0
LINE
5
125
100
AcDbEntity
8
0
62
256
6
ByLayer
370
-2
48
1
60
0
100
AcDbLine
10
0
20
-1.5875
30
0
11
0
21
-18.238398
31
0
39
0
210
0
220
0
230
1
0
LINE
5
126
100
AcDbEntity
8
0
62
256
6
ByLayer
370
-2
48
1
60
0
100
AcDbLine
10
155.2071
20
-7.6125
30
0
11
155.2071
21
-18.238398
31
0
39
0
210
0
220
0
230
1
0
LINE
5
127
100
AcDbEntity
8
0
62
256
6
ByLayer
370
-2
48
1
60
0
100
AcDbLine
10
3.5
20
-16.238398
30
0
11
151.7071
21
-16.238398
31
0
39
0
210
0
220
0
230
1
0
SOLID
5
128
100
AcDbEntity
8
0
62
256
6
ByLayer
370
-1
48
1
60
0
100
AcDbTrace
10
3.5
20
-15.655065
30
0
11
3.5
21
-16.821732
31
0
12
0
22
-16.238398
32
0
13
0
23
-16.238398
33
0
39
0
210
0
220
0
230
1
0
SOLID
5
129
100
AcDbEntity
8
0
62
256
6
ByLayer
370
-1
48
1
60
0
100
AcDbTrace
10
151.7071
20
-16.821732
30
0
11
151.7071
21
-15.655065
31
0
12
155.2071
22
-16.238398
32
0
13
155.2071
23
-16.238398
33
0
39
0
210
0
220
0
230
1
0
MTEXT
5
12A
100
AcDbEntity
8
0
62
256
6
ByLayer
370
18
48
1
60
0
100
AcDbMText
10
77.60355
20
-9.238398
30
0
210
0
220
0
230
1
1
\A1;155.21
40
3.5
41
0
44
1
50
0
71
5
72
5
7
iso_b_vert
0
POINT
5
12B
100
AcDbEntity
8
Defpoints
62
0
6
ByLayer
370
-1
48
1
60
0
100
AcDbPoint
10
0
20
0
30
0
39
0
210
0
220
0
230
1
50
360
0
POINT
5
12C
100
AcDbEntity
8
Defpoints
62
0
6
ByLayer
370
-1
48
1
60
0
100
AcDbPoint
10
155.2071
20
-6.025
30
0
39
0
210
0
220
0
230
1
50
360
0
POINT
5
12D
100
AcDbEntity
8
Defpoints
62
0
6
ByLayer
370
-1
48
1
60
0
100
AcDbPoint
10
155.2071
20
-16.238398
30
0
39
0
210
0
220
0
230
1
50
360
0
ENDBLK
5
124
100
AcDbEntity
8
0
100
AcDbBlockEnd
0
BLOCK
5
135
100
AcDbEntity
8
0
100
AcDbBlockBegin
2
_U0
70
0
10
0
20
0
30
0
3
_U0
0
MTEXT
5
12F
100
AcDbEntity
8
SK2
62
256
6
ByLayer
370
13
48
1
60
0
100
AcDbMText
10
72.033385
20
-15.205765
30
0
210
0
220
0
230
1
1
\W0.6822;155,21
40
3.5
41
0
44
1.084337
50
0
71
7
72
5
7
iso_b_vert
0
LINE
5
130
100
AcDbEntity
8
SK2
62
256
6
ByLayer
370
13
48
1
60
0
100
AcDbLine
10
0
20
-1.5875
30
0
11
0
21
-18.238398
31
0
39
0
210
0
220
0
230
1
0
LINE
5
131
100
AcDbEntity
8
SK2
62
256
6
ByLayer
370
13
48
1
60
0
100
AcDbLine
10
155.2071
20
-7.6125
30
0
11
155.2071
21
-18.238398
31
0
39
0
210
0
220
0
230
1
0
LINE
5
132
100
AcDbEntity
8
SK2
62
256
6
ByLayer
370
13
48
1
60
0
100
AcDbLine
10
0
20
-16.238398
30
0
11
155.2071
21
-16.238398
31
0
39
0
210
0
220
0
230
1
0
SOLID
5
133
100
AcDbEntity
8
SK2
62
256
6
ByLayer
370
18
48
1
60
0
100
AcDbTrace
10
0
20
-16.238398
30
0
11
3.499998
21
-15.777615
31
0
12
3.500002
22
-16.699182
32
0
13
3.500002
23
-16.699182
33
0
39
0
210
0
220
0
230
1
0
SOLID
5
134
100
AcDbEntity
8
SK2
62
256
6
ByLayer
370
18
48
1
60
0
100
AcDbTrace
10
155.2071
20
-16.238398
30
0
11
151.707102
21
-16.699182
31
0
12
151.707098
22
-15.777615
32
0
13
151.707098
23
-15.777615
33
0
39
0
210
0
220
0
230
1
0
ENDBLK
5
136
100
AcDbEntity
8
0
100
AcDbBlockEnd
0
BLOCK
5
13B
100
AcDbEntity
8
0
100
AcDbBlockBegin
2
*D3
70
1
10
0
20
0
30
0
3
*D3
0
LINE
5
13D
100
AcDbEntity
8
0
62
256
6
ByLayer
370
-2
48
1
60
0
100
AcDbLine
10
-45
20
-8.5875
30
0
11
-45
21
-37.692985
31
0
39
0
210
0
220
0
230
1
0
LINE
5
13E
100
AcDbEntity
8
0
62
256
6
ByLayer
370
-2
48
1
60
0
100
AcDbLine
10
157
20
-1.5875
30
0
11
157
21
-37.692985
31
0
39
0
210
0
220
0
230
1
0
LINE
5
13F
100
AcDbEntity
8
0
62
256
6
ByLayer
370
-2
48
1
60
0
100
AcDbLine
10
-41.5
20
-35.692985
30
0
11
153.5
21
-35.692985
31
0
39
0
210
0
220
0
230
1
0
SOLID
5
140
100
AcDbEntity
8
0
62
256
6
ByLayer
370
-1
48
1
60
0
100
AcDbTrace
10
-41.5
20
-35.109652
30
0
11
-41.5
21
-36.276319
31
0
12
-45
22
-35.692985
32
0
13
-45
23
-35.692985
33
0
39
0
210
0
220
0
230
1
0
SOLID
5
141
100
AcDbEntity
8
0
62
256
6
ByLayer
370
-1
48
1
60
0
100
AcDbTrace
10
153.5
20
-36.276319
30
0
11
153.5
21
-35.109652
31
0
12
157
22
-35.692985
32
0
13
157
23
-35.692985
33
0
39
0
210
0
220
0
230
1
0
MTEXT
5
142
100
AcDbEntity
8
0
62
256
6
ByLayer
370
18
48
1
60
0
100
AcDbMText
10
56
20
-28.692985
30
0
210
0
220
0
230
1
1
\A1;202.00
40
3.5
41
0
44
1
50
0
71
5
72
5
7
iso_b_vert
0
POINT
5
143
100
AcDbEntity
8
Defpoints
62
0
6
ByLayer
370
-1
48
1
60
0
100
AcDbPoint
10
-45
20
-7
30
0
39
0
210
0
220
0
230
1
50
360
0
POINT
5
144
100
AcDbEntity
8
Defpoints
62
0
6
ByLayer
370
-1
48
1
60
0
100
AcDbPoint
10
157
20
0
30
0
39
0
210
0
220
0
230
1
50
360
0
POINT
5
145
100
AcDbEntity
8
Defpoints
62
0
6
ByLayer
370
-1
48
1
60
0
100
AcDbPoint
10
157
20
-35.692985
30
0
39
0
210
0
220
0
230
1
50
360
0
ENDBLK
5
13C
100
AcDbEntity
8
0
100
AcDbBlockEnd
0
BLOCK
5
14D
100
AcDbEntity
8
0
100
AcDbBlockBegin
2
_U1
70
0
10
0
20
0
30
0
3
_U1
0
MTEXT
5
147
100
AcDbEntity
8
SK2
62
256
6
ByLayer
370
13
48
1
60
0
100
AcDbMText
10
49.554968
20
-34.660352
30
0
210
0
220
0
230
1
1
\W0.7421;202,00
40
3.5
41
0
44
1.084337
50
0
71
7
72
5
7
iso_b_vert
0
LINE
5
148
100
AcDbEntity
8
SK2
62
256
6
ByLayer
370
13
48
1
60
0
100
AcDbLine
10
-45
20
-8.5875
30
0
11
-45
21
-37.692985
31
0
39
0
210
0
220
0
230
1
0
LINE
5
149
100
AcDbEntity
8
SK2
62
256
6
ByLayer
370
13
48
1
60
0
100
AcDbLine
10
157
20
-1.5875
30
0
11
157
21
-37.692985
31
0
39
0
210
0
220
0
230
1
0
LINE
5
14A
100
AcDbEntity
8
SK2
62
256
6
ByLayer
370
13
48
1
60
0
100
AcDbLine
10
-45
20
-35.692985
30
0
11
157
21
-35.692985
31
0
39
0
210
0
220
0
230
1
0
SOLID
5
14B
100
AcDbEntity
8
SK2
62
256
6
ByLayer
370
18
48
1
60
0
100
AcDbTrace
10
-45
20
-35.692985
30
0
11
-41.500002
21
-35.232202
31
0
12
-41.499998
22
-36.153769
32
0
13
-41.499998
23
-36.153769
33
0
39
0
210
0
220
0
230
1
0
SOLID
5
14C
100
AcDbEntity
8
SK2
62
256
6
ByLayer
370
18
48
1
60
0
100
AcDbTrace
10
157
20
-35.692985
30
0
11
153.500002
21
-36.153769
31
0
12
153.499998
22
-35.232202
32
0
13
153.499998
23
-35.232202
33
0
39
0
210
0
220
0
230
1
0
ENDBLK
5
14E
100
AcDbEntity
8
0
100
AcDbBlockEnd
0
BLOCK
5
153
100
AcDbEntity
8
0
100
AcDbBlockBegin
2
*D5
70
1
10
0
20
0
30
0
3
*D5
0
LINE
5
155
100
AcDbEntity
8
0
62
256
6
ByLayer
370
-2
48
1
60
0
100
AcDbLine
10
58.81
20
7.6125
30
0
11
58.81
21
19.634119
31
0
39
0
210
0
220
0
230
1
0
LINE
5
156
100
AcDbEntity
8
0
62
256
6
ByLayer
370
-2
48
1
60
0
100
AcDbLine
10
157
20
1.5875
30
0
11
157
21
19.634119
31
0
39
0
210
0
220
0
230
1
0
LINE
5
157
100
AcDbEntity
8
0
62
256
6
ByLayer
370
-2
48
1
60
0
100
AcDbLine
10
62.31
20
17.634119
30
0
11
153.5
21
17.634119
31
0
39
0
210
0
220
0
230
1
0
SOLID
5
158
100
AcDbEntity
8
0
62
256
6
ByLayer
370
-1
48
1
60
0
100
AcDbTrace
10
62.31
20
18.217453
30
0
11
62.31
21
17.050786
31
0
12
58.81
22
17.634119
32
0
13
58.81
23
17.634119
33
0
39
0
210
0
220
0
230
1
0
SOLID
5
159
100
AcDbEntity
8
0
62
256
6
ByLayer
370
-1
48
1
60
0
100
AcDbTrace
10
153.5
20
17.050786
30
0
11
153.5
21
18.217453
31
0
12
157
22
17.634119
32
0
13
157
23
17.634119
33
0
39
0
210
0
220
0
230
1
0
MTEXT
5
15A
100
AcDbEntity
8
0
62
256
6
ByLayer
370
18
48
1
60
0
100
AcDbMText
10
107.905
20
24.634119
30
0
210
0
220
0
230
1
1
\A1;98.19
40
3.5
41
0
44
1
50
0
71
5
72
5
7
iso_b_vert
0
POINT
5
15B
100
AcDbEntity
8
Defpoints
62
0
6
ByLayer
370
-1
48
1
60
0
100
AcDbPoint
10
58.81
20
6.025
30
0
39
0
210
0
220
0
230
1
50
360
0
POINT
5
15C
100
AcDbEntity
8
Defpoints
62
0
6
ByLayer
370
-1
48
1
60
0
100
AcDbPoint
10
157
20
0
30
0
39
0
210
0
220
0
230
1
50
360
0
POINT
5
15D
100
AcDbEntity
8
Defpoints
62
0
6
ByLayer
370
-1
48
1
60
0
100
AcDbPoint
10
157
20
17.634119
30
0
39
0
210
0
220
0
230
1
50
360
0
ENDBLK
5
154
100
AcDbEntity
8
0
100
AcDbBlockEnd
0
BLOCK
5
165
100
AcDbEntity
8
0
100
AcDbBlockBegin
2
_U2
70
0
10
0
20
0
30
0
3
_U2
0
MTEXT
5
15F
100
AcDbEntity
8
SK2
62
256
6
ByLayer
370
13
48
1
60
0
100
AcDbMText
10
103.205135
20
18.666753
30
0
210
0
220
0
230
1
1
\W0.6791;98,19
40
3.5
41
0
44
1.084337
50
0
71
7
72
5
7
iso_b_vert
0
LINE
5
160
100
AcDbEntity
8
SK2
62
256
6
ByLayer
370
13
48
1
60
0
100
AcDbLine
10
58.81
20
7.6125
30
0
11
58.81
21
19.634119
31
0
39
0
210
0
220
0
230
1
0
LINE
5
161
100
AcDbEntity
8
SK2
62
256
6
ByLayer
370
13
48
1
60
0
100
AcDbLine
10
157
20
1.5875
30
0
11
157
21
19.634119
31
0
39
0
210
0
220
0
230
1
0
LINE
5
162
100
AcDbEntity
8
SK2
62
256
6
ByLayer
370
13
48
1
60
0
100
AcDbLine
10
58.81
20
17.634119
30
0
11
157
21
17.634119
31
0
39
0
210
0
220
0
230
1
0
SOLID
5
163
100
AcDbEntity
8
SK2
62
256
6
ByLayer
370
18
48
1
60
0
100
AcDbTrace
10
58.81
20
17.634119
30
0
11
62.309998
21
18.094903
31
0
12
62.310002
22
17.173335
32
0
13
62.310002
23
17.173335
33
0
39
0
210
0
220
0
230
1
0
SOLID
5
164
100
AcDbEntity
8
SK2
62
256
6
ByLayer
370
18
48
1
60
0
100
AcDbTrace
10
157
20
17.634119
30
0
11
153.500002
21
17.173335
31
0
12
153.499998
22
18.094903
32
0
13
153.499998
23
18.094903
33
0
39
0
210
0
220
0
230
1
0
ENDBLK
5
166
100
AcDbEntity
8
0
100
AcDbBlockEnd
0
BLOCK
5
16B
100
AcDbEntity
8
0
100
AcDbBlockBegin
2
*D7
70
1
10
0
20
0
30
0
3
*D7
0
LINE
5
16D
100
AcDbEntity
8
0
62
256
6
ByLayer
370
-2
48
1
60
0
100
AcDbLine
10
157
20
-1.5875
30
0
11
157
21
-20.827503
31
0
39
0
210
0
220
0
230
1
0
LINE
5
16E
100
AcDbEntity
8
0
62
256
6
ByLayer
370
-2
48
1
60
0
100
AcDbLine
10
155.2071
20
-7.6125
30
0
11
155.2071
21
-20.827503
31
0
39
0
210
0
220
0
230
1
0
LINE
5
16F
100
AcDbEntity
8
0
62
256
6
ByLayer
370
-2
48
1
60
0
100
AcDbLine
10
157
20
-18.827503
30
0
11
184.5
21
-18.827503
31
0
39
0
210
0
220
0
230
1
0
LINE
5
170
100
AcDbEntity
8
0
62
256
6
ByLayer
370
-2
48
1
60
0
100
AcDbLine
10
160.5
20
-18.827503
30
0
11
164
21
-18.827503
31
0
39
0
210
0
220
0
230
1
0
LINE
5
171
100
AcDbEntity
8
0
62
256
6
ByLayer
370
-2
48
1
60
0
100
AcDbLine
10
151.7071
20
-18.827503
30
0
11
148.2071
21
-18.827503
31
0
39
0
210
0
220
0
230
1
0
SOLID
5
172
100
AcDbEntity
8
0
62
256
6
ByLayer
370
-1
48
1
60
0
100
AcDbTrace
10
160.5
20
-18.24417
30
0
11
160.5
21
-19.410837
31
0
12
157
22
-18.827503
32
0
13
157
23
-18.827503
33
0
39
0
210
0
220
0
230
1
0
SOLID
5
173
100
AcDbEntity
8
0
62
256
6
ByLayer
370
-1
48
1
60
0
100
AcDbTrace
10
151.7071
20
-19.410837
30
0
11
151.7071
21
-18.24417
31
0
12
155.2071
22
-18.827503
32
0
13
155.2071
23
-18.827503
33
0
39
0
210
0
220
0
230
1
0
MTEXT
5
174
100
AcDbEntity
8
0
62
256
6
ByLayer
370
18
48
1
60
0
100
AcDbMText
10
174.25
20
-11.827503
30
0
210
0
220
0
230
1
1
\A1;1.79
40
3.5
41
0
44
1
50
0
71
5
72
5
7
iso_b_vert
0
POINT
5
175
100
AcDbEntity
8
Defpoints
62
0
6
ByLayer
370
-1
48
1
60
0
100
AcDbPoint
10
157
20
0
30
0
39
0
210
0
220
0
230
1
50
360
0
POINT
5
176
100
AcDbEntity
8
Defpoints
62
0
6
ByLayer
370
-1
48
1
60
0
100
AcDbPoint
10
155.2071
20
-6.025
30
0
39
0
210
0
220
0
230
1
50
360
0
POINT
5
177
100
AcDbEntity
8
Defpoints
62
0
6
ByLayer
370
-1
48
1
60
0
100
AcDbPoint
10
155.2071
20
-18.827503
30
0
39
0
210
0
220
0
230
1
50
360
0
ENDBLK
5
16C
100
AcDbEntity
8
0
100
AcDbBlockEnd
0
BLOCK
5
17F
100
AcDbEntity
8
0
100
AcDbBlockBegin
2
_U3
70
0
10
0
20
0
30
0
3
_U3
0
MTEXT
5
179
100
AcDbEntity
8
SK2
62
256
6
ByLayer
370
13
48
1
60
0
100
AcDbMText
10
163.589293
20
-17.79487
30
0
210
0
220
0
230
1
1
\W0.6463;1,79
40
3.5
41
0
44
1.084337
50
0
71
7
72
5
7
iso_b_vert
0
LINE
5
17A
100
AcDbEntity
8
SK2
62
256
6
ByLayer
370
13
48
1
60
0
100
AcDbLine
10
157
20
-1.5875
30
0
11
157
21
-20.827503
31
0
39
0
210
0
220
0
230
1
0
LINE
5
17B
100
AcDbEntity
8
SK2
62
256
6
ByLayer
370
13
48
1
60
0
100
AcDbLine
10
155.2071
20
-7.6125
30
0
11
155.2071
21
-20.827503
31
0
39
0
210
0
220
0
230
1
0
LINE
5
17C
100
AcDbEntity
8
SK2
62
256
6
ByLayer
370
13
48
1
60
0
100
AcDbLine
10
146.4571
20
-18.827503
30
0
11
170.559058
21
-18.827503
31
0
39
0
210
0
220
0
230
1
0
SOLID
5
17D
100
AcDbEntity
8
SK2
62
256
6
ByLayer
370
18
48
1
60
0
100
AcDbTrace
10
157
20
-18.827503
30
0
11
160.499998
21
-18.366719
31
0
12
160.500002
22
-19.288287
32
0
13
160.500002
23
-19.288287
33
0
39
0
210
0
220
0
230
1
0
SOLID
5
17E
100
AcDbEntity
8
SK2
62
256
6
ByLayer
370
18
48
1
60
0
100
AcDbTrace
10
155.2071
20
-18.827503
30
0
11
151.707102
21
-19.288287
31
0
12
151.707098
22
-18.366719
32
0
13
151.707098
23
-18.366719
33
0
39
0
210
0
220
0
230
1
0
ENDBLK
5
180
100
AcDbEntity
8
0
100
AcDbBlockEnd
0
BLOCK
5
185
100
AcDbEntity
8
0
100
AcDbBlockBegin
2
*D9
70
1
10
0
20
0
30
0
3
*D9
0
LINE
5
187
100
AcDbEntity
8
0
62
256
6
ByLayer
370
-2
48
1
60
0
100
AcDbLine
10
-45
20
-8.5875
30
0
11
-45
21
-27.343428
31
0
39
0
210
0
220
0
230
1
0
LINE
5
188
100
AcDbEntity
8
0
62
256
6
ByLayer
370
-2
48
1
60
0
100
AcDbLine
10
155.2071
20
-7.6125
30
0
11
155.2071
21
-27.343428
31
0
39
0
210
0
220
0
230
1
0
LINE
5
189
100
AcDbEntity
8
0
62
256
6
ByLayer
370
-2
48
1
60
0
100
AcDbLine
10
-41.5
20
-25.343428
30
0
11
151.7071
21
-25.343428
31
0
39
0
210
0
220
0
230
1
0
SOLID
5
18A
100
AcDbEntity
8
0
62
256
6
ByLayer
370
-1
48
1
60
0
100
AcDbTrace
10
-41.5
20
-24.760095
30
0
11
-41.5
21
-25.926762
31
0
12
-45
22
-25.343428
32
0
13
-45
23
-25.343428
33
0
39
0
210
0
220
0
230
1
0
SOLID
5
18B
100
AcDbEntity
8
0
62
256
6
ByLayer
370
-1
48
1
60
0
100
AcDbTrace
10
151.7071
20
-25.926762
30
0
11
151.7071
21
-24.760095
31
0
12
155.2071
22
-25.343428
32
0
13
155.2071
23
-25.343428
33
0
39
0
210
0
220
0
230
1
0
MTEXT
5
18C
100
AcDbEntity
8
0
62
256
6
ByLayer
370
18
48
1
60
0
100
AcDbMText
10
55.10355
20
-18.343428
30
0
210
0
220
0
230
1
1
\A1;200.21
40
3.5
41
0
44
1
50
0
71
5
72
5
7
iso_b_vert
0
POINT
5
18D
100
AcDbEntity
8
Defpoints
62
0
6
ByLayer
370
-1
48
1
60
0
100
AcDbPoint
10
-45
20
-7
30
0
39
0
210
0
220
0
230
1
50
360
0
POINT
5
18E
100
AcDbEntity
8
Defpoints
62
0
6
ByLayer
370
-1
48
1
60
0
100
AcDbPoint
10
155.2071
20
-6.025
30
0
39
0
210
0
220
0
230
1
50
360
0
POINT
5
18F
100
AcDbEntity
8
Defpoints
62
0
6
ByLayer
370
-1
48
1
60
0
100
AcDbPoint
10
155.2071
20
-25.343428
30
0
39
0
210
0
220
0
230
1
50
360
0
ENDBLK
5
186
100
AcDbEntity
8
0
100
AcDbBlockEnd
0
BLOCK
5
197
100
AcDbEntity
8
0
100
AcDbBlockBegin
2
_U4
70
0
10
0
20
0
30
0
3
_U4
0
MTEXT
5
191
100
AcDbEntity
8
SK2
62
256
6
ByLayer
370
13
48
1
60
0
100
AcDbMText
10
49.095951
20
-24.310795
30
0
210
0
220
0
230
1
1
\W0.7342;200,21
40
3.5
41
0
44
1.084337
50
0
71
7
72
5
7
iso_b_vert
0
LINE
5
192
100
AcDbEntity
8
SK2
62
256
6
ByLayer
370
13
48
1
60
0
100
AcDbLine
10
-45
20
-8.5875
30
0
11
-45
21
-27.343428
31
0
39
0
210
0
220
0
230
1
0
LINE
5
193
100
AcDbEntity
8
SK2
62
256
6
ByLayer
370
13
48
1
60
0
100
AcDbLine
10
155.2071
20
-7.6125
30
0
11
155.2071
21
-27.343428
31
0
39
0
210
0
220
0
230
1
0
LINE
5
194
100
AcDbEntity
8
SK2
62
256
6
ByLayer
370
13
48
1
60
0
100
AcDbLine
10
-45
20
-25.343428
30
0
11
155.2071
21
-25.343428
31
0
39
0
210
0
220
0
230
1
0
SOLID
5
195
100
AcDbEntity
8
SK2
62
256
6
ByLayer
370
18
48
1
60
0
100
AcDbTrace
10
-45
20
-25.343428
30
0
11
-41.500002
21
-24.882645
31
0
12
-41.499998
22
-25.804212
32
0
13
-41.499998
23
-25.804212
33
0
39
0
210
0
220
0
230
1
0
SOLID
5
196
100
AcDbEntity
8
SK2
62
256
6
ByLayer
370
18
48
1
60
0
100
AcDbTrace
10
155.2071
20
-25.343428
30
0
11
151.707102
21
-25.804212
31
0
12
151.707098
22
-24.882645
32
0
13
151.707098
23
-24.882645
33
0
39
0
210
0
220
0
230
1
0
ENDBLK
5
198
100
AcDbEntity
8
0
100
AcDbBlockEnd
0
ENDSEC
0
SECTION
2
ENTITIES
0
ARC
5
B4
100
AcDbEntity
8
1
62
256
6
ByLayer
370
18
48
1
60
0
100
AcDbCircle
39
0
10
1.510008
20
-6.729033
30
0
40
0.799999999999999
210
0
220
0
230
1
100
AcDbArc
50
89.96419
51
160.692052
0
ARC
5
B5
100
AcDbEntity
8
1
62
256
6
ByLayer
370
18
48
1
60
0
100
AcDbCircle
39
0
10
1.510008
20
6.729033
30
0
40
0.799999999999999
210
0
220
0
230
1
100
AcDbArc
50
199.307948
51
270.03581
0
ARC
5
B6
100
AcDbEntity
8
1
62
256
6
ByLayer
370
18
48
1
60
0
100
AcDbCircle
39
0
10
0
20
-6.2
30
0
40
0.799999999999999
210
0
220
0
230
1
100
AcDbArc
50
270
51
340.692052
0
ARC
5
B7
100
AcDbEntity
8
1
62
256
6
ByLayer
370
18
48
1
60
0
100
AcDbCircle
39
0
10
0
20
6.2
30
0
40
0.799999999999999
210
0
220
0
230
1
100
AcDbArc
50
19.307948
51
90
0
ELLIPSE
5
B8
100
AcDbEntity
8
1
62
256
6
ByLayer
370
18
48
1
60
0
100
AcDbEllipse
10
8.25
20
5.852072
30
0
11
0.25
21
0
31
0
210
0
220
0
230
1
40
0.999995
41
-3.13896689416243
42
-1.55594028053016
0
ELLIPSE
5
B9
100
AcDbEntity
8
1
62
256
6
ByLayer
370
18
48
1
60
0
100
AcDbEllipse
10
8.25
20
-5.852072
30
0
11
0.25
21
0
31
0
210
0
220
0
230
1
40
0.999995
41
1.58262973864038
42
3.13896689416243
0
POINT
5
70
100
AcDbEntity
8
80
62
256
6
ByLayer
370
18
48
1
60
0
100
AcDbPoint
10
0
20
0
30
0
39
0
210
0
220
0
230
1
50
360
0
POINT
5
72
100
AcDbEntity
8
81
62
256
6
ByLayer
370
18
48
1
60
0
100
AcDbPoint
10
157
20
0
30
0
39
0
210
0
220
0
230
1
50
360
0
POINT
5
74
100
AcDbEntity
8
1
62
256
6
ByLayer
370
18
48
1
60
1
100
AcDbPoint
10
155.2071
20
-6.025
30
0
39
0
210
0
220
0
230
1
50
360
0
POINT
5
76
100
AcDbEntity
8
1
62
256
6
ByLayer
370
18
48
1
60
1
100
AcDbPoint
10
-45
20
-7
30
0
39
0
210
0
220
0
230
1
50
360
0
POINT
5
77
100
AcDbEntity
8
1
62
256
6
ByLayer
370
18
48
1
60
1
100
AcDbPoint
10
58.81
20
6.025
30
0
39
0
210
0
220
0
230
1
50
360
0
POINT
5
78
100
AcDbEntity
8
1
62
256
6
ByLayer
370
18
48
1
60
1
100
AcDbPoint
10
155.2071
20
-6.025
30
0
39
0
210
0
220
0
230
1
50
360
0
POINT
5
79
100
AcDbEntity
8
1
62
256
6
ByLayer
370
18
48
1
60
1
100
AcDbPoint
10
-45
20
-7
30
0
39
0
210
0
220
0
230
1
50
360
0
POINT
5
7A
100
AcDbEntity
8
1
62
256
6
ByLayer
370
18
48
1
60
1
100
AcDbPoint
10
155.2071
20
-6.025
30
0
39
0
210
0
220
0
230
1
50
360
0
SPLINE
5
BA
100
AcDbEntity
8
SK1
62
256
6
ByLayer
370
18
48
1
60
0
100
AcDbSpline
70
4
71
3
72
12
73
8
40
0
40
0
40
0
40
0
40
0.250000000000002
40
0.250000000000002
40
0.500000000000003
40
0.500000000000003
40
1
40
1
40
1
40
1
41
1
10
-43.9
20
-1.08040642205856
30
0
41
1
10
-43.9
20
-1.0637718889715
30
0
41
1
10
-43.9042016956282
20
-1.04673778431595
30
0
41
1
10
-43.9170234176167
20
-1.01638735300884
30
0
41
1
10
-43.9254954864758
20
-1.00300271240405
30
0
41
1
10
-43.9538426693661
20
-0.968234073526588
30
0
41
1
10
-43.9765304760167
20
-0.952026739691036
30
0
41
1
10
-44
20
-0.943478508978046
30
0
0
SPLINE
5
BB
100
AcDbEntity
8
SK1
62
256
6
ByLayer
370
18
48
1
60
0
100
AcDbSpline
70
4
71
3
72
8
73
4
40
0
40
0
40
0
40
0
40
1
40
1
40
1
40
1
41
1
10
-45
20
-2.91348469668864
30
0
41
1
10
-44.6675878354189
20
-3.03574706519163
30
0
41
1
10
-44.3340987540543
20
-3.15764252060694
30
0
41
1
10
-44
20
-3.27933025626845
30
0
0
SPLINE
5
BC
100
AcDbEntity
8
SK1
62
256
6
ByLayer
370
18
48
1
60
0
100
AcDbSpline
70
4
71
3
72
8
73
4
40
0
40
0
40
0
40
0
40
1
40
1
40
1
40
1
41
1
10
-44
20
-0.943478508978046
30
0
41
1
10
-44.3340980170556
20
-0.821791041751254
30
0
41
1
10
-44.6675869529287
20
-0.69989564248425
30
0
41
1
10
-45
20
-0.577632949398236
30
0
0
SPLINE
5
BD
100
AcDbEntity
8
SK1
62
256
6
ByLayer
370
18
48
1
60
0
100
AcDbSpline
70
4
71
3
72
12
73
8
40
0
40
0
40
0
40
0
40
0.499999999999995
40
0.499999999999995
40
0.749999999999997
40
0.749999999999997
40
1
40
1
40
1
40
1
41
1
10
-44
20
-3.27933025626845
30
0
41
1
10
-43.9765248032773
20
-3.28788055314544
30
0
41
1
10
-43.9537853574511
20
-3.28933807168451
30
0
41
1
10
-43.9256353788013
20
-3.27884585673368
30
0
41
1
10
-43.9170526356788
20
-3.27304987702141
30
0
41
1
10
-43.9042470853815
20
-3.25569619429371
30
0
41
1
10
-43.9
20
-3.24375418231603
30
0
41
1
10
-43.9
20
-3.22939002956574
30
0
0
SPLINE
5
BE
100
AcDbEntity
8
1
62
256
6
ByLayer
370
18
48
1
60
0
100
AcDbSpline
70
4
71
3
72
8
73
4
40
0
40
0
40
0
40
0
40
1
40
1
40
1
40
1
41
1
10
156.794255197152
20
-1.42579584585249
30
0
41
1
10
156.862184801404
20
-1.00390189431147
30
0
41
1
10
156.922490700073
20
-0.582067602981454
30
0
41
1
10
156.975124551134
20
-0.160293350168729
30
0
0
SPLINE
5
BF
100
AcDbEntity
8
1
62
256
6
ByLayer
370
18
48
1
60
0
100
AcDbSpline
70
4
71
3
72
14
73
10
40
0
40
0
40
0
40
0
40
0.25
40
0.25
40
0.5
40
0.5
40
0.75
40
0.75
40
1
40
1
40
1
40
1
41
1
10
154.792699809367
20
1.36000770915703
30
0
41
1
10
154.788936327679
20
1.37521390861298
30
0
41
1
10
154.787955989887
20
1.39124381420649
30
0
41
1
10
154.795094206247
20
1.42146408456065
30
0
41
1
10
154.803695025059
20
1.4356211986813
30
0
41
1
10
154.827627791235
20
1.45617511021709
30
0
41
1
10
154.842359715132
20
1.46274901288297
30
0
41
1
10
154.872694417561
20
1.47044308662654
30
0
41
1
10
154.888481528034
20
1.47169310275473
30
0
41
1
10
154.904173733349
20
1.47125482315295
30
0
0
SPLINE
5
C0
100
AcDbEntity
8
1
62
256
6
ByLayer
370
18
48
1
60
0
100
AcDbSpline
70
4
71
3
72
10
73
6
40
0
40
0
40
0
40
0
40
0.5
40
0.5
40
1
40
1
40
1
40
1
41
1
10
155.058529549263
20
-5.85864742584843
30
0
41
1
10
155.349721517989
20
-5.12150393315443
30
0
41
1
10
155.640753908588
20
-4.38382959828704
30
0
41
1
10
156.220225495706
20
-2.90635176152151
30
0
41
1
10
156.508599230934
20
-2.16655229259288
30
0
41
1
10
156.794255197152
20
-1.42579584585246
30
0
0
SPLINE
5
C1
100
AcDbEntity
8
1
62
256
6
ByLayer
370
18
48
1
60
0
100
AcDbSpline
70
4
71
3
72
22
73
18
40
0
40
0
40
0
40
0
40
0.124999999999995
40
0.124999999999995
40
0.187499999999992
40
0.187499999999992
40
0.249999999999989
40
0.249999999999989
40
0.374999999999984
40
0.374999999999984
40
0.499999999999978
40
0.499999999999978
40
0.624999999999973
40
0.624999999999973
40
0.749999999999967
40
0.749999999999967
40
1
40
1
40
1
40
1
41
1
10
154.685124298019
20
-3.19831883080928
30
0
41
1
10
154.657301346925
20
-3.14894340315718
30
0
41
1
10
154.633717634073
20
-3.0960995165515
30
0
41
1
10
154.611467201739
20
-3.01500076256261
30
0
41
1
10
154.606136397019
20
-2.9871077415585
30
0
41
1
10
154.601127778408
20
-2.93220972798005
30
0
41
1
10
154.601395979578
20
-2.90540252660298
30
0
41
1
10
154.610903063646
20
-2.82699545016007
30
0
41
1
10
154.628985369926
20
-2.78009752248374
30
0
41
1
10
154.678533021158
20
-2.70132396188291
30
0
41
1
10
154.709869995942
20
-2.66863818622036
30
0
41
1
10
154.778348717893
20
-2.61330735171788
30
0
41
1
10
154.815270494185
20
-2.59073731444232
30
0
41
1
10
154.892440748928
20
-2.55191647445327
30
0
41
1
10
154.932926771618
20
-2.53567906968331
30
0
41
1
10
155.056004709676
20
-2.49447098665237
30
0
41
1
10
155.140479976612
20
-2.47650016231415
30
0
41
1
10
155.226296916059
20
-2.46378972552927
30
0
0
SPLINE
5
C2
100
AcDbEntity
8
1
62
256
6
ByLayer
370
13
48
1
60
0
100
AcDbSpline
70
4
71
3
72
16
73
12
40
0
40
0
40
0
40
0
40
0.177214665375918
40
0.177214665375918
40
0.364594727103391
40
0.364594727103391
40
0.551974788830864
40
0.551974788830864
40
0.92673491228581
40
0.92673491228581
40
1
40
1
40
1
40
1
41
1
10
8.25026877936216
20
5.04868714755486
30
0
41
1
10
8.2502778513749
20
5.1128468890733
30
0
41
1
10
8.2502863033113
20
5.17154182367363
30
0
41
1
10
8.25030266065488
20
5.28123365473144
30
0
41
1
10
8.2503105036962
20
5.33156313919994
30
0
41
1
10
8.25032531780548
20
5.4199477181636
30
0
41
1
10
8.25033231457832
20
5.45810374091533
30
0
41
1
10
8.25035206781925
20
5.55217476798737
30
0
41
1
10
8.25036368474997
20
5.58845048229026
30
0
41
1
10
8.25037696149641
20
5.60098426507233
30
0
41
1
10
8.2503791124463
20
5.60204293297951
30
0
41
1
10
8.25038124982237
20
5.60210312263644
30
0
0
SPLINE
5
C3
100
AcDbEntity
8
1
62
256
6
ByLayer
370
18
48
1
60
0
100
AcDbSpline
70
4
71
3
72
62
73
58
40
0
40
0
40
0
40
0
40
0.0425604869014566
40
0.0425604869014566
40
0.0638407303521847
40
0.0638407303521847
40
0.0851209738029127
40
0.0851209738029127
40
0.127681460704369
40
0.127681460704369
40
0.170241947605826
40
0.170241947605826
40
0.212802434507283
40
0.212802434507283
40
0.255362921408739
40
0.255362921408739
40
0.297923408310196
40
0.297923408310196
40
0.340483895211653
40
0.340483895211653
40
0.383044382113109
40
0.383044382113109
40
0.425604869014566
40
0.425604869014566
40
0.468165355916023
40
0.468165355916023
40
0.489445599366751
40
0.489445599366751
40
0.510725842817479
40
0.510725842817479
40
0.553286329718936
40
0.553286329718936
40
0.595846816620393
40
0.595846816620393
40
0.638407303521849
40
0.638407303521849
40
0.680967790423306
40
0.680967790423306
40
0.723528277324763
40
0.723528277324763
40
0.76608876422622
40
0.76608876422622
40
0.787369007676948
40
0.787369007676948
40
0.808649251127676
40
0.808649251127676
40
0.851209738029132
40
0.851209738029132
40
0.893770224930587
40
0.893770224930587
40
0.915050468381316
40
0.915050468381316
40
0.936330711832044
40
0.936330711832044
40
0.978891198733501
40
0.978891198733501
40
1
40
1
40
1
40
1
41
1
10
11.5062049976007
20
3.37240412314748
30
0
41
1
10
11.8809549557337
20
3.22034448598856
30
0
41
1
10
12.2555970957755
20
3.06454779521965
30
0
41
1
10
12.8175965773858
20
2.82579085061886
30
0
41
1
10
13.0048936296831
20
2.74528680881562
30
0
41
1
10
13.3791284745574
20
2.58191223521186
30
0
41
1
10
13.5658678521587
20
2.49866762465422
30
0
41
1
10
14.1266914468782
20
2.24747298708331
30
0
41
1
10
14.5011421168869
20
2.07766677586361
30
0
41
1
10
15.2497741281612
20
1.73069524922434
30
0
41
1
10
15.6240585864812
20
1.55368705669005
30
0
41
1
10
16.3745999400733
20
1.19664589895066
30
0
41
1
10
16.7501354896194
20
1.01725934008658
30
0
41
1
10
17.4983185972646
20
0.65295738345597
30
0
41
1
10
17.8724053448309
20
0.470478484763191
30
0
41
1
10
18.620834224334
20
0.105420870140904
30
0
41
1
10
18.994556189646
20
-0.0784328181925105
30
0
41
1
10
19.7428409030853
20
-0.445042889797918
30
0
41
1
10
20.1176240129279
20
-0.627342632491946
30
0
41
1
10
20.8679997720412
20
-0.990905292959752
30
0
41
1
10
21.2426113368169
20
-1.17298784252373
30
0
41
1
10
21.9917654394795
20
-1.52983529200691
30
0
41
1
10
22.366009167305
20
-1.70607930238705
30
0
41
1
10
23.113674867125
20
-2.05447890526568
30
0
41
1
10
23.4875940938179
20
-2.22565735324361
30
0
41
1
10
24.0491130760278
20
-2.47695896588408
30
0
41
1
10
24.2363736172015
20
-2.55985358091462
30
0
41
1
10
24.6107559126884
20
-2.72446681459203
30
0
41
1
10
24.7977970037593
20
-2.80632731930473
30
0
41
1
10
25.3600664096219
20
-3.04763226591882
30
0
41
1
10
25.7358026494916
20
-3.20364028447605
30
0
41
1
10
26.4846587653887
20
-3.50712806855475
30
0
41
1
10
26.8584644257772
20
-3.65424881528099
30
0
41
1
10
27.6066390276604
20
-3.93638150090027
30
0
41
1
10
27.9809327114359
20
-4.07158320159886
30
0
41
1
10
28.7283489641874
20
-4.33246714497042
30
0
41
1
10
29.1028877775788
20
-4.45607291334431
30
0
41
1
10
29.8527910553786
20
-4.69090540516711
30
0
41
1
10
30.2278526883178
20
-4.80257855829618
30
0
41
1
10
30.9768367330864
20
-5.01061474564776
30
0
41
1
10
31.3512701100689
20
-5.10708783684908
30
0
41
1
10
31.9123094251211
20
-5.24113434330957
30
0
41
1
10
32.0989806830455
20
-5.28425572300807
30
0
41
1
10
32.4727151681709
20
-5.36631987719053
30
0
41
1
10
32.6597024602717
20
-5.40534762312617
30
0
41
1
10
33.2209766699438
20
-5.5165201917473
30
0
41
1
10
33.5951959524817
20
-5.58306523930264
30
0
41
1
10
34.344227564321
20
-5.70037218868339
30
0
41
1
10
34.7197465152499
20
-5.75085488184351
30
0
41
1
10
35.2819004374604
20
-5.81398073487219
30
0
41
1
10
35.4692089317608
20
-5.832939051464
30
0
41
1
10
35.8430803094569
20
-5.86687982049167
30
0
41
1
10
36.0299354720483
20
-5.88173662060893
30
0
41
1
10
36.5908535731459
20
-5.91984861797886
30
0
41
1
10
36.9650347109245
20
-5.93678631844884
30
0
41
1
10
37.5242818788508
20
-5.94956936444225
30
0
41
1
10
37.7097065815564
20
-5.95171292574116
30
0
41
1
10
37.8952376939525
20
-5.95176596419097
30
0
0
SPLINE
5
C4
100
AcDbEntity
8
1
62
256
6
ByLayer
370
18
48
1
60
0
100
AcDbSpline
70
4
71
3
72
112
73
108
40
0
40
0
40
0
40
0
40
0.0132345080625348
40
0.0132345080625348
40
0.035439962772825
40
0.035439962772825
40
0.0576454174831151
40
0.0576454174831151
40
0.0798508721934052
40
0.0798508721934052
40
0.102056326903695
40
0.102056326903695
40
0.11315905425884
40
0.11315905425884
40
0.124261781613985
40
0.124261781613985
40
0.146467236324275
40
0.146467236324275
40
0.168672691034565
40
0.168672691034565
40
0.17977541838971
40
0.17977541838971
40
0.190878145744855
40
0.190878145744855
40
0.213083600455144
40
0.213083600455144
40
0.235289055165434
40
0.235289055165434
40
0.257494509875723
40
0.257494509875723
40
0.279699964586012
40
0.279699964586012
40
0.301905419296302
40
0.301905419296302
40
0.324110874006591
40
0.324110874006591
40
0.335213601361736
40
0.335213601361736
40
0.346316328716882
40
0.346316328716882
40
0.368521783427172
40
0.368521783427172
40
0.390727238137463
40
0.390727238137463
40
0.412932692847754
40
0.412932692847754
40
0.435138147558044
40
0.435138147558044
40
0.457343602268335
40
0.457343602268335
40
0.46844632962348
40
0.46844632962348
40
0.479549056978624
40
0.479549056978624
40
0.501754511688912
40
0.501754511688912
40
0.5239599663992
40
0.5239599663992
40
0.546165421109489
40
0.546165421109489
40
0.557268148464632
40
0.557268148464632
40
0.568370875819775
40
0.568370875819775
40
0.590576330530062
40
0.590576330530062
40
0.612781785240349
40
0.612781785240349
40
0.634987239950636
40
0.634987239950636
40
0.657192694660922
40
0.657192694660922
40
0.679398149371209
40
0.679398149371209
40
0.690500876726353
40
0.690500876726353
40
0.701603604081496
40
0.701603604081496
40
0.723809058791783
40
0.723809058791783
40
0.746014513502069
40
0.746014513502069
40
0.768219968212356
40
0.768219968212356
40
0.790425422922643
40
0.790425422922643
40
0.81263087763293
40
0.81263087763293
40
0.834836332343217
40
0.834836332343217
40
0.857041787053504
40
0.857041787053504
40
0.87924724176379
40
0.87924724176379
40
0.901452696474077
40
0.901452696474077
40
0.91255542382922
40
0.91255542382922
40
0.923658151184363
40
0.923658151184363
40
0.94586360589465
40
0.94586360589465
40
0.968069060604936
40
0.968069060604936
40
0.990274515315223
40
0.990274515315223
40
1
40
1
40
1
40
1
41
1
10
63.6133690193053
20
3.12033941727532
30
0
41
1
10
63.8360617385832
20
3.21399346743147
30
0
41
1
10
64.0586901134817
20
3.3060361259538
30
0
41
1
10
64.6552140176391
20
3.54729398003454
30
0
41
1
10
65.0293532939482
20
3.69303981574427
30
0
41
1
10
65.7764928903968
20
3.97659769316817
30
0
41
1
10
66.1509556037367
20
4.11208605366514
30
0
41
1
10
66.9010207168142
20
4.37156920615459
30
0
41
1
10
67.2752010670885
20
4.49580768733219
30
0
41
1
10
68.0231111434763
20
4.73006987816754
30
0
41
1
10
68.3971045275296
20
4.84005009705251
30
0
41
1
10
68.9576766545336
20
4.99495436232317
30
0
41
1
10
69.1442339431872
20
5.04515585228037
30
0
41
1
10
69.5177058936565
20
5.14159767282064
30
0
41
1
10
69.7045894386896
20
5.18788416307589
30
0
41
1
10
70.2656360203459
20
5.32104327779712
30
0
41
1
10
70.6398626599968
20
5.4025462001288
30
0
41
1
10
71.3890080428203
20
5.55048159008464
30
0
41
1
10
71.7637669911934
20
5.61638014417318
30
0
41
1
10
72.325108536846
20
5.70287071470869
30
0
41
1
10
72.5121763708654
20
5.72965337788341
30
0
41
1
10
72.8856714259827
20
5.77939776443066
30
0
41
1
10
73.0722765690853
20
5.80224346612664
30
0
41
1
10
73.6326330390613
20
5.86426556738905
30
0
41
1
10
74.0065822906674
20
5.89717508320288
30
0
41
1
10
74.7539791780142
20
5.94650899687372
30
0
41
1
10
75.1277892457933
20
5.96274518304045
30
0
41
1
10
75.8772770899652
20
5.97808070214847
30
0
41
1
10
76.2523543139648
20
5.97724961527965
30
0
41
1
10
76.9998654971976
20
5.95840032337946
30
0
41
1
10
77.3738510172905
20
5.94053077307262
30
0
41
1
10
78.1212467796584
20
5.88798915663756
30
0
41
1
10
78.4943895395764
20
5.85313608945702
30
0
41
1
10
79.2418119963143
20
5.7670413910559
30
0
41
1
10
79.6161427473243
20
5.71592322603206
30
0
41
1
10
80.1778748091846
20
5.62666561458087
30
0
41
1
10
80.3650532730118
20
5.59462942960207
30
0
41
1
10
80.7395190982811
20
5.52695621157892
30
0
41
1
10
80.9267181937546
20
5.49123511202362
30
0
41
1
10
81.4881451329237
20
5.37844285278871
30
0
41
1
10
81.861764904136
20
5.29535760014846
30
0
41
1
10
82.6085925620913
20
5.11414437516771
30
0
41
1
10
82.9822083482456
20
5.01645047782125
30
0
41
1
10
83.7298764639054
20
4.80706592478771
30
0
41
1
10
84.1032422930255
20
4.69449414707904
30
0
41
1
10
84.8520420588672
20
4.45717910324424
30
0
41
1
10
85.2273696133958
20
4.33221770436327
30
0
41
1
10
85.9753527318989
20
4.06947659904645
30
0
41
1
10
86.3488680848802
20
3.93217379949255
30
0
41
1
10
86.909442541792
20
3.71897818104267
30
0
41
1
10
87.0963042213908
20
3.64663797206478
30
0
41
1
10
87.4698931402577
20
3.49917449590294
30
0
41
1
10
87.6564211602839
20
3.42371589873756
30
0
41
1
10
88.2164712279925
20
3.19422079147984
30
0
41
1
10
88.5906336665124
20
3.03742566321986
30
0
41
1
10
89.3392418331639
20
2.7139821617414
30
0
41
1
10
89.7138933066573
20
2.54708064283059
30
0
41
1
10
90.4622666762333
20
2.20857155606592
30
0
41
1
10
90.8364512697716
20
2.03701394187613
30
0
41
1
10
91.3964859948008
20
1.77384389034321
30
0
41
1
10
91.5829615578059
20
1.68514866377112
30
0
41
1
10
91.9563618770594
20
1.507487647223
30
0
41
1
10
92.143171620816
20
1.41829994843599
30
0
41
1
10
92.7037749104234
20
1.14937274940479
30
0
41
1
10
93.0772905556323
20
0.967359371574929
30
0
41
1
10
93.8253504140072
20
0.600759936062701
30
0
41
1
10
94.2005544482851
20
0.416656073428641
30
0
41
1
10
94.9492432357885
20
0.0481512061707576
30
0
41
1
10
95.3223965505533
20
-0.137646430538382
30
0
41
1
10
96.0696111598518
20
-0.505599904123812
30
0
41
1
10
96.4432213453714
20
-0.688687710568473
30
0
41
1
10
97.1898687583883
20
-1.0542452350951
30
0
41
1
10
97.5633984071803
20
-1.23571594715867
30
0
41
1
10
98.1247561083143
20
-1.50445352845597
30
0
41
1
10
98.3120067607036
20
-1.59354688011854
30
0
41
1
10
98.6866168297037
20
-1.77106482324763
30
0
41
1
10
98.8736575048633
20
-1.85986494370411
30
0
41
1
10
99.4347846957623
20
-2.12257247330453
30
0
41
1
10
99.8089292931815
20
-2.29360864308359
30
0
41
1
10
100.55592736279
20
-2.63023764736369
30
0
41
1
10
100.928925027785
20
-2.79551272589623
30
0
41
1
10
101.67591723933
20
-3.11638121404315
30
0
41
1
10
102.050003287288
20
-3.27187302336299
30
0
41
1
10
102.797201090979
20
-3.57654524652335
30
0
41
1
10
103.172071828083
20
-3.72359898871096
30
0
41
1
10
103.920998346953
20
-4.00596672387192
30
0
41
1
10
104.294466703046
20
-4.14216045824617
30
0
41
1
10
105.041321271023
20
-4.40165724767388
30
0
41
1
10
105.41490766357
20
-4.52473168454952
30
0
41
1
10
106.161888819126
20
-4.75832096130739
30
0
41
1
10
106.534784927698
20
-4.86938592472472
30
0
41
1
10
107.282769009305
20
-5.07589411960925
30
0
41
1
10
107.657593156801
20
-5.17227785372339
30
0
41
1
10
108.405903513143
20
-5.35045554131898
30
0
41
1
10
108.779670051374
20
-5.43170534876117
30
0
41
1
10
109.34022887778
20
-5.54159857449065
30
0
41
1
10
109.527050926031
20
-5.57625193013018
30
0
41
1
10
109.900296581524
20
-5.64182605043968
30
0
41
1
10
110.086659868008
20
-5.67276978932875
30
0
41
1
10
110.646534903331
20
-5.75901909906142
30
0
41
1
10
111.020355897498
20
-5.80815791600597
30
0
41
1
10
111.767767274041
20
-5.89040173691322
30
0
41
1
10
112.141987852471
20
-5.92330222249015
30
0
41
1
10
112.890932470516
20
-5.9718186122856
30
0
41
1
10
113.265129985975
20
-5.98755089673813
30
0
41
1
10
113.801700008312
20
-5.99798783925633
30
0
41
1
10
113.965196547967
20
-5.99951596707498
30
0
41
1
10
114.128727077471
20
-5.99940627415171
30
0
0
SPLINE
5
C5
100
AcDbEntity
8
1
62
256
6
ByLayer
370
18
48
1
60
0
100
AcDbSpline
70
4
71
3
72
38
73
34
40
0
40
0
40
0
40
0
40
0.0096825227652715
40
0.0096825227652715
40
0.0463609478480374
40
0.0463609478480374
40
0.119717798013568
40
0.119717798013568
40
0.193074648179099
40
0.193074648179099
40
0.266431498344629
40
0.266431498344629
40
0.33978834851016
40
0.33978834851016
40
0.413145198675691
40
0.413145198675691
40
0.449823623758459
40
0.449823623758459
40
0.486502048841226
40
0.486502048841226
40
0.559858899006766
40
0.559858899006766
40
0.633215749172305
40
0.633215749172305
40
0.706572599337844
40
0.706572599337844
40
0.779929449503383
40
0.779929449503383
40
0.853286299668922
40
0.853286299668922
40
0.926643149834461
40
0.926643149834461
40
1
40
1
40
1
40
1
41
1
10
139.829861169514
20
3.14817927086267
30
0
41
1
10
139.879225462403
20
3.16912404422524
30
0
41
1
10
139.92858947369
20
3.18997193547102
30
0
41
1
10
140.164943535179
20
3.28924908794787
30
0
41
1
10
140.351907011768
20
3.36640473342172
30
0
41
1
10
140.912557466333
20
3.59402746574784
30
0
41
1
10
141.285553335432
20
3.74137860988682
30
0
41
1
10
142.031495623308
20
4.02479840540821
30
0
41
1
10
142.404753088358
20
4.1604220758451
30
0
41
1
10
143.151555367507
20
4.42000499434621
30
0
41
1
10
143.524489366062
20
4.54476037949973
30
0
41
1
10
144.272722527228
20
4.77960279100938
30
0
41
1
10
144.64738135983
20
4.89029068023788
30
0
41
1
10
145.394229366016
20
5.09795094005537
30
0
41
1
10
145.76731721871
20
5.19445061921013
30
0
41
1
10
146.327205209445
20
5.32757395807286
30
0
41
1
10
146.513831132606
20
5.37006157029722
30
0
41
1
10
146.886921287902
20
5.45138839501223
30
0
41
1
10
147.073166093426
20
5.49040437810703
30
0
41
1
10
147.632721623525
20
5.60100959740239
30
0
41
1
10
148.006551951369
20
5.66651440489758
30
0
41
1
10
148.75438710163
20
5.78204929744527
30
0
41
1
10
149.128512561054
20
5.83185168164022
30
0
41
1
10
149.874325884017
20
5.91397960200857
30
0
41
1
10
150.246721322686
20
5.94649497682252
30
0
41
1
10
150.988421168178
20
5.99518525575135
30
0
41
1
10
151.358964324063
20
6.01094854938046
30
0
41
1
10
152.099626129461
20
6.0257207490402
30
0
41
1
10
152.469156696175
20
6.02472642894543
30
0
41
1
10
153.208361536539
20
6.00589199273341
30
0
41
1
10
153.578263157222
20
5.98814415362284
30
0
41
1
10
154.31825279078
20
5.93600523488951
30
0
41
1
10
154.687797240242
20
5.90133704358692
30
0
41
1
10
155.058529549263
20
5.85864742584846
30
0
0
SPLINE
5
C6
100
AcDbEntity
8
1
62
256
6
ByLayer
370
18
48
1
60
0
100
AcDbSpline
70
4
71
3
72
8
73
4
40
0
40
0
40
0
40
0
40
1
40
1
40
1
40
1
41
1
10
156.999953998324
20
0.0471618911403482
30
0
41
1
10
157.000015333891
20
0.0157206303802866
30
0
41
1
10
157.000015333891
20
-0.015720630379775
30
0
41
1
10
156.999953998324
20
-0.047161891139865
30
0
0
SPLINE
5
C7
100
AcDbEntity
8
1
62
256
6
ByLayer
370
18
48
1
60
0
100
AcDbSpline
70
4
71
3
72
14
73
10
40
0
40
0
40
0
40
0
40
0.148898285734706
40
0.148898285734706
40
0.297796571469413
40
0.297796571469413
40
0.595593142938825
40
0.595593142938825
40
1
40
1
40
1
40
1
41
1
10
154.971300897071
20
-5.68007282009251
30
0
41
1
10
154.586437605518
20
-5.6923511158119
30
0
41
1
10
154.201069480819
20
-5.69595924049125
30
0
41
1
10
153.433104358498
20
-5.68597704539471
30
0
41
1
10
153.050378142688
20
-5.67241729104066
30
0
41
1
10
151.905137163628
20
-5.6067365627888
30
0
41
1
10
151.145450505494
20
-5.52963200665249
30
0
41
1
10
149.357651653709
20
-5.27351558568782
30
0
41
1
10
148.330804562826
20
-5.06753866727036
30
0
41
1
10
147.300798116634
20
-4.80891166555827
30
0
0
SPLINE
5
C8
100
AcDbEntity
8
1
62
256
6
ByLayer
370
13
48
1
60
0
100
AcDbSpline
70
4
71
3
72
26
73
22
40
0
40
0
40
0
40
0
40
0.0912064722103249
40
0.0912064722103249
40
0.162239233890004
40
0.162239233890004
40
0.233271995569684
40
0.233271995569684
40
0.375337518929038
40
0.375337518929038
40
0.659468565647752
40
0.659468565647752
40
0.801534089007109
40
0.801534089007109
40
0.87256685068679
40
0.87256685068679
40
0.908083231526628
40
0.908083231526628
40
0.943599612366466
40
0.943599612366466
40
1
40
1
40
1
40
1
41
1
10
147.300797845439
20
-4.80891159746326
30
0
41
1
10
146.813854889385
20
-4.6866438178518
30
0
41
1
10
146.326205819315
20
-4.5526087782716
30
0
41
1
10
145.45639965138
20
-4.29434888934918
30
0
41
1
10
145.074783358875
20
-4.17450358168293
30
0
41
1
10
144.309339395852
20
-3.92202080410044
30
0
41
1
10
143.925159464472
20
-3.78928451121902
30
0
41
1
10
142.770516645296
20
-3.37378481398065
30
0
41
1
10
142.006247701319
20
-3.07667730347382
30
0
41
1
10
139.722343171453
20
-2.14056322888413
30
0
41
1
10
138.211836291708
20
-1.45622208613165
30
0
41
1
10
135.93599709395
20
-0.39913984092405
30
0
41
1
10
135.175744660818
20
-0.0416083620693541
30
0
41
1
10
134.029286591435
20
0.494552536283123
30
0
41
1
10
133.646136188129
20
0.673288261010129
30
0
41
1
10
133.069421768497
20
0.940316319906174
30
0
41
1
10
132.876695664561
20
1.02921384604198
30
0
41
1
10
132.492183732173
20
1.20570726558822
30
0
41
1
10
132.300224484514
20
1.2933918085165
30
0
41
1
10
131.804111436238
20
1.51869046450068
30
0
41
1
10
131.500343208216
20
1.65530338542325
30
0
41
1
10
131.19707369176
20
1.79000153972342
30
0
0
SPLINE
5
C9
100
AcDbEntity
8
1
62
256
6
ByLayer
370
18
48
1
60
0
100
AcDbSpline
70
4
71
3
72
14
73
10
40
0
40
0
40
0
40
0
40
0.0994337940930374
40
0.0994337940930374
40
0.638369509612289
40
0.638369509612289
40
0.907837367371915
40
0.907837367371915
40
1
40
1
40
1
40
1
41
1
10
77.9258885875755
20
-5.64518950682293
30
0
41
1
10
77.6430979514803
20
-5.64489516729171
30
0
41
1
10
77.3607995573521
20
-5.64000766751354
30
0
41
1
10
75.5508118787623
20
-5.57931529476647
30
0
41
1
10
74.0338623076389
20
-5.39383004769232
30
0
41
1
10
71.7465455440019
20
-4.93206335107584
30
0
41
1
10
70.982172464169
20
-4.747537986998
30
0
41
1
10
69.9505687674916
20
-4.46168987154641
30
0
41
1
10
69.6868288174229
20
-4.3853739304285
30
0
41
1
10
69.4233369926867
20
-4.30610846770318
30
0
0
SPLINE
5
CA
100
AcDbEntity
8
1
62
256
6
ByLayer
370
13
48
1
60
0
100
AcDbSpline
70
4
71
3
72
20
73
16
40
0
40
0
40
0
40
0
40
0.024789464121589
40
0.024789464121589
40
0.103245658622228
40
0.103245658622228
40
0.417070436624782
40
0.417070436624782
40
0.573982825626062
40
0.573982825626062
40
0.6524390201267
40
0.6524390201267
40
0.730895214627338
40
0.730895214627338
40
1
40
1
40
1
40
1
41
1
10
69.423336992365
20
-4.30610846760641
30
0
41
1
10
69.3016261839712
20
-4.26949456675405
30
0
41
1
10
69.1799683169396
20
-4.23225134003027
30
0
41
1
10
68.673939482729
20
-4.07472819751445
30
0
41
1
10
68.2904896436702
20
-3.94909839619484
30
0
41
1
10
66.3774291930247
20
-3.29360761355878
30
0
41
1
10
64.8595647241947
20
-2.68266300291441
30
0
41
1
10
62.5738118748132
20
-1.69040910626268
30
0
41
1
10
61.810300483252
20
-1.34720190352115
30
0
41
1
10
60.6593026616624
20
-0.820627990277444
30
0
41
1
10
60.2742267930125
20
-0.642984656825206
30
0
41
1
10
59.5033780182434
20
-0.286024640454684
30
0
41
1
10
59.1191750045123
20
-0.10744784692659
30
0
41
1
10
57.4212292293593
20
0.681184240083866
30
0
41
1
10
56.1173837240832
20
1.28511063282971
30
0
41
1
10
54.8124110382047
20
1.85685905225915
30
0
0
SPLINE
5
CB
100
AcDbEntity
8
1
62
256
6
ByLayer
370
18
48
1
60
0
100
AcDbSpline
70
4
71
3
72
8
73
4
40
0
40
0
40
0
40
0
40
1
40
1
40
1
40
1
41
1
10
155.058529549263
20
5.85864742584846
30
0
41
1
10
154.984100233263
20
5.93175376967321
30
0
41
1
10
154.918884309295
20
5.98112119101467
30
0
41
1
10
154.862319298929
20
6.00606496346168
30
0
0
SPLINE
5
CC
100
AcDbEntity
8
1
62
256
6
ByLayer
370
18
48
1
60
0
100
AcDbSpline
70
4
71
3
72
18
73
14
40
0
40
0
40
0
40
0
40
0.124999999999994
40
0.124999999999994
40
0.249999999999988
40
0.249999999999988
40
0.374999999999982
40
0.374999999999982
40
0.499999999999976
40
0.499999999999976
40
0.749999999999988
40
0.749999999999988
40
1
40
1
40
1
40
1
41
1
10
7.99999998965308
20
-3.91770492362596
30
0
41
1
10
7.99999998965299
20
-3.89789501236561
30
0
41
1
10
8.00175257074358
20
-3.87873766241049
30
0
41
1
10
8.010109203578
20
-3.84368151123522
30
0
41
1
10
8.01674358263847
20
-3.82817086897251
30
0
41
1
10
8.0347285341947
20
-3.80432368140615
30
0
41
1
10
8.04598813077581
20
-3.796173598378
30
0
41
1
10
8.07042759762621
20
-3.78740018307914
30
0
41
1
10
8.08366886992744
20
-3.78661654688938
30
0
41
1
10
8.12322373472347
20
-3.79160150916363
30
0
41
1
10
8.15014266174808
20
-3.80428927429091
30
0
41
1
10
8.20145334821291
20
-3.83754684055589
30
0
41
1
10
8.22650681270346
20
-3.85865639194918
30
0
41
1
10
8.2505575584355
20
-3.88236062003597
30
0
0
SPLINE
5
CD
100
AcDbEntity
8
1
62
256
6
ByLayer
370
18
48
1
60
0
100
AcDbSpline
70
4
71
3
72
12
73
8
40
0
40
0
40
0
40
0
40
0.249999999999988
40
0.249999999999988
40
0.499999999999977
40
0.499999999999977
40
1
40
1
40
1
40
1
41
1
10
8.14007926586899
20
5.06669517582495
30
0
41
1
10
8.11901834013159
20
5.07204872584649
30
0
41
1
10
8.09987479456416
20
5.07876773028894
30
0
41
1
10
8.06532880187643
20
5.09478069621059
30
0
41
1
10
8.05022949859639
20
5.10400148753149
30
0
41
1
10
8.01344425647702
20
5.13384330405421
30
0
41
1
10
7.99999998964938
20
5.15695708994315
30
0
41
1
10
7.99999998964933
20
5.17982690081874
30
0
0
SPLINE
5
CE
100
AcDbEntity
8
1
62
256
6
ByLayer
370
18
48
1
60
0
100
AcDbSpline
70
4
71
3
72
8
73
4
40
0
40
0
40
0
40
0
40
1
40
1
40
1
40
1
41
1
10
154.954008677567
20
-5.7711822622073
30
0
41
1
10
154.923483400686
20
-5.84955888486101
30
0
41
1
10
154.892918592529
20
-5.92785234392119
30
0
41
1
10
154.862319298929
20
-6.00606496346168
30
0
0
SPLINE
5
CF
100
AcDbEntity
8
1
62
256
6
ByLayer
370
18
48
1
60
0
100
AcDbSpline
70
4
71
3
72
114
73
110
40
0
40
0
40
0
40
0
40
0.0120432045024627
40
0.0120432045024627
40
0.0342673776862335
40
0.0342673776862335
40
0.0564915508700045
40
0.0564915508700045
40
0.0787157240537754
40
0.0787157240537754
40
0.100939897237546
40
0.100939897237546
40
0.123164070421317
40
0.123164070421317
40
0.134276157013202
40
0.134276157013202
40
0.145388243605087
40
0.145388243605087
40
0.167612416788858
40
0.167612416788858
40
0.189836589972629
40
0.189836589972629
40
0.200948676564515
40
0.200948676564515
40
0.2120607631564
40
0.2120607631564
40
0.234284936340171
40
0.234284936340171
40
0.256509109523942
40
0.256509109523942
40
0.267621196115828
40
0.267621196115828
40
0.278733282707714
40
0.278733282707714
40
0.300957455891485
40
0.300957455891485
40
0.323181629075257
40
0.323181629075257
40
0.345405802259028
40
0.345405802259028
40
0.356517888850914
40
0.356517888850914
40
0.3676299754428
40
0.3676299754428
40
0.389854148626571
40
0.389854148626571
40
0.412078321810343
40
0.412078321810343
40
0.434302494994115
40
0.434302494994115
40
0.456526668177886
40
0.456526668177886
40
0.478750841361658
40
0.478750841361658
40
0.489862927953543
40
0.489862927953543
40
0.500975014545429
40
0.500975014545429
40
0.5231991877292
40
0.5231991877292
40
0.545423360912972
40
0.545423360912972
40
0.567647534096743
40
0.567647534096743
40
0.589871707280515
40
0.589871707280515
40
0.612095880464286
40
0.612095880464286
40
0.634320053648058
40
0.634320053648058
40
0.65654422683183
40
0.65654422683183
40
0.678768400015601
40
0.678768400015601
40
0.700992573199372
40
0.700992573199372
40
0.712104659791258
40
0.712104659791258
40
0.723216746383144
40
0.723216746383144
40
0.745440919566915
40
0.745440919566915
40
0.767665092750687
40
0.767665092750687
40
0.789889265934458
40
0.789889265934458
40
0.81211343911823
40
0.81211343911823
40
0.834337612302001
40
0.834337612302001
40
0.856561785485773
40
0.856561785485773
40
0.867673872077658
40
0.867673872077658
40
0.878785958669544
40
0.878785958669544
40
0.901010131853314
40
0.901010131853314
40
0.923234305037085
40
0.923234305037085
40
0.934346391628971
40
0.934346391628971
40
0.945458478220856
40
0.945458478220856
40
0.967682651404627
40
0.967682651404627
40
0.989906824588398
40
0.989906824588398
40
1
40
1
40
1
40
1
41
1
10
25.5007241407237
20
3.10484402872694
30
0
41
1
10
25.7040439533986
20
3.18967300067564
30
0
41
1
10
25.9073294055087
20
3.27315467314
30
0
41
1
10
26.4846587653886
20
3.50712806855472
30
0
41
1
10
26.8584644257772
20
3.65424881528096
30
0
41
1
10
27.6066390276604
20
3.93638150090027
30
0
41
1
10
27.9809327114359
20
4.07158320159886
30
0
41
1
10
28.7283489641874
20
4.33246714497037
30
0
41
1
10
29.1028877775787
20
4.45607291334431
30
0
41
1
10
29.8527910553786
20
4.69090540516709
30
0
41
1
10
30.2278526883178
20
4.80257855829615
30
0
41
1
10
30.9768367330864
20
5.01061474564776
30
0
41
1
10
31.3512701100688
20
5.10708783684905
30
0
41
1
10
31.9123094251211
20
5.24113434330957
30
0
41
1
10
32.0989806830454
20
5.28425572300804
30
0
41
1
10
32.4727151681709
20
5.36631987719053
30
0
41
1
10
32.6597024602717
20
5.40534762312615
30
0
41
1
10
33.2209766699437
20
5.5165201917473
30
0
41
1
10
33.5951959524817
20
5.58306523930261
30
0
41
1
10
34.344227564321
20
5.70037218868336
30
0
41
1
10
34.7197465152499
20
5.75085488184351
30
0
41
1
10
35.2819004374603
20
5.81398073487219
30
0
41
1
10
35.4692089317608
20
5.832939051464
30
0
41
1
10
35.8430803094569
20
5.86687982049167
30
0
41
1
10
36.0299354720483
20
5.88173662060893
30
0
41
1
10
36.5908535731459
20
5.91984861797886
30
0
41
1
10
36.9650347109245
20
5.93678631844884
30
0
41
1
10
37.7127054466932
20
5.9538762742884
30
0
41
1
10
38.086593266983
20
5.95390658256545
30
0
41
1
10
38.6486533231503
20
5.94122902195417
30
0
41
1
10
38.8361684327814
20
5.9348895189452
30
0
41
1
10
39.2113837741888
20
5.91793974716143
30
0
41
1
10
39.3987167140334
20
5.90729557128896
30
0
41
1
10
39.9602568160947
20
5.86902405080016
30
0
41
1
10
40.334743014515
20
5.83528935659859
30
0
41
1
10
41.0828085905214
20
5.75121698372433
30
0
41
1
10
41.4562155823488
20
5.70069465690651
30
0
41
1
10
42.2039956409407
20
5.583889291627
30
0
41
1
10
42.5784264503226
20
5.517747640804
30
0
41
1
10
43.1399905484174
20
5.40617312983667
30
0
41
1
10
43.3270247416894
20
5.36677430202528
30
0
41
1
10
43.7018826079512
20
5.28451112355765
30
0
41
1
10
43.8895234433252
20
5.241543705483
30
0
41
1
10
44.4518563456345
20
5.10735446950369
30
0
41
1
10
44.8259135490076
20
5.01027556752692
30
0
41
1
10
45.5735374384222
20
4.80207746258333
30
0
41
1
10
45.9474718122461
20
4.69141891391024
30
0
41
1
10
46.6954681300487
20
4.45698225697376
30
0
41
1
10
47.0688707041144
20
4.33225637225598
30
0
41
1
10
47.8176416098883
20
4.07206463337096
30
0
41
1
10
48.1930950506857
20
3.93606023966046
30
0
41
1
10
48.9423100063703
20
3.65200425232354
30
0
41
1
10
49.3163842148953
20
3.50474329817209
30
0
41
1
10
49.8775877975178
20
3.27758191966098
30
0
41
1
10
50.0646231199065
20
3.2007392898731
30
0
41
1
10
50.438486172849
20
3.04455914187369
30
0
41
1
10
50.6250932990087
20
2.96482753592622
30
0
41
1
10
51.1854893598322
20
2.72341685578454
30
0
41
1
10
51.5597542108995
20
2.55940674801713
30
0
41
1
10
52.3082324561175
20
2.22271933553233
30
0
41
1
10
52.6828557804384
20
2.04994352008515
30
0
41
1
10
53.4325821303615
20
1.70057824814805
30
0
41
1
10
53.8073678880249
20
1.52446183464321
30
0
41
1
10
54.5547093932823
20
1.16522663163457
30
0
41
1
10
54.9283530145229
20
0.984271089902393
30
0
41
1
10
55.6762289804512
20
0.621025132970971
30
0
41
1
10
56.0497818339782
20
0.437351123209765
30
0
41
1
10
56.7978402011565
20
0.0693860575287317
30
0
41
1
10
57.1728247504639
20
-0.114489960865541
30
0
41
1
10
57.9228365534527
20
-0.482173516109782
30
0
41
1
10
58.2965443755271
20
-0.666732821868152
30
0
41
1
10
59.0447193990802
20
-1.03042217043284
30
0
41
1
10
59.4186074273441
20
-1.2107548810306
30
0
41
1
10
60.16568352657
20
-1.56897359425187
30
0
41
1
10
60.5393713427845
20
-1.74585812267591
30
0
41
1
10
61.1007192571836
20
-2.00670913814886
30
0
41
1
10
61.287940548748
20
-2.09297479703528
30
0
41
1
10
61.662350893809
20
-2.26459607730499
30
0
41
1
10
61.8494224774039
20
-2.35023937867612
30
0
41
1
10
62.4116820246352
20
-2.60327855004172
30
0
41
1
10
62.7864215644208
20
-2.7672321141817
30
0
41
1
10
63.5343083265896
20
-3.08831678956943
30
0
41
1
10
63.9076915316657
20
-3.24496632881022
30
0
41
1
10
64.655214017639
20
-3.54729398003445
30
0
41
1
10
65.0293532939481
20
-3.69303981574424
30
0
41
1
10
65.7764928903968
20
-3.97659769316809
30
0
41
1
10
66.1509556037366
20
-4.11208605366508
30
0
41
1
10
66.9010207168141
20
-4.37156920615453
30
0
41
1
10
67.2752010670885
20
-4.49580768733216
30
0
41
1
10
68.0231111434763
20
-4.73006987816748
30
0
41
1
10
68.3971045275296
20
-4.84005009705251
30
0
41
1
10
68.9576766545335
20
-4.99495436232314
30
0
41
1
10
69.1442339431871
20
-5.04515585228035
30
0
41
1
10
69.5177058936563
20
-5.14159767282061
30
0
41
1
10
69.7045894386895
20
-5.18788416307586
30
0
41
1
10
70.2656360203458
20
-5.32104327779709
30
0
41
1
10
70.6398626599966
20
-5.40254620012877
30
0
41
1
10
71.3890080428201
20
-5.55048159008462
30
0
41
1
10
71.7637669911933
20
-5.61638014417315
30
0
41
1
10
72.3251085368458
20
-5.70287071470869
30
0
41
1
10
72.5121763708653
20
-5.72965337788338
30
0
41
1
10
72.8856714259826
20
-5.77939776443066
30
0
41
1
10
73.0722765690852
20
-5.80224346612664
30
0
41
1
10
73.6326330390612
20
-5.86426556738903
30
0
41
1
10
74.0065822906673
20
-5.89717508320285
30
0
41
1
10
74.7539791780141
20
-5.94650899687372
30
0
41
1
10
75.1277892457932
20
-5.96274518304042
30
0
41
1
10
75.6727242525494
20
-5.97389527876743
30
0
41
1
10
75.8429840823949
20
-5.97562468564905
30
0
41
1
10
76.0131576375411
20
-5.97559229137991
30
0
0
SPLINE
5
D0
100
AcDbEntity
8
1
62
256
6
ByLayer
370
18
48
1
60
0
100
AcDbSpline
70
4
71
3
72
112
73
108
40
0
40
0
40
0
40
0
40
0.0136696753006597
40
0.0136696753006597
40
0.035860318390088
40
0.035860318390088
40
0.0580509614795163
40
0.0580509614795163
40
0.0802416045689446
40
0.0802416045689446
40
0.102432247658373
40
0.102432247658373
40
0.124622890747801
40
0.124622890747801
40
0.146813533837229
40
0.146813533837229
40
0.157908855381943
40
0.157908855381943
40
0.169004176926656
40
0.169004176926656
40
0.191194820016083
40
0.191194820016083
40
0.213385463105509
40
0.213385463105509
40
0.235576106194936
40
0.235576106194936
40
0.257766749284363
40
0.257766749284363
40
0.27995739237379
40
0.27995739237379
40
0.302148035463216
40
0.302148035463216
40
0.31324335700793
40
0.31324335700793
40
0.324338678552643
40
0.324338678552643
40
0.34652932164207
40
0.34652932164207
40
0.368719964731496
40
0.368719964731496
40
0.37981528627621
40
0.37981528627621
40
0.390910607820925
40
0.390910607820925
40
0.413101250910353
40
0.413101250910353
40
0.435291893999781
40
0.435291893999781
40
0.457482537089209
40
0.457482537089209
40
0.479673180178638
40
0.479673180178638
40
0.501863823268066
40
0.501863823268066
40
0.524054466357494
40
0.524054466357494
40
0.535149787902209
40
0.535149787902209
40
0.546245109446924
40
0.546245109446924
40
0.568435752536353
40
0.568435752536353
40
0.590626395625783
40
0.590626395625783
40
0.612817038715212
40
0.612817038715212
40
0.635007681804642
40
0.635007681804642
40
0.657198324894071
40
0.657198324894071
40
0.668293646438786
40
0.668293646438786
40
0.6793889679835
40
0.6793889679835
40
0.70157961107293
40
0.70157961107293
40
0.72377025416236
40
0.72377025416236
40
0.745960897251789
40
0.745960897251789
40
0.757056218796505
40
0.757056218796505
40
0.76815154034122
40
0.76815154034122
40
0.790342183430649
40
0.790342183430649
40
0.812532826520079
40
0.812532826520079
40
0.834723469609509
40
0.834723469609509
40
0.856914112698938
40
0.856914112698938
40
0.879104755788368
40
0.879104755788368
40
0.890200077333083
40
0.890200077333083
40
0.901295398877798
40
0.901295398877798
40
0.923486041967229
40
0.923486041967229
40
0.94567668505666
40
0.94567668505666
40
0.967867328146091
40
0.967867328146091
40
0.990057971235522
40
0.990057971235522
40
1
40
1
40
1
40
1
41
1
10
101.732876545398
20
3.13867694177225
30
0
41
1
10
101.963135432222
20
3.23533027155744
30
0
41
1
10
102.19346123917
20
3.33036844842147
30
0
41
1
10
102.797201090979
20
3.57654524652338
30
0
41
1
10
103.172071828083
20
3.72359898871088
30
0
41
1
10
103.920998346953
20
4.00596672387181
30
0
41
1
10
104.294466703045
20
4.14216045824608
30
0
41
1
10
105.041321271023
20
4.40165724767382
30
0
41
1
10
105.414907663569
20
4.52473168454944
30
0
41
1
10
106.161888819126
20
4.75832096130736
30
0
41
1
10
106.534784927698
20
4.8693859247247
30
0
41
1
10
107.282769009304
20
5.07589411960919
30
0
41
1
10
107.657593156801
20
5.17227785372333
30
0
41
1
10
108.405903513143
20
5.35045554131892
30
0
41
1
10
108.779670051374
20
5.43170534876114
30
0
41
1
10
109.34022887778
20
5.54159857449062
30
0
41
1
10
109.527050926031
20
5.57625193013016
30
0
41
1
10
109.900296581523
20
5.64182605043968
30
0
41
1
10
110.086659868008
20
5.67276978932873
30
0
41
1
10
110.646534903331
20
5.75901909906139
30
0
41
1
10
111.020355897498
20
5.80815791600597
30
0
41
1
10
111.767767274041
20
5.89040173691319
30
0
41
1
10
112.141987852471
20
5.92330222249012
30
0
41
1
10
112.890932470515
20
5.9718186122856
30
0
41
1
10
113.265129985975
20
5.98755089673813
30
0
41
1
10
114.011414408271
20
6.00206704056555
30
0
41
1
10
114.384914908424
20
6.00071960986125
30
0
41
1
10
115.131805520527
20
5.98112135747166
30
0
41
1
10
115.504803747889
20
5.96273255400899
30
0
41
1
10
116.252092367915
20
5.90905061142064
30
0
41
1
10
116.626724617074
20
5.87384566611524
30
0
41
1
10
117.188434123194
20
5.80837116845467
30
0
41
1
10
117.375215190899
20
5.78431871584775
30
0
41
1
10
117.748918117621
20
5.73230395890241
30
0
41
1
10
117.935772675913
20
5.70431866046602
30
0
41
1
10
118.496302290652
20
5.6144870337065
30
0
41
1
10
118.869572339197
20
5.54651543677403
30
0
41
1
10
119.615746318399
20
5.39461113090374
30
0
41
1
10
119.989111679408
20
5.31106933446139
30
0
41
1
10
120.549802192988
20
5.17467778028075
30
0
41
1
10
120.736826172035
20
5.12739524885635
30
0
41
1
10
121.110548747126
20
5.02850551039589
30
0
41
1
10
121.29755564957
20
4.97714329711008
30
0
41
1
10
121.859211939015
20
4.81831958132332
30
0
41
1
10
122.233436801517
20
4.70608633380806
30
0
41
1
10
122.980269165544
20
4.4674794245206
30
0
41
1
10
123.353259616276
20
4.34154845275214
30
0
41
1
10
124.099980142259
20
4.07875919746573
30
0
41
1
10
124.473391059964
20
3.94148328498062
30
0
41
1
10
125.219860307135
20
3.65427154821208
30
0
41
1
10
125.594035740601
20
3.506117150064
30
0
41
1
10
126.343171565804
20
3.19896567262279
30
0
41
1
10
126.71671602563
20
3.04001274438676
30
0
41
1
10
127.463767176604
20
2.71542124364723
30
0
41
1
10
127.837365691321
20
2.54990037911645
30
0
41
1
10
128.397100898437
20
2.29537999802002
30
0
41
1
10
128.583382218943
20
2.20914043285319
30
0
41
1
10
128.956507233359
20
2.03603382887434
30
0
41
1
10
129.143214738771
20
1.948915316766
30
0
41
1
10
129.703688907813
20
1.68572516323462
30
0
41
1
10
130.07736193968
20
1.5069474799476
30
0
41
1
10
130.825774809826
20
1.14464263036879
30
0
41
1
10
131.200019680729
20
0.962349674713607
30
0
41
1
10
131.947448691351
20
0.596039778138419
30
0
41
1
10
132.320131280614
20
0.41055113311549
30
0
41
1
10
133.066500385148
20
0.0411209121602951
30
0
41
1
10
133.43994895152
20
-0.143299830645816
30
0
41
1
10
134.186443753581
20
-0.513446269873185
30
0
41
1
10
134.559944294933
20
-0.698249914121959
30
0
41
1
10
135.121562298931
20
-0.973038722005413
30
0
41
1
10
135.308920211018
20
-1.06431416383865
30
0
41
1
10
135.68301408836
20
-1.24612646456168
30
0
41
1
10
135.869650145655
20
-1.33711972207112
30
0
41
1
10
136.429651904924
20
-1.60769609230746
30
0
41
1
10
136.803229702311
20
-1.78467898598004
30
0
41
1
10
137.549548478119
20
-2.13448954465008
30
0
41
1
10
137.922264349422
20
-2.3073284083892
30
0
41
1
10
138.668961862233
20
-2.64480105580469
30
0
41
1
10
139.043029097578
20
-2.80931717215643
30
0
41
1
10
139.603951390286
20
-3.05198733917263
30
0
41
1
10
139.790960899372
20
-3.13216301578686
30
0
41
1
10
140.164943535179
20
-3.28924908794775
30
0
41
1
10
140.351907011768
20
-3.36640473342163
30
0
41
1
10
140.912557466333
20
-3.5940274657477
30
0
41
1
10
141.285553335432
20
-3.74137860988677
30
0
41
1
10
142.031495623308
20
-4.02479840540809
30
0
41
1
10
142.404753088358
20
-4.16042207584502
30
0
41
1
10
143.151555367507
20
-4.4200049943461
30
0
41
1
10
143.524489366062
20
-4.54476037949965
30
0
41
1
10
144.272722527228
20
-4.7796027910093
30
0
41
1
10
144.64738135983
20
-4.89029068023785
30
0
41
1
10
145.394229366016
20
-5.09795094005528
30
0
41
1
10
145.767317218709
20
-5.19445061921007
30
0
41
1
10
146.327205209445
20
-5.32757395807278
30
0
41
1
10
146.513831132606
20
-5.37006157029714
30
0
41
1
10
146.886921287901
20
-5.45138839501217
30
0
41
1
10
147.073166093426
20
-5.49040437810697
30
0
41
1
10
147.632721623525
20
-5.60100959740237
30
0
41
1
10
148.006551951368
20
-5.66651440489753
30
0
41
1
10
148.75438710163
20
-5.78204929744524
30
0
41
1
10
149.128512561054
20
-5.83185168164016
30
0
41
1
10
149.874325884017
20
-5.91397960200854
30
0
41
1
10
150.246721322686
20
-5.94649497682249
30
0
41
1
10
150.988421168178
20
-5.99518525575132
30
0
41
1
10
151.358964324063
20
-6.01094854938043
30
0
41
1
10
151.895213829128
20
-6.02164382851939
30
0
41
1
10
152.060971780803
20
-6.02327081400264
30
0
41
1
10
152.226647519733
20
-6.02321178551085
30
0
0
SPLINE
5
D1
100
AcDbEntity
8
1
62
256
6
ByLayer
370
18
48
1
60
0
100
AcDbSpline
70
4
71
3
72
10
73
6
40
0
40
0
40
0
40
0
40
0.5
40
0.5
40
1
40
1
40
1
40
1
41
1
10
154.904173733349
20
1.47125482315289
30
0
41
1
10
155.219391554377
20
1.46245086358803
30
0
41
1
10
155.534662965575
20
1.45341601472177
30
0
41
1
10
156.164745470288
20
1.43800928637719
30
0
41
1
10
156.479580265858
20
1.43145693728064
30
0
41
1
10
156.794255197152
20
1.42579584585295
30
0
0
SPLINE
5
D2
100
AcDbEntity
8
1
62
256
6
ByLayer
370
18
48
1
60
0
100
AcDbSpline
70
4
71
3
72
8
73
4
40
0
40
0
40
0
40
0
40
1
40
1
40
1
40
1
41
1
10
154.862782533188
20
-5.68551458743715
30
0
41
1
10
154.876884122396
20
-5.69107619273774
30
0
41
1
10
154.891991714675
20
-5.69372928213247
30
0
41
1
10
154.908128404372
20
-5.69350301711626
30
0
0
SPLINE
5
D3
100
AcDbEntity
8
1
62
256
6
ByLayer
370
18
48
1
60
0
100
AcDbSpline
70
4
71
3
72
24
73
20
40
0
40
0
40
0
40
0
40
0.023588005010334
40
0.023588005010334
40
0.0776888495300822
40
0.0776888495300822
40
0.13178969404983
40
0.13178969404983
40
0.348193072128823
40
0.348193072128823
40
0.564596450207816
40
0.564596450207816
40
0.780999828286808
40
0.780999828286808
40
0.889201517326305
40
0.889201517326305
40
0.997403206365801
40
0.997403206365801
40
1
40
1
40
1
40
1
41
1
10
20.6064538807689
20
-0.0246032667679117
30
0
41
1
10
20.6904447379107
20
-0.0641176455030177
30
0
41
1
10
20.7744898793291
20
-0.103660318371624
30
0
41
1
10
21.0514873407057
20
-0.233969266210153
30
0
41
1
10
21.244732514226
20
-0.324847637682694
30
0
41
1
10
21.6301801357995
20
-0.505849258360684
30
0
41
1
10
21.8225962037852
20
-0.596073041100198
30
0
41
1
10
22.7833323109907
20
-1.04539464992297
30
0
41
1
10
23.5476881094871
20
-1.39896300199891
30
0
41
1
10
25.0733136827445
20
-2.08325609749198
30
0
41
1
10
25.8343588958127
20
-2.4143748503827
30
0
41
1
10
27.3577187049894
20
-3.04514898199025
30
0
41
1
10
28.1200100837716
20
-3.34484375130882
30
0
41
1
10
29.2682383131516
20
-3.76345659352324
30
0
41
1
10
29.651722976451
20
-3.89791431252084
30
0
41
1
10
30.4208621586815
20
-4.1554329799186
30
0
41
1
10
30.8073918733094
20
-4.27873566502791
30
0
41
1
10
31.2019848107752
20
-4.39779862581528
30
0
41
1
10
31.211232232386
20
-4.40058506235411
30
0
41
1
10
31.2204789709798
20
-4.40336744298466
30
0
0
SPLINE
5
D4
100
AcDbEntity
8
1
62
256
6
ByLayer
370
13
48
1
60
0
100
AcDbSpline
70
4
71
3
72
14
73
10
40
0
40
0
40
0
40
0
40
0.440895933965473
40
0.440895933965473
40
0.884453255673212
40
0.884453255673212
40
0.995342586100148
40
0.995342586100148
40
1
40
1
40
1
40
1
41
1
10
31.2204799286956
20
-4.40336773116516
30
0
41
1
10
32.7523837974707
20
-4.86432368896411
30
0
41
1
10
34.2655412937257
20
-5.21395943882661
30
0
41
1
10
37.3018923537912
20
-5.65988837447563
30
0
41
1
10
38.8249417442645
20
-5.75463255433988
30
0
41
1
10
40.7535456728599
20
-5.69857114719559
30
0
41
1
10
41.1392889831609
20
-5.67865302678183
30
0
41
1
10
41.539525846834
20
-5.64912997595579
30
0
41
1
10
41.5556565799036
20
-5.64792510382208
30
0
41
1
10
41.5717854775472
20
-5.64670538193275
30
0
0
SPLINE
5
D5
100
AcDbEntity
8
1
62
256
6
ByLayer
370
18
48
1
60
0
100
AcDbSpline
70
4
71
3
72
16
73
12
40
0
40
0
40
0
40
0
40
0.339775147677416
40
0.339775147677416
40
0.578381645967721
40
0.578381645967721
40
0.697684895112874
40
0.697684895112874
40
0.816988144258026
40
0.816988144258026
40
1
40
1
40
1
40
1
41
1
10
96.7941472593262
20
-0.0191522074858028
30
0
41
1
10
97.8806199082026
20
-0.534805341847743
30
0
41
1
10
98.9620410116094
20
-1.04805598209919
30
0
41
1
10
100.806274037617
20
-1.89197712747065
30
0
41
1
10
101.568066991884
20
-2.23155769032877
30
0
41
1
10
102.715872030799
20
-2.7203673909693
30
0
41
1
10
103.099326852504
20
-2.87987783539452
30
0
41
1
10
103.868569178264
20
-3.19074457664712
30
0
41
1
10
104.25470119968
20
-3.34214812634212
30
0
41
1
10
105.228215894793
20
-3.71058843424024
30
0
41
1
10
105.814916690423
20
-3.92027089036739
30
0
41
1
10
106.400104646062
20
-4.11515467489383
30
0
0
SPLINE
5
D6
100
AcDbEntity
8
1
62
256
6
ByLayer
370
13
48
1
60
0
100
AcDbSpline
70
4
71
3
72
16
73
12
40
0
40
0
40
0
40
0
40
0.245666274475615
40
0.245666274475615
40
0.444909382802299
40
0.444909382802299
40
0.544530936965644
40
0.544530936965644
40
0.64415249112899
40
0.64415249112899
40
1
40
1
40
1
40
1
41
1
10
106.400103696313
20
-4.11515435860125
30
0
41
1
10
107.340824295403
20
-4.42844037776115
30
0
41
1
10
108.277635371982
20
-4.70348328208055
30
0
41
1
10
109.975582656891
20
-5.12150732889643
30
0
41
1
10
110.736365352122
20
-5.2798137964399
30
0
41
1
10
111.881942976293
20
-5.46968819677227
30
0
41
1
10
112.26449212319
20
-5.5250721844875
30
0
41
1
10
113.031682143938
20
-5.6193733222122
30
0
41
1
10
113.417011911142
20
-5.65836465045095
30
0
41
1
10
115.177806930247
20
-5.79699265647631
30
0
41
1
10
116.537496541748
20
-5.79399534403268
30
0
41
1
10
117.895335527684
20
-5.68402110339525
30
0
0
SPLINE
5
D7
100
AcDbEntity
8
1
62
256
6
ByLayer
370
18
48
1
60
0
100
AcDbSpline
70
4
71
3
72
59
73
55
40
0
40
0
40
0
40
0
40
0.062499999999996
40
0.062499999999996
40
0.0937499999999941
40
0.0937499999999941
40
0.124999999999992
40
0.124999999999992
40
0.187499999999988
40
0.187499999999988
40
0.218749999999986
40
0.218749999999986
40
0.249999999999984
40
0.249999999999984
40
0.31249999999998
40
0.31249999999998
40
0.343749999999978
40
0.343749999999978
40
0.374999999999976
40
0.374999999999976
40
0.437499999999972
40
0.437499999999972
40
0.499999999999968
40
0.499999999999968
40
0.531249999999966
40
0.531249999999966
40
0.562499999999963
40
0.562499999999963
40
0.593749999999961
40
0.593749999999961
40
0.624999999999959
40
0.624999999999959
40
0.687499999999955
40
0.687499999999955
40
0.703124999999955
40
0.703124999999955
40
0.710937499999955
40
0.710937499999955
40
0.714843749999956
40
0.714843749999956
40
0.718749999999956
40
0.718749999999956
40
0.722656249999957
40
0.722656249999957
40
0.726562499999958
40
0.726562499999958
40
0.734374999999959
40
0.749999999999963
40
0.749999999999963
40
0.812499999999972
40
0.812499999999972
40
0.874999999999981
40
0.874999999999981
40
1
40
1
40
1
40
1
41
1
10
7.99999998964105
20
-4.01024708897521
30
0
41
1
10
7.84384593236376
20
-3.84909881602408
30
0
41
1
10
7.6915917710142
20
-3.67736875264521
30
0
41
1
10
7.46950694668647
20
-3.40214582235328
30
0
41
1
10
7.39635985230768
20
-3.3071999331174
30
0
41
1
10
7.2538674759457
20
-3.11307197833028
30
0
41
1
10
7.18438310415866
20
-3.0137400813411
30
0
41
1
10
6.98149162457921
20
-2.70866353448261
30
0
41
1
10
6.85357646539282
20
-2.49590041466101
30
0
41
1
10
6.67486917732953
20
-2.16065941727919
30
0
41
1
10
6.61750962854939
20
-2.04621605448011
30
0
41
1
10
6.50781965671553
20
-1.81137208992109
30
0
41
1
10
6.4553624560572
20
-1.69059514531071
30
0
41
1
10
6.30902966540077
20
-1.32406570556049
30
0
41
1
10
6.22530342358223
20
-1.07275026009083
30
0
41
1
10
6.12574625919399
20
-0.683313100769396
30
0
41
1
10
6.09693302262099
20
-0.551409749599969
30
0
41
1
10
6.04947716672808
20
-0.282863423009957
30
0
41
1
10
6.03118064437044
20
-0.147992218717917
30
0
41
1
10
5.99414047983967
20
0.256174024372342
30
0
41
1
10
5.99287443118021
20
0.526268555611381
30
0
41
1
10
6.04700405233612
20
1.06652193567959
30
0
41
1
10
6.10136838262821
20
1.32549260673707
30
0
41
1
10
6.22328598280242
20
1.698372480236
30
0
41
1
10
6.27081849686897
20
1.82041710632228
30
0
41
1
10
6.37885622745577
20
2.05785572625749
30
0
41
1
10
6.43864760512272
20
2.17181756686216
30
0
41
1
10
6.56883600704987
20
2.39123541080616
30
0
41
1
10
6.63923159969448
20
2.49669084847713
30
0
41
1
10
6.78992906200034
20
2.69987167680847
30
0
41
1
10
6.8705041829202
20
2.79787868855595
30
0
41
1
10
7.12389018358817
20
3.07873754135079
30
0
41
1
10
7.30856597315699
20
3.24896678087183
30
0
41
1
10
7.55395564485559
20
3.44350535555398
30
0
41
1
10
7.60376457853894
20
3.48149810070859
30
0
41
1
10
7.67944636710945
20
3.53713801251428
30
0
41
1
10
7.70482885212917
20
3.55545534855759
30
0
41
1
10
7.74312985613216
20
3.58259841430763
30
0
41
1
10
7.75535842034182
20
3.59213535503281
30
0
41
1
10
7.78563672751122
20
3.60565628923897
30
0
41
1
10
7.80303060373046
20
3.60989006264157
30
0
41
1
10
7.83724166679721
20
3.61382801586663
30
0
41
1
10
7.85448575010145
20
3.61494170221704
30
0
41
1
10
7.88887579261555
20
3.61777353172701
30
0
41
1
10
7.90607691926698
20
3.61915132793448
30
0
41
1
10
7.95769856072741
20
3.62317092386479
30
0
41
1
10
8.0610324280168
20
3.6307560583418
30
0
41
1
10
8.16443910801831
20
3.63697918214365
30
0
41
1
10
8.50928642815148
20
3.65474913897401
30
0
41
1
10
8.78622724062558
20
3.65948239455645
30
0
41
1
10
9.33842278856747
20
3.65075945634004
30
0
41
1
10
9.61295560413518
20
3.63735659946559
30
0
41
1
10
10.4320293782359
20
3.5704907556671
30
0
41
1
10
10.9720669907468
20
3.49070441563183
30
0
41
1
10
11.5062049976007
20
3.37240412314748
30
0
0
SPLINE
5
D8
100
AcDbEntity
8
1
62
256
6
ByLayer
370
18
48
1
60
0
100
AcDbSpline
70
4
71
3
72
14
73
10
40
0
40
0
40
0
40
0
40
0.25
40
0.25
40
0.375
40
0.375
40
0.5
40
0.5
40
1
40
1
40
1
40
1
41
1
10
8.25055756511736
20
-3.88236062662159
30
0
41
1
10
8.48913014895967
20
-4.11749591055587
30
0
41
1
10
8.73586477382224
20
-4.32563579416379
30
0
41
1
10
9.1189227993614
20
-4.60168778081888
30
0
41
1
10
9.24879094000431
20
-4.68763437003113
30
0
41
1
10
9.51325563874286
20
-4.84772535602713
30
0
41
1
10
9.64812274210792
20
-4.92200206069455
30
0
41
1
10
10.3324472167584
20
-5.26292236192265
30
0
41
1
10
10.9011118896286
20
-5.43436544455375
30
0
41
1
10
11.5062049976007
20
-5.52513968944976
30
0
0
SPLINE
5
D9
100
AcDbEntity
8
1
62
256
6
ByLayer
370
18
48
1
60
0
100
AcDbSpline
70
4
71
3
72
10
73
6
40
0
40
0
40
0
40
0
40
0.5
40
0.5
40
1
40
1
40
1
40
1
41
1
10
156.975124551134
20
0.160293350169155
30
0
41
1
10
156.977096772215
20
0.144489223049703
30
0
41
1
10
156.980392711566
20
0.126750640821967
30
0
41
1
10
156.988864040027
20
0.0885231780134461
30
0
41
1
10
156.994057169388
20
0.0680882401896667
30
0
41
1
10
156.999953998324
20
0.0471618911403482
30
0
0
SPLINE
5
DA
100
AcDbEntity
8
1
62
256
6
ByLayer
370
18
48
1
60
0
100
AcDbSpline
70
4
71
3
72
8
73
4
40
0
40
0
40
0
40
0
40
1
40
1
40
1
40
1
41
1
10
156.794255197152
20
1.42579584585292
30
0
41
1
10
156.862185925667
20
1.00389491179004
30
0
41
1
10
156.922491572994
20
0.582060607949416
30
0
41
1
10
156.975124551134
20
0.160293350169127
30
0
0
SPLINE
5
DB
100
AcDbEntity
8
1
62
256
6
ByLayer
370
18
48
1
60
0
100
AcDbSpline
70
4
71
3
72
16
73
12
40
0
40
0
40
0
40
0
40
0.306764349077651
40
0.306764349077651
40
0.460611010758862
40
0.460611010758862
40
0.614457672440072
40
0.614457672440072
40
0.922150995802501
40
0.922150995802501
40
1
40
1
40
1
40
1
41
1
10
116.086354069885
20
-5.66902516648366
30
0
41
1
10
115.326115988889
20
-5.67000575614182
30
0
41
1
10
114.563376639896
20
-5.63762632544129
30
0
41
1
10
113.410785401277
20
-5.53795723882052
30
0
41
1
10
113.025942025673
20
-5.49621500005119
30
0
41
1
10
112.259333988395
20
-5.3968333181071
30
0
41
1
10
111.87703761495
20
-5.33910879793828
30
0
41
1
10
110.732126208913
20
-5.14279729452448
30
0
41
1
10
109.971641202352
20
-4.98105069929738
30
0
41
1
10
109.019177832787
20
-4.74319504769846
30
0
41
1
10
108.826882833124
20
-4.69336002333489
30
0
41
1
10
108.634575993505
20
-4.6417701758082
30
0
0
SPLINE
5
DC
100
AcDbEntity
8
1
62
256
6
ByLayer
370
13
48
1
60
0
100
AcDbSpline
70
4
71
3
72
22
73
18
40
0
40
0
40
0
40
0
40
0.257973091006507
40
0.257973091006507
40
0.331806615797435
40
0.331806615797435
40
0.405640140588364
40
0.405640140588364
40
0.553307190170215
40
0.553307190170215
40
0.848641289333916
40
0.848641289333916
40
0.922474814124841
40
0.922474814124841
40
0.996308338915766
40
0.996308338915766
40
1
40
1
40
1
40
1
41
1
10
108.634575993438
20
-4.64177017579027
30
0
41
1
10
107.306721305067
20
-4.28554872757178
30
0
41
1
10
105.978302119611
20
-3.84566205123045
30
0
41
1
10
104.252450343619
20
-3.19437108109165
30
0
41
1
10
103.866557400196
20
-3.0437064233632
30
0
41
1
10
103.09796181531
20
-2.73486909312956
30
0
41
1
10
102.714787858735
20
-2.57657272676195
30
0
41
1
10
101.567715482729
20
-2.0919974658662
30
0
41
1
10
100.806259775585
20
-1.75604490309215
30
0
41
1
10
98.5246136501911
20
-0.724649721325392
30
0
41
1
10
97.0071369299583
20
-0.0055722791074686
30
0
41
1
10
95.0911667741427
20
0.880921643929071
30
0
41
1
10
94.7070039453831
20
1.05757567576896
30
0
41
1
10
93.9361868608523
20
1.40835171527283
30
0
41
1
10
93.5520015067193
20
1.58130394766846
30
0
41
1
10
93.1496047769257
20
1.75960961066943
30
0
41
1
10
93.1304455017133
20
1.76809265317323
30
0
41
1
10
93.1112885877608
20
1.77656795546133
30
0
0
SPLINE
5
DD
100
AcDbEntity
8
1
62
256
6
ByLayer
370
18
48
1
60
0
100
AcDbSpline
70
4
71
3
72
10
73
6
40
0
40
0
40
0
40
0
40
0.537492452588522
40
0.537492452588522
40
1
40
1
40
1
40
1
41
1
10
39.8155368530663
20
-5.62147217816866
30
0
41
1
10
38.4712733346953
20
-5.61940444528077
30
0
41
1
10
37.1398383130189
20
-5.51367141221237
30
0
41
1
10
34.6631289694337
20
-5.13779549907619
30
0
41
1
10
33.5178216891955
20
-4.8926962388266
30
0
41
1
10
32.3646653686137
20
-4.58349377993909
30
0
0
SPLINE
5
DE
100
AcDbEntity
8
1
62
256
6
ByLayer
370
13
48
1
60
0
100
AcDbSpline
70
4
71
3
72
24
73
20
40
0
40
0
40
0
40
0
40
0.0733982858024081
40
0.0733982858024081
40
0.147538276829911
40
0.147538276829911
40
0.221678267857414
40
0.221678267857414
40
0.36995824991242
40
0.36995824991242
40
0.666518214022433
40
0.666518214022433
40
0.740658205049936
40
0.740658205049936
40
0.814798196077439
40
0.814798196077439
40
0.963078178132446
40
0.963078178132446
40
1
40
1
40
1
40
1
41
1
10
32.3646653631757
20
-4.58349377848097
30
0
41
1
10
31.9853901311123
20
-4.48179652171714
30
0
41
1
10
31.605265817976
20
-4.37316481052386
30
0
41
1
10
30.8388943104558
20
-4.14137605911054
30
0
41
1
10
30.4526702770488
20
-4.01812666722176
30
0
41
1
10
29.6840234360142
20
-3.76109640858081
30
0
41
1
10
29.3007556909158
20
-3.62707459409114
30
0
41
1
10
28.1531104249926
20
-3.21033902643492
30
0
41
1
10
27.3910690630333
20
-2.9127577294241
30
0
41
1
10
25.1067832077102
20
-1.97506014107719
30
0
41
1
10
23.5863675798175
20
-1.28967935663294
30
0
41
1
10
21.6659535135809
20
-0.405469223537807
30
0
41
1
10
21.2801386994354
20
-0.22704182579821
30
0
41
1
10
20.5091264327104
20
0.129489181638632
30
0
41
1
10
20.1247891255185
20
0.307179997578146
30
0
41
1
10
18.9744387513412
20
0.836675346444338
30
0
41
1
10
18.211332679599
20
1.18559658322525
30
0
41
1
10
17.2596239723273
20
1.6090689200451
30
0
41
1
10
17.0699646028201
20
1.69288649101861
30
0
41
1
10
16.8803426906441
20
1.77602535219015
30
0
0
SPLINE
5
DF
100
AcDbEntity
8
1
62
256
6
ByLayer
370
18
48
1
60
0
100
AcDbSpline
70
4
71
3
72
64
73
60
40
0
40
0
40
0
40
0
40
0.0312500000000018
40
0.0312500000000018
40
0.0625000000000036
40
0.0625000000000036
40
0.0937500000000054
40
0.0937500000000054
40
0.125000000000007
40
0.125000000000007
40
0.156250000000009
40
0.156250000000009
40
0.18750000000001
40
0.18750000000001
40
0.218750000000012
40
0.218750000000012
40
0.250000000000014
40
0.250000000000014
40
0.281250000000015
40
0.281250000000015
40
0.312500000000017
40
0.312500000000017
40
0.37500000000002
40
0.37500000000002
40
0.437500000000024
40
0.437500000000024
40
0.500000000000027
40
0.500000000000027
40
0.531250000000026
40
0.531250000000026
40
0.562500000000024
40
0.562500000000024
40
0.593750000000022
40
0.593750000000022
40
0.625000000000021
40
0.625000000000021
40
0.656250000000019
40
0.656250000000019
40
0.687500000000018
40
0.687500000000018
40
0.718750000000016
40
0.718750000000016
40
0.750000000000014
40
0.750000000000014
40
0.781250000000013
40
0.781250000000013
40
0.812500000000011
40
0.812500000000011
40
0.843750000000009
40
0.843750000000009
40
0.875000000000007
40
0.875000000000007
40
0.906250000000006
40
0.906250000000006
40
0.937500000000004
40
0.937500000000004
40
0.968750000000002
40
0.968750000000002
40
1
40
1
40
1
40
1
41
1
10
154.685124298022
20
-3.1983188308071
30
0
41
1
10
154.660954395434
20
-3.25335702487453
30
0
41
1
10
154.638762233729
20
-3.30935310167408
30
0
41
1
10
154.598673729298
20
-3.42342585686217
30
0
41
1
10
154.580704505373
20
-3.48200568228342
30
0
41
1
10
154.551328666646
20
-3.59531423932123
30
0
41
1
10
154.539636510756
20
-3.65072762272695
30
0
41
1
10
154.52253953869
20
-3.75895006873594
30
0
41
1
10
154.517473663049
20
-3.80965848360501
30
0
41
1
10
154.513755554766
20
-3.90438997075574
30
0
41
1
10
154.515183808913
20
-3.94865960622576
30
0
41
1
10
154.523865802648
20
-4.02750125416677
30
0
41
1
10
154.531104866544
20
-4.06272262147866
30
0
41
1
10
154.550685344176
20
-4.1247706447019
30
0
41
1
10
154.562828481506
20
-4.15107405369278
30
0
41
1
10
154.591196718946
20
-4.19549126039806
30
0
41
1
10
154.607557727085
20
-4.21366141035239
30
0
41
1
10
154.643305327838
20
-4.24168533561038
30
0
41
1
10
154.662702414465
20
-4.25165018365266
30
0
41
1
10
154.704268457535
20
-4.26421548926905
30
0
41
1
10
154.726582696231
20
-4.26678964201633
30
0
41
1
10
154.796298300823
20
-4.26383182257155
30
0
41
1
10
154.846393415442
20
-4.24806792714307
30
0
41
1
10
154.95345063189
20
-4.19036312662317
30
0
41
1
10
155.009024305079
20
-4.14906028825175
30
0
41
1
10
155.122747992049
20
-4.04262311614005
30
0
41
1
10
155.181697083886
20
-3.97649790813631
30
0
41
1
10
155.268799701674
20
-3.86038139927365
30
0
41
1
10
155.297911377004
20
-3.81844454995178
30
0
41
1
10
155.354586109268
20
-3.72998848022718
30
0
41
1
10
155.382252761549
20
-3.68337510900747
30
0
41
1
10
155.436094073315
20
-3.58484222200056
30
0
41
1
10
155.462509649356
20
-3.53236969313178
30
0
41
1
10
155.511830628762
20
-3.42480663008863
30
0
41
1
10
155.534853629728
20
-3.36960016963499
30
0
41
1
10
155.577189144481
20
-3.2559584139793
30
0
41
1
10
155.596288897031
20
-3.19788292247424
30
0
41
1
10
155.628380875533
20
-3.0843896755292
30
0
41
1
10
155.641719073073
20
-3.02791023849252
30
0
41
1
10
155.662018210568
20
-2.91777538280283
30
0
41
1
10
155.66870016091
20
-2.8658268367013
30
0
41
1
10
155.675540675199
20
-2.76779707715977
30
0
41
1
10
155.675598514292
20
-2.72170873931498
30
0
41
1
10
155.669574032149
20
-2.63925427725283
30
0
41
1
10
155.663485547059
20
-2.6020094516139
30
0
41
1
10
155.646057677217
20
-2.53654245250843
30
0
41
1
10
155.634845691483
20
-2.50853862593618
30
0
41
1
10
155.608071245989
20
-2.46076792270904
30
0
41
1
10
155.592417973472
20
-2.44102828427157
30
0
41
1
10
155.558145090502
20
-2.41010167616531
30
0
41
1
10
155.53942825453
20
-2.39870246387284
30
0
41
1
10
155.499147474204
20
-2.38322557186618
30
0
41
1
10
155.477464702549
20
-2.37915590597325
30
0
41
1
10
155.431885631574
20
-2.37812462683579
30
0
41
1
10
155.408158398195
20
-2.38112545020829
30
0
41
1
10
155.358960014216
20
-2.39366696479422
30
0
41
1
10
155.333488099994
20
-2.4032105196678
30
0
41
1
10
155.280808842895
20
-2.42880566426388
30
0
41
1
10
155.253678668948
20
-2.44485675675438
30
0
41
1
10
155.226296916059
20
-2.46378972552938
30
0
0
SPLINE
5
E0
100
AcDbEntity
8
1
62
256
6
ByLayer
370
18
48
1
60
0
100
AcDbSpline
70
4
71
3
72
8
73
4
40
0
40
0
40
0
40
0
40
1
40
1
40
1
40
1
41
1
10
156.825347517535
20
-0.293411608735937
30
0
41
1
10
156.17115918942
20
-2.09077926830088
30
0
41
1
10
155.516970861305
20
-3.88814692786491
30
0
41
1
10
154.86278253319
20
-5.68551458743147
30
0
0
SPLINE
5
E1
100
AcDbEntity
8
1
62
256
6
ByLayer
370
18
48
1
60
0
100
AcDbSpline
70
4
71
3
72
8
73
4
40
0
40
0
40
0
40
0
40
1
40
1
40
1
40
1
41
1
10
7.99999998964933
20
-4.01024708897782
30
0
41
1
10
7.99999998964933
20
-3.97941554168415
30
0
41
1
10
7.99999998964935
20
-3.94856806472404
30
0
41
1
10
7.99999998964935
20
-3.91770492361334
30
0
0
SPLINE
5
E2
100
AcDbEntity
8
1
62
256
6
ByLayer
370
18
48
1
60
0
100
AcDbSpline
70
4
71
3
72
39
73
35
40
0
40
0
40
0
40
0
40
0.0625000000000072
40
0.0625000000000072
40
0.125000000000014
40
0.125000000000014
40
0.25000000000002
40
0.25000000000002
40
0.375000000000026
40
0.375000000000026
40
0.500000000000032
40
0.500000000000032
40
0.562500000000035
40
0.562500000000035
40
0.593750000000036
40
0.593750000000036
40
0.625000000000038
40
0.625000000000038
40
0.750000000000038
40
0.750000000000038
40
0.812500000000037
40
0.812500000000037
40
0.828125000000037
40
0.828125000000037
40
0.835937500000035
40
0.835937500000035
40
0.843750000000032
40
0.843750000000032
40
0.85156250000003
40
0.85156250000003
40
0.859375000000028
40
0.859375000000028
40
0.875000000000024
40
1
40
1
40
1
40
1
41
1
10
150.995936266019
20
-1.89242071595584
30
0
41
1
10
151.123022664208
20
-1.91646815517311
30
0
41
1
10
151.250084471763
20
-1.93670721970491
30
0
41
1
10
151.504154250251
20
-1.96884762072995
30
0
41
1
10
151.631413623405
20
-1.98077818552503
30
0
41
1
10
152.011386770717
20
-2.00234373916914
30
0
41
1
10
152.260109849449
20
-1.99771902258033
30
0
41
1
10
152.746427474817
20
-1.9424231248278
30
0
41
1
10
152.984023216779
20
-1.89175688955353
30
0
41
1
10
153.44529526206
20
-1.73283003613523
30
0
41
1
10
153.662335394838
20
-1.62676823551476
30
0
41
1
10
153.964177127781
20
-1.42442913229453
30
0
41
1
10
154.060913837883
20
-1.34975997968249
30
0
41
1
10
154.199810777769
20
-1.22619121850161
30
0
41
1
10
154.245183027717
20
-1.18290278781112
30
0
41
1
10
154.332720600179
20
-1.0932522990721
30
0
41
1
10
154.374988890959
20
-1.04685335272524
30
0
41
1
10
154.579359889126
20
-0.807548089022816
30
0
41
1
10
154.720654686824
20
-0.592818680773178
30
0
41
1
10
154.903531238626
20
-0.240240862124665
30
0
41
1
10
154.959734834841
20
-0.117336478798677
30
0
41
1
10
155.023760423541
20
0.0406181675897983
30
0
41
1
10
155.036142390305
20
0.0725294524286255
30
0
41
1
10
155.054641444236
20
0.120452324408319
30
0
41
1
10
155.061441342803
20
0.136160752272417
30
0
41
1
10
155.068488217576
20
0.170828966981816
30
0
41
1
10
155.06902788321
20
0.189899635961268
30
0
41
1
10
155.065825092312
20
0.227980437932501
30
0
41
1
10
155.061641469027
20
0.247257815363952
30
0
41
1
10
155.052591907738
20
0.285654428243248
30
0
41
1
10
155.048052315291
20
0.304851130999594
30
0
41
1
10
155.034457512623
20
0.362443835021821
30
0
41
1
10
154.952628246306
20
0.707973519975752
30
0
41
1
10
154.868621080972
20
1.05325080300196
30
0
41
1
10
154.792699809367
20
1.36000770915706
30
0
0
SPLINE
5
E3
100
AcDbEntity
8
1
62
256
6
ByLayer
370
18
48
1
60
0
100
AcDbSpline
70
4
71
3
72
44
73
40
40
0
40
0
40
0
40
0
40
0.0586269558905365
40
0.0586269558905365
40
0.117253911781073
40
0.117253911781073
40
0.17588086767161
40
0.17588086767161
40
0.234507823562146
40
0.234507823562146
40
0.293134779452683
40
0.293134779452683
40
0.351761735343219
40
0.351761735343219
40
0.410388691233756
40
0.410388691233756
40
0.469015647124292
40
0.469015647124292
40
0.527642603014829
40
0.527642603014829
40
0.586269558905365
40
0.586269558905365
40
0.644896514795902
40
0.644896514795902
40
0.703523470686438
40
0.703523470686438
40
0.762150426576975
40
0.762150426576975
40
0.820777382467511
40
0.820777382467511
40
0.879404338358048
40
0.879404338358048
40
0.938031294248585
40
0.938031294248585
40
0.967344772193853
40
0.967344772193853
40
0.996658250139121
40
0.996658250139121
40
1
40
1
40
1
40
1
41
1
10
154.862319298929
20
-6.00606496346168
30
0
41
1
10
154.098189274803
20
-6.03560485961756
30
0
41
1
10
153.332627236979
20
-6.02910790339413
30
0
41
1
10
151.806053351513
20
-5.94488260043946
30
0
41
1
10
151.044186457712
20
-5.86729066662946
30
0
41
1
10
149.518128581856
20
-5.64335772589212
30
0
41
1
10
148.75235193719
20
-5.49657665632179
30
0
41
1
10
147.225736502908
20
-5.14058435457738
30
0
41
1
10
146.463867155233
20
-4.93131571717146
30
0
41
1
10
144.937567571445
20
-4.45637437054671
30
0
41
1
10
144.171708854805
20
-4.18999681726638
30
0
41
1
10
142.645004738259
20
-3.61263818431991
30
0
41
1
10
141.88306473834
20
-3.3013027691112
30
0
41
1
10
140.356534007239
20
-2.6424556020535
30
0
41
1
10
139.590553546477
20
-2.2941897743552
30
0
41
1
10
138.063803896946
20
-1.57694621726574
30
0
41
1
10
137.301782237471
20
-1.20751412601339
30
0
41
1
10
135.775050736069
20
-0.457689415565312
30
0
41
1
10
135.009026209091
20
-0.0765578914798368
30
0
41
1
10
133.48220066205
20
0.679321443117715
30
0
41
1
10
132.720096644621
20
1.05473386612283
30
0
41
1
10
131.193164646286
20
1.78978158062333
30
0
41
1
10
130.427068350339
20
2.1499545247024
30
0
41
1
10
128.900138076599
20
2.83782447552414
30
0
41
1
10
128.137983950498
20
3.16634558501457
30
0
41
1
10
126.610808999775
20
3.7829036326265
30
0
41
1
10
125.844647318804
20
4.07134741426285
30
0
41
1
10
124.317688378656
20
4.5943909338711
30
0
41
1
10
123.555442288663
20
4.82964996352055
30
0
41
1
10
122.028036367758
20
5.24086226286531
30
0
41
1
10
121.261805100063
20
5.41693403281508
30
0
41
1
10
119.734787949947
20
5.70143795807746
30
0
41
1
10
118.972445130094
20
5.81033695648068
30
0
41
1
10
117.826748233987
20
5.92134122659601
30
0
41
1
10
117.444240178163
20
5.94962818947531
30
0
41
1
10
116.678843638093
20
5.98836640578759
30
0
41
1
10
116.296783980444
20
5.99878651673518
30
0
41
1
10
115.871478952793
20
6.00045302591982
30
0
41
1
10
115.827959563674
20
6.0005075095755
30
0
41
1
10
115.784443562323
20
6.00044602369067
30
0
0
SPLINE
5
E4
100
AcDbEntity
8
1
62
256
6
ByLayer
370
18
48
1
60
0
100
AcDbSpline
70
4
71
3
72
64
73
60
40
0
40
0
40
0
40
0
40
0.0013649259567816
40
0.0013649259567816
40
0.0286634178147712
40
0.0286634178147712
40
0.0559619096727604
40
0.0559619096727604
40
0.11055889338874
40
0.11055889338874
40
0.13785738524673
40
0.13785738524673
40
0.16515587710472
40
0.16515587710472
40
0.2197528608207
40
0.2197528608207
40
0.24705135267869
40
0.24705135267869
40
0.27434984453668
40
0.27434984453668
40
0.328946828252661
40
0.328946828252661
40
0.35624532011065
40
0.35624532011065
40
0.38354381196864
40
0.38354381196864
40
0.43814079568462
40
0.43814079568462
40
0.46543928754261
40
0.46543928754261
40
0.492737779400601
40
0.492737779400601
40
0.547334763116581
40
0.547334763116581
40
0.574633254974572
40
0.574633254974572
40
0.601931746832562
40
0.601931746832562
40
0.656528730548542
40
0.656528730548542
40
0.683827222406532
40
0.683827222406532
40
0.711125714264522
40
0.711125714264522
40
0.765722697980501
40
0.765722697980501
40
0.793021189838491
40
0.793021189838491
40
0.820319681696481
40
0.820319681696481
40
0.874916665412459
40
0.874916665412459
40
0.902215157270448
40
0.902215157270448
40
0.929513649128437
40
0.929513649128437
40
0.984110632844415
40
0.984110632844415
40
1
40
1
40
1
40
1
41
1
10
81.5856202803984
20
-5.6753537720023
30
0
41
1
10
81.5665037816024
20
-5.67830774458113
30
0
41
1
10
81.5473862018669
20
-5.68124068470675
30
0
41
1
10
81.1458938147391
20
-5.74238993291755
30
0
41
1
10
80.7626659095731
20
-5.79226786000615
30
0
41
1
10
79.9972308017348
20
-5.87440159054037
30
0
41
1
10
79.6150336680281
20
-5.90667895499885
30
0
41
1
10
78.4691580883608
20
-5.97701642286924
30
0
41
1
10
77.7061263006855
20
-5.98852554973058
30
0
41
1
10
76.5588386829963
20
-5.95230311751646
30
0
41
1
10
76.1755383034026
20
-5.93127420094254
30
0
41
1
10
75.4100926617612
20
-5.87162346906428
30
0
41
1
10
75.0278908907487
20
-5.83303283663375
30
0
41
1
10
73.8819294138999
20
-5.69151450842821
30
0
41
1
10
73.1188062049694
20
-5.56281418188337
30
0
41
1
10
71.9713407882688
20
-5.32088111603952
30
0
41
1
10
71.5879861592297
20
-5.23194934279238
30
0
41
1
10
70.8225087812589
20
-5.03908373943912
30
0
41
1
10
70.4402981584857
20
-4.93512616099503
30
0
41
1
10
69.2943166964572
20
-4.60184749728933
30
0
41
1
10
68.5310348883164
20
-4.35131399847381
30
0
41
1
10
67.3834487979927
20
-3.93788672776697
30
0
41
1
10
67.0000400244522
20
-3.79365841705589
30
0
41
1
10
66.2345270681519
20
-3.49497733654971
30
0
41
1
10
65.8522906313318
20
-3.3404143504518
30
0
41
1
10
64.7061847963424
20
-2.86274048011671
30
0
41
1
10
63.9428736073622
20
-2.52571266616971
30
0
41
1
10
62.7950689001389
20
-1.9994589569225
30
0
41
1
10
62.4115676874155
20
-1.82044979567829
30
0
41
1
10
61.6460523872597
20
-1.45822508798082
30
0
41
1
10
61.2638366632209
20
-1.27486439154754
30
0
41
1
10
60.1176929273295
20
-0.720300229558887
30
0
41
1
10
59.354302407661
20
-0.344545042806175
30
0
41
1
10
58.2062850108018
20
0.220049356007621
30
0
41
1
10
57.8227426076427
20
0.408577049523643
30
0
41
1
10
57.0572235326746
20
0.783081609946208
30
0
41
1
10
56.6749732704776
20
0.969192719007197
30
0
41
1
10
55.5287723613813
20
1.5221454246718
30
0
41
1
10
54.7652439501894
20
1.88334798658803
30
0
41
1
10
53.6170259549471
20
2.40643202086505
30
0
41
1
10
53.2334643560088
20
2.57783430023829
30
0
41
1
10
52.4679072907519
20
2.91158051092498
30
0
41
1
10
52.0856143660241
20
3.07410913090371
30
0
41
1
10
50.9392956237843
20
3.54714052056949
30
0
41
1
10
50.1757034179513
20
3.84285884104472
30
0
41
1
10
49.0273379535623
20
4.25054829120347
30
0
41
1
10
48.6437466882912
20
4.38055057161981
30
0
41
1
10
47.8781791700207
20
4.62641680902681
30
0
41
1
10
47.4958777859051
20
4.74245294494295
30
0
41
1
10
46.3494845408798
20
5.0687839441089
30
0
41
1
10
45.5857782612443
20
5.25714342020288
30
0
41
1
10
44.437229996208
20
5.49174047738879
30
0
41
1
10
44.0536116362036
20
5.56196748552804
30
0
41
1
10
43.2880294614779
20
5.68523034020868
30
0
41
1
10
42.905704969338
20
5.73837272074644
30
0
41
1
10
41.7592159212739
20
5.87192036675398
30
0
41
1
10
40.9954298936297
20
5.92637612180684
30
0
41
1
10
40.0067055114932
20
5.95080678838468
30
0
41
1
10
39.7835745119611
20
5.95329651141171
30
0
41
1
10
39.5605075180766
20
5.95277075611327
30
0
0
SPLINE
5
E5
100
AcDbEntity
8
1
62
256
6
ByLayer
370
18
48
1
60
0
100
AcDbSpline
70
4
71
3
72
18
73
14
40
0
40
0
40
0
40
0
40
0.250000000000001
40
0.250000000000001
40
0.375000000000001
40
0.375000000000001
40
0.500000000000001
40
0.500000000000001
40
0.750000000000002
40
0.750000000000002
40
0.875000000000001
40
0.875000000000001
40
1
40
1
40
1
40
1
41
1
10
154.862782533188
20
-5.68551458743605
30
0
41
1
10
154.740889800536
20
-5.66881417758088
30
0
41
1
10
154.6280119206
20
-5.62623430628133
30
0
41
1
10
154.47346545083
20
-5.51996239707259
30
0
41
1
10
154.424355688688
20
-5.47724239527827
30
0
41
1
10
154.333316485983
20
-5.37883621845577
30
0
41
1
10
154.291112822668
20
-5.32300893917642
30
0
41
1
10
154.174514133214
20
-5.13552570543399
30
0
41
1
10
154.110042258095
20
-4.9840464473908
30
0
41
1
10
154.034926055958
20
-4.71369438118751
30
0
41
1
10
154.013539776478
20
-4.61615011219649
30
0
41
1
10
153.979144557156
20
-4.41024547559147
30
0
41
1
10
153.965987277093
20
-4.30143768785959
30
0
41
1
10
153.956897789624
20
-4.18673462980539
30
0
0
SPLINE
5
E6
100
AcDbEntity
8
1
62
256
6
ByLayer
370
18
48
1
60
0
100
AcDbSpline
70
4
71
3
72
112
73
108
40
0
40
0
40
0
40
0
40
0.0044825229487317
40
0.0044825229487317
40
0.0153624857325535
40
0.0153624857325535
40
0.0371224113001956
40
0.0371224113001956
40
0.0588823368678377
40
0.0588823368678377
40
0.0806422624354798
40
0.0806422624354798
40
0.102402188003122
40
0.102402188003122
40
0.124162113570764
40
0.124162113570764
40
0.145922039138406
40
0.145922039138406
40
0.156802001922228
40
0.156802001922228
40
0.16768196470605
40
0.16768196470605
40
0.189441890273692
40
0.189441890273692
40
0.211201815841334
40
0.211201815841334
40
0.232961741408976
40
0.232961741408976
40
0.254721666976618
40
0.254721666976618
40
0.27648159254426
40
0.27648159254426
40
0.298241518111902
40
0.298241518111902
40
0.320001443679544
40
0.320001443679544
40
0.341761369247186
40
0.341761369247186
40
0.363521294814828
40
0.363521294814828
40
0.37440125759865
40
0.37440125759865
40
0.385281220382472
40
0.385281220382472
40
0.407041145950117
40
0.407041145950117
40
0.428801071517762
40
0.428801071517762
40
0.450560997085406
40
0.450560997085406
40
0.472320922653051
40
0.472320922653051
40
0.494080848220696
40
0.494080848220696
40
0.515840773788341
40
0.515840773788341
40
0.526720736572164
40
0.526720736572164
40
0.537600699355987
40
0.537600699355987
40
0.559360624923632
40
0.559360624923632
40
0.581120550491277
40
0.581120550491277
40
0.602880476058922
40
0.602880476058922
40
0.624640401626567
40
0.624640401626567
40
0.646400327194212
40
0.646400327194212
40
0.668160252761857
40
0.668160252761857
40
0.689920178329501
40
0.689920178329501
40
0.711680103897146
40
0.711680103897146
40
0.733440029464791
40
0.733440029464791
40
0.744319992248614
40
0.744319992248614
40
0.755199955032436
40
0.755199955032436
40
0.776959880600081
40
0.776959880600081
40
0.798719806167726
40
0.798719806167726
40
0.82047973173537
40
0.82047973173537
40
0.842239657303015
40
0.842239657303015
40
0.86399958287066
40
0.86399958287066
40
0.885759508438305
40
0.885759508438305
40
0.896639471222128
40
0.896639471222128
40
0.907519434005951
40
0.907519434005951
40
0.929279359573597
40
0.929279359573597
40
0.951039285141244
40
0.951039285141244
40
0.97279921070889
40
0.97279921070889
40
0.994559136276536
40
0.994559136276536
40
1
40
1
40
1
40
1
41
1
10
139.786755684836
20
-3.13881842637815
30
0
41
1
10
139.712027936478
20
-3.16791485112225
30
0
41
1
10
139.63730392309
20
-3.19681673458339
30
0
41
1
10
139.381224085735
20
-3.29519653939505
30
0
41
1
10
139.20010634899
20
-3.36414595524727
30
0
41
1
10
138.656315886969
20
-3.5673677119731
30
0
41
1
10
138.29344089798
20
-3.6981751249119
30
0
41
1
10
137.56724985164
20
-3.94956334832051
30
0
41
1
10
137.203667487934
20
-4.06990088807504
30
0
41
1
10
136.476240806601
20
-4.29982787165233
30
0
41
1
10
136.112700814802
20
-4.40919564426105
30
0
41
1
10
135.386765751511
20
-4.61555795454439
30
0
41
1
10
135.024376161826
20
-4.71235364719942
30
0
41
1
10
134.298844289453
20
-4.89268815833003
30
0
41
1
10
133.936106341304
20
-4.97723486820325
30
0
41
1
10
133.210302477484
20
-5.13214069621637
30
0
41
1
10
132.847116338557
20
-5.20228814454037
30
0
41
1
10
132.301317045455
20
-5.29690894296195
30
0
41
1
10
132.119147037992
20
-5.32686003964167
30
0
41
1
10
131.755665997691
20
-5.3835817708898
30
0
41
1
10
131.574053124575
20
-5.41012738453509
30
0
41
1
10
131.02928106812
20
-5.48386878178977
30
0
41
1
10
130.666297521694
20
-5.52508734047132
30
0
41
1
10
129.940814255138
20
-5.59262576349349
30
0
41
1
10
129.578225961116
20
-5.62001450105529
30
0
41
1
10
128.852492699046
20
-5.65871582077764
30
0
41
1
10
128.489169571291
20
-5.66970239299633
30
0
41
1
10
127.762665640184
20
-5.67674033158744
30
0
41
1
10
127.398402740028
20
-5.67328693407907
30
0
41
1
10
126.671250848094
20
-5.65108599764105
30
0
41
1
10
126.308293318289
20
-5.63189442787609
30
0
41
1
10
125.582746091689
20
-5.57772793969102
30
0
41
1
10
125.219992382504
20
-5.54390823565032
30
0
41
1
10
124.494205999958
20
-5.46174194268664
30
0
41
1
10
124.131705126385
20
-5.41251356964449
30
0
41
1
10
123.405288138861
20
-5.29957015838218
30
0
41
1
10
123.041415513346
20
-5.236365915769
30
0
41
1
10
122.313827493418
20
-5.09610091205494
30
0
41
1
10
121.95068104182
20
-5.01866885618651
30
0
41
1
10
121.406140482794
20
-4.8922189879159
30
0
41
1
10
121.224651406393
20
-4.84857016961598
30
0
41
1
10
120.861717855503
20
-4.75853237500135
30
0
41
1
10
120.680504123432
20
-4.71177579810714
30
0
41
1
10
120.136586309264
20
-4.56721416565532
30
0
41
1
10
119.773755226466
20
-4.46450049092883
30
0
41
1
10
119.04777435942
20
-4.24607180304972
30
0
41
1
10
118.684638676515
20
-4.13115348345977
30
0
41
1
10
117.957271185849
20
-3.89112120835341
30
0
41
1
10
117.593177021202
20
-3.76578028394266
30
0
41
1
10
116.866826310781
20
-3.50438106331626
30
0
41
1
10
116.504294156787
20
-3.36870860837709
30
0
41
1
10
115.778658246075
20
-3.09059969541286
30
0
41
1
10
115.416004267434
20
-2.94719728939433
30
0
41
1
10
114.690545690734
20
-2.65109320743849
30
0
41
1
10
114.327605265536
20
-2.49958270288298
30
0
41
1
10
113.782380427832
20
-2.26826338402287
30
0
41
1
10
113.600449964407
20
-2.19058805352091
30
0
41
1
10
113.236763266096
20
-2.03270332764802
30
0
41
1
10
113.054985701602
20
-1.95287018973852
30
0
41
1
10
112.510024468597
20
-1.71183481923021
30
0
41
1
10
112.146922463487
20
-1.54935552863674
30
0
41
1
10
111.421307094669
20
-1.22080098911388
30
0
41
1
10
111.058788379448
20
-1.0547077704428
30
0
41
1
10
110.333450946915
20
-0.719846590556529
30
0
41
1
10
109.970359267155
20
-0.551881314287414
30
0
41
1
10
109.244627776035
20
-0.21267026316454
30
0
41
1
10
108.880998292548
20
-0.0429425533640426
30
0
41
1
10
108.153323637705
20
0.296455698370409
30
0
41
1
10
107.790217892791
20
0.465918219171158
30
0
41
1
10
107.064343245061
20
0.802931366830137
30
0
41
1
10
106.701559563743
20
0.970311164254923
30
0
41
1
10
105.975959935484
20
1.30150211682241
30
0
41
1
10
105.613639646042
20
1.46625303211306
30
0
41
1
10
104.887798737753
20
1.79055017257602
30
0
41
1
10
104.524546527797
20
1.95053817641988
30
0
41
1
10
103.797346348473
20
2.26567312406368
30
0
41
1
10
103.433517967747
20
2.42030424432895
30
0
41
1
10
102.888528927738
20
2.6464626901963
30
0
41
1
10
102.706921098725
20
2.72092943210123
30
0
41
1
10
102.343825426211
20
2.86790521799296
30
0
41
1
10
102.162548053553
20
2.94079216785923
30
0
41
1
10
101.618582935998
20
3.15579400560378
30
0
41
1
10
101.255778069605
20
3.29441870089889
30
0
41
1
10
100.530038474333
20
3.56348459230293
30
0
41
1
10
100.167156077538
20
3.69387661271904
30
0
41
1
10
99.4404499280493
20
3.94379604279123
30
0
41
1
10
99.0761081423873
20
4.06325191184735
30
0
41
1
10
98.3487540176394
20
4.29162885377701
30
0
41
1
10
97.9859103325049
20
4.40094597794166
30
0
41
1
10
97.2599105769601
20
4.60528946431251
30
0
41
1
10
96.8971490879996
20
4.70106051595263
30
0
41
1
10
96.1716326908818
20
4.88085415200379
30
0
41
1
10
95.8088130805309
20
4.96456589778421
30
0
41
1
10
95.2638764578214
20
5.07916417044842
30
0
41
1
10
95.0820531952938
20
5.11543490812741
30
0
41
1
10
94.718588633784
20
5.18503999296107
30
0
41
1
10
94.5367617589865
20
5.21832199994844
30
0
41
1
10
93.990878715358
20
5.31290899400278
30
0
41
1
10
93.6272789734787
20
5.36889998196042
30
0
41
1
10
92.9010749716871
20
5.46538356438072
30
0
41
1
10
92.538414348416
20
5.50548583858594
30
0
41
1
10
91.8127711643371
20
5.57276181131417
30
0
41
1
10
91.4496212113473
20
5.59932536444933
30
0
41
1
10
90.7240481017827
20
5.63663635320987
30
0
41
1
10
90.3607637936593
20
5.646614934372
30
0
41
1
10
89.9059909229389
20
5.65091338488381
30
0
41
1
10
89.815007982355
20
5.65133374675
30
0
41
1
10
89.724025119839
20
5.65129677779524
30
0
0
SPLINE
5
E7
100
AcDbEntity
8
1
62
256
6
ByLayer
370
18
48
1
60
0
100
AcDbSpline
70
4
71
3
72
110
73
106
40
0
40
0
40
0
40
0
40
0.0168208849956146
40
0.0168208849956146
40
0.0386092614629179
40
0.0386092614629179
40
0.0495034496965694
40
0.0495034496965694
40
0.0603976379302209
40
0.0603976379302209
40
0.0821860143975238
40
0.0821860143975238
40
0.103974390864827
40
0.103974390864827
40
0.114868579098479
40
0.114868579098479
40
0.12576276733213
40
0.12576276733213
40
0.147551143799433
40
0.147551143799433
40
0.169339520266736
40
0.169339520266736
40
0.19112789673404
40
0.19112789673404
40
0.212916273201343
40
0.212916273201343
40
0.234704649668646
40
0.234704649668646
40
0.256493026135949
40
0.256493026135949
40
0.278281402603253
40
0.278281402603253
40
0.300069779070556
40
0.300069779070556
40
0.321858155537859
40
0.321858155537859
40
0.343646532005162
40
0.343646532005162
40
0.365434908472465
40
0.365434908472465
40
0.387223284939768
40
0.387223284939768
40
0.409011661407072
40
0.409011661407072
40
0.419905849640723
40
0.419905849640723
40
0.430800037874374
40
0.430800037874374
40
0.452588414341677
40
0.452588414341677
40
0.474376790808979
40
0.474376790808979
40
0.485270979042631
40
0.485270979042631
40
0.496165167276282
40
0.496165167276282
40
0.517953543743585
40
0.517953543743585
40
0.539741920210888
40
0.539741920210888
40
0.561530296678192
40
0.561530296678192
40
0.583318673145495
40
0.583318673145495
40
0.605107049612798
40
0.605107049612798
40
0.626895426080101
40
0.626895426080101
40
0.648683802547404
40
0.648683802547404
40
0.670472179014708
40
0.670472179014708
40
0.692260555482011
40
0.692260555482011
40
0.703154743715663
40
0.703154743715663
40
0.714048931949314
40
0.714048931949314
40
0.735837308416616
40
0.735837308416616
40
0.779414061351221
40
0.779414061351221
40
0.790308249584873
40
0.790308249584873
40
0.801202437818524
40
0.801202437818524
40
0.822990814285826
40
0.822990814285826
40
0.844779190753129
40
0.844779190753129
40
0.85567337898678
40
0.85567337898678
40
0.866567567220432
40
0.866567567220432
40
0.888355943687735
40
0.888355943687735
40
0.910144320155038
40
0.910144320155038
40
0.931932696622341
40
0.931932696622341
40
0.953721073089644
40
0.953721073089644
40
0.997297826024251
40
0.997297826024251
40
1
40
1
40
1
40
1
41
1
10
63.598786821331
20
-3.11232166311737
30
0
41
1
10
63.3186267803518
20
-3.22063750298335
30
0
41
1
10
63.0385107745392
20
-3.32646863189419
30
0
41
1
10
62.3951789126477
20
-3.56378256285771
30
0
41
1
10
62.0317564801401
20
-3.69314376362888
30
0
41
1
10
61.4859620295006
20
-3.87916324142256
30
0
41
1
10
61.3040509686533
20
-3.94014435869192
30
0
41
1
10
60.9401136101825
20
-4.05897442074789
30
0
41
1
10
60.7582051099202
20
-4.11701170207346
30
0
41
1
10
60.2126652291848
20
-4.28688765103144
30
0
41
1
10
59.8493721616422
20
-4.39451262674382
30
0
41
1
10
59.1233047807436
20
-4.59720946037606
30
0
41
1
10
58.760406578307
20
-4.69243548069161
30
0
41
1
10
58.2156309524281
20
-4.82590304565338
30
0
41
1
10
58.0339243839069
20
-4.86873967842638
30
0
41
1
10
57.6707264840772
20
-4.95139778578155
30
0
41
1
10
57.4891905951483
20
-4.99113535312148
30
0
41
1
10
56.943920742818
20
-5.10470692275598
30
0
41
1
10
56.5794421735333
20
-5.17342150859224
30
0
41
1
10
55.8514611365618
20
-5.29783591700871
30
0
41
1
10
55.4880640395542
20
-5.35320584098082
30
0
41
1
10
54.7615811609459
20
-5.44799540571006
30
0
41
1
10
54.3981935918071
20
-5.48757534703336
30
0
41
1
10
53.6724752050469
20
-5.55367322384203
30
0
41
1
10
53.3093787205713
20
-5.57961522080689
30
0
41
1
10
52.582477763458
20
-5.61529862753108
30
0
41
1
10
52.2188313406905
20
-5.6252559062757
30
0
41
1
10
51.4905075861478
20
-5.63093009925115
30
0
41
1
10
51.1265566310448
20
-5.62655784432951
30
0
41
1
10
50.3994624593379
20
-5.60118141648059
30
0
41
1
10
50.0366465931862
20
-5.58044552775286
30
0
41
1
10
49.3104727089526
20
-5.52578070430698
30
0
41
1
10
48.9473199235436
20
-5.4913013022485
30
0
41
1
10
48.2209512689709
20
-5.40644742896694
30
0
41
1
10
47.8576343517214
20
-5.35613232608725
30
0
41
1
10
47.129764700932
20
-5.24280319422212
30
0
41
1
10
46.7651472363548
20
-5.17919480924516
30
0
41
1
10
46.0380857513709
20
-5.03688865377808
30
0
41
1
10
45.6747379539572
20
-4.9584739608305
30
0
41
1
10
44.9483298908929
20
-4.79063591150157
30
0
41
1
10
44.5854021407402
20
-4.70036302897159
30
0
41
1
10
43.8592863912774
20
-4.50632628340921
30
0
41
1
10
43.4959387046746
20
-4.40236967228202
30
0
41
1
10
42.9503940053236
20
-4.23924901866454
30
0
41
1
10
42.7686943870253
20
-4.18320983848622
30
0
41
1
10
42.4047880527502
20
-4.06849660025742
30
0
41
1
10
42.2225828188342
20
-4.00971850873913
30
0
41
1
10
41.676495342647
20
-3.82945033506516
30
0
41
1
10
41.3130242227449
20
-3.70334602145724
30
0
41
1
10
40.5865640310448
20
-3.44291173401533
30
0
41
1
10
40.2235475687252
20
-3.30842536333645
30
0
41
1
10
39.6788111811932
20
-3.10009660048763
30
0
41
1
10
39.497146793702
20
-3.0296818906846
30
0
41
1
10
39.1340674343753
20
-2.88604964783659
30
0
41
1
10
38.9526163554959
20
-2.8128922722388
30
0
41
1
10
38.4076662358316
20
-2.59183629179364
30
0
41
1
10
38.0438813050313
20
-2.44174376131571
30
0
41
1
10
37.3155365036115
20
-2.13334452951847
30
0
41
1
10
36.9517056773967
20
-1.97547823128861
30
0
41
1
10
36.2247603639263
20
-1.65626227954024
30
0
41
1
10
35.8611374519918
20
-1.49564781555372
30
0
41
1
10
35.1353235852131
20
-1.16795555639033
30
0
41
1
10
34.7723330759202
20
-1.00239980628314
30
0
41
1
10
34.0457354838802
20
-0.6696714990739
30
0
41
1
10
33.6823432632781
20
-0.502119516529433
30
0
41
1
10
32.954752323928
20
-0.165404743073395
30
0
41
1
10
32.5902149111745
20
0.0036870634598927
30
0
41
1
10
31.8623371500112
20
0.340045219972893
30
0
41
1
10
31.4991410897771
20
0.508638531751416
30
0
41
1
10
30.7725542702219
20
0.842696307032526
30
0
41
1
10
30.4093585372069
20
1.0083735677716
30
0
41
1
10
29.6829970154913
20
1.33727565293958
30
0
41
1
10
29.3197727684898
20
1.50042496308703
30
0
41
1
10
28.7741898936425
20
1.74163596060612
30
0
41
1
10
28.5922171588387
20
1.82147559551285
30
0
41
1
10
28.2279893555673
20
1.97970979844135
30
0
41
1
10
28.0458159675
20
2.05848162161502
30
0
41
1
10
27.4996649265483
20
2.29237635115874
30
0
41
1
10
27.1356923907643
20
2.44492057903111
30
0
41
1
10
26.0447759957808
20
2.89238517997885
30
0
41
1
10
25.3187908415491
20
3.17687889871138
30
0
41
1
10
24.4095126418867
20
3.50865193274018
30
0
41
1
10
24.2278292268697
20
3.57428656179894
30
0
41
1
10
23.8639893450209
20
3.70240695175678
30
0
41
1
10
23.6819064864432
20
3.76494293692212
30
0
41
1
10
23.1351349565485
20
3.94855571709795
30
0
41
1
10
22.7705828029367
20
4.06615425774766
30
0
41
1
10
22.0427364029038
20
4.29067279230603
30
0
41
1
10
21.6791333550897
20
4.39742102314253
30
0
41
1
10
21.1336247471145
20
4.54823639799335
30
0
41
1
10
20.951722366644
20
4.59690509409984
30
0
41
1
10
20.5882457507864
20
4.69155513149173
30
0
41
1
10
20.4066177252774
20
4.73745744726776
30
0
41
1
10
19.8612469380515
20
4.86987385906042
30
0
41
1
10
19.4972944140821
20
4.95160591695617
30
0
41
1
10
18.7687296638811
20
5.0994579511312
30
0
41
1
10
18.4037808555356
20
5.16691100516539
30
0
41
1
10
17.6756341662434
20
5.28841708373358
30
0
41
1
10
17.3118735251969
20
5.34186532190446
30
0
41
1
10
16.5864036661341
20
5.43479117699417
30
0
41
1
10
16.2238875351342
20
5.47391731532099
30
0
41
1
10
15.136722011503
20
5.56901620081015
30
0
41
1
10
14.4131905504262
20
5.60163860055235
30
0
41
1
10
13.6427923448573
20
5.6056509166375
30
0
41
1
10
13.5978117796044
20
5.60576836758847
30
0
41
1
10
13.5528314177741
20
5.60576830838275
30
0
0
SPLINE
5
E8
100
AcDbEntity
8
1
62
256
6
ByLayer
370
18
48
1
60
0
100
AcDbSpline
70
4
71
3
72
10
73
6
40
0
40
0
40
0
40
0
40
0.5
40
0.5
40
1
40
1
40
1
40
1
41
1
10
155.058529549263
20
5.85864742584843
30
0
41
1
10
155.349723296023
20
5.12149943211372
30
0
41
1
10
155.640755417757
20
4.38382573852925
30
0
41
1
10
156.220221652191
20
2.9063615731576
30
0
41
1
10
156.508598915864
20
2.16655310962423
30
0
41
1
10
156.794255197152
20
1.42579584585292
30
0
0
SPLINE
5
E9
100
AcDbEntity
8
1
62
256
6
ByLayer
370
18
48
1
60
0
100
AcDbSpline
70
4
71
3
72
14
73
10
40
0
40
0
40
0
40
0
40
0.25
40
0.25
40
0.375000000000008
40
0.375000000000008
40
0.500000000000015
40
0.500000000000015
40
1
40
1
40
1
40
1
41
1
10
150.995936266019
20
-1.89242071595584
30
0
41
1
10
151.213007968535
20
-2.13489100910388
30
0
41
1
10
151.440790037043
20
-2.36258561369797
30
0
41
1
10
151.795626388205
20
-2.68596791158112
30
0
41
1
10
151.916123953094
20
-2.79070104922963
30
0
41
1
10
152.161263225702
20
-2.99445019368099
30
0
41
1
10
152.28564343353
20
-3.09322775782627
30
0
41
1
10
152.911296080765
20
-3.56935587576547
30
0
41
1
10
153.427894912432
20
-3.89814816098311
30
0
41
1
10
153.956897789624
20
-4.18673462980539
30
0
0
SPLINE
5
EA
100
AcDbEntity
8
1
62
256
6
ByLayer
370
18
48
1
60
0
100
AcDbSpline
70
4
71
3
72
20
73
16
40
0
40
0
40
0
40
0
40
0.0043749245052319
40
0.0043749245052319
40
0.10854042392125
40
0.10854042392125
40
0.212705923337267
40
0.212705923337267
40
0.421036922169301
40
0.421036922169301
40
0.837698919833373
40
0.837698919833373
40
0.941864419249392
40
0.941864419249392
40
1
40
1
40
1
40
1
41
1
10
58.6681716362093
20
-0.0067852489590052
30
0
41
1
10
58.6842761892928
20
-0.0143975654946473
30
0
41
1
10
58.7003824017756
20
-0.0220107089421333
30
0
41
1
10
59.1000139142775
20
-0.210909603781403
30
0
41
1
10
59.4844883522765
20
-0.392634526228193
30
0
41
1
10
60.2559767670505
20
-0.755592326874023
30
0
41
1
10
60.6411835543113
20
-0.935969356848858
30
0
41
1
10
61.7926820779375
20
-1.47027962797546
30
0
41
1
10
62.5564557646059
20
-1.81781610198405
30
0
41
1
10
64.8428805033311
20
-2.82080346492185
30
0
41
1
10
66.3611589738962
20
-3.43563649165478
30
0
41
1
10
68.2753138980299
20
-4.09191811740064
30
0
41
1
10
68.6590182072993
20
-4.21748990039529
30
0
41
1
10
69.2586222975951
20
-4.40357014224645
30
0
41
1
10
69.4738876392612
20
-4.46834708078629
30
0
41
1
10
69.689042944781
20
-4.53096565873872
30
0
0
SPLINE
5
EB
100
AcDbEntity
8
1
62
256
6
ByLayer
370
13
48
1
60
0
100
AcDbSpline
70
4
71
3
72
18
73
14
40
0
40
0
40
0
40
0
40
0.0503990376661537
40
0.0503990376661537
40
0.278504200843018
40
0.278504200843018
40
0.734714527196745
40
0.734714527196745
40
0.848767108785176
40
0.848767108785176
40
0.962819690373606
40
0.962819690373606
40
1
40
1
40
1
40
1
41
1
10
69.6890419835213
20
-4.53096537897471
30
0
41
1
10
69.8593954869786
20
-4.58054489173102
30
0
41
1
10
70.0296800093753
20
-4.62877132928233
30
0
41
1
10
70.96864333711
20
-4.88701888842101
30
0
41
1
10
71.7332812971364
20
-5.06914679438663
30
0
41
1
10
74.0212726832548
20
-5.52131584762779
30
0
41
1
10
75.5385884426683
20
-5.69719938590754
30
0
41
1
10
77.4496762085608
20
-5.74582079158219
30
0
41
1
10
77.832602573111
20
-5.74699536509596
30
0
41
1
10
78.6005091358662
20
-5.73211162960464
30
0
41
1
10
78.9859433928289
20
-5.71599958105708
30
0
41
1
10
79.4973694646772
20
-5.68310135352198
30
0
41
1
10
79.6230792874138
20
-5.67409647851349
30
0
41
1
10
79.7487737436009
20
-5.66418015824263
30
0
0
SPLINE
5
EC
100
AcDbEntity
8
1
62
256
6
ByLayer
370
18
48
1
60
0
100
AcDbSpline
70
4
71
3
72
14
73
10
40
0
40
0
40
0
40
0
40
0.176109863915398
40
0.176109863915398
40
0.629417079370663
40
0.629417079370663
40
0.856070687098297
40
0.856070687098297
40
1
40
1
40
1
40
1
41
1
10
134.937327140617
20
-0.0398575390053963
30
0
41
1
10
135.529980514244
20
-0.322338139886256
30
0
41
1
10
136.120483654792
20
-0.603725964135094
30
0
41
1
10
138.2274537718
20
-1.59654438972234
30
0
41
1
10
139.738220166745
20
-2.28814313532945
30
0
41
1
10
142.023432725403
20
-3.23007954051761
30
0
41
1
10
142.788293511831
20
-3.52828217464787
30
0
41
1
10
144.048217299712
20
-3.98150880704432
30
0
41
1
10
144.535141667852
20
-4.14741627360468
30
0
41
1
10
145.020182592722
20
-4.30242397344935
30
0
0
SPLINE
5
ED
100
AcDbEntity
8
1
62
256
6
ByLayer
370
13
48
1
60
0
100
AcDbSpline
70
4
71
3
72
12
73
8
40
0
40
0
40
0
40
0
40
0.0836157451218441
40
0.0836157451218441
40
0.541807872560922
40
0.541807872560922
40
1
40
1
40
1
40
1
41
1
10
145.020182593777
20
-4.3024239737864
30
0
41
1
10
145.298962972921
20
-4.39151564237181
30
0
41
1
10
145.577121166137
20
-4.47700662831491
30
0
41
1
10
147.376132112489
20
-5.00667417261036
30
0
41
1
10
148.882323025856
20
-5.34241743429641
30
0
41
1
10
151.902713341834
20
-5.75571563974984
30
0
41
1
10
153.416958896978
20
-5.83415493271892
30
0
41
1
10
154.954008677547
20
-5.77118226219795
30
0
0
SPLINE
5
EE
100
AcDbEntity
8
1
62
256
6
ByLayer
370
18
48
1
60
0
100
AcDbSpline
70
4
71
3
72
8
73
4
40
0
40
0
40
0
40
0
40
1
40
1
40
1
40
1
41
1
10
156.999953998324
20
0.047161891140405
30
0
41
1
10
156.992052453843
20
0.0234218556760197
30
0
41
1
10
156.981917336427
20
-0.0007546116018489
30
0
41
1
10
156.971858477298
20
-0.0194519248637164
30
0
0
SPLINE
5
EF
100
AcDbEntity
8
1
62
256
6
ByLayer
370
13
48
1
60
0
100
AcDbSpline
70
4
71
3
72
22
73
18
40
0
40
0
40
0
40
0
40
0.0609720043330237
40
0.0609720043330237
40
0.165308448296021
40
0.165308448296021
40
0.373981336222016
40
0.373981336222016
40
0.478317780185014
40
0.478317780185014
40
0.582654224148011
40
0.582654224148011
40
0.686990668111008
40
0.686990668111008
40
0.791327112074006
40
0.791327112074006
40
1
40
1
40
1
40
1
41
1
10
8.25038165348099
20
-5.6021026121916
30
0
41
1
10
8.25038484545604
20
-5.60200456280731
30
0
41
1
10
8.25038800803986
20
-5.59967507060239
30
0
41
1
10
8.25039656262922
20
-5.58724140024114
30
0
41
1
10
8.25040196552908
20
-5.57265888172694
30
0
41
1
10
8.25041815098643
20
-5.50947588301094
30
0
41
1
10
8.25042896928758
20
-5.44178914240547
30
0
41
1
10
8.25044608362313
20
-5.30288901293468
30
0
41
1
10
8.25045193135151
20
-5.25032756343717
30
0
41
1
10
8.25046400045193
20
-5.13244583879248
30
0
41
1
10
8.25047024141736
20
-5.06689733676623
30
0
41
1
10
8.25048302417491
20
-4.92398564827795
30
0
41
1
10
8.25048958931609
20
-4.84636318742184
30
0
41
1
10
8.25050289428404
20
-4.68081978226067
30
0
41
1
10
8.25050963555901
20
-4.59291233611975
30
0
41
1
10
8.25053003941204
20
-4.31415503925041
30
0
41
1
10
8.25054390291913
20
-4.10837373577686
30
0
41
1
10
8.25055755842672
20
-3.88236063615358
30
0
0
SPLINE
5
F0
100
AcDbEntity
8
1
62
256
6
ByLayer
370
18
48
1
60
0
100
AcDbSpline
70
4
71
3
72
10
73
6
40
0
40
0
40
0
40
0
40
0.5
40
0.5
40
1
40
1
40
1
40
1
41
1
10
156.975124551135
20
-0.160293350167933
30
0
41
1
10
156.977096772216
20
-0.144489223048765
30
0
41
1
10
156.980392711566
20
-0.126750640821228
30
0
41
1
10
156.988864040027
20
-0.088523178013304
30
0
41
1
10
156.994057169389
20
-0.0680882401898373
30
0
41
1
10
156.999953998324
20
-0.0471618911408029
30
0
0
SPLINE
5
F1
100
AcDbEntity
8
1
62
256
6
ByLayer
370
18
48
1
60
0
100
AcDbSpline
70
4
71
3
72
8
73
4
40
0
40
0
40
0
40
0
40
1
40
1
40
1
40
1
41
1
10
156.971858477298
20
-0.019451924863688
30
0
41
1
10
156.922824541068
20
-0.110595746886645
30
0
41
1
10
156.873987438761
20
-0.20191553808371
30
0
41
1
10
156.825347517525
20
-0.293411608752933
30
0
0
SPLINE
5
F2
100
AcDbEntity
8
1
62
256
6
ByLayer
370
18
48
1
60
0
100
AcDbSpline
70
4
71
3
72
34
73
30
40
0
40
0
40
0
40
0
40
0.0780274522169273
40
0.0780274522169273
40
0.156054904433855
40
0.156054904433855
40
0.312109808867708
40
0.312109808867708
40
0.390137261084635
40
0.390137261084635
40
0.468164713301563
40
0.468164713301563
40
0.54619216551849
40
0.54619216551849
40
0.624219617735418
40
0.624219617735418
40
0.663233343843881
40
0.663233343843881
40
0.702247069952345
40
0.702247069952345
40
0.780274522169272
40
0.780274522169272
40
0.8583019743862
40
0.8583019743862
40
0.897315700494663
40
0.897315700494663
40
0.936329426603127
40
0.936329426603127
40
1
40
1
40
1
40
1
41
1
10
11.5062049976007
20
-5.52513968944976
30
0
41
1
10
11.870619794082
20
-5.55336721745746
30
0
41
1
10
12.2345771496558
20
-5.57421944443877
30
0
41
1
10
12.9611452651485
20
-5.60156496961341
30
0
41
1
10
13.3238391136933
20
-5.60730071186009
30
0
41
1
10
14.4131566852278
20
-5.60166143256055
30
0
41
1
10
15.1384895272321
20
-5.56899070046273
30
0
41
1
10
16.2300634902505
20
-5.4733118947498
30
0
41
1
10
16.5944967117836
20
-5.43386773557404
30
0
41
1
10
17.3214232249118
20
-5.34052610908685
30
0
41
1
10
17.6850519839631
20
-5.28695098242002
30
0
41
1
10
18.41122529294
20
-5.16556081833687
30
0
41
1
10
18.7740142545418
20
-5.0984381557918
30
0
41
1
10
19.4999170261856
20
-4.95102047964338
30
0
41
1
10
19.8631724360081
20
-4.86942804912042
30
0
41
1
10
20.4082825917349
20
-4.73704228670692
30
0
41
1
10
20.589957837777
20
-4.6911171797932
30
0
41
1
10
20.9538002966967
20
-4.59635603520283
30
0
41
1
10
21.136106366062
20
-4.54756549109823
30
0
41
1
10
21.6823801591935
20
-4.39649268273186
30
0
41
1
10
22.0459005887381
20
-4.28972111301493
30
0
41
1
10
22.7724334469076
20
-4.06555884532366
30
0
41
1
10
23.1355357812397
20
-3.94841055155467
30
0
41
1
10
23.6800901061313
20
-3.76555815865268
30
0
41
1
10
23.861564129304
20
-3.70324505041072
30
0
41
1
10
24.2244993077878
20
-3.57547479158862
30
0
41
1
10
24.4058755197304
20
-3.5099659028028
30
0
41
1
10
24.8840461308278
20
-3.33552750804719
30
0
41
1
10
25.1807361087475
20
-3.22423098806081
30
0
41
1
10
25.4776456176703
20
-3.10984368027954
30
0
0
SPLINE
5
F3
100
AcDbEntity
8
1
62
256
6
ByLayer
370
18
48
1
60
0
100
AcDbSpline
70
4
71
3
72
112
73
108
40
0
40
0
40
0
40
0
40
0.0040513001642029
40
0.0040513001642029
40
0.0258330472541603
40
0.0258330472541603
40
0.0476147943441177
40
0.0476147943441177
40
0.0693965414340753
40
0.0693965414340753
40
0.0911782885240327
40
0.0911782885240327
40
0.11296003561399
40
0.11296003561399
40
0.123850909158969
40
0.123850909158969
40
0.134741782703948
40
0.134741782703948
40
0.156523529793906
40
0.156523529793906
40
0.178305276883865
40
0.178305276883865
40
0.189196150428844
40
0.189196150428844
40
0.200087023973823
40
0.200087023973823
40
0.221868771063782
40
0.221868771063782
40
0.243650518153741
40
0.243650518153741
40
0.2654322652437
40
0.2654322652437
40
0.287214012333659
40
0.287214012333659
40
0.308995759423617
40
0.308995759423617
40
0.330777506513576
40
0.330777506513576
40
0.352559253603535
40
0.352559253603535
40
0.374341000693494
40
0.374341000693494
40
0.396122747783453
40
0.396122747783453
40
0.417904494873411
40
0.417904494873411
40
0.43968624196337
40
0.43968624196337
40
0.461467989053329
40
0.461467989053329
40
0.483249736143288
40
0.483249736143288
40
0.494140609688267
40
0.494140609688267
40
0.505031483233247
40
0.505031483233247
40
0.526813230323206
40
0.526813230323206
40
0.548594977413166
40
0.548594977413166
40
0.559485850958145
40
0.559485850958145
40
0.570376724503125
40
0.570376724503125
40
0.592158471593086
40
0.592158471593086
40
0.613940218683047
40
0.613940218683047
40
0.635721965773008
40
0.635721965773008
40
0.646612839317988
40
0.646612839317988
40
0.657503712862969
40
0.657503712862969
40
0.67928545995293
40
0.67928545995293
40
0.701067207042891
40
0.701067207042891
40
0.722848954132852
40
0.722848954132852
40
0.744630701222813
40
0.744630701222813
40
0.766412448312773
40
0.766412448312773
40
0.788194195402735
40
0.788194195402735
40
0.809975942492695
40
0.809975942492695
40
0.831757689582656
40
0.831757689582656
40
0.853539436672617
40
0.853539436672617
40
0.864430310217599
40
0.864430310217599
40
0.87532118376258
40
0.87532118376258
40
0.897102930852544
40
0.897102930852544
40
0.918884677942507
40
0.918884677942507
40
0.940666425032471
40
0.940666425032471
40
0.962448172122435
40
0.962448172122435
40
0.984229919212399
40
0.984229919212399
40
1
40
1
40
1
40
1
41
1
10
51.6439975983083
20
5.62892266465073
30
0
41
1
10
51.7115283499211
20
5.62891954541581
30
0
41
1
10
51.7790516929778
20
5.62866108408195
30
0
41
1
10
52.2095775869196
20
5.62543352204509
30
0
41
1
10
52.5725021465672
20
5.6156371482287
30
0
41
1
10
53.2989359976396
20
5.5802748404557
30
0
41
1
10
53.6623090691747
20
5.55447717046891
30
0
41
1
10
54.3894303693747
20
5.48849234102806
30
0
41
1
10
54.7542455955502
20
5.44885422400628
30
0
41
1
10
55.4817006003918
20
5.35413259840655
30
0
41
1
10
55.8448577134486
20
5.29887163491648
30
0
41
1
10
56.5710658512911
20
5.17494398471283
30
0
41
1
10
56.9341376714956
20
5.10660553676175
30
0
41
1
10
57.47851387455
20
4.9934257404839
30
0
41
1
10
57.6598779839537
20
4.95381104581261
30
0
41
1
10
58.0229298453658
20
4.87129430950657
30
0
41
1
10
58.204696710743
20
4.82851679362523
30
0
41
1
10
58.7499727082284
20
4.69511629856257
30
0
41
1
10
59.1138576720861
20
4.5997501035869
30
0
41
1
10
59.8418212642758
20
4.39671509881384
30
0
41
1
10
60.2053448220263
20
4.28908688642744
30
0
41
1
10
60.7502442707396
20
4.11952949658098
30
0
41
1
10
60.9317797782675
20
4.06164898830508
30
0
41
1
10
61.2946595728141
20
3.94325507808887
30
0
41
1
10
61.4759167887657
20
3.88254068996955
30
0
41
1
10
62.0203982236138
20
3.69710342279544
30
0
41
1
10
62.3834589123916
20
3.56800638055714
30
0
41
1
10
63.1096585526473
20
3.30031979550904
30
0
41
1
10
63.472868725387
20
3.16221751095748
30
0
41
1
10
64.2006008398628
20
2.87724925866337
30
0
41
1
10
64.5649335839194
20
2.73021595194345
30
0
41
1
10
65.2915693773249
20
2.42929281551514
30
0
41
1
10
65.6547751490481
20
2.27632130143914
30
0
41
1
10
66.3807895070875
20
1.96430995742267
30
0
41
1
10
66.7435419137657
20
1.80473806815903
30
0
41
1
10
67.4694891334775
20
1.48172136622947
30
0
41
1
10
67.8327240197634
20
1.318436617061
30
0
41
1
10
68.5596604706134
20
0.987825885383273
30
0
41
1
10
68.9237297833751
20
0.819707431385353
30
0
41
1
10
69.65162170837
20
0.484185943964434
30
0
41
1
10
70.0150295117297
20
0.315579876945094
30
0
41
1
10
70.7411799216052
20
-0.0224313084333687
30
0
41
1
10
71.1040569524056
20
-0.191457273241923
30
0
41
1
10
71.8301636606744
20
-0.528064328698207
30
0
41
1
10
72.1932201745644
20
-0.696020686682687
30
0
41
1
10
72.919337655548
20
-1.03128260096563
30
0
41
1
10
73.2833131281646
20
-1.19656202839903
30
0
41
1
10
74.0117718882007
20
-1.52529116966519
30
0
41
1
10
74.3753413042415
20
-1.68785822370251
30
0
41
1
10
75.1020630425915
20
-2.00784584631956
30
0
41
1
10
75.4652507577524
20
-2.16489484406486
30
0
41
1
10
76.0096646707005
20
-2.39595585761805
30
0
41
1
10
76.1910163341392
20
-2.47241027971236
30
0
41
1
10
76.5539271942517
20
-2.6233843515439
30
0
41
1
10
76.735593056123
20
-2.69770846129879
30
0
41
1
10
77.2804411145608
20
-2.91867606601193
30
0
41
1
10
77.6436935202225
20
-3.06278209870072
30
0
41
1
10
78.3712935736851
20
-3.34173652378686
30
0
41
1
10
78.7357619408024
20
-3.47683734932448
30
0
41
1
10
79.2813290403032
20
-3.6726795834798
30
0
41
1
10
79.4630514128441
20
-3.73693337342166
30
0
41
1
10
79.8262435229392
20
-3.86241138294415
30
0
41
1
10
80.0076295229175
20
-3.92387095492086
30
0
41
1
10
80.5523857414739
20
-4.10313995559164
30
0
41
1
10
80.9155115653334
20
-4.21705452348212
30
0
41
1
10
81.6414844041599
20
-4.43547085678244
30
0
41
1
10
82.0045152761471
20
-4.53890271852035
30
0
41
1
10
82.7316686244593
20
-4.73224432257439
30
0
41
1
10
83.0960866856094
20
-4.82235283890682
30
0
41
1
10
83.641837443256
20
-4.94922219476106
30
0
41
1
10
83.8235729864728
20
-4.98998121231929
30
0
41
1
10
84.1872185868976
20
-5.06735322406809
30
0
41
1
10
84.3689405752772
20
-5.10422422092535
30
0
41
1
10
84.9138392017425
20
-5.20953267607419
30
0
41
1
10
85.2767152372888
20
-5.27235056121987
30
0
41
1
10
86.0025849181798
20
-5.38555622375188
30
0
41
1
10
86.365653854351
20
-5.43524970174431
30
0
41
1
10
87.092216010627
20
-5.51853770276154
30
0
41
1
10
87.4555308374103
20
-5.55235157055159
30
0
41
1
10
88.1839337643253
20
-5.6062350066592
30
0
41
1
10
88.5478655681501
20
-5.62662638534698
30
0
41
1
10
89.2744391645492
20
-5.64999618156972
30
0
41
1
10
89.6374113225482
20
-5.65349484229301
30
0
41
1
10
90.3634219610146
20
-5.64654651904982
30
0
41
1
10
90.7262545340159
20
-5.63655578320783
30
0
41
1
10
91.451866590719
20
-5.59917680746275
30
0
41
1
10
91.8154764522478
20
-5.57255622939823
30
0
41
1
10
92.5428043773165
20
-5.50503315463573
30
0
41
1
10
92.9069651976711
20
-5.46469018513531
30
0
41
1
10
93.6340153814795
20
-5.36791422166752
30
0
41
1
10
93.9972576077103
20
-5.31187096493082
30
0
41
1
10
94.5415521867192
20
-5.21745756969048
30
0
41
1
10
94.7228356994267
20
-5.18424643784417
30
0
41
1
10
95.0855108330207
20
-5.11475255316029
30
0
41
1
10
95.2670342387491
20
-5.07851986302953
30
0
41
1
10
95.811404275311
20
-4.96398096368767
30
0
41
1
10
96.1742770738649
20
-4.88023380814508
30
0
41
1
10
96.9006787639013
20
-4.70015053865274
30
0
41
1
10
97.264529275596
20
-4.60405640184359
30
0
41
1
10
97.9923264221461
20
-4.39907211153812
30
0
41
1
10
98.3552684515716
20
-4.28962725508987
30
0
41
1
10
99.0814694838596
20
-4.06152399646928
30
0
41
1
10
99.44439169733
20
-3.94247384329265
30
0
41
1
10
100.169783444965
20
-3.69293933534161
30
0
41
1
10
100.532434262621
20
-3.56261582198326
30
0
41
1
10
101.158274858635
20
-3.33055353112493
30
0
41
1
10
101.42125646538
20
-3.23088015963168
30
0
41
1
10
101.684375287354
20
-3.12873669407199
30
0
0
SPLINE
5
F4
100
AcDbEntity
8
1
62
256
6
ByLayer
370
18
48
1
60
0
100
AcDbSpline
70
4
71
3
72
54
73
50
40
0
40
0
40
0
40
0
40
0.0128793553630212
40
0.0128793553630212
40
0.059885100345734
40
0.059885100345734
40
0.106890845328448
40
0.106890845328448
40
0.15389659031116
40
0.15389659031116
40
0.200902335293874
40
0.200902335293874
40
0.247908080276587
40
0.247908080276587
40
0.2949138252593
40
0.2949138252593
40
0.318416697750657
40
0.318416697750657
40
0.341919570242014
40
0.341919570242014
40
0.388925315224727
40
0.388925315224727
40
0.435931060207441
40
0.435931060207441
40
0.482936805190153
40
0.482936805190153
40
0.50643967768151
40
0.50643967768151
40
0.529942550172868
40
0.529942550172868
40
0.576948295155581
40
0.576948295155581
40
0.623954040138294
40
0.623954040138294
40
0.670959785121007
40
0.670959785121007
40
0.71796553010372
40
0.71796553010372
40
0.764971275086433
40
0.764971275086433
40
0.811977020069147
40
0.811977020069147
40
0.85898276505186
40
0.85898276505186
40
0.905988510034573
40
0.905988510034573
40
0.952994255017286
40
0.952994255017286
40
1
40
1
40
1
40
1
41
1
10
127.833963008674
20
5.67453971303593
30
0
41
1
10
127.93331001611
20
5.67461047214974
30
0
41
1
10
128.032632218572
20
5.67414669806195
30
0
41
1
10
128.494331475524
20
5.66957025919697
30
0
41
1
10
128.857195183828
20
5.65853341407219
30
0
41
1
10
129.58283218322
20
5.61969961778937
30
0
41
1
10
129.945778023214
20
5.59223583320968
30
0
41
1
10
130.672634633911
20
5.52442409173648
30
0
41
1
10
131.036730972539
20
5.48296354896399
30
0
41
1
10
131.762959580049
20
5.38445132148502
30
0
41
1
10
132.125563832115
20
5.32743846053523
30
0
41
1
10
132.851012405034
20
5.20155125979622
30
0
41
1
10
133.213430967713
20
5.13150858109211
30
0
41
1
10
133.938522242049
20
4.97668338980606
30
0
41
1
10
134.301309722818
20
4.89210604363004
30
0
41
1
10
134.846027968367
20
4.75666744546038
30
0
41
1
10
135.027652742542
20
4.71001716151045
30
0
41
1
10
135.39108232859
20
4.61307691715638
30
0
41
1
10
135.572839851622
20
4.56268320749953
30
0
41
1
10
136.117995309851
20
4.40764827812993
30
0
41
1
10
136.481173869276
20
4.2983049497638
30
0
41
1
10
137.206537824223
20
4.0689568975157
30
0
41
1
10
137.568888164576
20
3.94900631264366
30
0
41
1
10
138.293937820432
20
3.69799296850204
30
0
41
1
10
138.656642640774
20
3.56724989013563
30
0
41
1
10
139.200697177028
20
3.36392300524511
30
0
41
1
10
139.381985071664
20
3.29490789813644
30
0
41
1
10
139.745237072021
20
3.15534764408045
30
0
41
1
10
139.926988389552
20
3.0843676777308
30
0
41
1
10
140.472597659108
20
2.86790010958052
30
0
41
1
10
140.835867504541
20
2.71925728863337
30
0
41
1
10
141.561603328549
20
2.4159437782906
30
0
41
1
10
141.924279971976
20
2.26125986453619
30
0
41
1
10
142.649363536373
20
1.94581683659945
30
0
41
1
10
143.011481703416
20
1.78453508905108
30
0
41
1
10
143.737005552155
20
1.45946054958514
30
0
41
1
10
144.099876266944
20
1.2945224679286
30
0
41
1
10
144.826360326142
20
0.960545337197715
30
0
41
1
10
145.190237010537
20
0.7917042345575
30
0
41
1
10
145.916698908867
20
0.453611747234646
30
0
41
1
10
146.279509904962
20
0.28390040046321
30
0
41
1
10
147.004274245197
20
-0.0568531452382786
30
0
41
1
10
147.366992375246
20
-0.226254186156694
30
0
41
1
10
148.092108583551
20
-0.565270833232631
30
0
41
1
10
148.454603968716
20
-0.734676821780965
30
0
41
1
10
149.180545328118
20
-1.07095038830985
30
0
41
1
10
149.544452670186
20
-1.23780272509012
30
0
41
1
10
150.2711394358
20
-1.56854255622719
30
0
41
1
10
150.633633760238
20
-1.73242803219898
30
0
41
1
10
150.995936266019
20
-1.89242071595592
30
0
0
SPLINE
5
F5
100
AcDbEntity
8
1
62
256
6
ByLayer
370
18
48
1
60
0
100
AcDbSpline
70
4
71
3
72
14
73
10
40
0
40
0
40
0
40
0
40
0.25
40
0.25
40
0.500000000000001
40
0.500000000000001
40
0.75
40
0.75
40
1
40
1
40
1
40
1
41
1
10
154.97130089707
20
-5.68007282009253
30
0
41
1
10
154.973764523315
20
-5.67912825441903
30
0
41
1
10
154.975529704649
20
-5.68004247685195
30
0
41
1
10
154.977208797064
20
-5.68672518097512
30
0
41
1
10
154.977039821136
20
-5.69252447606289
30
0
41
1
10
154.974173326643
20
-5.70917103853114
30
0
41
1
10
154.971407168385
20
-5.72019001789405
30
0
41
1
10
154.963839537548
20
-5.74472492165179
30
0
41
1
10
154.959078831403
20
-5.75816414821836
30
0
41
1
10
154.954008677571
20
-5.77118226219696
30
0
0
SPLINE
5
F6
100
AcDbEntity
8
1
62
256
6
ByLayer
370
18
48
1
60
0
100
AcDbSpline
70
4
71
3
72
36
73
32
40
0
40
0
40
0
40
0
40
0.113388541002855
40
0.113388541002855
40
0.315072757962377
40
0.315072757962377
40
0.415914866442139
40
0.415914866442139
40
0.5167569749219
40
0.5167569749219
40
0.52936223848187
40
0.52936223848187
40
0.535664870261855
40
0.535664870261855
40
0.54196750204184
40
0.54196750204184
40
0.548270133821825
40
0.548270133821825
40
0.55457276560181
40
0.55457276560181
40
0.56717802916178
40
0.56717802916178
40
0.617599083401661
40
0.617599083401661
40
0.718441191881422
40
0.718441191881422
40
0.819283300361183
40
0.819283300361183
40
0.920125408840945
40
0.920125408840945
40
1
40
1
40
1
40
1
41
1
10
11.5062049976007
20
3.3724041231475
30
0
41
1
10
11.5062049976007
20
3.11929336189058
30
0
41
1
10
11.5062049976007
20
2.85732370306817
30
0
41
1
10
11.5062049976007
20
2.10597310771115
30
0
41
1
10
11.5062049976007
20
1.59831669291731
30
0
41
1
10
11.5062049976007
20
0.797436916747557
30
0
41
1
10
11.5062049976007
20
0.523459758236555
30
0
41
1
10
11.5062049976007
20
-0.035727615716354
30
0
41
1
10
11.5062049976007
20
-0.320616322467316
30
0
41
1
10
11.5062049976007
20
-0.647087436841161
30
0
41
1
10
11.5062049976007
20
-0.683451536087802
30
0
41
1
10
11.5062049976007
20
-0.738100296050078
30
0
41
1
10
11.5062049976007
20
-0.756330134038478
30
0
41
1
10
11.5062049976007
20
-0.792816936901232
30
0
41
1
10
11.5062049976007
20
-0.810956526206098
30
0
41
1
10
11.5062049976007
20
-0.848980007359472
30
0
41
1
10
11.5062049976007
20
-0.868650757529821
30
0
41
1
10
11.5062049976007
20
-0.909680515955074
30
0
41
1
10
11.5062049976007
20
-0.931300390054844
30
0
41
1
10
11.5062049976007
20
-0.995377166704998
30
0
41
1
10
11.5062049976007
20
-1.03815874700211
30
0
41
1
10
11.5062049976007
20
-1.25213850303052
30
0
41
1
10
11.5062049976007
20
-1.42356700155645
30
0
41
1
10
11.5062049976007
20
-1.93860399198164
30
0
41
1
10
11.5062049976007
20
-2.28296275350101
30
0
41
1
10
11.5062049976007
20
-2.97380093208881
30
0
41
1
10
11.5062049976007
20
-3.32035250318151
30
0
41
1
10
11.5062049976007
20
-4.01544519581296
30
0
41
1
10
11.5062049976007
20
-4.36186142846643
30
0
41
1
10
11.5062049976007
20
-4.98052982322608
30
0
41
1
10
11.5062049976007
20
-5.25323228931899
30
0
41
1
10
11.5062049976007
20
-5.52513968944996
30
0
0
SPLINE
5
F7
100
AcDbEntity
8
1
62
256
6
ByLayer
370
18
48
1
60
0
100
AcDbSpline
70
4
71
3
72
8
73
4
40
0
40
0
40
0
40
0
40
1
40
1
40
1
40
1
41
1
10
154.862319298929
20
6.00606496346168
30
0
41
1
10
154.542230255941
20
6.01843903173796
30
0
41
1
10
154.22192481744
20
6.02448856755021
30
0
41
1
10
153.901672483149
20
6.02424814394001
30
0
0
SPLINE
5
F8
100
AcDbEntity
8
1
62
256
6
ByLayer
370
18
48
1
60
0
100
AcDbSpline
70
4
71
3
72
62
73
58
40
0
40
0
40
0
40
0
40
0.0382941079817049
40
0.0382941079817049
40
0.0654916746241535
40
0.0654916746241535
40
0.092689241266602
40
0.092689241266602
40
0.147084374551499
40
0.147084374551499
40
0.174281941193948
40
0.174281941193948
40
0.201479507836396
40
0.201479507836396
40
0.255874641121294
40
0.255874641121294
40
0.283072207763743
40
0.283072207763743
40
0.310269774406193
40
0.310269774406193
40
0.36466490769109
40
0.36466490769109
40
0.391862474333538
40
0.391862474333538
40
0.419060040975987
40
0.419060040975987
40
0.473455174260886
40
0.473455174260886
40
0.500652740903336
40
0.500652740903336
40
0.527850307545786
40
0.527850307545786
40
0.582245440830685
40
0.582245440830685
40
0.609443007473134
40
0.609443007473134
40
0.636640574115583
40
0.636640574115583
40
0.69103570740048
40
0.69103570740048
40
0.718233274042928
40
0.718233274042928
40
0.745430840685377
40
0.745430840685377
40
0.799825973970274
40
0.799825973970274
40
0.827023540612723
40
0.827023540612723
40
0.854221107255172
40
0.854221107255172
40
0.908616240540069
40
0.908616240540069
40
0.935813807182518
40
0.935813807182518
40
0.963011373824967
40
0.963011373824967
40
1
40
1
40
1
40
1
41
1
10
119.83444775183
20
-5.67446478055382
30
0
41
1
10
119.297510424491
20
-5.76086324955867
30
0
41
1
10
118.760603017521
20
-5.830552832335
30
0
41
1
10
117.840858507165
20
-5.92018675714286
30
0
41
1
10
117.458003871255
20
-5.94870726106234
30
0
41
1
10
116.693474128113
20
-5.98784206961599
30
0
41
1
10
116.311764335174
20
-5.9984857186497
30
0
41
1
10
115.167224964705
20
-6.00368253277472
30
0
41
1
10
114.405069565861
20
-5.97147792996466
30
0
41
1
10
113.25898235323
20
-5.8702286143513
30
0
41
1
10
112.876059418135
20
-5.82759199545401
30
0
41
1
10
112.111551376231
20
-5.72518952876803
30
0
41
1
10
111.729832941726
20
-5.66544905866803
30
0
41
1
10
110.585169167621
20
-5.46150124085531
30
0
41
1
10
109.822947253547
20
-5.29236852578623
30
0
41
1
10
108.676669560037
20
-4.99262749900763
30
0
41
1
10
108.293678415965
20
-4.88490027664793
30
0
41
1
10
107.529150357867
20
-4.65551625961515
30
0
41
1
10
107.147424678899
20
-4.53386226774981
30
0
41
1
10
106.002736335714
20
-4.14961334534001
30
0
41
1
10
105.240373839417
20
-3.8675698207185
30
0
41
1
10
104.093937580573
20
-3.41168205581025
30
0
41
1
10
103.710933135675
20
-3.25402500239269
30
0
41
1
10
102.946388553684
20
-2.9301057538988
30
0
41
1
10
102.564615146975
20
-2.76380121998892
30
0
41
1
10
101.419860496124
20
-2.25359192547285
30
0
41
1
10
100.657395355103
20
-1.89847464854771
30
0
41
1
10
99.5108068875811
20
-1.35080030676932
30
0
41
1
10
99.1277572994126
20
-1.16552999371041
30
0
41
1
10
98.363156559712
20
-0.792925778323053
30
0
41
1
10
97.9813433624838
20
-0.605469570487514
30
0
41
1
10
96.8364594048426
20
-0.0414832405729442
30
0
41
1
10
96.073939807847
20
0.336656155111854
30
0
41
1
10
94.927153935006
20
0.898712543565608
30
0
41
1
10
94.5440595932031
20
1.08542420198134
30
0
41
1
10
93.7794693634291
20
1.45422935209231
30
0
41
1
10
93.3976608248238
20
1.63645675194212
30
0
41
1
10
92.2526711904569
20
2.17464832687611
30
0
41
1
10
91.4900604086096
20
2.52237387750773
30
0
41
1
10
90.3431084126429
20
3.01954800783662
30
0
41
1
10
89.9599485736444
20
3.18130431743424
30
0
41
1
10
89.1953276940781
20
3.49419670765693
30
0
41
1
10
88.8135202324125
20
3.64547285724837
30
0
41
1
10
87.6684935284582
20
4.08206125280841
30
0
41
1
10
86.9057607450737
20
4.35027138930354
30
0
41
1
10
85.7586037028166
20
4.71236158727791
30
0
41
1
10
85.3754181502014
20
4.82641373339095
30
0
41
1
10
84.6107840743626
20
5.03930868885638
30
0
41
1
10
84.2289509888234
20
5.13825904499782
30
0
41
1
10
83.0838332620995
20
5.41160104387595
30
0
41
1
10
82.3210380395955
20
5.56257160063006
30
0
41
1
10
81.1736773582883
20
5.7385549413774
30
0
41
1
10
80.7904921912648
20
5.78883779709619
30
0
41
1
10
80.0258307969582
20
5.87174531083662
30
0
41
1
10
79.6439408157177
20
5.90443910225204
30
0
41
1
10
78.7430587632026
20
5.96079615055203
30
0
41
1
10
78.2241733222437
20
5.9769456323109
30
0
41
1
10
77.704700480178
20
5.97664953752806
30
0
0
SPLINE
5
F9
100
AcDbEntity
8
1
62
256
6
ByLayer
370
18
48
1
60
0
100
AcDbSpline
70
4
71
3
72
46
73
42
40
0
40
0
40
0
40
0
40
0.0267955562220638
40
0.0267955562220638
40
0.0916758524739254
40
0.0916758524739254
40
0.124116000599857
40
0.124116000599857
40
0.156556148725788
40
0.156556148725788
40
0.221436444977652
40
0.221436444977652
40
0.253876593103584
40
0.253876593103584
40
0.286316741229515
40
0.286316741229515
40
0.351197037481379
40
0.351197037481379
40
0.383637185607311
40
0.383637185607311
40
0.416077333733243
40
0.416077333733243
40
0.480957629985106
40
0.480957629985106
40
0.513397778111037
40
0.513397778111037
40
0.545837926236969
40
0.545837926236969
40
0.610718222488831
40
0.610718222488831
40
0.675598518740692
40
0.675598518740692
40
0.740478814992554
40
0.740478814992554
40
0.805359111244415
40
0.805359111244415
40
0.870239407496277
40
0.870239407496277
40
0.935119703748138
40
0.935119703748138
40
1
40
1
40
1
40
1
41
1
10
43.5134299164279
20
-5.64846498232086
30
0
41
1
10
43.1976322384434
20
-5.69740365914208
30
0
41
1
10
42.8820642317492
20
-5.74055677529
30
0
41
1
10
41.8026149157108
20
-5.86812012062001
30
0
41
1
10
41.038922019987
20
-5.92392318879399
30
0
41
1
10
39.8898501919968
20
-5.95432652926257
30
0
41
1
10
39.5066406109234
20
-5.95554811531889
30
0
41
1
10
38.7417100694502
20
-5.94023944640014
30
0
41
1
10
38.3596343095687
20
-5.92372241555137
30
0
41
1
10
37.2136259278568
20
-5.84784019864392
30
0
41
1
10
36.4498387638608
20
-5.76214493810835
30
0
41
1
10
35.3005496169082
20
-5.58237523020645
30
0
41
1
10
34.9173471056315
20
-5.51398645837727
30
0
41
1
10
34.1524075235441
20
-5.36124180413685
30
0
41
1
10
33.7703297412968
20
-5.27682940283054
30
0
41
1
10
32.6242083870265
20
-5.00053813398409
30
0
41
1
10
31.8603314753005
20
-4.78553843149481
30
0
41
1
10
30.7108378638253
20
-4.42113815313525
30
0
41
1
10
30.3276741246553
20
-4.29286523049103
30
0
41
1
10
29.5627217447228
20
-4.02436798705597
30
0
41
1
10
29.1806127474897
20
-3.88406380031293
30
0
41
1
10
28.0343371812466
20
-3.44667070512619
30
0
41
1
10
27.270441011518
20
-3.13272754583505
30
0
41
1
10
26.1207588092445
20
-2.6353188348117
30
0
41
1
10
25.7376157383539
20
-2.46540008969958
30
0
41
1
10
24.9725813730563
20
-2.11933820440629
30
0
41
1
10
24.5904185636136
20
-1.94308699981585
30
0
41
1
10
23.4440464829729
20
-1.40652845628969
30
0
41
1
10
22.6801310505225
20
-1.03804988487795
30
0
41
1
10
21.1470212083016
20
-0.291328664978522
30
0
41
1
10
20.3820421598185
20
0.0847420710773861
30
0
41
1
10
18.8532702889364
20
0.830756811721358
30
0
41
1
10
18.0892604732732
20
1.20147124404352
30
0
41
1
10
16.5558568536515
20
1.92578367485629
30
0
41
1
10
15.7910503022445
20
2.27739919315633
30
0
41
1
10
14.2622847617737
20
2.94895116616433
30
0
41
1
10
13.4979842933807
20
3.26908688265945
30
0
41
1
10
11.9641886298589
20
3.86836080382616
30
0
41
1
10
11.1996717453982
20
4.1457260051487
30
0
41
1
10
9.67107353965076
20
4.64741875265742
30
0
41
1
10
8.90672905985872
20
4.87181779615597
30
0
41
1
10
8.14007926586896
20
5.06669517582498
30
0
0
SPLINE
5
FA
100
AcDbEntity
8
1
62
256
6
ByLayer
370
18
48
1
60
0
100
AcDbSpline
70
4
71
3
72
8
73
4
40
0
40
0
40
0
40
0
40
1
40
1
40
1
40
1
41
1
10
155.058529549263
20
-5.85864742584846
30
0
41
1
10
154.984100233263
20
-5.93175376967321
30
0
41
1
10
154.918884309295
20
-5.98112119101464
30
0
41
1
10
154.862319298929
20
-6.00606496346168
30
0
0
SPLINE
5
FB
100
AcDbEntity
8
1
62
256
6
ByLayer
370
18
48
1
60
0
100
AcDbSpline
70
4
71
3
72
19
73
15
40
0
40
0
40
0
40
0
40
0.056049730032744
40
0.143683962336309
40
0.230725966586014
40
0.341797074087818
40
0.461656087134544
40
0.508822481352551
40
0.546527643417505
40
0.575012418911197
40
0.616127335247876
40
0.71193436387025
40
0.855256262252238
40
1
40
1
40
1
40
1
41
1
10
13.5515747912509
20
5.6057718445322
30
0
41
1
10
13.4525297167069
20
5.60577884360688
30
0
41
1
10
13.1986268654083
20
5.60573945532653
30
0
41
1
10
12.7909125350221
20
5.60548124939524
30
0
41
1
10
12.2859715295144
20
5.60470483535389
30
0
41
1
10
11.7240875822558
20
5.60443954071718
30
0
41
1
10
11.2326642069102
20
5.60431531035599
30
0
41
1
10
10.8708870349601
20
5.6042255428581
30
0
41
1
10
10.6705772252802
20
5.60417257255159
30
0
41
1
10
10.4809584236119
20
5.60411752143284
30
0
41
1
10
10.1886787199704
20
5.60401982185036
30
0
41
1
10
9.69348810003447
20
5.60379550245858
30
0
41
1
10
9.01513656154009
20
5.60320587456377
30
0
41
1
10
8.50611911152973
20
5.60249090647901
30
0
41
1
10
8.25035568989463
20
5.60206430578356
30
0
0
SPLINE
5
FC
100
AcDbEntity
8
1
62
256
6
ByLayer
370
18
48
1
60
0
100
AcDbSpline
70
4
71
3
72
17
73
13
40
0
40
0
40
0
40
0
40
0.100503885256635
40
0.199443766411831
40
0.303357637800386
40
0.411863860238454
40
0.526068765409809
40
0.641678631398286
40
0.775754645631303
40
0.882512978200019
40
0.963528737412417
40
1
40
1
40
1
40
1
41
1
10
127.839729915753
20
5.67460088963179
30
0
41
1
10
127.569806639874
20
5.67468095501107
30
0
41
1
10
127.034160592484
20
5.67466336645444
30
0
41
1
10
126.219431214623
20
5.67457252400629
30
0
41
1
10
125.383214438994
20
5.67293718322762
30
0
41
1
10
124.505996936712
20
5.67387700853251
30
0
41
1
10
123.597366264464
20
5.67230803027394
30
0
41
1
10
122.620072236714
20
5.67252493917411
30
0
41
1
10
121.662767594963
20
5.67167602386118
30
0
41
1
10
120.798379173466
20
5.67109966031273
30
0
41
1
10
120.196127161507
20
5.67130428292
30
0
41
1
10
119.880590509621
20
5.67110247749454
30
0
41
1
10
119.782639506966
20
5.67102606729313
30
0
0
SPLINE
5
FD
100
AcDbEntity
8
1
62
256
6
ByLayer
370
18
48
1
60
0
100
AcDbSpline
70
4
71
1
72
4
73
2
40
0
40
0
40
1
40
1
41
1
10
154.146172876543
20
-5.6931568077932
30
0
41
1
10
154.911862297121
20
-5.69351857068202
30
0
0
SPLINE
5
FE
100
AcDbEntity
8
1
62
256
6
ByLayer
370
18
48
1
60
0
100
AcDbSpline
70
4
71
3
72
21
73
17
40
0
40
0
40
0
40
0
40
0.0647933342793373
40
0.121254307949596
40
0.187595877762546
40
0.269324304538516
40
0.341951217461218
40
0.399037857199113
40
0.465567114761844
40
0.556206044235918
40
0.626686531089595
40
0.675116916048726
40
0.750447682333345
40
0.842584019086523
40
0.918702506784852
40
1
40
1
40
1
40
1
41
1
10
51.6609886315858
20
5.62892301942665
30
0
41
1
10
51.485225249459
20
5.62902654556413
30
0
41
1
10
51.1563975338362
20
5.62902882104632
30
0
41
1
10
50.6485915854557
20
5.62856960223124
30
0
41
1
10
50.0936990913614
20
5.62723959962273
30
0
41
1
10
49.4957161342596
20
5.62735750743383
30
0
41
1
10
48.9224723110282
20
5.62740285639759
30
0
41
1
10
48.3903685453352
20
5.62701872014688
30
0
41
1
10
47.8094271756411
20
5.62605755005933
30
0
41
1
10
47.1921689325861
20
5.62610694284649
30
0
41
1
10
46.6240334882798
20
5.62599416757718
30
0
41
1
10
46.0973092053502
20
5.62553065059279
30
0
41
1
10
45.5122589355383
20
5.62459792682253
30
0
41
1
10
44.8520144734004
20
5.62458119874932
30
0
41
1
10
44.1754300751828
20
5.6245428947976
30
0
41
1
10
43.7490749060817
20
5.62399738381887
30
0
41
1
10
43.5287424813349
20
5.62379947048774
30
0
0
SPLINE
5
FF
100
AcDbEntity
8
1
62
256
6
ByLayer
370
18
48
1
60
0
100
AcDbSpline
70
4
71
3
72
25
73
21
40
0
40
0
40
0
40
0
40
0.0832912089279202
40
0.154073942796685
40
0.213127523144073
40
0.262066695770662
40
0.314699783147422
40
0.374028461539334
40
0.429132940849927
40
0.477576666908924
40
0.53947721485187
40
0.600103348406999
40
0.656987516451367
40
0.706653957816298
40
0.752293992803659
40
0.797224813530539
40
0.852444309352356
40
0.911382092543636
40
0.959489701911344
40
1
40
1
40
1
40
1
41
1
10
77.856359444011
20
-5.64514996799488
30
0
41
1
10
78.1856359927222
20
-5.64487976913023
30
0
41
1
10
78.7945826427062
20
-5.64464256764791
30
0
41
1
10
79.6368084083867
20
-5.64666465212338
30
0
41
1
10
80.342566767446
20
-5.64625366660786
30
0
41
1
10
80.9790407045485
20
-5.64686094313026
30
0
41
1
10
81.6169884303376
20
-5.64745564194109
30
0
41
1
10
82.2796514673463
20
-5.6479534279182
30
0
41
1
10
82.9256088492017
20
-5.64793687789702
30
0
41
1
10
83.5818017286716
20
-5.64830627373982
30
0
41
1
10
84.2598725051203
20
-5.64918783601445
30
0
41
1
10
84.9714367379318
20
-5.64921427998041
30
0
41
1
10
85.6344684745783
20
-5.64905382929928
30
0
41
1
10
86.238070482897
20
-5.65033518682583
30
0
41
1
10
86.7942640783476
20
-5.65050587938413
30
0
41
1
10
87.3724801501835
20
-5.65032104520805
30
0
41
1
10
88.0034385286458
20
-5.65003741831381
30
0
41
1
10
88.6469940792001
20
-5.65171084476069
30
0
41
1
10
89.232212916839
20
-5.65155521889218
30
0
41
1
10
89.5836791114556
20
-5.65144295525738
30
0
41
1
10
89.7443464285644
20
-5.65132777023371
30
0
0
SPLINE
5
100
100
AcDbEntity
8
1
62
256
6
ByLayer
370
18
48
1
60
0
100
AcDbSpline
70
4
71
3
72
26
73
22
40
0
40
0
40
0
40
0
40
0.0783953721849785
40
0.141123783807249
40
0.194416429694383
40
0.248923585159631
40
0.286252782051425
40
0.319442306423099
40
0.357113366899512
40
0.405808207974113
40
0.470476597449093
40
0.524809475995401
40
0.567554392956095
40
0.617500689808002
40
0.671808105275118
40
0.716617912266274
40
0.775546181037951
40
0.854590632578903
40
0.921715836722919
40
0.983176924841597
40
1
40
1
40
1
40
1
41
1
10
116.033151511549
20
-5.66907740230121
30
0
41
1
10
116.338996091572
20
-5.66901194463637
30
0
41
1
10
116.889727213775
20
-5.66905342759216
30
0
41
1
10
117.651109169282
20
-5.66976969772423
30
0
41
1
10
118.315545442757
20
-5.67025453503135
30
0
41
1
10
118.88377990855
20
-5.67028226861981
30
0
41
1
10
119.372686675442
20
-5.67065402260661
30
0
41
1
10
119.795879239263
20
-5.67108530051257
30
0
41
1
10
120.263479953259
20
-5.67130122205444
30
0
41
1
10
120.854220211373
20
-5.67113186222772
30
0
41
1
10
121.51017238271
20
-5.67145621353095
30
0
41
1
10
122.142670835055
20
-5.67236598028961
30
0
41
1
10
122.71720358934
20
-5.67227954383387
30
0
41
1
10
123.292389986187
20
-5.67217379314266
30
0
41
1
10
123.875047476314
20
-5.67291683540736
30
0
41
1
10
124.493264848526
20
-5.67363900961377
30
0
41
1
10
125.208130106363
20
-5.67315607580161
30
0
41
1
10
126.010426337689
20
-5.67394705788024
30
0
41
1
10
126.822250610633
20
-5.6750693230978
30
0
41
1
10
127.390835076602
20
-5.67401730023585
30
0
41
1
10
127.696944718535
20
-5.67442246915172
30
0
41
1
10
127.762727221512
20
-5.67452243744916
30
0
0
SPLINE
5
101
100
AcDbEntity
8
1
62
256
6
ByLayer
370
18
48
1
60
0
100
AcDbSpline
70
4
71
3
72
22
73
18
40
0
40
0
40
0
40
0
40
0.0701574592135236
40
0.13261269622572
40
0.20057295544129
40
0.287718918443494
40
0.360663176471617
40
0.40743223489602
40
0.461359101888969
40
0.536364922130318
40
0.608463760265277
40
0.668954370572238
40
0.733383869293658
40
0.811363382716591
40
0.880781066905553
40
0.93973698517488
40
1
40
1
40
1
40
1
41
1
10
89.7428588888884
20
5.65132909382743
30
0
41
1
10
89.5534154178196
20
5.65147535723875
30
0
41
1
10
89.1953264673787
20
5.65157952326405
30
0
41
1
10
88.6537262306804
20
5.65163002698091
30
0
41
1
10
88.0662541796693
20
5.65028606005285
30
0
41
1
10
87.4504591776024
20
5.65019162433072
30
0
41
1
10
86.8918840680545
20
5.65050915196173
30
0
41
1
10
86.4230101482613
20
5.6503931204968
30
0
41
1
10
85.9485712091767
20
5.64978830174562
30
0
41
1
10
85.4057348625919
20
5.64895071982605
30
0
41
1
10
84.8451717885146
20
5.64925906937839
30
0
41
1
10
84.3131714131829
20
5.6491097217918
30
0
41
1
10
83.7652881176416
20
5.64865956447645
30
0
41
1
10
83.1933013489677
20
5.64793291502355
30
0
41
1
10
82.6360918657775
20
5.64800313271749
30
0
41
1
10
82.1267348853486
20
5.6478294711095
30
0
41
1
10
81.8048024647981
20
5.64760591104138
30
0
41
1
10
81.6420822293043
20
5.6474645377449
30
0
0
SPLINE
5
102
100
AcDbEntity
8
1
62
256
6
ByLayer
370
18
48
1
60
0
100
AcDbSpline
70
4
71
3
72
29
73
25
40
0
40
0
40
0
40
0
40
0.050409068374649
40
0.09539183274586
40
0.137493150329676
40
0.175227625163685
40
0.21127334277282
40
0.257507507945053
40
0.314137473937687
40
0.361190229148298
40
0.398780105580236
40
0.44305254147633
40
0.493275278492136
40
0.534206217128871
40
0.561370387882737
40
0.590978091445591
40
0.634285555142181
40
0.68283035928828
40
0.738318588466305
40
0.792526601199559
40
0.862628461807287
40
0.920789493628533
40
0.972003945176249
40
1
40
1
40
1
40
1
41
1
10
39.7543700789287
20
-5.62145069959314
30
0
41
1
10
39.943285343887
20
-5.6202277874925
30
0
41
1
10
40.3058825354636
20
-5.6189015995694
30
0
41
1
10
40.8632887711843
20
-5.61986750348552
30
0
41
1
10
41.3441863140595
20
-5.6226567782449
30
0
41
1
10
41.8050265923654
20
-5.622836684476
30
0
41
1
10
42.2830245737566
20
-5.62319087590075
30
0
41
1
10
42.8361913297025
20
-5.62340335390221
30
0
41
1
10
43.4332591512623
20
-5.62359755048513
30
0
41
1
10
43.9957020092901
20
-5.62439628336494
30
0
41
1
10
44.5082224960981
20
-5.62452564455819
30
0
41
1
10
45.0345891256692
20
-5.6246178044878
30
0
41
1
10
45.5734321104837
20
-5.62469694318204
30
0
41
1
10
46.0443978401852
20
-5.62542831837928
30
0
41
1
10
46.4334812274907
20
-5.62585127118737
30
0
41
1
10
46.8320291103589
20
-5.62604665254597
30
0
41
1
10
47.315686729166
20
-5.62608968622493
30
0
41
1
10
47.9024605286814
20
-5.62615223302521
30
0
41
1
10
48.5325790124636
20
-5.62725935845424
30
0
41
1
10
49.2487456107056
20
-5.62746916696676
30
0
41
1
10
49.9747801521014
20
-5.62700634273978
30
0
41
1
10
50.6899188188618
20
-5.62875094082779
30
0
41
1
10
51.2361990758891
20
-5.6289437523873
30
0
41
1
10
51.5516896087867
20
-5.62900881043097
30
0
41
1
10
51.663211640781
20
-5.62900490285318
30
0
0
SPLINE
5
103
100
AcDbEntity
8
1
62
256
6
ByLayer
370
18
48
1
60
0
100
AcDbSpline
70
4
71
3
72
15
73
11
40
0
40
0
40
0
40
0
40
0.119341532992434
40
0.244861974505904
40
0.330179538005518
40
0.390729860185955
40
0.455103186492739
40
0.523594891319467
40
0.865279006293775
40
1
40
1
40
1
40
1
41
1
10
8.25035155512236
20
-5.60207404968014
30
0
41
1
10
8.4612560646944
20
-5.60242279964851
30
0
41
1
10
8.89398528787737
20
-5.60304451945291
30
0
41
1
10
9.47749495459101
20
-5.60364088882167
30
0
41
1
10
9.95710386359323
20
-5.60392297890331
30
0
41
1
10
10.3286530887403
20
-5.60406965743468
30
0
41
1
10
10.6704680622154
20
-5.60417872339912
30
0
41
1
10
11.5091159420652
20
-5.60433782545482
30
0
41
1
10
12.4720901792051
20
-5.60539249106083
30
0
41
1
10
13.3140188906352
20
-5.60567332006781
30
0
41
1
10
13.5521050826083
20
-5.60575244615015
30
0
0
SPLINE
5
104
100
AcDbEntity
8
1
62
256
6
ByLayer
370
18
48
1
60
0
100
AcDbSpline
70
4
71
2
72
6
73
3
40
0
40
0
40
0
40
1
40
1
40
1
41
1
10
134.857294440411
20
-0.0016980751727544
30
0
41
1
10
134.857278387684
20
-0.0016910287426128
30
0
41
1
10
134.857262335029
20
-0.0016836770568318
30
0
0
LINE
5
7B
100
AcDbEntity
8
SK1
62
256
6
ByLayer
370
18
48
1
60
0
100
AcDbLine
10
0
20
-7
30
0
11
0
21
7
31
0
39
0
210
0
220
0
230
1
0
LINE
5
7D
100
AcDbEntity
8
SK1
62
256
6
ByLayer
370
13
48
1
60
0
100
AcDbLine
10
-44
20
-0.943523
30
0
11
-44
21
-3.27933
31
0
39
0
210
0
220
0
230
1
0
LINE
5
7E
100
AcDbEntity
8
SK1
62
256
6
ByLayer
370
18
48
1
60
0
100
AcDbLine
10
-45
20
-5.055
30
0
11
-45
21
-2.913485
31
0
39
0
210
0
220
0
230
1
0
LINE
5
7F
100
AcDbEntity
8
SK1
62
256
6
ByLayer
370
18
48
1
60
0
100
AcDbLine
10
-43.9
20
-3.22939
30
0
11
-43.9
21
-1.080406
31
0
39
0
210
0
220
0
230
1
0
LINE
5
80
100
AcDbEntity
8
SK1
62
256
6
ByLayer
370
18
48
1
60
0
100
AcDbLine
10
-45
20
-0.577664
30
0
11
-45
21
-2.913485
31
0
39
0
210
0
220
0
230
1
0
LINE
5
81
100
AcDbEntity
8
SK1
62
256
6
ByLayer
370
18
48
1
60
0
100
AcDbLine
10
-43.055
20
7
30
0
11
-43.055
21
-7
31
0
39
0
210
0
220
0
230
1
0
LINE
5
82
100
AcDbEntity
8
SK1
62
256
6
ByLayer
370
18
48
1
60
0
100
AcDbLine
10
-45
20
5.055
30
0
11
-45
21
-0.577633
31
0
39
0
210
0
220
0
230
1
0
LINE
5
83
100
AcDbEntity
8
1
62
256
6
ByLayer
370
18
48
1
60
0
100
AcDbLine
10
153.956898
20
-4.186735
30
0
11
154.685124
21
-3.198319
31
0
39
0
210
0
220
0
230
1
0
LINE
5
84
100
AcDbEntity
8
1
62
256
6
ByLayer
370
18
48
1
60
0
100
AcDbLine
10
0
20
-7
30
0
11
0
21
7
31
0
39
0
210
0
220
0
230
1
0
LINE
5
85
100
AcDbEntity
8
1
62
256
6
ByLayer
370
13
48
1
60
0
100
AcDbLine
10
0.755004
20
6.464516
30
0
11
0.755004
21
-6.464516
31
0
39
0
210
0
220
0
230
1
0
LINE
5
86
100
AcDbEntity
8
1
62
256
6
ByLayer
370
18
48
1
60
0
100
AcDbLine
10
155.226297
20
-2.46379
30
0
11
156.825348
21
-0.293412
31
0
39
0
210
0
220
0
230
1
0
LINE
5
87
100
AcDbEntity
8
1
62
256
6
ByLayer
370
13
48
1
60
0
100
AcDbLine
10
154.7927
20
1.360008
30
0
11
156.971858
21
-0.019452
31
0
39
0
210
0
220
0
230
1
0
LINE
5
88
100
AcDbEntity
8
1
62
256
6
ByLayer
370
18
48
1
60
0
100
AcDbLine
10
8
20
-5.933089
30
0
11
8
21
-4.010247
31
0
39
0
210
0
220
0
230
1
0
LINE
5
89
100
AcDbEntity
8
1
62
256
6
ByLayer
370
13
48
1
60
0
100
AcDbLine
10
1.510508
20
5.929033
30
0
11
1.510508
21
-5.929033
31
0
39
0
210
0
220
0
230
1
0
LINE
5
8A
100
AcDbEntity
8
1
62
256
6
ByLayer
370
18
48
1
60
0
100
AcDbLine
10
8
20
5.933089
30
0
11
8
21
5.179827
31
0
39
0
210
0
220
0
230
1
0
LINE
5
8B
100
AcDbEntity
8
1
62
256
6
ByLayer
370
13
48
1
60
0
100
AcDbLine
10
154.904174
20
1.471255
30
0
11
156.975125
21
0.160293
31
0
39
0
210
0
220
0
230
1
0
LINE
5
8C
100
AcDbEntity
8
80
62
256
6
ByLayer
370
18
48
1
60
0
100
AcDbLine
10
0
20
0
30
0
11
-5
21
0
31
0
39
0
210
0
220
0
230
1
0
LINE
5
8D
100
AcDbEntity
8
4
62
256
6
ByLayer
370
18
48
0.05
60
0
100
AcDbLine
10
157
20
0
30
0
11
0
21
0
31
0
39
0
210
0
220
0
230
1
0
LINE
5
8F
100
AcDbEntity
8
SK4
62
256
6
ByLayer
370
18
48
0.05
60
0
100
AcDbLine
10
162
20
0
30
0
11
-50
21
0
31
0
39
0
210
0
220
0
230
1
0
LINE
5
91
100
AcDbEntity
8
SK1
62
256
6
ByLayer
370
18
48
1
60
0
100
AcDbLine
10
-43.055
20
-7
30
0
11
0
21
-7
31
0
39
0
210
0
220
0
230
1
0
LINE
5
92
100
AcDbEntity
8
SK1
62
256
6
ByLayer
370
18
48
1
60
0
100
AcDbLine
10
0
20
7
30
0
11
-43.055
21
7
31
0
39
0
210
0
220
0
230
1
0
LINE
5
93
100
AcDbEntity
8
SK1
62
256
6
ByLayer
370
18
48
1
60
0
100
AcDbLine
10
-45
20
-5.055
30
0
11
-43.055
21
-7
31
0
39
0
210
0
220
0
230
1
0
LINE
5
94
100
AcDbEntity
8
SK1
62
256
6
ByLayer
370
18
48
1
60
0
100
AcDbLine
10
-43.055
20
7
30
0
11
-45
21
5.055
31
0
39
0
210
0
220
0
230
1
0
LINE
5
95
100
AcDbEntity
8
1
62
256
6
ByLayer
370
18
48
1
60
0
100
AcDbLine
10
1.510508
20
-5.929033
30
0
11
8
21
-5.933089
31
0
39
0
210
0
220
0
230
1
0
LINE
5
96
100
AcDbEntity
8
1
62
256
6
ByLayer
370
18
48
1
60
0
100
AcDbLine
10
37.887693
20
-5.951768
30
0
11
39.603983
21
-5.952841
31
0
39
0
210
0
220
0
230
1
0
LINE
5
97
100
AcDbEntity
8
1
62
256
6
ByLayer
370
18
48
1
60
0
100
AcDbLine
10
75.992089
20
-5.975584
30
0
11
77.703823
21
-5.976653
31
0
39
0
210
0
220
0
230
1
0
LINE
5
98
100
AcDbEntity
8
1
62
256
6
ByLayer
370
18
48
1
60
0
100
AcDbLine
10
114.097846
20
-5.9994
30
0
11
115.802892
21
-6.000465
31
0
39
0
210
0
220
0
230
1
0
LINE
5
99
100
AcDbEntity
8
1
62
256
6
ByLayer
370
18
48
1
60
0
100
AcDbLine
10
152.202519
20
-6.023215
30
0
11
153.904028
21
-6.024279
31
0
39
0
210
0
220
0
230
1
0
LINE
5
9A
100
AcDbEntity
8
1
62
256
6
ByLayer
370
18
48
1
60
0
100
AcDbLine
10
153.9043
20
6.024279
30
0
11
152.202519
21
6.023215
31
0
39
0
210
0
220
0
230
1
0
LINE
5
9B
100
AcDbEntity
8
1
62
256
6
ByLayer
370
18
48
1
60
0
100
AcDbLine
10
115.803139
20
6.000466
30
0
11
114.097846
21
5.9994
31
0
39
0
210
0
220
0
230
1
0
LINE
5
9C
100
AcDbEntity
8
1
62
256
6
ByLayer
370
18
48
1
60
0
100
AcDbLine
10
77.703407
20
5.976653
30
0
11
75.992089
21
5.975584
31
0
39
0
210
0
220
0
230
1
0
LINE
5
9D
100
AcDbEntity
8
1
62
256
6
ByLayer
370
18
48
1
60
0
100
AcDbLine
10
39.603759
20
5.952841
30
0
11
37.887693
21
5.951768
31
0
39
0
210
0
220
0
230
1
0
LINE
5
9E
100
AcDbEntity
8
1
62
256
6
ByLayer
370
18
48
1
60
0
100
AcDbLine
10
8
20
5.933089
30
0
11
1.510508
21
5.929033
31
0
39
0
210
0
220
0
230
1
0
LINE
5
9F
100
AcDbEntity
8
81
62
256
6
ByLayer
370
18
48
1
60
0
100
AcDbLine
10
157
20
0
30
0
11
162
21
0
31
0
39
0
210
0
220
0
230
1
0
LINE
5
A0
100
AcDbEntity
8
SK2
62
256
6
ByLayer
370
13
48
1
60
0
100
AcDbLine
10
-53.625163
20
-7
30
0
11
-53.625163
21
38.225706
31
0
39
0
210
0
220
0
230
1
0
LINE
5
A2
100
AcDbEntity
8
SK2
62
256
6
ByLayer
370
13
48
1
60
0
100
AcDbLine
10
-46.5875
20
7
30
0
11
-55.625163
21
7
31
0
39
0
210
0
220
0
230
1
0
LINE
5
A3
100
AcDbEntity
8
SK2
62
256
6
ByLayer
370
13
48
1
60
0
100
AcDbLine
10
-46.5875
20
-7
30
0
11
-55.625163
21
-7
31
0
39
0
210
0
220
0
230
1
0
LINE
5
A4
100
AcDbEntity
8
1
62
256
6
ByLayer
370
18
48
1
60
1
100
AcDbLine
10
-53.625163
20
7
30
0
11
-53.164379
21
3.500002
31
0
39
0
210
0
220
0
230
1
0
LINE
5
A5
100
AcDbEntity
8
1
62
256
6
ByLayer
370
18
48
1
60
1
100
AcDbLine
10
-53.164379
20
3.500002
30
0
11
-54.085946
21
3.499998
31
0
39
0
210
0
220
0
230
1
0
LINE
5
A6
100
AcDbEntity
8
1
62
256
6
ByLayer
370
18
48
1
60
1
100
AcDbLine
10
-54.085946
20
3.499998
30
0
11
-53.625163
21
7
31
0
39
0
210
0
220
0
230
1
0
LINE
5
A7
100
AcDbEntity
8
1
62
256
6
ByLayer
370
18
48
1
60
1
100
AcDbLine
10
-53.625163
20
-7
30
0
11
-54.085946
21
-3.500002
31
0
39
0
210
0
220
0
230
1
0
LINE
5
A8
100
AcDbEntity
8
1
62
256
6
ByLayer
370
18
48
1
60
1
100
AcDbLine
10
-54.085946
20
-3.500002
30
0
11
-53.164379
21
-3.499998
31
0
39
0
210
0
220
0
230
1
0
LINE
5
A9
100
AcDbEntity
8
1
62
256
6
ByLayer
370
18
48
1
60
1
100
AcDbLine
10
-53.164379
20
-3.499998
30
0
11
-53.625163
21
-7
31
0
39
0
210
0
220
0
230
1
0
LINE
5
AA
100
AcDbEntity
8
2
62
256
6
ByLayer
370
13
48
1
60
0
100
AcDbLine
10
169.083343
20
-6.025
30
0
11
169.083343
21
35.475259
31
0
39
0
210
0
220
0
230
1
0
LINE
5
AC
100
AcDbEntity
8
2
62
256
6
ByLayer
370
13
48
1
60
0
100
AcDbLine
10
156.7946
20
6.025
30
0
11
171.083343
21
6.025
31
0
39
0
210
0
220
0
230
1
0
LINE
5
AD
100
AcDbEntity
8
2
62
256
6
ByLayer
370
13
48
1
60
0
100
AcDbLine
10
156.7946
20
-6.025
30
0
11
171.083343
21
-6.025
31
0
39
0
210
0
220
0
230
1
0
LINE
5
AE
100
AcDbEntity
8
1
62
256
6
ByLayer
370
18
48
1
60
1
100
AcDbLine
10
169.083343
20
6.025
30
0
11
169.544126
21
2.525002
31
0
39
0
210
0
220
0
230
1
0
LINE
5
AF
100
AcDbEntity
8
1
62
256
6
ByLayer
370
18
48
1
60
1
100
AcDbLine
10
169.544126
20
2.525002
30
0
11
168.622559
21
2.524998
31
0
39
0
210
0
220
0
230
1
0
LINE
5
B0
100
AcDbEntity
8
1
62
256
6
ByLayer
370
18
48
1
60
1
100
AcDbLine
10
168.622559
20
2.524998
30
0
11
169.083343
21
6.025
31
0
39
0
210
0
220
0
230
1
0
LINE
5
B1
100
AcDbEntity
8
1
62
256
6
ByLayer
370
18
48
1
60
1
100
AcDbLine
10
169.083343
20
-6.025
30
0
11
168.622559
21
-2.525002
31
0
39
0
210
0
220
0
230
1
0
LINE
5
B2
100
AcDbEntity
8
1
62
256
6
ByLayer
370
18
48
1
60
1
100
AcDbLine
10
168.622559
20
-2.525002
30
0
11
169.544126
21
-2.524998
31
0
39
0
210
0
220
0
230
1
0
LINE
5
B3
100
AcDbEntity
8
1
62
256
6
ByLayer
370
18
48
1
60
1
100
AcDbLine
10
169.544126
20
-2.524998
30
0
11
169.083343
21
-6.025
31
0
39
0
210
0
220
0
230
1
0
LINE
5
10B
100
AcDbEntity
8
1
62
256
6
ByLayer
370
18
48
1
60
1
100
AcDbLine
10
-53.625163
20
7
30
0
11
-53.164379
21
3.500002
31
0
39
0
210
0
220
0
230
1
0
LINE
5
10C
100
AcDbEntity
8
1
62
256
6
ByLayer
370
18
48
1
60
1
100
AcDbLine
10
-53.164379
20
3.500002
30
0
11
-54.085946
21
3.499998
31
0
39
0
210
0
220
0
230
1
0
LINE
5
10D
100
AcDbEntity
8
1
62
256
6
ByLayer
370
18
48
1
60
1
100
AcDbLine
10
-54.085946
20
3.499998
30
0
11
-53.625163
21
7
31
0
39
0
210
0
220
0
230
1
0
LINE
5
10F
100
AcDbEntity
8
1
62
256
6
ByLayer
370
18
48
1
60
1
100
AcDbLine
10
-53.625163
20
-7
30
0
11
-54.085946
21
-3.500002
31
0
39
0
210
0
220
0
230
1
0
LINE
5
110
100
AcDbEntity
8
1
62
256
6
ByLayer
370
18
48
1
60
1
100
AcDbLine
10
-54.085946
20
-3.500002
30
0
11
-53.164379
21
-3.499998
31
0
39
0
210
0
220
0
230
1
0
LINE
5
111
100
AcDbEntity
8
1
62
256
6
ByLayer
370
18
48
1
60
1
100
AcDbLine
10
-53.164379
20
-3.499998
30
0
11
-53.625163
21
-7
31
0
39
0
210
0
220
0
230
1
0
LINE
5
115
100
AcDbEntity
8
1
62
256
6
ByLayer
370
18
48
1
60
1
100
AcDbLine
10
169.083343
20
6.025
30
0
11
169.544126
21
2.525002
31
0
39
0
210
0
220
0
230
1
0
LINE
5
116
100
AcDbEntity
8
1
62
256
6
ByLayer
370
18
48
1
60
1
100
AcDbLine
10
169.544126
20
2.525002
30
0
11
168.622559
21
2.524998
31
0
39
0
210
0
220
0
230
1
0
LINE
5
117
100
AcDbEntity
8
1
62
256
6
ByLayer
370
18
48
1
60
1
100
AcDbLine
10
168.622559
20
2.524998
30
0
11
169.083343
21
6.025
31
0
39
0
210
0
220
0
230
1
0
LINE
5
119
100
AcDbEntity
8
1
62
256
6
ByLayer
370
18
48
1
60
1
100
AcDbLine
10
169.083343
20
-6.025
30
0
11
168.622559
21
-2.525002
31
0
39
0
210
0
220
0
230
1
0
LINE
5
11A
100
AcDbEntity
8
1
62
256
6
ByLayer
370
18
48
1
60
1
100
AcDbLine
10
168.622559
20
-2.525002
30
0
11
169.544126
21
-2.524998
31
0
39
0
210
0
220
0
230
1
0
LINE
5
11B
100
AcDbEntity
8
1
62
256
6
ByLayer
370
18
48
1
60
1
100
AcDbLine
10
169.544126
20
-2.524998
30
0
11
169.083343
21
-6.025
31
0
39
0
210
0
220
0
230
1
0
MTEXT
5
105
100
AcDbEntity
8
SK6
62
256
6
ByLayer
370
13
48
1
60
0
100
AcDbMText
10
27.29224
20
38.565328
30
0
210
0
220
0
230
1
1
\W0.7563;462.1-1205-090A1-XM X2BM
40
3.5
41
0
44
1.084337
50
0
71
7
72
5
7
iso_b_vert
0
MTEXT
5
109
100
AcDbEntity
8
SK2
62
256
6
ByLayer
370
18
48
1
60
0
100
AcDbMText
10
-55.189796
20
20.409024
30
0
210
0
220
0
230
1
1
%%c
40
3.5
41
0
44
1.084337
50
90
71
7
72
5
7
iso_b_vert
0
MTEXT
5
10A
100
AcDbEntity
8
SK2
62
256
6
ByLayer
370
18
48
1
60
0
100
AcDbMText
10
-55.189796
20
25.63168
30
0
210
0
220
0
230
1
1
\W0.7145;14,000
40
3.5
41
0
44
1.084337
50
90
71
7
72
5
7
iso_b_vert
0
MTEXT
5
113
100
AcDbEntity
8
2
62
256
6
ByLayer
370
18
48
1
60
0
100
AcDbMText
10
167.518709
20
18.02711
30
0
210
0
220
0
230
1
1
%%c
40
3.5
41
0
44
1.084337
50
90
71
7
72
5
7
iso_b_vert
0
MTEXT
5
114
100
AcDbEntity
8
2
62
256
6
ByLayer
370
18
48
1
60
0
100
AcDbMText
10
167.518709
20
23.249766
30
0
210
0
220
0
230
1
1
\W0.6930;12,050
40
3.5
41
0
44
1.084337
50
90
71
7
72
5
7
iso_b_vert
0
HATCH
5
10E
100
AcDbEntity
8
SK2
62
256
6
ByLayer
370
13
48
1
60
0
100
AcDbHatch
10
0
20
0
30
0
210
0
220
0
230
1
2
ANSI31
70
0
71
0
91
1
92
5
93
3
72
1
10
-53.6251625675374
20
7
11
-53.1643788259847
21
3.50000169255318
72
1
10
-53.1643788259847
20
3.50000169255318
11
-54.0859463090902
21
3.49999830744682
72
1
10
-54.0859463090902
20
3.49999830744682
11
-53.6251625675374
21
7
97
0
75
0
76
1
52
0
41
0.0062
77
0
78
1
53
45
43
0
44
0
45
-0.0139193969876572
46
0.0139193969876572
79
0
47
0
98
1
10
0
20
0
0
HATCH
5
112
100
AcDbEntity
8
SK2
62
256
6
ByLayer
370
13
48
1
60
0
100
AcDbHatch
10
0
20
0
30
0
210
0
220
0
230
1
2
ANSI31
70
0
71
0
91
1
92
5
93
3
72
1
10
-53.6251625675374
20
-7
11
-54.0859463090902
21
-3.50000169255318
72
1
10
-54.0859463090902
20
-3.50000169255318
11
-53.1643788259847
21
-3.49999830744682
72
1
10
-53.1643788259847
20
-3.49999830744682
11
-53.6251625675374
21
-7
97
0
75
0
76
1
52
0
41
0.0062
77
0
78
1
53
45
43
0
44
0
45
-0.0139193969876572
46
0.0139193969876572
79
0
47
0
98
1
10
0
20
0
0
HATCH
5
118
100
AcDbEntity
8
2
62
256
6
ByLayer
370
13
48
1
60
0
100
AcDbHatch
10
0
20
0
30
0
210
0
220
0
230
1
2
ANSI31
70
0
71
0
91
1
92
5
93
3
72
1
10
169.083342615295
20
6.02500000000001
11
169.544126356848
21
2.52500169255319
72
1
10
169.544126356848
20
2.52500169255319
11
168.622558873742
21
2.52499830744682
72
1
10
168.622558873742
20
2.52499830744682
11
169.083342615295
21
6.02500000000001
97
0
75
0
76
1
52
0
41
0.0062
77
0
78
1
53
45
43
0
44
0
45
-0.0139193969876572
46
0.0139193969876572
79
0
47
0
98
1
10
0
20
0
0
HATCH
5
11C
100
AcDbEntity
8
2
62
256
6
ByLayer
370
13
48
1
60
0
100
AcDbHatch
10
0
20
0
30
0
210
0
220
0
230
1
2
ANSI31
70
0
71
0
91
1
92
5
93
3
72
1
10
169.083342615295
20
-6.02499999999998
11
168.622558873742
21
-2.52500169255316
72
1
10
168.622558873742
20
-2.52500169255316
11
169.544126356848
21
-2.52499830744679
72
1
10
169.544126356848
20
-2.52499830744679
11
169.083342615295
21
-6.02499999999998
97
0
75
0
76
1
52
0
41
0.0062
77
0
78
1
53
45
43
0
44
0
45
-0.0139193969876572
46
0.0139193969876572
79
0
47
0
98
1
10
0
20
0
0
DIMENSION
5
11E
100
AcDbEntity
8
SK2
62
256
6
ByLayer
370
13
48
1
60
0
100
AcDbDimension
2
_U0
10
155.2071
20
-16.238398
30
0
11
77.60355
21
-16.238398
31
0
70
32
71
1
72
1
41
1
210
0
220
0
230
1
3
Standard
100
AcDbAlignedDimension
13
0
23
0
33
0
14
155.2071
24
-6.025
34
0
50
0
100
AcDbRotatedDimension
1001
ACAD
1000
DSTYLE
1002
{
1070
   371
1070
    13
1070
   372
1070
    13
1070
   170
1070
     0
1070
   144
1040
1.0
1070
   277
1070
     2
1070
   278
1070
    44
1070
   146
1040
1.0
1070
   345
1005
16
1070
   347
1005
16
1070
   346
1005
16
1070
   344
1005
0
1070
   343
1005
0
1070
   172
1070
     1
1070
    76
1070
     0
1070
    75
1070
     0
1070
   282
1070
     0
1070
   281
1070
     0
1070
    71
1070
     0
1070
    74
1070
     0
1070
   279
1070
     0
1070
   173
1070
     1
1070
   340
1005
106
1070
   271
1070
     2
1070
   272
1070
     2
1070
    77
1070
     1
1070
    73
1070
     1
1070
   171
1070
     3
1070
   274
1070
     4
1070
   177
1070
    35
1070
   176
1070
    35
1070
   178
1070
    35
1070
    48
1040
-0.1
1070
    41
1040
3.5
1070
   147
1040
1.75
1070
    42
1040
1.5875
1070
    44
1040
2.0
1070
   140
1040
3.5
1002
}
1001
ACAD_DSTYLE_DIM_LINETYPE
1070
   380
1005
16
1001
ACAD_DSTYLE_DIM_EXT1_LINETYPE
1070
   381
1005
16
1001
ACAD_DSTYLE_DIM_EXT2_LINETYPE
1070
   382
1005
16
0
DIMENSION
5
137
100
AcDbEntity
8
SK2
62
256
6
ByLayer
370
13
48
1
60
0
100
AcDbDimension
2
_U1
10
157
20
-35.692985
30
0
11
56
21
-35.692985
31
0
70
32
71
1
72
1
41
1
210
0
220
0
230
1
3
Standard
100
AcDbAlignedDimension
13
-45
23
-7
33
0
14
157
24
0
34
0
50
0
100
AcDbRotatedDimension
1001
ACAD
1000
DSTYLE
1002
{
1070
   371
1070
    13
1070
   372
1070
    13
1070
   170
1070
     0
1070
   144
1040
1.0
1070
   277
1070
     2
1070
   278
1070
    44
1070
   146
1040
1.0
1070
   345
1005
16
1070
   347
1005
16
1070
   346
1005
16
1070
   344
1005
0
1070
   343
1005
0
1070
   172
1070
     1
1070
    76
1070
     0
1070
    75
1070
     0
1070
   282
1070
     0
1070
   281
1070
     0
1070
    71
1070
     0
1070
    74
1070
     0
1070
   279
1070
     0
1070
   173
1070
     1
1070
   340
1005
106
1070
   271
1070
     2
1070
   272
1070
     2
1070
    77
1070
     1
1070
    73
1070
     1
1070
   171
1070
     3
1070
   274
1070
     4
1070
   177
1070
    35
1070
   176
1070
    35
1070
   178
1070
    35
1070
    48
1040
-0.1
1070
    41
1040
3.5
1070
   147
1040
1.75
1070
    42
1040
1.5875
1070
    44
1040
2.0
1070
   140
1040
3.5
1002
}
1001
ACAD_DSTYLE_DIM_LINETYPE
1070
   380
1005
16
1001
ACAD_DSTYLE_DIM_EXT1_LINETYPE
1070
   381
1005
16
1001
ACAD_DSTYLE_DIM_EXT2_LINETYPE
1070
   382
1005
16
0
DIMENSION
5
14F
100
AcDbEntity
8
SK2
62
256
6
ByLayer
370
13
48
1
60
0
100
AcDbDimension
2
_U2
10
157
20
17.634119
30
0
11
107.905
21
17.634119
31
0
70
32
71
1
72
1
41
1
210
0
220
0
230
1
3
Standard
100
AcDbAlignedDimension
13
58.81
23
6.025
33
0
14
157
24
0
34
0
50
0
100
AcDbRotatedDimension
1001
ACAD
1000
DSTYLE
1002
{
1070
   371
1070
    13
1070
   372
1070
    13
1070
   170
1070
     0
1070
   144
1040
1.0
1070
   277
1070
     2
1070
   278
1070
    44
1070
   146
1040
1.0
1070
   345
1005
16
1070
   347
1005
16
1070
   346
1005
16
1070
   344
1005
0
1070
   343
1005
0
1070
   172
1070
     1
1070
    76
1070
     0
1070
    75
1070
     0
1070
   282
1070
     0
1070
   281
1070
     0
1070
    71
1070
     0
1070
    74
1070
     0
1070
   279
1070
     0
1070
   173
1070
     1
1070
   340
1005
106
1070
   271
1070
     2
1070
   272
1070
     2
1070
    77
1070
     1
1070
    73
1070
     1
1070
   171
1070
     3
1070
   274
1070
     4
1070
   177
1070
    35
1070
   176
1070
    35
1070
   178
1070
    35
1070
    48
1040
-0.1
1070
    41
1040
3.5
1070
   147
1040
1.75
1070
    42
1040
1.5875
1070
    44
1040
2.0
1070
   140
1040
3.5
1002
}
1001
ACAD_DSTYLE_DIM_LINETYPE
1070
   380
1005
16
1001
ACAD_DSTYLE_DIM_EXT1_LINETYPE
1070
   381
1005
16
1001
ACAD_DSTYLE_DIM_EXT2_LINETYPE
1070
   382
1005
16
0
DIMENSION
5
167
100
AcDbEntity
8
SK2
62
256
6
ByLayer
370
13
48
1
60
0
100
AcDbDimension
2
_U3
10
155.2071
20
-18.827503
30
0
11
174.25
21
-18.827503
31
0
70
32
71
1
72
1
41
1
210
0
220
0
230
1
3
Standard
100
AcDbAlignedDimension
13
157
23
0
33
0
14
155.2071
24
-6.025
34
0
50
0
100
AcDbRotatedDimension
1001
ACAD
1000
DSTYLE
1002
{
1070
   371
1070
    13
1070
   372
1070
    13
1070
   170
1070
     0
1070
   144
1040
1.0
1070
   277
1070
     2
1070
   278
1070
    44
1070
   146
1040
1.0
1070
   345
1005
16
1070
   347
1005
16
1070
   346
1005
16
1070
   344
1005
0
1070
   343
1005
0
1070
   172
1070
     1
1070
    76
1070
     0
1070
    75
1070
     0
1070
   282
1070
     0
1070
   281
1070
     0
1070
    71
1070
     0
1070
    74
1070
     0
1070
   279
1070
     0
1070
   173
1070
     1
1070
   340
1005
106
1070
   271
1070
     2
1070
   272
1070
     2
1070
    77
1070
     1
1070
    73
1070
     1
1070
   171
1070
     3
1070
   274
1070
     4
1070
   177
1070
    35
1070
   176
1070
    35
1070
   178
1070
    35
1070
    48
1040
-0.1
1070
    41
1040
3.5
1070
   147
1040
1.75
1070
    42
1040
1.5875
1070
    44
1040
2.0
1070
   140
1040
3.5
1002
}
1001
ACAD_DSTYLE_DIM_LINETYPE
1070
   380
1005
16
1001
ACAD_DSTYLE_DIM_EXT1_LINETYPE
1070
   381
1005
16
1001
ACAD_DSTYLE_DIM_EXT2_LINETYPE
1070
   382
1005
16
0
DIMENSION
5
181
100
AcDbEntity
8
SK2
62
256
6
ByLayer
370
13
48
1
60
0
100
AcDbDimension
2
_U4
10
155.2071
20
-25.343428
30
0
11
55.10355
21
-25.343428
31
0
70
32
71
1
72
1
41
1
210
0
220
0
230
1
3
Standard
100
AcDbAlignedDimension
13
-45
23
-7
33
0
14
155.2071
24
-6.025
34
0
50
0
100
AcDbRotatedDimension
1001
ACAD
1000
DSTYLE
1002
{
1070
   371
1070
    13
1070
   372
1070
    13
1070
   170
1070
     0
1070
   144
1040
1.0
1070
   277
1070
     2
1070
   278
1070
    44
1070
   146
1040
1.0
1070
   345
1005
16
1070
   347
1005
16
1070
   346
1005
16
1070
   344
1005
0
1070
   343
1005
0
1070
   172
1070
     1
1070
    76
1070
     0
1070
    75
1070
     0
1070
   282
1070
     0
1070
   281
1070
     0
1070
    71
1070
     0
1070
    74
1070
     0
1070
   279
1070
     0
1070
   173
1070
     1
1070
   340
1005
106
1070
   271
1070
     2
1070
   272
1070
     2
1070
    77
1070
     1
1070
    73
1070
     1
1070
   171
1070
     3
1070
   274
1070
     4
1070
   177
1070
    35
1070
   176
1070
    35
1070
   178
1070
    35
1070
    48
1040
-0.1
1070
    41
1040
3.5
1070
   147
1040
1.75
1070
    42
1040
1.5875
1070
    44
1040
2.0
1070
   140
1040
3.5
1002
}
1001
ACAD_DSTYLE_DIM_LINETYPE
1070
   380
1005
16
1001
ACAD_DSTYLE_DIM_EXT1_LINETYPE
1070
   381
1005
16
1001
ACAD_DSTYLE_DIM_EXT2_LINETYPE
1070
   382
1005
16
0
ENDSEC
0
SECTION
2
OBJECTS
0
DICTIONARY
5
209
330
0
100
AcDbDictionary
280
0
281
1
3
ACAD_GROUP
350
20a
3
ACAD_MLINESTYLE
350
20b
0
DICTIONARY
5
20a
330
0
100
AcDbDictionary
280
0
281
1
0
DICTIONARY
5
20b
330
0
100
AcDbDictionary
280
0
281
1
3
Standard
350
18
0
MLINESTYLE
5
18
330
20b
100
AcDbMlineStyle
2
Standard
70
0
3

62
256
51
90
52
90
71
2
49
-0.5
62
256
6
ByLayer
49
0.5
62
256
6
ByLayer
0
RASTERVARIABLES
5
1f7
330

100
AcDbRasterVariables
90
0
70
1
71
1
72
1
0
ENDSEC
0
EOF
