0
SECTION
2
HEADER
9
$ACADVER
1
AC1015
9
$DWGCODEPAGE
3
ANSI_1252
9
$HANDSEED
5
227
9
$ANGBASE
50
0
9
$ANGDIR
70
0
9
$ATTMODE
70
1
9
$AUNITS
70
0
9
$AUPREC
70
0
9
$CECOLOR
62
256
9
$CELTSCALE
40
1
9
$CELTYPE
6
ByLayer
9
$CELWEIGHT
370
18
9
$CLAYER
8
0
9
$CMLJUST
70
0
9
$CMLSCALE
40
1
9
$CMLSTYLE
2
Standard
9
$DIMSTYLE
2
Standard
9
$TEXTSIZE
40
0.2
9
$TEXTSTYLE
7
Standard
9
$LUNITS
70
2
9
$LUPREC
70
4
9
$EXTNAMES
290
1
9
$INSUNITS
70
4
9
$LTSCALE
40
1
9
$LWDISPLAY
290
1
9
$PDMODE
70
0
9
$PDSIZE
40
0
9
$PLINEGEN
70
0
0
ENDSEC
0
SECTION
2
CLASSES
0
CLASS
1
RASTERVARIABLES
2
AcDbRasterVariables
3
ISM
90
0
280
0
281
0
0
ENDSEC
0
SECTION
2
TABLES
0
TABLE
2
VPORT
5
21d
100
AcDbSymbolTable
0
VPORT
5
1
100
AcDbSymbolTableRecord
100
AcDbViewportTableRecord
2
*Active
70
0
10
0
20
0
11
1
21
1
12
-1
22
1
13
0
23
0
14
0.5
24
0.5
15
10
25
10
16
0
26
0
36
1
17
0
27
0
37
0
0
ENDTAB
0
TABLE
2
LTYPE
5
21e
100
AcDbSymbolTable
0
LTYPE
5
14
100
AcDbSymbolTableRecord
100
AcDbLinetypeTableRecord
70
0
2
ByBlock
3

72
65
73
0
40
0
0
LTYPE
5
15
100
AcDbSymbolTableRecord
100
AcDbLinetypeTableRecord
70
0
2
ByLayer
3

72
65
73
0
40
0
0
LTYPE
5
16
100
AcDbSymbolTableRecord
100
AcDbLinetypeTableRecord
70
0
2
Continuous
3
Solid line
72
65
73
0
40
0
0
LTYPE
5
6E
100
AcDbSymbolTableRecord
100
AcDbLinetypeTableRecord
70
0
2
CENTER
3
____ _ ____ _ ____ _ ____
72
65
73
4
40
47.5
49
22
74
0
49
-8.5
74
0
49
8.5
74
0
49
-8.5
74
0
0
LTYPE
5
6F
100
AcDbSymbolTableRecord
100
AcDbLinetypeTableRecord
70
0
2
DASHED
3
__ __ __ __ __ __ __ __ __
72
65
73
2
40
25.72
49
12.86
74
0
49
-12.86
74
0
0
ENDTAB
0
TABLE
2
LAYER
5
21f
100
AcDbSymbolTable
0
LAYER
5
10
100
AcDbSymbolTableRecord
100
AcDbLayerTableRecord
2
0
70
0
62
7
6
Continuous
290
1
370
-3
390
0
0
LAYER
5
71
100
AcDbSymbolTableRecord
100
AcDbLayerTableRecord
2
80
70
0
62
-6
6
Continuous
290
1
370
-3
390
0
0
LAYER
5
73
100
AcDbSymbolTableRecord
100
AcDbLayerTableRecord
2
81
70
0
62
-3
6
Continuous
290
1
370
-3
390
0
0
LAYER
5
75
100
AcDbSymbolTableRecord
100
AcDbLayerTableRecord
2
1
70
0
62
4
6
Continuous
290
1
370
-3
390
0
0
LAYER
5
8C
100
AcDbSymbolTableRecord
100
AcDbLayerTableRecord
2
4
70
0
62
-2
6
CENTER
290
1
370
-3
390
0
0
LAYER
5
AB
100
AcDbSymbolTableRecord
100
AcDbLayerTableRecord
2
2
70
0
62
7
6
Continuous
290
1
370
-3
390
0
0
LAYER
5
132
100
AcDbSymbolTableRecord
100
AcDbLayerTableRecord
2
Defpoints
70
0
62
7
6
Continuous
290
0
370
-3
390
0
0
LAYER
5
209
100
AcDbSymbolTableRecord
100
AcDbLayerTableRecord
2
SK1
70
0
62
4
6
Continuous
290
1
370
-3
390
0
0
LAYER
5
20a
100
AcDbSymbolTableRecord
100
AcDbLayerTableRecord
2
SK4
70
0
62
2
6
CENTER
290
1
370
-3
390
0
0
LAYER
5
20b
100
AcDbSymbolTableRecord
100
AcDbLayerTableRecord
2
SK2
70
0
62
7
6
Continuous
290
1
370
-3
390
0
0
LAYER
5
20c
100
AcDbSymbolTableRecord
100
AcDbLayerTableRecord
2
SK6
70
0
62
5
6
Continuous
290
1
370
-3
390
0
0
ENDTAB
0
TABLE
2
STYLE
5
220
100
AcDbSymbolTable
0
STYLE
5
11
100
AcDbSymbolTableRecord
100
AcDbTextStyleTableRecord
2
Standard
3
txt
70
0
71
0
40
0
41
1
42
0
50
0
0
STYLE
5
117
100
AcDbSymbolTableRecord
100
AcDbTextStyleTableRecord
2
iso_b_vert
3
simplex.shx
70
0
71
0
40
0
41
1
42
0
50
0
0
STYLE
5
118
100
AcDbSymbolTableRecord
100
AcDbTextStyleTableRecord
2
DWGDirectTextStyle
3
simplex
70
0
71
0
40
0
41
1
42
0
50
0
0
ENDTAB
0
TABLE
2
DIMSTYLE
5
221
100
AcDbSymbolTable
100
AcDbDimStyleTable
0
DIMSTYLE
105
27
100
AcDbSymbolTableRecord
100
AcDbDimStyleTableRecord
2
Standard
70
0
3
<>
41
0.18
42
0.0625
44
0.18
140
0.18
147
0.09
73
0
74
0
77
1
271
2
275
0
278
52
280
0
340
11
0
ENDTAB
0
TABLE
2
VIEW
5
222
100
AcDbSymbolTable
0
ENDTAB
0
TABLE
2
UCS
5
223
100
AcDbSymbolTable
0
ENDTAB
0
TABLE
2
APPID
5
224
100
AcDbSymbolTable
0
APPID
5
12
100
AcDbSymbolTableRecord
100
AcDbRegAppTableRecord
2
ACAD
70
0
0
APPID
5
12E
100
AcDbSymbolTableRecord
100
AcDbRegAppTableRecord
2
ACAD_DSTYLE_DIMBREAK
70
0
0
APPID
5
1C8
100
AcDbSymbolTableRecord
100
AcDbRegAppTableRecord
2
ACAD_DSTYLE_DIM_LINETYPE
70
0
0
APPID
5
1C9
100
AcDbSymbolTableRecord
100
AcDbRegAppTableRecord
2
ACAD_DSTYLE_DIM_EXT1_LINETYPE
70
0
0
APPID
5
1CA
100
AcDbSymbolTableRecord
100
AcDbRegAppTableRecord
2
ACAD_DSTYLE_DIM_EXT2_LINETYPE
70
0
0
APPID
5
205
100
AcDbSymbolTableRecord
100
AcDbRegAppTableRecord
2
ACAD_MLEADERVER
70
0
0
ENDTAB
0
TABLE
2
BLOCK_RECORD
5
225
100
AcDbSymbolTable
0
BLOCK_RECORD
5
1F
100
AcDbSymbolTableRecord
100
AcDbBlockTableRecord
2
*Model_Space
340
0
70
0
0
BLOCK_RECORD
5
1B
100
AcDbSymbolTableRecord
100
AcDbBlockTableRecord
2
*Paper_Space
340
0
70
0
0
BLOCK_RECORD
5
23
100
AcDbSymbolTableRecord
100
AcDbBlockTableRecord
2
*Paper_Space0
340
0
70
0
0
BLOCK_RECORD
5
133
100
AcDbSymbolTableRecord
100
AcDbBlockTableRecord
2
*D1
340
0
70
0
0
BLOCK_RECORD
5
13F
100
AcDbSymbolTableRecord
100
AcDbBlockTableRecord
2
_U0
340
0
70
0
0
BLOCK_RECORD
5
14B
100
AcDbSymbolTableRecord
100
AcDbBlockTableRecord
2
*D3
340
0
70
0
0
BLOCK_RECORD
5
157
100
AcDbSymbolTableRecord
100
AcDbBlockTableRecord
2
_U1
340
0
70
0
0
BLOCK_RECORD
5
163
100
AcDbSymbolTableRecord
100
AcDbBlockTableRecord
2
*D5
340
0
70
0
0
BLOCK_RECORD
5
16F
100
AcDbSymbolTableRecord
100
AcDbBlockTableRecord
2
_U2
340
0
70
0
0
BLOCK_RECORD
5
17B
100
AcDbSymbolTableRecord
100
AcDbBlockTableRecord
2
*D7
340
0
70
0
0
BLOCK_RECORD
5
189
100
AcDbSymbolTableRecord
100
AcDbBlockTableRecord
2
_U3
340
0
70
0
0
BLOCK_RECORD
5
195
100
AcDbSymbolTableRecord
100
AcDbBlockTableRecord
2
*D9
340
0
70
0
0
BLOCK_RECORD
5
1A1
100
AcDbSymbolTableRecord
100
AcDbBlockTableRecord
2
_U4
340
0
70
0
0
ENDTAB
0
ENDSEC
0
SECTION
2
BLOCKS
0
BLOCK
5
20
100
AcDbEntity
8
0
100
AcDbBlockBegin
2
*Model_Space
70
0
10
0
20
0
30
0
3
*Model_Space
0
ENDBLK
5
21
100
AcDbEntity
8
0
100
AcDbBlockEnd
0
BLOCK
5
1C
100
AcDbEntity
8
0
100
AcDbBlockBegin
2
*Paper_Space
70
0
10
0
20
0
30
0
3
*Paper_Space
0
ENDBLK
5
1D
100
AcDbEntity
8
0
100
AcDbBlockEnd
0
BLOCK
5
24
100
AcDbEntity
8
0
100
AcDbBlockBegin
2
*Paper_Space0
70
0
10
0
20
0
30
0
3
*Paper_Space0
0
ENDBLK
5
25
100
AcDbEntity
8
0
100
AcDbBlockEnd
0
BLOCK
5
134
100
AcDbEntity
8
0
100
AcDbBlockBegin
2
*D1
70
1
10
0
20
0
30
0
3
*D1
0
LINE
5
136
100
AcDbEntity
8
0
62
256
6
ByLayer
370
-2
48
1
60
0
100
AcDbLine
10
0
20
-1.5875
30
0
11
0
21
-16.913398
31
0
39
0
210
0
220
0
230
1
0
LINE
5
137
100
AcDbEntity
8
0
62
256
6
ByLayer
370
-2
48
1
60
0
100
AcDbLine
10
110.6064
20
-6.2875
30
0
11
110.6064
21
-16.913398
31
0
39
0
210
0
220
0
230
1
0
LINE
5
138
100
AcDbEntity
8
0
62
256
6
ByLayer
370
-2
48
1
60
0
100
AcDbLine
10
3.5
20
-14.913398
30
0
11
107.1064
21
-14.913398
31
0
39
0
210
0
220
0
230
1
0
SOLID
5
139
100
AcDbEntity
8
0
62
256
6
ByLayer
370
-1
48
1
60
0
100
AcDbTrace
10
3.5
20
-14.330065
30
0
11
3.5
21
-15.496732
31
0
12
0
22
-14.913398
32
0
13
0
23
-14.913398
33
0
39
0
210
0
220
0
230
1
0
SOLID
5
13A
100
AcDbEntity
8
0
62
256
6
ByLayer
370
-1
48
1
60
0
100
AcDbTrace
10
107.1064
20
-15.496732
30
0
11
107.1064
21
-14.330065
31
0
12
110.6064
22
-14.913398
32
0
13
110.6064
23
-14.913398
33
0
39
0
210
0
220
0
230
1
0
MTEXT
5
13B
100
AcDbEntity
8
0
62
256
6
ByLayer
370
18
48
1
60
0
100
AcDbMText
10
55.3032
20
-7.913398
30
0
210
0
220
0
230
1
1
\A1;110.61
40
3.5
41
0
44
1
50
0
71
5
72
5
7
iso_b_vert
0
POINT
5
13C
100
AcDbEntity
8
Defpoints
62
0
6
ByLayer
370
-1
48
1
60
0
100
AcDbPoint
10
0
20
0
30
0
39
0
210
0
220
0
230
1
50
360
0
POINT
5
13D
100
AcDbEntity
8
Defpoints
62
0
6
ByLayer
370
-1
48
1
60
0
100
AcDbPoint
10
110.6064
20
-4.7
30
0
39
0
210
0
220
0
230
1
50
360
0
POINT
5
13E
100
AcDbEntity
8
Defpoints
62
0
6
ByLayer
370
-1
48
1
60
0
100
AcDbPoint
10
110.6064
20
-14.913398
30
0
39
0
210
0
220
0
230
1
50
360
0
ENDBLK
5
135
100
AcDbEntity
8
0
100
AcDbBlockEnd
0
BLOCK
5
146
100
AcDbEntity
8
0
100
AcDbBlockBegin
2
_U0
70
0
10
0
20
0
30
0
3
_U0
0
MTEXT
5
140
100
AcDbEntity
8
SK2
62
256
6
ByLayer
370
13
48
1
60
0
100
AcDbMText
10
50.170468
20
-13.880765
30
0
210
0
220
0
230
1
1
\W0.6303;110,61
40
3.5
41
0
44
1.084337
50
0
71
7
72
5
7
iso_b_vert
0
LINE
5
141
100
AcDbEntity
8
SK2
62
256
6
ByLayer
370
13
48
1
60
0
100
AcDbLine
10
0
20
-1.5875
30
0
11
0
21
-16.913398
31
0
39
0
210
0
220
0
230
1
0
LINE
5
142
100
AcDbEntity
8
SK2
62
256
6
ByLayer
370
13
48
1
60
0
100
AcDbLine
10
110.6064
20
-6.2875
30
0
11
110.6064
21
-16.913398
31
0
39
0
210
0
220
0
230
1
0
LINE
5
143
100
AcDbEntity
8
SK2
62
256
6
ByLayer
370
13
48
1
60
0
100
AcDbLine
10
0
20
-14.913398
30
0
11
110.6064
21
-14.913398
31
0
39
0
210
0
220
0
230
1
0
SOLID
5
144
100
AcDbEntity
8
SK2
62
256
6
ByLayer
370
18
48
1
60
0
100
AcDbTrace
10
0
20
-14.913398
30
0
11
3.499998
21
-14.452615
31
0
12
3.500002
22
-15.374182
32
0
13
3.500002
23
-15.374182
33
0
39
0
210
0
220
0
230
1
0
SOLID
5
145
100
AcDbEntity
8
SK2
62
256
6
ByLayer
370
18
48
1
60
0
100
AcDbTrace
10
110.6064
20
-14.913398
30
0
11
107.106402
21
-15.374182
31
0
12
107.106398
22
-14.452615
32
0
13
107.106398
23
-14.452615
33
0
39
0
210
0
220
0
230
1
0
ENDBLK
5
147
100
AcDbEntity
8
0
100
AcDbBlockEnd
0
BLOCK
5
14C
100
AcDbEntity
8
0
100
AcDbBlockBegin
2
*D3
70
1
10
0
20
0
30
0
3
*D3
0
LINE
5
14E
100
AcDbEntity
8
0
62
256
6
ByLayer
370
-2
48
1
60
0
100
AcDbLine
10
-40
20
-6.5875
30
0
11
-40
21
-35.692985
31
0
39
0
210
0
220
0
230
1
0
LINE
5
14F
100
AcDbEntity
8
0
62
256
6
ByLayer
370
-2
48
1
60
0
100
AcDbLine
10
112
20
-1.5875
30
0
11
112
21
-35.692985
31
0
39
0
210
0
220
0
230
1
0
LINE
5
150
100
AcDbEntity
8
0
62
256
6
ByLayer
370
-2
48
1
60
0
100
AcDbLine
10
-36.5
20
-33.692985
30
0
11
108.5
21
-33.692985
31
0
39
0
210
0
220
0
230
1
0
SOLID
5
151
100
AcDbEntity
8
0
62
256
6
ByLayer
370
-1
48
1
60
0
100
AcDbTrace
10
-36.5
20
-33.109652
30
0
11
-36.5
21
-34.276319
31
0
12
-40
22
-33.692985
32
0
13
-40
23
-33.692985
33
0
39
0
210
0
220
0
230
1
0
SOLID
5
152
100
AcDbEntity
8
0
62
256
6
ByLayer
370
-1
48
1
60
0
100
AcDbTrace
10
108.5
20
-34.276319
30
0
11
108.5
21
-33.109652
31
0
12
112
22
-33.692985
32
0
13
112
23
-33.692985
33
0
39
0
210
0
220
0
230
1
0
MTEXT
5
153
100
AcDbEntity
8
0
62
256
6
ByLayer
370
18
48
1
60
0
100
AcDbMText
10
36
20
-26.692985
30
0
210
0
220
0
230
1
1
\A1;152.00
40
3.5
41
0
44
1
50
0
71
5
72
5
7
iso_b_vert
0
POINT
5
154
100
AcDbEntity
8
Defpoints
62
0
6
ByLayer
370
-1
48
1
60
0
100
AcDbPoint
10
-40
20
-5
30
0
39
0
210
0
220
0
230
1
50
360
0
POINT
5
155
100
AcDbEntity
8
Defpoints
62
0
6
ByLayer
370
-1
48
1
60
0
100
AcDbPoint
10
112
20
0
30
0
39
0
210
0
220
0
230
1
50
360
0
POINT
5
156
100
AcDbEntity
8
Defpoints
62
0
6
ByLayer
370
-1
48
1
60
0
100
AcDbPoint
10
112
20
-33.692985
30
0
39
0
210
0
220
0
230
1
50
360
0
ENDBLK
5
14D
100
AcDbEntity
8
0
100
AcDbBlockEnd
0
BLOCK
5
15E
100
AcDbEntity
8
0
100
AcDbBlockBegin
2
_U1
70
0
10
0
20
0
30
0
3
_U1
0
MTEXT
5
158
100
AcDbEntity
8
SK2
62
256
6
ByLayer
370
13
48
1
60
0
100
AcDbMText
10
29.992401
20
-32.660352
30
0
210
0
220
0
230
1
1
\W0.6930;152,00
40
3.5
41
0
44
1.084337
50
0
71
7
72
5
7
iso_b_vert
0
LINE
5
159
100
AcDbEntity
8
SK2
62
256
6
ByLayer
370
13
48
1
60
0
100
AcDbLine
10
-40
20
-6.5875
30
0
11
-40
21
-35.692985
31
0
39
0
210
0
220
0
230
1
0
LINE
5
15A
100
AcDbEntity
8
SK2
62
256
6
ByLayer
370
13
48
1
60
0
100
AcDbLine
10
112
20
-1.5875
30
0
11
112
21
-35.692985
31
0
39
0
210
0
220
0
230
1
0
LINE
5
15B
100
AcDbEntity
8
SK2
62
256
6
ByLayer
370
13
48
1
60
0
100
AcDbLine
10
-40
20
-33.692985
30
0
11
112
21
-33.692985
31
0
39
0
210
0
220
0
230
1
0
SOLID
5
15C
100
AcDbEntity
8
SK2
62
256
6
ByLayer
370
18
48
1
60
0
100
AcDbTrace
10
-40
20
-33.692985
30
0
11
-36.500002
21
-33.232202
31
0
12
-36.499998
22
-34.153769
32
0
13
-36.499998
23
-34.153769
33
0
39
0
210
0
220
0
230
1
0
SOLID
5
15D
100
AcDbEntity
8
SK2
62
256
6
ByLayer
370
18
48
1
60
0
100
AcDbTrace
10
112
20
-33.692985
30
0
11
108.500002
21
-34.153769
31
0
12
108.499998
22
-33.232202
32
0
13
108.499998
23
-33.232202
33
0
39
0
210
0
220
0
230
1
0
ENDBLK
5
15F
100
AcDbEntity
8
0
100
AcDbBlockEnd
0
BLOCK
5
164
100
AcDbEntity
8
0
100
AcDbBlockBegin
2
*D5
70
1
10
0
20
0
30
0
3
*D5
0
LINE
5
166
100
AcDbEntity
8
0
62
256
6
ByLayer
370
-2
48
1
60
0
100
AcDbLine
10
35.41
20
6.2875
30
0
11
35.41
21
18.309119
31
0
39
0
210
0
220
0
230
1
0
LINE
5
167
100
AcDbEntity
8
0
62
256
6
ByLayer
370
-2
48
1
60
0
100
AcDbLine
10
112
20
1.5875
30
0
11
112
21
18.309119
31
0
39
0
210
0
220
0
230
1
0
LINE
5
168
100
AcDbEntity
8
0
62
256
6
ByLayer
370
-2
48
1
60
0
100
AcDbLine
10
38.91
20
16.309119
30
0
11
108.5
21
16.309119
31
0
39
0
210
0
220
0
230
1
0
SOLID
5
169
100
AcDbEntity
8
0
62
256
6
ByLayer
370
-1
48
1
60
0
100
AcDbTrace
10
38.91
20
16.892453
30
0
11
38.91
21
15.725786
31
0
12
35.41
22
16.309119
32
0
13
35.41
23
16.309119
33
0
39
0
210
0
220
0
230
1
0
SOLID
5
16A
100
AcDbEntity
8
0
62
256
6
ByLayer
370
-1
48
1
60
0
100
AcDbTrace
10
108.5
20
15.725786
30
0
11
108.5
21
16.892453
31
0
12
112
22
16.309119
32
0
13
112
23
16.309119
33
0
39
0
210
0
220
0
230
1
0
MTEXT
5
16B
100
AcDbEntity
8
0
62
256
6
ByLayer
370
18
48
1
60
0
100
AcDbMText
10
73.705
20
23.309119
30
0
210
0
220
0
230
1
1
\A1;76.59
40
3.5
41
0
44
1
50
0
71
5
72
5
7
iso_b_vert
0
POINT
5
16C
100
AcDbEntity
8
Defpoints
62
0
6
ByLayer
370
-1
48
1
60
0
100
AcDbPoint
10
35.41
20
4.7
30
0
39
0
210
0
220
0
230
1
50
360
0
POINT
5
16D
100
AcDbEntity
8
Defpoints
62
0
6
ByLayer
370
-1
48
1
60
0
100
AcDbPoint
10
112
20
0
30
0
39
0
210
0
220
0
230
1
50
360
0
POINT
5
16E
100
AcDbEntity
8
Defpoints
62
0
6
ByLayer
370
-1
48
1
60
0
100
AcDbPoint
10
112
20
16.309119
30
0
39
0
210
0
220
0
230
1
50
360
0
ENDBLK
5
165
100
AcDbEntity
8
0
100
AcDbBlockEnd
0
BLOCK
5
176
100
AcDbEntity
8
0
100
AcDbBlockBegin
2
_U2
70
0
10
0
20
0
30
0
3
_U2
0
MTEXT
5
170
100
AcDbEntity
8
SK2
62
256
6
ByLayer
370
13
48
1
60
0
100
AcDbMText
10
68.567701
20
17.341753
30
0
210
0
220
0
230
1
1
\W0.7402;76,59
40
3.5
41
0
44
1.084337
50
0
71
7
72
5
7
iso_b_vert
0
LINE
5
171
100
AcDbEntity
8
SK2
62
256
6
ByLayer
370
13
48
1
60
0
100
AcDbLine
10
35.41
20
6.2875
30
0
11
35.41
21
18.309119
31
0
39
0
210
0
220
0
230
1
0
LINE
5
172
100
AcDbEntity
8
SK2
62
256
6
ByLayer
370
13
48
1
60
0
100
AcDbLine
10
112
20
1.5875
30
0
11
112
21
18.309119
31
0
39
0
210
0
220
0
230
1
0
LINE
5
173
100
AcDbEntity
8
SK2
62
256
6
ByLayer
370
13
48
1
60
0
100
AcDbLine
10
35.41
20
16.309119
30
0
11
112
21
16.309119
31
0
39
0
210
0
220
0
230
1
0
SOLID
5
174
100
AcDbEntity
8
SK2
62
256
6
ByLayer
370
18
48
1
60
0
100
AcDbTrace
10
35.41
20
16.309119
30
0
11
38.909998
21
16.769903
31
0
12
38.910002
22
15.848335
32
0
13
38.910002
23
15.848335
33
0
39
0
210
0
220
0
230
1
0
SOLID
5
175
100
AcDbEntity
8
SK2
62
256
6
ByLayer
370
18
48
1
60
0
100
AcDbTrace
10
112
20
16.309119
30
0
11
108.500002
21
15.848335
31
0
12
108.499998
22
16.769903
32
0
13
108.499998
23
16.769903
33
0
39
0
210
0
220
0
230
1
0
ENDBLK
5
177
100
AcDbEntity
8
0
100
AcDbBlockEnd
0
BLOCK
5
17C
100
AcDbEntity
8
0
100
AcDbBlockBegin
2
*D7
70
1
10
0
20
0
30
0
3
*D7
0
LINE
5
17E
100
AcDbEntity
8
0
62
256
6
ByLayer
370
-2
48
1
60
0
100
AcDbLine
10
112
20
-1.5875
30
0
11
112
21
-19.502503
31
0
39
0
210
0
220
0
230
1
0
LINE
5
17F
100
AcDbEntity
8
0
62
256
6
ByLayer
370
-2
48
1
60
0
100
AcDbLine
10
110.6064
20
-6.2875
30
0
11
110.6064
21
-19.502503
31
0
39
0
210
0
220
0
230
1
0
LINE
5
180
100
AcDbEntity
8
0
62
256
6
ByLayer
370
-2
48
1
60
0
100
AcDbLine
10
112
20
-17.502503
30
0
11
139.5
21
-17.502503
31
0
39
0
210
0
220
0
230
1
0
LINE
5
181
100
AcDbEntity
8
0
62
256
6
ByLayer
370
-2
48
1
60
0
100
AcDbLine
10
115.5
20
-17.502503
30
0
11
119
21
-17.502503
31
0
39
0
210
0
220
0
230
1
0
LINE
5
182
100
AcDbEntity
8
0
62
256
6
ByLayer
370
-2
48
1
60
0
100
AcDbLine
10
107.1064
20
-17.502503
30
0
11
103.6064
21
-17.502503
31
0
39
0
210
0
220
0
230
1
0
SOLID
5
183
100
AcDbEntity
8
0
62
256
6
ByLayer
370
-1
48
1
60
0
100
AcDbTrace
10
115.5
20
-16.91917
30
0
11
115.5
21
-18.085837
31
0
12
112
22
-17.502503
32
0
13
112
23
-17.502503
33
0
39
0
210
0
220
0
230
1
0
SOLID
5
184
100
AcDbEntity
8
0
62
256
6
ByLayer
370
-1
48
1
60
0
100
AcDbTrace
10
107.1064
20
-18.085837
30
0
11
107.1064
21
-16.91917
31
0
12
110.6064
22
-17.502503
32
0
13
110.6064
23
-17.502503
33
0
39
0
210
0
220
0
230
1
0
MTEXT
5
185
100
AcDbEntity
8
0
62
256
6
ByLayer
370
18
48
1
60
0
100
AcDbMText
10
129.25
20
-10.502503
30
0
210
0
220
0
230
1
1
\A1;1.39
40
3.5
41
0
44
1
50
0
71
5
72
5
7
iso_b_vert
0
POINT
5
186
100
AcDbEntity
8
Defpoints
62
0
6
ByLayer
370
-1
48
1
60
0
100
AcDbPoint
10
112
20
0
30
0
39
0
210
0
220
0
230
1
50
360
0
POINT
5
187
100
AcDbEntity
8
Defpoints
62
0
6
ByLayer
370
-1
48
1
60
0
100
AcDbPoint
10
110.6064
20
-4.7
30
0
39
0
210
0
220
0
230
1
50
360
0
POINT
5
188
100
AcDbEntity
8
Defpoints
62
0
6
ByLayer
370
-1
48
1
60
0
100
AcDbPoint
10
110.6064
20
-17.502503
30
0
39
0
210
0
220
0
230
1
50
360
0
ENDBLK
5
17D
100
AcDbEntity
8
0
100
AcDbBlockEnd
0
BLOCK
5
190
100
AcDbEntity
8
0
100
AcDbBlockBegin
2
_U3
70
0
10
0
20
0
30
0
3
_U3
0
MTEXT
5
18A
100
AcDbEntity
8
SK2
62
256
6
ByLayer
370
13
48
1
60
0
100
AcDbMText
10
118.589293
20
-16.46987
30
0
210
0
220
0
230
1
1
\W0.6463;1,39
40
3.5
41
0
44
1.084337
50
0
71
7
72
5
7
iso_b_vert
0
LINE
5
18B
100
AcDbEntity
8
SK2
62
256
6
ByLayer
370
13
48
1
60
0
100
AcDbLine
10
112
20
-1.5875
30
0
11
112
21
-19.502503
31
0
39
0
210
0
220
0
230
1
0
LINE
5
18C
100
AcDbEntity
8
SK2
62
256
6
ByLayer
370
13
48
1
60
0
100
AcDbLine
10
110.6064
20
-6.2875
30
0
11
110.6064
21
-19.502503
31
0
39
0
210
0
220
0
230
1
0
LINE
5
18D
100
AcDbEntity
8
SK2
62
256
6
ByLayer
370
13
48
1
60
0
100
AcDbLine
10
101.8564
20
-17.502503
30
0
11
125.559058
21
-17.502503
31
0
39
0
210
0
220
0
230
1
0
SOLID
5
18E
100
AcDbEntity
8
SK2
62
256
6
ByLayer
370
18
48
1
60
0
100
AcDbTrace
10
112
20
-17.502503
30
0
11
115.499998
21
-17.041719
31
0
12
115.500002
22
-17.963287
32
0
13
115.500002
23
-17.963287
33
0
39
0
210
0
220
0
230
1
0
SOLID
5
18F
100
AcDbEntity
8
SK2
62
256
6
ByLayer
370
18
48
1
60
0
100
AcDbTrace
10
110.6064
20
-17.502503
30
0
11
107.106402
21
-17.963287
31
0
12
107.106398
22
-17.041719
32
0
13
107.106398
23
-17.041719
33
0
39
0
210
0
220
0
230
1
0
ENDBLK
5
191
100
AcDbEntity
8
0
100
AcDbBlockEnd
0
BLOCK
5
196
100
AcDbEntity
8
0
100
AcDbBlockBegin
2
*D9
70
1
10
0
20
0
30
0
3
*D9
0
LINE
5
198
100
AcDbEntity
8
0
62
256
6
ByLayer
370
-2
48
1
60
0
100
AcDbLine
10
-40
20
-6.5875
30
0
11
-40
21
-25.343428
31
0
39
0
210
0
220
0
230
1
0
LINE
5
199
100
AcDbEntity
8
0
62
256
6
ByLayer
370
-2
48
1
60
0
100
AcDbLine
10
110.6064
20
-6.2875
30
0
11
110.6064
21
-25.343428
31
0
39
0
210
0
220
0
230
1
0
LINE
5
19A
100
AcDbEntity
8
0
62
256
6
ByLayer
370
-2
48
1
60
0
100
AcDbLine
10
-36.5
20
-23.343428
30
0
11
107.1064
21
-23.343428
31
0
39
0
210
0
220
0
230
1
0
SOLID
5
19B
100
AcDbEntity
8
0
62
256
6
ByLayer
370
-1
48
1
60
0
100
AcDbTrace
10
-36.5
20
-22.760095
30
0
11
-36.5
21
-23.926762
31
0
12
-40
22
-23.343428
32
0
13
-40
23
-23.343428
33
0
39
0
210
0
220
0
230
1
0
SOLID
5
19C
100
AcDbEntity
8
0
62
256
6
ByLayer
370
-1
48
1
60
0
100
AcDbTrace
10
107.1064
20
-23.926762
30
0
11
107.1064
21
-22.760095
31
0
12
110.6064
22
-23.343428
32
0
13
110.6064
23
-23.343428
33
0
39
0
210
0
220
0
230
1
0
MTEXT
5
19D
100
AcDbEntity
8
0
62
256
6
ByLayer
370
18
48
1
60
0
100
AcDbMText
10
35.3032
20
-16.343428
30
0
210
0
220
0
230
1
1
\A1;150.61
40
3.5
41
0
44
1
50
0
71
5
72
5
7
iso_b_vert
0
POINT
5
19E
100
AcDbEntity
8
Defpoints
62
0
6
ByLayer
370
-1
48
1
60
0
100
AcDbPoint
10
-40
20
-5
30
0
39
0
210
0
220
0
230
1
50
360
0
POINT
5
19F
100
AcDbEntity
8
Defpoints
62
0
6
ByLayer
370
-1
48
1
60
0
100
AcDbPoint
10
110.6064
20
-4.7
30
0
39
0
210
0
220
0
230
1
50
360
0
POINT
5
1A0
100
AcDbEntity
8
Defpoints
62
0
6
ByLayer
370
-1
48
1
60
0
100
AcDbPoint
10
110.6064
20
-23.343428
30
0
39
0
210
0
220
0
230
1
50
360
0
ENDBLK
5
197
100
AcDbEntity
8
0
100
AcDbBlockEnd
0
BLOCK
5
1A8
100
AcDbEntity
8
0
100
AcDbBlockBegin
2
_U4
70
0
10
0
20
0
30
0
3
_U4
0
MTEXT
5
1A2
100
AcDbEntity
8
SK2
62
256
6
ByLayer
370
13
48
1
60
0
100
AcDbMText
10
29.733035
20
-22.310795
30
0
210
0
220
0
230
1
1
\W0.6822;150,61
40
3.5
41
0
44
1.084337
50
0
71
7
72
5
7
iso_b_vert
0
LINE
5
1A3
100
AcDbEntity
8
SK2
62
256
6
ByLayer
370
13
48
1
60
0
100
AcDbLine
10
-40
20
-6.5875
30
0
11
-40
21
-25.343428
31
0
39
0
210
0
220
0
230
1
0
LINE
5
1A4
100
AcDbEntity
8
SK2
62
256
6
ByLayer
370
13
48
1
60
0
100
AcDbLine
10
110.6064
20
-6.2875
30
0
11
110.6064
21
-25.343428
31
0
39
0
210
0
220
0
230
1
0
LINE
5
1A5
100
AcDbEntity
8
SK2
62
256
6
ByLayer
370
13
48
1
60
0
100
AcDbLine
10
-40
20
-23.343428
30
0
11
110.6064
21
-23.343428
31
0
39
0
210
0
220
0
230
1
0
SOLID
5
1A6
100
AcDbEntity
8
SK2
62
256
6
ByLayer
370
18
48
1
60
0
100
AcDbTrace
10
-40
20
-23.343428
30
0
11
-36.500002
21
-22.882645
31
0
12
-36.499998
22
-23.804212
32
0
13
-36.499998
23
-23.804212
33
0
39
0
210
0
220
0
230
1
0
SOLID
5
1A7
100
AcDbEntity
8
SK2
62
256
6
ByLayer
370
18
48
1
60
0
100
AcDbTrace
10
110.6064
20
-23.343428
30
0
11
107.106402
21
-23.804212
31
0
12
107.106398
22
-22.882645
32
0
13
107.106398
23
-22.882645
33
0
39
0
210
0
220
0
230
1
0
ENDBLK
5
1A9
100
AcDbEntity
8
0
100
AcDbBlockEnd
0
ENDSEC
0
SECTION
2
ENTITIES
0
ARC
5
B4
100
AcDbEntity
8
1
62
256
6
ByLayer
370
18
48
1
60
0
100
AcDbCircle
39
0
10
1.021367
20
-5.431588
30
0
40
0.800000000000002
210
0
220
0
230
1
100
AcDbArc
50
89.96419
51
129.669238
0
ARC
5
B5
100
AcDbEntity
8
1
62
256
6
ByLayer
370
18
48
1
60
0
100
AcDbCircle
39
0
10
1.021367
20
5.431588
30
0
40
0.800000000000002
210
0
220
0
230
1
100
AcDbArc
50
230.330762
51
270.03581
0
ARC
5
B6
100
AcDbEntity
8
1
62
256
6
ByLayer
370
18
48
1
60
0
100
AcDbCircle
39
0
10
0
20
-4.2
30
0
40
0.799999999999999
210
0
220
0
230
1
100
AcDbArc
50
270
51
309.669238
0
ARC
5
B7
100
AcDbEntity
8
1
62
256
6
ByLayer
370
18
48
1
60
0
100
AcDbCircle
39
0
10
0
20
4.2
30
0
40
0.799999999999999
210
0
220
0
230
1
100
AcDbArc
50
50.330762
51
90
0
ELLIPSE
5
B8
100
AcDbEntity
8
1
62
256
6
ByLayer
370
13
48
1
60
0
100
AcDbEllipse
10
8.25015
20
-1.063049
30
0
11
0.0510955234029269
21
0.0859607322454907
31
0
210
0
220
0
230
1
40
0.123033
41
1.36478008337247
42
2.91967705978224
0
ELLIPSE
5
B9
100
AcDbEntity
8
1
62
256
6
ByLayer
370
13
48
1
60
0
100
AcDbEllipse
10
8.171447
20
-1.021677
30
0
11
0.040870888756824
21
0.0912664804417664
31
0
210
0
220
0
230
1
40
0.557385
41
1.60833959681118
42
2.88691029380346
0
POINT
5
70
100
AcDbEntity
8
80
62
256
6
ByLayer
370
18
48
1
60
0
100
AcDbPoint
10
0
20
0
30
0
39
0
210
0
220
0
230
1
50
360
0
POINT
5
72
100
AcDbEntity
8
81
62
256
6
ByLayer
370
18
48
1
60
0
100
AcDbPoint
10
112
20
0
30
0
39
0
210
0
220
0
230
1
50
360
0
POINT
5
74
100
AcDbEntity
8
1
62
256
6
ByLayer
370
18
48
1
60
1
100
AcDbPoint
10
110.6064
20
-4.7
30
0
39
0
210
0
220
0
230
1
50
360
0
POINT
5
76
100
AcDbEntity
8
1
62
256
6
ByLayer
370
18
48
1
60
1
100
AcDbPoint
10
-40
20
-5
30
0
39
0
210
0
220
0
230
1
50
360
0
POINT
5
77
100
AcDbEntity
8
1
62
256
6
ByLayer
370
18
48
1
60
1
100
AcDbPoint
10
35.41
20
4.7
30
0
39
0
210
0
220
0
230
1
50
360
0
POINT
5
78
100
AcDbEntity
8
1
62
256
6
ByLayer
370
18
48
1
60
1
100
AcDbPoint
10
110.6064
20
-4.7
30
0
39
0
210
0
220
0
230
1
50
360
0
POINT
5
79
100
AcDbEntity
8
1
62
256
6
ByLayer
370
18
48
1
60
1
100
AcDbPoint
10
-40
20
-5
30
0
39
0
210
0
220
0
230
1
50
360
0
POINT
5
7A
100
AcDbEntity
8
1
62
256
6
ByLayer
370
18
48
1
60
1
100
AcDbPoint
10
110.6064
20
-4.7
30
0
39
0
210
0
220
0
230
1
50
360
0
SPLINE
5
BA
100
AcDbEntity
8
SK1
62
256
6
ByLayer
370
18
48
1
60
0
100
AcDbSpline
70
4
71
3
72
12
73
8
40
0
40
0
40
0
40
0
40
0.5
40
0.5
40
0.75
40
0.75
40
1
40
1
40
1
40
1
41
1
10
-39.35
20
0.785662854026896
30
0
41
1
10
-39.3264103729719
20
0.795495471004216
30
0
41
1
10
-39.3036886178189
20
0.813061273955014
30
0
41
1
10
-39.275599229617
20
0.848960377494222
30
0
41
1
10
-39.2670477807071
20
0.862887145668452
30
0
41
1
10
-39.2542670006876
20
0.893695839550844
30
0
41
1
10
-39.25
20
0.911051137993667
30
0
41
1
10
-39.25
20
0.927674595307622
30
0
0
SPLINE
5
BB
100
AcDbEntity
8
SK1
62
256
6
ByLayer
370
18
48
1
60
0
100
AcDbSpline
70
4
71
3
72
8
73
4
40
0
40
0
40
0
40
0
40
1
40
1
40
1
40
1
41
1
10
-40
20
0.513346721541382
30
0
41
1
10
-39.7840198164477
20
0.604378546516131
30
0
41
1
10
-39.5672465509829
20
0.695110251269995
30
0
41
1
10
-39.35
20
0.785662854026924
30
0
0
SPLINE
5
BC
100
AcDbEntity
8
SK1
62
256
6
ByLayer
370
18
48
1
60
0
100
AcDbSpline
70
4
71
3
72
12
73
8
40
0
40
0
40
0
40
0
40
0.25
40
0.25
40
0.5
40
0.5
40
1
40
1
40
1
40
1
41
1
10
-39.25
20
2.57308952477519
30
0
41
1
10
-39.25
20
2.58691364350335
30
0
41
1
10
-39.254235624227
20
2.59794491079626
30
0
41
1
10
-39.2670201311554
20
2.61364822058596
30
0
41
1
10
-39.2754786511825
20
2.61854815314405
30
0
41
1
10
-39.3037388067419
20
2.62670122206939
30
0
41
1
10
-39.3264172660865
20
2.62373140833913
30
0
41
1
10
-39.35
20
2.61390166454649
30
0
0
SPLINE
5
BD
100
AcDbEntity
8
SK1
62
256
6
ByLayer
370
18
48
1
60
0
100
AcDbSpline
70
4
71
3
72
8
73
4
40
0
40
0
40
0
40
0
40
1
40
1
40
1
40
1
41
1
10
-39.35
20
2.61390166454646
30
0
41
1
10
-39.5672415048354
20
2.52335116512228
30
0
41
1
10
-39.7840138771994
20
2.43261986032371
30
0
41
1
10
-40
20
2.34158553206089
30
0
0
SPLINE
5
BE
100
AcDbEntity
8
1
62
256
6
ByLayer
370
18
48
1
60
0
100
AcDbSpline
70
4
71
3
72
8
73
4
40
0
40
0
40
0
40
0
40
1
40
1
40
1
40
1
41
1
10
111.860745707897
20
-0.227229570542988
30
0
41
1
10
111.687797845799
20
-0.702399916399401
30
0
41
1
10
111.514849983701
20
-1.17757026225584
30
0
41
1
10
111.341902121604
20
-1.65274060811225
30
0
0
SPLINE
5
BF
100
AcDbEntity
8
1
62
256
6
ByLayer
370
18
48
1
60
0
100
AcDbSpline
70
4
71
3
72
20
73
16
40
0
40
0
40
0
40
0
40
0.125
40
0.125
40
0.25
40
0.25
40
0.375
40
0.375
40
0.5
40
0.5
40
0.625
40
0.625
40
0.75
40
0.75
40
1
40
1
40
1
40
1
41
1
10
111.341902121603
20
-1.65274060811419
30
0
41
1
10
111.339736780039
20
-1.6776614573017
30
0
41
1
10
111.33550270609
20
-1.70607660182981
30
0
41
1
10
111.322858136016
20
-1.76996258871711
30
0
41
1
10
111.314410304838
20
-1.80536919607448
30
0
41
1
10
111.294309866869
20
-1.87917843534126
30
0
41
1
10
111.282389213525
20
-1.91855549239509
30
0
41
1
10
111.256437933331
20
-1.99746300072877
30
0
41
1
10
111.242229783453
20
-2.03760459930103
30
0
41
1
10
111.212328121233
20
-2.11706724556632
30
0
41
1
10
111.196865685534
20
-2.15581901590224
30
0
41
1
10
111.165060046266
20
-2.23157336788236
30
0
41
1
10
111.148806692628
20
-2.26832018682109
30
0
41
1
10
111.100607586944
20
-2.37218590095969
30
0
41
1
10
111.068440926982
20
-2.43469161690129
30
0
41
1
10
111.038225588225
20
-2.48708502639002
30
0
0
SPLINE
5
C0
100
AcDbEntity
8
1
62
256
6
ByLayer
370
18
48
1
60
0
100
AcDbSpline
70
4
71
3
72
20
73
16
40
0
40
0
40
0
40
0
40
0.25
40
0.25
40
0.3125
40
0.3125
40
0.375
40
0.375
40
0.5
40
0.5
40
0.75
40
0.75
40
0.875
40
0.875
40
1
40
1
40
1
40
1
41
1
10
7.99999973451992
20
3.19093370832047
30
0
41
1
10
7.99999973451995
20
2.92264669953232
30
0
41
1
10
7.99999973451995
20
2.62721320901875
30
0
41
1
10
7.99999973451997
20
2.22341666217133
30
0
41
1
10
7.99999973451997
20
2.14079652255856
30
0
41
1
10
7.99999973451995
20
1.973668370213
30
0
41
1
10
7.99999973451995
20
1.88897361821663
30
0
41
1
10
7.99999973451995
20
1.63150843794276
30
0
41
1
10
7.99999973451992
20
1.4544859159995
30
0
41
1
10
7.99999973451992
20
0.919078633649207
30
0
41
1
10
7.99999973451992
20
0.555050100327776
30
0
41
1
10
7.99999973451992
20
-0.0016363460686648
30
0
41
1
10
7.99999973451992
20
-0.189360387021736
30
0
41
1
10
7.99999973451992
20
-0.56052322924242
30
0
41
1
10
7.99999973451992
20
-0.744930089899185
30
0
41
1
10
7.99999973451992
20
-0.928146656868734
30
0
0
SPLINE
5
C1
100
AcDbEntity
8
1
62
256
6
ByLayer
370
18
48
1
60
0
100
AcDbSpline
70
4
71
3
72
14
73
10
40
0
40
0
40
0
40
0
40
0.481739473564013
40
0.481739473564013
40
0.666172290397864
40
0.666172290397864
40
0.850605107231717
40
0.850605107231717
40
1
40
1
40
1
40
1
41
1
10
86.9903836012602
20
-4.42681553882508
30
0
41
1
10
86.2997521950736
20
-4.42617209392753
30
0
41
1
10
85.6095847399581
20
-4.36640481981613
30
0
41
1
10
84.6457773819814
20
-4.20236676627758
30
0
41
1
10
84.3771786318258
20
-4.14810190012739
30
0
41
1
10
83.8430874458577
20
-4.0239185270996
30
0
41
1
10
83.5771147030536
20
-3.95392840692818
30
0
41
1
10
83.096827752928
20
-3.81373393884405
30
0
41
1
10
82.882293912556
20
-3.74610635535765
30
0
41
1
10
82.6679427409711
20
-3.6738233861393
30
0
0
SPLINE
5
C2
100
AcDbEntity
8
1
62
256
6
ByLayer
370
13
48
1
60
0
100
AcDbSpline
70
4
71
3
72
22
73
18
40
0
40
0
40
0
40
0
40
0.0925621371536519
40
0.0925621371536519
40
0.248131810075006
40
0.248131810075006
40
0.325916646535683
40
0.325916646535683
40
0.403701482996361
40
0.403701482996361
40
0.71484082883908
40
0.71484082883908
40
0.79262566529976
40
0.79262566529976
40
0.870410501760439
40
0.870410501760439
40
1
40
1
40
1
40
1
41
1
10
82.667942740896
20
-3.67382338611401
30
0
41
1
10
82.3530470335201
20
-3.56763503848188
30
0
41
1
10
82.038545552906
20
-3.45139966709999
30
0
41
1
10
81.1946301092571
20
-3.1148475799724
30
0
41
1
10
80.6647379752199
20
-2.87751862603778
30
0
41
1
10
79.863738258059
20
-2.48706381820367
30
0
41
1
10
79.5950783577246
20
-2.35089156188144
30
0
41
1
10
79.0611086097539
20
-2.07150327122724
30
0
41
1
10
78.795166342096
20
-1.92791818082196
30
0
41
1
10
77.4685035756891
20
-1.19407909868397
30
0
41
1
10
76.416690374821
20
-0.556480268570652
30
0
41
1
10
75.0806771199341
20
0.249710092066096
30
0
41
1
10
74.8120030741152
20
0.411656287646082
30
0
41
1
10
74.2782144054892
20
0.731186885508919
30
0
41
1
10
74.0123072548884
20
0.889170639897401
30
0
41
1
10
73.3048856588001
20
1.30382577417924
30
0
41
1
10
72.8644602603113
20
1.5563623579458
30
0
41
1
10
72.4236818811688
20
1.79916658478982
30
0
0
SPLINE
5
C3
100
AcDbEntity
8
1
62
256
6
ByLayer
370
18
48
1
60
0
100
AcDbSpline
70
4
71
3
72
16
73
12
40
0
40
0
40
0
40
0
40
0.175434765904794
40
0.175434765904794
40
0.535663363977431
40
0.535663363977431
40
0.715777663013748
40
0.715777663013748
40
0.895891962050068
40
0.895891962050068
40
1
40
1
40
1
40
1
41
1
10
40.9887541992742
20
-4.39813878820829
30
0
41
1
10
40.7307614286981
20
-4.39784221783509
30
0
41
1
10
40.4728055551347
20
-4.38933959610279
30
0
41
1
10
39.6841388228286
20
-4.3383846936039
30
0
41
1
10
39.1524592090497
20
-4.26966328856895
30
0
41
1
10
38.3478827744554
20
-4.1149448125532
30
0
41
1
10
38.0797390249252
20
-4.05497133619807
30
0
41
1
10
37.546287577782
20
-3.91977635854252
30
0
41
1
10
37.2804200936009
20
-3.84446446533801
30
0
41
1
10
36.8615804706528
20
-3.71417608030549
30
0
41
1
10
36.7083167488663
20
-3.66402514296325
30
0
41
1
10
36.5551270146164
20
-3.6115298526434
30
0
0
SPLINE
5
C4
100
AcDbEntity
8
1
62
256
6
ByLayer
370
13
48
1
60
0
100
AcDbSpline
70
4
71
3
72
22
73
18
40
0
40
0
40
0
40
0
40
0.271242357318784
40
0.271242357318784
40
0.350506888483659
40
0.350506888483659
40
0.429771419648533
40
0.429771419648533
40
0.588300481978284
40
0.588300481978284
40
0.746829544308034
40
0.746829544308034
40
0.826094075472908
40
0.826094075472908
40
0.905358606637782
40
0.905358606637782
40
1
40
1
40
1
40
1
41
1
10
36.5551270145725
20
-3.61152985262839
30
0
41
1
10
35.6482002718655
20
-3.30074282182136
30
0
41
1
10
34.7438667748133
20
-2.90778677378091
30
0
41
1
10
33.5573205743384
20
-2.31611113248343
30
0
41
1
10
33.2893110535505
20
-2.17758754201185
30
0
41
1
10
32.7558036897823
20
-1.89388254129682
30
0
41
1
10
32.4899884202992
20
-1.74833230052448
30
0
41
1
10
31.6938416987479
20
-1.30306820732596
30
0
41
1
10
31.1645929452762
20
-0.994995517491475
30
0
41
1
10
30.1036036992828
20
-0.365708712776268
30
0
41
1
10
29.5712601352571
20
-0.045411702621152
30
0
41
1
10
28.7659485735705
20
0.43693116816533
30
0
41
1
10
28.4981300051135
20
0.596657704785827
30
0
41
1
10
27.9646709508205
20
0.911592872524892
30
0
41
1
10
27.6988004673579
20
1.06709053980165
30
0
41
1
10
27.1164840784902
20
1.40250272014396
30
0
41
1
10
26.8001695332956
20
1.58120626597585
30
0
41
1
10
26.4837523237461
20
1.7549980342738
30
0
0
SPLINE
5
C5
100
AcDbEntity
8
1
62
256
6
ByLayer
370
18
48
1
60
0
100
AcDbSpline
70
4
71
3
72
8
73
4
40
0
40
0
40
0
40
0
40
1
40
1
40
1
40
1
41
1
10
8.76722723116603
20
-2.26571212627079
30
0
41
1
10
8.58769341118466
20
-2.45608200923692
30
0
41
1
10
8.41576089803362
20
-2.64148522624868
30
0
41
1
10
8.25003261580883
20
-2.81976163618162
30
0
0
SPLINE
5
C6
100
AcDbEntity
8
1
62
256
6
ByLayer
370
18
48
1
60
0
100
AcDbSpline
70
4
71
3
72
8
73
4
40
0
40
0
40
0
40
0
40
1
40
1
40
1
40
1
41
1
10
8.25003261718254
20
2.81976163470398
30
0
41
1
10
8.50461476570902
20
2.54590378217694
30
0
41
1
10
8.77383723497076
20
2.25522857669665
30
0
41
1
10
9.06276426121437
20
1.95556627640846
30
0
0
SPLINE
5
C7
100
AcDbEntity
8
1
62
256
6
ByLayer
370
18
48
1
60
0
100
AcDbSpline
70
4
71
3
72
14
73
10
40
0
40
0
40
0
40
0
40
0.250000000000001
40
0.250000000000001
40
0.5
40
0.5
40
0.75
40
0.75
40
1
40
1
40
1
40
1
41
1
10
7.99999973451992
20
-0.928146656868734
30
0
41
1
10
7.99999973451995
20
-0.945062929036084
30
0
41
1
10
8.00255505775985
20
-0.962351541042466
30
0
41
1
10
8.01277924482784
20
-0.99573329783712
30
0
41
1
10
8.02031532386673
20
-1.01169726139545
30
0
41
1
10
8.04024240456039
20
-1.04204732239216
30
0
41
1
10
8.05288563809967
20
-1.05665508437994
30
0
41
1
10
8.08261706750622
20
-1.08279784075845
30
0
41
1
10
8.09960626793463
20
-1.09438777875445
30
0
41
1
10
8.11907785055558
20
-1.10426047286788
30
0
0
SPLINE
5
C8
100
AcDbEntity
8
1
62
256
6
ByLayer
370
18
48
1
60
0
100
AcDbSpline
70
4
71
3
72
8
73
4
40
0
40
0
40
0
40
0
40
1
40
1
40
1
40
1
41
1
10
110.481429526131
20
4.57304309573522
30
0
41
1
10
110.421794500849
20
4.63121023544403
30
0
41
1
10
110.369633907289
20
4.66985851093213
30
0
41
1
10
110.324593200183
20
4.68802541765314
30
0
0
SPLINE
5
C9
100
AcDbEntity
8
1
62
256
6
ByLayer
370
18
48
1
60
0
100
AcDbSpline
70
4
71
3
72
14
73
10
40
0
40
0
40
0
40
0
40
0.25
40
0.25
40
0.5
40
0.5
40
0.75
40
0.75
40
1
40
1
40
1
40
1
41
1
10
110.250637959106
20
1.07014782443576
30
0
41
1
10
110.246671684115
20
1.08504830377814
30
0
41
1
10
110.245173045242
20
1.1007314416658
30
0
41
1
10
110.250211383515
20
1.13087816267148
30
0
41
1
10
110.257081549324
20
1.14539089112947
30
0
41
1
10
110.278398991403
20
1.16800681446901
30
0
41
1
10
110.29230097703
20
1.1758787765647
30
0
41
1
10
110.321283411518
20
1.18553519197871
30
0
41
1
10
110.336708251055
20
1.1875929961069
30
0
41
1
10
110.352070514356
20
1.18775136536149
30
0
0
SPLINE
5
CA
100
AcDbEntity
8
1
62
256
6
ByLayer
370
18
48
1
60
0
100
AcDbSpline
70
4
71
3
72
10
73
6
40
0
40
0
40
0
40
0
40
0.5
40
0.5
40
1
40
1
40
1
40
1
41
1
10
110.481429526122
20
4.57304309575986
30
0
41
1
10
110.711047316515
20
4.02098626603976
30
0
41
1
10
110.938960578683
20
3.46632160880094
30
0
41
1
10
111.386724500638
20
2.35011414776906
30
0
41
1
10
111.606623776476
20
1.78860462174029
30
0
41
1
10
111.820108903203
20
1.22275130584271
30
0
0
SPLINE
5
CB
100
AcDbEntity
8
1
62
256
6
ByLayer
370
18
48
1
60
0
100
AcDbSpline
70
4
71
3
72
14
73
10
40
0
40
0
40
0
40
0
40
0.25
40
0.25
40
0.499999999999999
40
0.499999999999999
40
0.749999999999999
40
0.749999999999999
40
1
40
1
40
1
40
1
41
1
10
8.11620469777893
20
-1.13611162735049
30
0
41
1
10
8.09832592321081
20
-1.12512725565304
30
0
41
1
10
8.08224326961314
20
-1.11220063511036
30
0
41
1
10
8.053555116887
20
-1.08256270124272
30
0
41
1
10
8.0410142000805
20
-1.06577485736852
30
0
41
1
10
8.02090339944769
20
-1.0301554012527
30
0
41
1
10
8.01304784456588
20
-1.01082551575342
30
0
41
1
10
8.00263947029902
20
-0.971175147470632
30
0
41
1
10
7.99999973451992
20
-0.950903370732561
30
0
41
1
10
7.99999973451992
20
-0.930169024910498
30
0
0
SPLINE
5
CC
100
AcDbEntity
8
1
62
256
6
ByLayer
370
18
48
1
60
0
100
AcDbSpline
70
4
71
3
72
8
73
4
40
0
40
0
40
0
40
0
40
1
40
1
40
1
40
1
41
1
10
7.99999973451992
20
-3.19093370832044
30
0
41
1
10
7.99999973451992
20
-3.1921281728396
30
0
41
1
10
7.99999973451992
20
-3.19332353337111
30
0
41
1
10
7.99999973451992
20
-3.1945197912398
30
0
0
SPLINE
5
CD
100
AcDbEntity
8
1
62
256
6
ByLayer
370
18
48
1
60
0
100
AcDbSpline
70
4
71
3
72
8
73
4
40
0
40
0
40
0
40
0
40
1
40
1
40
1
40
1
41
1
10
110.324593200183
20
4.68802541765314
30
0
41
1
10
110.149905202121
20
4.69589747558683
30
0
41
1
10
109.975151661444
20
4.69974969449237
30
0
41
1
10
109.800225702354
20
4.69957467057009
30
0
0
SPLINE
5
CE
100
AcDbEntity
8
1
62
256
6
ByLayer
370
18
48
1
60
0
100
AcDbSpline
70
4
71
3
72
50
73
46
40
0
40
0
40
0
40
0
40
0.0469542445928322
40
0.0469542445928322
40
0.0783830051443568
40
0.0783830051443568
40
0.094097385420119
40
0.094097385420119
40
0.109811765695881
40
0.109811765695881
40
0.172669286798933
40
0.172669286798933
40
0.235526807901984
40
0.235526807901984
40
0.266955568453509
40
0.266955568453509
40
0.298384329005034
40
0.298384329005034
40
0.424099371211135
40
0.424099371211135
40
0.455528131762661
40
0.455528131762661
40
0.486956892314187
40
0.486956892314187
40
0.549814413417241
40
0.549814413417241
40
0.612671934520294
40
0.612671934520294
40
0.644100695071821
40
0.644100695071821
40
0.659815075347585
40
0.659815075347585
40
0.675529455623348
40
0.675529455623348
40
0.801244497829461
40
0.801244497829461
40
0.832673258380989
40
0.832673258380989
40
0.864102018932517
40
0.864102018932517
40
0.926959540035572
40
0.926959540035572
40
0.989817061138627
40
0.989817061138627
40
1
40
1
40
1
40
1
41
1
10
89.1878883274181
20
-4.44036697019877
30
0
41
1
10
88.7926320446981
20
-4.5210885537584
30
0
41
1
10
88.3977898869305
20
-4.58229193798212
30
0
41
1
10
87.7368812700712
20
-4.65080667311875
30
0
41
1
10
87.4713937166597
20
-4.66924002274507
30
0
41
1
10
87.0717696947987
20
-4.68300279924307
30
0
41
1
10
86.9383295020834
20
-4.68527519062337
30
0
41
1
10
86.6708595463853
20
-4.68512914030592
30
0
41
1
10
86.5366076169248
20
-4.68270017106329
30
0
41
1
10
85.8669034636247
20
-4.65882121960604
30
0
41
1
10
85.3360972885722
20
-4.60236547056826
30
0
41
1
10
84.2771036914863
20
-4.41915636917304
30
0
41
1
10
83.7488295592571
20
-4.29244598286178
30
0
41
1
10
82.9530505972517
20
-4.05254538667677
30
0
41
1
10
82.6872074169622
20
-3.96428401568812
30
0
41
1
10
82.1534807530373
20
-3.77158513544933
30
0
41
1
10
81.8847145299577
20
-3.66676755703884
30
0
41
1
10
80.5474632072842
20
-3.10989977619036
30
0
41
1
10
79.4959888861046
20
-2.55863629347127
30
0
41
1
10
78.1681663977851
20
-1.78581792952025
30
0
41
1
10
77.901937521378
20
-1.62704427168151
30
0
41
1
10
77.3671905749375
20
-1.30232460722576
30
0
41
1
10
77.0982936260862
20
-1.13609913572895
30
0
41
1
10
76.2971987138091
20
-0.635203345703076
30
0
41
1
10
75.7673983922094
20
-0.296117078537492
30
0
41
1
10
74.7086531121466
20
0.380183879199535
30
0
41
1
10
74.179947426928
20
0.717779356259484
30
0
41
1
10
73.3821570897671
20
1.21422358625261
30
0
41
1
10
73.1155131622249
20
1.3781647620595
30
0
41
1
10
72.7136777002062
20
1.62049507627137
30
0
41
1
10
72.5793103232231
20
1.70072487993215
30
0
41
1
10
72.3115721606
20
1.85877725183852
30
0
41
1
10
72.1779957486233
20
1.9367249702496
30
0
41
1
10
70.9779562271508
20
2.62798469510588
30
0
41
1
10
69.9266363355778
20
3.16970043636087
30
0
41
1
10
68.5950649439416
20
3.71053567352854
30
0
41
1
10
68.3279484609408
20
3.81194887032009
30
0
41
1
10
67.7910316010334
20
3.9999041935337
30
0
41
1
10
67.5237792118737
20
4.08552823543118
30
0
41
1
10
66.7247187330876
20
4.31680112078945
30
0
41
1
10
66.1955604948514
20
4.4369937269862
30
0
41
1
10
65.1365108141462
20
4.60632817910192
30
0
41
1
10
64.607055464434
20
4.6556258151555
30
0
41
1
10
63.9871444828561
20
4.66980092517298
30
0
41
1
10
63.9006191595582
20
4.67080512985115
30
0
41
1
10
63.8139862632293
20
4.67082862385811
30
0
0
SPLINE
5
CF
100
AcDbEntity
8
1
62
256
6
ByLayer
370
18
48
1
60
0
100
AcDbSpline
70
4
71
3
72
48
73
44
40
0
40
0
40
0
40
0
40
0.0588234940323475
40
0.0588234940323475
40
0.0903136050165961
40
0.0903136050165961
40
0.10605866050872
40
0.10605866050872
40
0.121803716000844
40
0.121803716000844
40
0.247764159937837
40
0.247764159937837
40
0.279254270922086
40
0.279254270922086
40
0.310744381906334
40
0.310744381906334
40
0.373724603874833
40
0.373724603874833
40
0.436704825843331
40
0.436704825843331
40
0.46819493682758
40
0.46819493682758
40
0.499685047811829
40
0.499685047811829
40
0.562665269780329
40
0.562665269780329
40
0.625645491748828
40
0.625645491748828
40
0.657135602733079
40
0.657135602733079
40
0.672880658225204
40
0.672880658225204
40
0.68862571371733
40
0.68862571371733
40
0.751605935685831
40
0.751605935685831
40
0.814586157654333
40
0.814586157654333
40
0.846076268638584
40
0.846076268638584
40
0.877566379622834
40
0.877566379622834
40
1
40
1
40
1
40
1
41
1
10
43.2057305282225
20
-4.40953051187319
30
0
41
1
10
42.710308934808
20
-4.5108121121612
30
0
41
1
10
42.2160349576201
20
-4.58152588531189
30
0
41
1
10
41.454689887156
20
-4.64152267449902
30
0
41
1
10
41.1887253538194
20
-4.65335880495979
30
0
41
1
10
40.7883461888052
20
-4.65720496605738
30
0
41
1
10
40.6546474118411
20
-4.65616864096836
30
0
41
1
10
40.3866530605966
20
-4.64940816215767
30
0
41
1
10
40.2521363992924
20
-4.64366790449589
30
0
41
1
10
39.044576107415
20
-4.57110058576609
30
0
41
1
10
37.9911602928802
20
-4.35865278661225
30
0
41
1
10
36.6623733613313
20
-3.93144751943214
30
0
41
1
10
36.3960236820733
20
-3.8379138070153
30
0
41
1
10
35.8613063024956
20
-3.63509786961805
30
0
41
1
10
35.5920991929021
20
-3.52537365491449
30
0
41
1
10
34.7883828760552
20
-3.17737246156327
30
0
41
1
10
34.2571084055369
20
-2.92009389089108
30
0
41
1
10
33.1964806333502
20
-2.36497081716655
30
0
41
1
10
32.6670101660622
20
-2.06728803811973
30
0
41
1
10
31.869021510094
20
-1.59743154069963
30
0
41
1
10
31.60230898272
20
-1.4370488624553
30
0
41
1
10
31.0666090832137
20
-1.10988608767224
30
0
41
1
10
30.7972907006784
20
-0.942577614700156
30
0
41
1
10
29.994771884871
20
-0.439703657136334
30
0
41
1
10
29.4637060656359
20
-0.101416738747901
30
0
41
1
10
28.4032880454562
20
0.571423623416507
30
0
41
1
10
27.8735069896936
20
0.905287761221558
30
0
41
1
10
27.074527287517
20
1.39434447783302
30
0
41
1
10
26.8074159348342
20
1.55530119161477
30
0
41
1
10
26.4049454632191
20
1.79263864912946
30
0
41
1
10
26.2703313850327
20
1.87116890809179
30
0
41
1
10
26.0020700337725
20
2.02574395324905
30
0
41
1
10
25.8682460856156
20
2.10188013592958
30
0
41
1
10
25.200253472479
20
2.47630322892112
30
0
41
1
10
24.669686592957
20
2.75616611825285
30
0
41
1
10
23.6091329824068
20
3.26823255378938
30
0
41
1
10
23.0791602516596
20
3.50043498501344
30
0
41
1
10
22.279040569822
20
3.8062199424688
30
0
41
1
10
22.0115125416795
20
3.90110078195329
30
0
41
1
10
21.4738880570143
20
4.0755993118311
30
0
41
1
10
21.2058273386344
20
4.15451313537932
30
0
41
1
10
19.901204230865
20
4.49741870232461
30
0
41
1
10
18.8767403450444
20
4.63953118411263
30
0
41
1
10
17.8392905329779
20
4.64204544221997
30
0
0
SPLINE
5
D0
100
AcDbEntity
8
1
62
256
6
ByLayer
370
18
48
1
60
0
100
AcDbSpline
70
4
71
3
72
22
73
18
40
0
40
0
40
0
40
0
40
0.084525384155428
40
0.084525384155428
40
0.169050768310856
40
0.169050768310856
40
0.338101536621712
40
0.338101536621712
40
0.507152304932568
40
0.507152304932568
40
0.591677689087995
40
0.591677689087995
40
0.676203073243422
40
0.676203073243422
40
0.845253841554273
40
0.845253841554273
40
1
40
1
40
1
40
1
41
1
10
7.99999973451995
20
3.19451979123977
30
0
41
1
10
7.93580324918113
20
3.26496100845824
30
0
41
1
10
7.87253132348059
20
3.33403913201883
30
0
41
1
10
7.74767045353508
20
3.46912505463825
30
0
41
1
10
7.68620356359696
20
3.53499314225084
30
0
41
1
10
7.50670588979
20
3.72472168443878
30
0
41
1
10
7.39266228925331
20
3.84168679443078
30
0
41
1
10
7.1742436589783
20
4.05505742317683
30
0
41
1
10
7.06986561665101
20
4.15147820383052
30
0
41
1
10
6.91998303119323
20
4.27902498534428
30
0
41
1
10
6.87114299367019
20
4.31868632682918
30
0
41
1
10
6.77570749656644
20
4.39190409459684
30
0
41
1
10
6.72896640556084
20
4.42554279360539
30
0
41
1
10
6.59437791982577
20
4.51520389689409
30
0
41
1
10
6.51148143059964
20
4.56056635514517
30
0
41
1
10
6.36635192704347
20
4.61856026924406
30
0
41
1
10
6.30284299197126
20
4.6336633233559
30
0
41
1
10
6.2465526471326
20
4.63478244812973
30
0
0
SPLINE
5
D1
100
AcDbEntity
8
1
62
256
6
ByLayer
370
18
48
1
60
0
100
AcDbSpline
70
4
71
3
72
8
73
4
40
0
40
0
40
0
40
0
40
1
40
1
40
1
40
1
41
1
10
8.76854664352265
20
2.2466051542755
30
0
41
1
10
8.8670006791628
20
2.26248813664935
30
0
41
1
10
8.96507248687496
20
2.28060364423794
30
0
41
1
10
9.0627642612144
20
2.30089692131011
30
0
0
SPLINE
5
D2
100
AcDbEntity
8
1
62
256
6
ByLayer
370
18
48
1
60
0
100
AcDbSpline
70
4
71
3
72
44
73
40
40
0
40
0
40
0
40
0
40
0.0624999999999865
40
0.0624999999999865
40
0.124999999999973
40
0.124999999999973
40
0.18749999999996
40
0.18749999999996
40
0.249999999999946
40
0.249999999999946
40
0.312499999999932
40
0.312499999999932
40
0.374999999999919
40
0.374999999999919
40
0.437499999999905
40
0.437499999999905
40
0.468749999999905
40
0.468749999999905
40
0.499999999999904
40
0.499999999999904
40
0.562499999999913
40
0.562499999999913
40
0.593749999999918
40
0.593749999999918
40
0.624999999999922
40
0.624999999999922
40
0.656249999999927
40
0.656249999999927
40
0.687499999999931
40
0.687499999999931
40
0.749999999999945
40
0.749999999999945
40
0.812499999999959
40
0.812499999999959
40
0.874999999999972
40
0.874999999999972
40
0.937499999999986
40
0.937499999999986
40
1
40
1
40
1
40
1
41
1
10
111.341902121604
20
-1.65274060811228
30
0
41
1
10
111.333808935762
20
-1.61706083086705
30
0
41
1
10
111.320350850442
20
-1.59006731662947
30
0
41
1
10
111.28674508955
20
-1.55292049322128
30
0
41
1
10
111.266328436448
20
-1.54226986055457
30
0
41
1
10
111.22095440525
20
-1.53493369226777
30
0
41
1
10
111.196292551832
20
-1.53812772189232
30
0
41
1
10
111.143495689562
20
-1.5565842089805
30
0
41
1
10
111.115331715376
20
-1.57202463525783
30
0
41
1
10
111.057913122879
20
-1.61352963359545
30
0
41
1
10
111.028149202535
20
-1.63990009494881
30
0
41
1
10
110.967800564949
20
-1.70342024798754
30
0
41
1
10
110.937800349576
20
-1.73987217393562
30
0
41
1
10
110.878183826622
20
-1.82312181655749
30
0
41
1
10
110.84811759531
20
-1.87077242200914
30
0
41
1
10
110.805974095275
20
-1.94808236704787
30
0
41
1
10
110.792363545733
20
-1.97487914241398
30
0
41
1
10
110.766147094473
20
-2.03083172414284
30
0
41
1
10
110.753602585537
20
-2.05990968245595
30
0
41
1
10
110.719131048123
20
-2.14777439426885
30
0
41
1
10
110.699625825431
20
-2.20943590855924
30
0
41
1
10
110.679628108309
20
-2.29688100628954
30
0
41
1
10
110.674351164888
20
-2.32573016501414
30
0
41
1
10
110.667073714
20
-2.38070221305839
30
0
41
1
10
110.665084977303
20
-2.40647465162564
30
0
41
1
10
110.664206330096
20
-2.45480126228
30
0
41
1
10
110.665360487283
20
-2.47737104557584
30
0
41
1
10
110.670478235361
20
-2.51769966062517
30
0
41
1
10
110.674431030949
20
-2.53574595680291
30
0
41
1
10
110.690107851139
20
-2.58390195943772
30
0
41
1
10
110.705209909674
20
-2.60689549771539
30
0
41
1
10
110.742099637697
20
-2.63754231202191
30
0
41
1
10
110.763395900661
20
-2.64488997762791
30
0
41
1
10
110.810728804308
20
-2.64632584283066
30
0
41
1
10
110.836687084997
20
-2.64020754163511
30
0
41
1
10
110.890872689543
20
-2.61607450165536
30
0
41
1
10
110.919675907631
20
-2.59777613391719
30
0
41
1
10
110.978188249711
20
-2.55047640888503
30
0
41
1
10
111.007940987712
20
-2.52158680594414
30
0
41
1
10
111.038225588224
20
-2.487085026393
30
0
0
SPLINE
5
D3
100
AcDbEntity
8
1
62
256
6
ByLayer
370
18
48
1
60
0
100
AcDbSpline
70
4
71
3
72
10
73
6
40
0
40
0
40
0
40
0
40
0.5
40
0.5
40
1
40
1
40
1
40
1
41
1
10
110.481429526122
20
-4.57304309575866
30
0
41
1
10
110.711048241167
20
-4.02098404295171
30
0
41
1
10
110.938961935521
20
-3.46631827887563
30
0
41
1
10
111.386725816342
20
-2.35011081545349
30
0
41
1
10
111.606624620729
20
-1.78860238400404
30
0
41
1
10
111.820108903203
20
-1.22275130584279
30
0
0
SPLINE
5
D4
100
AcDbEntity
8
1
62
256
6
ByLayer
370
18
48
1
60
0
100
AcDbSpline
70
4
71
3
72
8
73
4
40
0
40
0
40
0
40
0
40
1
40
1
40
1
40
1
41
1
10
111.038225588224
20
-2.48708502639329
30
0
41
1
10
110.801968048421
20
-3.13619728217611
30
0
41
1
10
110.565710508619
20
-3.78530953795897
30
0
41
1
10
110.329452968816
20
-4.43442179374185
30
0
0
SPLINE
5
D5
100
AcDbEntity
8
1
62
256
6
ByLayer
370
18
48
1
60
0
100
AcDbSpline
70
4
71
3
72
120
73
116
40
0
40
0
40
0
40
0
40
0.0072046830324496
40
0.0072046830324496
40
0.0197128202943777
40
0.0197128202943777
40
0.044729094818234
40
0.044729094818234
40
0.0697453693420903
40
0.0697453693420903
40
0.0947616438659465
40
0.0947616438659465
40
0.107269781127875
40
0.107269781127875
40
0.119777918389803
40
0.119777918389803
40
0.144794192913659
40
0.144794192913659
40
0.169810467437515
40
0.169810467437515
40
0.182318604699445
40
0.182318604699445
40
0.194826741961374
40
0.194826741961374
40
0.219843016485232
40
0.219843016485232
40
0.232351153747162
40
0.232351153747162
40
0.244859291009092
40
0.244859291009092
40
0.257367428271022
40
0.257367428271022
40
0.269875565532952
40
0.269875565532952
40
0.294891840056813
40
0.294891840056813
40
0.319908114580673
40
0.319908114580673
40
0.332416251842603
40
0.332416251842603
40
0.344924389104533
40
0.344924389104533
40
0.369940663628391
40
0.369940663628391
40
0.39495693815225
40
0.39495693815225
40
0.419973212676108
40
0.419973212676108
40
0.432481349938038
40
0.432481349938038
40
0.444989487199968
40
0.444989487199968
40
0.470005761723828
40
0.470005761723828
40
0.482513898985758
40
0.482513898985758
40
0.495022036247688
40
0.495022036247688
40
0.507530173509619
40
0.507530173509619
40
0.520038310771549
40
0.520038310771549
40
0.545054585295409
40
0.545054585295409
40
0.570070859819269
40
0.570070859819269
40
0.582578997081199
40
0.582578997081199
40
0.595087134343128
40
0.595087134343128
40
0.620103408866987
40
0.620103408866987
40
0.632611546128916
40
0.632611546128916
40
0.645119683390845
40
0.645119683390845
40
0.670135957914704
40
0.670135957914704
40
0.695152232438563
40
0.695152232438563
40
0.720168506962422
40
0.720168506962422
40
0.745184781486281
40
0.745184781486281
40
0.757692918748212
40
0.757692918748212
40
0.770201056010142
40
0.770201056010142
40
0.782709193272072
40
0.782709193272072
40
0.795217330534002
40
0.795217330534002
40
0.820233605057862
40
0.820233605057862
40
0.832741742319792
40
0.832741742319792
40
0.845249879581722
40
0.845249879581722
40
0.870266154105581
40
0.870266154105581
40
0.895282428629441
40
0.895282428629441
40
0.90779056589137
40
0.90779056589137
40
0.920298703153299
40
0.920298703153299
40
0.945314977677157
40
0.945314977677157
40
0.970331252201015
40
0.970331252201015
40
0.982839389462945
40
0.982839389462945
40
0.995347526724874
40
0.995347526724874
40
1
40
1
40
1
40
1
41
1
10
100.754328454993
20
-2.13964422531242
30
0
41
1
10
100.679860464225
20
-2.17915170867573
30
0
41
1
10
100.605275523628
20
-2.21832796831458
30
0
41
1
10
100.400867939393
20
-2.32458831116352
30
0
41
1
10
100.270775773689
20
-2.39082728654321
30
0
41
1
10
99.883738464567
20
-2.58764647615905
30
0
41
1
10
99.6265133987146
20
-2.71225356939672
30
0
41
1
10
99.1128494717734
20
-2.95065104027486
30
0
41
1
10
98.8567050171356
20
-3.06512220186588
30
0
41
1
10
98.3454360477994
20
-3.28209819254468
30
0
41
1
10
98.0898891503144
20
-3.38394108315913
30
0
41
1
10
97.7058880866392
20
-3.52674959389697
30
0
41
1
10
97.5784870344868
20
-3.57362291840883
30
0
41
1
10
97.3230164349999
20
-3.66365884947419
30
0
41
1
10
97.1951113860761
20
-3.70694017511443
30
0
41
1
10
96.810777215394
20
-3.83118058000079
30
0
41
1
10
96.5540863786991
20
-3.90665647525944
30
0
41
1
10
96.0393659559601
20
-4.04377487406896
30
0
41
1
10
95.7811019847065
20
-4.10637321622553
30
0
41
1
10
95.3919596507602
20
-4.18747556499545
30
0
41
1
10
95.2624271268999
20
-4.21231148089697
30
0
41
1
10
95.0049521515538
20
-4.25826584078149
30
0
41
1
10
94.8763821142222
20
-4.27901715796136
30
0
41
1
10
94.4908571816056
20
-4.33536494151079
30
0
41
1
10
94.2340570137593
20
-4.36578266589706
30
0
41
1
10
93.8500171238226
20
-4.39898734954843
30
0
41
1
10
93.7221408299852
20
-4.40801773441154
30
0
41
1
10
93.4666498679067
20
-4.42138239373858
30
0
41
1
10
93.3389614226115
20
-4.42569635434015
30
0
41
1
10
93.0832620621097
20
-4.4308070754023
30
0
41
1
10
92.9552616588821
20
-4.43159145328201
30
0
41
1
10
92.6991568326843
20
-4.42933513474341
30
0
41
1
10
92.5717118620377
20
-4.42626285302799
30
0
41
1
10
92.1882302648356
20
-4.41083611037791
30
0
41
1
10
91.931647624791
20
-4.39160074620523
30
0
41
1
10
91.417483532813
20
-4.33683777114891
30
0
41
1
10
91.1599109204209
20
-4.30221524019362
30
0
41
1
10
90.7717212791866
20
-4.23774093013881
30
0
41
1
10
90.6419292656344
20
-4.21413220491624
30
0
41
1
10
90.3831816295363
20
-4.16293008520279
30
0
41
1
10
90.2540015904234
20
-4.13539581431317
30
0
41
1
10
89.8684812398455
20
-4.04659390706857
30
0
41
1
10
89.6116520305955
20
-3.98102957002737
30
0
41
1
10
89.0988617594527
20
-3.83592955015229
30
0
41
1
10
88.8432422351
20
-3.75538138888791
30
0
41
1
10
88.3324172802827
20
-3.58069544403864
30
0
41
1
10
88.0766552100919
20
-3.48787545258568
30
0
41
1
10
87.6923899208352
20
-3.33931666513033
30
0
41
1
10
87.5648945908051
20
-3.28742744654124
30
0
41
1
10
87.3090326278408
20
-3.18100915778331
30
0
41
1
10
87.1808743737423
20
-3.12629728132021
30
0
41
1
10
86.7956347070273
20
-2.95821670476468
30
0
41
1
10
86.5381803653322
20
-2.84069634080407
30
0
41
1
10
86.1507896725058
20
-2.65582145240384
30
0
41
1
10
86.0213176844042
20
-2.59253447058484
30
0
41
1
10
85.7623330986103
20
-2.46348215932252
30
0
41
1
10
85.6330533566831
20
-2.39795788300501
30
0
41
1
10
85.3746986837544
20
-2.26552641603902
30
0
41
1
10
85.2456909036099
20
-2.19850842709093
30
0
41
1
10
84.9888678112004
20
-2.06156768023436
30
0
41
1
10
84.8605300117064
20
-1.99242500285638
30
0
41
1
10
84.4756511584179
20
-1.78300343365993
30
0
41
1
10
84.2194411139988
20
-1.6401866345999
30
0
41
1
10
83.707915418451
20
-1.3485593410166
30
0
41
1
10
83.4525960069984
20
-1.19991151632419
30
0
41
1
10
83.068631049601
20
-0.975126686119665
30
0
41
1
10
82.9404364038234
20
-0.899960997123401
30
0
41
1
10
82.6840367708289
20
-0.748310425856914
30
0
41
1
10
82.5563867844056
20
-0.670895439702406
30
0
41
1
10
82.1719629656363
20
-0.439511067977094
30
0
41
1
10
81.9145192372542
20
-0.285104611433724
30
0
41
1
10
81.5274591773252
20
-0.0515713987414301
30
0
41
1
10
81.3982373245518
20
0.0264984658550418
30
0
41
1
10
81.139262557062
20
0.183174586630713
30
0
41
1
10
81.0096633621458
20
0.26178459744483
30
0
41
1
10
80.621862861236
20
0.495620480357388
30
0
41
1
10
80.3632858107219
20
0.648754404047679
30
0
41
1
10
79.8500426801754
20
0.95569486059361
30
0
41
1
10
79.5936160587156
20
1.10628101065163
30
0
41
1
10
79.0813009261709
20
1.40223015359984
30
0
41
1
10
78.8254856603592
20
1.54817660804159
30
0
41
1
10
78.313949460492
20
1.83449734076078
30
0
41
1
10
78.0575898215577
20
1.97375350897553
30
0
41
1
10
77.6725028884052
20
2.1769446734875
30
0
41
1
10
77.5446177022365
20
2.24468020179413
30
0
41
1
10
77.2878122410173
20
2.37725251402085
30
0
41
1
10
77.1591276864506
20
2.44242899235317
30
0
41
1
10
76.9011946310471
20
2.57052639403935
30
0
41
1
10
76.772014322856
20
2.63356532021876
30
0
41
1
10
76.5132652299872
20
2.75743814144894
30
0
41
1
10
76.3834208839676
20
2.81819507838554
30
0
41
1
10
75.9947235858015
20
2.99593890505685
30
0
41
1
10
75.7366603440049
20
3.10891190658012
30
0
41
1
10
75.3497437096632
20
3.26851702173781
30
0
41
1
10
75.2210600991657
20
3.32036835469168
30
0
41
1
10
74.9645849675728
20
3.42128952622866
30
0
41
1
10
74.8364246181288
20
3.46983447991525
30
0
41
1
10
74.4519474924368
20
3.60964692120405
30
0
41
1
10
74.195635766249
20
3.69624782700004
30
0
41
1
10
73.6834936694239
20
3.85701106336731
30
0
41
1
10
73.4277487367027
20
3.93092501091994
30
0
41
1
10
73.04278758245
20
4.02896671647994
30
0
41
1
10
72.9141221473635
20
4.05958252735067
30
0
41
1
10
72.6570343628799
20
4.11794984080086
30
0
41
1
10
72.528869344249
20
4.14575575412624
30
0
41
1
10
72.1427853207745
20
4.22292025756852
30
0
41
1
10
71.8841053281477
20
4.26660096675514
30
0
41
1
10
71.3649531894129
20
4.33693897518197
30
0
41
1
10
71.1060372520147
20
4.36394007659285
30
0
41
1
10
70.7189882227994
20
4.39250693396207
30
0
41
1
10
70.5900695774343
20
4.39995942514216
30
0
41
1
10
70.3324125828751
20
4.41058958129133
30
0
41
1
10
70.2039600191493
20
4.41381901084898
30
0
41
1
10
70.0281347271833
20
4.41548700215452
30
0
41
1
10
69.9804592674641
20
4.41566933366167
30
0
41
1
10
69.9327792308965
20
4.41558171765135
30
0
0
SPLINE
5
D6
100
AcDbEntity
8
1
62
256
6
ByLayer
370
18
48
1
60
0
100
AcDbSpline
70
4
71
3
72
112
73
108
40
0
40
0
40
0
40
0
40
0.0034814826410882
40
0.0034814826410882
40
0.0287097937172257
40
0.0287097937172257
40
0.0539381047933633
40
0.0539381047933633
40
0.0665522603314326
40
0.0665522603314326
40
0.0791664158695015
40
0.0791664158695015
40
0.104394726945641
40
0.104394726945641
40
0.129623038021779
40
0.129623038021779
40
0.142237193559848
40
0.142237193559848
40
0.154851349097917
40
0.154851349097917
40
0.180079660174057
40
0.180079660174057
40
0.205307971250197
40
0.205307971250197
40
0.217922126788266
40
0.217922126788266
40
0.230536282326335
40
0.230536282326335
40
0.255764593402474
40
0.255764593402474
40
0.280992904478613
40
0.280992904478613
40
0.306221215554752
40
0.306221215554752
40
0.318835371092821
40
0.318835371092821
40
0.33144952663089
40
0.33144952663089
40
0.356677837707029
40
0.356677837707029
40
0.381906148783167
40
0.381906148783167
40
0.394520304321237
40
0.394520304321237
40
0.407134459859306
40
0.407134459859306
40
0.432362770935444
40
0.432362770935444
40
0.457591082011581
40
0.457591082011581
40
0.47020523754965
40
0.47020523754965
40
0.482819393087719
40
0.482819393087719
40
0.508047704163858
40
0.508047704163858
40
0.533276015239997
40
0.533276015239997
40
0.545890170778067
40
0.545890170778067
40
0.558504326316137
40
0.558504326316137
40
0.583732637392277
40
0.583732637392277
40
0.608960948468418
40
0.608960948468418
40
0.634189259544558
40
0.634189259544558
40
0.646803415082629
40
0.646803415082629
40
0.6594175706207
40
0.6594175706207
40
0.684645881696842
40
0.684645881696842
40
0.709874192772983
40
0.709874192772983
40
0.722488348311055
40
0.722488348311055
40
0.735102503849126
40
0.735102503849126
40
0.760330814925269
40
0.760330814925269
40
0.785559126001411
40
0.785559126001411
40
0.798173281539482
40
0.798173281539482
40
0.810787437077554
40
0.810787437077554
40
0.836015748153694
40
0.836015748153694
40
0.861244059229835
40
0.861244059229835
40
0.886472370305975
40
0.886472370305975
40
0.911700681382116
40
0.911700681382116
40
0.936928992458256
40
0.936928992458256
40
0.949543147996327
40
0.949543147996327
40
0.962157303534397
40
0.962157303534397
40
0.974771459072467
40
0.974771459072467
40
0.987385614610537
40
0.987385614610537
40
1
40
1
40
1
40
1
41
1
10
54.7423082439311
20
-2.13653174991035
30
0
41
1
10
54.7069742450002
20
-2.15511858042683
30
0
41
1
10
54.6716335224405
20
-2.17361467945221
30
0
41
1
10
54.3801294850895
20
-2.32539619087655
30
0
41
1
10
54.1238338559183
20
-2.45472950185229
30
0
41
1
10
53.6109653163255
20
-2.70534242107885
30
0
41
1
10
53.3544512811331
20
-2.82649344417254
30
0
41
1
10
52.967656055039
20
-2.9985549064088
30
0
41
1
10
52.838244396272
20
-3.0542788321118
30
0
41
1
10
52.5802524554188
20
-3.16482103703106
30
0
41
1
10
52.451011777113
20
-3.2187697195109
30
0
41
1
10
52.0620269490302
20
-3.3759278261341
30
0
41
1
10
51.8022118218652
20
-3.47432795104788
30
0
41
1
10
51.2865073105871
20
-3.65528794132106
30
0
41
1
10
51.0297161408151
20
-3.73936026276411
30
0
41
1
10
50.6444760178975
20
-3.85509190063945
30
0
41
1
10
50.5160608044009
20
-3.89191752263722
30
0
41
1
10
50.2592605275187
20
-3.961759456132
30
0
41
1
10
50.1315548538613
20
-3.99513807495524
30
0
41
1
10
49.7479824833528
20
-4.08818248638053
30
0
41
1
10
49.4917173678561
20
-4.14240314739291
30
0
41
1
10
48.9790612487552
20
-4.23731926610299
30
0
41
1
10
48.7226981975663
20
-4.27760722050292
30
0
41
1
10
48.3371130248457
20
-4.32455698164623
30
0
41
1
10
48.2083068375787
20
-4.33803675726239
30
0
41
1
10
47.9500962762486
20
-4.36145337842038
30
0
41
1
10
47.8205615297637
20
-4.37131165065955
30
0
41
1
10
47.4330466638106
20
-4.39534605455751
30
0
41
1
10
47.1728309592817
20
-4.40349339628935
30
0
41
1
10
46.6558613985469
20
-4.40105872969511
30
0
41
1
10
46.3985228000207
20
-4.39132089004937
30
0
41
1
10
45.8850454790035
20
-4.35734484641765
30
0
41
1
10
45.6285590242695
20
-4.33300912776716
30
0
41
1
10
45.2437941418804
20
-4.28335534533974
30
0
41
1
10
45.1162540073296
20
-4.26427939382003
30
0
41
1
10
44.8605874881893
20
-4.22283774132052
30
0
41
1
10
44.7326299077611
20
-4.20042553664865
30
0
41
1
10
44.3483305106577
20
-4.12790854231685
30
0
41
1
10
44.0919458630492
20
-4.07249587655542
30
0
41
1
10
43.5785437441995
20
-3.94455316685236
30
0
41
1
10
43.321469915333
20
-3.87206169998623
30
0
41
1
10
42.9336426013222
20
-3.75463799628659
30
0
41
1
10
42.803997254469
20
-3.71392349330588
30
0
41
1
10
42.5452399214278
20
-3.62778556633171
30
0
41
1
10
42.4154343767721
20
-3.58295291682967
30
0
41
1
10
42.0272124911427
20
-3.44377950427304
30
0
41
1
10
41.7692110819548
20
-3.34455695979932
30
0
41
1
10
41.2548644065921
20
-3.13532682357354
30
0
41
1
10
40.99867736741
20
-3.02467024079516
30
0
41
1
10
40.6141572399758
20
-2.85157224346022
30
0
41
1
10
40.4859111838924
20
-2.79277108170649
30
0
41
1
10
40.2295018766957
20
-2.67277652406523
30
0
41
1
10
40.1019725911846
20
-2.61073386070279
30
0
41
1
10
39.7183858063557
20
-2.42234982593021
30
0
41
1
10
39.4620192716877
20
-2.29281324736772
30
0
41
1
10
38.9489667494584
20
-2.02401532067239
30
0
41
1
10
38.6922158163757
20
-1.88494572880893
30
0
41
1
10
38.3056742458148
20
-1.67147148708264
30
0
41
1
10
38.1765103191511
20
-1.5995980964619
30
0
41
1
10
37.9175019036409
20
-1.45441071902104
30
0
41
1
10
37.787565002822
20
-1.38097865489058
30
0
41
1
10
37.3989750023813
20
-1.15643117421919
30
0
41
1
10
37.1405017769687
20
-1.0059110033076
30
0
41
1
10
36.6248448316705
20
-0.703000054388014
30
0
41
1
10
36.3679736356598
20
-0.550085938976537
30
0
41
1
10
35.855391675539
20
-0.242647239641741
30
0
41
1
10
35.598982691604
20
-0.0892939871728515
30
0
41
1
10
35.2143292034829
20
0.140434362092833
30
0
41
1
10
35.0867499271245
20
0.218052306551868
30
0
41
1
10
34.8308299395126
20
0.371909085735609
30
0
41
1
10
34.7027218637625
20
0.44854191369501
30
0
41
1
10
34.3178820874343
20
0.677432608369799
30
0
41
1
10
34.060980649998
20
0.829285666717908
30
0
41
1
10
33.5461172703831
20
1.13087384697937
30
0
41
1
10
33.2881029705627
20
1.28051303929487
30
0
41
1
10
32.898511483548
20
1.50035810400982
30
0
41
1
10
32.7684194960141
20
1.57316657056825
30
0
41
1
10
32.5098277306574
20
1.71791216444376
30
0
41
1
10
32.3806813382697
20
1.78921462476558
30
0
41
1
10
31.9935281198274
20
1.99974198892227
30
0
41
1
10
31.7359555727284
20
2.13582855266395
30
0
41
1
10
31.2224991645393
20
2.3994401129815
30
0
41
1
10
30.9665822723387
20
2.52708902985819
30
0
41
1
10
30.5819739487466
20
2.7106146328708
30
0
41
1
10
30.4535706662779
20
2.77030368470531
30
0
41
1
10
30.1971726024482
20
2.88765409917207
30
0
41
1
10
30.0695261723004
20
2.94574255126477
30
0
41
1
10
29.6853520268887
20
3.11430752979857
30
0
41
1
10
29.4283933578795
20
3.22019695723196
30
0
41
1
10
28.9138183633961
20
3.4222208102193
30
0
41
1
10
28.6561850915042
20
3.51772258538253
30
0
41
1
10
28.1383646811055
20
3.694443060363
30
0
41
1
10
27.8773020086096
20
3.77522749095593
30
0
41
1
10
27.3604426178579
20
3.92537698759978
30
0
41
1
10
27.1023567178879
20
3.99279834395651
30
0
41
1
10
26.5877361469186
20
4.11088438294291
30
0
41
1
10
26.3312444059987
20
4.16181216513903
30
0
41
1
10
25.9467890102472
20
4.22775262117617
30
0
41
1
10
25.8186130786121
20
4.24784422703917
30
0
41
1
10
25.5620347019722
20
4.28410543308834
30
0
41
1
10
25.4334792808154
20
4.30011930775356
30
0
41
1
10
25.1770692032098
20
4.32783501523454
30
0
41
1
10
25.049253387178
20
4.33964933615008
30
0
41
1
10
24.7927842160246
20
4.35945961943384
30
0
41
1
10
24.6643281066606
20
4.36748202491489
30
0
41
1
10
24.407031322478
20
4.37986741290007
30
0
41
1
10
24.2782819163645
20
4.384237664605
30
0
41
1
10
24.1493847297615
20
4.38649246740681
30
0
0
SPLINE
5
D7
100
AcDbEntity
8
1
62
256
6
ByLayer
370
18
48
1
60
0
100
AcDbSpline
70
4
71
3
72
10
73
6
40
0
40
0
40
0
40
0
40
0.5
40
0.5
40
1
40
1
40
1
40
1
41
1
10
111.974975966391
20
0.16041334089175
30
0
41
1
10
111.976974408196
20
0.144587481439146
30
0
41
1
10
111.980294253289
20
0.126826758303594
30
0
41
1
10
111.988810200655
20
0.0885532472208581
30
0
41
1
10
111.994024273973
20
0.0680930028475188
30
0
41
1
10
111.999941039399
20
0.0471413484048639
30
0
0
SPLINE
5
D8
100
AcDbEntity
8
1
62
256
6
ByLayer
370
18
48
1
60
0
100
AcDbSpline
70
4
71
3
72
8
73
4
40
0
40
0
40
0
40
0
40
1
40
1
40
1
40
1
41
1
10
110.389444641382
20
-4.52615893331409
30
0
41
1
10
110.367842069039
20
-4.58020386657429
30
0
41
1
10
110.34622228538
20
-4.63416243834695
30
0
41
1
10
110.324593200183
20
-4.68802541765311
30
0
0
SPLINE
5
D9
100
AcDbEntity
8
1
62
256
6
ByLayer
370
18
48
1
60
0
100
AcDbSpline
70
4
71
3
72
86
73
82
40
0
40
0
40
0
40
0
40
0.0340738825350115
40
0.0340738825350115
40
0.0511108238025172
40
0.0511108238025172
40
0.0681477650700229
40
0.0681477650700229
40
0.102221647605034
40
0.102221647605034
40
0.136295530140046
40
0.136295530140046
40
0.153332471407552
40
0.153332471407552
40
0.170369412675057
40
0.170369412675057
40
0.204443295210069
40
0.204443295210069
40
0.23851717774508
40
0.23851717774508
40
0.272591060280092
40
0.272591060280092
40
0.289628001547597
40
0.289628001547597
40
0.306664942815103
40
0.306664942815103
40
0.340738825350115
40
0.340738825350115
40
0.374812707885128
40
0.374812707885128
40
0.391849649152634
40
0.391849649152634
40
0.40888659042014
40
0.40888659042014
40
0.442960472955153
40
0.442960472955153
40
0.477034355490164
40
0.477034355490164
40
0.494071296757671
40
0.494071296757671
40
0.511108238025177
40
0.511108238025177
40
0.545182120560189
40
0.545182120560189
40
0.579256003095202
40
0.579256003095202
40
0.613329885630215
40
0.613329885630215
40
0.630366826897721
40
0.630366826897721
40
0.647403768165227
40
0.647403768165227
40
0.681477650700241
40
0.681477650700241
40
0.698514591967748
40
0.698514591967748
40
0.715551533235256
40
0.715551533235256
40
0.732588474502763
40
0.732588474502763
40
0.74962541577027
40
0.74962541577027
40
0.783699298305284
40
0.783699298305284
40
0.817773180840298
40
0.817773180840298
40
0.851847063375312
40
0.851847063375312
40
0.868884004642818
40
0.868884004642818
40
0.885920945910325
40
0.885920945910325
40
0.919994828445337
40
0.919994828445337
40
0.937031769712844
40
0.937031769712844
40
0.95406871098035
40
0.95406871098035
40
0.988142593515363
40
0.988142593515363
40
1
40
1
40
1
40
1
41
1
10
9.0627642612144
20
1.95556627640846
30
0
41
1
10
9.32387983563481
20
1.81756230378014
30
0
41
1
10
9.58362899425521
20
1.67622351109384
30
0
41
1
10
9.97066127063704
20
1.45828096771214
30
0
41
1
10
10.0992998283928
20
1.38473917375748
30
0
41
1
10
10.3564430910115
20
1.23686429266476
30
0
41
1
10
10.4855357997819
20
1.1635064250959
30
0
41
1
10
10.8716852960004
20
0.940795199534818
30
0
41
1
10
11.1280958445249
20
0.789590962858114
30
0
41
1
10
11.6412974719811
20
0.485612521103434
30
0
41
1
10
11.898088004527
20
0.332833853302361
30
0
41
1
10
12.2836432782947
20
0.102717701403776
30
0
41
1
10
12.4121321528466
20
0.0257007121314246
30
0
41
1
10
12.6691380113007
20
-0.128815922917937
30
0
41
1
10
12.7976025378939
20
-0.206410519047381
30
0
41
1
10
13.1851543300571
20
-0.436282741502538
30
0
41
1
10
13.4437778839935
20
-0.590207796109326
30
0
41
1
10
13.9628229849821
20
-0.897140297939728
30
0
41
1
10
14.2232233928987
20
-1.04964305923082
30
0
41
1
10
14.7408890197669
20
-1.34700740085214
30
0
41
1
10
14.9984229855495
20
-1.49331441952734
30
0
41
1
10
15.3837251473806
20
-1.70847700370953
30
0
41
1
10
15.5126681813026
20
-1.77840278983709
30
0
41
1
10
15.7697190371189
20
-1.91767864806232
30
0
41
1
10
15.8980441664834
20
-1.98665223628927
30
0
41
1
10
16.2826478736644
20
-2.19061213813578
30
0
41
1
10
16.5389602656213
20
-2.32225924795731
30
0
41
1
10
17.0523577756546
20
-2.5767168732533
30
0
41
1
10
17.3094122257911
20
-2.69953606041545
30
0
41
1
10
17.6949069478757
20
-2.87770552179788
30
0
41
1
10
17.8235216436534
20
-2.9358853214471
30
0
41
1
10
18.0819895112519
20
-3.0484749726308
30
0
41
1
10
18.2113479665035
20
-3.10351908772856
30
0
41
1
10
18.5998121804169
20
-3.26497960421426
30
0
41
1
10
18.8601236420213
20
-3.36798941078624
30
0
41
1
10
19.3785254038434
20
-3.55865504570789
30
0
41
1
10
19.6370210742973
20
-3.64637957367273
30
0
41
1
10
20.0230687361658
20
-3.76847925441945
30
0
41
1
10
20.1513517003964
20
-3.8076704289812
30
0
41
1
10
20.4081201352611
20
-3.88233050974588
30
0
41
1
10
20.5369400683551
20
-3.9175896533591
30
0
41
1
10
20.922212814685
20
-4.01805423527492
30
0
41
1
10
21.1782745498994
20
-4.07720148652268
30
0
41
1
10
21.6911651137516
20
-4.18095160780859
30
0
41
1
10
21.9479187126085
20
-4.22559966642598
30
0
41
1
10
22.462052115918
20
-4.2988373295214
30
0
41
1
10
22.7188606362253
20
-4.3273451870642
30
0
41
1
10
23.1070586878877
20
-4.35810880999571
30
0
41
1
10
23.2365759884751
20
-4.36646861574198
30
0
41
1
10
23.4958491914822
20
-4.37944989540972
30
0
41
1
10
23.6257768849076
20
-4.38414003715562
30
0
41
1
10
24.0149468467988
20
-4.39121345834789
30
0
41
1
10
24.273360248744
20
-4.38621396756517
30
0
41
1
10
24.6601086090917
20
-4.36772795639507
30
0
41
1
10
24.7887902533352
20
-4.35972971735498
30
0
41
1
10
25.0456157969821
20
-4.33996759277747
30
0
41
1
10
25.1735731048462
20
-4.32817988620252
30
0
41
1
10
25.4301025717233
20
-4.30051645359671
30
0
41
1
10
25.558683530207
20
-4.28454288683196
30
0
41
1
10
25.8151935316252
20
-4.24836271053593
30
0
41
1
10
25.9432876260911
20
-4.22831681883051
30
0
41
1
10
26.3273470919091
20
-4.1625517885706
30
0
41
1
10
26.5833930048293
20
-4.11177142915224
30
0
41
1
10
27.096672375525
20
-3.99421010964696
30
0
41
1
10
27.353873821539
20
-3.92713980602738
30
0
41
1
10
27.8685540951147
20
-3.77790996869982
30
0
41
1
10
28.1275308491119
20
-3.69793086110576
30
0
41
1
10
28.5167810937772
20
-3.56539672636737
30
0
41
1
10
28.6466326231983
20
-3.51918943730658
30
0
41
1
10
28.9055563411422
20
-3.42386689386313
30
0
41
1
10
29.034807422179
20
-3.37466455415702
30
0
41
1
10
29.4219839825644
20
-3.22281985486356
30
0
41
1
10
29.6795943707811
20
-3.11674124337753
30
0
41
1
10
30.0644277858884
20
-2.94802445095252
30
0
41
1
10
30.192242657804
20
-2.88990617698352
30
0
41
1
10
30.4488278558989
20
-2.77247854544044
30
0
41
1
10
30.5773035950044
20
-2.71280963793035
30
0
41
1
10
30.9619500283824
20
-2.52936477084194
30
0
41
1
10
31.2177049778568
20
-2.40184374497605
30
0
41
1
10
31.5632663287251
20
-2.2245075464534
30
0
41
1
10
31.6525502923003
20
-2.17822203714252
30
0
41
1
10
31.7418978369704
20
-2.13143348866669
30
0
0
SPLINE
5
DA
100
AcDbEntity
8
1
62
256
6
ByLayer
370
18
48
1
60
0
100
AcDbSpline
70
4
71
3
72
114
73
110
40
0
40
0
40
0
40
0
40
0.02400637957362
40
0.02400637957362
40
0.036535823306774
40
0.036535823306774
40
0.0490652670399283
40
0.0490652670399283
40
0.0741241545062376
40
0.0741241545062376
40
0.0991830419725472
40
0.0991830419725472
40
0.111712485705701
40
0.111712485705701
40
0.124241929438855
40
0.124241929438855
40
0.149300816905163
40
0.149300816905163
40
0.17435970437147
40
0.17435970437147
40
0.186889148104624
40
0.186889148104624
40
0.199418591837777
40
0.199418591837777
40
0.224477479304085
40
0.224477479304085
40
0.249536366770392
40
0.249536366770392
40
0.262065810503546
40
0.262065810503546
40
0.2745952542367
40
0.2745952542367
40
0.299654141703009
40
0.299654141703009
40
0.324713029169317
40
0.324713029169317
40
0.337242472902471
40
0.337242472902471
40
0.349771916635626
40
0.349771916635626
40
0.36230136036878
40
0.36230136036878
40
0.374830804101934
40
0.374830804101934
40
0.399889691568242
40
0.399889691568242
40
0.424948579034551
40
0.424948579034551
40
0.437478022767705
40
0.437478022767705
40
0.450007466500859
40
0.450007466500859
40
0.475066353967168
40
0.475066353967168
40
0.500125241433477
40
0.500125241433477
40
0.512654685166632
40
0.512654685166632
40
0.525184128899787
40
0.525184128899787
40
0.550243016366097
40
0.550243016366097
40
0.575301903832406
40
0.575301903832406
40
0.600360791298715
40
0.600360791298715
40
0.625419678765025
40
0.625419678765025
40
0.650478566231334
40
0.650478566231334
40
0.663008009964489
40
0.663008009964489
40
0.675537453697644
40
0.675537453697644
40
0.688066897430799
40
0.688066897430799
40
0.700596341163955
40
0.700596341163955
40
0.725655228630265
40
0.725655228630265
40
0.750714116096575
40
0.750714116096575
40
0.763243559829729
40
0.763243559829729
40
0.775773003562884
40
0.775773003562884
40
0.800831891029194
40
0.800831891029194
40
0.825890778495503
40
0.825890778495503
40
0.838420222228658
40
0.838420222228658
40
0.850949665961813
40
0.850949665961813
40
0.876008553428123
40
0.876008553428123
40
0.901067440894432
40
0.901067440894432
40
0.926126328360742
40
0.926126328360742
40
0.951185215827051
40
0.951185215827051
40
0.963714659560206
40
0.963714659560206
40
0.97624410329336
40
0.97624410329336
40
0.988773547026515
40
0.988773547026515
40
1
40
1
40
1
40
1
41
1
10
46.9445187231573
20
4.4023758985451
30
0
41
1
10
47.1913467644685
20
4.40284864144374
30
0
41
1
10
47.438861132879
20
4.39489682018527
30
0
41
1
10
47.8163760260796
20
4.37161628581509
30
0
41
1
10
47.9467340796319
20
4.36173121724755
30
0
41
1
10
48.2061346949364
20
4.33826024559167
30
0
41
1
10
48.3354850393093
20
4.32474197956719
30
0
41
1
10
48.7225132994105
20
4.27765601736661
30
0
41
1
10
48.9795704797064
20
4.23724368695133
30
0
41
1
10
49.4931846140595
20
4.14211271801992
30
0
41
1
10
49.7497220611235
20
4.08780036245042
30
0
41
1
10
50.1333675089001
20
3.99467823800239
30
0
41
1
10
50.2610371602593
20
3.961292348916
30
0
41
1
10
50.5176302866164
20
3.89147437657854
30
0
41
1
10
50.6458824827426
20
3.85468031738174
30
0
41
1
10
51.0304776065627
20
3.73910947660187
30
0
41
1
10
51.2866332037909
20
3.65523070276546
30
0
41
1
10
51.8006234900905
20
3.47489832013241
30
0
41
1
10
52.0587621262931
20
3.37717958253879
30
0
41
1
10
52.4467766217161
20
3.22051370499329
30
0
41
1
10
52.5762934228505
20
3.16650036297472
30
0
41
1
10
52.8355216987719
20
3.0554620079875
30
0
41
1
10
52.9654882993713
20
2.99950571601539
30
0
41
1
10
53.3537981858092
20
2.82681069159705
30
0
41
1
10
53.6110544522175
20
2.70530558155025
30
0
41
1
10
54.124943710958
20
2.45418043945679
30
0
41
1
10
54.381530376226
20
2.32468521544885
30
0
41
1
10
54.7658668815075
20
2.12453956686738
30
0
41
1
10
54.8938103148885
20
2.05666696815308
30
0
41
1
10
55.1495053572738
20
1.91859063258141
30
0
41
1
10
55.2772477790612
20
1.84840673805019
30
0
41
1
10
55.66209612156
20
1.63775760959385
30
0
41
1
10
55.9183019599994
20
1.49342915644462
30
0
41
1
10
56.4313981104537
20
1.1987273325727
30
0
41
1
10
56.6886765346923
20
1.0487399696959
30
0
41
1
10
57.0762614478935
20
0.820790847576518
30
0
41
1
10
57.2056691544829
20
0.744239144430736
30
0
41
1
10
57.4646657116323
20
0.589762492478059
30
0
41
1
10
57.5943550296287
20
0.511662749748666
30
0
41
1
10
57.852981760064
20
0.355764689542923
30
0
41
1
10
57.9826435074098
20
0.27888395240862
30
0
41
1
10
58.2408758122636
20
0.124113290324061
30
0
41
1
10
58.3696628833669
20
0.0466068469953882
30
0
41
1
10
58.7552320117283
20
-0.185995797085496
30
0
41
1
10
59.0116238638143
20
-0.340614989542814
30
0
41
1
10
59.524074234695
20
-0.647307783497212
30
0
41
1
10
59.7801498239058
20
-0.79916228803279
30
0
41
1
10
60.1634646719448
20
-1.02577651393668
30
0
41
1
10
60.2912279389377
20
-1.10090464054952
30
0
41
1
10
60.5476853552822
20
-1.24890396285002
30
0
41
1
10
60.6758604607202
20
-1.32264590971343
30
0
41
1
10
61.0603649208209
20
-1.54265720924207
30
0
41
1
10
61.3168171653539
20
-1.68737391468437
30
0
41
1
10
61.8320293453227
20
-1.96967547848851
30
0
41
1
10
62.0908146950556
20
-2.10725295995619
30
0
41
1
10
62.4797402607443
20
-2.31011937113217
30
0
41
1
10
62.6088689169525
20
-2.37680963002077
30
0
41
1
10
62.8669069520155
20
-2.50694417654557
30
0
41
1
10
62.9962653215736
20
-2.56982141426573
30
0
41
1
10
63.3827632488459
20
-2.75600908872491
30
0
41
1
10
63.6390802841055
20
-2.8758485310303
30
0
41
1
10
64.1514122537729
20
-3.10377170683196
30
0
41
1
10
64.4074047750721
20
-3.21143249278484
30
0
41
1
10
64.9189956946415
20
-3.41488327259691
30
0
41
1
10
65.1738491830164
20
-3.51164099245662
30
0
41
1
10
65.6866342297944
20
-3.6900879228443
30
0
41
1
10
65.9428590988746
20
-3.77311764490639
30
0
41
1
10
66.456709618615
20
-3.9248623708657
30
0
41
1
10
66.7145433200565
20
-3.99358313354628
30
0
41
1
10
67.1028966733879
20
-4.08648068450066
30
0
41
1
10
67.232717976368
20
-4.11577313820288
30
0
41
1
10
67.4912522707357
20
-4.1700750144243
30
0
41
1
10
67.6199865142765
20
-4.1952225521168
30
0
41
1
10
67.8774986310845
20
-4.24117932516666
30
0
41
1
10
68.0065657282095
20
-4.26188380789509
30
0
41
1
10
68.2637049034865
20
-4.29982383360505
30
0
41
1
10
68.3919888872169
20
-4.31692976800394
30
0
41
1
10
68.7762070971772
20
-4.36237022583273
30
0
41
1
10
69.0318898712249
20
-4.38436552234049
30
0
41
1
10
69.5434114856288
20
-4.41147515631607
30
0
41
1
10
69.7991604322739
20
-4.41719446490586
30
0
41
1
10
70.1821520754801
20
-4.41423031248519
30
0
41
1
10
70.3099553405983
20
-4.41124239731988
30
0
41
1
10
70.566394654918
20
-4.40116468088706
30
0
41
1
10
70.6946469304935
20
-4.39401167909563
30
0
41
1
10
71.0795336788317
20
-4.36640196915621
30
0
41
1
10
71.3363664805377
20
-4.3401180891905
30
0
41
1
10
71.8525017056695
20
-4.27150024516499
30
0
41
1
10
72.1126204441878
20
-4.2283037418932
30
0
41
1
10
72.4996333952901
20
-4.15186929676349
30
0
41
1
10
72.6281150804673
20
-4.12434023650718
30
0
41
1
10
72.8853397639875
20
-4.0662565507215
30
0
41
1
10
73.0142246948758
20
-4.0359071116338
30
0
41
1
10
73.3994712042183
20
-3.93869449324799
30
0
41
1
10
73.6551329288203
20
-3.86539031421123
30
0
41
1
10
74.1666575157751
20
-3.70581197468996
30
0
41
1
10
74.4224462538431
20
-3.61976564256562
30
0
41
1
10
74.9337159193744
20
-3.4349962883899
30
0
41
1
10
75.1888023969315
20
-3.33433536593509
30
0
41
1
10
75.7023662405419
20
-3.12356003992159
30
0
41
1
10
75.9591021561711
20
-3.01170429201306
30
0
41
1
10
76.3453175695035
20
-2.83582757353935
30
0
41
1
10
76.4743375092428
20
-2.77577196759899
30
0
41
1
10
76.7331010736048
20
-2.65241821814979
30
0
41
1
10
76.8629795866893
20
-2.58923743038756
30
0
41
1
10
77.1218876408673
20
-2.46112289618858
30
0
41
1
10
77.2510249587612
20
-2.39597640332238
30
0
41
1
10
77.4952220144908
20
-2.27035670627831
30
0
41
1
10
77.6101972504504
20
-2.20987812239585
30
0
41
1
10
77.7252995635534
20
-2.1491126892397
30
0
0
SPLINE
5
DB
100
AcDbEntity
8
1
62
256
6
ByLayer
370
18
48
1
60
0
100
AcDbSpline
70
4
71
3
72
60
73
56
40
0
40
0
40
0
40
0
40
0.0101059806039302
40
0.0101059806039302
40
0.0622056658353094
40
0.0622056658353094
40
0.114305351066688
40
0.114305351066688
40
0.140355193682375
40
0.140355193682375
40
0.166405036298063
40
0.166405036298063
40
0.19245487891375
40
0.19245487891375
40
0.218504721529437
40
0.218504721529437
40
0.270604406760812
40
0.270604406760812
40
0.296654249376498
40
0.296654249376498
40
0.322704091992184
40
0.322704091992184
40
0.374803777223555
40
0.374803777223555
40
0.426903462454925
40
0.426903462454925
40
0.479003147686296
40
0.479003147686296
40
0.505052990301982
40
0.505052990301982
40
0.531102832917668
40
0.531102832917668
40
0.583202518149038
40
0.583202518149038
40
0.635302203380409
40
0.635302203380409
40
0.661352045996095
40
0.661352045996095
40
0.687401888611781
40
0.687401888611781
40
0.739501573843152
40
0.739501573843152
40
0.791601259074523
40
0.791601259074523
40
0.817651101690208
40
0.817651101690208
40
0.843700944305894
40
0.843700944305894
40
0.895800629537262
40
0.895800629537262
40
0.947900314768628
40
0.947900314768628
40
0.973950157384314
40
0.973950157384314
40
1
40
1
40
1
40
1
41
1
10
93.0356696085486
20
4.43063316144321
30
0
41
1
10
93.0854198341591
20
4.43028075279361
30
0
41
1
10
93.1351472454769
20
4.42965085082039
30
0
41
1
10
93.4410061744123
20
4.42411792107862
30
0
41
1
10
93.6963870800026
20
4.41168573323776
30
0
41
1
10
94.2082820634573
20
4.36854005001368
30
0
41
1
10
94.4647462870501
20
4.33862409633664
30
0
41
1
10
94.849516742376
20
4.28318105363365
30
0
41
1
10
94.9777723262239
20
4.26277698289434
30
0
41
1
10
95.234476830873
20
4.21757407695117
30
0
41
1
10
95.3634336669259
20
4.19307070553066
30
0
41
1
10
95.6218267904455
20
4.13984758982426
30
0
41
1
10
95.7511908876738
20
4.11108618754068
30
0
41
1
10
96.010249741082
20
4.04948547317494
30
0
41
1
10
96.1400439991705
20
4.01669386490892
30
0
41
1
10
96.5284145618809
20
3.91394260003688
30
0
41
1
10
96.7864098258916
20
3.83857646330864
30
0
41
1
10
97.1723562417178
20
3.71450533475286
30
0
41
1
10
97.3007424708055
20
3.67128875611363
30
0
41
1
10
97.5570493811451
20
3.58136382483406
30
0
41
1
10
97.6847588469644
20
3.53447633563908
30
0
41
1
10
98.0695772190616
20
3.39172670670391
30
0
41
1
10
98.3255900422693
20
3.2902049576588
30
0
41
1
10
98.8370841175427
20
3.07374130019673
30
0
41
1
10
99.0930866100235
20
2.95957620888217
30
0
41
1
10
99.6060784426604
20
2.72196599583856
30
0
41
1
10
99.8627921253582
20
2.59797829718428
30
0
41
1
10
100.248580210695
20
2.40225540606514
30
0
41
1
10
100.377915160747
20
2.33636339833038
30
0
41
1
10
100.636897430618
20
2.20202053320907
30
0
41
1
10
100.766635183516
20
2.13351014071333
30
0
41
1
10
101.155891112602
20
1.9243894402864
30
0
41
1
10
101.414146227401
20
1.78161806632056
30
0
41
1
10
101.929572706322
20
1.4917137335656
30
0
41
1
10
102.186777496992
20
1.34466450415005
30
0
41
1
10
102.571033592376
20
1.11959831356936
30
0
41
1
10
102.698731348968
20
1.04360671946733
30
0
41
1
10
102.955310897631
20
0.892878907707569
30
0
41
1
10
103.083518265902
20
0.817040010014836
30
0
41
1
10
103.467755970214
20
0.587890466180227
30
0
41
1
10
103.723431465064
20
0.432998600339175
30
0
41
1
10
104.236112089089
20
0.122810136928763
30
0
41
1
10
104.493118655192
20
-0.0324919089739808
30
0
41
1
10
104.879167623976
20
-0.266578593045296
30
0
41
1
10
105.00792604109
20
-0.344819956484059
30
0
41
1
10
105.265723544661
20
-0.501509181695724
30
0
41
1
10
105.395428508323
20
-0.578800548888779
30
0
41
1
10
105.784814390921
20
-0.811233975314508
30
0
41
1
10
106.043932670914
20
-0.966054208648472
30
0
41
1
10
106.559655912913
20
-1.26903462480667
30
0
41
1
10
106.816850403779
20
-1.41759290203575
30
0
41
1
10
107.201842053996
20
-1.63585580131056
30
0
41
1
10
107.329948104693
20
-1.70798863936872
30
0
41
1
10
107.585796250386
20
-1.85085000812055
30
0
41
1
10
107.713426327849
20
-1.92173942330209
30
0
41
1
10
107.841633941342
20
-1.99078254414206
30
0
0
SPLINE
5
DC
100
AcDbEntity
8
1
62
256
6
ByLayer
370
13
48
1
60
0
100
AcDbSpline
70
4
71
3
72
18
73
14
40
0
40
0
40
0
40
0
40
0.25
40
0.25
40
0.5
40
0.5
40
0.625
40
0.625
40
0.75
40
0.75
40
0.875
40
0.875
40
1
40
1
40
1
40
1
41
1
10
8.25024939453374
20
-1.03931148051035
30
0
41
1
10
8.25024135455067
20
-0.703930467905309
30
0
41
1
10
8.25022197806118
20
-0.363133386031279
30
0
41
1
10
8.25017349785381
20
0.326874755798912
30
0
41
1
10
8.25014525360689
20
0.665362221796443
30
0
41
1
10
8.25010618682921
20
1.16364257086431
30
0
41
1
10
8.25009365176572
20
1.32872606267287
30
0
41
1
10
8.25007121921601
20
1.65288136002616
30
0
41
1
10
8.2500613936019
20
1.81088447928843
30
0
41
1
10
8.25004558747312
20
2.11875871201301
30
0
41
1
10
8.25003965396374
20
2.26815561239661
30
0
41
1
10
8.25003254578903
20
2.55316572480794
30
0
41
1
10
8.25003132827729
20
2.68951651034578
30
0
41
1
10
8.25003261467833
20
2.81976161862406
30
0
0
SPLINE
5
DD
100
AcDbEntity
8
1
62
256
6
ByLayer
370
18
48
1
60
0
100
AcDbSpline
70
4
71
3
72
36
73
32
40
0
40
0
40
0
40
0
40
0.125000000000008
40
0.125000000000008
40
0.187500000000012
40
0.187500000000012
40
0.250000000000016
40
0.250000000000016
40
0.375000000000013
40
0.375000000000013
40
0.500000000000011
40
0.500000000000011
40
0.562500000000006
40
0.562500000000006
40
0.625000000000002
40
0.625000000000002
40
0.749999999999988
40
0.749999999999988
40
0.812499999999981
40
0.812499999999981
40
0.820312499999981
40
0.820312499999981
40
0.82812499999998
40
0.82812499999998
40
0.843749999999981
40
0.843749999999981
40
0.859374999999981
40
0.859374999999981
40
0.874999999999981
40
0.874999999999981
40
1
40
1
40
1
40
1
41
1
10
107.841633941353
20
-1.99078254414749
30
0
41
1
10
108.040991502967
20
-2.03686427755224
30
0
41
1
10
108.238982711076
20
-2.06945251870897
30
0
41
1
10
108.533286873949
20
-2.09184224346748
30
0
41
1
10
108.630927612381
20
-2.09475632095933
30
0
41
1
10
108.82499145273
20
-2.08855964575426
30
0
41
1
10
108.922003863372
20
-2.07938414039319
30
0
41
1
10
109.205120884122
20
-2.03102820533309
30
0
41
1
10
109.383660911656
20
-1.97106352547945
30
0
41
1
10
109.714310895833
20
-1.77932017259576
30
0
41
1
10
109.857778958452
20
-1.6527122011326
30
0
41
1
10
110.041248911702
20
-1.41853785368397
30
0
41
1
10
110.097202879342
20
-1.33279953198172
30
0
41
1
10
110.196258331848
20
-1.15348788257182
30
0
41
1
10
110.239719850453
20
-1.05914709634612
30
0
41
1
10
110.355156569104
20
-0.764580450695775
30
0
41
1
10
110.413559704673
20
-0.552739141194166
30
0
41
1
10
110.482372303713
20
-0.226336338584389
30
0
41
1
10
110.501912956713
20
-0.115742437380561
30
0
41
1
10
110.521614790193
20
0.0096905495214514
30
0
41
1
10
110.523981147546
20
0.0235711660254196
30
0
41
1
10
110.526173864379
20
0.0521402881841198
30
0
41
1
10
110.525757539514
20
0.0669059836866097
30
0
41
1
10
110.521798046358
20
0.112065196325375
30
0
41
1
10
110.515507485242
20
0.142972800036603
30
0
41
1
10
110.499303567002
20
0.202972771849886
30
0
41
1
10
110.48943002477
20
0.232645015733624
30
0
41
1
10
110.47117925479
20
0.292266320960181
30
0
41
1
10
110.462132110627
20
0.322091448088713
30
0
41
1
10
110.381382358085
20
0.590642382732966
30
0
41
1
10
110.314498914363
20
0.830235350702111
30
0
41
1
10
110.250637959106
20
1.07014782443576
30
0
0
SPLINE
5
DE
100
AcDbEntity
8
1
62
256
6
ByLayer
370
18
48
1
60
0
100
AcDbSpline
70
4
71
3
72
8
73
4
40
0
40
0
40
0
40
0
40
1
40
1
40
1
40
1
41
1
10
110.481429526131
20
-4.5730430957351
30
0
41
1
10
110.421794500849
20
-4.631210235444
30
0
41
1
10
110.369633907289
20
-4.66985851093213
30
0
41
1
10
110.324593200183
20
-4.68802541765314
30
0
0
SPLINE
5
DF
100
AcDbEntity
8
1
62
256
6
ByLayer
370
18
48
1
60
0
100
AcDbSpline
70
4
71
3
72
8
73
4
40
0
40
0
40
0
40
0
40
1
40
1
40
1
40
1
41
1
10
7.99999973451992
20
-0.928146656868734
30
0
41
1
10
7.99999973451992
20
-0.928820810895445
30
0
41
1
10
7.99999973451992
20
-0.929494933560107
30
0
41
1
10
7.99999973451992
20
-0.930169024910498
30
0
0
SPLINE
5
E0
100
AcDbEntity
8
1
62
256
6
ByLayer
370
13
48
1
60
0
100
AcDbSpline
70
4
71
3
72
8
73
4
40
0
40
0
40
0
40
0
40
1
40
1
40
1
40
1
41
1
10
8.11620469777898
20
-1.13611162735012
30
0
41
1
10
8.11715032133492
20
-1.12550458175781
30
0
41
1
10
8.11810799077776
20
-1.11488772081694
30
0
41
1
10
8.11907785055558
20
-1.10426047286785
30
0
0
SPLINE
5
E1
100
AcDbEntity
8
1
62
256
6
ByLayer
370
18
48
1
60
0
100
AcDbSpline
70
4
71
3
72
8
73
4
40
0
40
0
40
0
40
0
40
1
40
1
40
1
40
1
41
1
10
111.971862467082
20
-0.0194285174713116
30
0
41
1
10
111.934678219712
20
-0.0885658228702937
30
0
41
1
10
111.897639040978
20
-0.157833099195727
30
0
41
1
10
111.86074570789
20
-0.227229570555636
30
0
0
SPLINE
5
E2
100
AcDbEntity
8
1
62
256
6
ByLayer
370
18
48
1
60
0
100
AcDbSpline
70
4
71
3
72
14
73
10
40
0
40
0
40
0
40
0
40
0.25
40
0.25
40
0.5
40
0.5
40
0.75
40
0.75
40
1
40
1
40
1
40
1
41
1
10
110.406435377353
20
-4.43440817754751
30
0
41
1
10
110.40891029248
20
-4.43361017294163
30
0
41
1
10
110.410753489957
20
-4.43447119165845
30
0
41
1
10
110.412750894754
20
-4.44060630069669
30
0
41
1
10
110.412858321989
20
-4.44596851763413
30
0
41
1
10
110.4103464326
20
-4.46236899024436
30
0
41
1
10
110.407663687536
20
-4.4734577565203
30
0
41
1
10
110.399816556264
20
-4.49886203417299
30
0
41
1
10
110.394757187364
20
-4.51286809977515
30
0
41
1
10
110.389444641382
20
-4.52615893331406
30
0
0
SPLINE
5
E3
100
AcDbEntity
8
1
62
256
6
ByLayer
370
18
48
1
60
0
100
AcDbSpline
70
4
71
3
72
8
73
4
40
0
40
0
40
0
40
0
40
1
40
1
40
1
40
1
41
1
10
111.999941039399
20
0.0471413484048071
30
0
41
1
10
112.000019653466
20
0.0157138097587506
30
0
41
1
10
112.000019653467
20
-0.0157138097580116
30
0
41
1
10
111.999941039399
20
-0.0471413484040681
30
0
0
SPLINE
5
E4
100
AcDbEntity
8
1
62
256
6
ByLayer
370
18
48
1
60
0
100
AcDbSpline
70
4
71
3
72
8
73
4
40
0
40
0
40
0
40
0
40
1
40
1
40
1
40
1
41
1
10
111.999941039399
20
0.0471413484049208
30
0
41
1
10
111.992043236953
20
0.0234167440589204
30
0
41
1
10
111.981912976268
20
-0.0007414343059224
30
0
41
1
10
111.971862467082
20
-0.0194285174713116
30
0
0
SPLINE
5
E5
100
AcDbEntity
8
1
62
256
6
ByLayer
370
18
48
1
60
0
100
AcDbSpline
70
4
71
3
72
16
73
12
40
0
40
0
40
0
40
0
40
0.124999999999994
40
0.124999999999994
40
0.249999999999988
40
0.249999999999988
40
0.499999999999992
40
0.499999999999992
40
0.749999999999996
40
0.749999999999996
40
1
40
1
40
1
40
1
41
1
10
7.99999973452441
20
3.19093370830873
30
0
41
1
10
7.99999973452432
20
3.18246900333267
30
0
41
1
10
8.00254496831599
20
3.17080764901496
30
0
41
1
10
8.01316241642218
20
3.14209539411348
30
0
41
1
10
8.0212300395911
20
3.1251163674537
30
0
41
1
10
8.05009435316845
20
3.07233131763599
30
0
41
1
10
8.07482394436425
20
3.03534569759543
30
0
41
1
10
8.12428650207056
20
2.96725716506481
30
0
41
1
10
8.14970462878176
20
2.93515525794879
30
0
41
1
10
8.20028038264448
20
2.87461204425856
30
0
41
1
10
8.22527934500454
20
2.84638910250055
30
0
41
1
10
8.25003261467828
20
2.81976163739785
30
0
0
SPLINE
5
E6
100
AcDbEntity
8
1
62
256
6
ByLayer
370
18
48
1
60
0
100
AcDbSpline
70
4
71
3
72
18
73
14
40
0
40
0
40
0
40
0
40
0.25
40
0.25
40
0.375
40
0.375
40
0.5
40
0.5
40
0.75
40
0.75
40
0.875
40
0.875
40
1
40
1
40
1
40
1
41
1
10
110.329452968816
20
-4.43442179374156
30
0
41
1
10
110.234715544353
20
-4.42064156621086
30
0
41
1
10
110.147010583037
20
-4.38675676058452
30
0
41
1
10
110.026999973008
20
-4.30291918582392
30
0
41
1
10
109.988865125787
20
-4.26928340369844
30
0
41
1
10
109.918199829478
20
-4.19191958836117
30
0
41
1
10
109.885458945632
20
-4.14808423142688
30
0
41
1
10
109.795058749858
20
-4.00102403450813
30
0
41
1
10
109.74515290746
20
-3.88238224024357
30
0
41
1
10
109.687139021306
20
-3.67092529128394
30
0
41
1
10
109.670636298714
20
-3.59461395810089
30
0
41
1
10
109.6441616209
20
-3.43356999549871
30
0
41
1
10
109.634075628375
20
-3.34850079995957
30
0
41
1
10
109.627160291775
20
-3.25885652760539
30
0
0
SPLINE
5
E7
100
AcDbEntity
8
1
62
256
6
ByLayer
370
18
48
1
60
0
100
AcDbSpline
70
4
71
3
72
8
73
4
40
0
40
0
40
0
40
0
40
1
40
1
40
1
40
1
41
1
10
111.820108903204
20
-1.22275130584086
30
0
41
1
10
111.878627153576
20
-0.868592889780615
30
0
41
1
10
111.930265480196
20
-0.514480128806042
30
0
41
1
10
111.974975966391
20
-0.160413340891608
30
0
0
SPLINE
5
E8
100
AcDbEntity
8
1
62
256
6
ByLayer
370
18
48
1
60
0
100
AcDbSpline
70
4
71
3
72
108
73
104
40
0
40
0
40
0
40
0
40
0.0258424986046272
40
0.0258424986046272
40
0.038763747906941
40
0.038763747906941
40
0.0516849972092549
40
0.0516849972092549
40
0.077527495813882
40
0.077527495813882
40
0.103369994418509
40
0.103369994418509
40
0.116291243720823
40
0.116291243720823
40
0.129212493023136
40
0.129212493023136
40
0.155054991627764
40
0.155054991627764
40
0.180897490232392
40
0.180897490232392
40
0.206739988837019
40
0.206739988837019
40
0.232582487441647
40
0.232582487441647
40
0.258424986046275
40
0.258424986046275
40
0.271346235348589
40
0.271346235348589
40
0.284267484650903
40
0.284267484650903
40
0.297188733953216
40
0.297188733953216
40
0.31010998325553
40
0.31010998325553
40
0.335952481860158
40
0.335952481860158
40
0.361794980464786
40
0.361794980464786
40
0.3747162297671
40
0.3747162297671
40
0.387637479069414
40
0.387637479069414
40
0.413479977674041
40
0.413479977674041
40
0.426401226976355
40
0.426401226976355
40
0.439322476278669
40
0.439322476278669
40
0.465164974883297
40
0.465164974883297
40
0.491007473487924
40
0.491007473487924
40
0.516849972092552
40
0.516849972092552
40
0.529771221394866
40
0.529771221394866
40
0.542692470697181
40
0.542692470697181
40
0.568534969301809
40
0.568534969301809
40
0.594377467906438
40
0.594377467906438
40
0.607298717208752
40
0.607298717208752
40
0.620219966511065
40
0.620219966511065
40
0.646062465115693
40
0.646062465115693
40
0.671904963720321
40
0.671904963720321
40
0.684826213022635
40
0.684826213022635
40
0.697747462324949
40
0.697747462324949
40
0.723589960929577
40
0.723589960929577
40
0.749432459534205
40
0.749432459534205
40
0.775274958138832
40
0.775274958138832
40
0.80111745674346
40
0.80111745674346
40
0.826959955348088
40
0.826959955348088
40
0.852802453952715
40
0.852802453952715
40
0.865723703255029
40
0.865723703255029
40
0.878644952557343
40
0.878644952557343
40
0.891566201859657
40
0.891566201859657
40
0.90448745116197
40
0.90448745116197
40
0.930329949766597
40
0.930329949766597
40
0.943251199068911
40
0.943251199068911
40
0.956172448371225
40
0.956172448371225
40
0.982014946975851
40
0.982014946975851
40
1
40
1
40
1
40
1
41
1
10
9.0627642612144
20
2.30089692131006
30
0
41
1
10
9.32881742094645
20
2.44937898374334
30
0
41
1
10
9.5946117226012
20
2.59128121868056
30
0
41
1
10
9.99337759896525
20
2.79429549372602
30
0
41
1
10
10.1262515492554
20
2.86041305486958
30
0
41
1
10
10.3910985901831
20
2.99054643572379
30
0
41
1
10
10.522822508548
20
3.05484144185689
30
0
41
1
10
10.919224649943
20
3.24134967362318
30
0
41
1
10
11.1841325382874
20
3.35852721196409
30
0
41
1
10
11.7127686657566
20
3.5813361936143
30
0
41
1
10
11.9770515707975
20
3.68627540157146
30
0
41
1
10
12.3753612968672
20
3.83204456122468
30
0
41
1
10
12.5083930932083
20
3.87875554409033
30
0
41
1
10
12.7747673128058
20
3.96858931883068
30
0
41
1
10
12.9077265058351
20
4.01206022507347
30
0
41
1
10
13.3077303876531
20
4.13618710270305
30
0
41
1
10
13.5741441272837
20
4.20963920682493
30
0
41
1
10
14.1039941215131
20
4.34039415036392
30
0
41
1
10
14.3676092868368
20
4.39741926071656
30
0
41
1
10
14.8951792942524
20
4.49343549513776
30
0
41
1
10
15.1593652472844
20
4.5325112617368
30
0
41
1
10
15.684763127384
20
4.59390930266289
30
0
41
1
10
15.9485845071507
20
4.6154145787057
30
0
41
1
10
16.4767072198133
20
4.64072423606501
30
0
41
1
10
16.7405303216314
20
4.64444267070721
30
0
41
1
10
17.138364861606
20
4.63622085455089
30
0
41
1
10
17.2713288912013
20
4.63119980929216
30
0
41
1
10
17.5379341313074
20
4.61658666426473
30
0
41
1
10
17.6718973341747
20
4.60700572293459
30
0
41
1
10
17.9381556019749
20
4.58311516296027
30
0
41
1
10
18.0706923277817
20
4.56881381926684
30
0
41
1
10
18.3360342333893
20
4.53598685733141
30
0
41
1
10
18.4686546374082
20
4.51742569104269
30
0
41
1
10
18.865946812905
20
4.45528124624386
30
0
41
1
10
19.1293611703248
20
4.40488603005139
30
0
41
1
10
19.6560337878124
20
4.28748465920148
30
0
41
1
10
19.9196113497229
20
4.22074880908761
30
0
41
1
10
20.3148510507788
20
4.10843211480019
30
0
41
1
10
20.4460348943577
20
4.06853230946516
30
0
41
1
10
20.7092029244951
20
3.98520347154957
30
0
41
1
10
20.8410627081253
20
3.94170084048793
30
0
41
1
10
21.237368254264
20
3.8056680341337
30
0
41
1
10
21.5017819561891
20
3.70692751241347
30
0
41
1
10
21.8996665211128
20
3.54724721871585
30
0
41
1
10
22.032595998233
20
3.49218689831668
30
0
41
1
10
22.2993059296544
20
3.378657611796
30
0
41
1
10
22.4330797097074
20
3.32019397897
30
0
41
1
10
22.832770698409
20
3.14051425142304
30
0
41
1
10
23.0968592479358
20
3.01329595717056
30
0
41
1
10
23.6257635293259
20
2.7508858781724
30
0
41
1
10
23.8896452006368
20
2.61458604914549
30
0
41
1
10
24.4158544570299
20
2.33124862689365
30
0
41
1
10
24.6789114937942
20
2.18518200019119
30
0
41
1
10
25.0742549488905
20
1.96075431945721
30
0
41
1
10
25.2062498785589
20
1.88519467789138
30
0
41
1
10
25.4692325081693
20
1.73041480855738
30
0
41
1
10
25.6008004772997
20
1.65204069762697
30
0
41
1
10
25.9967790576365
20
1.41556635707593
30
0
41
1
10
26.2619658496611
20
1.25540916316993
30
0
41
1
10
26.7929486340258
20
0.927054796367543
30
0
41
1
10
27.0601870923234
20
0.759490397837908
30
0
41
1
10
27.4593302985461
20
0.509186401857221
30
0
41
1
10
27.5921864288788
20
0.425760048874452
30
0
41
1
10
27.8571560545939
20
0.258330232182146
30
0
41
1
10
27.9888091538076
20
0.173579859249855
30
0
41
1
10
28.3845957793284
20
-0.0783678801506653
30
0
41
1
10
28.6487139014675
20
-0.244659455587481
30
0
41
1
10
29.1749689071565
20
-0.577954088925452
30
0
41
1
10
29.43758725759
20
-0.74416746044389
30
0
41
1
10
29.8327423314913
20
-0.989693194343459
30
0
41
1
10
29.964624258471
20
-1.07096964789756
30
0
41
1
10
30.2285048185651
20
-1.23272102063012
30
0
41
1
10
30.3601851978729
20
-1.31369093908876
30
0
41
1
10
30.7557115978949
20
-1.55488849791584
30
0
41
1
10
31.021143447237
20
-1.71171774089729
30
0
41
1
10
31.5531296280187
20
-2.02107188847512
30
0
41
1
10
31.8199899208432
20
-2.17367076802751
30
0
41
1
10
32.3510468426246
20
-2.46597681911334
30
0
41
1
10
32.6165073460709
20
-2.60574427614398
30
0
41
1
10
33.1429194612211
20
-2.87845399150288
30
0
41
1
10
33.4065213220369
20
-3.00787098691365
30
0
41
1
10
33.9332933836491
20
-3.25478228263552
30
0
41
1
10
34.195797834937
20
-3.37297519200152
30
0
41
1
10
34.7222464047617
20
-3.59509870956433
30
0
41
1
10
34.9865059308829
20
-3.69879886846016
30
0
41
1
10
35.3829600104637
20
-3.84470087021467
30
0
41
1
10
35.5147655858519
20
-3.89202676746362
30
0
41
1
10
35.7797650593869
20
-3.9821247379154
30
0
41
1
10
35.912699332661
20
-4.02514869473589
30
0
41
1
10
36.1792450344932
20
-4.10731441245298
30
0
41
1
10
36.3128966661532
20
-4.146592340686
30
0
41
1
10
36.5789714309807
20
-4.2209340596699
30
0
41
1
10
36.7116277995479
20
-4.25599853837173
30
0
41
1
10
37.1090863108803
20
-4.35452182734122
30
0
41
1
10
37.3736307088661
20
-4.41120868270852
30
0
41
1
10
37.7695006773051
20
-4.48330308065269
30
0
41
1
10
37.9008169579006
20
-4.50537098016159
30
0
41
1
10
38.1636876171427
20
-4.5448827964054
30
0
41
1
10
38.2952446195144
20
-4.5623482509836
30
0
41
1
10
38.690212321777
20
-4.60803003075657
30
0
41
1
10
38.9532472947951
20
-4.6297232706475
30
0
41
1
10
39.3994728162463
20
-4.65127412772085
30
0
41
1
10
39.582934557862
20
-4.65573096675769
30
0
41
1
10
39.7668289628829
20
-4.65580491855155
30
0
0
SPLINE
5
E9
100
AcDbEntity
8
1
62
256
6
ByLayer
370
18
48
1
60
0
100
AcDbSpline
70
4
71
3
72
112
73
108
40
0
40
0
40
0
40
0
40
0.0104648484884873
40
0.0104648484884873
40
0.0359893858920432
40
0.0359893858920432
40
0.0615139232955991
40
0.0615139232955991
40
0.0870384606991552
40
0.0870384606991552
40
0.0998007294009331
40
0.0998007294009331
40
0.112562998102711
40
0.112562998102711
40
0.138087535506268
40
0.138087535506268
40
0.163612072909825
40
0.163612072909825
40
0.176374341611603
40
0.176374341611603
40
0.189136610313382
40
0.189136610313382
40
0.214661147716939
40
0.214661147716939
40
0.240185685120497
40
0.240185685120497
40
0.252947953822276
40
0.252947953822276
40
0.265710222524054
40
0.265710222524054
40
0.291234759927612
40
0.291234759927612
40
0.31675929733117
40
0.31675929733117
40
0.342283834734728
40
0.342283834734728
40
0.367808372138286
40
0.367808372138286
40
0.393332909541844
40
0.393332909541844
40
0.418857446945402
40
0.418857446945402
40
0.431619715647181
40
0.431619715647181
40
0.444381984348961
40
0.444381984348961
40
0.45714425305074
40
0.45714425305074
40
0.46990652175252
40
0.46990652175252
40
0.495431059156078
40
0.495431059156078
40
0.508193327857858
40
0.508193327857858
40
0.520955596559638
40
0.520955596559638
40
0.546480133963196
40
0.546480133963196
40
0.572004671366755
40
0.572004671366755
40
0.584766940068534
40
0.584766940068534
40
0.597529208770312
40
0.597529208770312
40
0.610291477472091
40
0.610291477472091
40
0.62305374617387
40
0.62305374617387
40
0.648578283577427
40
0.648578283577427
40
0.661340552279205
40
0.661340552279205
40
0.674102820980984
40
0.674102820980984
40
0.699627358384541
40
0.699627358384541
40
0.725151895788097
40
0.725151895788097
40
0.737914164489876
40
0.737914164489876
40
0.750676433191654
40
0.750676433191654
40
0.776200970595211
40
0.776200970595211
40
0.801725507998768
40
0.801725507998768
40
0.827250045402325
40
0.827250045402325
40
0.852774582805882
40
0.852774582805882
40
0.878299120209438
40
0.878299120209438
40
0.891061388911217
40
0.891061388911217
40
0.903823657612995
40
0.903823657612995
40
0.916585926314774
40
0.916585926314774
40
0.929348195016552
40
0.929348195016552
40
0.954872732420109
40
0.954872732420109
40
0.980397269823666
40
0.980397269823666
40
0.993159538525445
40
0.993159538525445
40
1
40
1
40
1
40
1
41
1
10
54.7462695461095
20
2.13471548914194
30
0
41
1
10
54.8555937814298
20
2.19647621783815
30
0
41
1
10
54.9650689621851
20
2.25750537733683
30
0
41
1
10
55.3402748828872
20
2.46428647074777
30
0
41
1
10
55.6039813684844
20
2.6074550307431
30
0
41
1
10
56.1322949551987
20
2.8792358489691
30
0
41
1
10
56.3957546362606
20
3.00947063538172
30
0
41
1
10
56.9213022618247
20
3.25858021075686
30
0
41
1
10
57.1840940359773
20
3.37660446583791
30
0
41
1
10
57.5789566679794
20
3.54327729376638
30
0
41
1
10
57.7107408004821
20
3.59706848017618
30
0
41
1
10
57.9733062853345
20
3.70238677922924
30
0
41
1
10
58.1048077587419
20
3.75317776758305
30
0
41
1
10
58.5003867308897
20
3.89960378911053
30
0
41
1
10
58.7652185779874
20
3.98965177446519
30
0
41
1
10
59.2955807213267
20
4.15559735085341
30
0
41
1
10
59.562541982985
20
4.23095804866153
30
0
41
1
10
59.9611571659551
20
4.33011169946383
30
0
41
1
10
60.0938602523794
20
4.36093602146917
30
0
41
1
10
60.3583596189128
20
4.41848558317571
30
0
41
1
10
60.4898403289158
20
4.44534564492901
30
0
41
1
10
60.8851677581331
20
4.5185729760866
30
0
41
1
10
61.1489304452825
20
4.55825348594573
30
0
41
1
10
61.6744679223413
20
4.62044269254616
30
0
41
1
10
61.9367875011348
20
4.64264998401094
30
0
41
1
10
62.3315047919529
20
4.66234867688772
30
0
41
1
10
62.4632339299524
20
4.66666854238483
30
0
41
1
10
62.7267946635422
20
4.67082300812959
30
0
41
1
10
62.8582465334494
20
4.67065192237229
30
0
41
1
10
63.2533993645837
20
4.66322209449768
30
0
41
1
10
63.518576051969
20
4.64924288414517
30
0
41
1
10
64.0499567882032
20
4.60274286410927
30
0
41
1
10
64.3164500621361
20
4.56998587343608
30
0
41
1
10
64.8467786964151
20
4.48743785331868
30
0
41
1
10
65.1117859404962
20
4.43790589110907
30
0
41
1
10
65.6374826415728
20
4.32033641719011
30
0
41
1
10
65.9008203239347
20
4.25372263654083
30
0
41
1
10
66.426875301693
20
4.10434090628681
30
0
41
1
10
66.689045204044
20
4.02105937272427
30
0
41
1
10
67.2149134081792
20
3.83971488780671
30
0
41
1
10
67.4789642079871
20
3.74210236341216
30
0
41
1
10
67.8748593677279
20
3.58335774842129
30
0
41
1
10
68.006560681226
20
3.52810502666031
30
0
41
1
10
68.2713301771918
20
3.41488501095196
30
0
41
1
10
68.4041544474497
20
3.35667796616099
30
0
41
1
10
68.6704587523375
20
3.23681770343427
30
0
41
1
10
68.8039132169661
20
3.17496247551568
30
0
41
1
10
69.0695542706829
20
3.04828771261646
30
0
41
1
10
69.2020041475079
20
2.98345097976801
30
0
41
1
10
69.5988728672575
20
2.78527342514627
30
0
41
1
10
69.8630535714052
20
2.64860225460546
30
0
41
1
10
70.2583539361109
20
2.43643913490493
30
0
41
1
10
70.3894515699673
20
2.363823991641
30
0
41
1
10
70.651996606868
20
2.21709753886864
30
0
41
1
10
70.7833936223246
20
2.14292696622934
30
0
41
1
10
71.1778828249004
20
1.91794359531403
30
0
41
1
10
71.4405662792803
20
1.76364571673926
30
0
41
1
10
71.9662090814765
20
1.44760466255033
30
0
41
1
10
72.2297910142281
20
1.28680261656066
30
0
41
1
10
72.6266110217076
20
1.04190743805461
30
0
41
1
10
72.7589863892202
20
0.959442694496403
30
0
41
1
10
73.0235440909278
20
0.792136565567176
30
0
41
1
10
73.1563053076966
20
0.708228793639904
30
0
41
1
10
73.4227468232992
20
0.539844693582637
30
0
41
1
10
73.5560688950945
20
0.45569268669999
30
0
41
1
10
73.8216268893503
20
0.287010798173213
30
0
41
1
10
73.9539470815874
20
0.202358796018046
30
0
41
1
10
74.3502068748405
20
-0.0514245636752833
30
0
41
1
10
74.6136578212303
20
-0.220039706690528
30
0
41
1
10
75.0087714508221
20
-0.470534757518067
30
0
41
1
10
75.1405419517688
20
-0.553510820115349
30
0
41
1
10
75.4029499866515
20
-0.720412134797272
30
0
41
1
10
75.5338845937681
20
-0.803861643109997
30
0
41
1
10
75.92776349555
20
-1.05125977291593
30
0
41
1
10
76.1910542401151
20
-1.21342490780239
30
0
41
1
10
76.716944181811
20
-1.53544462945351
30
0
41
1
10
76.980201743962
20
-1.694267871855
30
0
41
1
10
77.3772527610097
20
-1.9266459975525
30
0
41
1
10
77.5098992124369
20
-2.00322890166004
30
0
41
1
10
77.7755758244723
20
-2.15494165366641
30
0
41
1
10
77.9082925296776
20
-2.23090665781174
30
0
41
1
10
78.3070976206066
20
-2.45371877666696
30
0
41
1
10
78.5726772952971
20
-2.59562441033131
30
0
41
1
10
79.1007486149578
20
-2.87004496553448
30
0
41
1
10
79.3635986988784
20
-3.00197080661982
30
0
41
1
10
79.8897415427072
20
-3.25198344368613
30
0
41
1
10
80.1529401254535
20
-3.3702921810887
30
0
41
1
10
80.6771250249662
20
-3.59606793866416
30
0
41
1
10
80.9403809140484
20
-3.70111565062427
30
0
41
1
10
81.4671180344286
20
-3.8977983913631
30
0
41
1
10
81.7303518421437
20
-3.98955328403801
30
0
41
1
10
82.1274188156167
20
-4.11498351175283
30
0
41
1
10
82.260143894231
20
-4.15477448213051
30
0
41
1
10
82.5262486968106
20
-4.2303726591513
30
0
41
1
10
82.6599158334316
20
-4.26612427054167
30
0
41
1
10
82.9251154246018
20
-4.33389383346085
30
0
41
1
10
83.0573808581881
20
-4.36557183958612
30
0
41
1
10
83.3219860532124
20
-4.42418655375411
30
0
41
1
10
83.4542461832872
20
-4.45118450618921
30
0
41
1
10
83.8503653346312
20
-4.52565557321495
30
0
41
1
10
84.1129872885333
20
-4.56679022344946
30
0
41
1
10
84.6383152986634
20
-4.63087348218431
30
0
41
1
10
84.9012898231697
20
-4.6538535299394
30
0
41
1
10
85.2955120429291
20
-4.67501344541273
30
0
41
1
10
85.4263294090707
20
-4.67987848426748
30
0
41
1
10
85.6280265738006
20
-4.6837871656098
30
0
41
1
10
85.6984912808321
20
-4.68449663637455
30
0
41
1
10
85.7690299554511
20
-4.68455528676918
30
0
0
SPLINE
5
EA
100
AcDbEntity
8
1
62
256
6
ByLayer
370
18
48
1
60
0
100
AcDbSpline
70
4
71
3
72
40
73
36
40
0
40
0
40
0
40
0
40
0.0248659654402354
40
0.0248659654402354
40
0.106127134986888
40
0.106127134986888
40
0.187388304533542
40
0.187388304533542
40
0.228018889306869
40
0.228018889306869
40
0.268649474080195
40
0.268649474080195
40
0.349910643626841
40
0.349910643626841
40
0.431171813173487
40
0.431171813173487
40
0.471802397946811
40
0.471802397946811
40
0.512432982720134
40
0.512432982720134
40
0.593694152266781
40
0.593694152266781
40
0.674955321813427
40
0.674955321813427
40
0.715585906586749
40
0.715585906586749
40
0.756216491360073
40
0.756216491360073
40
0.837477660906713
40
0.837477660906713
40
0.918738830453354
40
0.918738830453354
40
0.959369415226676
40
0.959369415226676
40
1
40
1
40
1
40
1
41
1
10
100.744962295061
20
2.14303073701498
30
0
41
1
10
100.82615029209
20
2.18930541126465
30
0
41
1
10
100.907495042151
20
2.23517126129812
30
0
41
1
10
101.255255757898
20
2.42930536395863
30
0
41
1
10
101.520449554805
20
2.57400014939174
30
0
41
1
10
102.048458390365
20
2.85109489917903
30
0
41
1
10
102.312097655546
20
2.98320347546172
30
0
41
1
10
102.706758204337
20
3.17230171771286
30
0
41
1
10
102.837729540835
20
3.23434025566297
30
0
41
1
10
103.099828286669
20
3.35484237150442
30
0
41
1
10
103.231020412961
20
3.41324727821325
30
0
41
1
10
103.624957780956
20
3.58309422390855
30
0
41
1
10
103.887450547373
20
3.6898264309859
30
0
41
1
10
104.412631084684
20
3.88958735952113
30
0
41
1
10
104.675987519306
20
3.98198250470671
30
0
41
1
10
105.0726533853
20
4.10892824795249
30
0
41
1
10
105.20511655782
20
4.14933786439099
30
0
41
1
10
105.469580737005
20
4.22694191978087
30
0
41
1
10
105.602455796471
20
4.26363271986722
30
0
41
1
10
106.001457816402
20
4.36699459306129
30
0
41
1
10
106.266559191711
20
4.42689688807468
30
0
41
1
10
106.793816580899
20
4.52964033512691
30
0
41
1
10
107.056714478923
20
4.57203863401279
30
0
41
1
10
107.451167163929
20
4.62208139210361
30
0
41
1
10
107.582686868416
20
4.63651545053816
30
0
41
1
10
107.844971689986
20
4.66107274747952
30
0
41
1
10
107.975623612878
20
4.67118344481722
30
0
41
1
10
108.368948104594
20
4.69447960342589
30
0
41
1
10
108.632025621366
20
4.7009601594213
30
0
41
1
10
109.157588477492
20
4.69583129906653
30
0
41
1
10
109.420667127576
20
4.684100447231
30
0
41
1
10
109.817580411167
20
4.65287629728081
30
0
41
1
10
109.950210937137
20
4.64020182043856
30
0
41
1
10
110.215917831344
20
4.6102153984356
30
0
41
1
10
110.348684256752
20
4.59272825853154
30
0
41
1
10
110.481429526133
20
4.57304309573249
30
0
0
SPLINE
5
EB
100
AcDbEntity
8
1
62
256
6
ByLayer
370
18
48
1
60
0
100
AcDbSpline
70
4
71
3
72
14
73
10
40
0
40
0
40
0
40
0
40
0.294637235934
40
0.294637235934
40
0.441955853900995
40
0.441955853900995
40
0.589274471867989
40
0.589274471867989
40
1
40
1
40
1
40
1
41
1
10
110.406435377353
20
-4.43440817754751
30
0
41
1
10
109.871959686712
20
-4.45244865373297
30
0
41
1
10
109.338872149632
20
-4.43491126424092
30
0
41
1
10
108.537109903322
20
-4.35578796769104
30
0
41
1
10
108.2688881142
20
-4.32049160566945
30
0
41
1
10
107.735198072833
20
-4.23317755342521
30
0
41
1
10
107.469451401444
20
-4.1811774392674
30
0
41
1
10
106.465297248069
20
-3.95410402450511
30
0
41
1
10
105.731312689714
20
-3.72531375966776
30
0
41
1
10
104.993581961053
20
-3.44269955563138
30
0
0
SPLINE
5
EC
100
AcDbEntity
8
1
62
256
6
ByLayer
370
13
48
1
60
0
100
AcDbSpline
70
4
71
3
72
24
73
20
40
0
40
0
40
0
40
0
40
0.0999170423001261
40
0.0999170423001261
40
0.182357372176126
40
0.182357372176126
40
0.264797702052125
40
0.264797702052125
40
0.429678361804125
40
0.429678361804125
40
0.594559021556124
40
0.594559021556124
40
0.635779186494126
40
0.635779186494126
40
0.676999351432127
40
0.676999351432127
40
0.75943968130813
40
0.75943968130813
40
1
40
1
40
1
40
1
41
1
10
104.993582403059
20
-3.44269972495775
30
0
41
1
10
104.672878931789
20
-3.31984277182752
30
0
41
1
10
104.351467516545
20
-3.18681427034181
30
0
41
1
10
103.762247772586
20
-2.92663683214255
30
0
41
1
10
103.494021776805
20
-2.80211122120309
30
0
41
1
10
102.959964822762
20
-2.54347629535118
30
0
41
1
10
102.69406950101
20
-2.40937218874586
30
0
41
1
10
101.898454997765
20
-1.99479708294007
30
0
41
1
10
101.37074959971
20
-1.70211404225995
30
0
41
1
10
100.314081505532
20
-1.09465369559271
30
0
41
1
10
99.7851376831024
20
-0.779857028045427
30
0
41
1
10
99.1194312625921
20
-0.3785462989743
30
0
41
1
10
98.9860580362418
20
-0.297899211689071
30
0
41
1
10
98.7187007294197
20
-0.136059522902684
30
0
41
1
10
98.5846113674075
20
-0.0548018659597176
30
0
41
1
10
98.1837366836169
20
0.188004367545943
30
0
41
1
10
97.9175381902934
20
0.348995309555022
30
0
41
1
10
96.8775310959008
20
0.974545286758371
30
0
41
1
10
96.1088900569862
20
1.42821599993266
30
0
41
1
10
95.3358813347144
20
1.85313492651122
30
0
0
SPLINE
5
ED
100
AcDbEntity
8
1
62
256
6
ByLayer
370
18
48
1
60
0
100
AcDbSpline
70
4
71
3
72
16
73
12
40
0
40
0
40
0
40
0
40
0.302244026957845
40
0.302244026957845
40
0.642611617759105
40
0.642611617759105
40
0.812795413159734
40
0.812795413159734
40
0.982979208560363
40
0.982979208560363
40
1
40
1
40
1
40
1
41
1
10
64.0002503217708
20
-4.41255786957404
30
0
41
1
10
63.5293836080236
20
-4.41246200548539
30
0
41
1
10
63.0600219943915
20
-4.38504701558205
30
0
41
1
10
62.0598550870579
20
-4.26948552836342
30
0
41
1
10
61.5290732296854
20
-4.17405923056697
30
0
41
1
10
60.7259312546261
20
-3.98084912465598
30
0
41
1
10
60.4572606510359
20
-3.90806532604682
30
0
41
1
10
59.9212337394819
20
-3.74734580778352
30
0
41
1
10
59.6533077824075
20
-3.65932012896664
30
0
41
1
10
59.358111001793
20
-3.55449112766738
30
0
41
1
10
59.3312772059174
20
-3.54488989272585
30
0
41
1
10
59.3044487152938
20
-3.53521911307405
30
0
0
SPLINE
5
EE
100
AcDbEntity
8
1
62
256
6
ByLayer
370
13
48
1
60
0
100
AcDbSpline
70
4
71
3
72
24
73
20
40
0
40
0
40
0
40
0
40
0.152707580151744
40
0.152707580151744
40
0.233080590322622
40
0.233080590322622
40
0.313453600493499
40
0.313453600493499
40
0.634945641177006
40
0.634945641177006
40
0.675132146262444
40
0.675132146262444
40
0.715318651347883
40
0.715318651347883
40
0.795691661518762
40
0.795691661518762
40
0.956437681860515
40
0.956437681860515
40
1
40
1
40
1
40
1
41
1
10
59.3044487142853
20
-3.53521911271048
30
0
41
1
10
58.7947834264025
20
-3.35150170701098
30
0
41
1
10
58.2870327631672
20
-3.14268614995987
30
0
41
1
10
57.5104934822882
20
-2.79144803800685
30
0
41
1
10
57.2419044054605
20
-2.66407183237897
30
0
41
1
10
56.7063535505891
20
-2.39981362718646
30
0
41
1
10
56.4396034320275
20
-2.26317420221713
30
0
41
1
10
55.1088388111996
20
-1.56078461336267
30
0
41
1
10
54.0543852553983
20
-0.936764767561215
30
0
41
1
10
52.8491353197427
20
-0.213236453889067
30
0
41
1
10
52.7147850509121
20
-0.132424034482256
30
0
41
1
10
52.4469072300011
20
0.0287829349213098
30
0
41
1
10
52.3132620118796
20
0.109249236210161
30
0
41
1
10
51.9129954271019
20
0.349882637331547
30
0
41
1
10
51.6470516385
20
0.509303942591771
30
0
41
1
10
50.8508048368305
20
0.982771956347761
30
0
41
1
10
50.3219950520871
20
1.29180897685305
30
0
41
1
10
49.6483277502545
20
1.66964058233782
30
0
41
1
10
49.5045973625358
20
1.74932631512806
30
0
41
1
10
49.3607078962524
20
1.82802966184863
30
0
0
SPLINE
5
EF
100
AcDbEntity
8
1
62
256
6
ByLayer
370
18
48
1
60
0
100
AcDbSpline
70
4
71
3
72
14
73
10
40
0
40
0
40
0
40
0
40
0.0279531170879618
40
0.0279531170879618
40
0.328527169341806
40
0.328527169341806
40
0.629101221595651
40
0.629101221595651
40
1
40
1
40
1
40
1
41
1
10
17.9966248518986
20
-4.38370339762332
30
0
41
1
10
17.9472207095078
20
-4.38368092645874
30
0
41
1
10
17.8978330216372
20
-4.38335933568408
30
0
41
1
10
17.3175507886158
20
-4.37607148033939
30
0
41
1
10
16.7881595327733
20
-4.33481661901817
30
0
41
1
10
15.7259513318376
20
-4.18452605227711
30
0
41
1
10
15.1929555776623
20
-4.07553855306941
30
0
41
1
10
13.9923143695103
20
-3.75824776491981
30
0
41
1
10
13.3366263993805
20
-3.53674919321361
30
0
41
1
10
12.6820779572209
20
-3.27648668913696
30
0
0
SPLINE
5
F0
100
AcDbEntity
8
1
62
256
6
ByLayer
370
13
48
1
60
0
100
AcDbSpline
70
4
71
3
72
12
73
8
40
0
40
0
40
0
40
0
40
0.276942399750888
40
0.276942399750888
40
0.638471199875443
40
0.638471199875443
40
1
40
1
40
1
40
1
41
1
10
12.6820770308073
20
-3.27648632077501
30
0
41
1
10
12.2757418479986
20
-3.1149187111123
30
0
41
1
10
11.8698458113752
20
-2.93841239280027
30
0
41
1
10
10.9315824252233
20
-2.50117159441345
30
0
41
1
10
10.3982427502207
20
-2.23071831858721
30
0
41
1
10
9.32322819044867
20
-1.65409141184983
30
0
41
1
10
8.78740746340523
20
-1.35149017892735
30
0
41
1
10
8.25024939453374
20
-1.03931148051032
30
0
0
SPLINE
5
F1
100
AcDbEntity
8
1
62
256
6
ByLayer
370
18
48
1
60
0
100
AcDbSpline
70
4
71
3
72
44
73
40
40
0
40
0
40
0
40
0
40
0.0338959969974288
40
0.0338959969974288
40
0.0677919939948576
40
0.0677919939948576
40
0.135583987989713
40
0.135583987989713
40
0.203375981984568
40
0.203375981984568
40
0.237271978981994
40
0.237271978981994
40
0.27116797597942
40
0.27116797597942
40
0.406751963969123
40
0.406751963969123
40
0.423699962467837
40
0.423699962467837
40
0.440647960966551
40
0.440647960966551
40
0.474543957963979
40
0.474543957963979
40
0.542335951958836
40
0.542335951958836
40
0.610127945953694
40
0.610127945953694
40
0.644023942951121
40
0.644023942951121
40
0.677919939948549
40
0.677919939948549
40
0.813503927938264
40
0.813503927938264
40
0.847399924935694
40
0.847399924935694
40
0.881295921933124
40
0.881295921933124
40
0.949087915927984
40
0.949087915927984
40
1
40
1
40
1
40
1
41
1
10
110.324593200183
20
-4.68802541765314
30
0
41
1
10
110.057379224155
20
-4.70006702281967
30
0
41
1
10
109.790192902248
20
-4.70269456032872
30
0
41
1
10
109.255112363423
20
-4.68914501585587
30
0
41
1
10
108.986597089319
20
-4.67288989459857
30
0
41
1
10
108.184561096994
20
-4.59641380277077
30
0
41
1
10
107.654254023151
20
-4.50869204130331
30
0
41
1
10
106.594837915818
20
-4.26472674061921
30
0
41
1
10
106.065709857635
20
-4.10851254083263
30
0
41
1
10
105.267567018297
20
-3.82607151235331
30
0
41
1
10
105.000754453546
20
-3.72392010396905
30
0
41
1
10
104.464699466723
20
-3.50409803597827
30
0
41
1
10
104.197370321083
20
-3.38717876965629
30
0
41
1
10
102.866800608814
20
-2.77293469186355
30
0
41
1
10
101.816550011332
20
-2.18478466484893
30
0
41
1
10
100.617894776905
20
-1.45907772393721
30
0
41
1
10
100.484472740436
20
-1.37755284318757
30
0
41
1
10
100.217045032941
20
-1.21286036685808
30
0
41
1
10
100.082825769698
20
-1.12954466909989
30
0
41
1
10
99.6810271497939
20
-0.878450662193131
30
0
41
1
10
99.4144387035411
20
-0.709723156447865
30
0
41
1
10
98.6171137845147
20
-0.20174202467831
30
0
41
1
10
98.088553156275
20
0.138888477211282
30
0
41
1
10
97.0305665003946
20
0.813300646124389
30
0
41
1
10
96.5011321228519
20
1.14706739206739
30
0
41
1
10
95.7008188353291
20
1.63383965374265
30
0
41
1
10
95.4321495485367
20
1.7943041803008
30
0
41
1
10
94.8973793111471
20
2.10574047659077
30
0
41
1
10
94.6311353380968
20
2.2568538339026
30
0
41
1
10
93.303427939864
20
2.98687687057242
30
0
41
1
10
92.2521376484579
20
3.48887514314319
30
0
41
1
10
90.9158231335775
20
3.97017380780716
30
0
41
1
10
90.6469912527912
20
4.05914321313037
30
0
41
1
10
90.1130544336813
20
4.21926292353058
30
0
41
1
10
89.8471454091657
20
4.29075183852115
30
0
41
1
10
89.0511935275478
20
4.47905717481609
30
0
41
1
10
88.5228884918959
20
4.56970996446489
30
0
41
1
10
87.5956707774824
20
4.66514971196548
30
0
41
1
10
87.1973090247856
20
4.68569713009501
30
0
41
1
10
86.7966901273196
20
4.6851975757219
30
0
0
SPLINE
5
F2
100
AcDbEntity
8
1
62
256
6
ByLayer
370
18
48
1
60
0
100
AcDbSpline
70
4
71
3
72
48
73
44
40
0
40
0
40
0
40
0
40
0.0208928510078754
40
0.0208928510078754
40
0.0838214697625862
40
0.0838214697625862
40
0.115285779139942
40
0.115285779139942
40
0.13101793382862
40
0.13101793382862
40
0.146750088517297
40
0.146750088517297
40
0.272607326026721
40
0.272607326026721
40
0.304071635404078
40
0.304071635404078
40
0.335535944781435
40
0.335535944781435
40
0.398464563536148
40
0.398464563536148
40
0.461393182290861
40
0.461393182290861
40
0.47712533697954
40
0.47712533697954
40
0.492857491668218
40
0.492857491668218
40
0.524321801045573
40
0.524321801045573
40
0.650179038554994
40
0.650179038554994
40
0.681643347932349
40
0.681643347932349
40
0.713107657309703
40
0.713107657309703
40
0.776036276064414
40
0.776036276064414
40
0.838964894819124
40
0.838964894819124
40
0.870429204196478
40
0.870429204196478
40
0.901893513573833
40
0.901893513573833
40
1
40
1
40
1
40
1
41
1
10
66.1795593553678
20
-4.42846908505692
30
0
41
1
10
66.003476846441
20
-4.46419600444128
30
0
41
1
10
65.8275722481729
20
-4.49603646433476
30
0
41
1
10
65.1219824403386
20
-4.60800177625549
30
0
41
1
10
64.5930043819938
20
-4.65653655383397
30
0
41
1
10
63.7945279935943
20
-4.673899813297
30
0
41
1
10
63.5276766116561
20
-4.67046044940378
30
0
41
1
10
63.1255148911914
20
-4.65114478069725
30
0
41
1
10
62.9910904439456
20
-4.64233645915314
30
0
41
1
10
62.7232552049184
20
-4.6201406191158
30
0
41
1
10
62.5896247672731
20
-4.60674571785816
30
0
41
1
10
61.389069887826
20
-4.46588366826921
30
0
41
1
10
60.3370426257727
20
-4.1964647151695
30
0
41
1
10
59.004485311186
20
-3.70280787272748
30
0
41
1
10
58.7370141726066
20
-3.59617872438952
30
0
41
1
10
58.1998201194551
20
-3.36780080531443
30
0
41
1
10
57.9325286832794
20
-3.24716836157322
30
0
41
1
10
57.1331057371656
20
-2.86802209058604
30
0
41
1
10
56.6036468426737
20
-2.59198766432638
30
0
41
1
10
55.5440391467381
20
-2.00402922576816
30
0
41
1
10
55.0141026215364
20
-1.6918143965402
30
0
41
1
10
54.3467835030057
20
-1.28522217751561
30
0
41
1
10
54.2130842310083
20
-1.20307266284979
30
0
41
1
10
53.9451049219033
20
-1.03725509375232
30
0
41
1
10
53.8106213632252
20
-0.953462711161308
30
0
41
1
10
53.408410659306
20
-0.701601088168616
30
0
41
1
10
53.1414562045297
20
-0.532786346677511
30
0
41
1
10
51.8104957299513
20
0.312489582315919
30
0
41
1
10
50.757838321553
20
0.992441423943689
30
0
41
1
10
49.4210780281314
20
1.78973211989228
30
0
41
1
10
49.1518041444963
20
1.94695177618164
30
0
41
1
10
48.6163479075833
20
2.25123767232381
30
0
41
1
10
48.3497560767591
20
2.39852554114896
30
0
41
1
10
47.5518927680016
20
2.82409928978242
30
0
41
1
10
47.022646885764
20
3.08626294098613
30
0
41
1
10
45.9622626355815
20
3.55903727221889
30
0
41
1
10
45.4311393949793
20
3.76967164062089
30
0
41
1
10
44.6276395350794
20
4.040403505298
30
0
41
1
10
44.3583627992943
20
4.12307800226293
30
0
41
1
10
43.8236162863456
20
4.27043969139842
30
0
41
1
10
43.5573328321339
20
4.33547205387603
30
0
41
1
10
42.4629969306854
20
4.56691518113357
30
0
41
1
10
41.6400276964585
20
4.6566953068708
30
0
41
1
10
40.8089094117359
20
4.65648132367053
30
0
0
SPLINE
5
F3
100
AcDbEntity
8
1
62
256
6
ByLayer
370
18
48
1
60
0
100
AcDbSpline
70
4
71
3
72
26
73
22
40
0
40
0
40
0
40
0
40
0.209280696402129
40
0.209280696402129
40
0.275173971701952
40
0.275173971701952
40
0.308120609351862
40
0.308120609351862
40
0.341067247001773
40
0.341067247001773
40
0.472853797601416
40
0.472853797601416
40
0.604640348201062
40
0.604640348201062
40
0.670533623500885
40
0.670533623500885
40
0.736426898800708
40
0.736426898800708
40
0.868213449400354
40
0.868213449400354
40
1
40
1
40
1
40
1
41
1
10
20.2561529409321
20
-4.38551526664455
30
0
41
1
10
19.4104828995498
20
-4.56139462331578
30
0
41
1
10
18.5716216819371
20
-4.64805943924486
30
0
41
1
10
17.4587428328098
20
-4.63977569846401
30
0
41
1
10
17.1914881148996
20
-4.62855780938949
30
0
41
1
10
16.7887558025658
20
-4.59766005385109
30
0
41
1
10
16.6540530646038
20
-4.5849924790414
30
0
41
1
10
16.3856026824384
20
-4.55513934376421
30
0
41
1
10
16.2516726126874
20
-4.53794599573052
30
0
41
1
10
15.5832612454087
20
-4.44085534382981
30
0
41
1
10
15.052484062937
20
-4.32758254389827
30
0
41
1
10
13.9911739685841
20
-4.03551129460553
30
0
41
1
10
13.4609524491759
20
-3.85648586704485
30
0
41
1
10
12.6604072702352
20
-3.54259796687788
30
0
41
1
10
12.3927012949214
20
-3.43040484521467
30
0
41
1
10
11.8546696322364
20
-3.19148647502786
30
0
41
1
10
11.5863219728864
20
-3.0656487251056
30
0
41
1
10
10.7841751771186
20
-2.67196287553475
30
0
41
1
10
10.2524254554324
20
-2.38734373961844
30
0
41
1
10
9.18733208580636
20
-1.78443845220988
30
0
41
1
10
8.65383071699998
20
-1.4664186071075
30
0
41
1
10
8.11620469777915
20
-1.1361116273506
30
0
0
SPLINE
5
F4
100
AcDbEntity
8
1
62
256
6
ByLayer
370
13
48
1
60
0
100
AcDbSpline
70
4
71
3
72
10
73
6
40
0
40
0
40
0
40
0
40
0.5
40
0.5
40
1
40
1
40
1
40
1
41
1
10
8.11907785055558
20
-1.00233817735062
30
0
41
1
10
8.13901774170333
20
-1.0064497547348
30
0
41
1
10
8.16061056927006
20
-1.0117688175842
30
0
41
1
10
8.20470514985013
20
-1.02419515200023
30
0
41
1
10
8.22723857563858
20
-1.03128591281296
30
0
41
1
10
8.25024939453374
20
-1.03931148051035
30
0
0
SPLINE
5
F5
100
AcDbEntity
8
1
62
256
6
ByLayer
370
18
48
1
60
0
100
AcDbSpline
70
4
71
3
72
10
73
6
40
0
40
0
40
0
40
0
40
0.5
40
0.5
40
1
40
1
40
1
40
1
41
1
10
107.841633941352
20
-1.99078254414749
30
0
41
1
10
108.118355116577
20
-2.24537653175872
30
0
41
1
10
108.408089211694
20
-2.47600141893256
30
0
41
1
10
109.00842346788
20
-2.8988170190452
30
0
41
1
10
109.315482811431
20
-3.08835647814345
30
0
41
1
10
109.627160291775
20
-3.25885652760539
30
0
0
SPLINE
5
F6
100
AcDbEntity
8
1
62
256
6
ByLayer
370
18
48
1
60
0
100
AcDbSpline
70
4
71
3
72
10
73
6
40
0
40
0
40
0
40
0
40
0.5
40
0.5
40
1
40
1
40
1
40
1
41
1
10
111.974975966391
20
-0.160413340891466
30
0
41
1
10
111.976974408196
20
-0.144587481438919
30
0
41
1
10
111.980294253289
20
-0.126826758303423
30
0
41
1
10
111.988810200655
20
-0.0885532472208581
30
0
41
1
10
111.994024273973
20
-0.0680930028475473
30
0
41
1
10
111.999941039399
20
-0.0471413484050061
30
0
0
SPLINE
5
F7
100
AcDbEntity
8
1
62
256
6
ByLayer
370
18
48
1
60
0
100
AcDbSpline
70
4
71
3
72
33
73
29
40
0
40
0
40
0
40
0
40
0.0128959385131494
40
0.0128959385131494
40
0.259384167940336
40
0.259384167940336
40
0.38262828265393
40
0.38262828265393
40
0.505872397367523
40
0.536683426045921
40
0.536683426045921
40
0.54438618321552
40
0.54438618321552
40
0.55208894038512
40
0.55208894038512
40
0.55979169755472
40
0.55979169755472
40
0.567494454724319
40
0.567494454724319
40
0.629116512081116
40
0.629116512081116
40
0.75236062679471
40
0.75236062679471
40
0.875604741508304
40
0.875604741508304
40
0.998848856221897
40
0.998848856221897
40
1
40
1
40
1
40
1
41
1
10
9.0627642612144
20
2.30089692133601
30
0
41
1
10
9.0627642612144
20
2.28928967980875
30
0
41
1
10
9.0627642612144
20
2.27774497233122
30
0
41
1
10
9.0627642612144
20
2.04679191316367
30
0
41
1
10
9.0627642612144
20
1.85010585261315
30
0
41
1
10
9.0627642612144
20
1.58858079287649
30
0
41
1
10
9.0627642612144
20
1.50691282610313
30
0
41
1
10
9.0627642612144
20
1.35541088263364
30
0
41
1
10
9.0627642612144
20
1.26810533530343
30
0
41
1
10
9.06276426121471
20
1.18998056210066
30
0
41
1
10
9.06276426121471
20
1.170909273424
30
0
41
1
10
9.0627642612144
20
1.16684549653101
30
0
41
1
10
9.0627642612144
20
1.160569943669
30
0
41
1
10
9.0627642612144
20
1.1582792163783
30
0
41
1
10
9.0627642612144
20
1.15572005470511
30
0
41
1
10
9.06276426121462
20
1.15542353453426
30
0
41
1
10
9.06276426121462
20
1.15786872460549
30
0
41
1
10
9.06276426121443
20
1.16134389039399
30
0
41
1
10
9.06276426121443
20
1.18920670006563
30
0
41
1
10
9.0627642612144
20
1.21565796750795
30
0
41
1
10
9.0627642612144
20
1.29996940164887
30
0
41
1
10
9.0627642612144
20
1.36287359342322
30
0
41
1
10
9.0627642612144
20
1.50303785992722
30
0
41
1
10
9.0627642612144
20
1.58038512592563
30
0
41
1
10
9.0627642612144
20
1.75015927129272
30
0
41
1
10
9.0627642612144
20
1.84256856689598
30
0
41
1
10
9.0627642612144
20
1.94411138025745
30
0
41
1
10
9.0627642612144
20
1.94505175526709
30
0
41
1
10
9.0627642612144
20
1.94599283711909
30
0
0
SPLINE
5
F8
100
AcDbEntity
8
1
62
256
6
ByLayer
370
18
48
1
60
0
100
AcDbSpline
70
4
71
3
72
10
73
6
40
0
40
0
40
0
40
0
40
0.5
40
0.5
40
1
40
1
40
1
40
1
41
1
10
110.352070514357
20
1.18775136535928
30
0
41
1
10
110.597465113641
20
1.19028113320834
30
0
41
1
10
110.842829485947
20
1.19294929569256
30
0
41
1
10
111.33261264149
20
1.20261501327369
30
0
41
1
10
111.57676517703
20
1.21083158712008
30
0
41
1
10
111.820108903198
20
1.22275130584086
30
0
0
SPLINE
5
F9
100
AcDbEntity
8
1
62
256
6
ByLayer
370
13
48
1
60
0
100
AcDbSpline
70
4
71
3
72
8
73
4
40
0
40
0
40
0
40
0
40
1
40
1
40
1
40
1
41
1
10
8.11907785055558
20
-1.10426047286788
30
0
41
1
10
8.14351880791034
20
-1.11515460501036
30
0
41
1
10
8.17040255534715
20
-1.12920945866469
30
0
41
1
10
8.19797923138108
20
-1.14551840550203
30
0
0
SPLINE
5
FA
100
AcDbEntity
8
1
62
256
6
ByLayer
370
18
48
1
60
0
100
AcDbSpline
70
4
71
3
72
30
73
26
40
0
40
0
40
0
40
0
40
0.103092907833362
40
0.103092907833362
40
0.154639361750043
40
0.154639361750043
40
0.206185815666725
40
0.206185815666725
40
0.309278723500089
40
0.309278723500089
40
0.412371631333453
40
0.412371631333453
40
0.463918085250133
40
0.463918085250133
40
0.515464539166814
40
0.515464539166814
40
0.618557447000178
40
0.618557447000178
40
0.721650354833542
40
0.721650354833542
40
0.824743262666905
40
0.824743262666905
40
0.927836170500269
40
0.927836170500269
40
1
40
1
40
1
40
1
41
1
10
9.0627642612144
20
-2.30089692131006
30
0
41
1
10
9.32881742094645
20
-2.44937898374334
30
0
41
1
10
9.5946117226012
20
-2.59128121868056
30
0
41
1
10
9.99337759896525
20
-2.79429549372602
30
0
41
1
10
10.1262515492553
20
-2.86041305486961
30
0
41
1
10
10.3910985901831
20
-2.99054643572379
30
0
41
1
10
10.522822508548
20
-3.05484144185689
30
0
41
1
10
10.919224649943
20
-3.24134967362318
30
0
41
1
10
11.1841325382874
20
-3.35852721196409
30
0
41
1
10
11.7127686657566
20
-3.5813361936143
30
0
41
1
10
11.9770515707976
20
-3.68627540157146
30
0
41
1
10
12.3753612968672
20
-3.83204456122468
30
0
41
1
10
12.5083930932084
20
-3.87875554409033
30
0
41
1
10
12.7747673128059
20
-3.96858931883068
30
0
41
1
10
12.9077265058351
20
-4.01206022507347
30
0
41
1
10
13.3077303876531
20
-4.13618710270305
30
0
41
1
10
13.5741441272837
20
-4.20963920682493
30
0
41
1
10
14.1039941215131
20
-4.34039415036392
30
0
41
1
10
14.3676092868368
20
-4.39741926071656
30
0
41
1
10
14.8951792942524
20
-4.49343549513776
30
0
41
1
10
15.1593652472845
20
-4.5325112617368
30
0
41
1
10
15.684763127384
20
-4.59390930266289
30
0
41
1
10
15.9485845071506
20
-4.6154145787057
30
0
41
1
10
16.397485723917
20
-4.63692763942458
30
0
41
1
10
16.5822088435425
20
-4.64140718473769
30
0
41
1
10
16.7673770897039
20
-4.64141775262968
30
0
0
SPLINE
5
FB
100
AcDbEntity
8
1
62
256
6
ByLayer
370
18
48
1
60
0
100
AcDbSpline
70
4
71
3
72
114
73
110
40
0
40
0
40
0
40
0
40
0.0105235491226179
40
0.0105235491226179
40
0.0360794397925771
40
0.0360794397925771
40
0.0616353304625363
40
0.0616353304625363
40
0.0871912211324955
40
0.0871912211324955
40
0.112747111802455
40
0.112747111802455
40
0.125525057137434
40
0.125525057137434
40
0.138303002472413
40
0.138303002472413
40
0.151080947807392
40
0.151080947807392
40
0.163858893142371
40
0.163858893142371
40
0.189414783812331
40
0.189414783812331
40
0.202192729147311
40
0.202192729147311
40
0.214970674482291
40
0.214970674482291
40
0.240526565152251
40
0.240526565152251
40
0.266082455822211
40
0.266082455822211
40
0.278860401157191
40
0.278860401157191
40
0.291638346492171
40
0.291638346492171
40
0.304416291827151
40
0.304416291827151
40
0.317194237162131
40
0.317194237162131
40
0.342750127832091
40
0.342750127832091
40
0.355528073167071
40
0.355528073167071
40
0.368306018502051
40
0.368306018502051
40
0.39386190917201
40
0.39386190917201
40
0.419417799841969
40
0.419417799841969
40
0.432195745176948
40
0.432195745176948
40
0.444973690511928
40
0.444973690511928
40
0.470529581181887
40
0.470529581181887
40
0.496085471851846
40
0.496085471851846
40
0.521641362521806
40
0.521641362521806
40
0.547197253191765
40
0.547197253191765
40
0.572753143861724
40
0.572753143861724
40
0.585531089196704
40
0.585531089196704
40
0.598309034531683
40
0.598309034531683
40
0.611086979866663
40
0.611086979866663
40
0.623864925201642
40
0.623864925201642
40
0.649420815871601
40
0.649420815871601
40
0.674976706541559
40
0.674976706541559
40
0.687754651876538
40
0.687754651876538
40
0.700532597211518
40
0.700532597211518
40
0.726088487881476
40
0.726088487881476
40
0.738866433216454
40
0.738866433216454
40
0.751644378551433
40
0.751644378551433
40
0.77720026922139
40
0.77720026922139
40
0.802756159891348
40
0.802756159891348
40
0.828312050561305
40
0.828312050561305
40
0.841089995896284
40
0.841089995896284
40
0.853867941231262
40
0.853867941231262
40
0.879423831901219
40
0.879423831901219
40
0.904979722571177
40
0.904979722571177
40
0.917757667906155
40
0.917757667906155
40
0.930535613241133
40
0.930535613241133
40
0.956091503911089
40
0.956091503911089
40
0.981647394581044
40
0.981647394581044
40
0.994425339916022
40
0.994425339916022
40
1
40
1
40
1
40
1
41
1
10
31.7569719925083
20
2.13629858962628
30
0
41
1
10
31.8666109252099
20
2.19836334864533
30
0
41
1
10
31.9761775711269
20
2.25964007453732
30
0
41
1
10
32.3510468426246
20
2.46597681911331
30
0
41
1
10
32.6165073460709
20
2.60574427614395
30
0
41
1
10
33.142919461221
20
2.87845399150288
30
0
41
1
10
33.4065213220368
20
3.00787098691365
30
0
41
1
10
33.9332933836491
20
3.25478228263549
30
0
41
1
10
34.195797834937
20
3.37297519200152
30
0
41
1
10
34.7222464047617
20
3.59509870956433
30
0
41
1
10
34.9865059308829
20
3.6987988684601
30
0
41
1
10
35.3829600104636
20
3.84470087021467
30
0
41
1
10
35.5147655858519
20
3.89202676746359
30
0
41
1
10
35.7797650593869
20
3.9821247379154
30
0
41
1
10
35.9126993326609
20
4.02514869473589
30
0
41
1
10
36.1792450344931
20
4.10731441245295
30
0
41
1
10
36.3128966661532
20
4.146592340686
30
0
41
1
10
36.5789714309807
20
4.22093405966987
30
0
41
1
10
36.7116277995479
20
4.2559985383717
30
0
41
1
10
37.1090863108803
20
4.35452182734122
30
0
41
1
10
37.3736307088661
20
4.41120868270852
30
0
41
1
10
37.769500677305
20
4.48330308065269
30
0
41
1
10
37.9008169579005
20
4.50537098016156
30
0
41
1
10
38.1636876171427
20
4.54488279640537
30
0
41
1
10
38.2952446195144
20
4.56234825098358
30
0
41
1
10
38.690212321777
20
4.60803003075657
30
0
41
1
10
38.9532472947951
20
4.6297232706475
30
0
41
1
10
39.4794725566179
20
4.65513778609039
30
0
41
1
10
39.7433054414392
20
4.65878793753464
30
0
41
1
10
40.1405081140454
20
4.65069474043963
30
0
41
1
10
40.2730507787319
20
4.64573825228649
30
0
41
1
10
40.5378162226585
20
4.63107061022481
30
0
41
1
10
40.6706775076558
20
4.62144298413273
30
0
41
1
10
40.9373115087089
20
4.59763005076675
30
0
41
1
10
41.0709237802857
20
4.58347392792405
30
0
41
1
10
41.3369360012399
20
4.5506901911811
30
0
41
1
10
41.4694759611286
20
4.5320186457262
30
0
41
1
10
41.8663648405913
20
4.46940597787892
30
0
41
1
10
42.1301938146098
20
4.41895893601176
30
0
41
1
10
42.5258623611584
20
4.33112865395313
30
0
41
1
10
42.6578058426318
20
4.29988260792504
30
0
41
1
10
42.9206146373954
20
4.2326774228307
30
0
41
1
10
43.0516914615147
20
4.19682103724614
30
0
41
1
10
43.4460419307508
20
4.08396979505375
30
0
41
1
10
43.7096415846588
20
4.00126541663371
30
0
41
1
10
44.2360928111064
20
3.81909165651768
30
0
41
1
10
44.4995935112268
20
3.72007485295166
30
0
41
1
10
44.8969754296683
20
3.56125747025217
30
0
41
1
10
45.0297275447733
20
3.50655084266367
30
0
41
1
10
45.2956056032698
20
3.39332935985982
30
0
41
1
10
45.4283316113057
20
3.33419301161831
30
0
41
1
10
45.8278537529656
20
3.15272406575963
30
0
41
1
10
46.0938889810446
20
3.02700430071104
30
0
41
1
10
46.6228256970663
20
2.76324547816157
30
0
41
1
10
46.8860755148767
20
2.62557850802213
30
0
41
1
10
47.4129598204771
20
2.34255043242612
30
0
41
1
10
47.6765075002241
20
2.19714026559293
30
0
41
1
10
48.2013218619146
20
1.89491261900144
30
0
41
1
10
48.4648640022274
20
1.74135854767371
30
0
41
1
10
48.9921098503116
20
1.42636870080005
30
0
41
1
10
49.2555687144257
20
1.2644926966257
30
0
41
1
10
49.6529233472249
20
1.01873075196144
30
0
41
1
10
49.7857362956576
20
0.936328393891188
30
0
41
1
10
50.0519986515953
20
0.770415135331746
30
0
41
1
10
50.1858047012886
20
0.687004809398957
30
0
41
1
10
50.4515035252144
20
0.518071698988507
30
0
41
1
10
50.5840214785292
20
0.433459865697273
30
0
41
1
10
50.8491038983667
20
0.265092161783741
30
0
41
1
10
50.9815943902179
20
0.18121239889831
30
0
41
1
10
51.3783684051013
20
-0.0704256990110252
30
0
41
1
10
51.641391246253
20
-0.23908231373872
30
0
41
1
10
52.1674696479651
20
-0.573335855853827
30
0
41
1
10
52.4307963721294
20
-0.738519561144471
30
0
41
1
10
52.8254518598482
20
-0.984613327863116
30
0
41
1
10
52.9564043314582
20
-1.06720862013879
30
0
41
1
10
53.2193100870753
20
-1.23008639743574
30
0
41
1
10
53.3510381117344
20
-1.31072401592402
30
0
41
1
10
53.7468858013467
20
-1.55049514530813
30
0
41
1
10
54.0108741451917
20
-1.70870370736321
30
0
41
1
10
54.4082951843112
20
-1.94149831734583
30
0
41
1
10
54.541081586134
20
-2.01823405483191
30
0
41
1
10
54.8075080609213
20
-2.16963643279078
30
0
41
1
10
54.9411172985208
20
-2.24430528925652
30
0
41
1
10
55.3402748828871
20
-2.46428647074774
30
0
41
1
10
55.6039813684843
20
-2.60745503074307
30
0
41
1
10
56.1322949551986
20
-2.87923584896907
30
0
41
1
10
56.3957546362605
20
-3.00947063538166
30
0
41
1
10
56.9213022618247
20
-3.25858021075686
30
0
41
1
10
57.1840940359773
20
-3.37660446583789
30
0
41
1
10
57.5789566679793
20
-3.54327729376635
30
0
41
1
10
57.710740800482
20
-3.59706848017615
30
0
41
1
10
57.9733062853344
20
-3.70238677922922
30
0
41
1
10
58.1048077587419
20
-3.75317776758303
30
0
41
1
10
58.5003867308897
20
-3.8996037891105
30
0
41
1
10
58.7652185779874
20
-3.98965177446516
30
0
41
1
10
59.2955807213266
20
-4.15559735085341
30
0
41
1
10
59.562541982985
20
-4.23095804866151
30
0
41
1
10
59.961157165955
20
-4.33011169946383
30
0
41
1
10
60.0938602523793
20
-4.36093602146914
30
0
41
1
10
60.3583596189127
20
-4.41848558317571
30
0
41
1
10
60.4898403289158
20
-4.44534564492901
30
0
41
1
10
60.8851677581331
20
-4.5185729760866
30
0
41
1
10
61.1489304452825
20
-4.5582534859457
30
0
41
1
10
61.6744679223413
20
-4.62044269254613
30
0
41
1
10
61.9367875011348
20
-4.64264998401094
30
0
41
1
10
62.3315047919529
20
-4.66234867688769
30
0
41
1
10
62.4632339299525
20
-4.66666854238483
30
0
41
1
10
62.6525063841968
20
-4.66965201384844
30
0
41
1
10
62.7099359477563
20
-4.67013032258123
30
0
41
1
10
62.7673523311641
20
-4.67017595132708
30
0
0
SPLINE
5
FC
100
AcDbEntity
8
1
62
256
6
ByLayer
370
18
48
1
60
0
100
AcDbSpline
70
4
71
3
72
108
73
104
40
0
40
0
40
0
40
0
40
0.0094365428471913
40
0.0094365428471913
40
0.0349389037742429
40
0.0349389037742429
40
0.0604412647012945
40
0.0604412647012945
40
0.0859436256283461
40
0.0859436256283461
40
0.111445986555398
40
0.111445986555398
40
0.136948347482449
40
0.136948347482449
40
0.149699527945975
40
0.149699527945975
40
0.162450708409501
40
0.162450708409501
40
0.175201888873027
40
0.175201888873027
40
0.187953069336553
40
0.187953069336553
40
0.213455430263605
40
0.213455430263605
40
0.238957791190656
40
0.238957791190656
40
0.251708971654182
40
0.251708971654182
40
0.264460152117709
40
0.264460152117709
40
0.28996251304476
40
0.28996251304476
40
0.31546487397181
40
0.31546487397181
40
0.340967234898861
40
0.340967234898861
40
0.366469595825912
40
0.366469595825912
40
0.391971956752963
40
0.391971956752963
40
0.404723137216487
40
0.404723137216487
40
0.417474317680012
40
0.417474317680012
40
0.44297667860706
40
0.44297667860706
40
0.468479039534109
40
0.468479039534109
40
0.481230219997633
40
0.481230219997633
40
0.493981400461156
40
0.493981400461156
40
0.519483761388203
40
0.519483761388203
40
0.54498612231525
40
0.54498612231525
40
0.557737302778772
40
0.557737302778772
40
0.570488483242295
40
0.570488483242295
40
0.595990844169337
40
0.595990844169337
40
0.608742024632859
40
0.608742024632859
40
0.621493205096381
40
0.621493205096381
40
0.646995566023424
40
0.646995566023424
40
0.672497926950467
40
0.672497926950467
40
0.698000287877511
40
0.698000287877511
40
0.723502648804554
40
0.723502648804554
40
0.736253829268075
40
0.736253829268075
40
0.749005009731597
40
0.749005009731597
40
0.77450737065864
40
0.77450737065864
40
0.800009731585683
40
0.800009731585683
40
0.812760912049205
40
0.812760912049205
40
0.825512092512727
40
0.825512092512727
40
0.851014453439768
40
0.851014453439768
40
0.876516814366809
40
0.876516814366809
40
0.889267994830329
40
0.889267994830329
40
0.902019175293848
40
0.902019175293848
40
0.927521536220888
40
0.927521536220888
40
0.953023897147927
40
0.953023897147927
40
0.965775077611448
40
0.965775077611448
40
0.978526258074968
40
0.978526258074968
40
1
40
1
40
1
40
1
41
1
10
77.7463117994968
20
2.1382316577903
30
0
41
1
10
77.8445893315077
20
2.1943209927839
30
0
41
1
10
77.9428486598533
20
2.25021314300724
30
0
41
1
10
78.3070976206065
20
2.45371877666693
30
0
41
1
10
78.572677295297
20
2.59562441033128
30
0
41
1
10
79.1007486149578
20
2.87004496553442
30
0
41
1
10
79.3635986988784
20
3.00197080661977
30
0
41
1
10
79.8897415427072
20
3.2519834436861
30
0
41
1
10
80.1529401254535
20
3.37029218108864
30
0
41
1
10
80.6771250249662
20
3.59606793866416
30
0
41
1
10
80.9403809140483
20
3.70111565062425
30
0
41
1
10
81.4671180344286
20
3.8977983913631
30
0
41
1
10
81.7303518421436
20
3.98955328403798
30
0
41
1
10
82.1274188156167
20
4.11498351175283
30
0
41
1
10
82.260143894231
20
4.15477448213051
30
0
41
1
10
82.5262486968105
20
4.23037265915127
30
0
41
1
10
82.6599158334315
20
4.26612427054167
30
0
41
1
10
82.9251154246018
20
4.33389383346079
30
0
41
1
10
83.0573808581881
20
4.36557183958612
30
0
41
1
10
83.3219860532124
20
4.42418655375411
30
0
41
1
10
83.4542461832871
20
4.45118450618918
30
0
41
1
10
83.8503653346312
20
4.52565557321495
30
0
41
1
10
84.1129872885333
20
4.56679022344943
30
0
41
1
10
84.6383152986634
20
4.63087348218431
30
0
41
1
10
84.9012898231696
20
4.65385352993937
30
0
41
1
10
85.295512042929
20
4.6750134454127
30
0
41
1
10
85.4263294090707
20
4.67987848426748
30
0
41
1
10
85.688957460318
20
4.68496794283897
30
0
41
1
10
85.8205554114306
20
4.68523452271873
30
0
41
1
10
86.2160529662821
20
4.67927113870707
30
0
41
1
10
86.4798660038746
20
4.66621473469294
30
0
41
1
10
87.0094455043533
20
4.62153970838301
30
0
41
1
10
87.2765468995702
20
4.58993109041177
30
0
41
1
10
87.8077117362512
20
4.50925533465497
30
0
41
1
10
88.0709398094197
20
4.45956015210217
30
0
41
1
10
88.5983364856602
20
4.34440845362315
30
0
41
1
10
88.8614170159668
20
4.27849862992764
30
0
41
1
10
89.3862267246353
20
4.12990540924244
30
0
41
1
10
89.6486688794715
20
4.04769711557293
30
0
41
1
10
90.0430995096152
20
3.91325344795314
30
0
41
1
10
90.1747750108609
20
3.8666631538733
30
0
41
1
10
90.4371270038053
20
3.76856846607882
30
0
41
1
10
90.5684802701884
20
3.71766870933698
30
0
41
1
10
90.9637248802458
20
3.56010651435588
30
0
41
1
10
91.2284182434859
20
3.44828108527167
30
0
41
1
10
91.758558538954
20
3.20886290985126
30
0
41
1
10
92.0251193416635
20
3.081790993563
30
0
41
1
10
92.4229168510325
20
2.8847542066074
30
0
41
1
10
92.555344328469
20
2.817876265845
30
0
41
1
10
92.8194165968999
20
2.68116312985987
30
0
41
1
10
92.9506541602726
20
2.61077737646329
30
0
41
1
10
93.3452685933896
20
2.39791835606189
30
0
41
1
10
93.608637145566
20
2.2526077754955
30
0
41
1
10
94.1334889226736
20
1.95183829377916
30
0
41
1
10
94.395476084705
20
1.79703458339364
30
0
41
1
10
94.7897677849375
20
1.56110562742111
30
0
41
1
10
94.9213732143858
20
1.48178399360046
30
0
41
1
10
95.1847241920573
20
1.32146338764946
30
0
41
1
10
95.3161395100352
20
1.23995321858933
30
0
41
1
10
95.7109802795233
20
0.993417351482691
30
0
41
1
10
95.9760112047803
20
0.828027804915649
30
0
41
1
10
96.3744819582648
20
0.575498282475621
30
0
41
1
10
96.5076233548601
20
0.49044242440246
30
0
41
1
10
96.7730210516959
20
0.320548071479806
30
0
41
1
10
96.9054436549478
20
0.235629872211177
30
0
41
1
10
97.3023320550899
20
-0.0183304725284188
30
0
41
1
10
97.5669212522041
20
-0.185792581549947
30
0
41
1
10
98.0917096770555
20
-0.524078272436867
30
0
41
1
10
98.3545491080228
20
-0.690674192927816
30
0
41
1
10
98.8799626382758
20
-1.02071193422199
30
0
41
1
10
99.1418496917267
20
-1.18520061185913
30
0
41
1
10
99.6671828136302
20
-1.50813738601232
30
0
41
1
10
99.9309218738167
20
-1.66616696727817
30
0
41
1
10
100.32680998558
20
-1.90002900401495
30
0
41
1
10
100.458418745817
20
-1.97803981045254
30
0
41
1
10
100.723062778261
20
-2.13099644908667
30
0
41
1
10
100.855837044378
20
-2.20633367675018
30
0
41
1
10
101.255255757898
20
-2.42930536395863
30
0
41
1
10
101.520449554805
20
-2.57400014939174
30
0
41
1
10
102.048458390365
20
-2.85109489917898
30
0
41
1
10
102.312097655546
20
-2.98320347546166
30
0
41
1
10
102.706758204337
20
-3.17230171771283
30
0
41
1
10
102.837729540835
20
-3.23434025566291
30
0
41
1
10
103.099828286669
20
-3.35484237150436
30
0
41
1
10
103.231020412961
20
-3.41324727821319
30
0
41
1
10
103.624957780955
20
-3.58309422390849
30
0
41
1
10
103.887450547373
20
-3.68982643098588
30
0
41
1
10
104.412631084684
20
-3.8895873595211
30
0
41
1
10
104.675987519306
20
-3.98198250470668
30
0
41
1
10
105.0726533853
20
-4.10892824795246
30
0
41
1
10
105.20511655782
20
-4.14933786439099
30
0
41
1
10
105.469580737005
20
-4.22694191978087
30
0
41
1
10
105.602455796471
20
-4.26363271986722
30
0
41
1
10
106.001457816401
20
-4.36699459306129
30
0
41
1
10
106.266559191711
20
-4.42689688807465
30
0
41
1
10
106.793816580899
20
-4.52964033512689
30
0
41
1
10
107.056714478923
20
-4.57203863401279
30
0
41
1
10
107.451167163929
20
-4.62208139210361
30
0
41
1
10
107.582686868416
20
-4.63651545053813
30
0
41
1
10
107.844971689986
20
-4.66107274747952
30
0
41
1
10
107.975623612878
20
-4.67118344481719
30
0
41
1
10
108.32752567771
20
-4.69202620058178
30
0
41
1
10
108.548930173488
20
-4.69868684189291
30
0
41
1
10
108.770254357108
20
-4.69893387746063
30
0
0
SPLINE
5
FD
100
AcDbEntity
8
1
62
256
6
ByLayer
370
13
48
1
60
0
100
AcDbSpline
70
4
71
3
72
14
73
10
40
0
40
0
40
0
40
0
40
0.25
40
0.25
40
0.5
40
0.5
40
0.75
40
0.75
40
1
40
1
40
1
40
1
41
1
10
7.99999973451992
20
-0.928146656868734
30
0
41
1
10
7.99999973451992
20
-0.935498115156236
30
0
41
1
10
8.00254678920419
20
-0.942952558235447
30
0
41
1
10
8.01275961607899
20
-0.957217442715034
30
0
41
1
10
8.02028327067069
20
-0.96396854386856
30
0
41
1
10
8.04020429837698
20
-0.976709731808199
30
0
41
1
10
8.05285415486071
20
-0.982787649863383
30
0
41
1
10
8.08260455452208
20
-0.993581865337489
30
0
41
1
10
8.09960415877725
20
-0.998322729616916
30
0
41
1
10
8.11907785055558
20
-1.00233817735062
30
0
0
SPLINE
5
FE
100
AcDbEntity
8
1
62
256
6
ByLayer
370
18
48
1
60
0
100
AcDbSpline
70
4
71
3
72
12
73
8
40
0
40
0
40
0
40
0
40
0.294201116334784
40
0.294201116334784
40
0.588402232669567
40
0.588402232669567
40
1
40
1
40
1
40
1
41
1
10
8.19797923138108
20
-1.14551840550203
30
0
41
1
10
8.73560352996287
20
-1.46347137754407
30
0
41
1
10
9.27177686606026
20
-1.77090757346482
30
0
41
1
10
10.3474993080044
20
-2.355281933019
30
0
41
1
10
10.8810140886284
20
-2.62849298290573
30
0
41
1
10
12.1559037330277
20
-3.22644214935613
30
0
41
1
10
12.8956232699039
20
-3.52928799607008
30
0
41
1
10
13.6412244611118
20
-3.77533847004116
30
0
0
SPLINE
5
FF
100
AcDbEntity
8
1
62
256
6
ByLayer
370
13
48
1
60
0
100
AcDbSpline
70
4
71
3
72
14
73
10
40
0
40
0
40
0
40
0
40
0.169239764176232
40
0.169239764176232
40
0.450853391754415
40
0.450853391754415
40
0.732467019332597
40
0.732467019332597
40
1
40
1
40
1
40
1
41
1
10
13.6412248336943
20
-3.77533859299442
30
0
41
1
10
13.9615024922712
20
-3.88103110577134
30
0
41
1
10
14.2828654256431
20
-3.97624381674669
30
0
41
1
10
15.1438991594162
20
-4.19966210606611
30
0
41
1
10
15.677030464054
20
-4.30512239112684
30
0
41
1
10
16.7395068076822
20
-4.4464455619852
30
0
41
1
10
17.2689791599087
20
-4.48230790668882
30
0
41
1
10
18.3045081427896
20
-4.4832151670154
30
0
41
1
10
18.8104734774038
20
-4.45176442967116
30
0
41
1
10
19.3209888112476
20
-4.38779219856187
30
0
0
SPLINE
5
100
100
AcDbEntity
8
1
62
256
6
ByLayer
370
18
48
1
60
0
100
AcDbSpline
70
4
71
3
72
18
73
14
40
0
40
0
40
0
40
0
40
0.0423100835377191
40
0.0423100835377191
40
0.108835399401453
40
0.108835399401453
40
0.641037926311334
40
0.641037926311334
40
0.774088558038806
40
0.774088558038806
40
0.907139189766279
40
0.907139189766279
40
1
40
1
40
1
40
1
41
1
10
52.2886957657749
20
0.0093318622401455
30
0
41
1
10
52.3737136467277
20
-0.0429861314528353
30
0
41
1
10
52.4588362695804
20
-0.0953757177874195
30
0
41
1
10
52.6781181900406
20
-0.230243491141891
30
0
41
1
10
52.812546821343
20
-0.312835754188569
30
0
41
1
10
54.0182341072473
20
-1.05174934575874
30
0
41
1
10
55.0726835176217
20
-1.68568371900275
30
0
41
1
10
56.4040154082665
20
-2.39566549643607
30
0
41
1
10
56.6709094577199
20
-2.53357937995557
30
0
41
1
10
57.20684885592
20
-2.79987282942091
30
0
41
1
10
57.4755634545546
20
-2.92796885078258
30
0
41
1
10
57.9304418397462
20
-3.13435403423151
30
0
41
1
10
58.1172962495829
20
-3.21618134241737
30
0
41
1
10
58.3041643091493
20
-3.29481004193193
30
0
0
SPLINE
5
101
100
AcDbEntity
8
1
62
256
6
ByLayer
370
13
48
1
60
0
100
AcDbSpline
70
4
71
3
72
20
73
16
40
0
40
0
40
0
40
0
40
0.148879047880878
40
0.148879047880878
40
0.26321974349249
40
0.26321974349249
40
0.377560439104104
40
0.377560439104104
40
0.606241830327329
40
0.606241830327329
40
0.834923221550556
40
0.834923221550556
40
0.949263917162168
40
0.949263917162168
40
1
40
1
40
1
40
1
41
1
10
58.3041633882269
20
-3.29480965443429
30
0
41
1
10
58.6527833900176
20
-3.44149893402198
30
0
41
1
10
59.0014508981243
20
-3.5770556414837
30
0
41
1
10
59.6195534688026
20
-3.79484196610511
30
0
41
1
10
59.887622227775
20
-3.88189376674876
30
0
41
1
10
60.4239701994071
20
-4.04011410641095
30
0
41
1
10
60.6928345136697
20
-4.11137855060127
30
0
41
1
10
61.496225583988
20
-4.29916376854513
30
0
41
1
10
62.0270724722494
20
-4.3899269046116
30
0
41
1
10
63.0867072449671
20
-4.50122150612708
30
0
41
1
10
63.6151807349454
20
-4.52184729062571
30
0
41
1
10
64.4115635578418
20
-4.49945512217252
30
0
41
1
10
64.6775457131978
20
-4.48305957512594
30
0
41
1
10
65.0629227053535
20
-4.44638278359881
30
0
41
1
10
65.1817442611398
20
-4.43332703884258
30
0
41
1
10
65.3006690382386
20
-4.41852406260418
30
0
0
SPLINE
5
102
100
AcDbEntity
8
1
62
256
6
ByLayer
370
18
48
1
60
0
100
AcDbSpline
70
4
71
3
72
24
73
20
40
0
40
0
40
0
40
0
40
0.0201583920653913
40
0.0201583920653913
40
0.080153659974418
40
0.080153659974418
40
0.140148927883445
40
0.140148927883445
40
0.380129999519552
40
0.380129999519552
40
0.62011107115566
40
0.62011107115566
40
0.740101606973713
40
0.740101606973713
40
0.80009687488274
40
0.80009687488274
40
0.860092142791768
40
0.860092142791768
40
1
40
1
40
1
40
1
41
1
10
98.2952618793317
20
0.0054591353770093
30
0
41
1
10
98.3401385152113
20
-0.0223228925233343
30
0
41
1
10
98.3850450583774
20
-0.0501271685297411
30
0
41
1
10
98.5637273795177
20
-0.160761168264855
30
0
41
1
10
98.6979148290765
20
-0.243830887828096
30
0
41
1
10
98.9653297022196
20
-0.409083342058182
30
0
41
1
10
99.098726451859
20
-0.491374309137854
30
0
41
1
10
99.7645182336697
20
-0.900619359433279
30
0
41
1
10
100.293470502952
20
-1.2207684948292
30
0
41
1
10
101.350300724276
20
-1.83688589402985
30
0
41
1
10
101.878123489327
20
-2.13293301920191
30
0
41
1
10
102.674128161424
20
-2.55105564458464
30
0
41
1
10
102.940197130546
20
-2.68608157531233
30
0
41
1
10
103.34109305116
20
-2.88103099114846
30
0
41
1
10
103.475237369691
20
-2.94484878818233
30
0
41
1
10
103.742771505879
20
-3.06911807944408
30
0
41
1
10
103.876225757494
20
-3.12960761826091
30
0
41
1
10
104.320057183877
20
-3.32551061156633
30
0
41
1
10
104.629339671387
20
-3.45340605798515
30
0
41
1
10
104.937943633654
20
-3.57152863720077
30
0
0
SPLINE
5
103
100
AcDbEntity
8
1
62
256
6
ByLayer
370
13
48
1
60
0
100
AcDbSpline
70
4
71
3
72
14
73
10
40
0
40
0
40
0
40
0
40
0.414692040329771
40
0.414692040329771
40
0.56101903024733
40
0.56101903024733
40
0.70734602016489
40
0.70734602016489
40
1
40
1
40
1
40
1
41
1
10
104.937943632282
20
-3.57152863667548
30
0
41
1
10
105.688023736601
20
-3.85863252189731
30
0
41
1
10
106.434095373972
20
-4.08800205535664
30
0
41
1
10
107.450956834131
20
-4.3093204784779
30
0
41
1
10
107.716879310032
20
-4.35883814341668
30
0
41
1
10
108.251039214292
20
-4.44066659418442
30
0
41
1
10
108.519423022494
20
-4.47293372562976
30
0
41
1
10
109.321482189725
20
-4.54227277399207
30
0
41
1
10
109.854725814557
20
-4.55236915990511
30
0
41
1
10
110.389444641382
20
-4.52615893331406
30
0
0
SPLINE
5
104
100
AcDbEntity
8
1
62
256
6
ByLayer
370
18
48
1
60
0
100
AcDbSpline
70
4
71
3
72
16
73
12
40
0
40
0
40
0
40
0
40
0.186327546529315
40
0.186327546529315
40
0.418078340785649
40
0.418078340785649
40
0.533953737913816
40
0.533953737913816
40
0.649829135041983
40
0.649829135041983
40
1
40
1
40
1
40
1
41
1
10
29.3054105307421
20
-0.0010388404121215
30
0
41
1
10
29.7359046436221
20
-0.265026226686103
30
0
41
1
10
30.16371700068
20
-0.527112544097889
30
0
41
1
10
31.1209308933497
20
-1.10568620390137
30
0
41
1
10
31.6502444016798
20
-1.41899357208155
30
0
41
1
10
32.446622605702
20
-1.87074101782312
30
0
41
1
10
32.712518698605
20
-2.01825180890282
30
0
41
1
10
33.2462924147179
20
-2.30536089526242
30
0
41
1
10
33.5145298836264
20
-2.44538480681865
30
0
41
1
10
34.5942826528272
20
-2.9883353783201
30
0
41
1
10
35.3944036077773
20
-3.34303045886406
30
0
41
1
10
36.1951234536878
20
-3.63281048244153
30
0
0
SPLINE
5
105
100
AcDbEntity
8
1
62
256
6
ByLayer
370
13
48
1
60
0
100
AcDbSpline
70
4
71
3
72
20
73
16
40
0
40
0
40
0
40
0
40
0.128858562359573
40
0.128858562359573
40
0.260610292301939
40
0.260610292301939
40
0.326486157273122
40
0.326486157273122
40
0.392362022244305
40
0.392362022244305
40
0.655865482129047
40
0.655865482129047
40
0.919368942013789
40
0.919368942013789
40
1
40
1
40
1
40
1
41
1
10
36.1951225059144
20
-3.63281013944288
30
0
41
1
10
36.4542710506869
20
-3.72659585627861
30
0
41
1
10
36.7134823262491
20
-3.8135819979988
30
0
41
1
10
37.2386583570971
20
-3.97495634003312
30
0
41
1
10
37.5046184362345
20
-4.04902906195272
30
0
41
1
10
37.9049068545984
20
-4.14818145813257
30
0
41
1
10
38.038561982188
20
-4.17923669305625
30
0
41
1
10
38.3064351755112
20
-4.23724915518557
30
0
41
1
10
38.4408679730156
20
-4.26424426384932
30
0
41
1
10
39.1116489114928
20
-4.38812705029056
30
0
41
1
10
39.6434286900006
20
-4.45178508513115
30
0
41
1
10
40.7043582220137
20
-4.50851565670871
30
0
41
1
10
41.2333663054282
20
-4.50152155842832
30
0
41
1
10
41.926734683973
20
-4.44615292971477
30
0
41
1
10
42.0893802929751
20
-4.42987905601129
30
0
41
1
10
42.2523208104983
20
-4.41030228170337
30
0
0
SPLINE
5
106
100
AcDbEntity
8
1
62
256
6
ByLayer
370
18
48
1
60
0
100
AcDbSpline
70
4
71
3
72
16
73
12
40
0
40
0
40
0
40
0
40
0.0013615724783528
40
0.0013615724783528
40
0.546026389276428
40
0.546026389276428
40
0.682192593475946
40
0.682192593475946
40
0.818358797675466
40
0.818358797675466
40
1
40
1
40
1
40
1
41
1
10
75.3113486708916
20
-0.0045583761293528
30
0
41
1
10
75.3140216029476
20
-0.0062076811070995
30
0
41
1
10
75.3166943784866
20
-0.0078568860812993
30
0
41
1
10
76.3884835613944
20
-0.669190137209938
30
0
41
1
10
77.4401538942294
20
-1.31809216735317
30
0
41
1
10
78.7674261997807
20
-2.06112599822575
30
0
41
1
10
79.0335213672226
20
-2.20631900689571
30
0
41
1
10
79.5678697747146
20
-2.48845805417798
30
0
41
1
10
79.8367100310571
20
-2.62572197279394
30
0
41
1
10
80.4600421723025
20
-2.93118200896984
30
0
41
1
10
80.8144245423439
20
-3.09505307947103
30
0
41
1
10
81.1679665778842
20
-3.24720382970972
30
0
0
SPLINE
5
107
100
AcDbEntity
8
1
62
256
6
ByLayer
370
13
48
1
60
0
100
AcDbSpline
70
4
71
3
72
18
73
14
40
0
40
0
40
0
40
0
40
0.0748517174187598
40
0.0748517174187598
40
0.299620459066934
40
0.299620459066934
40
0.412004829891022
40
0.412004829891022
40
0.524389200715108
40
0.524389200715108
40
0.97392668401145
40
0.97392668401145
40
1
40
1
40
1
40
1
41
1
10
81.1679665724409
20
-3.24720382736712
30
0
41
1
10
81.3444857405659
20
-3.32317081624655
30
0
41
1
10
81.5207954232596
20
-3.39621606821618
30
0
41
1
10
82.2262166657794
20
-3.67640838522581
30
0
41
1
10
82.7545187318399
20
-3.85927289300295
30
0
41
1
10
83.5509403084914
20
-4.08721273856682
30
0
41
1
10
83.8170687281682
20
-4.15546973107911
30
0
41
1
10
84.3515590976389
20
-4.27565112243951
30
0
41
1
10
84.6203200910515
20
-4.32760845018228
30
0
41
1
10
85.9548142140357
20
-4.54190755917665
30
0
41
1
10
87.0060737919995
20
-4.57154633548959
30
0
41
1
10
88.1297258012337
20
-4.45283484646598
30
0
41
1
10
88.1913605069497
20
-4.44584787993765
30
0
41
1
10
88.2530366474169
20
-4.43838261199943
30
0
0
SPLINE
5
108
100
AcDbEntity
8
1
62
256
6
ByLayer
370
18
48
1
60
0
100
AcDbSpline
70
4
71
3
72
62
73
58
40
0
40
0
40
0
40
0
40
0.0312500000000004
40
0.0312500000000004
40
0.0625000000000008
40
0.0625000000000008
40
0.125000000000002
40
0.125000000000002
40
0.187500000000004
40
0.187500000000004
40
0.218750000000005
40
0.218750000000005
40
0.250000000000007
40
0.250000000000007
40
0.312500000000009
40
0.312500000000009
40
0.375000000000012
40
0.375000000000012
40
0.437500000000014
40
0.437500000000014
40
0.468750000000015
40
0.468750000000015
40
0.500000000000017
40
0.500000000000017
40
0.562500000000019
40
0.562500000000019
40
0.59375000000002
40
0.59375000000002
40
0.625000000000022
40
0.625000000000022
40
0.687500000000024
40
0.687500000000024
40
0.718750000000025
40
0.718750000000025
40
0.750000000000026
40
0.750000000000026
40
0.812500000000028
40
0.812500000000028
40
0.843750000000028
40
0.843750000000028
40
0.847656250000028
40
0.847656250000028
40
0.849609375000028
40
0.849609375000028
40
0.851562500000027
40
0.851562500000027
40
0.853515625000027
40
0.853515625000027
40
0.855468750000027
40
0.855468750000027
40
0.859375000000026
40
0.859375000000026
40
0.875000000000022
40
0.875000000000022
40
0.937500000000011
40
0.937500000000011
40
1
40
1
40
1
40
1
41
1
10
7.99999973451992
20
-3.1945197912398
30
0
41
1
10
7.93580324918116
20
-3.26496100845824
30
0
41
1
10
7.87253132348059
20
-3.33403913201883
30
0
41
1
10
7.74767045353514
20
-3.4691250546382
30
0
41
1
10
7.68620356359699
20
-3.53499314225081
30
0
41
1
10
7.50670588979008
20
-3.72472168443872
30
0
41
1
10
7.39266228925339
20
-3.8416867944307
30
0
41
1
10
7.17424365897844
20
-4.05505742317672
30
0
41
1
10
7.06986561665116
20
-4.15147820383041
30
0
41
1
10
6.91998303119342
20
-4.27902498534417
30
0
41
1
10
6.87114299367033
20
-4.31868632682907
30
0
41
1
10
6.77570749656661
20
-4.3919040945967
30
0
41
1
10
6.72896640556104
20
-4.42554279360527
30
0
41
1
10
6.59437791982597
20
-4.51520389689398
30
0
41
1
10
6.51148143059984
20
-4.56056635514508
30
0
41
1
10
6.35994043651755
20
-4.62112230812451
30
0
41
1
10
6.29115155156012
20
-4.63634777445327
30
0
41
1
10
6.17110539798301
20
-4.63311870537365
30
0
41
1
10
6.12123925462757
20
-4.61474497713633
30
0
41
1
10
6.0639285896591
20
-4.56141649566425
30
0
41
1
10
6.04776149979978
20
-4.5393267551346
30
0
41
1
10
6.02198226176989
20
-4.48615411599746
30
0
41
1
10
6.01235240551426
20
-4.45483894824005
30
0
41
1
10
5.99498602404748
20
-4.34866358757196
30
0
41
1
10
5.99844383375807
20
-4.26181128000746
30
0
41
1
10
6.02907904531594
20
-4.10846986547699
30
0
41
1
10
6.04353713845398
20
-4.05349567606655
30
0
41
1
10
6.08175482275254
20
-3.93581808111432
30
0
41
1
10
6.10564649883173
20
-3.8729253106695
30
0
41
1
10
6.19011045125461
20
-3.67802347292036
30
0
41
1
10
6.26383703095459
20
-3.53837429039623
30
0
41
1
10
6.40056033596198
20
-3.31726975340322
30
0
41
1
10
6.45081011813915
20
-3.24122965799276
30
0
41
1
10
6.55852376798174
20
-3.08806885748209
30
0
41
1
10
6.6159523759755
20
-3.01092764366624
30
0
41
1
10
6.7983993977451
20
-2.77843486437172
30
0
41
1
10
6.93372256709128
20
-2.62184194199074
30
0
41
1
10
7.1549613567432
20
-2.38736135175944
30
0
41
1
10
7.23142940192903
20
-2.30960496272664
30
0
41
1
10
7.32016835864016
20
-2.22286156129653
30
0
41
1
10
7.33003975891029
20
-2.21321361204218
30
0
41
1
10
7.3449408380003
20
-2.19879640771782
30
0
41
1
10
7.35002031983512
20
-2.19408348348352
30
0
41
1
10
7.36189459446246
20
-2.18614493527309
30
0
41
1
10
7.36851362267561
20
-2.18279483196758
30
0
41
1
10
7.38220732904836
20
-2.17766662077796
30
0
41
1
10
7.3894499091171
20
-2.17579738810713
30
0
41
1
10
7.40426685987964
20
-2.17354958445122
30
0
41
1
10
7.41173383074874
20
-2.17327243902844
30
0
41
1
10
7.43411934770194
20
-2.17221822964427
30
0
41
1
10
7.4490350235894
20
-2.17139942171116
30
0
41
1
10
7.52365970475921
20
-2.16797548606405
30
0
41
1
10
7.58342138824878
20
-2.16610136203096
30
0
41
1
10
7.88208243900709
20
-2.16103872376431
30
0
41
1
10
8.12153967850878
20
-2.17083420694161
30
0
41
1
10
8.59541313659582
20
-2.21660823539068
30
0
41
1
10
8.83016588097854
20
-2.25257981980815
30
0
41
1
10
9.06276426121445
20
-2.30089692131008
30
0
0
SPLINE
5
109
100
AcDbEntity
8
1
62
256
6
ByLayer
370
18
48
1
60
0
100
AcDbSpline
70
4
71
3
72
16
73
12
40
0
40
0
40
0
40
0
40
0.249999999999996
40
0.249999999999996
40
0.499999999999993
40
0.499999999999993
40
0.749999999999989
40
0.749999999999989
40
0.874999999999994
40
0.874999999999994
40
1
40
1
40
1
40
1
41
1
10
8.25003261468299
20
-2.81976163738537
30
0
41
1
10
8.22528250769255
20
-2.84638570034181
30
0
41
1
10
8.20035954903631
20
-2.87452891661411
30
0
41
1
10
8.15012983715607
20
-2.93463472507321
30
0
41
1
10
8.12449052936279
20
-2.96698461422767
30
0
41
1
10
8.07482364774265
20
-3.03533783349158
30
0
41
1
10
8.05037733573718
20
-3.07186000668045
30
0
41
1
10
8.02132331266284
20
-3.12492298130823
30
0
41
1
10
8.01322556219102
20
-3.14195577811407
30
0
41
1
10
8.00258884082461
20
-3.17065817294227
30
0
41
1
10
7.99999973451995
20
-3.18244778599254
30
0
41
1
10
7.99999973451992
20
-3.19093370832044
30
0
0
SPLINE
5
10A
100
AcDbEntity
8
1
62
256
6
ByLayer
370
18
48
1
60
0
100
AcDbSpline
70
4
71
3
72
8
73
4
40
0
40
0
40
0
40
0
40
1
40
1
40
1
40
1
41
1
10
111.820108903204
20
1.2227513058408
30
0
41
1
10
111.878628189778
20
0.868586618576956
30
0
41
1
10
111.930266273705
20
0.514473844926187
30
0
41
1
10
111.974975966391
20
0.160413340891722
30
0
0
SPLINE
5
10B
100
AcDbEntity
8
1
62
256
6
ByLayer
370
18
48
1
60
0
100
AcDbSpline
70
4
71
3
72
8
73
4
40
0
40
0
40
0
40
0
40
1
40
1
40
1
40
1
41
1
10
110.329452968816
20
-4.4344217937419
30
0
41
1
10
110.340854068225
20
-4.43923809242892
30
0
41
1
10
110.353114727451
20
-4.44157487887404
30
0
41
1
10
110.366255098113
20
-4.44145946105377
30
0
0
SPLINE
5
10C
100
AcDbEntity
8
1
62
256
6
ByLayer
370
18
48
1
60
0
100
AcDbSpline
70
4
71
3
72
18
73
14
40
0
40
0
40
0
40
0
40
0.133760821992603
40
0.241733674361204
40
0.318617961837843
40
0.392106204105382
40
0.46220044328117
40
0.535708981715728
40
0.625556557562618
40
0.748599705717743
40
0.877739541214965
40
0.989774361601853
40
1
40
1
40
1
40
1
41
1
10
46.9521243236875
20
4.40225861351058
30
0
41
1
10
46.7853296289813
20
4.40176757806117
30
0
41
1
10
46.4838966414154
20
4.4011498865342
30
0
41
1
10
46.0865902541782
20
4.40103092369262
30
0
41
1
10
45.7644428946638
20
4.40125961399025
30
0
41
1
10
45.4895280053266
20
4.40145529220655
30
0
41
1
10
45.2188231008417
20
4.40098659344059
30
0
41
1
10
44.9277190446194
20
4.40025564465074
30
0
41
1
10
44.5706115267636
20
4.40012501087188
30
0
41
1
10
44.1441310448681
20
4.40036195097667
30
0
41
1
10
43.6899617113467
20
4.400009162841
30
0
41
1
10
43.3764662346132
20
4.39952441112004
30
0
41
1
10
43.2240505372424
20
4.39942069902787
30
0
41
1
10
43.2113029986219
20
4.39941283038914
30
0
0
SPLINE
5
10D
100
AcDbEntity
8
1
62
256
6
ByLayer
370
18
48
1
60
0
100
AcDbSpline
70
4
71
3
72
17
73
13
40
0
40
0
40
0
40
0
40
0.161994456595734
40
0.295231265449846
40
0.406722617528852
40
0.499620453172729
40
0.578041322723094
40
0.649354724301047
40
0.738415352534347
40
0.849844414133665
40
0.983427262555402
40
1
40
1
40
1
40
1
41
1
10
86.9576864859355
20
-4.42677245377632
30
0
41
1
10
87.2860701238765
20
-4.42640088732571
30
0
41
1
10
87.8851132181973
20
-4.42621017449662
30
0
41
1
10
88.7158019525949
20
-4.42772381727298
30
0
41
1
10
89.4002739108908
20
-4.42897448930827
30
0
41
1
10
89.9781425846262
20
-4.42854022339066
30
0
41
1
10
90.4719691196563
20
-4.42977948963906
30
0
41
1
10
90.9534620526204
20
-4.42880960053461
30
0
41
1
10
91.5110791240221
20
-4.42928818306061
30
0
41
1
10
92.1782451380673
20
-4.43216166702101
30
0
41
1
10
92.7159183439795
20
-4.42964705877512
30
0
41
1
10
93.0210051040259
20
-4.43044486808381
30
0
41
1
10
93.0546855862904
20
-4.43053775828653
30
0
0
SPLINE
5
10E
100
AcDbEntity
8
1
62
256
6
ByLayer
370
18
48
1
60
0
100
AcDbSpline
70
4
71
3
72
15
73
11
40
0
40
0
40
0
40
0
40
0.0259261106065125
40
0.23606916454126
40
0.411361453994007
40
0.551465311994139
40
0.663650492900032
40
0.787016637939335
40
0.933156918350691
40
1
40
1
40
1
40
1
41
1
10
93.054123687351
20
4.43053641455279
30
0
41
1
10
93.0206304086328
20
4.43044410143213
30
0
41
1
10
92.7157300959532
20
4.42964709853348
30
0
41
1
10
92.1782447344793
20
4.43216196732217
30
0
41
1
10
91.5110792021536
20
4.42928812484217
30
0
41
1
10
90.9534620378363
20
4.42880961146159
30
0
41
1
10
90.4719691234137
20
4.42977948670548
30
0
41
1
10
89.9781425828195
20
4.42854022437007
30
0
41
1
10
89.5412639983855
20
4.42886853582098
30
0
41
1
10
89.2660586627244
20
4.42860651009991
30
0
41
1
10
89.1797327845439
20
4.4284955813788
30
0
0
SPLINE
5
10F
100
AcDbEntity
8
1
62
256
6
ByLayer
370
18
48
1
60
0
100
AcDbSpline
70
4
71
3
72
17
73
13
40
0
40
0
40
0
40
0
40
0.048933725597654
40
0.218879143473699
40
0.373994449228042
40
0.499935355615941
40
0.599572686091973
40
0.73438875870875
40
0.881719151945913
40
0.932226110167183
40
0.988127118822288
40
1
40
1
40
1
40
1
41
1
10
24.1338952549889
20
4.38648615889369
30
0
41
1
10
24.0702432191824
20
4.38635465797424
30
0
41
1
10
23.7854365590582
20
4.38586552198552
30
0
41
1
10
23.2882894415645
20
4.38533565857054
30
0
41
1
10
22.7100943247676
20
4.38709341998035
30
0
41
1
10
22.2087582000068
20
4.38625203989827
30
0
41
1
10
21.7357212704416
20
4.3860754521541
30
0
41
1
10
21.2341785272405
20
4.38580617556866
30
0
41
1
10
20.7962888200159
20
4.38585115867119
30
0
41
1
10
20.4624635273336
20
4.38534268979026
30
0
41
1
10
20.3068337207984
20
4.38514444301475
30
0
41
1
10
20.2176725539201
20
4.38506236799623
30
0
41
1
10
20.2020533068125
20
4.38504884398498
30
0
0
SPLINE
5
110
100
AcDbEntity
8
1
62
256
6
ByLayer
370
18
48
1
60
0
100
AcDbSpline
70
4
71
3
72
16
73
12
40
0
40
0
40
0
40
0
40
0.173982325303306
40
0.313073387253008
40
0.398933307121463
40
0.481124314254231
40
0.588427818970341
40
0.721297334309377
40
0.855826040696545
40
0.964727736723284
40
1
40
1
40
1
40
1
41
1
10
69.9293680548441
20
4.41563569121493
30
0
41
1
10
69.7123859371379
20
4.41565629482915
30
0
41
1
10
69.3219218366941
20
4.41560323896707
30
0
41
1
10
68.8243976707548
20
4.41589038949806
30
0
41
1
10
68.4412598569483
20
4.41529807574477
30
0
41
1
10
68.098376578696
20
4.41505042609128
30
0
41
1
10
67.6963507116274
20
4.41505072736496
30
0
41
1
10
67.2290341106877
20
4.41474147093152
30
0
41
1
10
66.7597059984084
20
4.41400193286972
30
0
41
1
10
66.4121118034465
20
4.41404463927688
30
0
41
1
10
66.23229300691
20
4.41402665390459
30
0
41
1
10
66.1883008644288
20
4.41401880243552
30
0
0
SPLINE
5
111
100
AcDbEntity
8
1
62
256
6
ByLayer
370
18
48
1
60
0
100
AcDbSpline
70
4
71
2
72
6
73
3
40
0
40
0
40
0
40
1
40
1
40
1
41
1
10
98.300558432636
20
0.0021841480118496
30
0
41
1
10
98.3005426937264
20
0.0021932229145136
30
0
41
1
10
98.300526954932
20
0.0022026460804341
30
0
0
SPLINE
5
112
100
AcDbEntity
8
1
62
256
6
ByLayer
370
18
48
1
60
0
100
AcDbSpline
70
4
71
3
72
20
73
16
40
0
40
0
40
0
40
0
40
0.142820088706946
40
0.249424846116247
40
0.319825508573845
40
0.377030423117506
40
0.448065655757295
40
0.530417425127334
40
0.609429230440071
40
0.68187431401574
40
0.740287572164734
40
0.800959201897157
40
0.84893506850581
40
0.916310228369707
40
1
40
1
40
1
40
1
41
1
10
40.9586659131202
20
-4.39814237572838
30
0
41
1
10
41.2440708643115
20
-4.39826152665196
30
0
41
1
10
41.7425141972614
20
-4.39850018862728
30
0
41
1
10
42.3815547677394
20
-4.39914694991376
30
0
41
1
10
42.8496543754545
20
-4.39932509937711
30
0
41
1
10
43.246416291245
20
-4.39935471922649
30
0
41
1
10
43.6672591489256
20
-4.3999566043538
30
0
41
1
10
44.1316741881724
20
-4.40038347626881
30
0
41
1
10
44.5988806931426
20
-4.40008418083571
30
0
41
1
10
45.018248558064
20
-4.4003651242827
30
0
41
1
10
45.4009938185012
20
-4.40149223103322
30
0
41
1
10
45.7348375743986
20
-4.40128604534803
30
0
41
1
10
46.0865903145569
20
-4.40102898347831
30
0
41
1
10
46.4843420394463
20
-4.40115103088866
30
0
41
1
10
46.7862204703265
20
-4.40176878919164
30
0
41
1
10
46.9534605834515
20
-4.40226131903268
30
0
0
SPLINE
5
113
100
AcDbEntity
8
1
62
256
6
ByLayer
370
18
48
1
60
0
100
AcDbSpline
70
4
71
3
72
19
73
15
40
0
40
0
40
0
40
0
40
0.155289411384363
40
0.300573406695578
40
0.419313976766365
40
0.50545162623116
40
0.543265103416895
40
0.579008158279112
40
0.614001988614206
40
0.66889923189362
40
0.750790091896664
40
0.85962533883904
40
0.99543577361613
40
1
40
1
40
1
40
1
41
1
10
63.9580833229194
20
-4.41251011703432
30
0
41
1
10
64.2669852670801
20
-4.41193983432086
30
0
41
1
10
64.8657493574033
20
-4.41135992413723
30
0
41
1
10
65.7073726630051
20
-4.41377107628352
30
0
41
1
10
66.4058539462979
20
-4.41408231130603
30
0
41
1
10
66.8931452786724
20
-4.41416974189636
30
0
41
1
10
67.2133242276441
20
-4.41470298537723
30
0
41
1
10
67.4310241396471
20
-4.41494198796255
30
0
41
1
10
67.6829584705719
20
-4.41504640798399
30
0
41
1
10
68.0274068621943
20
-4.41500706874763
30
0
41
1
10
68.5199573981577
20
-4.41535822970258
30
0
41
1
10
69.1747923210612
20
-4.41612469079877
30
0
41
1
10
69.6745656117195
20
-4.41527897671688
30
0
41
1
10
69.956047590378
20
-4.41557312616806
30
0
41
1
10
69.96519985069
20
-4.41558286396636
30
0
0
SPLINE
5
114
100
AcDbEntity
8
1
62
256
6
ByLayer
370
18
48
1
60
0
100
AcDbSpline
70
4
71
1
72
4
73
2
40
0
40
0
40
1
40
1
41
1
10
109.957828666138
20
-4.44125427381792
30
0
41
1
10
110.368775055286
20
-4.44153209448251
30
0
0
SPLINE
5
115
100
AcDbEntity
8
1
62
256
6
ByLayer
370
18
48
1
60
0
100
AcDbSpline
70
4
71
3
72
18
73
14
40
0
40
0
40
0
40
0
40
0.140931193906685
40
0.240795864578427
40
0.304027710389528
40
0.361050820255008
40
0.455079211776228
40
0.569532203659734
40
0.656458991237009
40
0.728363070234608
40
0.790019591903173
40
0.878012106188265
40
1
40
1
40
1
40
1
41
1
10
17.9581537866227
20
-4.38367831737057
30
0
41
1
10
18.2406440264309
20
-4.38383514805827
30
0
41
1
10
18.7232477754209
20
-4.38412604882171
30
0
41
1
10
19.3331326870249
20
-4.3845067496095
30
0
41
1
10
19.7738249724887
20
-4.38484930486922
30
0
41
1
10
20.2031202500831
20
-4.38495096508041
30
0
41
1
10
20.7356710078185
20
-4.38590134690554
30
0
41
1
10
21.3279629321528
20
-4.38576191287467
30
0
41
1
10
21.8759678253994
20
-4.3862105323376
30
0
41
1
10
22.3180986801912
20
-4.3867773790264
30
0
41
1
10
22.762323788356
20
-4.38660006922174
30
0
41
1
10
23.3070361788071
20
-4.38669255176953
30
0
41
1
10
23.7280752282129
20
-4.38752738952186
30
0
41
1
10
23.9726765934642
20
-4.3882274376723
30
0
0
LINE
5
7B
100
AcDbEntity
8
SK1
62
256
6
ByLayer
370
13
48
1
60
0
100
AcDbLine
10
-39.35
20
2.613902
30
0
11
-39.35
21
0.78568
31
0
39
0
210
0
220
0
230
1
0
LINE
5
7D
100
AcDbEntity
8
SK1
62
256
6
ByLayer
370
18
48
1
60
0
100
AcDbLine
10
-40
20
0.513347
30
0
11
-40
21
-3.66
31
0
39
0
210
0
220
0
230
1
0
LINE
5
7E
100
AcDbEntity
8
SK1
62
256
6
ByLayer
370
18
48
1
60
0
100
AcDbLine
10
0
20
-5
30
0
11
0
21
5
31
0
39
0
210
0
220
0
230
1
0
LINE
5
7F
100
AcDbEntity
8
SK1
62
256
6
ByLayer
370
18
48
1
60
0
100
AcDbLine
10
-40
20
3.66
30
0
11
-40
21
2.341586
31
0
39
0
210
0
220
0
230
1
0
LINE
5
80
100
AcDbEntity
8
SK1
62
256
6
ByLayer
370
18
48
1
60
0
100
AcDbLine
10
-38.66
20
5
30
0
11
-38.66
21
-5
31
0
39
0
210
0
220
0
230
1
0
LINE
5
81
100
AcDbEntity
8
SK1
62
256
6
ByLayer
370
18
48
1
60
0
100
AcDbLine
10
-39.25
20
0.927675
30
0
11
-39.25
21
2.57309
31
0
39
0
210
0
220
0
230
1
0
LINE
5
82
100
AcDbEntity
8
SK1
62
256
6
ByLayer
370
18
48
1
60
0
100
AcDbLine
10
-40
20
2.341586
30
0
11
-40
21
0.513358
31
0
39
0
210
0
220
0
230
1
0
LINE
5
83
100
AcDbEntity
8
1
62
256
6
ByLayer
370
18
48
1
60
0
100
AcDbLine
10
109.62716
20
-3.258857
30
0
11
111.860746
21
-0.22723
31
0
39
0
210
0
220
0
230
1
0
LINE
5
84
100
AcDbEntity
8
1
62
256
6
ByLayer
370
13
48
1
60
0
100
AcDbLine
10
0.510684
20
4.815794
30
0
11
0.510684
21
-4.815794
31
0
39
0
210
0
220
0
230
1
0
LINE
5
85
100
AcDbEntity
8
1
62
256
6
ByLayer
370
13
48
1
60
0
100
AcDbLine
10
110.250638
20
1.070148
30
0
11
111.971862
21
-0.019429
31
0
39
0
210
0
220
0
230
1
0
LINE
5
86
100
AcDbEntity
8
1
62
256
6
ByLayer
370
13
48
1
60
0
100
AcDbLine
10
1.021867
20
4.631588
30
0
11
1.021867
21
-4.631588
31
0
39
0
210
0
220
0
230
1
0
LINE
5
87
100
AcDbEntity
8
1
62
256
6
ByLayer
370
13
48
1
60
0
100
AcDbLine
10
110.352071
20
1.187751
30
0
11
111.974976
21
0.160413
31
0
39
0
210
0
220
0
230
1
0
LINE
5
88
100
AcDbEntity
8
1
62
256
6
ByLayer
370
18
48
1
60
0
100
AcDbLine
10
0
20
-5
30
0
11
0
21
5
31
0
39
0
210
0
220
0
230
1
0
LINE
5
89
100
AcDbEntity
8
1
62
256
6
ByLayer
370
18
48
1
60
0
100
AcDbLine
10
8
20
-0.930169
30
0
11
8
21
3.19452
31
0
39
0
210
0
220
0
230
1
0
LINE
5
8A
100
AcDbEntity
8
80
62
256
6
ByLayer
370
18
48
1
60
0
100
AcDbLine
10
0
20
0
30
0
11
-5
21
0
31
0
39
0
210
0
220
0
230
1
0
LINE
5
8B
100
AcDbEntity
8
4
62
256
6
ByLayer
370
18
48
0.05
60
0
100
AcDbLine
10
112
20
0
30
0
11
0
21
0
31
0
39
0
210
0
220
0
230
1
0
LINE
5
8D
100
AcDbEntity
8
SK4
62
256
6
ByLayer
370
18
48
0.05
60
0
100
AcDbLine
10
117
20
0
30
0
11
-45
21
0
31
0
39
0
210
0
220
0
230
1
0
LINE
5
8F
100
AcDbEntity
8
SK1
62
256
6
ByLayer
370
18
48
1
60
0
100
AcDbLine
10
-38.66
20
-5
30
0
11
0
21
-5
31
0
39
0
210
0
220
0
230
1
0
LINE
5
90
100
AcDbEntity
8
SK1
62
256
6
ByLayer
370
18
48
1
60
0
100
AcDbLine
10
0
20
5
30
0
11
-38.66
21
5
31
0
39
0
210
0
220
0
230
1
0
LINE
5
91
100
AcDbEntity
8
SK1
62
256
6
ByLayer
370
18
48
1
60
0
100
AcDbLine
10
-40
20
-3.66
30
0
11
-38.66
21
-5
31
0
39
0
210
0
220
0
230
1
0
LINE
5
92
100
AcDbEntity
8
SK1
62
256
6
ByLayer
370
18
48
1
60
0
100
AcDbLine
10
-38.66
20
5
30
0
11
-40
21
3.66
31
0
39
0
210
0
220
0
230
1
0
LINE
5
93
100
AcDbEntity
8
1
62
256
6
ByLayer
370
18
48
1
60
0
100
AcDbLine
10
1.021867
20
-4.631588
30
0
11
6.239914
21
-4.634849
31
0
39
0
210
0
220
0
230
1
0
LINE
5
94
100
AcDbEntity
8
1
62
256
6
ByLayer
370
18
48
1
60
0
100
AcDbLine
10
16.761004
20
-4.641425
30
0
11
17.804051
21
-4.642077
31
0
39
0
210
0
220
0
230
1
0
LINE
5
95
100
AcDbEntity
8
1
62
256
6
ByLayer
370
18
48
1
60
0
100
AcDbLine
10
39.763879
20
-4.655802
30
0
11
40.803838
21
-4.656452
31
0
39
0
210
0
220
0
230
1
0
LINE
5
96
100
AcDbEntity
8
1
62
256
6
ByLayer
370
18
48
1
60
0
100
AcDbLine
10
62.768873
20
-4.67018
30
0
11
63.803973
21
-4.670827
31
0
39
0
210
0
220
0
230
1
0
LINE
5
97
100
AcDbEntity
8
1
62
256
6
ByLayer
370
18
48
1
60
0
100
AcDbLine
10
85.772461
20
-4.684557
30
0
11
86.803414
21
-4.685201
31
0
39
0
210
0
220
0
230
1
0
LINE
5
98
100
AcDbEntity
8
1
62
256
6
ByLayer
370
18
48
1
60
0
100
AcDbLine
10
108.776075
20
-4.698934
30
0
11
109.804234
21
-4.699577
31
0
39
0
210
0
220
0
230
1
0
LINE
5
99
100
AcDbEntity
8
1
62
256
6
ByLayer
370
18
48
1
60
0
100
AcDbLine
10
109.804163
20
4.699577
30
0
11
108.776075
21
4.698934
31
0
39
0
210
0
220
0
230
1
0
LINE
5
9A
100
AcDbEntity
8
1
62
256
6
ByLayer
370
18
48
1
60
0
100
AcDbLine
10
86.803606
20
4.685202
30
0
11
85.772461
21
4.684557
31
0
39
0
210
0
220
0
230
1
0
LINE
5
9B
100
AcDbEntity
8
1
62
256
6
ByLayer
370
18
48
1
60
0
100
AcDbLine
10
63.803612
20
4.670827
30
0
11
62.768873
21
4.67018
31
0
39
0
210
0
220
0
230
1
0
LINE
5
9C
100
AcDbEntity
8
1
62
256
6
ByLayer
370
18
48
1
60
0
100
AcDbLine
10
40.804149
20
4.656452
30
0
11
39.763879
21
4.655802
31
0
39
0
210
0
220
0
230
1
0
LINE
5
9D
100
AcDbEntity
8
1
62
256
6
ByLayer
370
18
48
1
60
0
100
AcDbLine
10
17.803973
20
4.642077
30
0
11
16.761004
21
4.641425
31
0
39
0
210
0
220
0
230
1
0
LINE
5
9E
100
AcDbEntity
8
1
62
256
6
ByLayer
370
18
48
1
60
0
100
AcDbLine
10
6.239914
20
4.634849
30
0
11
1.021867
21
4.631588
31
0
39
0
210
0
220
0
230
1
0
LINE
5
9F
100
AcDbEntity
8
81
62
256
6
ByLayer
370
18
48
1
60
0
100
AcDbLine
10
112
20
0
30
0
11
117
21
0
31
0
39
0
210
0
220
0
230
1
0
LINE
5
A0
100
AcDbEntity
8
SK2
62
256
6
ByLayer
370
13
48
1
60
0
100
AcDbLine
10
-48.625163
20
-5
30
0
11
-48.625163
21
35.857173
31
0
39
0
210
0
220
0
230
1
0
LINE
5
A2
100
AcDbEntity
8
SK2
62
256
6
ByLayer
370
13
48
1
60
0
100
AcDbLine
10
-41.5875
20
5
30
0
11
-50.625163
21
5
31
0
39
0
210
0
220
0
230
1
0
LINE
5
A3
100
AcDbEntity
8
SK2
62
256
6
ByLayer
370
13
48
1
60
0
100
AcDbLine
10
-41.5875
20
-5
30
0
11
-50.625163
21
-5
31
0
39
0
210
0
220
0
230
1
0
LINE
5
A4
100
AcDbEntity
8
1
62
256
6
ByLayer
370
18
48
1
60
1
100
AcDbLine
10
-48.625163
20
5
30
0
11
-48.164379
21
1.500002
31
0
39
0
210
0
220
0
230
1
0
LINE
5
A5
100
AcDbEntity
8
1
62
256
6
ByLayer
370
18
48
1
60
1
100
AcDbLine
10
-48.164379
20
1.500002
30
0
11
-49.085946
21
1.499998
31
0
39
0
210
0
220
0
230
1
0
LINE
5
A6
100
AcDbEntity
8
1
62
256
6
ByLayer
370
18
48
1
60
1
100
AcDbLine
10
-49.085946
20
1.499998
30
0
11
-48.625163
21
5
31
0
39
0
210
0
220
0
230
1
0
LINE
5
A7
100
AcDbEntity
8
1
62
256
6
ByLayer
370
18
48
1
60
1
100
AcDbLine
10
-48.625163
20
-5
30
0
11
-49.085946
21
-1.500002
31
0
39
0
210
0
220
0
230
1
0
LINE
5
A8
100
AcDbEntity
8
1
62
256
6
ByLayer
370
18
48
1
60
1
100
AcDbLine
10
-49.085946
20
-1.500002
30
0
11
-48.164379
21
-1.499998
31
0
39
0
210
0
220
0
230
1
0
LINE
5
A9
100
AcDbEntity
8
1
62
256
6
ByLayer
370
18
48
1
60
1
100
AcDbLine
10
-48.164379
20
-1.499998
30
0
11
-48.625163
21
-5
31
0
39
0
210
0
220
0
230
1
0
LINE
5
AA
100
AcDbEntity
8
2
62
256
6
ByLayer
370
13
48
1
60
0
100
AcDbLine
10
124.083343
20
-4.7
30
0
11
124.083343
21
32.778727
31
0
39
0
210
0
220
0
230
1
0
LINE
5
AC
100
AcDbEntity
8
2
62
256
6
ByLayer
370
13
48
1
60
0
100
AcDbLine
10
112.1939
20
4.7
30
0
11
126.083343
21
4.7
31
0
39
0
210
0
220
0
230
1
0
LINE
5
AD
100
AcDbEntity
8
2
62
256
6
ByLayer
370
13
48
1
60
0
100
AcDbLine
10
112.1939
20
-4.7
30
0
11
126.083343
21
-4.7
31
0
39
0
210
0
220
0
230
1
0
LINE
5
AE
100
AcDbEntity
8
1
62
256
6
ByLayer
370
18
48
1
60
1
100
AcDbLine
10
124.083343
20
4.7
30
0
11
124.544126
21
1.200002
31
0
39
0
210
0
220
0
230
1
0
LINE
5
AF
100
AcDbEntity
8
1
62
256
6
ByLayer
370
18
48
1
60
1
100
AcDbLine
10
124.544126
20
1.200002
30
0
11
123.622559
21
1.199998
31
0
39
0
210
0
220
0
230
1
0
LINE
5
B0
100
AcDbEntity
8
1
62
256
6
ByLayer
370
18
48
1
60
1
100
AcDbLine
10
123.622559
20
1.199998
30
0
11
124.083343
21
4.7
31
0
39
0
210
0
220
0
230
1
0
LINE
5
B1
100
AcDbEntity
8
1
62
256
6
ByLayer
370
18
48
1
60
1
100
AcDbLine
10
124.083343
20
-4.7
30
0
11
123.622559
21
-1.200002
31
0
39
0
210
0
220
0
230
1
0
LINE
5
B2
100
AcDbEntity
8
1
62
256
6
ByLayer
370
18
48
1
60
1
100
AcDbLine
10
123.622559
20
-1.200002
30
0
11
124.544126
21
-1.199998
31
0
39
0
210
0
220
0
230
1
0
LINE
5
B3
100
AcDbEntity
8
1
62
256
6
ByLayer
370
18
48
1
60
1
100
AcDbLine
10
124.544126
20
-1.199998
30
0
11
124.083343
21
-4.7
31
0
39
0
210
0
220
0
230
1
0
LINE
5
11C
100
AcDbEntity
8
1
62
256
6
ByLayer
370
18
48
1
60
1
100
AcDbLine
10
-48.625163
20
5
30
0
11
-48.164379
21
1.500002
31
0
39
0
210
0
220
0
230
1
0
LINE
5
11D
100
AcDbEntity
8
1
62
256
6
ByLayer
370
18
48
1
60
1
100
AcDbLine
10
-48.164379
20
1.500002
30
0
11
-49.085946
21
1.499998
31
0
39
0
210
0
220
0
230
1
0
LINE
5
11E
100
AcDbEntity
8
1
62
256
6
ByLayer
370
18
48
1
60
1
100
AcDbLine
10
-49.085946
20
1.499998
30
0
11
-48.625163
21
5
31
0
39
0
210
0
220
0
230
1
0
LINE
5
120
100
AcDbEntity
8
1
62
256
6
ByLayer
370
18
48
1
60
1
100
AcDbLine
10
-48.625163
20
-5
30
0
11
-49.085946
21
-1.500002
31
0
39
0
210
0
220
0
230
1
0
LINE
5
121
100
AcDbEntity
8
1
62
256
6
ByLayer
370
18
48
1
60
1
100
AcDbLine
10
-49.085946
20
-1.500002
30
0
11
-48.164379
21
-1.499998
31
0
39
0
210
0
220
0
230
1
0
LINE
5
122
100
AcDbEntity
8
1
62
256
6
ByLayer
370
18
48
1
60
1
100
AcDbLine
10
-48.164379
20
-1.499998
30
0
11
-48.625163
21
-5
31
0
39
0
210
0
220
0
230
1
0
LINE
5
126
100
AcDbEntity
8
1
62
256
6
ByLayer
370
18
48
1
60
1
100
AcDbLine
10
124.083343
20
4.7
30
0
11
124.544126
21
1.200002
31
0
39
0
210
0
220
0
230
1
0
LINE
5
127
100
AcDbEntity
8
1
62
256
6
ByLayer
370
18
48
1
60
1
100
AcDbLine
10
124.544126
20
1.200002
30
0
11
123.622559
21
1.199998
31
0
39
0
210
0
220
0
230
1
0
LINE
5
128
100
AcDbEntity
8
1
62
256
6
ByLayer
370
18
48
1
60
1
100
AcDbLine
10
123.622559
20
1.199998
30
0
11
124.083343
21
4.7
31
0
39
0
210
0
220
0
230
1
0
LINE
5
12A
100
AcDbEntity
8
1
62
256
6
ByLayer
370
18
48
1
60
1
100
AcDbLine
10
124.083343
20
-4.7
30
0
11
123.622559
21
-1.200002
31
0
39
0
210
0
220
0
230
1
0
LINE
5
12B
100
AcDbEntity
8
1
62
256
6
ByLayer
370
18
48
1
60
1
100
AcDbLine
10
123.622559
20
-1.200002
30
0
11
124.544126
21
-1.199998
31
0
39
0
210
0
220
0
230
1
0
LINE
5
12C
100
AcDbEntity
8
1
62
256
6
ByLayer
370
18
48
1
60
1
100
AcDbLine
10
124.544126
20
-1.199998
30
0
11
124.083343
21
-4.7
31
0
39
0
210
0
220
0
230
1
0
MTEXT
5
116
100
AcDbEntity
8
SK6
62
256
6
ByLayer
370
13
48
1
60
0
100
AcDbMText
10
6.67054
20
37.240328
30
0
210
0
220
0
230
1
1
\W0.7716;462.1-0940-070A1-XM X2BM
40
3.5
41
0
44
1.084337
50
0
71
7
72
5
7
iso_b_vert
0
MTEXT
5
11A
100
AcDbEntity
8
SK2
62
256
6
ByLayer
370
18
48
1
60
0
100
AcDbMText
10
-50.189796
20
18.409024
30
0
210
0
220
0
230
1
1
%%c
40
3.5
41
0
44
1.084337
50
90
71
7
72
5
7
iso_b_vert
0
MTEXT
5
11B
100
AcDbEntity
8
SK2
62
256
6
ByLayer
370
18
48
1
60
0
100
AcDbMText
10
-50.189796
20
23.63168
30
0
210
0
220
0
230
1
1
\W0.6930;10,000
40
3.5
41
0
44
1.084337
50
90
71
7
72
5
7
iso_b_vert
0
MTEXT
5
124
100
AcDbEntity
8
2
62
256
6
ByLayer
370
18
48
1
60
0
100
AcDbMText
10
122.518709
20
16.70211
30
0
210
0
220
0
230
1
1
%%c
40
3.5
41
0
44
1.084337
50
90
71
7
72
5
7
iso_b_vert
0
MTEXT
5
125
100
AcDbEntity
8
2
62
256
6
ByLayer
370
18
48
1
60
0
100
AcDbMText
10
122.518709
20
21.924766
30
0
210
0
220
0
230
1
1
\W0.7581;9,400
40
3.5
41
0
44
1.084337
50
90
71
7
72
5
7
iso_b_vert
0
HATCH
5
11F
100
AcDbEntity
8
SK2
62
256
6
ByLayer
370
13
48
1
60
0
100
AcDbHatch
10
0
20
0
30
0
210
0
220
0
230
1
2
ANSI31
70
0
71
0
91
1
92
5
93
3
72
1
10
-48.6251625675374
20
5
11
-48.1643788259847
21
1.50000169255318
72
1
10
-48.1643788259847
20
1.50000169255318
11
-49.0859463090902
21
1.49999830744682
72
1
10
-49.0859463090902
20
1.49999830744682
11
-48.6251625675374
21
5
97
0
75
0
76
1
52
0
41
0.0062
77
0
78
1
53
45
43
0
44
0
45
-0.0139193969876572
46
0.0139193969876572
79
0
47
0
98
1
10
0
20
0
0
HATCH
5
123
100
AcDbEntity
8
SK2
62
256
6
ByLayer
370
13
48
1
60
0
100
AcDbHatch
10
0
20
0
30
0
210
0
220
0
230
1
2
ANSI31
70
0
71
0
91
1
92
5
93
3
72
1
10
-48.6251625675374
20
-5
11
-49.0859463090902
21
-1.50000169255318
72
1
10
-49.0859463090902
20
-1.50000169255318
11
-48.1643788259847
21
-1.49999830744682
72
1
10
-48.1643788259847
20
-1.49999830744682
11
-48.6251625675374
21
-5
97
0
75
0
76
1
52
0
41
0.0062
77
0
78
1
53
45
43
0
44
0
45
-0.0139193969876572
46
0.0139193969876572
79
0
47
0
98
1
10
0
20
0
0
HATCH
5
129
100
AcDbEntity
8
2
62
256
6
ByLayer
370
13
48
1
60
0
100
AcDbHatch
10
0
20
0
30
0
210
0
220
0
230
1
2
ANSI31
70
0
71
0
91
1
92
5
93
3
72
1
10
124.083342615295
20
4.70000000000002
11
124.544126356848
21
1.2000016925532
72
1
10
124.544126356848
20
1.2000016925532
11
123.622558873742
21
1.19999830744683
72
1
10
123.622558873742
20
1.19999830744683
11
124.083342615295
21
4.70000000000002
97
0
75
0
76
1
52
0
41
0.0062
77
0
78
1
53
45
43
0
44
0
45
-0.0139193969876572
46
0.0139193969876572
79
0
47
0
98
1
10
0
20
0
0
HATCH
5
12D
100
AcDbEntity
8
2
62
256
6
ByLayer
370
13
48
1
60
0
100
AcDbHatch
10
0
20
0
30
0
210
0
220
0
230
1
2
ANSI31
70
0
71
0
91
1
92
5
93
3
72
1
10
124.083342615295
20
-4.69999999999999
11
123.622558873742
21
-1.20000169255317
72
1
10
123.622558873742
20
-1.20000169255317
11
124.544126356848
21
-1.19999830744681
72
1
10
124.544126356848
20
-1.19999830744681
11
124.083342615295
21
-4.69999999999999
97
0
75
0
76
1
52
0
41
0.0062
77
0
78
1
53
45
43
0
44
0
45
-0.0139193969876572
46
0.0139193969876572
79
0
47
0
98
1
10
0
20
0
0
DIMENSION
5
12F
100
AcDbEntity
8
SK2
62
256
6
ByLayer
370
13
48
1
60
0
100
AcDbDimension
2
_U0
10
110.6064
20
-14.913398
30
0
11
55.3032
21
-14.913398
31
0
70
32
71
1
72
1
41
1
210
0
220
0
230
1
3
Standard
100
AcDbAlignedDimension
13
0
23
0
33
0
14
110.6064
24
-4.7
34
0
50
0
100
AcDbRotatedDimension
1001
ACAD
1000
DSTYLE
1002
{
1070
   371
1070
    13
1070
   372
1070
    13
1070
   170
1070
     0
1070
   144
1040
1.0
1070
   277
1070
     2
1070
   278
1070
    44
1070
   146
1040
1.0
1070
   345
1005
16
1070
   347
1005
16
1070
   346
1005
16
1070
   344
1005
0
1070
   343
1005
0
1070
   172
1070
     1
1070
    76
1070
     0
1070
    75
1070
     0
1070
   282
1070
     0
1070
   281
1070
     0
1070
    71
1070
     0
1070
    74
1070
     0
1070
   279
1070
     0
1070
   173
1070
     1
1070
   340
1005
117
1070
   271
1070
     2
1070
   272
1070
     2
1070
    77
1070
     1
1070
    73
1070
     1
1070
   171
1070
     3
1070
   274
1070
     4
1070
   177
1070
    35
1070
   176
1070
    35
1070
   178
1070
    35
1070
    48
1040
-0.1
1070
    41
1040
3.5
1070
   147
1040
1.75
1070
    42
1040
1.5875
1070
    44
1040
2.0
1070
   140
1040
3.5
1002
}
1001
ACAD_DSTYLE_DIM_LINETYPE
1070
   380
1005
16
1001
ACAD_DSTYLE_DIM_EXT1_LINETYPE
1070
   381
1005
16
1001
ACAD_DSTYLE_DIM_EXT2_LINETYPE
1070
   382
1005
16
0
DIMENSION
5
148
100
AcDbEntity
8
SK2
62
256
6
ByLayer
370
13
48
1
60
0
100
AcDbDimension
2
_U1
10
112
20
-33.692985
30
0
11
36
21
-33.692985
31
0
70
32
71
1
72
1
41
1
210
0
220
0
230
1
3
Standard
100
AcDbAlignedDimension
13
-40
23
-5
33
0
14
112
24
0
34
0
50
0
100
AcDbRotatedDimension
1001
ACAD
1000
DSTYLE
1002
{
1070
   371
1070
    13
1070
   372
1070
    13
1070
   170
1070
     0
1070
   144
1040
1.0
1070
   277
1070
     2
1070
   278
1070
    44
1070
   146
1040
1.0
1070
   345
1005
16
1070
   347
1005
16
1070
   346
1005
16
1070
   344
1005
0
1070
   343
1005
0
1070
   172
1070
     1
1070
    76
1070
     0
1070
    75
1070
     0
1070
   282
1070
     0
1070
   281
1070
     0
1070
    71
1070
     0
1070
    74
1070
     0
1070
   279
1070
     0
1070
   173
1070
     1
1070
   340
1005
117
1070
   271
1070
     2
1070
   272
1070
     2
1070
    77
1070
     1
1070
    73
1070
     1
1070
   171
1070
     3
1070
   274
1070
     4
1070
   177
1070
    35
1070
   176
1070
    35
1070
   178
1070
    35
1070
    48
1040
-0.1
1070
    41
1040
3.5
1070
   147
1040
1.75
1070
    42
1040
1.5875
1070
    44
1040
2.0
1070
   140
1040
3.5
1002
}
1001
ACAD_DSTYLE_DIM_LINETYPE
1070
   380
1005
16
1001
ACAD_DSTYLE_DIM_EXT1_LINETYPE
1070
   381
1005
16
1001
ACAD_DSTYLE_DIM_EXT2_LINETYPE
1070
   382
1005
16
0
DIMENSION
5
160
100
AcDbEntity
8
SK2
62
256
6
ByLayer
370
13
48
1
60
0
100
AcDbDimension
2
_U2
10
112
20
16.309119
30
0
11
73.705
21
16.309119
31
0
70
32
71
1
72
1
41
1
210
0
220
0
230
1
3
Standard
100
AcDbAlignedDimension
13
35.41
23
4.7
33
0
14
112
24
0
34
0
50
0
100
AcDbRotatedDimension
1001
ACAD
1000
DSTYLE
1002
{
1070
   371
1070
    13
1070
   372
1070
    13
1070
   170
1070
     0
1070
   144
1040
1.0
1070
   277
1070
     2
1070
   278
1070
    44
1070
   146
1040
1.0
1070
   345
1005
16
1070
   347
1005
16
1070
   346
1005
16
1070
   344
1005
0
1070
   343
1005
0
1070
   172
1070
     1
1070
    76
1070
     0
1070
    75
1070
     0
1070
   282
1070
     0
1070
   281
1070
     0
1070
    71
1070
     0
1070
    74
1070
     0
1070
   279
1070
     0
1070
   173
1070
     1
1070
   340
1005
117
1070
   271
1070
     2
1070
   272
1070
     2
1070
    77
1070
     1
1070
    73
1070
     1
1070
   171
1070
     3
1070
   274
1070
     4
1070
   177
1070
    35
1070
   176
1070
    35
1070
   178
1070
    35
1070
    48
1040
-0.1
1070
    41
1040
3.5
1070
   147
1040
1.75
1070
    42
1040
1.5875
1070
    44
1040
2.0
1070
   140
1040
3.5
1002
}
1001
ACAD_DSTYLE_DIM_LINETYPE
1070
   380
1005
16
1001
ACAD_DSTYLE_DIM_EXT1_LINETYPE
1070
   381
1005
16
1001
ACAD_DSTYLE_DIM_EXT2_LINETYPE
1070
   382
1005
16
0
DIMENSION
5
178
100
AcDbEntity
8
SK2
62
256
6
ByLayer
370
13
48
1
60
0
100
AcDbDimension
2
_U3
10
110.6064
20
-17.502503
30
0
11
129.25
21
-17.502503
31
0
70
32
71
1
72
1
41
1
210
0
220
0
230
1
3
Standard
100
AcDbAlignedDimension
13
112
23
0
33
0
14
110.6064
24
-4.7
34
0
50
0
100
AcDbRotatedDimension
1001
ACAD
1000
DSTYLE
1002
{
1070
   371
1070
    13
1070
   372
1070
    13
1070
   170
1070
     0
1070
   144
1040
1.0
1070
   277
1070
     2
1070
   278
1070
    44
1070
   146
1040
1.0
1070
   345
1005
16
1070
   347
1005
16
1070
   346
1005
16
1070
   344
1005
0
1070
   343
1005
0
1070
   172
1070
     1
1070
    76
1070
     0
1070
    75
1070
     0
1070
   282
1070
     0
1070
   281
1070
     0
1070
    71
1070
     0
1070
    74
1070
     0
1070
   279
1070
     0
1070
   173
1070
     1
1070
   340
1005
117
1070
   271
1070
     2
1070
   272
1070
     2
1070
    77
1070
     1
1070
    73
1070
     1
1070
   171
1070
     3
1070
   274
1070
     4
1070
   177
1070
    35
1070
   176
1070
    35
1070
   178
1070
    35
1070
    48
1040
-0.1
1070
    41
1040
3.5
1070
   147
1040
1.75
1070
    42
1040
1.5875
1070
    44
1040
2.0
1070
   140
1040
3.5
1002
}
1001
ACAD_DSTYLE_DIM_LINETYPE
1070
   380
1005
16
1001
ACAD_DSTYLE_DIM_EXT1_LINETYPE
1070
   381
1005
16
1001
ACAD_DSTYLE_DIM_EXT2_LINETYPE
1070
   382
1005
16
0
DIMENSION
5
192
100
AcDbEntity
8
SK2
62
256
6
ByLayer
370
13
48
1
60
0
100
AcDbDimension
2
_U4
10
110.6064
20
-23.343428
30
0
11
35.3032
21
-23.343428
31
0
70
32
71
1
72
1
41
1
210
0
220
0
230
1
3
Standard
100
AcDbAlignedDimension
13
-40
23
-5
33
0
14
110.6064
24
-4.7
34
0
50
0
100
AcDbRotatedDimension
1001
ACAD
1000
DSTYLE
1002
{
1070
   371
1070
    13
1070
   372
1070
    13
1070
   170
1070
     0
1070
   144
1040
1.0
1070
   277
1070
     2
1070
   278
1070
    44
1070
   146
1040
1.0
1070
   345
1005
16
1070
   347
1005
16
1070
   346
1005
16
1070
   344
1005
0
1070
   343
1005
0
1070
   172
1070
     1
1070
    76
1070
     0
1070
    75
1070
     0
1070
   282
1070
     0
1070
   281
1070
     0
1070
    71
1070
     0
1070
    74
1070
     0
1070
   279
1070
     0
1070
   173
1070
     1
1070
   340
1005
117
1070
   271
1070
     2
1070
   272
1070
     2
1070
    77
1070
     1
1070
    73
1070
     1
1070
   171
1070
     3
1070
   274
1070
     4
1070
   177
1070
    35
1070
   176
1070
    35
1070
   178
1070
    35
1070
    48
1040
-0.1
1070
    41
1040
3.5
1070
   147
1040
1.75
1070
    42
1040
1.5875
1070
    44
1040
2.0
1070
   140
1040
3.5
1002
}
1001
ACAD_DSTYLE_DIM_LINETYPE
1070
   380
1005
16
1001
ACAD_DSTYLE_DIM_EXT1_LINETYPE
1070
   381
1005
16
1001
ACAD_DSTYLE_DIM_EXT2_LINETYPE
1070
   382
1005
16
0
ENDSEC
0
SECTION
2
OBJECTS
0
DICTIONARY
5
21a
330
0
100
AcDbDictionary
280
0
281
1
3
ACAD_GROUP
350
21b
3
ACAD_MLINESTYLE
350
21c
0
DICTIONARY
5
21b
330
0
100
AcDbDictionary
280
0
281
1
0
DICTIONARY
5
21c
330
0
100
AcDbDictionary
280
0
281
1
3
Standard
350
18
0
MLINESTYLE
5
18
330
21c
100
AcDbMlineStyle
2
Standard
70
0
3

62
256
51
90
52
90
71
2
49
-0.5
62
256
6
ByLayer
49
0.5
62
256
6
ByLayer
0
RASTERVARIABLES
5
208
330

100
AcDbRasterVariables
90
0
70
1
71
1
72
1
0
ENDSEC
0
EOF
