0
SECTION
2
HEADER
9
$ACADVER
1
AC1015
9
$DWGCODEPAGE
3
ANSI_1252
9
$HANDSEED
5
216
9
$ANGBASE
50
0
9
$ANGDIR
70
0
9
$ATTMODE
70
1
9
$AUNITS
70
0
9
$AUPREC
70
0
9
$CECOLOR
62
256
9
$CELTSCALE
40
1
9
$CELTYPE
6
ByLayer
9
$CELWEIGHT
370
18
9
$CLAYER
8
0
9
$CMLJUST
70
0
9
$CMLSCALE
40
1
9
$CMLSTYLE
2
Standard
9
$DIMSTYLE
2
Standard
9
$TEXTSIZE
40
0.2
9
$TEXTSTYLE
7
Standard
9
$LUNITS
70
2
9
$LUPREC
70
4
9
$EXTNAMES
290
1
9
$INSUNITS
70
4
9
$LTSCALE
40
1
9
$LWDISPLAY
290
1
9
$PDMODE
70
0
9
$PDSIZE
40
0
9
$PLINEGEN
70
0
0
ENDSEC
0
SECTION
2
CLASSES
0
CLASS
1
RASTERVARIABLES
2
AcDbRasterVariables
3
ISM
90
0
280
0
281
0
0
ENDSEC
0
SECTION
2
TABLES
0
TABLE
2
VPORT
5
20c
100
AcDbSymbolTable
0
VPORT
5
1
100
AcDbSymbolTableRecord
100
AcDbViewportTableRecord
2
*Active
70
0
10
0
20
0
11
1
21
1
12
-1
22
1
13
0
23
0
14
0.5
24
0.5
15
10
25
10
16
0
26
0
36
1
17
0
27
0
37
0
0
ENDTAB
0
TABLE
2
LTYPE
5
20d
100
AcDbSymbolTable
0
LTYPE
5
14
100
AcDbSymbolTableRecord
100
AcDbLinetypeTableRecord
70
0
2
ByBlock
3

72
65
73
0
40
0
0
LTYPE
5
15
100
AcDbSymbolTableRecord
100
AcDbLinetypeTableRecord
70
0
2
ByLayer
3

72
65
73
0
40
0
0
LTYPE
5
16
100
AcDbSymbolTableRecord
100
AcDbLinetypeTableRecord
70
0
2
Continuous
3
Solid line
72
65
73
0
40
0
0
LTYPE
5
6E
100
AcDbSymbolTableRecord
100
AcDbLinetypeTableRecord
70
0
2
CENTER
3
____ _ ____ _ ____ _ ____
72
65
73
4
40
47.5
49
22
74
0
49
-8.5
74
0
49
8.5
74
0
49
-8.5
74
0
0
LTYPE
5
6F
100
AcDbSymbolTableRecord
100
AcDbLinetypeTableRecord
70
0
2
DASHED
3
__ __ __ __ __ __ __ __ __
72
65
73
2
40
25.72
49
12.86
74
0
49
-12.86
74
0
0
ENDTAB
0
TABLE
2
LAYER
5
20e
100
AcDbSymbolTable
0
LAYER
5
10
100
AcDbSymbolTableRecord
100
AcDbLayerTableRecord
2
0
70
0
62
7
6
Continuous
290
1
370
-3
390
0
0
LAYER
5
71
100
AcDbSymbolTableRecord
100
AcDbLayerTableRecord
2
80
70
0
62
-6
6
Continuous
290
1
370
-3
390
0
0
LAYER
5
73
100
AcDbSymbolTableRecord
100
AcDbLayerTableRecord
2
81
70
0
62
-3
6
Continuous
290
1
370
-3
390
0
0
LAYER
5
75
100
AcDbSymbolTableRecord
100
AcDbLayerTableRecord
2
1
70
0
62
4
6
Continuous
290
1
370
-3
390
0
0
LAYER
5
8E
100
AcDbSymbolTableRecord
100
AcDbLayerTableRecord
2
4
70
0
62
-2
6
CENTER
290
1
370
-3
390
0
0
LAYER
5
AB
100
AcDbSymbolTableRecord
100
AcDbLayerTableRecord
2
2
70
0
62
7
6
Continuous
290
1
370
-3
390
0
0
LAYER
5
121
100
AcDbSymbolTableRecord
100
AcDbLayerTableRecord
2
Defpoints
70
0
62
7
6
Continuous
290
0
370
-3
390
0
0
LAYER
5
1f8
100
AcDbSymbolTableRecord
100
AcDbLayerTableRecord
2
SK1
70
0
62
4
6
Continuous
290
1
370
-3
390
0
0
LAYER
5
1f9
100
AcDbSymbolTableRecord
100
AcDbLayerTableRecord
2
SK4
70
0
62
2
6
CENTER
290
1
370
-3
390
0
0
LAYER
5
1fa
100
AcDbSymbolTableRecord
100
AcDbLayerTableRecord
2
SK2
70
0
62
7
6
Continuous
290
1
370
-3
390
0
0
LAYER
5
1fb
100
AcDbSymbolTableRecord
100
AcDbLayerTableRecord
2
SK6
70
0
62
5
6
Continuous
290
1
370
-3
390
0
0
ENDTAB
0
TABLE
2
STYLE
5
20f
100
AcDbSymbolTable
0
STYLE
5
11
100
AcDbSymbolTableRecord
100
AcDbTextStyleTableRecord
2
Standard
3
txt
70
0
71
0
40
0
41
1
42
0
50
0
0
STYLE
5
106
100
AcDbSymbolTableRecord
100
AcDbTextStyleTableRecord
2
iso_b_vert
3
simplex.shx
70
0
71
0
40
0
41
1
42
0
50
0
0
STYLE
5
107
100
AcDbSymbolTableRecord
100
AcDbTextStyleTableRecord
2
DWGDirectTextStyle
3
simplex
70
0
71
0
40
0
41
1
42
0
50
0
0
ENDTAB
0
TABLE
2
DIMSTYLE
5
210
100
AcDbSymbolTable
100
AcDbDimStyleTable
0
DIMSTYLE
105
27
100
AcDbSymbolTableRecord
100
AcDbDimStyleTableRecord
2
Standard
70
0
3
<>
41
0.18
42
0.0625
44
0.18
140
0.18
147
0.09
73
0
74
0
77
1
271
2
275
0
278
52
280
0
340
11
0
ENDTAB
0
TABLE
2
VIEW
5
211
100
AcDbSymbolTable
0
ENDTAB
0
TABLE
2
UCS
5
212
100
AcDbSymbolTable
0
ENDTAB
0
TABLE
2
APPID
5
213
100
AcDbSymbolTable
0
APPID
5
12
100
AcDbSymbolTableRecord
100
AcDbRegAppTableRecord
2
ACAD
70
0
0
APPID
5
11D
100
AcDbSymbolTableRecord
100
AcDbRegAppTableRecord
2
ACAD_DSTYLE_DIMBREAK
70
0
0
APPID
5
1B7
100
AcDbSymbolTableRecord
100
AcDbRegAppTableRecord
2
ACAD_DSTYLE_DIM_LINETYPE
70
0
0
APPID
5
1B8
100
AcDbSymbolTableRecord
100
AcDbRegAppTableRecord
2
ACAD_DSTYLE_DIM_EXT1_LINETYPE
70
0
0
APPID
5
1B9
100
AcDbSymbolTableRecord
100
AcDbRegAppTableRecord
2
ACAD_DSTYLE_DIM_EXT2_LINETYPE
70
0
0
APPID
5
1F4
100
AcDbSymbolTableRecord
100
AcDbRegAppTableRecord
2
ACAD_MLEADERVER
70
0
0
ENDTAB
0
TABLE
2
BLOCK_RECORD
5
214
100
AcDbSymbolTable
0
BLOCK_RECORD
5
1F
100
AcDbSymbolTableRecord
100
AcDbBlockTableRecord
2
*Model_Space
340
0
70
0
0
BLOCK_RECORD
5
1B
100
AcDbSymbolTableRecord
100
AcDbBlockTableRecord
2
*Paper_Space
340
0
70
0
0
BLOCK_RECORD
5
23
100
AcDbSymbolTableRecord
100
AcDbBlockTableRecord
2
*Paper_Space0
340
0
70
0
0
BLOCK_RECORD
5
122
100
AcDbSymbolTableRecord
100
AcDbBlockTableRecord
2
*D1
340
0
70
0
0
BLOCK_RECORD
5
12E
100
AcDbSymbolTableRecord
100
AcDbBlockTableRecord
2
_U0
340
0
70
0
0
BLOCK_RECORD
5
13A
100
AcDbSymbolTableRecord
100
AcDbBlockTableRecord
2
*D3
340
0
70
0
0
BLOCK_RECORD
5
146
100
AcDbSymbolTableRecord
100
AcDbBlockTableRecord
2
_U1
340
0
70
0
0
BLOCK_RECORD
5
152
100
AcDbSymbolTableRecord
100
AcDbBlockTableRecord
2
*D5
340
0
70
0
0
BLOCK_RECORD
5
15E
100
AcDbSymbolTableRecord
100
AcDbBlockTableRecord
2
_U2
340
0
70
0
0
BLOCK_RECORD
5
16A
100
AcDbSymbolTableRecord
100
AcDbBlockTableRecord
2
*D7
340
0
70
0
0
BLOCK_RECORD
5
178
100
AcDbSymbolTableRecord
100
AcDbBlockTableRecord
2
_U3
340
0
70
0
0
BLOCK_RECORD
5
184
100
AcDbSymbolTableRecord
100
AcDbBlockTableRecord
2
*D9
340
0
70
0
0
BLOCK_RECORD
5
190
100
AcDbSymbolTableRecord
100
AcDbBlockTableRecord
2
_U4
340
0
70
0
0
ENDTAB
0
ENDSEC
0
SECTION
2
BLOCKS
0
BLOCK
5
20
100
AcDbEntity
8
0
100
AcDbBlockBegin
2
*Model_Space
70
0
10
0
20
0
30
0
3
*Model_Space
0
ENDBLK
5
21
100
AcDbEntity
8
0
100
AcDbBlockEnd
0
BLOCK
5
1C
100
AcDbEntity
8
0
100
AcDbBlockBegin
2
*Paper_Space
70
0
10
0
20
0
30
0
3
*Paper_Space
0
ENDBLK
5
1D
100
AcDbEntity
8
0
100
AcDbBlockEnd
0
BLOCK
5
24
100
AcDbEntity
8
0
100
AcDbBlockBegin
2
*Paper_Space0
70
0
10
0
20
0
30
0
3
*Paper_Space0
0
ENDBLK
5
25
100
AcDbEntity
8
0
100
AcDbBlockEnd
0
BLOCK
5
123
100
AcDbEntity
8
0
100
AcDbBlockBegin
2
*D1
70
1
10
0
20
0
30
0
3
*D1
0
LINE
5
125
100
AcDbEntity
8
0
62
256
6
ByLayer
370
-2
48
1
60
0
100
AcDbLine
10
0
20
-1.5875
30
0
11
0
21
-18.663398
31
0
39
0
210
0
220
0
230
1
0
LINE
5
126
100
AcDbEntity
8
0
62
256
6
ByLayer
370
-2
48
1
60
0
100
AcDbLine
10
155.079
20
-8.0375
30
0
11
155.079
21
-18.663398
31
0
39
0
210
0
220
0
230
1
0
LINE
5
127
100
AcDbEntity
8
0
62
256
6
ByLayer
370
-2
48
1
60
0
100
AcDbLine
10
3.5
20
-16.663398
30
0
11
151.579
21
-16.663398
31
0
39
0
210
0
220
0
230
1
0
SOLID
5
128
100
AcDbEntity
8
0
62
256
6
ByLayer
370
-1
48
1
60
0
100
AcDbTrace
10
3.5
20
-16.080065
30
0
11
3.5
21
-17.246732
31
0
12
0
22
-16.663398
32
0
13
0
23
-16.663398
33
0
39
0
210
0
220
0
230
1
0
SOLID
5
129
100
AcDbEntity
8
0
62
256
6
ByLayer
370
-1
48
1
60
0
100
AcDbTrace
10
151.579
20
-17.246732
30
0
11
151.579
21
-16.080065
31
0
12
155.079
22
-16.663398
32
0
13
155.079
23
-16.663398
33
0
39
0
210
0
220
0
230
1
0
MTEXT
5
12A
100
AcDbEntity
8
0
62
256
6
ByLayer
370
18
48
1
60
0
100
AcDbMText
10
77.5395
20
-9.663398
30
0
210
0
220
0
230
1
1
\A1;155.08
40
3.5
41
0
44
1
50
0
71
5
72
5
7
iso_b_vert
0
POINT
5
12B
100
AcDbEntity
8
Defpoints
62
0
6
ByLayer
370
-1
48
1
60
0
100
AcDbPoint
10
0
20
0
30
0
39
0
210
0
220
0
230
1
50
360
0
POINT
5
12C
100
AcDbEntity
8
Defpoints
62
0
6
ByLayer
370
-1
48
1
60
0
100
AcDbPoint
10
155.079
20
-6.45
30
0
39
0
210
0
220
0
230
1
50
360
0
POINT
5
12D
100
AcDbEntity
8
Defpoints
62
0
6
ByLayer
370
-1
48
1
60
0
100
AcDbPoint
10
155.079
20
-16.663398
30
0
39
0
210
0
220
0
230
1
50
360
0
ENDBLK
5
124
100
AcDbEntity
8
0
100
AcDbBlockEnd
0
BLOCK
5
135
100
AcDbEntity
8
0
100
AcDbBlockBegin
2
_U0
70
0
10
0
20
0
30
0
3
_U0
0
MTEXT
5
12F
100
AcDbEntity
8
SK2
62
256
6
ByLayer
370
13
48
1
60
0
100
AcDbMText
10
71.531901
20
-15.630765
30
0
210
0
220
0
230
1
1
\W0.6930;155,08
40
3.5
41
0
44
1.084337
50
0
71
7
72
5
7
iso_b_vert
0
LINE
5
130
100
AcDbEntity
8
SK2
62
256
6
ByLayer
370
13
48
1
60
0
100
AcDbLine
10
0
20
-1.5875
30
0
11
0
21
-18.663398
31
0
39
0
210
0
220
0
230
1
0
LINE
5
131
100
AcDbEntity
8
SK2
62
256
6
ByLayer
370
13
48
1
60
0
100
AcDbLine
10
155.079
20
-8.0375
30
0
11
155.079
21
-18.663398
31
0
39
0
210
0
220
0
230
1
0
LINE
5
132
100
AcDbEntity
8
SK2
62
256
6
ByLayer
370
13
48
1
60
0
100
AcDbLine
10
0
20
-16.663398
30
0
11
155.079
21
-16.663398
31
0
39
0
210
0
220
0
230
1
0
SOLID
5
133
100
AcDbEntity
8
SK2
62
256
6
ByLayer
370
18
48
1
60
0
100
AcDbTrace
10
0
20
-16.663398
30
0
11
3.499998
21
-16.202615
31
0
12
3.500002
22
-17.124182
32
0
13
3.500002
23
-17.124182
33
0
39
0
210
0
220
0
230
1
0
SOLID
5
134
100
AcDbEntity
8
SK2
62
256
6
ByLayer
370
18
48
1
60
0
100
AcDbTrace
10
155.079
20
-16.663398
30
0
11
151.579002
21
-17.124182
31
0
12
151.578998
22
-16.202615
32
0
13
151.578998
23
-16.202615
33
0
39
0
210
0
220
0
230
1
0
ENDBLK
5
136
100
AcDbEntity
8
0
100
AcDbBlockEnd
0
BLOCK
5
13B
100
AcDbEntity
8
0
100
AcDbBlockBegin
2
*D3
70
1
10
0
20
0
30
0
3
*D3
0
LINE
5
13D
100
AcDbEntity
8
0
62
256
6
ByLayer
370
-2
48
1
60
0
100
AcDbLine
10
-45
20
-8.5875
30
0
11
-45
21
-37.692985
31
0
39
0
210
0
220
0
230
1
0
LINE
5
13E
100
AcDbEntity
8
0
62
256
6
ByLayer
370
-2
48
1
60
0
100
AcDbLine
10
157
20
-1.5875
30
0
11
157
21
-37.692985
31
0
39
0
210
0
220
0
230
1
0
LINE
5
13F
100
AcDbEntity
8
0
62
256
6
ByLayer
370
-2
48
1
60
0
100
AcDbLine
10
-41.5
20
-35.692985
30
0
11
153.5
21
-35.692985
31
0
39
0
210
0
220
0
230
1
0
SOLID
5
140
100
AcDbEntity
8
0
62
256
6
ByLayer
370
-1
48
1
60
0
100
AcDbTrace
10
-41.5
20
-35.109652
30
0
11
-41.5
21
-36.276319
31
0
12
-45
22
-35.692985
32
0
13
-45
23
-35.692985
33
0
39
0
210
0
220
0
230
1
0
SOLID
5
141
100
AcDbEntity
8
0
62
256
6
ByLayer
370
-1
48
1
60
0
100
AcDbTrace
10
153.5
20
-36.276319
30
0
11
153.5
21
-35.109652
31
0
12
157
22
-35.692985
32
0
13
157
23
-35.692985
33
0
39
0
210
0
220
0
230
1
0
MTEXT
5
142
100
AcDbEntity
8
0
62
256
6
ByLayer
370
18
48
1
60
0
100
AcDbMText
10
56
20
-28.692985
30
0
210
0
220
0
230
1
1
\A1;202.00
40
3.5
41
0
44
1
50
0
71
5
72
5
7
iso_b_vert
0
POINT
5
143
100
AcDbEntity
8
Defpoints
62
0
6
ByLayer
370
-1
48
1
60
0
100
AcDbPoint
10
-45
20
-7
30
0
39
0
210
0
220
0
230
1
50
360
0
POINT
5
144
100
AcDbEntity
8
Defpoints
62
0
6
ByLayer
370
-1
48
1
60
0
100
AcDbPoint
10
157
20
0
30
0
39
0
210
0
220
0
230
1
50
360
0
POINT
5
145
100
AcDbEntity
8
Defpoints
62
0
6
ByLayer
370
-1
48
1
60
0
100
AcDbPoint
10
157
20
-35.692985
30
0
39
0
210
0
220
0
230
1
50
360
0
ENDBLK
5
13C
100
AcDbEntity
8
0
100
AcDbBlockEnd
0
BLOCK
5
14D
100
AcDbEntity
8
0
100
AcDbBlockBegin
2
_U1
70
0
10
0
20
0
30
0
3
_U1
0
MTEXT
5
147
100
AcDbEntity
8
SK2
62
256
6
ByLayer
370
13
48
1
60
0
100
AcDbMText
10
49.554968
20
-34.660352
30
0
210
0
220
0
230
1
1
\W0.7421;202,00
40
3.5
41
0
44
1.084337
50
0
71
7
72
5
7
iso_b_vert
0
LINE
5
148
100
AcDbEntity
8
SK2
62
256
6
ByLayer
370
13
48
1
60
0
100
AcDbLine
10
-45
20
-8.5875
30
0
11
-45
21
-37.692985
31
0
39
0
210
0
220
0
230
1
0
LINE
5
149
100
AcDbEntity
8
SK2
62
256
6
ByLayer
370
13
48
1
60
0
100
AcDbLine
10
157
20
-1.5875
30
0
11
157
21
-37.692985
31
0
39
0
210
0
220
0
230
1
0
LINE
5
14A
100
AcDbEntity
8
SK2
62
256
6
ByLayer
370
13
48
1
60
0
100
AcDbLine
10
-45
20
-35.692985
30
0
11
157
21
-35.692985
31
0
39
0
210
0
220
0
230
1
0
SOLID
5
14B
100
AcDbEntity
8
SK2
62
256
6
ByLayer
370
18
48
1
60
0
100
AcDbTrace
10
-45
20
-35.692985
30
0
11
-41.500002
21
-35.232202
31
0
12
-41.499998
22
-36.153769
32
0
13
-41.499998
23
-36.153769
33
0
39
0
210
0
220
0
230
1
0
SOLID
5
14C
100
AcDbEntity
8
SK2
62
256
6
ByLayer
370
18
48
1
60
0
100
AcDbTrace
10
157
20
-35.692985
30
0
11
153.500002
21
-36.153769
31
0
12
153.499998
22
-35.232202
32
0
13
153.499998
23
-35.232202
33
0
39
0
210
0
220
0
230
1
0
ENDBLK
5
14E
100
AcDbEntity
8
0
100
AcDbBlockEnd
0
BLOCK
5
153
100
AcDbEntity
8
0
100
AcDbBlockBegin
2
*D5
70
1
10
0
20
0
30
0
3
*D5
0
LINE
5
155
100
AcDbEntity
8
0
62
256
6
ByLayer
370
-2
48
1
60
0
100
AcDbLine
10
51.88
20
8.0375
30
0
11
51.88
21
20.059119
31
0
39
0
210
0
220
0
230
1
0
LINE
5
156
100
AcDbEntity
8
0
62
256
6
ByLayer
370
-2
48
1
60
0
100
AcDbLine
10
157
20
1.5875
30
0
11
157
21
20.059119
31
0
39
0
210
0
220
0
230
1
0
LINE
5
157
100
AcDbEntity
8
0
62
256
6
ByLayer
370
-2
48
1
60
0
100
AcDbLine
10
55.38
20
18.059119
30
0
11
153.5
21
18.059119
31
0
39
0
210
0
220
0
230
1
0
SOLID
5
158
100
AcDbEntity
8
0
62
256
6
ByLayer
370
-1
48
1
60
0
100
AcDbTrace
10
55.38
20
18.642453
30
0
11
55.38
21
17.475786
31
0
12
51.88
22
18.059119
32
0
13
51.88
23
18.059119
33
0
39
0
210
0
220
0
230
1
0
SOLID
5
159
100
AcDbEntity
8
0
62
256
6
ByLayer
370
-1
48
1
60
0
100
AcDbTrace
10
153.5
20
17.475786
30
0
11
153.5
21
18.642453
31
0
12
157
22
18.059119
32
0
13
157
23
18.059119
33
0
39
0
210
0
220
0
230
1
0
MTEXT
5
15A
100
AcDbEntity
8
0
62
256
6
ByLayer
370
18
48
1
60
0
100
AcDbMText
10
104.44
20
25.059119
30
0
210
0
220
0
230
1
1
\A1;105.12
40
3.5
41
0
44
1
50
0
71
5
72
5
7
iso_b_vert
0
POINT
5
15B
100
AcDbEntity
8
Defpoints
62
0
6
ByLayer
370
-1
48
1
60
0
100
AcDbPoint
10
51.88
20
6.45
30
0
39
0
210
0
220
0
230
1
50
360
0
POINT
5
15C
100
AcDbEntity
8
Defpoints
62
0
6
ByLayer
370
-1
48
1
60
0
100
AcDbPoint
10
157
20
0
30
0
39
0
210
0
220
0
230
1
50
360
0
POINT
5
15D
100
AcDbEntity
8
Defpoints
62
0
6
ByLayer
370
-1
48
1
60
0
100
AcDbPoint
10
157
20
18.059119
30
0
39
0
210
0
220
0
230
1
50
360
0
ENDBLK
5
154
100
AcDbEntity
8
0
100
AcDbBlockEnd
0
BLOCK
5
165
100
AcDbEntity
8
0
100
AcDbBlockBegin
2
_U2
70
0
10
0
20
0
30
0
3
_U2
0
MTEXT
5
15F
100
AcDbEntity
8
SK2
62
256
6
ByLayer
370
13
48
1
60
0
100
AcDbMText
10
98.869835
20
19.091753
30
0
210
0
220
0
230
1
1
\W0.6440;105,12
40
3.5
41
0
44
1.084337
50
0
71
7
72
5
7
iso_b_vert
0
LINE
5
160
100
AcDbEntity
8
SK2
62
256
6
ByLayer
370
13
48
1
60
0
100
AcDbLine
10
51.88
20
8.0375
30
0
11
51.88
21
20.059119
31
0
39
0
210
0
220
0
230
1
0
LINE
5
161
100
AcDbEntity
8
SK2
62
256
6
ByLayer
370
13
48
1
60
0
100
AcDbLine
10
157
20
1.5875
30
0
11
157
21
20.059119
31
0
39
0
210
0
220
0
230
1
0
LINE
5
162
100
AcDbEntity
8
SK2
62
256
6
ByLayer
370
13
48
1
60
0
100
AcDbLine
10
51.88
20
18.059119
30
0
11
157
21
18.059119
31
0
39
0
210
0
220
0
230
1
0
SOLID
5
163
100
AcDbEntity
8
SK2
62
256
6
ByLayer
370
18
48
1
60
0
100
AcDbTrace
10
51.88
20
18.059119
30
0
11
55.379998
21
18.519903
31
0
12
55.380002
22
17.598335
32
0
13
55.380002
23
17.598335
33
0
39
0
210
0
220
0
230
1
0
SOLID
5
164
100
AcDbEntity
8
SK2
62
256
6
ByLayer
370
18
48
1
60
0
100
AcDbTrace
10
157
20
18.059119
30
0
11
153.500002
21
17.598335
31
0
12
153.499998
22
18.519903
32
0
13
153.499998
23
18.519903
33
0
39
0
210
0
220
0
230
1
0
ENDBLK
5
166
100
AcDbEntity
8
0
100
AcDbBlockEnd
0
BLOCK
5
16B
100
AcDbEntity
8
0
100
AcDbBlockBegin
2
*D7
70
1
10
0
20
0
30
0
3
*D7
0
LINE
5
16D
100
AcDbEntity
8
0
62
256
6
ByLayer
370
-2
48
1
60
0
100
AcDbLine
10
157
20
-1.5875
30
0
11
157
21
-21.252503
31
0
39
0
210
0
220
0
230
1
0
LINE
5
16E
100
AcDbEntity
8
0
62
256
6
ByLayer
370
-2
48
1
60
0
100
AcDbLine
10
155.079
20
-8.0375
30
0
11
155.079
21
-21.252503
31
0
39
0
210
0
220
0
230
1
0
LINE
5
16F
100
AcDbEntity
8
0
62
256
6
ByLayer
370
-2
48
1
60
0
100
AcDbLine
10
157
20
-19.252503
30
0
11
184.666667
21
-19.252503
31
0
39
0
210
0
220
0
230
1
0
LINE
5
170
100
AcDbEntity
8
0
62
256
6
ByLayer
370
-2
48
1
60
0
100
AcDbLine
10
160.5
20
-19.252503
30
0
11
164
21
-19.252503
31
0
39
0
210
0
220
0
230
1
0
LINE
5
171
100
AcDbEntity
8
0
62
256
6
ByLayer
370
-2
48
1
60
0
100
AcDbLine
10
151.579
20
-19.252503
30
0
11
148.079
21
-19.252503
31
0
39
0
210
0
220
0
230
1
0
SOLID
5
172
100
AcDbEntity
8
0
62
256
6
ByLayer
370
-1
48
1
60
0
100
AcDbTrace
10
160.5
20
-18.66917
30
0
11
160.5
21
-19.835837
31
0
12
157
22
-19.252503
32
0
13
157
23
-19.252503
33
0
39
0
210
0
220
0
230
1
0
SOLID
5
173
100
AcDbEntity
8
0
62
256
6
ByLayer
370
-1
48
1
60
0
100
AcDbTrace
10
151.579
20
-19.835837
30
0
11
151.579
21
-18.66917
31
0
12
155.079
22
-19.252503
32
0
13
155.079
23
-19.252503
33
0
39
0
210
0
220
0
230
1
0
MTEXT
5
174
100
AcDbEntity
8
0
62
256
6
ByLayer
370
18
48
1
60
0
100
AcDbMText
10
174.333333
20
-12.252503
30
0
210
0
220
0
230
1
1
\A1;1.92
40
3.5
41
0
44
1
50
0
71
5
72
5
7
iso_b_vert
0
POINT
5
175
100
AcDbEntity
8
Defpoints
62
0
6
ByLayer
370
-1
48
1
60
0
100
AcDbPoint
10
157
20
0
30
0
39
0
210
0
220
0
230
1
50
360
0
POINT
5
176
100
AcDbEntity
8
Defpoints
62
0
6
ByLayer
370
-1
48
1
60
0
100
AcDbPoint
10
155.079
20
-6.45
30
0
39
0
210
0
220
0
230
1
50
360
0
POINT
5
177
100
AcDbEntity
8
Defpoints
62
0
6
ByLayer
370
-1
48
1
60
0
100
AcDbPoint
10
155.079
20
-19.252503
30
0
39
0
210
0
220
0
230
1
50
360
0
ENDBLK
5
16C
100
AcDbEntity
8
0
100
AcDbBlockEnd
0
BLOCK
5
17F
100
AcDbEntity
8
0
100
AcDbBlockBegin
2
_U3
70
0
10
0
20
0
30
0
3
_U3
0
MTEXT
5
179
100
AcDbEntity
8
SK2
62
256
6
ByLayer
370
13
48
1
60
0
100
AcDbMText
10
163.589293
20
-18.21987
30
0
210
0
220
0
230
1
1
\W0.6367;1,92
40
3.5
41
0
44
1.084337
50
0
71
7
72
5
7
iso_b_vert
0
LINE
5
17A
100
AcDbEntity
8
SK2
62
256
6
ByLayer
370
13
48
1
60
0
100
AcDbLine
10
157
20
-1.5875
30
0
11
157
21
-21.252503
31
0
39
0
210
0
220
0
230
1
0
LINE
5
17B
100
AcDbEntity
8
SK2
62
256
6
ByLayer
370
13
48
1
60
0
100
AcDbLine
10
155.079
20
-8.0375
30
0
11
155.079
21
-21.252503
31
0
39
0
210
0
220
0
230
1
0
LINE
5
17C
100
AcDbEntity
8
SK2
62
256
6
ByLayer
370
13
48
1
60
0
100
AcDbLine
10
146.329
20
-19.252503
30
0
11
170.559058
21
-19.252503
31
0
39
0
210
0
220
0
230
1
0
SOLID
5
17D
100
AcDbEntity
8
SK2
62
256
6
ByLayer
370
18
48
1
60
0
100
AcDbTrace
10
157
20
-19.252503
30
0
11
160.499998
21
-18.791719
31
0
12
160.500002
22
-19.713287
32
0
13
160.500002
23
-19.713287
33
0
39
0
210
0
220
0
230
1
0
SOLID
5
17E
100
AcDbEntity
8
SK2
62
256
6
ByLayer
370
18
48
1
60
0
100
AcDbTrace
10
155.079
20
-19.252503
30
0
11
151.579002
21
-19.713287
31
0
12
151.578998
22
-18.791719
32
0
13
151.578998
23
-18.791719
33
0
39
0
210
0
220
0
230
1
0
ENDBLK
5
180
100
AcDbEntity
8
0
100
AcDbBlockEnd
0
BLOCK
5
185
100
AcDbEntity
8
0
100
AcDbBlockBegin
2
*D9
70
1
10
0
20
0
30
0
3
*D9
0
LINE
5
187
100
AcDbEntity
8
0
62
256
6
ByLayer
370
-2
48
1
60
0
100
AcDbLine
10
-45
20
-8.5875
30
0
11
-45
21
-27.343428
31
0
39
0
210
0
220
0
230
1
0
LINE
5
188
100
AcDbEntity
8
0
62
256
6
ByLayer
370
-2
48
1
60
0
100
AcDbLine
10
155.079
20
-8.0375
30
0
11
155.079
21
-27.343428
31
0
39
0
210
0
220
0
230
1
0
LINE
5
189
100
AcDbEntity
8
0
62
256
6
ByLayer
370
-2
48
1
60
0
100
AcDbLine
10
-41.5
20
-25.343428
30
0
11
151.579
21
-25.343428
31
0
39
0
210
0
220
0
230
1
0
SOLID
5
18A
100
AcDbEntity
8
0
62
256
6
ByLayer
370
-1
48
1
60
0
100
AcDbTrace
10
-41.5
20
-24.760095
30
0
11
-41.5
21
-25.926762
31
0
12
-45
22
-25.343428
32
0
13
-45
23
-25.343428
33
0
39
0
210
0
220
0
230
1
0
SOLID
5
18B
100
AcDbEntity
8
0
62
256
6
ByLayer
370
-1
48
1
60
0
100
AcDbTrace
10
151.579
20
-25.926762
30
0
11
151.579
21
-24.760095
31
0
12
155.079
22
-25.343428
32
0
13
155.079
23
-25.343428
33
0
39
0
210
0
220
0
230
1
0
MTEXT
5
18C
100
AcDbEntity
8
0
62
256
6
ByLayer
370
18
48
1
60
0
100
AcDbMText
10
55.0395
20
-18.343428
30
0
210
0
220
0
230
1
1
\A1;200.08
40
3.5
41
0
44
1
50
0
71
5
72
5
7
iso_b_vert
0
POINT
5
18D
100
AcDbEntity
8
Defpoints
62
0
6
ByLayer
370
-1
48
1
60
0
100
AcDbPoint
10
-45
20
-7
30
0
39
0
210
0
220
0
230
1
50
360
0
POINT
5
18E
100
AcDbEntity
8
Defpoints
62
0
6
ByLayer
370
-1
48
1
60
0
100
AcDbPoint
10
155.079
20
-6.45
30
0
39
0
210
0
220
0
230
1
50
360
0
POINT
5
18F
100
AcDbEntity
8
Defpoints
62
0
6
ByLayer
370
-1
48
1
60
0
100
AcDbPoint
10
155.079
20
-25.343428
30
0
39
0
210
0
220
0
230
1
50
360
0
ENDBLK
5
186
100
AcDbEntity
8
0
100
AcDbBlockEnd
0
BLOCK
5
197
100
AcDbEntity
8
0
100
AcDbBlockBegin
2
_U4
70
0
10
0
20
0
30
0
3
_U4
0
MTEXT
5
191
100
AcDbEntity
8
SK2
62
256
6
ByLayer
370
13
48
1
60
0
100
AcDbMText
10
48.594468
20
-24.310795
30
0
210
0
220
0
230
1
1
\W0.7421;200,08
40
3.5
41
0
44
1.084337
50
0
71
7
72
5
7
iso_b_vert
0
LINE
5
192
100
AcDbEntity
8
SK2
62
256
6
ByLayer
370
13
48
1
60
0
100
AcDbLine
10
-45
20
-8.5875
30
0
11
-45
21
-27.343428
31
0
39
0
210
0
220
0
230
1
0
LINE
5
193
100
AcDbEntity
8
SK2
62
256
6
ByLayer
370
13
48
1
60
0
100
AcDbLine
10
155.079
20
-8.0375
30
0
11
155.079
21
-27.343428
31
0
39
0
210
0
220
0
230
1
0
LINE
5
194
100
AcDbEntity
8
SK2
62
256
6
ByLayer
370
13
48
1
60
0
100
AcDbLine
10
-45
20
-25.343428
30
0
11
155.079
21
-25.343428
31
0
39
0
210
0
220
0
230
1
0
SOLID
5
195
100
AcDbEntity
8
SK2
62
256
6
ByLayer
370
18
48
1
60
0
100
AcDbTrace
10
-45
20
-25.343428
30
0
11
-41.500002
21
-24.882645
31
0
12
-41.499998
22
-25.804212
32
0
13
-41.499998
23
-25.804212
33
0
39
0
210
0
220
0
230
1
0
SOLID
5
196
100
AcDbEntity
8
SK2
62
256
6
ByLayer
370
18
48
1
60
0
100
AcDbTrace
10
155.079
20
-25.343428
30
0
11
151.579002
21
-25.804212
31
0
12
151.578998
22
-24.882645
32
0
13
151.578998
23
-24.882645
33
0
39
0
210
0
220
0
230
1
0
ENDBLK
5
198
100
AcDbEntity
8
0
100
AcDbBlockEnd
0
ENDSEC
0
SECTION
2
ENTITIES
0
ARC
5
B4
100
AcDbEntity
8
1
62
256
6
ByLayer
370
18
48
1
60
0
100
AcDbCircle
39
0
10
1.284496
20
-7.153976
30
0
40
0.8
210
0
220
0
230
1
100
AcDbArc
50
89.96419
51
143.399259
0
ARC
5
B5
100
AcDbEntity
8
1
62
256
6
ByLayer
370
18
48
1
60
0
100
AcDbCircle
39
0
10
1.284496
20
7.153976
30
0
40
0.8
210
0
220
0
230
1
100
AcDbArc
50
216.600741
51
270.03581
0
ARC
5
B6
100
AcDbEntity
8
1
62
256
6
ByLayer
370
18
48
1
60
0
100
AcDbCircle
39
0
10
0
20
-6.2
30
0
40
0.799999999999999
210
0
220
0
230
1
100
AcDbArc
50
270
51
323.399259
0
ARC
5
B7
100
AcDbEntity
8
1
62
256
6
ByLayer
370
18
48
1
60
0
100
AcDbCircle
39
0
10
0
20
6.2
30
0
40
0.799999999999999
210
0
220
0
230
1
100
AcDbArc
50
36.600741
51
90
0
ELLIPSE
5
B8
100
AcDbEntity
8
1
62
256
6
ByLayer
370
18
48
1
60
0
100
AcDbEllipse
10
8.25
20
6.253622
30
0
11
0.25
21
0
31
0
210
0
220
0
230
1
40
0.999992
41
-3.13668915734077
42
-1.55503225322302
0
ELLIPSE
5
B9
100
AcDbEntity
8
1
62
256
6
ByLayer
370
18
48
1
60
0
100
AcDbEllipse
10
8.25
20
-6.253622
30
0
11
0.25
21
0
31
0
210
0
220
0
230
1
40
0.999992
41
1.5845567182351
42
3.13668915734066
0
POINT
5
70
100
AcDbEntity
8
80
62
256
6
ByLayer
370
18
48
1
60
0
100
AcDbPoint
10
0
20
0
30
0
39
0
210
0
220
0
230
1
50
360
0
POINT
5
72
100
AcDbEntity
8
81
62
256
6
ByLayer
370
18
48
1
60
0
100
AcDbPoint
10
157
20
0
30
0
39
0
210
0
220
0
230
1
50
360
0
POINT
5
74
100
AcDbEntity
8
1
62
256
6
ByLayer
370
18
48
1
60
1
100
AcDbPoint
10
155.079
20
-6.45
30
0
39
0
210
0
220
0
230
1
50
360
0
POINT
5
76
100
AcDbEntity
8
1
62
256
6
ByLayer
370
18
48
1
60
1
100
AcDbPoint
10
-45
20
-7
30
0
39
0
210
0
220
0
230
1
50
360
0
POINT
5
77
100
AcDbEntity
8
1
62
256
6
ByLayer
370
18
48
1
60
1
100
AcDbPoint
10
51.88
20
6.45
30
0
39
0
210
0
220
0
230
1
50
360
0
POINT
5
78
100
AcDbEntity
8
1
62
256
6
ByLayer
370
18
48
1
60
1
100
AcDbPoint
10
155.079
20
-6.45
30
0
39
0
210
0
220
0
230
1
50
360
0
POINT
5
79
100
AcDbEntity
8
1
62
256
6
ByLayer
370
18
48
1
60
1
100
AcDbPoint
10
-45
20
-7
30
0
39
0
210
0
220
0
230
1
50
360
0
POINT
5
7A
100
AcDbEntity
8
1
62
256
6
ByLayer
370
18
48
1
60
1
100
AcDbPoint
10
155.079
20
-6.45
30
0
39
0
210
0
220
0
230
1
50
360
0
SPLINE
5
BA
100
AcDbEntity
8
SK1
62
256
6
ByLayer
370
18
48
1
60
0
100
AcDbSpline
70
4
71
3
72
12
73
8
40
0
40
0
40
0
40
0
40
0.25
40
0.25
40
0.5
40
0.5
40
1
40
1
40
1
40
1
41
1
10
-43.9
20
-1.27872367848914
30
0
41
1
10
-43.9
20
-1.26219546637873
30
0
41
1
10
-43.9042016956282
20
-1.24512766578999
30
0
41
1
10
-43.9170234176167
20
-1.21453632483167
30
0
41
1
10
-43.9254954864758
20
-1.20095000716179
30
0
41
1
10
-43.9538426693661
20
-1.16544451430318
30
0
41
1
10
-43.9765304760167
20
-1.14857563331338
30
0
41
1
10
-44
20
-1.139296363856
30
0
0
SPLINE
5
BB
100
AcDbEntity
8
SK1
62
256
6
ByLayer
370
18
48
1
60
0
100
AcDbSpline
70
4
71
3
72
8
73
4
40
0
40
0
40
0
40
0
40
1
40
1
40
1
40
1
41
1
10
-44
20
-1.139296363856
30
0
41
1
10
-44.334097907528
20
-1.0072023123829
30
0
41
1
10
-44.6675868217785
20
-0.874882512419873
30
0
41
1
10
-45
20
-0.742163946504945
30
0
0
SPLINE
5
BC
100
AcDbEntity
8
SK1
62
256
6
ByLayer
370
18
48
1
60
0
100
AcDbSpline
70
4
71
3
72
12
73
8
40
0
40
0
40
0
40
0
40
0.499999999999993
40
0.499999999999993
40
0.749999999999997
40
0.749999999999997
40
1
40
1
40
1
40
1
41
1
10
-44
20
-3.44464406958735
30
0
41
1
10
-43.9765248032773
20
-3.45392558190562
30
0
41
1
10
-43.9537853574511
20
-3.45623968935993
30
0
41
1
10
-43.9256353788013
20
-3.44706678037946
30
0
41
1
10
-43.9170526356788
20
-3.44172767014106
30
0
41
1
10
-43.9042470853815
20
-3.42523670998057
30
0
41
1
10
-43.9
20
-3.41370938321907
30
0
41
1
10
-43.9
20
-3.39964356776196
30
0
0
SPLINE
5
BD
100
AcDbEntity
8
SK1
62
256
6
ByLayer
370
18
48
1
60
0
100
AcDbSpline
70
4
71
3
72
8
73
4
40
0
40
0
40
0
40
0
40
1
40
1
40
1
40
1
41
1
10
-45
20
-3.04751165223629
30
0
41
1
10
-44.6675775816006
20
-3.18023390736462
30
0
41
1
10
-44.3340901911705
20
-3.31255306897123
30
0
41
1
10
-44
20
-3.44464406958735
30
0
0
SPLINE
5
BE
100
AcDbEntity
8
1
62
256
6
ByLayer
370
18
48
1
60
0
100
AcDbSpline
70
4
71
3
72
10
73
6
40
0
40
0
40
0
40
0
40
0.5
40
0.5
40
1
40
1
40
1
40
1
41
1
10
156.975196044807
20
0.16022301023375
30
0
41
1
10
156.977157978692
20
0.144432360566242
30
0
41
1
10
156.980442815573
20
0.12670864419033
30
0
41
1
10
156.988891108777
20
0.0885126544588388
30
0
41
1
10
156.994072368814
20
0.0680940835138983
30
0
41
1
10
156.999957017755
20
0.0471844358553142
30
0
0
SPLINE
5
BF
100
AcDbEntity
8
1
62
256
6
ByLayer
370
18
48
1
60
0
100
AcDbSpline
70
4
71
3
72
10
73
6
40
0
40
0
40
0
40
0
40
0.5
40
0.5
40
1
40
1
40
1
40
1
41
1
10
154.92256356255
20
-6.27249527274995
30
0
41
1
10
155.234812056577
20
-5.48621337060462
30
0
41
1
10
155.546686998461
20
-4.69895090513651
30
0
41
1
10
156.166414402974
20
-3.12089290441335
30
0
41
1
10
156.474328614463
20
-2.33027943888433
30
0
41
1
10
156.778471038373
20
-1.53883403456146
30
0
0
SPLINE
5
C0
100
AcDbEntity
8
1
62
256
6
ByLayer
370
18
48
1
60
0
100
AcDbSpline
70
4
71
3
72
10
73
6
40
0
40
0
40
0
40
0
40
0.5
40
0.5
40
1
40
1
40
1
40
1
41
1
10
156.975196044808
20
-0.160223010232528
30
0
41
1
10
156.977157978692
20
-0.144432360565332
30
0
41
1
10
156.980442815573
20
-0.12670864418962
30
0
41
1
10
156.988891108777
20
-0.0885126544588104
30
0
41
1
10
156.994072368814
20
-0.0680940835141541
30
0
41
1
10
156.999957017755
20
-0.0471844358558826
30
0
0
SPLINE
5
C1
100
AcDbEntity
8
1
62
256
6
ByLayer
370
18
48
1
60
0
100
AcDbSpline
70
4
71
3
72
14
73
10
40
0
40
0
40
0
40
0
40
0.25
40
0.25
40
0.5
40
0.5
40
0.75
40
0.75
40
1
40
1
40
1
40
1
41
1
10
154.635499333289
20
1.45949429319737
30
0
41
1
10
154.63181138402
20
1.47466397042623
30
0
41
1
10
154.630906240112
20
1.49064213686509
30
0
41
1
10
154.638084983137
20
1.52075448130768
30
0
41
1
10
154.64662502167
20
1.5348620199523
30
0
41
1
10
154.670400987036
20
1.55547946808983
30
0
41
1
10
154.685043592985
20
1.56213238946228
30
0
41
1
10
154.715207564662
20
1.56999444388785
30
0
41
1
10
154.730947183671
20
1.57134081404808
30
0
41
1
10
154.746585988627
20
1.57098655752179
30
0
0
SPLINE
5
C2
100
AcDbEntity
8
1
62
256
6
ByLayer
370
18
48
1
60
0
100
AcDbSpline
70
4
71
3
72
37
73
33
40
0
40
0
40
0
40
0
40
0.0150154045557533
40
0.0150154045557533
40
0.111756481284604
40
0.111756481284604
40
0.305238634742305
40
0.305238634742305
40
0.401979711471155
40
0.401979711471155
40
0.498720788200006
40
0.498720788200006
40
0.522906057382219
40
0.534998691973325
40
0.541045009268878
40
0.541045009268878
40
0.547091326564431
40
0.547091326564431
40
0.553137643859984
40
0.553137643859984
40
0.559183961155538
40
0.559183961155538
40
0.571276595746644
40
0.595461864928857
40
0.595461864928857
40
0.692202941657707
40
0.692202941657707
40
0.788944018386558
40
0.788944018386558
40
0.885685095115408
40
0.885685095115408
40
1
40
1
40
1
40
1
41
1
10
11.6237560741695
20
3.50599273060516
30
0
41
1
10
11.6237560741695
20
3.47100910431843
30
0
41
1
10
11.6237560741695
20
3.43586553658864
30
0
41
1
10
11.6237560741695
20
3.17318946077691
30
0
41
1
10
11.6237560741695
20
2.93906596982967
30
0
41
1
10
11.6237560741695
20
2.21731328060432
30
0
41
1
10
11.6237560741695
20
1.71039775892442
30
0
41
1
10
11.6237560741695
20
0.912722746828621
30
0
41
1
10
11.6237560741695
20
0.640588821770081
30
0
41
1
10
11.6237560741695
20
0.083767493161929
30
0
41
1
10
11.6237560741695
20
-0.201192688236262
30
0
41
1
10
11.6237560741695
20
-0.563386831635768
30
0
41
1
10
11.6237560741697
20
-0.672525470603745
30
0
41
1
10
11.6237560741695
20
-0.800695515205206
30
0
41
1
10
11.6237560741695
20
-0.855806060941291
30
0
41
1
10
11.6237560741695
20
-0.892586563530671
30
0
41
1
10
11.6237560741697
20
-0.911699831434731
30
0
41
1
10
11.6237560741697
20
-0.952157162967865
30
0
41
1
10
11.6237560741695
20
-0.973659269784605
30
0
41
1
10
11.6237560741695
20
-1.01731863077242
30
0
41
1
10
11.6237560741695
20
-1.03946356722332
30
0
41
1
10
11.6237560741695
20
-1.10552482313588
30
0
41
1
10
11.6237560741695
20
-1.23773275031175
30
0
41
1
10
11.6237560741695
20
-1.37019861636654
30
0
41
1
10
11.6237560741695
20
-1.81233280943511
30
0
41
1
10
11.6237560741695
20
-2.16792764011546
30
0
41
1
10
11.6237560741695
20
-2.88068727100335
30
0
41
1
10
11.6237560741695
20
-3.23813497834945
30
0
41
1
10
11.6237560741695
20
-3.9553144614467
30
0
41
1
10
11.6237560741695
20
-4.31562904368838
30
0
41
1
10
11.6237560741695
20
-5.10150764061052
30
0
41
1
10
11.6237560741695
20
-5.52542799541618
30
0
41
1
10
11.6237560741695
20
-5.94744000364773
30
0
0
SPLINE
5
C3
100
AcDbEntity
8
1
62
256
6
ByLayer
370
18
48
1
60
0
100
AcDbSpline
70
4
71
3
72
8
73
4
40
0
40
0
40
0
40
0
40
1
40
1
40
1
40
1
41
1
10
156.778471038373
20
-1.53883403456146
30
0
41
1
10
156.852515213821
20
-1.07923081982983
30
0
41
1
10
156.918108396449
20
-0.619693669596955
30
0
41
1
10
156.975196044807
20
-0.160223010233267
30
0
0
SPLINE
5
C4
100
AcDbEntity
8
1
62
256
6
ByLayer
370
18
48
1
60
0
100
AcDbSpline
70
4
71
3
72
18
73
14
40
0
40
0
40
0
40
0
40
0.125
40
0.125
40
0.25
40
0.25
40
0.375
40
0.375
40
0.5
40
0.5
40
0.75
40
0.75
40
1
40
1
40
1
40
1
41
1
10
7.99999968652759
20
-4.23068730077591
30
0
41
1
10
7.99999968652756
20
-4.21029747280332
30
0
41
1
10
8.00189394418948
20
-4.19054117466996
30
0
41
1
10
8.01089027253741
20
-4.15532256110365
30
0
41
1
10
8.01814527122897
20
-4.14001365179328
30
0
41
1
10
8.0371051380115
20
-4.11806017636255
30
0
41
1
10
8.04882900227418
20
-4.11129748614999
30
0
41
1
10
8.07351645490434
20
-4.10533782157773
30
0
41
1
10
8.08668274401285
20
-4.10590876108989
30
0
41
1
10
8.12576122223922
20
-4.11436308569432
30
0
41
1
10
8.15206323502633
20
-4.12871751598379
30
0
41
1
10
8.20225118533443
20
-4.16459649392431
30
0
41
1
10
8.22674321963035
20
-4.18668555028077
30
0
41
1
10
8.2503502838297
20
-4.21126417878799
30
0
0
SPLINE
5
C5
100
AcDbEntity
8
1
62
256
6
ByLayer
370
18
48
1
60
0
100
AcDbSpline
70
4
71
3
72
8
73
4
40
0
40
0
40
0
40
0
40
1
40
1
40
1
40
1
41
1
10
156.778471038372
20
1.53883403456189
30
0
41
1
10
156.852516384245
20
1.07922355483473
30
0
41
1
10
156.918109300748
20
0.619686391336501
30
0
41
1
10
156.975196044807
20
0.160223010233693
30
0
0
SPLINE
5
C6
100
AcDbEntity
8
1
62
256
6
ByLayer
370
18
48
1
60
0
100
AcDbSpline
70
4
71
3
72
38
73
34
40
0
40
0
40
0
40
0
40
0.12500000000001
40
0.12500000000001
40
0.25000000000002
40
0.25000000000002
40
0.312500000000025
40
0.312500000000025
40
0.37500000000003
40
0.37500000000003
40
0.500000000000033
40
0.500000000000033
40
0.562500000000038
40
0.562500000000038
40
0.625000000000042
40
0.625000000000042
40
0.750000000000046
40
0.750000000000046
40
0.812500000000048
40
0.812500000000048
40
0.828125000000047
40
0.828125000000047
40
0.835937500000045
40
0.835937500000045
40
0.843750000000043
40
0.843750000000043
40
0.851562500000041
40
0.851562500000041
40
0.859375000000039
40
0.859375000000039
40
0.875000000000035
40
0.875000000000035
40
1
40
1
40
1
40
1
41
1
10
150.421820615303
20
-1.86043595294589
30
0
41
1
10
150.698528700078
20
-1.9314128386807
30
0
41
1
10
150.976117760193
20
-1.98745254429144
30
0
41
1
10
151.532093908077
20
-2.05549276051474
30
0
41
1
10
151.806026059341
20
-2.06871700573555
30
0
41
1
10
152.209653657219
20
-2.05127480190924
30
0
41
1
10
152.342975406841
20
-2.03920143417912
30
0
41
1
10
152.60678803566
20
-2.00054002525906
30
0
41
1
10
152.737568356685
20
-1.97385208680817
30
0
41
1
10
153.12309605843
20
-1.86900387054172
30
0
41
1
10
153.365211628606
20
-1.76778679846089
30
0
41
1
10
153.702951638439
20
-1.56251331900046
30
0
41
1
10
153.811554948983
20
-1.48497544863403
30
0
41
1
10
154.01862570039
20
-1.31179291124519
30
0
41
1
10
154.115508251779
20
-1.21752072221443
30
0
41
1
10
154.387134439501
20
-0.912743201172191
30
0
41
1
10
154.542985900439
20
-0.680002481575798
30
0
41
1
10
154.742116827379
20
-0.292184126171747
30
0
41
1
10
154.801950445062
20
-0.157826505256736
30
0
41
1
10
154.869518481223
20
0.0157342718696043
30
0
41
1
10
154.882673938587
20
0.0507247451359945
30
0
41
1
10
154.901891722477
20
0.103610973445512
30
0
41
1
10
154.908740407323
20
0.120965548081898
30
0
41
1
10
154.920617258391
20
0.156679944576041
30
0
41
1
10
154.924675701351
20
0.175709121407635
30
0
41
1
10
154.926275833464
20
0.216875462259736
30
0
41
1
10
154.924370628799
20
0.237700185326446
30
0
41
1
10
154.916961999908
20
0.279670915178315
30
0
41
1
10
154.911515941135
20
0.300801741796704
30
0
41
1
10
154.896802397358
20
0.364040903787753
30
0
41
1
10
154.886965451227
20
0.406197432252412
30
0
41
1
10
154.798185186724
20
0.785580338193256
30
0
41
1
10
154.717401570003
20
1.12260503456594
30
0
41
1
10
154.635499333289
20
1.45949429319737
30
0
0
SPLINE
5
C7
100
AcDbEntity
8
1
62
256
6
ByLayer
370
18
48
1
60
0
100
AcDbSpline
70
4
71
3
72
16
73
12
40
0
40
0
40
0
40
0
40
0.0139946325486734
40
0.0139946325486734
40
0.259513912025451
40
0.259513912025451
40
0.505033191502228
40
0.505033191502228
40
0.996071750455783
40
0.996071750455783
40
1
40
1
40
1
40
1
41
1
10
58.5080732212707
20
0.0063971112015508
30
0
41
1
10
58.55152790154
20
-0.0155787761975432
30
0
41
1
10
58.5949910443706
20
-0.0375590908265622
30
0
41
1
10
59.4011299291211
20
-0.445221456707998
30
0
41
1
10
60.1667927064523
20
-0.832236401434557
30
0
41
1
10
61.7078405395778
20
-1.59683678734967
30
0
41
1
10
62.4730597754745
20
-1.96896492859568
30
0
41
1
10
64.7605371918058
20
-3.04087437697834
30
0
41
1
10
66.2751953817537
20
-3.69521961042884
30
0
41
1
10
67.8129074802701
20
-4.25749435060303
30
0
41
1
10
67.825112115411
20
-4.26195053612165
30
0
41
1
10
67.8373175126869
20
-4.26640045983723
30
0
0
SPLINE
5
C8
100
AcDbEntity
8
1
62
256
6
ByLayer
370
13
48
1
60
0
100
AcDbSpline
70
4
71
3
72
20
73
16
40
0
40
0
40
0
40
0
40
0.0949205810525902
40
0.0949205810525902
40
0.192979067045585
40
0.192979067045585
40
0.389096039031573
40
0.389096039031573
40
0.781329983003551
40
0.781329983003551
40
0.879388468996544
40
0.879388468996544
40
0.977446954989536
40
0.977446954989536
40
1
40
1
40
1
40
1
41
1
10
67.8373184515856
20
-4.26640080214705
30
0
41
1
10
68.2065371290324
20
-4.40101295675723
30
0
41
1
10
68.5764532282488
20
-4.52989500196344
30
0
41
1
10
69.3304752542469
20
-4.77938123677978
30
0
41
1
10
69.7150683849329
20
-4.89974049123808
30
0
41
1
10
70.8700984460465
20
-5.23830877330562
30
0
41
1
10
71.6348410772948
20
-5.43218134221692
30
0
41
1
10
73.9214904192277
20
-5.91267976144414
30
0
41
1
10
75.4356714563706
20
-6.09826939489
30
0
41
1
10
77.3428198632981
20
-6.1479810539474
30
0
41
1
10
77.7249641038033
20
-6.14881062822403
30
0
41
1
10
78.4913449657086
20
-6.13207995180449
30
0
41
1
10
78.8760328693428
20
-6.11448119842694
30
0
41
1
10
79.3497296418802
20
-6.08142840460036
30
0
41
1
10
79.438290705342
20
-6.07476069126065
30
0
41
1
10
79.5268401535472
20
-6.06760795910139
30
0
0
SPLINE
5
C9
100
AcDbEntity
8
1
62
256
6
ByLayer
370
18
48
1
60
0
100
AcDbSpline
70
4
71
3
72
16
73
12
40
0
40
0
40
0
40
0
40
0.170929036687546
40
0.170929036687546
40
0.608087515256616
40
0.608087515256616
40
0.717377134898885
40
0.717377134898885
40
0.826666754541155
40
0.826666754541155
40
1
40
1
40
1
40
1
41
1
10
134.734804410751
20
-0.0071277865263539
30
0
41
1
10
135.331829758318
20
-0.311449317411984
30
0
41
1
10
135.92641945741
20
-0.614604516170914
30
0
41
1
10
138.037850532495
20
-1.67944864248656
30
0
41
1
10
139.548534593447
20
-2.4202081592183
30
0
41
1
10
141.454949900843
20
-3.26276507623376
30
0
41
1
10
141.837131664446
20
-3.42711989227888
30
0
41
1
10
142.603998289675
20
-3.74618276321473
30
0
41
1
10
142.989330238556
20
-3.90109560890372
30
0
41
1
10
143.98055742392
20
-4.28386019678391
30
0
41
1
10
144.585323291171
20
-4.50220068249479
30
0
41
1
10
145.188351266183
20
-4.70253405986134
30
0
0
SPLINE
5
CA
100
AcDbEntity
8
1
62
256
6
ByLayer
370
13
48
1
60
0
100
AcDbSpline
70
4
71
3
72
16
73
12
40
0
40
0
40
0
40
0
40
0.049203709051748
40
0.049203709051748
40
0.524601854525874
40
0.524601854525874
40
0.643451390894405
40
0.643451390894405
40
0.762300927262936
40
0.762300927262936
40
1
40
1
40
1
40
1
41
1
10
145.188352209467
20
-4.70253437323217
30
0
41
1
10
145.345763128411
20
-4.75482822935831
30
0
41
1
10
145.503055629429
20
-4.80589510179658
30
0
41
1
10
147.179088786438
20
-5.33697691021382
30
0
41
1
10
148.688986775288
20
-5.70127839946198
30
0
41
1
10
150.592390773241
20
-5.98341535435603
30
0
41
1
10
150.973919635219
20
-6.03120255874768
30
0
41
1
10
151.739212708267
20
-6.1089529651407
30
0
41
1
10
152.123543955465
20
-6.13894268396089
30
0
41
1
10
153.276919697211
20
-6.20099366033816
30
0
41
1
10
154.044400358277
20
-6.20514882389279
30
0
41
1
10
154.812961234914
20
-6.17172244971269
30
0
0
SPLINE
5
CB
100
AcDbEntity
8
1
62
256
6
ByLayer
370
18
48
1
60
0
100
AcDbSpline
70
4
71
3
72
50
73
46
40
0
40
0
40
0
40
0
40
0.0585960377690458
40
0.0585960377690458
40
0.117192075538092
40
0.117192075538092
40
0.146490094422615
40
0.146490094422615
40
0.175788113307138
40
0.175788113307138
40
0.234384151076183
40
0.234384151076183
40
0.351576226614273
40
0.351576226614273
40
0.380874245498795
40
0.380874245498795
40
0.410172264383318
40
0.410172264383318
40
0.468768302152363
40
0.468768302152363
40
0.498066321036887
40
0.498066321036887
40
0.527364339921411
40
0.527364339921411
40
0.58596037769046
40
0.58596037769046
40
0.615258396574985
40
0.615258396574985
40
0.644556415459509
40
0.644556415459509
40
0.673854434344034
40
0.673854434344034
40
0.703152453228558
40
0.703152453228558
40
0.820344528766658
40
0.820344528766658
40
0.878940566535709
40
0.878940566535709
40
0.908238585420235
40
0.908238585420235
40
0.93753660430476
40
0.93753660430476
40
0.996132642073811
40
0.996132642073811
40
1
40
1
40
1
40
1
41
1
10
154.711432809465
20
-6.43047879372119
30
0
41
1
10
153.946888153953
20
-6.461548237024
30
0
41
1
10
153.180791887659
20
-6.45399344991674
30
0
41
1
10
151.653324203602
20
-6.36255548012358
30
0
41
1
10
150.891022159604
20
-6.27882512060549
30
0
41
1
10
149.745369393848
20
-6.09788406711556
30
0
41
1
10
149.362666957433
20
-6.0282574821714
30
0
41
1
10
148.597718319011
20
-5.87132275472462
30
0
41
1
10
148.216579245761
20
-5.78427383078645
30
0
41
1
10
147.076092199387
20
-5.49872494869072
30
0
41
1
10
146.319670803498
20
-5.27581233864109
30
0
41
1
10
144.053297536156
20
-4.52057541953028
30
0
41
1
10
142.546467093817
20
-3.90132572925825
30
0
41
1
10
140.639043657047
20
-3.02134263592546
30
0
41
1
10
140.255739525421
20
-2.83976325154009
30
0
41
1
10
139.491018254222
20
-2.46959488978103
30
0
41
1
10
139.10918873305
20
-2.2808414167412
30
0
41
1
10
137.964232897702
20
-1.70549201415912
30
0
41
1
10
137.201577009675
20
-1.30991406835858
30
0
41
1
10
136.054074966114
20
-0.706710734231791
30
0
41
1
10
135.670972012431
20
-0.503967535780475
30
0
41
1
10
134.906598544137
20
-0.0986307715982946
30
0
41
1
10
134.524849273108
20
0.104195907803785
30
0
41
1
10
133.379847941955
20
0.711136635316251
30
0
41
1
10
132.616879635489
20
1.11378009899858
30
0
41
1
10
131.468358988323
20
1.70605505790016
30
0
41
1
10
131.085716418563
20
1.90111253599906
30
0
41
1
10
130.321667646212
20
2.284345396574
30
0
41
1
10
129.939999568953
20
2.47263004644574
30
0
41
1
10
129.176634431866
20
2.84125555379259
30
0
41
1
10
128.794948666723
20
3.02161581985453
30
0
41
1
10
128.030822226881
20
3.37314305383322
30
0
41
1
10
127.647927381846
20
3.54448513774287
30
0
41
1
10
125.734631451854
20
4.37278999237137
30
0
41
1
10
124.225443954403
20
4.93682749527969
30
0
41
1
10
121.958821141488
20
5.59494378340221
30
0
41
1
10
121.202856836014
20
5.78309890983149
30
0
41
1
10
120.064022972979
20
6.01395879746661
30
0
41
1
10
119.683571255678
20
6.08233231332369
30
0
41
1
10
118.92028165218
20
6.2011968147508
30
0
41
1
10
118.536825005507
20
6.2517369937685
30
0
41
1
10
117.38923539097
20
6.37471124734986
30
0
41
1
10
116.626304868177
20
6.41886119990738
30
0
41
1
10
115.812153216912
20
6.42517478547066
30
0
41
1
10
115.761742044776
20
6.42539921186224
30
0
41
1
10
115.711326272175
20
6.42545708195462
30
0
0
SPLINE
5
CC
100
AcDbEntity
8
1
62
256
6
ByLayer
370
18
48
1
60
0
100
AcDbSpline
70
4
71
3
72
64
73
60
40
0
40
0
40
0
40
0
40
0.0026655266292518
40
0.0026655266292518
40
0.0298645734658171
40
0.0298645734658171
40
0.0570636203023811
40
0.0570636203023811
40
0.11146171397551
40
0.11146171397551
40
0.138660760812074
40
0.138660760812074
40
0.165859807648638
40
0.165859807648638
40
0.220257901321766
40
0.220257901321766
40
0.24745694815833
40
0.24745694815833
40
0.274655994994893
40
0.274655994994893
40
0.329054088668019
40
0.329054088668019
40
0.383452182341146
40
0.383452182341146
40
0.437850276014272
40
0.437850276014272
40
0.465049322850835
40
0.465049322850835
40
0.492248369687399
40
0.492248369687399
40
0.546646463360526
40
0.546646463360526
40
0.573845510197089
40
0.573845510197089
40
0.601044557033653
40
0.601044557033653
40
0.65544265070678
40
0.65544265070678
40
0.682641697543344
40
0.682641697543344
40
0.709840744379907
40
0.709840744379907
40
0.764238838053035
40
0.764238838053035
40
0.791437884889599
40
0.791437884889599
40
0.818636931726163
40
0.818636931726163
40
0.845835978562727
40
0.845835978562727
40
0.873035025399291
40
0.873035025399291
40
0.92743311907242
40
0.92743311907242
40
0.954632165908984
40
0.954632165908984
40
0.981831212745549
40
0.981831212745549
40
1
40
1
40
1
40
1
41
1
10
81.6236306103112
20
-6.04987524398368
30
0
41
1
10
81.5861870828161
20
-6.0563381350903
30
0
41
1
10
81.54874309562
20
-6.06271442451322
30
0
41
1
10
81.1292113006679
20
-6.13318146629277
30
0
41
1
10
80.747077710813
20
-6.18834397140344
30
0
41
1
10
79.9819098475639
20
-6.28013836910898
30
0
41
1
10
79.5983950250145
20
-6.31679243687879
30
0
41
1
10
78.4492985063932
20
-6.39808885525807
30
0
41
1
10
77.6856549278996
20
-6.41414194534809
30
0
41
1
10
76.5391432709926
20
-6.38104325498028
30
0
41
1
10
76.1568319819934
20
-6.36048330511099
30
0
41
1
10
75.3911429607215
20
-6.30035594896651
30
0
41
1
10
75.0074388711645
20
-6.26073726079704
30
0
41
1
10
73.8590063989555
20
-6.11427854303312
30
0
41
1
10
73.0954186789143
20
-5.97974841988491
30
0
41
1
10
71.9485287917157
20
-5.72574242072676
30
0
41
1
10
71.5660159200019
20
-5.63234582135087
30
0
41
1
10
70.7997140179506
20
-5.42872668163091
30
0
41
1
10
70.4162253845875
20
-5.31854281295924
30
0
41
1
10
69.2683745128815
20
-4.96537662061473
30
0
41
1
10
68.5047126707466
20
-4.69952781210392
30
0
41
1
10
66.974959890578
20
-4.11410311350267
30
0
41
1
10
66.2072494134789
20
-3.79402715799745
30
0
41
1
10
64.6772529601926
20
-3.11471116724869
30
0
41
1
10
63.9135808464826
20
-2.75508079479931
30
0
41
1
10
62.7656214644557
20
-2.19317921352305
30
0
41
1
10
62.3821251433605
20
-2.00198523673581
30
0
41
1
10
61.6155740397081
20
-1.61439335678145
30
0
41
1
10
61.2329514516796
20
-1.41815730053025
30
0
41
1
10
60.0857849593093
20
-0.824497703597615
30
0
41
1
10
59.3219586156572
20
-0.422092175740971
30
0
41
1
10
58.1732052087296
20
0.1830469573176
30
0
41
1
10
57.7893678438456
20
0.385240934866033
30
0
41
1
10
57.0232848429945
20
0.787058291695558
30
0
41
1
10
56.6407975879981
20
0.986830343953784
30
0
41
1
10
55.4938649413284
20
1.58061564324322
30
0
41
1
10
54.7297802634918
20
1.96878364036056
30
0
41
1
10
53.5802330381835
20
2.53167850301134
30
0
41
1
10
53.196491259355
20
2.71608488062216
30
0
41
1
10
52.4307816155525
20
3.07521969175991
30
0
41
1
10
52.0483583596775
20
3.25020395131318
30
0
41
1
10
50.9013765294619
20
3.75980065625066
30
0
41
1
10
50.1369894132194
20
4.07886449669206
30
0
41
1
10
48.9865071885191
20
4.51966908397188
30
0
41
1
10
48.6032097413657
20
4.65994368651988
30
0
41
1
10
47.8377793275699
20
4.92563502973789
30
0
41
1
10
47.4554345114911
20
5.05119399294458
30
0
41
1
10
46.6907648353837
20
5.28691370954567
30
0
41
1
10
46.3084232238258
20
5.39705388851459
30
0
41
1
10
45.5429321029665
20
5.60103189048172
30
0
41
1
10
45.1595364542407
20
5.69496841095639
30
0
41
1
10
44.0090427912811
20
5.95082308797106
30
0
41
1
10
43.2445419645634
20
6.08600421552546
30
0
41
1
10
42.097365871433
20
6.23353178994424
30
0
41
1
10
41.7148672130893
20
6.27348066912697
30
0
41
1
10
40.9489098288205
20
6.33458168369285
30
0
41
1
10
40.564782442652
20
6.35575065797815
30
0
41
1
10
39.9263093229423
20
6.37504124507174
30
0
41
1
10
39.6711691200363
20
6.37849766799908
30
0
41
1
10
39.4164767801587
20
6.37773542485292
30
0
0
SPLINE
5
CD
100
AcDbEntity
8
1
62
256
6
ByLayer
370
18
48
1
60
0
100
AcDbSpline
70
4
71
3
72
18
73
14
40
0
40
0
40
0
40
0
40
0.249999999999997
40
0.249999999999997
40
0.374999999999996
40
0.374999999999996
40
0.499999999999995
40
0.499999999999995
40
0.749999999999996
40
0.749999999999996
40
0.874999999999998
40
0.874999999999998
40
1
40
1
40
1
40
1
41
1
10
154.716412094631
20
-6.08766406225635
30
0
41
1
10
154.584890987569
20
-6.07089002981553
30
0
41
1
10
154.463061744799
20
-6.02617579563039
30
0
41
1
10
154.296209631338
20
-5.91329089320428
30
0
41
1
10
154.243192411758
20
-5.86778905560271
30
0
41
1
10
154.14490641618
20
-5.76276727782499
30
0
41
1
10
154.099337495482
20
-5.70309334592761
30
0
41
1
10
153.973426590782
20
-5.50243486225006
30
0
41
1
10
153.903782994114
20
-5.34000896864882
30
0
41
1
10
153.822631009192
20
-5.0496461894889
30
0
41
1
10
153.799539103984
20
-4.9448708739171
30
0
41
1
10
153.762405112816
20
-4.72363155226438
30
0
41
1
10
153.748201974294
20
-4.60667549785549
30
0
41
1
10
153.738394293771
20
-4.48333716477447
30
0
0
SPLINE
5
CE
100
AcDbEntity
8
1
62
256
6
ByLayer
370
18
48
1
60
0
100
AcDbSpline
70
4
71
3
72
8
73
4
40
0
40
0
40
0
40
0
40
1
40
1
40
1
40
1
41
1
10
154.92256356255
20
-6.27249527275001
30
0
41
1
10
154.84240668248
20
-6.35116771377403
30
0
41
1
10
154.772231802256
20
-6.40408723703425
30
0
41
1
10
154.711432809465
20
-6.43047879372119
30
0
0
SPLINE
5
CF
100
AcDbEntity
8
1
62
256
6
ByLayer
370
18
48
1
60
0
100
AcDbSpline
70
4
71
3
72
14
73
10
40
0
40
0
40
0
40
0
40
0.281373390673141
40
0.281373390673141
40
0.422060086009716
40
0.422060086009716
40
0.562746781346291
40
0.562746781346291
40
1
40
1
40
1
40
1
41
1
10
154.830067161803
20
-6.0806117663814
30
0
41
1
10
154.061741777551
20
-6.10700762564198
30
0
41
1
10
153.294478070667
20
-6.09645543216331
30
0
41
1
10
152.14149847028
20
-6.0258284782781
30
0
41
1
10
151.757412692269
20
-5.99316712981798
30
0
41
1
10
150.992433765654
20
-5.91043840043986
30
0
41
1
10
150.611023651091
20
-5.86034241096763
30
0
41
1
10
149.047532210829
20
-5.6198772343156
30
0
41
1
10
147.872123183805
20
-5.35607976705091
30
0
41
1
10
146.694233241377
20
-5.02071123555473
30
0
0
SPLINE
5
D0
100
AcDbEntity
8
1
62
256
6
ByLayer
370
13
48
1
60
0
100
AcDbSpline
70
4
71
3
72
26
73
22
40
0
40
0
40
0
40
0
40
0.0647413597122613
40
0.0647413597122613
40
0.209900216815292
40
0.209900216815292
40
0.28247964536681
40
0.28247964536681
40
0.355059073918327
40
0.355059073918327
40
0.645376788124393
40
0.645376788124393
40
0.790535645227427
40
0.790535645227427
40
0.826825359503187
40
0.826825359503187
40
0.863115073778947
40
0.863115073778947
40
0.935694502330472
40
0.935694502330472
40
1
40
1
40
1
40
1
41
1
10
146.69423289424
20
-5.02071113671801
30
0
41
1
10
146.356173507838
20
-4.92445894829242
30
0
41
1
10
146.017909764822
20
-4.82231134952116
30
0
41
1
10
144.919786694668
20
-4.47281059490348
30
0
41
1
10
144.15822334694
20
-4.20264596231641
30
0
41
1
10
143.008489517275
20
-3.75960671336679
30
0
41
1
10
142.623324611407
20
-3.60528461318131
30
0
41
1
10
141.856812409234
20
-3.28784195967393
30
0
41
1
10
141.474765211582
20
-3.12449501406385
30
0
41
1
10
139.568870964572
20
-2.28791515828993
30
0
41
1
10
138.058112601992
20
-1.55495325832661
30
0
41
1
10
135.781225058412
20
-0.422482209698103
30
0
41
1
10
135.020503564921
20
-0.0394259691512957
30
0
41
1
10
134.063974885312
20
0.439461868869159
30
0
41
1
10
133.872391821134
20
0.535251409915958
30
0
41
1
10
133.488584124443
20
0.726676863609242
30
0
41
1
10
133.296138017433
20
0.822422291029511
30
0
41
1
10
132.719956390071
20
1.10802983256644
30
0
41
1
10
132.337095782664
20
1.29638404207341
30
0
41
1
10
131.61676770062
20
1.64655126590745
30
0
41
1
10
131.27910004115
20
1.80893991473238
30
0
41
1
10
130.94192750675
20
1.96879951630444
30
0
0
SPLINE
5
D1
100
AcDbEntity
8
1
62
256
6
ByLayer
370
18
48
1
60
0
100
AcDbSpline
70
4
71
3
72
14
73
10
40
0
40
0
40
0
40
0
40
0.0970437903375489
40
0.0970437903375489
40
0.676407919411991
40
0.676407919411991
40
0.966089983949212
40
0.966089983949212
40
1
40
1
40
1
40
1
41
1
10
77.7606475700837
20
-6.04686815070176
30
0
41
1
10
77.5044211289803
20
-6.04638700088714
30
0
41
1
10
77.2486012178813
20
-6.04186116763472
30
0
41
1
10
75.4676686239936
20
-5.98230884904999
30
0
41
1
10
73.9534393844107
20
-5.78808525299073
30
0
41
1
10
71.666989485065
20
-5.29925593442169
30
0
41
1
10
70.9023757265243
20
-5.10337679674609
30
0
41
1
10
70.0424866909491
20
-4.84999467248795
30
0
41
1
10
69.9524046763759
20
-4.82304363478852
30
0
41
1
10
69.8623615819521
20
-4.79570738090345
30
0
0
SPLINE
5
D2
100
AcDbEntity
8
1
62
256
6
ByLayer
370
13
48
1
60
0
100
AcDbSpline
70
4
71
3
72
18
73
14
40
0
40
0
40
0
40
0
40
0.0586437488957177
40
0.0586437488957177
40
0.135214131273811
40
0.135214131273811
40
0.441495660786184
40
0.441495660786184
40
0.594636425542371
40
0.594636425542371
40
0.747777190298557
40
0.747777190298557
40
1
40
1
40
1
40
1
41
1
10
69.8623606244864
20
-4.79570709022568
30
0
41
1
10
69.5677998345501
20
-4.70628113903135
30
0
41
1
10
69.2736555532254
20
-4.61273275560853
30
0
41
1
10
68.5973017016704
20
-4.38860642949376
30
0
41
1
10
68.2152807217363
20
-4.25531397118525
30
0
41
1
10
66.3087384281164
20
-3.55935423338295
30
0
41
1
10
64.7940478996382
20
-2.90911999689789
30
0
41
1
10
62.5067982583028
20
-1.84814925260312
30
0
41
1
10
61.7417268220654
20
-1.48040531899798
30
0
41
1
10
60.201204344628
20
-0.726213834790144
30
0
41
1
10
59.4358716042567
20
-0.345056300897511
30
0
41
1
10
57.4174623431136
20
0.659163647691628
30
0
41
1
10
56.1688274724902
20
1.27978516954076
30
0
41
1
10
54.9155899336617
20
1.87223831285752
30
0
0
SPLINE
5
D3
100
AcDbEntity
8
1
62
256
6
ByLayer
370
18
48
1
60
0
100
AcDbSpline
70
4
71
3
72
8
73
4
40
0
40
0
40
0
40
0
40
1
40
1
40
1
40
1
41
1
10
156.825326259519
20
-0.293470014651035
30
0
41
1
10
156.122354871223
20
-2.22486803051902
30
0
41
1
10
155.419383482928
20
-4.15626604638675
30
0
41
1
10
154.716412094632
20
-6.08766406225357
30
0
0
SPLINE
5
D4
100
AcDbEntity
8
1
62
256
6
ByLayer
370
18
48
1
60
0
100
AcDbSpline
70
4
71
3
72
10
73
6
40
0
40
0
40
0
40
0
40
0.5
40
0.5
40
1
40
1
40
1
40
1
41
1
10
154.92256356255
20
6.27249527275001
30
0
41
1
10
155.234790306624
20
5.4862681397864
30
0
41
1
10
155.546639722708
20
4.69907018890567
30
0
41
1
10
156.166308090309
20
3.12116471398949
30
0
41
1
10
156.474218689942
20
2.33056548663615
30
0
41
1
10
156.778471038372
20
1.53883403456189
30
0
0
SPLINE
5
D5
100
AcDbEntity
8
1
62
256
6
ByLayer
370
18
48
1
60
0
100
AcDbSpline
70
4
71
3
72
8
73
4
40
0
40
0
40
0
40
0
40
1
40
1
40
1
40
1
41
1
10
7.99999968652759
20
-4.34965705702288
30
0
41
1
10
7.99999968652759
20
-4.31003138309899
30
0
41
1
10
7.99999968652759
20
-4.27037458712837
30
0
41
1
10
7.99999968652759
20
-4.23068730077591
30
0
0
SPLINE
5
D6
100
AcDbEntity
8
1
62
256
6
ByLayer
370
18
48
1
60
0
100
AcDbSpline
70
4
71
3
72
108
73
104
40
0
40
0
40
0
40
0
40
0.0174218471328789
40
0.0174218471328789
40
0.0395869396682082
40
0.0395869396682082
40
0.0617520322035376
40
0.0617520322035376
40
0.0839171247388669
40
0.0839171247388669
40
0.106082217274196
40
0.106082217274196
40
0.128247309809526
40
0.128247309809526
40
0.150412402344855
40
0.150412402344855
40
0.172577494880184
40
0.172577494880184
40
0.194742587415514
40
0.194742587415514
40
0.205825133683178
40
0.205825133683178
40
0.216907679950843
40
0.216907679950843
40
0.239072772486172
40
0.239072772486172
40
0.261237865021502
40
0.261237865021502
40
0.283402957556831
40
0.283402957556831
40
0.30556805009216
40
0.30556805009216
40
0.32773314262749
40
0.32773314262749
40
0.349898235162819
40
0.349898235162819
40
0.372063327698148
40
0.372063327698148
40
0.394228420233478
40
0.394228420233478
40
0.416393512768807
40
0.416393512768807
40
0.427476059036472
40
0.427476059036472
40
0.438558605304137
40
0.438558605304137
40
0.460723697839467
40
0.460723697839467
40
0.482888790374797
40
0.482888790374797
40
0.505053882910127
40
0.505053882910127
40
0.527218975445457
40
0.527218975445457
40
0.549384067980787
40
0.549384067980787
40
0.571549160516117
40
0.571549160516117
40
0.593714253051447
40
0.593714253051447
40
0.615879345586777
40
0.615879345586777
40
0.638044438122107
40
0.638044438122107
40
0.649126984389771
40
0.649126984389771
40
0.660209530657436
40
0.660209530657436
40
0.682374623192765
40
0.682374623192765
40
0.704539715728095
40
0.704539715728095
40
0.726704808263424
40
0.726704808263424
40
0.748869900798753
40
0.748869900798753
40
0.771034993334083
40
0.771034993334083
40
0.793200085869412
40
0.793200085869412
40
0.804282632137077
40
0.804282632137077
40
0.815365178404742
40
0.815365178404742
40
0.837530270940072
40
0.837530270940072
40
0.859695363475402
40
0.859695363475402
40
0.870777909743067
40
0.870777909743067
40
0.881860456010731
40
0.881860456010731
40
0.904025548546061
40
0.904025548546061
40
0.926190641081391
40
0.926190641081391
40
0.948355733616721
40
0.948355733616721
40
0.970520826152051
40
0.970520826152051
40
0.992685918687381
40
0.992685918687381
40
1
40
1
40
1
40
1
41
1
10
25.2922825841124
20
3.29244164512272
30
0
41
1
10
25.5865593211614
20
3.4247349867924
30
0
41
1
10
25.8803571363838
20
3.55337475867535
30
0
41
1
10
26.5459980602386
20
3.83901453852317
30
0
41
1
10
26.9174566136613
20
3.99387296306921
30
0
41
1
10
27.6600599371961
20
4.29024347143294
30
0
41
1
10
28.0313686190268
20
4.43161667529517
30
0
41
1
10
28.771535189904
20
4.70417042498644
30
0
41
1
10
29.1416792487922
20
4.83353324305469
30
0
41
1
10
29.8827119464337
20
5.07787166052603
30
0
41
1
10
30.2528569013417
20
5.19372985641419
30
0
41
1
10
30.9942323310228
20
5.41050811295509
30
0
41
1
10
31.3657374708969
20
5.51117853600968
30
0
41
1
10
32.1100627852373
20
5.69739330627868
30
0
41
1
10
32.4821967149431
20
5.78349258785658
30
0
41
1
10
33.23010950845
20
5.9381873579762
30
0
41
1
10
33.6060099919576
20
6.00742868062238
30
0
41
1
10
34.3556562939369
20
6.1287940444374
30
0
41
1
10
34.7300127994784
20
6.18059476869371
30
0
41
1
10
35.2916795065079
20
6.24478866022639
30
0
41
1
10
35.4788763820398
20
6.26396223516434
30
0
41
1
10
35.853026298114
20
6.297913696206
30
0
41
1
10
36.0397148506815
20
6.31275530965297
30
0
41
1
10
36.6006905034153
20
6.35024472656454
30
0
41
1
10
36.975471831803
20
6.36610087854484
30
0
41
1
10
37.7249507152359
20
6.3797743877262
30
0
41
1
10
38.1004395361463
20
6.37742590769864
30
0
41
1
10
38.8490854102453
20
6.35458057714965
30
0
41
1
10
39.2227821026291
20
6.33427820612116
30
0
41
1
10
39.9664348701148
20
6.27540319345434
30
0
41
1
10
40.3379016002595
20
6.23721422012602
30
0
41
1
10
41.0801190362695
20
6.14383203961907
30
0
41
1
10
41.4502291496325
20
6.08827749254249
30
0
41
1
10
42.1904671587648
20
5.96048821423582
30
0
41
1
10
42.5608221980744
20
5.88846681580085
30
0
41
1
10
43.3015711822417
20
5.72798250618553
30
0
41
1
10
43.6713079077842
20
5.63887330616112
30
0
41
1
10
44.4132938100512
20
5.44617629128808
30
0
41
1
10
44.7849072178087
20
5.34208834425076
30
0
41
1
10
45.5289642642811
20
5.11766374376356
30
0
41
1
10
45.9019358404543
20
4.99788970308305
30
0
41
1
10
46.4635524088449
20
4.80774224428797
30
0
41
1
10
46.6511691179972
20
4.7425323468955
30
0
41
1
10
47.0264382716335
20
4.60832256390682
30
0
41
1
10
47.2135382894412
20
4.5390975205195
30
0
41
1
10
47.7753101880907
20
4.32785627745042
30
0
41
1
10
48.1499856381425
20
4.1817195372272
30
0
41
1
10
48.8979829654999
20
3.87652244735125
30
0
41
1
10
49.2715355308412
20
3.71773565961067
30
0
41
1
10
50.0199124218143
20
3.39114051769661
30
0
41
1
10
50.3948556355186
20
3.22360569786076
30
0
41
1
10
51.1436935465971
20
2.87561860087934
30
0
41
1
10
51.519282470251
20
2.6979098741536
30
0
41
1
10
52.2688025155045
20
2.33639500123172
30
0
41
1
10
52.6425768833611
20
2.15128246782032
30
0
41
1
10
53.3903955384986
20
1.77634073770514
30
0
41
1
10
53.7646296179877
20
1.58688009043846
30
0
41
1
10
54.5131800695065
20
1.20295995889654
30
0
41
1
10
54.8869015425026
20
1.00735134204487
30
0
41
1
10
55.6371718588121
20
0.616254183981965
30
0
41
1
10
56.0125262624804
20
0.419417615702884
30
0
41
1
10
56.7609638636486
20
0.0245791002975295
30
0
41
1
10
57.134978225972
20
-0.172586319353854
30
0
41
1
10
57.6962300990501
20
-0.466941578065672
30
0
41
1
10
57.8833457834664
20
-0.564841117304837
30
0
41
1
10
58.2571932563744
20
-0.761050172824866
30
0
41
1
10
58.4438803643776
20
-0.859442866127552
30
0
41
1
10
59.0050162403863
20
-1.15210109185227
30
0
41
1
10
59.3799738671306
20
-1.34492711063146
30
0
41
1
10
60.1300274531038
20
-1.72902161389257
30
0
41
1
10
60.5045322961232
20
-1.91911844320921
30
0
41
1
10
61.2533151324591
20
-2.29122873984167
30
0
41
1
10
61.6277130717048
20
-2.47350960182578
30
0
41
1
10
62.374654468608
20
-2.83372732342119
30
0
41
1
10
62.7488491437715
20
-3.0087892576318
30
0
41
1
10
63.4976705525471
20
-3.35065577134142
30
0
41
1
10
63.87209175244
20
-3.51823476679343
30
0
41
1
10
64.6220141546097
20
-3.84194924117068
30
0
41
1
10
64.9960654952699
20
-3.99731452826199
30
0
41
1
10
65.5552842009576
20
-4.22168041326515
30
0
41
1
10
65.7410989461686
20
-4.29542912708021
30
0
41
1
10
66.1127272314007
20
-4.43907966471502
30
0
41
1
10
66.29846981059
20
-4.50910018440854
30
0
41
1
10
66.8554360821696
20
-4.71391339095129
30
0
41
1
10
67.2260001529442
20
-4.84400393223498
30
0
41
1
10
67.9660451187177
20
-5.09069306493717
30
0
41
1
10
68.3360119527689
20
-5.20669488508415
30
0
41
1
10
68.8912472823895
20
-5.36940887833254
30
0
41
1
10
69.0763891020207
20
-5.42175537187364
30
0
41
1
10
69.4462285187316
20
-5.52320815661724
30
0
41
1
10
69.6310257191637
20
-5.57219595333285
30
0
41
1
10
70.1864419778613
20
-5.71260737486273
30
0
41
1
10
70.5576166075665
20
-5.79801081487548
30
0
41
1
10
71.3002583005865
20
-5.95355027447351
30
0
41
1
10
71.6720911325139
20
-6.02331467891096
30
0
41
1
10
72.4186591671975
20
-6.14539021234469
30
0
41
1
10
72.7938268190827
20
-6.19792250784937
30
0
41
1
10
73.5427518201896
20
-6.28582633157404
30
0
41
1
10
73.9173220035479
20
-6.32043364300361
30
0
41
1
10
74.6656449843534
20
-6.3717455483289
30
0
41
1
10
75.0389805347863
20
-6.38844834821026
30
0
41
1
10
75.5360612512698
20
-6.39843374203829
30
0
41
1
10
75.6594471761586
20
-6.39991966272513
30
0
41
1
10
75.7828745586052
20
-6.40041361935101
30
0
0
SPLINE
5
D7
100
AcDbEntity
8
1
62
256
6
ByLayer
370
18
48
1
60
0
100
AcDbSpline
70
4
71
3
72
108
73
104
40
0
40
0
40
0
40
0
40
0.0166372542678564
40
0.0166372542678564
40
0.038761153492588
40
0.038761153492588
40
0.0608850527173197
40
0.0608850527173197
40
0.0830089519420514
40
0.0830089519420514
40
0.094070901554417
40
0.094070901554417
40
0.105132851166782
40
0.105132851166782
40
0.127256750391515
40
0.127256750391515
40
0.149380649616248
40
0.149380649616248
40
0.171504548840981
40
0.171504548840981
40
0.193628448065714
40
0.193628448065714
40
0.215752347290447
40
0.215752347290447
40
0.23787624651518
40
0.23787624651518
40
0.260000145739912
40
0.260000145739912
40
0.282124044964645
40
0.282124044964645
40
0.304247944189378
40
0.304247944189378
40
0.315309893801744
40
0.315309893801744
40
0.326371843414111
40
0.326371843414111
40
0.348495742638842
40
0.348495742638842
40
0.370619641863574
40
0.370619641863574
40
0.392743541088305
40
0.392743541088305
40
0.414867440313037
40
0.414867440313037
40
0.436991339537768
40
0.436991339537768
40
0.4591152387625
40
0.4591152387625
40
0.481239137987232
40
0.481239137987232
40
0.503363037211963
40
0.503363037211963
40
0.525486936436695
40
0.525486936436695
40
0.53654888604906
40
0.53654888604906
40
0.547610835661425
40
0.547610835661425
40
0.569734734886153
40
0.569734734886153
40
0.591858634110882
40
0.591858634110882
40
0.613982533335611
40
0.613982533335611
40
0.63610643256034
40
0.63610643256034
40
0.658230331785069
40
0.658230331785069
40
0.680354231009797
40
0.680354231009797
40
0.702478130234526
40
0.702478130234526
40
0.724602029459255
40
0.724602029459255
40
0.746725928683984
40
0.746725928683984
40
0.757787878296349
40
0.757787878296349
40
0.768849827908713
40
0.768849827908713
40
0.790973727133442
40
0.790973727133442
40
0.813097626358171
40
0.813097626358171
40
0.8352215255829
40
0.8352215255829
40
0.857345424807629
40
0.857345424807629
40
0.879469324032358
40
0.879469324032358
40
0.901593223257087
40
0.901593223257087
40
0.923717122481816
40
0.923717122481816
40
0.945841021706545
40
0.945841021706545
40
0.967964920931274
40
0.967964920931274
40
0.979026870543639
40
0.979026870543639
40
0.990088820156003
40
0.990088820156003
40
1
40
1
40
1
40
1
41
1
10
101.505904067502
20
3.31889336407062
30
0
41
1
10
101.786889758432
20
3.44618375257883
30
0
41
1
10
102.068094611538
20
3.57058594102477
30
0
41
1
10
102.723673437902
20
3.85383928757452
30
0
41
1
10
103.097744013521
20
4.01179249131124
30
0
41
1
10
103.847233755217
20
4.31366762930261
30
0
41
1
10
104.221625159496
20
4.4580634896794
30
0
41
1
10
104.968852949474
20
4.73495523848771
30
0
41
1
10
105.342229013255
20
4.86668564855671
30
0
41
1
10
105.902915624942
20
5.05309832527726
30
0
41
1
10
106.089862369196
20
5.11344108538745
30
0
41
1
10
106.463700195569
20
5.23070388759211
30
0
41
1
10
106.650319428716
20
5.28791493031633
30
0
41
1
10
107.211119606484
20
5.45321040624222
30
0
41
1
10
107.586552443347
20
5.55531270729094
30
0
41
1
10
108.335490389822
20
5.74406576535253
30
0
41
1
10
108.709007037699
20
5.83053580985793
30
0
41
1
10
109.456455922215
20
5.98586903209466
30
0
41
1
10
109.83055170525
20
6.05474080502438
30
0
41
1
10
110.577071587606
20
6.17631521495929
30
0
41
1
10
110.950664141591
20
6.22824717989781
30
0
41
1
10
111.699492808568
20
6.31409968624155
30
0
41
1
10
112.074295498924
20
6.34834682491379
30
0
41
1
10
112.822568453564
20
6.39829923315926
30
0
41
1
10
113.19660008598
20
6.41405177452509
30
0
41
1
10
113.944094347565
20
6.42741333246539
30
0
41
1
10
114.316849537545
20
6.42494138958057
30
0
41
1
10
115.06425786041
20
6.40175705605984
30
0
41
1
10
115.438297982729
20
6.38110330160779
30
0
41
1
10
116.186549298593
20
6.32130677343309
30
0
41
1
10
116.56152695886
20
6.28221692910137
30
0
41
1
10
117.121736166279
20
6.21080294834414
30
0
41
1
10
117.308217063027
20
6.18484440021606
30
0
41
1
10
117.68047367147
20
6.12852755120798
30
0
41
1
10
117.866003772221
20
6.09800810155255
30
0
41
1
10
118.422796197371
20
6.00059716770451
30
0
41
1
10
118.793846003195
20
5.92770794853675
30
0
41
1
10
119.534052764295
20
5.76507383410703
30
0
41
1
10
119.9033877008
20
5.67537673996048
30
0
41
1
10
120.642667143783
20
5.48122618926755
30
0
41
1
10
121.012766299339
20
5.3770369396108
30
0
41
1
10
121.75140927199
20
5.15165867354889
30
0
41
1
10
122.121272301601
20
5.03185733041661
30
0
41
1
10
122.862636012839
20
4.77885196510562
30
0
41
1
10
123.233405249102
20
4.64469162426653
30
0
41
1
10
123.976988896734
20
4.36321096604232
30
0
41
1
10
124.350071339106
20
4.21632920115184
30
0
41
1
10
125.098497318276
20
3.90965717375642
30
0
41
1
10
125.472782777365
20
3.7488624374966
30
0
41
1
10
126.220759431917
20
3.42024403435019
30
0
41
1
10
126.594487866786
20
3.2512719689812
30
0
41
1
10
127.340904858595
20
2.90311767083742
30
0
41
1
10
127.714147714721
20
2.72483659183155
30
0
41
1
10
128.274861991087
20
2.45253019527576
30
0
41
1
10
128.46186243512
20
2.36087029113955
30
0
41
1
10
128.835854866488
20
2.17539768042747
30
0
41
1
10
129.022591305139
20
2.0811174832873
30
0
41
1
10
129.58409442216
20
1.79735907138939
30
0
41
1
10
129.959011466867
20
1.60657059015662
30
0
41
1
10
130.706467165087
20
1.21966546563209
30
0
41
1
10
131.079502751825
20
1.0237749663838
30
0
41
1
10
131.826390425287
20
0.63124512385258
30
0
41
1
10
132.200380587226
20
0.434882738506559
30
0
41
1
10
132.94685297266
20
0.037007420368866
30
0
41
1
10
133.320972422524
20
-0.161504019588648
30
0
41
1
10
134.070635971068
20
-0.557683512716238
30
0
41
1
10
134.444269257992
20
-0.75593115986004
30
0
41
1
10
135.191312711868
20
-1.14860601313836
30
0
41
1
10
135.564939243079
20
-1.34264476197939
30
0
41
1
10
136.311883618015
20
-1.72712636261039
30
0
41
1
10
136.684572143038
20
-1.91869692550679
30
0
41
1
10
137.432327346459
20
-2.29330479139114
30
0
41
1
10
137.806971924781
20
-2.47790636543141
30
0
41
1
10
138.555375719009
20
-2.84078603135461
30
0
41
1
10
138.92912907596
20
-3.01782842181157
30
0
41
1
10
139.489712229354
20
-3.27587537430466
30
0
41
1
10
139.676543209396
20
-3.36067899087266
30
0
41
1
10
140.049797664028
20
-3.52840839523157
30
0
41
1
10
140.236082670751
20
-3.61154221746966
30
0
41
1
10
140.795882483519
20
-3.85564020117084
30
0
41
1
10
141.169774141195
20
-4.01225882110816
30
0
41
1
10
141.917293598045
20
-4.31571278678734
30
0
41
1
10
142.291906631222
20
-4.46227974096908
30
0
41
1
10
143.039564587624
20
-4.74018857513477
30
0
41
1
10
143.412618273176
20
-4.87160400669242
30
0
41
1
10
144.154979832132
20
-5.12229069746371
30
0
41
1
10
144.525933783626
20
-5.23946407360958
30
0
41
1
10
145.266723441746
20
-5.45874508732376
30
0
41
1
10
145.636047784334
20
-5.56132667396872
30
0
41
1
10
146.374795753926
20
-5.7500844474074
30
0
41
1
10
146.744378926384
20
-5.8361877594451
30
0
41
1
10
147.483405216708
20
-5.99242008421894
30
0
41
1
10
147.852263174025
20
-6.06288001998175
30
0
41
1
10
148.592506737645
20
-6.18578258993549
30
0
41
1
10
148.96313431232
20
-6.23879053300783
30
0
41
1
10
149.705271796495
20
-6.32765436236326
30
0
41
1
10
150.077305937653
20
-6.36325202260193
30
0
41
1
10
150.637423021125
20
-6.40312230213604
30
0
41
1
10
150.824447502987
20
-6.4141719063505
30
0
41
1
10
151.198842583201
20
-6.43177694669899
30
0
41
1
10
151.385565406434
20
-6.4383107354619
30
0
41
1
10
151.739650876502
20
-6.44625073022786
30
0
41
1
10
151.906937104266
20
-6.4481588388424
30
0
41
1
10
152.074108259686
20
-6.44823177502653
30
0
0
SPLINE
5
D8
100
AcDbEntity
8
1
62
256
6
ByLayer
370
18
48
1
60
0
100
AcDbSpline
70
4
71
3
72
8
73
4
40
0
40
0
40
0
40
0
40
1
40
1
40
1
40
1
41
1
10
156.999957017755
20
0.0471844358552858
30
0
41
1
10
157.000014327414
20
0.0157281452852089
30
0
41
1
10
157.000014327414
20
-0.0157281452847826
30
0
41
1
10
156.999957017755
20
-0.0471844358548594
30
0
0
SPLINE
5
D9
100
AcDbEntity
8
1
62
256
6
ByLayer
370
18
48
1
60
0
100
AcDbSpline
70
4
71
3
72
16
73
12
40
0
40
0
40
0
40
0
40
0.145368788038822
40
0.145368788038822
40
0.252572900312882
40
0.252572900312882
40
0.359777012586942
40
0.359777012586942
40
0.574185237135061
40
0.574185237135061
40
1
40
1
40
1
40
1
41
1
10
20.4282797139998
20
-0.0035683512192008
30
0
41
1
10
20.9442057419706
20
-0.263354955561511
30
0
41
1
10
21.4605549723483
20
-0.52347483959187
30
0
41
1
10
22.3598232971123
20
-0.973165898424213
30
0
41
1
10
22.7421813078441
20
-1.16333465143876
30
0
41
1
10
23.5090451171227
20
-1.54059279159552
30
0
41
1
10
23.8940344926367
20
-1.72786437527896
30
0
41
1
10
25.0502460183366
20
-2.28146255277426
30
0
41
1
10
25.8156648420044
20
-2.63639920925019
30
0
41
1
10
28.0933826159097
20
-3.64054702763986
30
0
41
1
10
29.5981085316226
20
-4.23448175017921
30
0
41
1
10
31.1136903122867
20
-4.72129518740323
30
0
0
SPLINE
5
DA
100
AcDbEntity
8
1
62
256
6
ByLayer
370
13
48
1
60
0
100
AcDbSpline
70
4
71
3
72
18
73
14
40
0
40
0
40
0
40
0
40
0.0031418011511957
40
0.0031418011511957
40
0.115350066000141
40
0.115350066000141
40
0.227558330849086
40
0.227558330849086
40
0.451974860546977
40
0.451974860546977
40
0.90080791994276
40
0.90080791994276
40
1
40
1
40
1
40
1
41
1
10
31.1136903123133
20
-4.72129518741184
30
0
41
1
10
31.1243740681536
20
-4.7247268701949
30
0
41
1
10
31.1350583634469
20
-4.72815322987424
30
0
41
1
10
31.5273483857548
20
-4.85375489419275
30
0
41
1
10
31.9096288686242
20
-4.96915981992612
30
0
41
1
10
32.6763245900038
20
-5.18533545548962
30
0
41
1
10
33.0610918581645
20
-5.28620865321923
30
0
41
1
10
34.2171827988549
20
-5.56483288405275
30
0
41
1
10
34.9825431137876
20
-5.7166988998184
30
0
41
1
10
37.2706714796452
20
-6.06733861233684
30
0
41
1
10
38.7857116650785
20
-6.16064511942508
30
0
41
1
10
40.6488939016614
20
-6.09668961793594
30
0
41
1
10
40.9866904928217
20
-6.07800694776156
30
0
41
1
10
41.3252658389969
20
-6.05218607530713
30
0
0
SPLINE
5
DB
100
AcDbEntity
8
1
62
256
6
ByLayer
370
18
48
1
60
0
100
AcDbSpline
70
4
71
3
72
22
73
18
40
0
40
0
40
0
40
0
40
0.0348870815366539
40
0.0348870815366539
40
0.0844411876070934
40
0.0844411876070934
40
0.28265761188886
40
0.28265761188886
40
0.679090460452401
40
0.679090460452401
40
0.778198672593288
40
0.778198672593288
40
0.827752778663728
40
0.827752778663728
40
0.877306884734167
40
0.877306884734167
40
1
40
1
40
1
40
1
41
1
10
96.648998666801
20
-0.0143406469910019
30
0
41
1
10
96.7844617409953
20
-0.0831352209270904
30
0
41
1
10
96.9200136653542
20
-0.151972818065303
30
0
41
1
10
97.2474973159299
20
-0.318164305686167
30
0
41
1
10
97.4393641970297
20
-0.415441814199198
30
0
41
1
10
98.3973126744643
20
-0.900192380116891
30
0
41
1
10
99.1592236343186
20
-1.28278400185027
30
0
41
1
10
101.439927094689
20
-2.3990419832792
30
0
41
1
10
102.953569373776
20
-3.10132382814567
30
0
41
1
10
104.864507331743
20
-3.87605545087152
30
0
41
1
10
105.247624320672
20
-4.02587393767746
30
0
41
1
10
105.824223224108
20
-4.24194295065226
30
0
41
1
10
106.016873775616
20
-4.31256395688936
30
0
41
1
10
106.401146526374
20
-4.45011187585558
30
0
41
1
10
106.592967391639
20
-4.51711961274566
30
0
41
1
10
107.258724098912
20
-4.7437886863608
30
0
41
1
10
107.731254788572
20
-4.89418654521316
30
0
41
1
10
108.202759119493
20
-5.03288416396776
30
0
0
SPLINE
5
DC
100
AcDbEntity
8
1
62
256
6
ByLayer
370
13
48
1
60
0
100
AcDbSpline
70
4
71
3
72
18
73
14
40
0
40
0
40
0
40
0
40
0.0918104057880186
40
0.0918104057880186
40
0.573736598415247
40
0.573736598415247
40
0.694218146572053
40
0.694218146572053
40
0.754458920650454
40
0.754458920650454
40
0.814699694728854
40
0.814699694728854
40
1
40
1
40
1
40
1
41
1
10
108.202759121271
20
-5.03288416449095
30
0
41
1
10
108.49299192803
20
-5.1182589882915
30
0
41
1
10
108.782835850126
20
-5.19920062147824
30
0
41
1
10
110.592654593548
20
-5.67638045360189
30
0
41
1
10
112.106100728996
20
-5.95110637111045
30
0
41
1
10
114.016748287181
20
-6.11468596160466
30
0
41
1
10
114.399818451226
20
-6.13841500934078
30
0
41
1
10
114.976377172226
20
-6.16018244133903
30
0
41
1
10
115.168989169043
20
-6.16513225121412
30
0
41
1
10
115.553152473291
20
-6.17037591112359
30
0
41
1
10
115.744916348458
20
-6.17067587107579
30
0
41
1
10
116.525393417106
20
-6.16247087647173
30
0
41
1
10
117.111811992581
20
-6.13448307404678
30
0
41
1
10
117.696878602884
20
-6.08534004942024
30
0
0
SPLINE
5
DD
100
AcDbEntity
8
1
62
256
6
ByLayer
370
18
48
1
60
0
100
AcDbSpline
70
4
71
3
72
12
73
8
40
0
40
0
40
0
40
0
40
0.25
40
0.25
40
0.5
40
0.5
40
1
40
1
40
1
40
1
41
1
10
154.746585988627
20
1.57098655752171
30
0
41
1
10
154.916054662508
20
1.56714768467299
30
0
41
1
10
155.085409979463
20
1.56421577521203
30
0
41
1
10
155.424178577443
20
1.55788818852619
30
0
41
1
10
155.593554948082
20
1.55478782954006
30
0
41
1
10
156.101629543923
20
1.54592293313226
30
0
41
1
10
156.440203938985
20
1.54114915478024
30
0
41
1
10
156.778471038372
20
1.53883403456186
30
0
0
SPLINE
5
DE
100
AcDbEntity
8
1
62
256
6
ByLayer
370
18
48
1
60
0
100
AcDbSpline
70
4
71
3
72
32
73
28
40
0
40
0
40
0
40
0
40
0.0792398469792341
40
0.0792398469792341
40
0.158479693958468
40
0.158479693958468
40
0.316959387916936
40
0.316959387916936
40
0.39619923489617
40
0.39619923489617
40
0.475439081875403
40
0.475439081875403
40
0.554678928854637
40
0.554678928854637
40
0.63391877583387
40
0.63391877583387
40
0.673538699323485
40
0.673538699323485
40
0.713158622813101
40
0.713158622813101
40
0.792398469792335
40
0.792398469792335
40
0.871638316771568
40
0.871638316771568
40
0.950878163750801
40
0.950878163750801
40
1
40
1
40
1
40
1
41
1
10
11.6237560741695
20
-5.94744000364767
30
0
41
1
10
11.9870936025352
20
-5.97245592579577
30
0
41
1
10
12.349361070285
20
-5.9898046699206
30
0
41
1
10
13.0712300272537
20
-6.00835231972877
30
0
41
1
10
13.4309110582751
20
-6.00928565170057
30
0
41
1
10
14.5097754495617
20
-5.98880805130969
30
0
41
1
10
15.2258045625329
20
-5.94456512320502
30
0
41
1
10
16.3002015943797
20
-5.83028464408593
30
0
41
1
10
16.6582253783581
20
-5.78463164518027
30
0
41
1
10
17.3740451994578
20
-5.67825756530345
30
0
41
1
10
17.7327636716385
20
-5.61789559341233
30
0
41
1
10
18.4503892447105
20
-5.48208607219973
30
0
41
1
10
18.8094291021848
20
-5.4073128656199
30
0
41
1
10
19.5291203327769
20
-5.24361453178736
30
0
41
1
10
19.8900810356688
20
-5.15333700555792
30
0
41
1
10
20.4327502192096
20
-5.00733251159906
30
0
41
1
10
20.6138417282507
20
-4.95683580378937
30
0
41
1
10
20.9765300397802
20
-4.85228453636304
30
0
41
1
10
21.1582823390332
20
-4.79865696036091
30
0
41
1
10
21.7026054971193
20
-4.63306381677887
30
0
41
1
10
22.0648413485126
20
-4.51635568278559
30
0
41
1
10
22.7888549247797
20
-4.27171388081138
30
0
41
1
10
23.1507151657591
20
-4.14397165942665
30
0
41
1
10
23.8746416798489
20
-3.87858130103084
30
0
41
1
10
24.2364412316781
20
-3.73948933592504
30
0
41
1
10
24.823217670605
20
-3.50573387967847
30
0
41
1
10
25.0482678822638
20
-3.41468357481827
30
0
41
1
10
25.2733656244179
20
-3.32184125478148
30
0
0
SPLINE
5
DF
100
AcDbEntity
8
1
62
256
6
ByLayer
370
18
48
1
60
0
100
AcDbSpline
70
4
71
3
72
114
73
110
40
0
40
0
40
0
40
0
40
0.0070154391419853
40
0.0070154391419853
40
0.0286707917963111
40
0.0286707917963111
40
0.0503261444506371
40
0.0503261444506371
40
0.0611538207778001
40
0.0611538207778001
40
0.0719814971049633
40
0.0719814971049633
40
0.0936368497592892
40
0.0936368497592892
40
0.115292202413615
40
0.115292202413615
40
0.136947555067941
40
0.136947555067941
40
0.158602907722267
40
0.158602907722267
40
0.180258260376593
40
0.180258260376593
40
0.201913613030919
40
0.201913613030919
40
0.212741289358082
40
0.212741289358082
40
0.223568965685245
40
0.223568965685245
40
0.245224318339571
40
0.245224318339571
40
0.266879670993897
40
0.266879670993897
40
0.288535023648223
40
0.288535023648223
40
0.310190376302549
40
0.310190376302549
40
0.331845728956875
40
0.331845728956875
40
0.353501081611201
40
0.353501081611201
40
0.375156434265527
40
0.375156434265527
40
0.38598411059269
40
0.38598411059269
40
0.396811786919853
40
0.396811786919853
40
0.418467139574179
40
0.418467139574179
40
0.429294815901341
40
0.429294815901341
40
0.440122492228504
40
0.440122492228504
40
0.46177784488283
40
0.46177784488283
40
0.483433197537156
40
0.483433197537156
40
0.505088550191482
40
0.505088550191482
40
0.526743902845808
40
0.526743902845808
40
0.548399255500134
40
0.548399255500134
40
0.57005460815446
40
0.57005460815446
40
0.580882284481623
40
0.580882284481623
40
0.591709960808786
40
0.591709960808786
40
0.613365313463112
40
0.613365313463112
40
0.635020666117437
40
0.635020666117437
40
0.6458483424446
40
0.6458483424446
40
0.656676018771764
40
0.656676018771764
40
0.67833137142609
40
0.67833137142609
40
0.699986724080417
40
0.699986724080417
40
0.721642076734744
40
0.721642076734744
40
0.743297429389071
40
0.743297429389071
40
0.764952782043397
40
0.764952782043397
40
0.786608134697724
40
0.786608134697724
40
0.808263487352051
40
0.808263487352051
40
0.829918840006378
40
0.829918840006378
40
0.851574192660704
40
0.851574192660704
40
0.873229545315031
40
0.873229545315031
40
0.894884897969358
40
0.894884897969358
40
0.916540250623684
40
0.916540250623684
40
0.938195603278011
40
0.938195603278011
40
0.949023279605174
40
0.949023279605174
40
0.959850955932338
40
0.959850955932338
40
0.981506308586665
40
0.981506308586665
40
1
40
1
40
1
40
1
41
1
10
51.4047094755465
20
6.02985723192958
30
0
41
1
10
51.5219196194945
20
6.02984942519839
30
0
41
1
10
51.6391421265091
20
6.02900232803304
30
0
41
1
10
52.1181746240758
20
6.02228877643429
30
0
41
1
10
52.4804221156451
20
6.00979194469076
30
0
41
1
10
53.2054899923016
20
5.96816464680785
30
0
41
1
10
53.5675975874441
20
5.93889296691322
30
0
41
1
10
54.1099108759344
20
5.88345560486297
30
0
41
1
10
54.2904434590715
20
5.86303575657445
30
0
41
1
10
54.6519950597613
20
5.81872546557082
30
0
41
1
10
54.8327939177616
20
5.79472053654226
30
0
41
1
10
55.3750029419592
20
5.71667326951359
30
0
41
1
10
55.7362834096809
20
5.6563404281259
30
0
41
1
10
56.4595576562102
20
5.52098992074511
30
0
41
1
10
56.8215763955075
20
5.44639618681268
30
0
41
1
10
57.5466896334088
20
5.28216729638919
30
0
41
1
10
57.90836066337
20
5.19193618262449
30
0
41
1
10
58.6320936451919
20
4.99937296602465
30
0
41
1
10
58.9935717077265
20
4.896558034485
30
0
41
1
10
59.716103331864
20
4.67795663438056
30
0
41
1
10
60.0773183047747
20
4.56204638824974
30
0
41
1
10
60.8005212541133
20
4.31869936891985
30
0
41
1
10
61.1623530986562
20
4.19173442584235
30
0
41
1
10
61.7054803773541
20
3.99148639099027
30
0
41
1
10
61.8867355244396
20
3.92310996873303
30
0
41
1
10
62.2491298828653
20
3.78446688348126
30
0
41
1
10
62.4301892527786
20
3.71387558842116
30
0
41
1
10
62.9729810883082
20
3.4985257526952
30
0
41
1
10
63.3342825483666
20
3.35039013545256
30
0
41
1
10
64.0568795194945
20
3.04577080613603
30
0
41
1
10
64.4183158036281
20
2.88891909139775
30
0
41
1
10
65.1412793255735
20
2.56775254134519
30
0
41
1
10
65.502585096043
20
2.40309152047473
30
0
41
1
10
66.2270517105058
20
2.06924598223946
30
0
41
1
10
66.5897929464526
20
1.89830743854281
30
0
41
1
10
67.3134787955535
20
1.5525474178167
30
0
41
1
10
67.674960055416
20
1.37773114307373
30
0
41
1
10
68.3978391478643
20
1.02555873542875
30
0
41
1
10
68.7591097112199
20
0.847615433820636
30
0
41
1
10
69.4814568428341
20
0.488743430005542
30
0
41
1
10
69.8434916711726
20
0.309801514517204
30
0
41
1
10
70.3863945033496
20
0.0393581556602953
30
0
41
1
10
70.5674068830335
20
-0.0510135181275757
30
0
41
1
10
70.9298454999032
20
-0.231730301357516
30
0
41
1
10
71.1109485274999
20
-0.321925852969741
30
0
41
1
10
71.6539455038701
20
-0.591805380996561
30
0
41
1
10
72.0157007447157
20
-0.770562141435505
30
0
41
1
10
72.5576765018609
20
-1.03771593278611
30
0
41
1
10
72.7381882118087
20
-1.12668164778464
30
0
41
1
10
73.0992529993389
20
-1.30356442366087
30
0
41
1
10
73.2800721101702
20
-1.39095104257146
30
0
41
1
10
73.8222858020078
20
-1.65234461394809
30
0
41
1
10
74.1836956282093
20
-1.82509163182542
30
0
41
1
10
74.9072102923642
20
-2.16611202669162
30
0
41
1
10
75.2698083328758
20
-2.33439837006904
30
0
41
1
10
75.994182611754
20
-2.66266421760355
30
0
41
1
10
76.3554978335268
20
-2.82390709609044
30
0
41
1
10
77.0782235115727
20
-3.13795188110203
30
0
41
1
10
77.4397185591679
20
-3.29057732638248
30
0
41
1
10
78.1621603423492
20
-3.58692679571507
30
0
41
1
10
78.5234181327314
20
-3.73044119195228
30
0
41
1
10
79.2467853813916
20
-4.0081394641395
30
0
41
1
10
79.6092649176562
20
-4.14209885711168
30
0
41
1
10
80.1524532990184
20
-4.33416408628713
30
0
41
1
10
80.3332141725286
20
-4.3968661358181
30
0
41
1
10
80.6951144817198
20
-4.51852880001096
30
0
41
1
10
80.8760184177139
20
-4.57782613122859
30
0
41
1
10
81.4183561671911
20
-4.75179823828825
30
0
41
1
10
81.7794143850946
20
-4.86228847117789
30
0
41
1
10
82.5017663895999
20
-5.06835154246647
30
0
41
1
10
82.8631500646818
20
-5.16414502445849
30
0
41
1
10
83.4055576134445
20
-5.2985877453489
30
0
41
1
10
83.5863721077063
20
-5.34195845118597
30
0
41
1
10
83.9481224780964
20
-5.42503364177836
30
0
41
1
10
84.1290774592686
20
-5.46475043824233
30
0
41
1
10
84.672885648141
20
-5.57750108431665
30
0
41
1
10
85.0341291149891
20
-5.64459926096049
30
0
41
1
10
85.754655083459
20
-5.76476264242072
30
0
41
1
10
86.1140691044349
20
-5.81821151138215
30
0
41
1
10
86.8318056161917
20
-5.9072689397114
30
0
41
1
10
87.1901147950664
20
-5.94352027547552
30
0
41
1
10
87.9055040809266
20
-6.00101131226157
30
0
41
1
10
88.2632259126366
20
-6.02316818763958
30
0
41
1
10
88.9782974512239
20
-6.04994798786765
30
0
41
1
10
89.3355997159243
20
-6.05487605444296
30
0
41
1
10
90.0508390295973
20
-6.04937086041755
30
0
41
1
10
90.4087596901239
20
-6.03987505565422
30
0
41
1
10
91.1253857203036
20
-6.00390703305419
30
0
41
1
10
91.4838600157335
20
-5.97721013248798
30
0
41
1
10
92.2034342555279
20
-5.9084662761019
30
0
41
1
10
92.5637812182349
20
-5.86687300080612
30
0
41
1
10
93.2863377928725
20
-5.76763081124909
30
0
41
1
10
93.6491177803387
20
-5.70935142627249
30
0
41
1
10
94.3729569707158
20
-5.57835683820463
30
0
41
1
10
94.7344323243551
20
-5.50581072913366
30
0
41
1
10
95.4564067503089
20
-5.34609370005185
30
0
41
1
10
95.8178289356442
20
-5.25899861128454
30
0
41
1
10
96.5402904612734
20
-5.07053093483873
30
0
41
1
10
96.9014664190148
20
-4.96947659438871
30
0
41
1
10
97.6248332669956
20
-4.75459851284572
30
0
41
1
10
97.9875748820036
20
-4.64014996920571
30
0
41
1
10
98.5306154702683
20
-4.45931860385912
30
0
41
1
10
98.7114466955965
20
-4.3975460218613
30
0
41
1
10
99.0728318537655
20
-4.27118128170318
30
0
41
1
10
99.2536996117688
20
-4.20701655790938
30
0
41
1
10
99.7959257375152
20
-4.01009027710492
30
0
41
1
10
100.157013103273
20
-3.87282598571912
30
0
41
1
10
100.826569058067
20
-3.60893397305216
30
0
41
1
10
101.135067613091
20
-3.48395214227136
30
0
41
1
10
101.443839808226
20
-3.35578900248012
30
0
0
SPLINE
5
E0
100
AcDbEntity
8
1
62
256
6
ByLayer
370
18
48
1
60
0
100
AcDbSpline
70
4
71
3
72
54
73
50
40
0
40
0
40
0
40
0
40
0.0063407216721492
40
0.0063407216721492
40
0.0536578301639513
40
0.0536578301639513
40
0.100974938655753
40
0.100974938655753
40
0.148292047147555
40
0.148292047147555
40
0.195609155639356
40
0.195609155639356
40
0.219267709885259
40
0.219267709885259
40
0.242926264131161
40
0.242926264131161
40
0.290243372622966
40
0.290243372622966
40
0.33756048111477
40
0.33756048111477
40
0.361219035360673
40
0.361219035360673
40
0.384877589606575
40
0.384877589606575
40
0.43219469809838
40
0.43219469809838
40
0.479511806590184
40
0.479511806590184
40
0.526828915081988
40
0.526828915081988
40
0.550487469327891
40
0.550487469327891
40
0.574146023573794
40
0.574146023573794
40
0.621463132065595
40
0.621463132065595
40
0.668780240557396
40
0.668780240557396
40
0.716097349049199
40
0.716097349049199
40
0.8107315660328
40
0.8107315660328
40
0.8580486745246
40
0.8580486745246
40
0.9053657830164
40
0.9053657830164
40
0.952682891508201
40
0.952682891508201
40
1
40
1
40
1
40
1
41
1
10
127.4965788701
20
6.07578942601083
30
0
41
1
10
127.545007806852
20
6.07601687998434
30
0
41
1
10
127.593439203504
20
6.07610856920095
30
0
41
1
10
128.003312415994
20
6.07576289492675
30
0
41
1
10
128.364557873321
20
6.06819535116836
30
0
41
1
10
129.087850830179
20
6.0353413000181
30
0
41
1
10
129.450945681679
20
6.01009666412995
30
0
41
1
10
130.175448952738
20
5.94467004592315
30
0
41
1
10
130.53709474033
20
5.90479525064592
30
0
41
1
10
131.260139888377
20
5.80836173782905
30
0
41
1
10
131.621620415854
20
5.75168789650274
30
0
41
1
10
132.163495353927
20
5.65575078940972
30
0
41
1
10
132.343958740552
20
5.62192048641268
30
0
41
1
10
132.70541917038
20
5.55101475658947
30
0
41
1
10
132.886330311798
20
5.51384654723367
30
0
41
1
10
133.429074787508
20
5.3962395693257
30
0
41
1
10
133.791361294137
20
5.30941558443158
30
0
41
1
10
134.516181978005
20
5.12224163320994
30
0
41
1
10
134.878178091985
20
5.02284863499841
30
0
41
1
10
135.420718682217
20
4.86325450747529
30
0
41
1
10
135.601456277676
20
4.80830763553655
30
0
41
1
10
135.962752560336
20
4.69502420048798
30
0
41
1
10
136.143219380677
20
4.63654604802039
30
0
41
1
10
136.685511633783
20
4.45776839214321
30
0
41
1
10
137.047013903189
20
4.33324508211587
30
0
41
1
10
137.770245609753
20
4.07129899980788
30
0
41
1
10
138.132173598476
20
3.93414957529146
30
0
41
1
10
138.857528748802
20
3.64971927518101
30
0
41
1
10
139.219763963185
20
3.50324777393203
30
0
41
1
10
139.762111703666
20
3.27591159578785
30
0
41
1
10
139.942753038533
20
3.1988582543006
30
0
41
1
10
140.304418630062
20
3.04348002232672
30
0
41
1
10
140.485201868116
20
2.96474454865606
30
0
41
1
10
141.027413621511
20
2.72558190728873
30
0
41
1
10
141.388641157661
20
2.56206578197896
30
0
41
1
10
142.111832869021
20
2.22852394530415
30
0
41
1
10
142.473887295631
20
2.05866491658438
30
0
41
1
10
143.198825490539
20
1.71301874841555
30
0
41
1
10
143.56087930828
20
1.53693943269727
30
0
41
1
10
144.646749812017
20
1.00716885368948
30
0
41
1
10
145.368528103624
20
0.645893744439746
30
0
41
1
10
146.45332661373
20
0.102636347713627
30
0
41
1
10
146.815142937568
20
-0.078994523939798
30
0
41
1
10
147.539209707846
20
-0.443313618440328
30
0
41
1
10
147.902225306049
20
-0.624084899706361
30
0
41
1
10
148.624634002893
20
-0.983563195097105
30
0
41
1
10
148.984757237557
20
-1.16208217973744
30
0
41
1
10
149.703997234334
20
-1.51456316619041
30
0
41
1
10
150.063200313065
20
-1.6885873653776
30
0
41
1
10
150.421820615303
20
-1.86043595294589
30
0
0
SPLINE
5
E1
100
AcDbEntity
8
1
62
256
6
ByLayer
370
18
48
1
60
0
100
AcDbSpline
70
4
71
3
72
18
73
14
40
0
40
0
40
0
40
0
40
0.25
40
0.25
40
0.375
40
0.375
40
0.5
40
0.5
40
0.75
40
0.75
40
0.875
40
0.875
40
1
40
1
40
1
40
1
41
1
10
8.2503502875858
20
-4.21126418269867
30
0
41
1
10
8.49487885560455
20
-4.46585648493246
30
0
41
1
10
8.74876740480897
20
-4.69118513892158
30
0
41
1
10
9.1449257872041
20
-4.98914192906759
30
0
41
1
10
9.27965908963046
20
-5.08179909153594
30
0
41
1
10
9.55445020021472
20
-5.25365794098695
30
0
41
1
10
9.69334119515068
20
-5.33214228001808
30
0
41
1
10
10.1152705477669
20
-5.54663223883838
30
0
41
1
10
10.4035594674577
20
-5.66172050918885
30
0
41
1
10
10.8499575230187
20
-5.79652591492439
30
0
41
1
10
11.0010762568524
20
-5.8351394755303
30
0
41
1
10
11.3086486359154
20
-5.90024576026778
30
0
41
1
10
11.4651892971943
20
-5.92673249913457
30
0
41
1
10
11.6237560741695
20
-5.94744000364767
30
0
0
SPLINE
5
E2
100
AcDbEntity
8
1
62
256
6
ByLayer
370
13
48
1
60
0
100
AcDbSpline
70
4
71
3
72
22
73
18
40
0
40
0
40
0
40
0
40
0.0477956978574071
40
0.0477956978574071
40
0.153596175873251
40
0.153596175873251
40
0.365197131904938
40
0.365197131904938
40
0.470997609920781
40
0.470997609920781
40
0.576798087936625
40
0.576798087936625
40
0.682598565952469
40
0.682598565952469
40
0.788399043968313
40
0.788399043968313
40
1
40
1
40
1
40
1
41
1
10
8.25025151151223
20
-6.00367520991409
30
0
41
1
10
8.25025152564268
20
-6.00365033476055
30
0
41
1
10
8.25025156321519
20
-6.00219202499514
30
0
41
1
10
8.2502518000768
20
-5.99285518387029
30
0
41
1
10
8.25025214451088
20
-5.97920733735333
30
0
41
1
10
8.25025405721397
20
-5.91747431843368
30
0
41
1
10
8.25025651792384
20
-5.84886055234352
30
0
41
1
10
8.25026295649764
20
-5.70564685108801
30
0
41
1
10
8.25026555621486
20
-5.65115807847559
30
0
41
1
10
8.25027177764579
20
-5.52839762643799
30
0
41
1
10
8.25027541226524
20
-5.45990521905264
30
0
41
1
10
8.25028368894448
20
-5.31033738388962
30
0
41
1
10
8.2502883511969
20
-5.22889663824367
30
0
41
1
10
8.25029858147585
20
-5.05486348475259
30
0
41
1
10
8.25030414715633
20
-4.96228961010647
30
0
41
1
10
8.25032205863488
20
-4.66829954622401
30
0
41
1
10
8.25033563742042
20
-4.45072690478108
30
0
41
1
10
8.25035028382763
20
-4.21126421268971
30
0
0
SPLINE
5
E3
100
AcDbEntity
8
1
62
256
6
ByLayer
370
18
48
1
60
0
100
AcDbSpline
70
4
71
3
72
70
73
66
40
0
40
0
40
0
40
0
40
0.0312500000000026
40
0.0312500000000026
40
0.0625000000000052
40
0.0625000000000052
40
0.0937500000000078
40
0.0937500000000078
40
0.109375000000009
40
0.109375000000009
40
0.125000000000011
40
0.125000000000011
40
0.15625000000001
40
0.15625000000001
40
0.18750000000001
40
0.18750000000001
40
0.250000000000009
40
0.250000000000009
40
0.281250000000008
40
0.281250000000008
40
0.312500000000008
40
0.312500000000008
40
0.343750000000008
40
0.343750000000008
40
0.375000000000007
40
0.375000000000007
40
0.406250000000007
40
0.406250000000007
40
0.437500000000007
40
0.437500000000007
40
0.468750000000006
40
0.468750000000006
40
0.500000000000006
40
0.500000000000006
40
0.531250000000005
40
0.531250000000005
40
0.562500000000005
40
0.562500000000005
40
0.593750000000004
40
0.593750000000004
40
0.625000000000004
40
0.625000000000004
40
0.656250000000003
40
0.656250000000003
40
0.687500000000003
40
0.687500000000003
40
0.703125000000002
40
0.703125000000002
40
0.718750000000002
40
0.718750000000002
40
0.750000000000002
40
0.750000000000002
40
0.781250000000002
40
0.781250000000002
40
0.812500000000001
40
0.812500000000001
40
0.843750000000001
40
0.843750000000001
40
0.875000000000001
40
0.875000000000001
40
0.9375
40
0.9375
40
0.96875
40
0.96875
40
1
40
1
40
1
40
1
41
1
10
154.931009147204
20
-2.8646109172962
30
0
41
1
10
154.897104937649
20
-2.91310566121407
30
0
41
1
10
154.863232994102
20
-2.96605320573224
30
0
41
1
10
154.79757751603
20
-3.07927466900534
30
0
41
1
10
154.766148160314
20
-3.13884187550616
30
0
41
1
10
154.706502769279
20
-3.26476992001975
30
0
41
1
10
154.678261509927
20
-3.3314364590222
30
0
41
1
10
154.641022497018
20
-3.4320290632993
30
0
41
1
10
154.629367062995
20
-3.4658576362302
30
0
41
1
10
154.607690801829
20
-3.53415713883476
30
0
41
1
10
154.597689699759
20
-3.56863120561803
30
0
41
1
10
154.571210630987
20
-3.66969682818123
30
0
41
1
10
154.557817349997
20
-3.73523111624914
30
0
41
1
10
154.540082491003
20
-3.86149073124352
30
0
41
1
10
154.53610652749
20
-3.91944159526494
30
0
41
1
10
154.537470525776
20
-4.07922111779808
30
0
41
1
10
154.556588892375
20
-4.16250336737963
30
0
41
1
10
154.603093970581
20
-4.24938387420792
30
0
41
1
10
154.621642133435
20
-4.27242479811665
30
0
41
1
10
154.663545101906
20
-4.30718416670697
30
0
41
1
10
154.686628993964
20
-4.3187661101835
30
0
41
1
10
154.736563880322
20
-4.33168773381001
30
0
41
1
10
154.763619066512
20
-4.3329573174388
30
0
41
1
10
154.820062922679
20
-4.325751480685
30
0
41
1
10
154.849499818405
20
-4.31736165249694
30
0
41
1
10
154.910682445064
20
-4.29148530454782
30
0
41
1
10
154.942659873633
20
-4.27382868762297
30
0
41
1
10
155.007757295556
20
-4.22995844938285
30
0
41
1
10
155.040787028155
20
-4.20387173068903
30
0
41
1
10
155.10780815593
20
-4.14339837988058
30
0
41
1
10
155.14179885299
20
-4.10901777306205
30
0
41
1
10
155.210832564749
20
-4.0311742206581
30
0
41
1
10
155.245535730058
20
-3.98805217281097
30
0
41
1
10
155.314175468629
20
-3.89413470577327
30
0
41
1
10
155.348517680353
20
-3.84273200823986
30
0
41
1
10
155.414739862798
20
-3.73377644258616
30
0
41
1
10
155.44679615153
20
-3.67606048744773
30
0
41
1
10
155.508447580839
20
-3.5530730187798
30
0
41
1
10
155.53775487686
20
-3.48821290794933
30
0
41
1
10
155.590578610255
20
-3.35603136114588
30
0
41
1
10
155.614724221063
20
-3.28695640172685
30
0
41
1
10
155.654586665184
20
-3.15174762253682
30
0
41
1
10
155.670563030574
20
-3.08526680067331
30
0
41
1
10
155.693848558864
20
-2.95491617308579
30
0
41
1
10
155.700558421474
20
-2.89441206753307
30
0
41
1
10
155.703769572472
20
-2.81014596237836
30
0
41
1
10
155.703666438098
20
-2.78308105775804
30
0
41
1
10
155.701247805377
20
-2.73250937625787
30
0
41
1
10
155.698947706521
20
-2.70880311323379
30
0
41
1
10
155.689006786133
20
-2.64208749498965
30
0
41
1
10
155.678213939945
20
-2.60341160531507
30
0
41
1
10
155.650403432633
20
-2.53936169071275
30
0
41
1
10
155.633173511643
20
-2.51332400484242
30
0
41
1
10
155.593810907506
20
-2.47304358454869
30
0
41
1
10
155.571877370739
20
-2.45884939776013
30
0
41
1
10
155.524125308063
20
-2.44071760899766
30
0
41
1
10
155.498155809077
20
-2.43680754498584
30
0
41
1
10
155.443141230907
20
-2.43880924040297
30
0
41
1
10
155.414390551901
20
-2.44465479291984
30
0
41
1
10
155.324683493216
20
-2.47565348665478
30
0
41
1
10
155.259671473897
20
-2.5147925645837
30
0
41
1
10
155.160267740909
20
-2.59740242930002
30
0
41
1
10
155.126639120328
20
-2.62900115082061
30
0
41
1
10
155.058319000722
20
-2.70093775056355
30
0
41
1
10
155.023507169267
20
-2.74149214729911
30
0
41
1
10
154.989255508726
20
-2.78555361397403
30
0
0
SPLINE
5
E4
100
AcDbEntity
8
1
62
256
6
ByLayer
370
18
48
1
60
0
100
AcDbSpline
70
4
71
3
72
8
73
4
40
0
40
0
40
0
40
0
40
1
40
1
40
1
40
1
41
1
10
154.812961236697
20
-6.17172245053675
30
0
41
1
10
154.779158870708
20
-6.25808427386451
30
0
41
1
10
154.745313955224
20
-6.34433536696531
30
0
41
1
10
154.711432809465
20
-6.43047879372119
30
0
0
SPLINE
5
E5
100
AcDbEntity
8
1
62
256
6
ByLayer
370
18
48
1
60
0
100
AcDbSpline
70
4
71
3
72
8
73
4
40
0
40
0
40
0
40
0
40
1
40
1
40
1
40
1
41
1
10
154.711432809465
20
6.43047879372119
30
0
41
1
10
154.396472638879
20
6.44327809470659
30
0
41
1
10
154.081287791535
20
6.44952146194251
30
0
41
1
10
153.766145890376
20
6.44924484606918
30
0
0
SPLINE
5
E6
100
AcDbEntity
8
1
62
256
6
ByLayer
370
18
48
1
60
0
100
AcDbSpline
70
4
71
3
72
58
73
54
40
0
40
0
40
0
40
0
40
0.0086577729168809
40
0.0086577729168809
40
0.0358834801855129
40
0.0358834801855129
40
0.0903348947227785
40
0.0903348947227785
40
0.11756060199141
40
0.11756060199141
40
0.144786309260042
40
0.144786309260042
40
0.253689138334575
40
0.253689138334575
40
0.308140552871842
40
0.308140552871842
40
0.335366260140476
40
0.335366260140476
40
0.362591967409109
40
0.362591967409109
40
0.417043381946375
40
0.417043381946375
40
0.444269089215007
40
0.444269089215007
40
0.471494796483639
40
0.471494796483639
40
0.525946211020905
40
0.525946211020905
40
0.553171918289536
40
0.553171918289536
40
0.580397625558169
40
0.580397625558169
40
0.634849040095433
40
0.634849040095433
40
0.689300454632696
40
0.689300454632696
40
0.716526161901329
40
0.716526161901329
40
0.743751869169962
40
0.743751869169962
40
0.798203283707226
40
0.798203283707226
40
0.825428990975859
40
0.825428990975859
40
0.852654698244492
40
0.852654698244492
40
0.907106112781756
40
0.907106112781756
40
0.934331820050388
40
0.934331820050388
40
0.961557527319019
40
0.961557527319019
40
1
40
1
40
1
40
1
41
1
10
119.614653425344
20
-6.09102694747693
30
0
41
1
10
119.493041844631
20
-6.11154789135898
30
0
41
1
10
119.371375419394
20
-6.13115844710222
30
0
41
1
10
118.866835322949
20
-6.20862604311472
30
0
41
1
10
118.484115698718
20
-6.25818190536677
30
0
41
1
10
117.337956275934
20
-6.37843762547044
30
0
41
1
10
116.575330407107
20
-6.4209124709954
30
0
41
1
10
115.429181870884
20
-6.42723033438739
30
0
41
1
10
115.046393596786
20
-6.41975636340609
30
0
41
1
10
114.28092297454
20
-6.38564086407089
30
0
41
1
10
113.899546187326
20
-6.35907751947178
30
0
41
1
10
111.997544041464
20
-6.18008641006102
30
0
41
1
10
110.491625678257
20
-5.88889884284018
30
0
41
1
10
108.221689317094
20
-5.25774018060795
30
0
41
1
10
107.46332342158
20
-5.01487446926248
30
0
41
1
10
106.318661583827
20
-4.60589216086521
30
0
41
1
10
105.935254959377
20
-4.46184602336695
30
0
41
1
10
105.170111825917
20
-4.16147152094248
30
0
41
1
10
104.788070851466
20
-4.00511065981678
30
0
41
1
10
103.642488743978
20
-3.51916072221701
30
0
41
1
10
102.879553506458
20
-3.17258886463881
30
0
41
1
10
101.731712484738
20
-2.62612952734523
30
0
41
1
10
101.348385557553
20
-2.43943058377789
30
0
41
1
10
100.583552693047
20
-2.06031260550162
30
0
41
1
10
100.201590912317
20
-1.86768263759581
30
0
41
1
10
99.0560477749611
20
-1.28246604979714
30
0
41
1
10
98.2927441311261
20
-0.882666427210467
30
0
41
1
10
97.1438979716881
20
-0.276790516666608
30
0
41
1
10
96.7609218112056
20
-0.0740597247906578
30
0
41
1
10
95.9964252715811
20
0.330170233176318
30
0
41
1
10
95.6145424705227
20
0.531829439893926
30
0
41
1
10
94.4689535070656
20
1.13348310951412
30
0
41
1
10
93.7049869870651
20
1.53036271711309
30
0
41
1
10
92.1725308542855
20
2.3030958170171
30
0
41
1
10
91.4090595998578
20
2.67663565282763
30
0
41
1
10
90.2632901705431
20
3.20971734111671
30
0
41
1
10
89.8812907163205
20
3.38290692771423
30
0
41
1
10
89.1164699630173
20
3.71914468885635
30
0
41
1
10
88.7331761623556
20
3.88235865362003
30
0
41
1
10
87.5846104917315
20
4.35307455455703
30
0
41
1
10
86.8212474481948
20
4.64168059662555
30
0
41
1
10
85.6752535707841
20
5.03102331829678
30
0
41
1
10
85.2930930525231
20
5.15354147656547
30
0
41
1
10
84.5277621648385
20
5.38318076989836
30
0
41
1
10
84.1442547431046
20
5.4903458185521
30
0
41
1
10
82.9963190947522
20
5.78594243576924
30
0
41
1
10
82.2330670851509
20
5.94907429092464
30
0
41
1
10
81.0866823231277
20
6.13961752752368
30
0
41
1
10
80.7043421694017
20
6.19413251642683
30
0
41
1
10
79.9384181319177
20
6.28461526596811
30
0
41
1
10
79.5550830788334
20
6.32052254021394
30
0
41
1
10
78.6325466882179
20
6.38408911288798
30
0
41
1
10
78.0933584304606
20
6.40235957295201
30
0
41
1
10
77.5539458547297
20
6.40163443034507
30
0
0
SPLINE
5
E7
100
AcDbEntity
8
1
62
256
6
ByLayer
370
18
48
1
60
0
100
AcDbSpline
70
4
71
3
72
44
73
40
40
0
40
0
40
0
40
0
40
0.0267319480009752
40
0.0267319480009752
40
0.0591742164009432
40
0.0591742164009432
40
0.0916164848009117
40
0.0916164848009117
40
0.156501021600847
40
0.156501021600847
40
0.188943290000815
40
0.188943290000815
40
0.221385558400782
40
0.221385558400782
40
0.286270095200719
40
0.286270095200719
40
0.351154632000655
40
0.351154632000655
40
0.416039168800592
40
0.416039168800592
40
0.448481437200559
40
0.448481437200559
40
0.480923705600527
40
0.480923705600527
40
0.610692779200397
40
0.610692779200397
40
0.675577316000331
40
0.675577316000331
40
0.708019584400298
40
0.708019584400298
40
0.740461852800266
40
0.740461852800266
40
0.805346389600199
40
0.805346389600199
40
0.837788658000166
40
0.837788658000166
40
0.870230926400133
40
0.870230926400133
40
1
40
1
40
1
40
1
41
1
10
43.4436702936173
20
-6.04101144480174
30
0
41
1
10
43.1311324180874
20
-6.09372797057281
30
0
41
1
10
42.8181888729966
20
-6.14049181050834
30
0
41
1
10
42.1241411394773
20
-6.23047426196098
30
0
41
1
10
41.742720442791
20
-6.27078046571353
30
0
41
1
10
40.9773139937339
20
-6.33276027863798
30
0
41
1
10
40.5932862795908
20
-6.35440059844817
30
0
41
1
10
39.4447369151499
20
-6.39051649315149
30
0
41
1
10
38.6808232434669
20
-6.37644623253874
30
0
41
1
10
37.5333558425863
20
-6.29859232062645
30
0
41
1
10
37.1505828958915
20
-6.26318698452764
30
0
41
1
10
36.3837237126227
20
-6.17359205114786
30
0
41
1
10
36.0002302813936
20
-6.11945554875606
30
0
41
1
10
34.8520118634559
20
-5.9301956816447
30
0
41
1
10
34.0880502551216
20
-5.76811200127477
30
0
41
1
10
32.5573199761264
20
-5.37669960858432
30
0
41
1
10
31.7893031629674
20
-5.14681075371564
30
0
41
1
10
30.258758144246
20
-4.6301726262916
30
0
41
1
10
29.4947216535109
20
-4.34310347819488
30
0
41
1
10
28.3460739698767
20
-3.87536566848172
30
0
41
1
10
27.9620998579384
20
-3.71295406686292
30
0
41
1
10
27.1961152814323
20
-3.37834075263677
30
0
41
1
10
26.8144126912415
20
-3.20631260523433
30
0
41
1
10
24.9104124125261
20
-2.32615839771694
30
0
41
1
10
23.4019395450343
20
-1.55743103711939
30
0
41
1
10
21.1272489083635
20
-0.371525930318796
30
0
41
1
10
20.3668633487439
20
0.0289161435873098
30
0
41
1
10
19.2190279928315
20
0.629608196156056
30
0
41
1
10
18.8348147068826
20
0.830191683749405
30
0
41
1
10
18.0685998563214
20
1.22713507014541
30
0
41
1
10
17.6860034665679
20
1.42379456439309
30
0
41
1
10
16.5385360670081
20
2.00610692745187
30
0
41
1
10
15.7740056487742
20
2.38413152864396
30
0
41
1
10
14.6236303983696
20
2.92813677322195
30
0
41
1
10
14.2397466262071
20
3.10552454793691
30
0
41
1
10
13.4747340848825
20
3.44921501102547
30
0
41
1
10
13.0930201045165
20
3.61578632998587
30
0
41
1
10
11.1865739433345
20
4.41961423586099
30
0
41
1
10
9.66821623583351
20
4.96969137928539
30
0
41
1
10
8.13386275912819
20
5.39485445529175
30
0
0
SPLINE
5
E8
100
AcDbEntity
8
1
62
256
6
ByLayer
370
18
48
1
60
0
100
AcDbSpline
70
4
71
3
72
16
73
12
40
0
40
0
40
0
40
0
40
0.0651735035797897
40
0.0651735035797897
40
0.136950419957681
40
0.136950419957681
40
0.280504252713466
40
0.280504252713466
40
0.854719583736604
40
0.854719583736604
40
1
40
1
40
1
40
1
41
1
10
115.906904922077
20
-6.07071878025388
30
0
41
1
10
115.733024359485
20
-6.07072008538722
30
0
41
1
10
115.558912989968
20
-6.06884158668154
30
0
41
1
10
115.192506543478
20
-6.06093880583339
30
0
41
1
10
114.999964147911
20
-6.05450675691728
30
0
41
1
10
114.423683019128
20
-6.0284329038472
30
0
41
1
10
114.040764514492
20
-6.00201060211879
30
0
41
1
10
112.130729948769
20
-5.82584921308316
30
0
41
1
10
110.617236563076
20
-5.54395765970128
30
0
41
1
10
108.712498527607
20
-5.03668765142061
30
0
41
1
10
108.327482508736
20
-4.92639366292454
30
0
41
1
10
107.941704564997
20
-4.80858191536319
30
0
0
SPLINE
5
E9
100
AcDbEntity
8
1
62
256
6
ByLayer
370
13
48
1
60
0
100
AcDbSpline
70
4
71
3
72
26
73
22
40
0
40
0
40
0
40
0
40
0.0769689286073654
40
0.0769689286073654
40
0.115921929963059
40
0.115921929963059
40
0.154874931318753
40
0.154874931318753
40
0.232780934030145
40
0.232780934030145
40
0.544404944875713
40
0.544404944875713
40
0.700216950298496
40
0.700216950298496
40
0.739169951654191
40
0.739169951654191
40
0.778122953009885
40
0.778122953009885
40
0.85602895572127
40
0.85602895572127
40
1
40
1
40
1
40
1
41
1
10
107.941703607921
20
-4.80858162308414
30
0
41
1
10
107.565095529428
20
-4.69357022564452
30
0
41
1
10
107.187761316912
20
-4.5713942131863
30
0
41
1
10
106.617878739903
20
-4.3770840955267
30
0
41
1
10
106.4260998697
20
-4.31004556037212
30
0
41
1
10
106.041921784268
20
-4.17255752001543
30
0
41
1
10
105.849346812184
20
-4.10203781282493
30
0
41
1
10
105.273021412948
20
-3.88644930934313
30
0
41
1
10
104.890053208628
20
-3.73714262105406
30
0
41
1
10
102.979710934498
20
-2.96592073478655
30
0
41
1
10
101.466024968343
20
-2.26962143678742
30
0
41
1
10
99.185435293928
20
-1.16662035366744
30
0
41
1
10
98.4235737527455
20
-0.789192041511512
30
0
41
1
10
97.4658142676125
20
-0.311768969764898
30
0
41
1
10
97.2739890569574
20
-0.216004893261896
30
0
41
1
10
96.889720301079
20
-0.0240630924606364
30
0
41
1
10
96.697111210413
20
0.0722037963239757
30
0
41
1
10
96.1207185628899
20
0.360082786177571
30
0
41
1
10
95.7376976785189
20
0.551089823406585
30
0
41
1
10
94.6494058359169
20
1.09052297024812
30
0
41
1
10
93.9463414237083
20
1.43515809323341
30
0
41
1
10
93.2442748504849
20
1.77037061223692
30
0
0
SPLINE
5
EA
100
AcDbEntity
8
1
62
256
6
ByLayer
370
18
48
1
60
0
100
AcDbSpline
70
4
71
3
72
14
73
10
40
0
40
0
40
0
40
0
40
0.530899155506758
40
0.530899155506758
40
0.843008782324853
40
0.843008782324853
40
0.9990635957339
40
0.9990635957339
40
1
40
1
40
1
40
1
41
1
10
39.6661712459901
20
-6.02316792921982
30
0
41
1
10
38.3708802958627
20
-6.02088472411401
30
0
41
1
10
37.0809887669501
20
-5.91553207343745
30
0
41
1
10
35.0211901976416
20
-5.59026339505138
30
0
41
1
10
34.2559715386668
20
-5.43559704452781
30
0
41
1
10
33.1003312821994
20
-5.15400334573255
30
0
41
1
10
32.7157422255748
20
-5.05235571418868
30
0
41
1
10
32.3302075598816
20
-4.94304043434099
30
0
41
1
10
32.3279080018835
20
-4.94238814591236
30
0
41
1
10
32.3256084813549
20
-4.94173560115064
30
0
0
SPLINE
5
EB
100
AcDbEntity
8
1
62
256
6
ByLayer
370
13
48
1
60
0
100
AcDbSpline
70
4
71
3
72
22
73
18
40
0
40
0
40
0
40
0
40
0.0740685788848208
40
0.0740685788848208
40
0.372131165035538
40
0.372131165035538
40
0.521162458110898
40
0.521162458110898
40
0.595678104648577
40
0.595678104648577
40
0.670193751186256
40
0.670193751186256
40
0.819225044261616
40
0.819225044261616
40
0.968256337336976
40
0.968256337336976
40
1
40
1
40
1
40
1
41
1
10
32.3256094413613
20
-4.94173587357579
30
0
41
1
10
31.9446860727193
20
-4.83363963462949
30
0
41
1
10
31.5647909062433
20
-4.71850934731518
30
0
41
1
10
29.6594070507037
20
-4.10739188004106
30
0
41
1
10
28.1440636073192
20
-3.51222693789245
30
0
41
1
10
25.8559818296736
20
-2.51169872025238
30
0
41
1
10
25.0907365712135
20
-2.16032222069887
30
0
41
1
10
23.934972934975
20
-1.61329555324235
30
0
41
1
10
23.5501397233977
20
-1.4284316827771
30
0
41
1
10
22.7834842465962
20
-1.0562251238064
30
0
41
1
10
22.4012059071005
20
-0.868714476797891
30
0
41
1
10
21.2563216232346
20
-0.304463168867386
30
0
41
1
10
20.495673754379
20
0.0740179179420011
30
0
41
1
10
18.9745184794624
20
0.825113963397683
30
0
41
1
10
18.2143285060411
20
1.19841418350359
30
0
41
1
10
17.2891103053361
20
1.64111808986939
30
0
41
1
10
17.1265281784681
20
1.71847864427829
30
0
41
1
10
16.963804793126
20
1.79541025742293
30
0
0
SPLINE
5
EC
100
AcDbEntity
8
1
62
256
6
ByLayer
370
13
48
1
60
0
100
AcDbSpline
70
4
71
3
72
16
73
12
40
0
40
0
40
0
40
0
40
0.176262173293357
40
0.176262173293357
40
0.357882326542039
40
0.357882326542039
40
0.53950247979072
40
0.53950247979072
40
0.902742786288084
40
0.902742786288084
40
1
40
1
40
1
40
1
41
1
10
8.25023629664565
20
5.37359989161098
30
0
41
1
10
8.25023959869108
20
5.44624396687755
30
0
41
1
10
8.25024219745242
20
5.51275563451273
30
0
41
1
10
8.2502463602508
20
5.63554044319409
30
0
41
1
10
8.25024788706747
20
5.69140615189923
30
0
41
1
10
8.25025008313472
20
5.79003774224543
30
0
41
1
10
8.25025075130858
20
5.83286655751428
30
0
41
1
10
8.2502519275464
20
5.93942369480783
30
0
41
1
10
8.25025164754703
20
5.98225268577229
30
0
41
1
10
8.25025151242022
20
6.00152747765543
30
0
41
1
10
8.25025149517813
20
6.00360748681013
30
0
41
1
10
8.25025151037167
20
6.00367389136449
30
0
0
SPLINE
5
ED
100
AcDbEntity
8
1
62
256
6
ByLayer
370
18
48
1
60
0
100
AcDbSpline
70
4
71
3
72
116
73
112
40
0
40
0
40
0
40
0
40
0.0006919765003689
40
0.0006919765003689
40
0.0223164011265902
40
0.0223164011265902
40
0.0439408257528116
40
0.0439408257528116
40
0.0655652503790329
40
0.0655652503790329
40
0.0871896750052543
40
0.0871896750052543
40
0.108814099631476
40
0.108814099631476
40
0.130438524257697
40
0.130438524257697
40
0.141250736570807
40
0.141250736570807
40
0.152062948883917
40
0.152062948883917
40
0.173687373510136
40
0.173687373510136
40
0.195311798136354
40
0.195311798136354
40
0.216936222762573
40
0.216936222762573
40
0.238560647388792
40
0.238560647388792
40
0.260185072015011
40
0.260185072015011
40
0.281809496641229
40
0.281809496641229
40
0.292621708954339
40
0.292621708954339
40
0.303433921267448
40
0.303433921267448
40
0.325058345893667
40
0.325058345893667
40
0.346682770519886
40
0.346682770519886
40
0.368307195146104
40
0.368307195146104
40
0.389931619772323
40
0.389931619772323
40
0.411556044398542
40
0.411556044398542
40
0.433180469024761
40
0.433180469024761
40
0.454804893650979
40
0.454804893650979
40
0.476429318277198
40
0.476429318277198
40
0.487241530590308
40
0.487241530590308
40
0.498053742903418
40
0.498053742903418
40
0.519678167529637
40
0.519678167529637
40
0.541302592155856
40
0.541302592155856
40
0.562927016782074
40
0.562927016782074
40
0.584551441408293
40
0.584551441408293
40
0.595363653721403
40
0.595363653721403
40
0.606175866034513
40
0.606175866034513
40
0.627800290660732
40
0.627800290660732
40
0.649424715286951
40
0.649424715286951
40
0.660236927600059
40
0.660236927600059
40
0.671049139913168
40
0.671049139913168
40
0.692673564539385
40
0.692673564539385
40
0.714297989165603
40
0.714297989165603
40
0.73592241379182
40
0.73592241379182
40
0.746734626104928
40
0.746734626104928
40
0.757546838418036
40
0.757546838418036
40
0.779171263044252
40
0.779171263044252
40
0.800795687670468
40
0.800795687670468
40
0.811607899983576
40
0.811607899983576
40
0.822420112296684
40
0.822420112296684
40
0.844044536922902
40
0.844044536922902
40
0.865668961549119
40
0.865668961549119
40
0.887293386175336
40
0.887293386175336
40
0.908917810801554
40
0.908917810801554
40
0.930542235427771
40
0.930542235427771
40
0.952166660053989
40
0.952166660053989
40
0.973791084680206
40
0.973791084680206
40
0.995415509306423
40
0.995415509306423
40
1
40
1
40
1
40
1
41
1
10
139.616281868328
20
-3.33702266958431
30
0
41
1
10
139.604804520807
20
-3.34184439746684
30
0
41
1
10
139.593327696258
20
-3.34666070765269
30
0
41
1
10
139.223211722134
20
-3.50180765395092
30
0
41
1
10
138.864897585337
20
-3.64672492533066
30
0
41
1
10
138.148964369096
20
-3.92766684355433
30
0
41
1
10
137.791472441172
20
-4.06331743951878
30
0
41
1
10
137.076583665314
20
-4.32280854977569
30
0
41
1
10
136.71902263387
20
-4.44634787337873
30
0
41
1
10
136.003305865163
20
-4.68300799520341
30
0
41
1
10
135.645858233817
20
-4.79636997196968
30
0
41
1
10
134.928916337419
20
-5.0084990783682
30
0
41
1
10
134.569856665127
20
-5.10766481076712
30
0
41
1
10
133.850559103725
20
-5.2947402806231
30
0
41
1
10
133.490242058148
20
-5.3820177358979
30
0
41
1
10
132.947731305375
20
-5.50091207533674
30
0
41
1
10
132.766442832594
20
-5.53863142553257
30
0
41
1
10
132.403872276769
20
-5.61046373694805
30
0
41
1
10
132.223007307834
20
-5.64475226022145
30
0
41
1
10
131.680191081909
20
-5.74204727063218
30
0
41
1
10
131.318409947231
20
-5.79962540445544
30
0
41
1
10
130.595552979796
20
-5.89781930970665
30
0
41
1
10
130.234416048878
20
-5.93846467021692
30
0
41
1
10
129.511648950166
20
-6.00536028375942
30
0
41
1
10
129.149756531183
20
-6.03148400476277
30
0
41
1
10
128.425827082464
20
-6.06629347359552
30
0
41
1
10
128.063318714117
20
-6.0748496447992
30
0
41
1
10
127.33864241964
20
-6.0770557935567
30
0
41
1
10
126.97678977158
20
-6.070826237414
30
0
41
1
10
126.253740672618
20
-6.04105009204739
30
0
41
1
10
125.892453391349
20
-6.01713522083006
30
0
41
1
10
125.350031740999
20
-5.97034391509533
30
0
41
1
10
125.169080682561
20
-5.95296005961569
30
0
41
1
10
124.807628615399
20
-5.91409927553167
30
0
41
1
10
124.626872144542
20
-5.89273240697062
30
0
41
1
10
124.084029804648
20
-5.82246390394891
30
0
41
1
10
123.721132693695
20
-5.76700154186511
30
0
41
1
10
122.996166435032
20
-5.64153605476724
30
0
41
1
10
122.634263452681
20
-5.57194617358857
30
0
41
1
10
121.910756367073
20
-5.41753318899089
30
0
41
1
10
121.548859460713
20
-5.33256303448468
30
0
41
1
10
120.826280115796
20
-5.14833839832636
30
0
41
1
10
120.464628155771
20
-5.05039454937292
30
0
41
1
10
119.740596581272
20
-4.84070632941854
30
0
41
1
10
119.37819099794
20
-4.72783249362425
30
0
41
1
10
118.652848725604
20
-4.49034014290422
30
0
41
1
10
118.290573472026
20
-4.36640604560017
30
0
41
1
10
117.566374004469
20
-4.10767350938349
30
0
41
1
10
117.205139961862
20
-3.9711656308481
30
0
41
1
10
116.481876884313
20
-3.68965958367676
30
0
41
1
10
116.120059199374
20
-3.54455877161152
30
0
41
1
10
115.577205283799
20
-3.31952022086395
30
0
41
1
10
115.396204455435
20
-3.24328888711835
30
0
41
1
10
115.033966237512
20
-3.08810836311099
30
0
41
1
10
114.852710965289
20
-3.00922604413063
30
0
41
1
10
114.308353676384
20
-2.77026542716834
30
0
41
1
10
113.945525763752
20
-2.60801794014097
30
0
41
1
10
113.221625370533
20
-2.27583740253419
30
0
41
1
10
112.859747371224
20
-2.10692338446165
30
0
41
1
10
112.136190233095
20
-1.76355756178066
30
0
41
1
10
111.774547440458
20
-1.58935519254328
30
0
41
1
10
111.050756663137
20
-1.23717458374793
30
0
41
1
10
110.688475105814
20
-1.05936953443847
30
0
41
1
10
110.144071075038
20
-0.790233849468621
30
0
41
1
10
109.962665723864
20
-0.699610387443499
30
0
41
1
10
109.600347873074
20
-0.518921851874893
30
0
41
1
10
109.419377193011
20
-0.428659127704719
30
0
41
1
10
108.877046752456
20
-0.158150812721203
30
0
41
1
10
108.516416732423
20
0.0221380916467808
30
0
41
1
10
107.797115607766
20
0.381956637989845
30
0
41
1
10
107.438129717625
20
0.561304181781622
30
0
41
1
10
106.89985902616
20
0.828029793571403
30
0
41
1
10
106.720472313757
20
0.916538301072649
30
0
41
1
10
106.361960805298
20
1.09306487410925
30
0
41
1
10
106.183058678029
20
1.18151864770348
30
0
41
1
10
105.645999918633
20
1.44441351411069
30
0
41
1
10
105.287774558459
20
1.61725587398183
30
0
41
1
10
104.571267585261
20
1.95933467601316
30
0
41
1
10
104.213002717537
20
2.1284769259689
30
0
41
1
10
103.495477282578
20
2.46043649239692
30
0
41
1
10
103.135934818498
20
2.62276765621479
30
0
41
1
10
102.595978136569
20
2.86230155819573
30
0
41
1
10
102.416042746371
20
2.94173797971655
30
0
41
1
10
102.055409638304
20
3.09811649698258
30
0
41
1
10
101.874813486609
20
3.17523990560062
30
0
41
1
10
101.332172508526
20
3.40344852924545
30
0
41
1
10
100.968876483079
20
3.55197073565191
30
0
41
1
10
100.243300230865
20
3.83950335272479
30
0
41
1
10
99.8810513790697
20
3.9781649808659
30
0
41
1
10
99.3377669598297
20
4.17683168122178
30
0
41
1
10
99.1566079642013
20
4.24144903420614
30
0
41
1
10
98.7948570435369
20
4.36864694045403
30
0
41
1
10
98.6140602450328
20
4.43094423018317
30
0
41
1
10
98.071285672608
20
4.61311828521812
30
0
41
1
10
97.7091306868684
20
4.72842597226818
30
0
41
1
10
96.9844959798576
20
4.94571021576269
30
0
41
1
10
96.6217512620262
20
5.04813625097773
30
0
41
1
10
95.8955737264814
20
5.23963514847878
30
0
41
1
10
95.5326026385462
20
5.32803696273839
30
0
41
1
10
94.8087498737066
20
5.49034295349404
30
0
41
1
10
94.4468225206805
20
5.5638851821422
30
0
41
1
10
93.7227703596448
20
5.69692220002432
30
0
41
1
10
93.3608782980524
20
5.7561361841054
30
0
41
1
10
92.6365689087825
20
5.85789999787306
30
0
41
1
10
92.2740217561607
20
5.90066813064303
30
0
41
1
10
91.5475293539574
20
5.97200338680699
30
0
41
1
10
91.185017667533
20
5.99994735722964
30
0
41
1
10
90.4604744804785
20
6.03810811142003
30
0
41
1
10
90.098401868691
20
6.04835798512428
30
0
41
1
10
89.6597726874111
20
6.05247371404525
30
0
41
1
10
89.5830546163085
20
6.05284315568665
30
0
41
1
10
89.506338323839
20
6.05285364808444
30
0
0
SPLINE
5
EE
100
AcDbEntity
8
1
62
256
6
ByLayer
370
18
48
1
60
0
100
AcDbSpline
70
4
71
3
72
108
73
104
40
0
40
0
40
0
40
0
40
0.0156422162258361
40
0.0156422162258361
40
0.0373068980236275
40
0.0373068980236275
40
0.0589715798214192
40
0.0589715798214192
40
0.0806362616192106
40
0.0806362616192106
40
0.102300943417002
40
0.102300943417002
40
0.123965625214794
40
0.123965625214794
40
0.145630307012585
40
0.145630307012585
40
0.167294988810377
40
0.167294988810377
40
0.178127329709272
40
0.178127329709272
40
0.188959670608167
40
0.188959670608167
40
0.210624352405958
40
0.210624352405958
40
0.232289034203747
40
0.232289034203747
40
0.253953716001537
40
0.253953716001537
40
0.275618397799328
40
0.275618397799328
40
0.297283079597117
40
0.297283079597117
40
0.318947761394907
40
0.318947761394907
40
0.329780102293802
40
0.329780102293802
40
0.340612443192697
40
0.340612443192697
40
0.362277124990487
40
0.362277124990487
40
0.383941806788277
40
0.383941806788277
40
0.405606488586068
40
0.405606488586068
40
0.427271170383858
40
0.427271170383858
40
0.448935852181648
40
0.448935852181648
40
0.470600533979438
40
0.470600533979438
40
0.492265215777229
40
0.492265215777229
40
0.513929897575019
40
0.513929897575019
40
0.53559457937281
40
0.53559457937281
40
0.546426920271704
40
0.546426920271704
40
0.557259261170599
40
0.557259261170599
40
0.578923942968387
40
0.578923942968387
40
0.600588624766176
40
0.600588624766176
40
0.622253306563965
40
0.622253306563965
40
0.643917988361754
40
0.643917988361754
40
0.665582670159542
40
0.665582670159542
40
0.687247351957331
40
0.687247351957331
40
0.698079692856226
40
0.698079692856226
40
0.70891203375512
40
0.70891203375512
40
0.730576715552909
40
0.730576715552909
40
0.752241397350698
40
0.752241397350698
40
0.773906079148487
40
0.773906079148487
40
0.795570760946276
40
0.795570760946276
40
0.817235442744064
40
0.817235442744064
40
0.838900124541853
40
0.838900124541853
40
0.849732465440748
40
0.849732465440748
40
0.860564806339642
40
0.860564806339642
40
0.882229488137431
40
0.882229488137431
40
0.903894169935219
40
0.903894169935219
40
0.925558851733008
40
0.925558851733008
40
0.947223533530797
40
0.947223533530797
40
0.990552897126375
40
0.990552897126375
40
1
40
1
40
1
40
1
41
1
10
63.3988545077044
20
-3.32221749096809
30
0
41
1
10
63.1401806068504
20
-3.42959353744519
30
0
41
1
10
62.8813512510791
20
-3.53480529036636
30
0
41
1
10
62.2632056637112
20
-3.78022442880837
30
0
41
1
10
61.903601702566
20
-3.91820053164494
30
0
41
1
10
61.1835469992425
20
-4.18414756166419
30
0
41
1
10
60.8223652953967
20
-4.31112668644025
30
0
41
1
10
60.0981079959359
20
-4.55526073210896
30
0
41
1
10
59.7347960918229
20
-4.67208412328082
30
0
41
1
10
59.0101605140327
20
-4.89174581552612
30
0
41
1
10
58.6481071563004
20
-4.9949134051445
30
0
41
1
10
57.92410431293
20
-5.18793763508296
30
0
41
1
10
57.5628975299095
20
-5.2782541483991
30
0
41
1
10
56.839204849834
20
-5.44263476742711
30
0
41
1
10
56.4771499036872
20
-5.51746816115886
30
0
41
1
10
55.7524767255891
20
-5.65352923323076
30
0
41
1
10
55.3893851321611
20
-5.71440422390924
30
0
41
1
10
54.8453644867047
20
-5.79300518447189
30
0
41
1
10
54.6640921247552
20
-5.81716363249484
30
0
41
1
10
54.3017964328465
20
-5.86171868614395
30
0
41
1
10
54.1210136390601
20
-5.8822403380168
30
0
41
1
10
53.5783042476087
20
-5.93795199877829
30
0
41
1
10
53.2163925816929
20
-5.9673587162967
30
0
41
1
10
52.4927381712279
20
-6.00925917291551
30
0
41
1
10
52.1309488828728
20
-6.02193360386201
30
0
41
1
10
51.4064957703197
20
-6.03243305297542
30
0
41
1
10
51.0431892270316
20
-6.03009921808328
30
0
41
1
10
50.317675527795
20
-6.00756290046689
30
0
41
1
10
49.9557329046156
20
-5.98782949580371
30
0
41
1
10
49.231499530454
20
-5.93380227759727
30
0
41
1
10
48.8696936213903
20
-5.89910948500943
30
0
41
1
10
48.1462133113573
20
-5.81291008592751
30
0
41
1
10
47.784433454581
20
-5.76162951205276
30
0
41
1
10
47.2409858518719
20
-5.67433664013686
30
0
41
1
10
47.0596461182435
20
-5.64347537034269
30
0
41
1
10
46.6973065094921
20
-5.57745628562182
30
0
41
1
10
46.516001990488
20
-5.54247925039491
30
0
41
1
10
45.9715484900127
20
-5.43173413591111
30
0
41
1
10
45.6089649070758
20
-5.3502972004554
30
0
41
1
10
44.884605288886
20
-5.17505056430122
30
0
41
1
10
44.5228492710156
20
-5.08052679850684
30
0
41
1
10
43.7991229257048
20
-4.87769942273403
30
0
41
1
10
43.4368654677119
20
-4.76961207372003
30
0
41
1
10
42.7131349344648
20
-4.54002926059314
30
0
41
1
10
42.3507040269667
20
-4.41975338990579
30
0
41
1
10
41.6246393242962
20
-4.16688302097086
30
0
41
1
10
41.2618544619189
20
-4.03375445842295
30
0
41
1
10
40.5373536333308
20
-3.7590111048159
30
0
41
1
10
40.1753348005289
20
-3.61701771256716
30
0
41
1
10
39.4512197412839
20
-3.32351958768515
30
0
41
1
10
39.0897665225768
20
-3.17058943885411
30
0
41
1
10
38.3656022214194
20
-2.85899922809193
30
0
41
1
10
38.0031621356616
20
-2.69997580585846
30
0
41
1
10
37.2776166731569
20
-2.37298317388883
30
0
41
1
10
36.9145543336905
20
-2.20520320241735
30
0
41
1
10
36.3707578371581
20
-1.95103421772109
30
0
41
1
10
36.1895144804953
20
-1.86591725432217
30
0
41
1
10
35.827136834129
20
-1.69460809942015
30
0
41
1
10
35.6462255020782
20
-1.60795954568661
30
0
41
1
10
35.1034948636518
20
-1.34662175456722
30
0
41
1
10
34.7415072131639
20
-1.17073705766211
30
0
41
1
10
34.0172631607239
20
-0.81620830034214
30
0
41
1
10
33.6550892672895
20
-0.637448530975547
30
0
41
1
10
32.929790989662
20
-0.278228745621505
30
0
41
1
10
32.5662494730761
20
-0.0979223618149661
30
0
41
1
10
31.8406516283383
20
0.261429560714703
30
0
41
1
10
31.4788219943397
20
0.441998049766994
30
0
41
1
10
30.7544645005395
20
0.79922865183471
30
0
41
1
10
30.3924776157111
20
0.97684619920787
30
0
41
1
10
29.6684083548943
20
1.32954896553485
30
0
41
1
10
29.3062733342842
20
1.50458171688632
30
0
41
1
10
28.7621544861516
20
1.76349270678855
30
0
41
1
10
28.5805971021151
20
1.84912012613444
30
0
41
1
10
28.2174094207268
20
2.01948567721641
30
0
41
1
10
28.0360434900725
20
2.10438364250604
30
0
41
1
10
27.4925603998114
20
2.35546437004012
30
0
41
1
10
27.130885161622
20
2.51910227970598
30
0
41
1
10
26.409406340629
20
2.83935352649161
30
0
41
1
10
26.049563601513
20
2.99585457620381
30
0
41
1
10
25.3307455268838
20
3.29978381227539
30
0
41
1
10
24.9714185153389
20
3.44662645273112
30
0
41
1
10
24.2542936392829
20
3.73244305262273
30
0
41
1
10
23.8960734752827
20
3.87046757790674
30
0
41
1
10
23.1789613003643
20
4.13385637046932
30
0
41
1
10
22.8203756854066
20
4.26069390995943
30
0
41
1
10
22.1027018017387
20
4.5038978954635
30
0
41
1
10
21.7435421465783
20
4.62007068043843
30
0
41
1
10
21.2036679562071
20
4.78507302205202
30
0
41
1
10
21.0234594605609
20
4.83846254587087
30
0
41
1
10
20.6632358906928
20
4.94282028153049
30
0
41
1
10
20.4829564592911
20
4.99345211561288
30
0
41
1
10
19.9412210821042
20
5.14018562497154
30
0
41
1
10
19.5790228084184
20
5.23155025121608
30
0
41
1
10
18.8522967027368
20
5.39819062799876
30
0
41
1
10
18.48934538703
20
5.47420816001852
30
0
41
1
10
17.7649920108498
20
5.61225457356181
30
0
41
1
10
17.4030984051184
20
5.67355180031271
30
0
41
1
10
16.6815275791253
20
5.781529912427
30
0
41
1
10
16.320863954504
20
5.82781858106966
30
0
41
1
10
15.2391850592324
20
5.94365856260382
30
0
41
1
10
14.5192850013204
20
5.98844056024598
30
0
41
1
10
13.639525407538
20
6.00536575970702
30
0
41
1
10
13.4820773921928
20
6.00690761293214
30
0
41
1
10
13.3245617172022
20
6.00691511687299
30
0
0
SPLINE
5
EF
100
AcDbEntity
8
1
62
256
6
ByLayer
370
18
48
1
60
0
100
AcDbSpline
70
4
71
3
72
8
73
4
40
0
40
0
40
0
40
0
40
1
40
1
40
1
40
1
41
1
10
154.716412094631
20
-6.08766406225502
30
0
41
1
10
154.730702053842
20
-6.0928786795256
30
0
41
1
10
154.745939052919
20
-6.09535636423371
30
0
41
1
10
154.762143384375
20
-6.09512311835337
30
0
0
SPLINE
5
F0
100
AcDbEntity
8
1
62
256
6
ByLayer
370
18
48
1
60
0
100
AcDbSpline
70
4
71
3
72
8
73
4
40
0
40
0
40
0
40
0
40
1
40
1
40
1
40
1
41
1
10
154.92256356255
20
6.27249527275001
30
0
41
1
10
154.84240668248
20
6.35116771377403
30
0
41
1
10
154.772231802256
20
6.40408723703425
30
0
41
1
10
154.711432809465
20
6.43047879372119
30
0
0
SPLINE
5
F1
100
AcDbEntity
8
1
62
256
6
ByLayer
370
18
48
1
60
0
100
AcDbSpline
70
4
71
3
72
8
73
4
40
0
40
0
40
0
40
0
40
1
40
1
40
1
40
1
41
1
10
156.971858911779
20
-0.0194772826284293
30
0
41
1
10
156.922830640095
20
-0.110643677500661
30
0
41
1
10
156.873986321703
20
-0.201974497964443
30
0
41
1
10
156.825326259507
20
-0.29347001468102
30
0
0
SPLINE
5
F2
100
AcDbEntity
8
1
62
256
6
ByLayer
370
18
48
1
60
0
100
AcDbSpline
70
4
71
3
72
12
73
8
40
0
40
0
40
0
40
0
40
0.25
40
0.25
40
0.5
40
0.5
40
1
40
1
40
1
40
1
41
1
10
8.13386275912819
20
5.39485445529172
30
0
41
1
10
8.11361341739445
20
5.40046546510749
30
0
41
1
10
8.09525903699711
20
5.40737029144248
30
0
41
1
10
8.06223940408529
20
5.42362071368012
30
0
41
1
10
8.04780301025625
20
5.43292538751365
30
0
41
1
10
8.0127650345608
20
5.46283339479919
30
0
41
1
10
7.99999968652756
20
5.48583912559732
30
0
41
1
10
7.99999968652756
20
5.5086764003982
30
0
0
SPLINE
5
F3
100
AcDbEntity
8
1
62
256
6
ByLayer
370
18
48
1
60
0
100
AcDbSpline
70
4
71
3
72
56
73
52
40
0
40
0
40
0
40
0
40
0.0624999999999952
40
0.0624999999999952
40
0.12499999999999
40
0.12499999999999
40
0.187499999999985
40
0.187499999999985
40
0.218749999999983
40
0.218749999999983
40
0.249999999999981
40
0.249999999999981
40
0.312499999999976
40
0.312499999999976
40
0.343749999999974
40
0.343749999999974
40
0.374999999999972
40
0.374999999999972
40
0.437499999999967
40
0.437499999999967
40
0.468749999999965
40
0.468749999999965
40
0.499999999999963
40
0.499999999999963
40
0.53124999999996
40
0.53124999999996
40
0.562499999999958
40
0.562499999999958
40
0.624999999999953
40
0.624999999999953
40
0.687499999999948
40
0.687499999999948
40
0.703124999999948
40
0.703124999999948
40
0.718749999999947
40
0.718749999999947
40
0.722656249999948
40
0.722656249999948
40
0.726562499999948
40
0.726562499999948
40
0.730468749999948
40
0.730468749999948
40
0.734374999999948
40
0.734374999999948
40
0.749999999999951
40
0.749999999999951
40
0.812499999999963
40
0.812499999999963
40
0.874999999999975
40
0.874999999999975
40
1
40
1
40
1
40
1
41
1
10
7.99999968651889
20
-4.34965705701995
30
0
41
1
10
7.8439953453377
20
-4.17917365903528
30
0
41
1
10
7.69176560749216
20
-3.99735673907722
30
0
41
1
10
7.39542008013777
20
-3.60855086161152
30
0
41
1
10
7.25333894348478
20
-3.40416786367084
30
0
41
1
10
6.98407408318815
20
-2.97634083263972
30
0
41
1
10
6.85660924183978
20
-2.75258432402211
30
0
41
1
10
6.67834461762453
20
-2.40011910043998
30
0
41
1
10
6.62109379696315
20
-2.27981173567213
30
0
41
1
10
6.51153836883049
20
-2.03299119565011
30
0
41
1
10
6.45933795508736
20
-1.90662240868824
30
0
41
1
10
6.31357326497127
20
-1.52339883834315
30
0
41
1
10
6.22987145687642
20
-1.26067124052045
30
0
41
1
10
6.12984157051309
20
-0.85368522513329
30
0
41
1
10
6.10078322225618
20
-0.715861075737365
30
0
41
1
10
6.05263367214519
20
-0.435337341448758
30
0
41
1
10
6.03390092285679
20
-0.294585066545949
30
0
41
1
10
5.99515382653934
20
0.12770929883817
30
0
41
1
10
5.99228399747727
20
0.409928065552322
30
0
41
1
10
6.02945149526062
20
0.8345661017282
30
0
41
1
10
6.04870348309305
20
0.974418992589335
30
0
41
1
10
6.10062696233231
20
1.24785617065089
30
0
41
1
10
6.13333963311447
20
1.38192459995173
30
0
41
1
10
6.21233004680644
20
1.64488955576556
30
0
41
1
10
6.25860893904485
20
1.77378558627882
30
0
41
1
10
6.36487580765214
20
2.0264904268889
30
0
41
1
10
6.42450886320609
20
2.14930170031508
30
0
41
1
10
6.61917444536314
20
2.50264708208516
30
0
41
1
10
6.77083224431689
20
2.72056028055795
30
0
41
1
10
7.11295522552317
20
3.12679248899047
30
0
41
1
10
7.30120330433704
20
3.31230600934001
30
0
41
1
10
7.55215539677471
20
3.52452032261837
30
0
41
1
10
7.60311854493554
20
3.56597007574283
30
0
41
1
10
7.70652497933673
20
3.64699864826002
30
0
41
1
10
7.75924275822527
20
3.6863457006902
30
0
41
1
10
7.82532653830427
20
3.73500626546752
30
0
41
1
10
7.83792418446299
20
3.74529790246177
30
0
41
1
10
7.86838057773113
20
3.76091007876443
30
0
41
1
10
7.88503364409777
20
3.76595458508254
30
0
41
1
10
7.92016587599383
20
3.77156238929572
30
0
41
1
10
7.93825103576748
20
3.7724513203913
30
0
41
1
10
7.97400911312582
20
3.77548471809467
30
0
41
1
10
7.99189339011036
20
3.77695833270246
30
0
41
1
10
8.08134088384475
20
3.78411205876023
30
0
41
1
10
8.15299811581832
20
3.78915055023916
30
0
41
1
10
8.51139699344893
20
3.81095189345143
30
0
41
1
10
8.79889375985809
20
3.8176288168809
30
0
41
1
10
9.3736617560896
20
3.8103350721513
30
0
41
1
10
9.65916717186715
20
3.79640143631227
30
0
41
1
10
10.5102983484512
20
3.72458125304124
30
0
41
1
10
11.0705427785739
20
3.63693157227945
30
0
41
1
10
11.6237560741695
20
3.50599273060516
30
0
0
SPLINE
5
F4
100
AcDbEntity
8
1
62
256
6
ByLayer
370
18
48
1
60
0
100
AcDbSpline
70
4
71
3
72
62
73
58
40
0
40
0
40
0
40
0
40
0.0428928332599128
40
0.0428928332599128
40
0.0643392498898693
40
0.0643392498898693
40
0.0857856665198257
40
0.0857856665198257
40
0.128678499779739
40
0.128678499779739
40
0.171571333039651
40
0.171571333039651
40
0.214464166299564
40
0.214464166299564
40
0.23591058292952
40
0.23591058292952
40
0.257356999559476
40
0.257356999559476
40
0.300249832819389
40
0.300249832819389
40
0.343142666079301
40
0.343142666079301
40
0.386035499339213
40
0.386035499339213
40
0.428928332599125
40
0.428928332599125
40
0.471821165859038
40
0.471821165859038
40
0.493267582488994
40
0.493267582488994
40
0.51471399911895
40
0.51471399911895
40
0.557606832378863
40
0.557606832378863
40
0.600499665638777
40
0.600499665638777
40
0.64339249889869
40
0.64339249889869
40
0.686285332158604
40
0.686285332158604
40
0.729178165418517
40
0.729178165418517
40
0.772070998678431
40
0.772070998678431
40
0.814963831938344
40
0.814963831938344
40
0.857856665198257
40
0.857856665198257
40
0.900749498458171
40
0.900749498458171
40
0.922195915088127
40
0.922195915088127
40
0.943642331718083
40
0.943642331718083
40
0.986535164977997
40
0.986535164977997
40
1
40
1
40
1
40
1
41
1
10
11.6237560741695
20
3.50599273060516
30
0
41
1
10
11.9987073563885
20
3.34057084622452
30
0
41
1
10
12.3729017443651
20
3.17165285349228
30
0
41
1
10
12.9333282549057
20
2.91366464528852
30
0
41
1
10
13.1199463100375
20
2.82681760198614
30
0
41
1
10
13.4924833651063
20
2.65085373081837
30
0
41
1
10
13.6781632102243
20
2.56130001251455
30
0
41
1
10
14.2353700387337
20
2.29142395967642
30
0
41
1
10
14.6068598475355
20
2.10954519855309
30
0
41
1
10
15.3483056329894
20
1.73902311930158
30
0
41
1
10
15.7183317975327
20
1.55048539644787
30
0
41
1
10
16.4592305747831
20
1.17108825468946
30
0
41
1
10
16.8302387835408
20
0.980515245842412
30
0
41
1
10
17.3860294345904
20
0.690309845854131
30
0
41
1
10
17.57122766306
20
0.592950077918459
30
0
41
1
10
17.9423614700148
20
0.39867814341207
30
0
41
1
10
18.1281786131599
20
0.301536803609139
30
0
41
1
10
18.686195596035
20
0.0097368825729518
30
0
41
1
10
19.0584648513405
20
-0.186290849344061
30
0
41
1
10
19.8051568260135
20
-0.578155704022095
30
0
41
1
10
20.1802580620565
20
-0.773527656625419
30
0
41
1
10
20.9314590432839
20
-1.16239764508464
30
0
41
1
10
21.3056063713856
20
-1.35667987328731
30
0
41
1
10
22.0547709834736
20
-1.73782298604999
30
0
41
1
10
22.4292832380283
20
-1.92566662695771
30
0
41
1
10
23.177461496015
20
-2.29715862144121
30
0
41
1
10
23.5516760296521
20
-2.47979827928339
30
0
41
1
10
24.1140720650953
20
-2.74755318381381
30
0
41
1
10
24.3016652251678
20
-2.83586282317037
30
0
41
1
10
24.6769398783332
20
-3.01087659953225
30
0
41
1
10
24.8644795067973
20
-3.09810547831938
30
0
41
1
10
25.4265180303431
20
-3.35447109383645
30
0
41
1
10
25.8006010784965
20
-3.51914984551272
30
0
41
1
10
26.5459980602386
20
-3.83901453852317
30
0
41
1
10
26.9174566136612
20
-3.99387296306921
30
0
41
1
10
27.660059937196
20
-4.29024347143292
30
0
41
1
10
28.0313686190268
20
-4.43161667529517
30
0
41
1
10
28.7715351899039
20
-4.70417042498642
30
0
41
1
10
29.1416792487921
20
-4.83353324305469
30
0
41
1
10
29.8827119464336
20
-5.077871660526
30
0
41
1
10
30.2528569013417
20
-5.19372985641419
30
0
41
1
10
30.9942323310227
20
-5.41050811295506
30
0
41
1
10
31.3657374708969
20
-5.51117853600965
30
0
41
1
10
32.1100627852372
20
-5.69739330627866
30
0
41
1
10
32.482196714943
20
-5.78349258785656
30
0
41
1
10
33.2301095084499
20
-5.9381873579762
30
0
41
1
10
33.6060099919575
20
-6.00742868062238
30
0
41
1
10
34.3556562939368
20
-6.12879404443737
30
0
41
1
10
34.7300127994784
20
-6.18059476869371
30
0
41
1
10
35.2916795065078
20
-6.24478866022639
30
0
41
1
10
35.4788763820398
20
-6.26396223516434
30
0
41
1
10
35.8530262981139
20
-6.297913696206
30
0
41
1
10
36.0397148506814
20
-6.31275530965297
30
0
41
1
10
36.6006905034151
20
-6.35024472656454
30
0
41
1
10
36.9754718318029
20
-6.36610087854484
30
0
41
1
10
37.4678487522183
20
-6.37508381387605
30
0
41
1
10
37.5855600781516
20
-6.3763248398169
30
0
41
1
10
37.7032860028223
20
-6.37666414626082
30
0
0
SPLINE
5
F5
100
AcDbEntity
8
1
62
256
6
ByLayer
370
18
48
1
60
0
100
AcDbSpline
70
4
71
3
72
118
73
114
40
0
40
0
40
0
40
0
40
0.0172311380307332
40
0.0172311380307332
40
0.0393785328707246
40
0.0393785328707246
40
0.05045223029072
40
0.05045223029072
40
0.0615259277107153
40
0.0615259277107153
40
0.0836733225507066
40
0.0836733225507066
40
0.105820717390698
40
0.105820717390698
40
0.116894414810693
40
0.116894414810693
40
0.127968112230689
40
0.127968112230689
40
0.15011550707068
40
0.15011550707068
40
0.172262901910672
40
0.172262901910672
40
0.194410296750663
40
0.194410296750663
40
0.216557691590654
40
0.216557691590654
40
0.238705086430646
40
0.238705086430646
40
0.260852481270637
40
0.260852481270637
40
0.271926178690633
40
0.271926178690633
40
0.282999876110629
40
0.282999876110629
40
0.305147270950621
40
0.305147270950621
40
0.327294665790613
40
0.327294665790613
40
0.338368363210609
40
0.338368363210609
40
0.349442060630605
40
0.349442060630605
40
0.371589455470598
40
0.371589455470598
40
0.39373685031059
40
0.39373685031059
40
0.404810547730586
40
0.404810547730586
40
0.415884245150582
40
0.415884245150582
40
0.438031639990573
40
0.438031639990573
40
0.460179034830563
40
0.460179034830563
40
0.482326429670554
40
0.482326429670554
40
0.493400127090549
40
0.493400127090549
40
0.504473824510544
40
0.504473824510544
40
0.526621219350535
40
0.526621219350535
40
0.548768614190525
40
0.548768614190525
40
0.559842311610521
40
0.559842311610521
40
0.570916009030517
40
0.570916009030517
40
0.593063403870507
40
0.593063403870507
40
0.615210798710498
40
0.615210798710498
40
0.626284496130494
40
0.626284496130494
40
0.637358193550491
40
0.637358193550491
40
0.659505588390482
40
0.659505588390482
40
0.681652983230474
40
0.681652983230474
40
0.703800378070466
40
0.703800378070466
40
0.714874075490463
40
0.714874075490463
40
0.725947772910459
40
0.725947772910459
40
0.748095167750452
40
0.748095167750452
40
0.770242562590445
40
0.770242562590445
40
0.792389957430439
40
0.792389957430439
40
0.814537352270432
40
0.814537352270432
40
0.836684747110425
40
0.836684747110425
40
0.847758444530422
40
0.847758444530422
40
0.858832141950418
40
0.858832141950418
40
0.880979536790412
40
0.880979536790412
40
0.903126931630405
40
0.903126931630405
40
0.925274326470398
40
0.925274326470398
40
0.947421721310392
40
0.947421721310392
40
0.969569116150385
40
0.969569116150385
40
0.991716510990378
40
0.991716510990378
40
1
40
1
40
1
40
1
41
1
10
63.3726011452818
20
3.29303156450979
30
0
41
1
10
63.663924456451
20
3.42477187297277
30
0
41
1
10
63.9553252691292
20
3.55416367627478
30
0
41
1
10
64.6220141546095
20
3.8419492411706
30
0
41
1
10
64.9960654952696
20
3.99731452826188
30
0
41
1
10
65.5552842009573
20
4.22168041326506
30
0
41
1
10
65.7410989461684
20
4.29542912708015
30
0
41
1
10
66.1127272314005
20
4.43907966471497
30
0
41
1
10
66.2984698105898
20
4.50910018440848
30
0
41
1
10
66.8554360821694
20
4.71391339095123
30
0
41
1
10
67.2260001529439
20
4.8440039322349
30
0
41
1
10
67.9660451187175
20
5.09069306493709
30
0
41
1
10
68.3360119527687
20
5.20669488508409
30
0
41
1
10
68.8912472823893
20
5.36940887833248
30
0
41
1
10
69.0763891020205
20
5.42175537187359
30
0
41
1
10
69.4462285187314
20
5.52320815661719
30
0
41
1
10
69.6310257191635
20
5.57219595333279
30
0
41
1
10
70.1864419778611
20
5.71260737486267
30
0
41
1
10
70.5576166075663
20
5.79801081487545
30
0
41
1
10
71.3002583005863
20
5.95355027447349
30
0
41
1
10
71.6720911325137
20
6.02331467891094
30
0
41
1
10
72.4186591671972
20
6.14539021234467
30
0
41
1
10
72.7938268190825
20
6.19792250784934
30
0
41
1
10
73.5427518201894
20
6.28582633157401
30
0
41
1
10
73.9173220035477
20
6.32043364300361
30
0
41
1
10
74.6656449843532
20
6.37174554832888
30
0
41
1
10
75.0389805347861
20
6.38844834821026
30
0
41
1
10
75.786480456949
20
6.40346418137722
30
0
41
1
10
76.1607370801947
20
6.40186590140596
30
0
41
1
10
76.7223095826203
20
6.38579217476416
30
0
41
1
10
76.9092381448871
20
6.37809526438815
30
0
41
1
10
77.2838429918566
20
6.35815774272896
30
0
41
1
10
77.4714823693691
20
6.34591206240697
30
0
41
1
10
78.033866417473
20
6.30251126138444
30
0
41
1
10
78.4080486716909
20
6.26454366188719
30
0
41
1
10
79.1555286562329
20
6.17067600620231
30
0
41
1
10
79.5293212784501
20
6.11500820031543
30
0
41
1
10
80.0903646536095
20
6.01871233868809
30
0
41
1
10
80.2774702068288
20
5.98451071228823
30
0
41
1
10
80.6511342555866
20
5.91133547896439
30
0
41
1
10
80.8380031557706
20
5.8725635211371
30
0
41
1
10
81.399557965208
20
5.75036480132928
30
0
41
1
10
81.7752840576694
20
5.66076419380443
30
0
41
1
10
82.5241106198422
20
5.46493352006746
30
0
41
1
10
82.8978688248636
20
5.3590247478156
30
0
41
1
10
83.4588579412843
20
5.1896866497716
30
0
41
1
10
83.6458696197194
20
5.13145661629585
30
0
41
1
10
84.019767489869
20
5.01125421340387
30
0
41
1
10
84.2064898223514
20
4.94908389521658
30
0
41
1
10
84.7666915642085
20
4.75713713290438
30
0
41
1
10
85.1410577508552
20
4.62303952060617
30
0
41
1
10
85.890294394507
20
4.34100650498411
30
0
41
1
10
86.2651379424828
20
4.19252313070808
30
0
41
1
10
87.0138296701471
20
3.88575170311836
30
0
41
1
10
87.3881548803093
20
3.7274804531045
30
0
41
1
10
87.948785686778
20
3.48151282531273
30
0
41
1
10
88.1352690905991
20
3.39768318198551
30
0
41
1
10
88.5088343576142
20
3.22855779431521
30
0
41
1
10
88.6957572766167
20
3.14301439549885
30
0
41
1
10
89.2568534958396
20
2.88332196461778
30
0
41
1
10
89.630840893196
20
2.70523968345293
30
0
41
1
10
90.3797552292382
20
2.34087480565734
30
0
41
1
10
90.7549848824704
20
2.15543512414794
30
0
41
1
10
91.316586424216
20
1.87379569895901
30
0
41
1
10
91.5036871405849
20
1.77927860628679
30
0
41
1
10
91.8770933922217
20
1.58786445304034
30
0
41
1
10
92.0638419768736
20
1.49178030560944
30
0
41
1
10
92.6244133168181
20
1.20276678166766
30
0
41
1
10
92.9984254833648
20
1.00883457322632
30
0
41
1
10
93.7458836474706
20
0.616253440200865
30
0
41
1
10
94.1198363775292
20
0.418547417850959
30
0
41
1
10
94.6822634753544
20
0.122092120146164
30
0
41
1
10
94.86990160584
20
0.0232163678707877
30
0
41
1
10
95.2445335522297
20
-0.174524017561367
30
0
41
1
10
95.4314034450102
20
-0.273891189419999
30
0
41
1
10
95.9920461783304
20
-0.570849731237303
30
0
41
1
10
96.3661551608694
20
-0.76673772845129
30
0
41
1
10
97.113550787371
20
-1.15725309712832
30
0
41
1
10
97.486766451296
20
-1.35199595961936
30
0
41
1
10
98.2346661420933
20
-1.73590080237364
30
0
41
1
10
98.6094677949934
20
-1.92490108491973
30
0
41
1
10
99.1716142243241
20
-2.20623089701306
30
0
41
1
10
99.3585711969384
20
-2.299627157434
30
0
41
1
10
99.7327990688178
20
-2.48357806470392
30
0
41
1
10
99.9199159938614
20
-2.57441566495808
30
0
41
1
10
100.481120679373
20
-2.84382893691398
30
0
41
1
10
100.854533495053
20
-3.02020404712923
30
0
41
1
10
101.601438127097
20
-3.36382588428285
30
0
41
1
10
101.975297366425
20
-3.53049140292839
30
0
41
1
10
102.723673437902
20
-3.85383928757446
30
0
41
1
10
103.097744013521
20
-4.01179249131118
30
0
41
1
10
103.847233755217
20
-4.31366762930256
30
0
41
1
10
104.221625159496
20
-4.45806348967935
30
0
41
1
10
104.968852949474
20
-4.73495523848766
30
0
41
1
10
105.342229013255
20
-4.86668564855665
30
0
41
1
10
105.902915624941
20
-5.0530983252772
30
0
41
1
10
106.089862369196
20
-5.11344108538742
30
0
41
1
10
106.463700195569
20
-5.23070388759209
30
0
41
1
10
106.650319428716
20
-5.2879149303163
30
0
41
1
10
107.211119606484
20
-5.45321040624219
30
0
41
1
10
107.586552443347
20
-5.55531270729091
30
0
41
1
10
108.335490389821
20
-5.7440657653525
30
0
41
1
10
108.709007037699
20
-5.83053580985793
30
0
41
1
10
109.456455922215
20
-5.9858690320946
30
0
41
1
10
109.83055170525
20
-6.0547408050243
30
0
41
1
10
110.577071587606
20
-6.17631521495935
30
0
41
1
10
110.950664141591
20
-6.22824717989781
30
0
41
1
10
111.699492808568
20
-6.31409968624152
30
0
41
1
10
112.074295498924
20
-6.34834682491376
30
0
41
1
10
112.822568453564
20
-6.39829923315926
30
0
41
1
10
113.19660008598
20
-6.41405177452509
30
0
41
1
10
113.710134775204
20
-6.42323127443171
30
0
41
1
10
113.849783572749
20
-6.42444963692748
30
0
41
1
10
113.989395158926
20
-6.42438934129336
30
0
0
SPLINE
5
F6
100
AcDbEntity
8
1
62
256
6
ByLayer
370
18
48
1
60
0
100
AcDbSpline
70
4
71
3
72
38
73
34
40
0
40
0
40
0
40
0
40
0.0141669450433922
40
0.0141669450433922
40
0.0506792804121563
40
0.0506792804121563
40
0.123703951149685
40
0.123703951149685
40
0.196728621887212
40
0.196728621887212
40
0.26975329262474
40
0.26975329262474
40
0.342777963362268
40
0.342777963362268
40
0.415802634099796
40
0.415802634099796
40
0.488827304837324
40
0.488827304837324
40
0.561851975574851
40
0.561851975574851
40
0.634876646312379
40
0.634876646312379
40
0.707901317049908
40
0.707901317049908
40
0.744413652418669
40
0.744413652418669
40
0.78092598778743
40
0.78092598778743
40
0.853950658524954
40
0.853950658524954
40
0.926975329262477
40
0.926975329262477
40
1
40
1
40
1
40
1
41
1
10
139.645852029181
20
3.34648407759093
30
0
41
1
10
139.718315409282
20
3.37932260301795
30
0
41
1
10
139.790758260216
20
3.41200382358451
30
0
41
1
10
140.049797664028
20
3.52840839523159
30
0
41
1
10
140.236082670751
20
3.61154221746966
30
0
41
1
10
140.795882483519
20
3.85564020117087
30
0
41
1
10
141.169774141195
20
4.01225882110822
30
0
41
1
10
141.917293598045
20
4.3157127867874
30
0
41
1
10
142.291906631222
20
4.46227974096911
30
0
41
1
10
143.039564587624
20
4.74018857513482
30
0
41
1
10
143.412618273176
20
4.87160400669248
30
0
41
1
10
144.154979832132
20
5.12229069746371
30
0
41
1
10
144.525933783626
20
5.23946407360961
30
0
41
1
10
145.266723441746
20
5.45874508732382
30
0
41
1
10
145.636047784335
20
5.56132667396875
30
0
41
1
10
146.374795753926
20
5.75008444740743
30
0
41
1
10
146.744378926384
20
5.83618775944512
30
0
41
1
10
147.483405216708
20
5.99242008421896
30
0
41
1
10
147.852263174025
20
6.06288001998175
30
0
41
1
10
148.592506737645
20
6.18578258993551
30
0
41
1
10
148.96313431232
20
6.23879053300783
30
0
41
1
10
149.705271796495
20
6.32765436236329
30
0
41
1
10
150.077305937653
20
6.36325202260193
30
0
41
1
10
150.637423021125
20
6.40312230213604
30
0
41
1
10
150.824447502987
20
6.41417190635053
30
0
41
1
10
151.198842583201
20
6.43177694669899
30
0
41
1
10
151.385565406434
20
6.4383107354619
30
0
41
1
10
151.945835961649
20
6.45087421420357
30
0
41
1
10
152.319138441813
20
6.4500613024853
30
0
41
1
10
153.063704125064
20
6.43025605545026
30
0
41
1
10
153.435250611138
20
6.41118347457945
30
0
41
1
10
154.178946925695
20
6.35524928815369
30
0
41
1
10
154.551174145281
20
6.31853809974717
30
0
41
1
10
154.92256356255
20
6.27249527274998
30
0
0
SPLINE
5
F7
100
AcDbEntity
8
1
62
256
6
ByLayer
370
18
48
1
60
0
100
AcDbSpline
70
4
71
3
72
8
73
4
40
0
40
0
40
0
40
0
40
1
40
1
40
1
40
1
41
1
10
154.931009147203
20
-2.86461091729535
30
0
41
1
10
154.947391160194
20
-2.83468579097612
30
0
41
1
10
154.967233710294
20
-2.80873753382326
30
0
41
1
10
154.989255508725
20
-2.78555361397375
30
0
0
SPLINE
5
F8
100
AcDbEntity
8
1
62
256
6
ByLayer
370
18
48
1
60
0
100
AcDbSpline
70
4
71
3
72
16
73
12
40
0
40
0
40
0
40
0
40
0.124999999999995
40
0.124999999999995
40
0.249999999999991
40
0.249999999999991
40
0.499999999999994
40
0.499999999999994
40
0.749999999999997
40
0.749999999999997
40
1
40
1
40
1
40
1
41
1
10
150.421820615303
20
-1.86043595294592
30
0
41
1
10
150.541964847385
20
-2.00149177061161
30
0
41
1
10
150.66587764401
20
-2.13825642299815
30
0
41
1
10
150.920549829938
20
-2.40398969284937
30
0
41
1
10
151.051548239068
20
-2.53320641681617
30
0
41
1
10
151.452211977054
20
-2.90871080389297
30
0
41
1
10
151.726012120036
20
-3.13986424898542
30
0
41
1
10
152.284280989229
20
-3.57158469229515
30
0
41
1
10
152.568775861379
20
-3.77207673103874
30
0
41
1
10
153.146926040045
20
-4.14679817054537
30
0
41
1
10
153.440589777177
20
-4.321003401035
30
0
41
1
10
153.738394293771
20
-4.4833371647745
30
0
0
SPLINE
5
F9
100
AcDbEntity
8
1
62
256
6
ByLayer
370
18
48
1
60
0
100
AcDbSpline
70
4
71
3
72
14
73
10
40
0
40
0
40
0
40
0
40
0.25
40
0.25
40
0.5
40
0.5
40
0.75
40
0.75
40
1
40
1
40
1
40
1
41
1
10
154.830067161803
20
-6.0806117663814
30
0
41
1
10
154.83255039773
20
-6.07965579564853
30
0
41
1
10
154.834351659388
20
-6.0805081946003
30
0
41
1
10
154.83614363817
20
-6.08699623946589
30
0
41
1
10
154.836055708203
20
-6.09264852547867
30
0
41
1
10
154.833286664769
20
-6.10924379409931
30
0
41
1
10
154.830557107699
20
-6.12024050296347
30
0
41
1
10
154.822889739541
20
-6.14512279325129
30
0
41
1
10
154.818084610255
20
-6.15863271941743
30
0
41
1
10
154.812961237056
20
-6.17172244961947
30
0
0
SPLINE
5
FA
100
AcDbEntity
8
1
62
256
6
ByLayer
370
18
48
1
60
0
100
AcDbSpline
70
4
71
3
72
8
73
4
40
0
40
0
40
0
40
0
40
1
40
1
40
1
40
1
41
1
10
156.999957017755
20
0.0471844358553142
30
0
41
1
10
156.992057199179
20
0.0234287957079857
30
0
41
1
10
156.981921240523
20
-0.0007667263686244
30
0
41
1
10
156.971858911779
20
-0.019477282628344
30
0
0
SPLINE
5
FB
100
AcDbEntity
8
1
62
256
6
ByLayer
370
18
48
1
60
0
100
AcDbSpline
70
4
71
3
72
24
73
20
40
0
40
0
40
0
40
0
40
0.077146741843703
40
0.141800818643474
40
0.196107615348353
40
0.241812870611333
40
0.282737769438481
40
0.327231442143558
40
0.378466058614238
40
0.448309338979704
40
0.512510072136353
40
0.588847955353039
40
0.664137244871614
40
0.72147025473669
40
0.776184092118863
40
0.837591418824757
40
0.907121694682946
40
0.968141255863547
40
1
40
1
40
1
40
1
41
1
10
77.7116911221888
20
-6.04685944004427
30
0
41
1
10
78.0141705365092
20
-6.04670860797805
30
0
41
1
10
78.5699230186814
20
-6.04665195770977
30
0
41
1
10
79.3447072478887
20
-6.04780927465413
30
0
41
1
10
79.9844239445664
20
-6.04813330812121
30
0
41
1
10
80.5416970665012
20
-6.04811019083675
30
0
41
1
10
81.0555537367346
20
-6.0486029862752
30
0
41
1
10
81.5943849333557
20
-6.04914618377276
30
0
41
1
10
82.2461884702356
20
-6.04961079438914
30
0
41
1
10
82.975645761353
20
-6.049457901409
30
0
41
1
10
83.8041425400873
20
-6.05042083805515
30
0
41
1
10
84.6540344797352
20
-6.05100924240418
30
0
41
1
10
85.4768918498953
20
-6.05043491777317
30
0
41
1
10
86.2145988539405
20
-6.05204300810641
30
0
41
1
10
86.8976412242515
20
-6.05221369640611
30
0
41
1
10
87.628713744799
20
-6.05127684515233
30
0
41
1
10
88.3846178967748
20
-6.05301184565985
30
0
41
1
10
89.0241633600481
20
-6.05307639391955
30
0
41
1
10
89.3899068082023
20
-6.05300932338651
30
0
41
1
10
89.5153626508879
20
-6.05295229647351
30
0
0
SPLINE
5
FC
100
AcDbEntity
8
1
62
256
6
ByLayer
370
18
48
1
60
0
100
AcDbSpline
70
4
71
3
72
28
73
24
40
0
40
0
40
0
40
0
40
0.0613649729543316
40
0.115227171737576
40
0.156442420827756
40
0.196514261083571
40
0.238719736677656
40
0.273044934202364
40
0.302701823816087
40
0.33377648134189
40
0.368217275070822
40
0.413075863030543
40
0.479590245837194
40
0.533423677629718
40
0.57637916030471
40
0.626856043304892
40
0.680872763633395
40
0.725043179327261
40
0.78416021965421
40
0.863385336213578
40
0.929881636496282
40
0.991506835451501
40
1
40
1
40
1
40
1
41
1
10
115.885554957694
20
-6.07068716246158
30
0
41
1
10
116.123187791919
20
-6.0707064580632
30
0
41
1
10
116.569604639425
20
-6.07083817884219
30
0
41
1
10
117.177880686055
20
-6.0708593954871
30
0
41
1
10
117.701209435134
20
-6.07166283751815
30
0
41
1
10
118.179826187088
20
-6.0718190842982
30
0
41
1
10
118.63289607215
20
-6.07187487739691
30
0
41
1
10
119.045251795919
20
-6.0720930738498
30
0
41
1
10
119.4144385553
20
-6.07243235767911
30
0
41
1
10
119.784061023417
20
-6.07281634664653
30
0
41
1
10
120.212711621071
20
-6.07292362670555
30
0
41
1
10
120.779003751952
20
-6.07274843596093
30
0
41
1
10
121.420693282965
20
-6.07311792734842
30
0
41
1
10
122.054657520426
20
-6.0739948137556
30
0
41
1
10
122.626042909396
20
-6.07390513057203
30
0
41
1
10
123.198937000494
20
-6.07378270024103
30
0
41
1
10
123.775850547796
20
-6.07455471186685
30
0
41
1
10
124.386847730027
20
-6.0752856223302
30
0
41
1
10
125.095605341243
20
-6.0748121695006
30
0
41
1
10
125.891265205837
20
-6.07560820362113
30
0
41
1
10
126.696168181849
20
-6.07680556821484
30
0
41
1
10
127.226611143195
20
-6.07564288716122
30
0
41
1
10
127.498845412457
20
-6.07599470495254
30
0
41
1
10
127.531820164857
20
-6.07604096420826
30
0
0
SPLINE
5
FD
100
AcDbEntity
8
1
62
256
6
ByLayer
370
18
48
1
60
0
100
AcDbSpline
70
4
71
3
72
28
73
24
40
0
40
0
40
0
40
0
40
0.05552870712505
40
0.103576927482426
40
0.146396292164721
40
0.18264604835127
40
0.214678392694744
40
0.265487010952084
40
0.324881639052192
40
0.368927338687719
40
0.404984556885308
40
0.462890468703429
40
0.525849506062769
40
0.572757533844242
40
0.625546908559411
40
0.690345673146011
40
0.741842503376214
40
0.785190226923863
40
0.841158847724404
40
0.901539742564346
40
0.948044162080842
40
0.994164720815443
40
1
40
1
40
1
40
1
41
1
10
39.6097210188699
20
-6.0231558351019
30
0
41
1
10
39.8210389170337
20
-6.02241212725534
30
0
41
1
10
40.2180642401977
20
-6.02171385651101
30
0
41
1
10
40.8053048232952
20
-6.02189673923084
30
0
41
1
10
41.2904874160674
20
-6.0245008998447
30
0
41
1
10
41.7287405466053
20
-6.02453714715509
30
0
41
1
10
42.1992468211917
20
-6.02491071792187
30
0
41
1
10
42.760968645674
20
-6.02508682254972
30
0
41
1
10
43.3702526941335
20
-6.02540449873248
30
0
41
1
10
43.9212186276283
20
-6.02602167486833
30
0
41
1
10
44.4663783887365
20
-6.02632075464828
30
0
41
1
10
45.0853967470152
20
-6.02625282965249
30
0
41
1
10
45.7483511892157
20
-6.02625062868785
30
0
41
1
10
46.3899706946952
20
-6.02753022614101
30
0
41
1
10
47.039580043486
20
-6.02767648277776
30
0
41
1
10
47.7074578916663
20
-6.02762534449553
30
0
41
1
10
48.3380070827508
20
-6.02855241815934
30
0
41
1
10
48.9336836469392
20
-6.02895509018759
30
0
41
1
10
49.5643422059031
20
-6.02880021093733
30
0
41
1
10
50.2074307719722
20
-6.0291002843922
30
0
41
1
10
50.8117600121047
20
-6.03019961491952
30
0
41
1
10
51.200324504418
20
-6.02989139203683
30
0
41
1
10
51.405542981573
20
-6.02987324564032
30
0
41
1
10
51.4285921670933
20
-6.02987038991805
30
0
0
SPLINE
5
FE
100
AcDbEntity
8
1
62
256
6
ByLayer
370
18
48
1
60
0
100
AcDbSpline
70
4
71
3
72
23
73
19
40
0
40
0
40
0
40
0
40
0.0507278510885422
40
0.113801732920693
40
0.181429041676403
40
0.268402260125652
40
0.342645584107138
40
0.38979617429474
40
0.442090624540114
40
0.516045989100761
40
0.589446610074648
40
0.651339524672364
40
0.716669771889379
40
0.800219835264632
40
0.870639630991418
40
0.915049925258372
40
0.960564557621529
40
1
40
1
40
1
40
1
41
1
10
89.5155856038616
20
6.0528714783587
30
0
41
1
10
89.3800934230002
20
6.05296911127272
30
0
41
1
10
89.0761332366129
20
6.05307308789008
30
0
41
1
10
88.5915420892273
20
6.05316419153758
30
0
41
1
10
88.0101424965081
20
6.05186910664975
30
0
41
1
10
87.3989097120618
20
6.05172105332338
30
0
41
1
10
86.8423680642642
20
6.05212062105488
30
0
41
1
10
86.3784522278864
20
6.05202246131395
30
0
41
1
10
85.915308052681
20
6.05148459824346
30
0
41
1
10
85.3820500471037
20
6.05051723336172
30
0
41
1
10
84.8231527735438
20
6.05087297263887
30
0
41
1
10
84.2872951993274
20
6.05076158716744
30
0
41
1
10
83.7243271022061
20
6.05034186471397
30
0
41
1
10
83.1385835079546
20
6.04953677929933
30
0
41
1
10
82.6087203069705
20
6.04964591795996
30
0
41
1
10
82.1804474845015
20
6.04951628102574
30
0
41
1
10
81.8349473364161
20
6.04936742665507
30
0
41
1
10
81.6080495314053
20
6.04914127473529
30
0
41
1
10
81.5027210215516
20
6.04903545669069
30
0
0
SPLINE
5
FF
100
AcDbEntity
8
1
62
256
6
ByLayer
370
18
48
1
60
0
100
AcDbSpline
70
4
71
3
72
23
73
19
40
0
40
0
40
0
40
0
40
0.0201522255102944
40
0.0813467089209951
40
0.135662464138289
40
0.20431589057216
40
0.283074049985571
40
0.349032061549355
40
0.402734905212334
40
0.472457474671267
40
0.557413886825222
40
0.634260505024789
40
0.70211483788569
40
0.773240658948985
40
0.855635275384175
40
0.922221837579351
40
0.973171534991811
40
1
40
1
40
1
40
1
41
1
10
127.532691901555
20
6.07606801145357
30
0
41
1
10
127.479262578007
20
6.07600528994055
30
0
41
1
10
127.263599710899
20
6.07580547316064
30
0
41
1
10
126.903532484642
20
6.07630722825985
30
0
41
1
10
126.416092823634
20
6.0764618216819
30
0
41
1
10
125.880765870574
20
6.07561276354681
30
0
41
1
10
125.314915506804
20
6.07489310639889
30
0
41
1
10
124.788576103477
20
6.07509286252454
30
0
41
1
10
124.286305252219
20
6.07517261260884
30
0
41
1
10
123.733512099821
20
6.07448928638533
30
0
41
1
10
123.119912469917
20
6.07373281047899
30
0
41
1
10
122.510399216827
20
6.07396183273963
30
0
41
1
10
121.938754184751
20
6.07390232964485
30
0
41
1
10
121.351597717407
20
6.07301144522961
30
0
41
1
10
120.767773796675
20
6.07276934311463
30
0
41
1
10
120.237463094184
20
6.07291684770794
30
0
41
1
10
119.854555850838
20
6.07284192044648
30
0
41
1
10
119.648256202933
20
6.0726644846977
30
0
41
1
10
119.577095117578
20
6.07259759939205
30
0
0
SPLINE
5
100
100
AcDbEntity
8
1
62
256
6
ByLayer
370
18
48
1
60
0
100
AcDbSpline
70
4
71
1
72
4
73
2
40
0
40
0
40
1
40
1
41
1
10
154.000653101724
20
-6.09479058030735
30
0
41
1
10
154.765901543017
20
-6.09513898243827
30
0
0
SPLINE
5
101
100
AcDbEntity
8
1
62
256
6
ByLayer
370
18
48
1
60
0
100
AcDbSpline
70
4
71
3
72
15
73
11
40
0
40
0
40
0
40
0
40
0.0295336844666942
40
0.142131043917462
40
0.28166772284102
40
0.410876025860886
40
0.548746787809574
40
0.694389393850132
40
0.855500275016002
40
1
40
1
40
1
40
1
41
1
10
13.3214627053119
20
6.00692982312674
30
0
41
1
10
13.2715423573
20
6.00692988106161
30
0
41
1
10
13.0312981046531
20
6.00691163072179
30
0
41
1
10
12.5551465254857
20
6.00664839607927
30
0
41
1
10
11.9105270913191
20
6.00602023889206
30
0
41
1
10
11.2231738187326
20
6.00607554431869
30
0
41
1
10
10.525507859686
20
6.00577522371617
30
0
41
1
10
9.77390718016267
20
6.00517885123401
30
0
41
1
10
9.01110137697771
20
6.00444651935254
30
0
41
1
10
8.4944929527305
20
6.00392903298379
30
0
41
1
10
8.25022874434362
20
6.00367458738992
30
0
0
SPLINE
5
102
100
AcDbEntity
8
1
62
256
6
ByLayer
370
18
48
1
60
0
100
AcDbSpline
70
4
71
3
72
21
73
17
40
0
40
0
40
0
40
0
40
0.0457348134483562
40
0.103293352273697
40
0.173536869010776
40
0.257834110099965
40
0.329632619201274
40
0.387484706863241
40
0.458066140397229
40
0.571277050418055
40
0.657341712033532
40
0.753979151646904
40
0.865665404360398
40
0.933077415955061
40
0.980128920040246
40
1
40
1
40
1
40
1
41
1
10
51.4319995795647
20
6.02983851741743
30
0
41
1
10
51.3097496147331
20
6.02994595587288
30
0
41
1
10
51.0336822047928
20
6.03007068315426
30
0
41
1
10
50.5704477370633
20
6.02983090967831
30
0
41
1
10
50.0033321773483
20
6.02886625607104
30
0
41
1
10
49.3987847555637
20
6.02886358943914
30
0
41
1
10
48.8269728238667
20
6.02892152187289
30
0
41
1
10
48.2918767135842
20
6.02847141691481
30
0
41
1
10
47.6461083586413
20
6.0275526554195
30
0
41
1
10
46.9245579204946
20
6.02779273720452
30
0
41
1
10
46.1348309244482
20
6.02710040286428
30
0
41
1
10
45.347560814297
20
6.02592655046854
30
0
41
1
10
44.6116057968878
20
6.02641537203476
30
0
41
1
10
44.0071983117709
20
6.02608227798007
30
0
41
1
10
43.6481772088245
20
6.02571544758425
30
0
41
1
10
43.4693233023824
20
6.02555547138951
30
0
41
1
10
43.4162167468527
20
6.02551047539003
30
0
0
SPLINE
5
103
100
AcDbEntity
8
1
62
256
6
ByLayer
370
18
48
1
60
0
100
AcDbSpline
70
4
71
3
72
15
73
11
40
0
40
0
40
0
40
0
40
0.144474730305894
40
0.305557929715223
40
0.451175512007447
40
0.58902258591431
40
0.71820868869419
40
0.857721392730271
40
0.972496814427786
40
1
40
1
40
1
40
1
41
1
10
8.25022959253303
20
-6.00367458824519
30
0
41
1
10
8.49449351797375
20
-6.00392903353924
30
0
41
1
10
9.01110165979512
20
-6.00444651844811
30
0
41
1
10
9.77390717379365
20
-6.00517885567734
30
0
41
1
10
10.525507871557
20
-6.00577520932532
30
0
41
1
10
11.2231737683379
20
-6.00607559363627
30
0
41
1
10
11.9105272623483
20
-6.00602006157109
30
0
41
1
10
12.5588609960562
20
-6.0066526844698
30
0
41
1
10
13.0353055428964
20
-6.0069122897537
30
0
41
1
10
13.2758388240744
20
-6.00693061507033
30
0
41
1
10
13.3223346946947
20
-6.00693085794859
30
0
0
SPLINE
5
104
100
AcDbEntity
8
1
62
256
6
ByLayer
370
18
48
1
60
0
100
AcDbSpline
70
4
71
1
72
4
73
2
40
0
40
0
40
1
40
1
41
1
10
20.4126626417119
20
0.0043181838468342
30
0
41
1
10
20.4126505133735
20
0.0043212726555737
30
0
0
LINE
5
7B
100
AcDbEntity
8
SK1
62
256
6
ByLayer
370
18
48
1
60
0
100
AcDbLine
10
-45
20
5.055
30
0
11
-45
21
-0.742164
31
0
39
0
210
0
220
0
230
1
0
LINE
5
7D
100
AcDbEntity
8
SK1
62
256
6
ByLayer
370
18
48
1
60
0
100
AcDbLine
10
-45
20
-0.742173
30
0
11
-45
21
-3.047512
31
0
39
0
210
0
220
0
230
1
0
LINE
5
7E
100
AcDbEntity
8
SK1
62
256
6
ByLayer
370
18
48
1
60
0
100
AcDbLine
10
-45
20
-5.055
30
0
11
-45
21
-3.047512
31
0
39
0
210
0
220
0
230
1
0
LINE
5
7F
100
AcDbEntity
8
SK1
62
256
6
ByLayer
370
18
48
1
60
0
100
AcDbLine
10
-43.9
20
-3.399644
30
0
11
-43.9
21
-1.278724
31
0
39
0
210
0
220
0
230
1
0
LINE
5
80
100
AcDbEntity
8
SK1
62
256
6
ByLayer
370
18
48
1
60
0
100
AcDbLine
10
-43.055
20
7
30
0
11
-43.055
21
-7
31
0
39
0
210
0
220
0
230
1
0
LINE
5
81
100
AcDbEntity
8
SK1
62
256
6
ByLayer
370
13
48
1
60
0
100
AcDbLine
10
-44
20
-1.139352
30
0
11
-44
21
-3.444644
31
0
39
0
210
0
220
0
230
1
0
LINE
5
82
100
AcDbEntity
8
SK1
62
256
6
ByLayer
370
18
48
1
60
0
100
AcDbLine
10
0
20
-7
30
0
11
0
21
7
31
0
39
0
210
0
220
0
230
1
0
LINE
5
83
100
AcDbEntity
8
1
62
256
6
ByLayer
370
18
48
1
60
0
100
AcDbLine
10
8
20
-6.358173
30
0
11
8
21
-4.349657
31
0
39
0
210
0
220
0
230
1
0
LINE
5
84
100
AcDbEntity
8
1
62
256
6
ByLayer
370
13
48
1
60
0
100
AcDbLine
10
154.746586
20
1.570987
30
0
11
156.975196
21
0.160223
31
0
39
0
210
0
220
0
230
1
0
LINE
5
85
100
AcDbEntity
8
1
62
256
6
ByLayer
370
13
48
1
60
0
100
AcDbLine
10
0.642248
20
6.676988
30
0
11
0.642248
21
-6.676988
31
0
39
0
210
0
220
0
230
1
0
LINE
5
86
100
AcDbEntity
8
1
62
256
6
ByLayer
370
13
48
1
60
0
100
AcDbLine
10
154.635499
20
1.459494
30
0
11
156.971859
21
-0.019477
31
0
39
0
210
0
220
0
230
1
0
LINE
5
87
100
AcDbEntity
8
1
62
256
6
ByLayer
370
13
48
1
60
0
100
AcDbLine
10
1.284996
20
6.353977
30
0
11
1.284996
21
-6.353977
31
0
39
0
210
0
220
0
230
1
0
LINE
5
88
100
AcDbEntity
8
1
62
256
6
ByLayer
370
18
48
1
60
0
100
AcDbLine
10
8
20
6.358173
30
0
11
8
21
5.508676
31
0
39
0
210
0
220
0
230
1
0
LINE
5
89
100
AcDbEntity
8
1
62
256
6
ByLayer
370
18
48
1
60
0
100
AcDbLine
10
153.738394
20
-4.483337
30
0
11
154.931009
21
-2.864611
31
0
39
0
210
0
220
0
230
1
0
LINE
5
8A
100
AcDbEntity
8
1
62
256
6
ByLayer
370
18
48
1
60
0
100
AcDbLine
10
154.989256
20
-2.785554
30
0
11
156.825326
21
-0.29347
31
0
39
0
210
0
220
0
230
1
0
LINE
5
8B
100
AcDbEntity
8
1
62
256
6
ByLayer
370
18
48
1
60
0
100
AcDbLine
10
0
20
-7
30
0
11
0
21
7
31
0
39
0
210
0
220
0
230
1
0
LINE
5
8C
100
AcDbEntity
8
80
62
256
6
ByLayer
370
18
48
1
60
0
100
AcDbLine
10
0
20
0
30
0
11
-5
21
0
31
0
39
0
210
0
220
0
230
1
0
LINE
5
8D
100
AcDbEntity
8
4
62
256
6
ByLayer
370
18
48
0.05
60
0
100
AcDbLine
10
157
20
0
30
0
11
0
21
0
31
0
39
0
210
0
220
0
230
1
0
LINE
5
8F
100
AcDbEntity
8
SK4
62
256
6
ByLayer
370
18
48
0.05
60
0
100
AcDbLine
10
162
20
0
30
0
11
-50
21
0
31
0
39
0
210
0
220
0
230
1
0
LINE
5
91
100
AcDbEntity
8
SK1
62
256
6
ByLayer
370
18
48
1
60
0
100
AcDbLine
10
-43.055
20
-7
30
0
11
0
21
-7
31
0
39
0
210
0
220
0
230
1
0
LINE
5
92
100
AcDbEntity
8
SK1
62
256
6
ByLayer
370
18
48
1
60
0
100
AcDbLine
10
0
20
7
30
0
11
-43.055
21
7
31
0
39
0
210
0
220
0
230
1
0
LINE
5
93
100
AcDbEntity
8
SK1
62
256
6
ByLayer
370
18
48
1
60
0
100
AcDbLine
10
-45
20
-5.055
30
0
11
-43.055
21
-7
31
0
39
0
210
0
220
0
230
1
0
LINE
5
94
100
AcDbEntity
8
SK1
62
256
6
ByLayer
370
18
48
1
60
0
100
AcDbLine
10
-43.055
20
7
30
0
11
-45
21
5.055
31
0
39
0
210
0
220
0
230
1
0
LINE
5
95
100
AcDbEntity
8
1
62
256
6
ByLayer
370
18
48
1
60
0
100
AcDbLine
10
1.284996
20
-6.353977
30
0
11
8
21
-6.358173
31
0
39
0
210
0
220
0
230
1
0
LINE
5
96
100
AcDbEntity
8
1
62
256
6
ByLayer
370
18
48
1
60
0
100
AcDbLine
10
37.756086
20
-6.376771
30
0
11
39.469989
21
-6.377842
31
0
39
0
210
0
220
0
230
1
0
LINE
5
97
100
AcDbEntity
8
1
62
256
6
ByLayer
370
18
48
1
60
0
100
AcDbLine
10
75.859576
20
-6.400586
30
0
11
77.570297
21
-6.401655
31
0
39
0
210
0
220
0
230
1
0
LINE
5
98
100
AcDbEntity
8
1
62
256
6
ByLayer
370
18
48
1
60
0
100
AcDbLine
10
113.96575
20
-6.424402
30
0
11
115.670354
21
-6.425467
31
0
39
0
210
0
220
0
230
1
0
LINE
5
99
100
AcDbEntity
8
1
62
256
6
ByLayer
370
18
48
1
60
0
100
AcDbLine
10
152.070528
20
-6.448218
30
0
11
153.771146
21
-6.44928
31
0
39
0
210
0
220
0
230
1
0
LINE
5
9A
100
AcDbEntity
8
1
62
256
6
ByLayer
370
18
48
1
60
0
100
AcDbLine
10
153.771414
20
6.449281
30
0
11
152.070528
21
6.448218
31
0
39
0
210
0
220
0
230
1
0
LINE
5
9B
100
AcDbEntity
8
1
62
256
6
ByLayer
370
18
48
1
60
0
100
AcDbLine
10
115.670949
20
6.425468
30
0
11
113.96575
21
6.424402
31
0
39
0
210
0
220
0
230
1
0
LINE
5
9C
100
AcDbEntity
8
1
62
256
6
ByLayer
370
18
48
1
60
0
100
AcDbLine
10
77.571114
20
6.401655
30
0
11
75.859576
21
6.400586
31
0
39
0
210
0
220
0
230
1
0
LINE
5
9D
100
AcDbEntity
8
1
62
256
6
ByLayer
370
18
48
1
60
0
100
AcDbLine
10
39.470365
20
6.377842
30
0
11
37.756086
21
6.376771
31
0
39
0
210
0
220
0
230
1
0
LINE
5
9E
100
AcDbEntity
8
1
62
256
6
ByLayer
370
18
48
1
60
0
100
AcDbLine
10
8
20
6.358173
30
0
11
1.284996
21
6.353977
31
0
39
0
210
0
220
0
230
1
0
LINE
5
9F
100
AcDbEntity
8
81
62
256
6
ByLayer
370
18
48
1
60
0
100
AcDbLine
10
157
20
0
30
0
11
162
21
0
31
0
39
0
210
0
220
0
230
1
0
LINE
5
A0
100
AcDbEntity
8
SK2
62
256
6
ByLayer
370
13
48
1
60
0
100
AcDbLine
10
-53.625163
20
-7
30
0
11
-53.625163
21
38.225706
31
0
39
0
210
0
220
0
230
1
0
LINE
5
A2
100
AcDbEntity
8
SK2
62
256
6
ByLayer
370
13
48
1
60
0
100
AcDbLine
10
-46.5875
20
7
30
0
11
-55.625163
21
7
31
0
39
0
210
0
220
0
230
1
0
LINE
5
A3
100
AcDbEntity
8
SK2
62
256
6
ByLayer
370
13
48
1
60
0
100
AcDbLine
10
-46.5875
20
-7
30
0
11
-55.625163
21
-7
31
0
39
0
210
0
220
0
230
1
0
LINE
5
A4
100
AcDbEntity
8
1
62
256
6
ByLayer
370
18
48
1
60
1
100
AcDbLine
10
-53.625163
20
7
30
0
11
-53.164379
21
3.500002
31
0
39
0
210
0
220
0
230
1
0
LINE
5
A5
100
AcDbEntity
8
1
62
256
6
ByLayer
370
18
48
1
60
1
100
AcDbLine
10
-53.164379
20
3.500002
30
0
11
-54.085946
21
3.499998
31
0
39
0
210
0
220
0
230
1
0
LINE
5
A6
100
AcDbEntity
8
1
62
256
6
ByLayer
370
18
48
1
60
1
100
AcDbLine
10
-54.085946
20
3.499998
30
0
11
-53.625163
21
7
31
0
39
0
210
0
220
0
230
1
0
LINE
5
A7
100
AcDbEntity
8
1
62
256
6
ByLayer
370
18
48
1
60
1
100
AcDbLine
10
-53.625163
20
-7
30
0
11
-54.085946
21
-3.500002
31
0
39
0
210
0
220
0
230
1
0
LINE
5
A8
100
AcDbEntity
8
1
62
256
6
ByLayer
370
18
48
1
60
1
100
AcDbLine
10
-54.085946
20
-3.500002
30
0
11
-53.164379
21
-3.499998
31
0
39
0
210
0
220
0
230
1
0
LINE
5
A9
100
AcDbEntity
8
1
62
256
6
ByLayer
370
18
48
1
60
1
100
AcDbLine
10
-53.164379
20
-3.499998
30
0
11
-53.625163
21
-7
31
0
39
0
210
0
220
0
230
1
0
LINE
5
AA
100
AcDbEntity
8
2
62
256
6
ByLayer
370
13
48
1
60
0
100
AcDbLine
10
169.083343
20
-6.45
30
0
11
169.083343
21
35.900259
31
0
39
0
210
0
220
0
230
1
0
LINE
5
AC
100
AcDbEntity
8
2
62
256
6
ByLayer
370
13
48
1
60
0
100
AcDbLine
10
156.6665
20
6.45
30
0
11
171.083343
21
6.45
31
0
39
0
210
0
220
0
230
1
0
LINE
5
AD
100
AcDbEntity
8
2
62
256
6
ByLayer
370
13
48
1
60
0
100
AcDbLine
10
156.6665
20
-6.45
30
0
11
171.083343
21
-6.45
31
0
39
0
210
0
220
0
230
1
0
LINE
5
AE
100
AcDbEntity
8
1
62
256
6
ByLayer
370
18
48
1
60
1
100
AcDbLine
10
169.083343
20
6.45
30
0
11
169.544126
21
2.950002
31
0
39
0
210
0
220
0
230
1
0
LINE
5
AF
100
AcDbEntity
8
1
62
256
6
ByLayer
370
18
48
1
60
1
100
AcDbLine
10
169.544126
20
2.950002
30
0
11
168.622559
21
2.949998
31
0
39
0
210
0
220
0
230
1
0
LINE
5
B0
100
AcDbEntity
8
1
62
256
6
ByLayer
370
18
48
1
60
1
100
AcDbLine
10
168.622559
20
2.949998
30
0
11
169.083343
21
6.45
31
0
39
0
210
0
220
0
230
1
0
LINE
5
B1
100
AcDbEntity
8
1
62
256
6
ByLayer
370
18
48
1
60
1
100
AcDbLine
10
169.083343
20
-6.45
30
0
11
168.622559
21
-2.950002
31
0
39
0
210
0
220
0
230
1
0
LINE
5
B2
100
AcDbEntity
8
1
62
256
6
ByLayer
370
18
48
1
60
1
100
AcDbLine
10
168.622559
20
-2.950002
30
0
11
169.544126
21
-2.949998
31
0
39
0
210
0
220
0
230
1
0
LINE
5
B3
100
AcDbEntity
8
1
62
256
6
ByLayer
370
18
48
1
60
1
100
AcDbLine
10
169.544126
20
-2.949998
30
0
11
169.083343
21
-6.45
31
0
39
0
210
0
220
0
230
1
0
LINE
5
10B
100
AcDbEntity
8
1
62
256
6
ByLayer
370
18
48
1
60
1
100
AcDbLine
10
-53.625163
20
7
30
0
11
-53.164379
21
3.500002
31
0
39
0
210
0
220
0
230
1
0
LINE
5
10C
100
AcDbEntity
8
1
62
256
6
ByLayer
370
18
48
1
60
1
100
AcDbLine
10
-53.164379
20
3.500002
30
0
11
-54.085946
21
3.499998
31
0
39
0
210
0
220
0
230
1
0
LINE
5
10D
100
AcDbEntity
8
1
62
256
6
ByLayer
370
18
48
1
60
1
100
AcDbLine
10
-54.085946
20
3.499998
30
0
11
-53.625163
21
7
31
0
39
0
210
0
220
0
230
1
0
LINE
5
10F
100
AcDbEntity
8
1
62
256
6
ByLayer
370
18
48
1
60
1
100
AcDbLine
10
-53.625163
20
-7
30
0
11
-54.085946
21
-3.500002
31
0
39
0
210
0
220
0
230
1
0
LINE
5
110
100
AcDbEntity
8
1
62
256
6
ByLayer
370
18
48
1
60
1
100
AcDbLine
10
-54.085946
20
-3.500002
30
0
11
-53.164379
21
-3.499998
31
0
39
0
210
0
220
0
230
1
0
LINE
5
111
100
AcDbEntity
8
1
62
256
6
ByLayer
370
18
48
1
60
1
100
AcDbLine
10
-53.164379
20
-3.499998
30
0
11
-53.625163
21
-7
31
0
39
0
210
0
220
0
230
1
0
LINE
5
115
100
AcDbEntity
8
1
62
256
6
ByLayer
370
18
48
1
60
1
100
AcDbLine
10
169.083343
20
6.45
30
0
11
169.544126
21
2.950002
31
0
39
0
210
0
220
0
230
1
0
LINE
5
116
100
AcDbEntity
8
1
62
256
6
ByLayer
370
18
48
1
60
1
100
AcDbLine
10
169.544126
20
2.950002
30
0
11
168.622559
21
2.949998
31
0
39
0
210
0
220
0
230
1
0
LINE
5
117
100
AcDbEntity
8
1
62
256
6
ByLayer
370
18
48
1
60
1
100
AcDbLine
10
168.622559
20
2.949998
30
0
11
169.083343
21
6.45
31
0
39
0
210
0
220
0
230
1
0
LINE
5
119
100
AcDbEntity
8
1
62
256
6
ByLayer
370
18
48
1
60
1
100
AcDbLine
10
169.083343
20
-6.45
30
0
11
168.622559
21
-2.950002
31
0
39
0
210
0
220
0
230
1
0
LINE
5
11A
100
AcDbEntity
8
1
62
256
6
ByLayer
370
18
48
1
60
1
100
AcDbLine
10
168.622559
20
-2.950002
30
0
11
169.544126
21
-2.949998
31
0
39
0
210
0
220
0
230
1
0
LINE
5
11B
100
AcDbEntity
8
1
62
256
6
ByLayer
370
18
48
1
60
1
100
AcDbLine
10
169.544126
20
-2.949998
30
0
11
169.083343
21
-6.45
31
0
39
0
210
0
220
0
230
1
0
MTEXT
5
105
100
AcDbEntity
8
SK6
62
256
6
ByLayer
370
13
48
1
60
0
100
AcDbMText
10
27.29224
20
38.990328
30
0
210
0
220
0
230
1
1
\W0.7563;462.1-1290-096A1-XM X2BM
40
3.5
41
0
44
1.084337
50
0
71
7
72
5
7
iso_b_vert
0
MTEXT
5
109
100
AcDbEntity
8
SK2
62
256
6
ByLayer
370
18
48
1
60
0
100
AcDbMText
10
-55.189796
20
20.409024
30
0
210
0
220
0
230
1
1
%%c
40
3.5
41
0
44
1.084337
50
90
71
7
72
5
7
iso_b_vert
0
MTEXT
5
10A
100
AcDbEntity
8
SK2
62
256
6
ByLayer
370
18
48
1
60
0
100
AcDbMText
10
-55.189796
20
25.63168
30
0
210
0
220
0
230
1
1
\W0.7145;14,000
40
3.5
41
0
44
1.084337
50
90
71
7
72
5
7
iso_b_vert
0
MTEXT
5
113
100
AcDbEntity
8
2
62
256
6
ByLayer
370
18
48
1
60
0
100
AcDbMText
10
167.518709
20
18.45211
30
0
210
0
220
0
230
1
1
%%c
40
3.5
41
0
44
1.084337
50
90
71
7
72
5
7
iso_b_vert
0
MTEXT
5
114
100
AcDbEntity
8
2
62
256
6
ByLayer
370
18
48
1
60
0
100
AcDbMText
10
167.518709
20
23.674766
30
0
210
0
220
0
230
1
1
\W0.6930;12,900
40
3.5
41
0
44
1.084337
50
90
71
7
72
5
7
iso_b_vert
0
HATCH
5
10E
100
AcDbEntity
8
SK2
62
256
6
ByLayer
370
13
48
1
60
0
100
AcDbHatch
10
0
20
0
30
0
210
0
220
0
230
1
2
ANSI31
70
0
71
0
91
1
92
5
93
3
72
1
10
-53.6251625675374
20
7
11
-53.1643788259847
21
3.50000169255318
72
1
10
-53.1643788259847
20
3.50000169255318
11
-54.0859463090902
21
3.49999830744682
72
1
10
-54.0859463090902
20
3.49999830744682
11
-53.6251625675374
21
7
97
0
75
0
76
1
52
0
41
0.0062
77
0
78
1
53
45
43
0
44
0
45
-0.0139193969876572
46
0.0139193969876572
79
0
47
0
98
1
10
0
20
0
0
HATCH
5
112
100
AcDbEntity
8
SK2
62
256
6
ByLayer
370
13
48
1
60
0
100
AcDbHatch
10
0
20
0
30
0
210
0
220
0
230
1
2
ANSI31
70
0
71
0
91
1
92
5
93
3
72
1
10
-53.6251625675374
20
-7
11
-54.0859463090902
21
-3.50000169255318
72
1
10
-54.0859463090902
20
-3.50000169255318
11
-53.1643788259847
21
-3.49999830744682
72
1
10
-53.1643788259847
20
-3.49999830744682
11
-53.6251625675374
21
-7
97
0
75
0
76
1
52
0
41
0.0062
77
0
78
1
53
45
43
0
44
0
45
-0.0139193969876572
46
0.0139193969876572
79
0
47
0
98
1
10
0
20
0
0
HATCH
5
118
100
AcDbEntity
8
2
62
256
6
ByLayer
370
13
48
1
60
0
100
AcDbHatch
10
0
20
0
30
0
210
0
220
0
230
1
2
ANSI31
70
0
71
0
91
1
92
5
93
3
72
1
10
169.083342615295
20
6.45000000000002
11
169.544126356848
21
2.9500016925532
72
1
10
169.544126356848
20
2.9500016925532
11
168.622558873742
21
2.94999830744683
72
1
10
168.622558873742
20
2.94999830744683
11
169.083342615295
21
6.45000000000002
97
0
75
0
76
1
52
0
41
0.0062
77
0
78
1
53
45
43
0
44
0
45
-0.0139193969876572
46
0.0139193969876572
79
0
47
0
98
1
10
0
20
0
0
HATCH
5
11C
100
AcDbEntity
8
2
62
256
6
ByLayer
370
13
48
1
60
0
100
AcDbHatch
10
0
20
0
30
0
210
0
220
0
230
1
2
ANSI31
70
0
71
0
91
1
92
5
93
3
72
1
10
169.083342615295
20
-6.44999999999999
11
168.622558873742
21
-2.95000169255317
72
1
10
168.622558873742
20
-2.95000169255317
11
169.544126356848
21
-2.9499983074468
72
1
10
169.544126356848
20
-2.9499983074468
11
169.083342615295
21
-6.44999999999999
97
0
75
0
76
1
52
0
41
0.0062
77
0
78
1
53
45
43
0
44
0
45
-0.0139193969876572
46
0.0139193969876572
79
0
47
0
98
1
10
0
20
0
0
DIMENSION
5
11E
100
AcDbEntity
8
SK2
62
256
6
ByLayer
370
13
48
1
60
0
100
AcDbDimension
2
_U0
10
155.079
20
-16.663398
30
0
11
77.5395
21
-16.663398
31
0
70
32
71
1
72
1
41
1
210
0
220
0
230
1
3
Standard
100
AcDbAlignedDimension
13
0
23
0
33
0
14
155.079
24
-6.45
34
0
50
0
100
AcDbRotatedDimension
1001
ACAD
1000
DSTYLE
1002
{
1070
   371
1070
    13
1070
   372
1070
    13
1070
   170
1070
     0
1070
   144
1040
1.0
1070
   277
1070
     2
1070
   278
1070
    44
1070
   146
1040
1.0
1070
   345
1005
16
1070
   347
1005
16
1070
   346
1005
16
1070
   344
1005
0
1070
   343
1005
0
1070
   172
1070
     1
1070
    76
1070
     0
1070
    75
1070
     0
1070
   282
1070
     0
1070
   281
1070
     0
1070
    71
1070
     0
1070
    74
1070
     0
1070
   279
1070
     0
1070
   173
1070
     1
1070
   340
1005
106
1070
   271
1070
     2
1070
   272
1070
     2
1070
    77
1070
     1
1070
    73
1070
     1
1070
   171
1070
     3
1070
   274
1070
     4
1070
   177
1070
    35
1070
   176
1070
    35
1070
   178
1070
    35
1070
    48
1040
-0.1
1070
    41
1040
3.5
1070
   147
1040
1.75
1070
    42
1040
1.5875
1070
    44
1040
2.0
1070
   140
1040
3.5
1002
}
1001
ACAD_DSTYLE_DIM_LINETYPE
1070
   380
1005
16
1001
ACAD_DSTYLE_DIM_EXT1_LINETYPE
1070
   381
1005
16
1001
ACAD_DSTYLE_DIM_EXT2_LINETYPE
1070
   382
1005
16
0
DIMENSION
5
137
100
AcDbEntity
8
SK2
62
256
6
ByLayer
370
13
48
1
60
0
100
AcDbDimension
2
_U1
10
157
20
-35.692985
30
0
11
56
21
-35.692985
31
0
70
32
71
1
72
1
41
1
210
0
220
0
230
1
3
Standard
100
AcDbAlignedDimension
13
-45
23
-7
33
0
14
157
24
0
34
0
50
0
100
AcDbRotatedDimension
1001
ACAD
1000
DSTYLE
1002
{
1070
   371
1070
    13
1070
   372
1070
    13
1070
   170
1070
     0
1070
   144
1040
1.0
1070
   277
1070
     2
1070
   278
1070
    44
1070
   146
1040
1.0
1070
   345
1005
16
1070
   347
1005
16
1070
   346
1005
16
1070
   344
1005
0
1070
   343
1005
0
1070
   172
1070
     1
1070
    76
1070
     0
1070
    75
1070
     0
1070
   282
1070
     0
1070
   281
1070
     0
1070
    71
1070
     0
1070
    74
1070
     0
1070
   279
1070
     0
1070
   173
1070
     1
1070
   340
1005
106
1070
   271
1070
     2
1070
   272
1070
     2
1070
    77
1070
     1
1070
    73
1070
     1
1070
   171
1070
     3
1070
   274
1070
     4
1070
   177
1070
    35
1070
   176
1070
    35
1070
   178
1070
    35
1070
    48
1040
-0.1
1070
    41
1040
3.5
1070
   147
1040
1.75
1070
    42
1040
1.5875
1070
    44
1040
2.0
1070
   140
1040
3.5
1002
}
1001
ACAD_DSTYLE_DIM_LINETYPE
1070
   380
1005
16
1001
ACAD_DSTYLE_DIM_EXT1_LINETYPE
1070
   381
1005
16
1001
ACAD_DSTYLE_DIM_EXT2_LINETYPE
1070
   382
1005
16
0
DIMENSION
5
14F
100
AcDbEntity
8
SK2
62
256
6
ByLayer
370
13
48
1
60
0
100
AcDbDimension
2
_U2
10
157
20
18.059119
30
0
11
104.44
21
18.059119
31
0
70
32
71
1
72
1
41
1
210
0
220
0
230
1
3
Standard
100
AcDbAlignedDimension
13
51.88
23
6.45
33
0
14
157
24
0
34
0
50
0
100
AcDbRotatedDimension
1001
ACAD
1000
DSTYLE
1002
{
1070
   371
1070
    13
1070
   372
1070
    13
1070
   170
1070
     0
1070
   144
1040
1.0
1070
   277
1070
     2
1070
   278
1070
    44
1070
   146
1040
1.0
1070
   345
1005
16
1070
   347
1005
16
1070
   346
1005
16
1070
   344
1005
0
1070
   343
1005
0
1070
   172
1070
     1
1070
    76
1070
     0
1070
    75
1070
     0
1070
   282
1070
     0
1070
   281
1070
     0
1070
    71
1070
     0
1070
    74
1070
     0
1070
   279
1070
     0
1070
   173
1070
     1
1070
   340
1005
106
1070
   271
1070
     2
1070
   272
1070
     2
1070
    77
1070
     1
1070
    73
1070
     1
1070
   171
1070
     3
1070
   274
1070
     4
1070
   177
1070
    35
1070
   176
1070
    35
1070
   178
1070
    35
1070
    48
1040
-0.1
1070
    41
1040
3.5
1070
   147
1040
1.75
1070
    42
1040
1.5875
1070
    44
1040
2.0
1070
   140
1040
3.5
1002
}
1001
ACAD_DSTYLE_DIM_LINETYPE
1070
   380
1005
16
1001
ACAD_DSTYLE_DIM_EXT1_LINETYPE
1070
   381
1005
16
1001
ACAD_DSTYLE_DIM_EXT2_LINETYPE
1070
   382
1005
16
0
DIMENSION
5
167
100
AcDbEntity
8
SK2
62
256
6
ByLayer
370
13
48
1
60
0
100
AcDbDimension
2
_U3
10
155.079
20
-19.252503
30
0
11
174.333333
21
-19.252503
31
0
70
32
71
1
72
1
41
1
210
0
220
0
230
1
3
Standard
100
AcDbAlignedDimension
13
157
23
0
33
0
14
155.079
24
-6.45
34
0
50
0
100
AcDbRotatedDimension
1001
ACAD
1000
DSTYLE
1002
{
1070
   371
1070
    13
1070
   372
1070
    13
1070
   170
1070
     0
1070
   144
1040
1.0
1070
   277
1070
     2
1070
   278
1070
    44
1070
   146
1040
1.0
1070
   345
1005
16
1070
   347
1005
16
1070
   346
1005
16
1070
   344
1005
0
1070
   343
1005
0
1070
   172
1070
     1
1070
    76
1070
     0
1070
    75
1070
     0
1070
   282
1070
     0
1070
   281
1070
     0
1070
    71
1070
     0
1070
    74
1070
     0
1070
   279
1070
     0
1070
   173
1070
     1
1070
   340
1005
106
1070
   271
1070
     2
1070
   272
1070
     2
1070
    77
1070
     1
1070
    73
1070
     1
1070
   171
1070
     3
1070
   274
1070
     4
1070
   177
1070
    35
1070
   176
1070
    35
1070
   178
1070
    35
1070
    48
1040
-0.1
1070
    41
1040
3.5
1070
   147
1040
1.75
1070
    42
1040
1.5875
1070
    44
1040
2.0
1070
   140
1040
3.5
1002
}
1001
ACAD_DSTYLE_DIM_LINETYPE
1070
   380
1005
16
1001
ACAD_DSTYLE_DIM_EXT1_LINETYPE
1070
   381
1005
16
1001
ACAD_DSTYLE_DIM_EXT2_LINETYPE
1070
   382
1005
16
0
DIMENSION
5
181
100
AcDbEntity
8
SK2
62
256
6
ByLayer
370
13
48
1
60
0
100
AcDbDimension
2
_U4
10
155.079
20
-25.343428
30
0
11
55.0395
21
-25.343428
31
0
70
32
71
1
72
1
41
1
210
0
220
0
230
1
3
Standard
100
AcDbAlignedDimension
13
-45
23
-7
33
0
14
155.079
24
-6.45
34
0
50
0
100
AcDbRotatedDimension
1001
ACAD
1000
DSTYLE
1002
{
1070
   371
1070
    13
1070
   372
1070
    13
1070
   170
1070
     0
1070
   144
1040
1.0
1070
   277
1070
     2
1070
   278
1070
    44
1070
   146
1040
1.0
1070
   345
1005
16
1070
   347
1005
16
1070
   346
1005
16
1070
   344
1005
0
1070
   343
1005
0
1070
   172
1070
     1
1070
    76
1070
     0
1070
    75
1070
     0
1070
   282
1070
     0
1070
   281
1070
     0
1070
    71
1070
     0
1070
    74
1070
     0
1070
   279
1070
     0
1070
   173
1070
     1
1070
   340
1005
106
1070
   271
1070
     2
1070
   272
1070
     2
1070
    77
1070
     1
1070
    73
1070
     1
1070
   171
1070
     3
1070
   274
1070
     4
1070
   177
1070
    35
1070
   176
1070
    35
1070
   178
1070
    35
1070
    48
1040
-0.1
1070
    41
1040
3.5
1070
   147
1040
1.75
1070
    42
1040
1.5875
1070
    44
1040
2.0
1070
   140
1040
3.5
1002
}
1001
ACAD_DSTYLE_DIM_LINETYPE
1070
   380
1005
16
1001
ACAD_DSTYLE_DIM_EXT1_LINETYPE
1070
   381
1005
16
1001
ACAD_DSTYLE_DIM_EXT2_LINETYPE
1070
   382
1005
16
0
ENDSEC
0
SECTION
2
OBJECTS
0
DICTIONARY
5
209
330
0
100
AcDbDictionary
280
0
281
1
3
ACAD_GROUP
350
20a
3
ACAD_MLINESTYLE
350
20b
0
DICTIONARY
5
20a
330
0
100
AcDbDictionary
280
0
281
1
0
DICTIONARY
5
20b
330
0
100
AcDbDictionary
280
0
281
1
3
Standard
350
18
0
MLINESTYLE
5
18
330
20b
100
AcDbMlineStyle
2
Standard
70
0
3

62
256
51
90
52
90
71
2
49
-0.5
62
256
6
ByLayer
49
0.5
62
256
6
ByLayer
0
RASTERVARIABLES
5
1f7
330

100
AcDbRasterVariables
90
0
70
1
71
1
72
1
0
ENDSEC
0
EOF
