0
SECTION
2
HEADER
9
$ACADVER
1
AC1015
9
$DWGCODEPAGE
3
ANSI_1252
9
$HANDSEED
5
1f7
9
$ANGBASE
50
0
9
$ANGDIR
70
0
9
$ATTMODE
70
1
9
$AUNITS
70
0
9
$AUPREC
70
0
9
$CECOLOR
62
256
9
$CELTSCALE
40
1
9
$CELTYPE
6
ByLayer
9
$CELWEIGHT
370
18
9
$CLAYER
8
0
9
$CMLJUST
70
0
9
$CMLSCALE
40
1
9
$CMLSTYLE
2
Standard
9
$DIMSTYLE
2
Standard
9
$TEXTSIZE
40
0.2
9
$TEXTSTYLE
7
Standard
9
$LUNITS
70
2
9
$LUPREC
70
4
9
$EXTNAMES
290
1
9
$INSUNITS
70
4
9
$LTSCALE
40
1
9
$LWDISPLAY
290
1
9
$PDMODE
70
0
9
$PDSIZE
40
0
9
$PLINEGEN
70
0
0
ENDSEC
0
SECTION
2
CLASSES
0
CLASS
1
RASTERVARIABLES
2
AcDbRasterVariables
3
ISM
90
0
280
0
281
0
0
ENDSEC
0
SECTION
2
TABLES
0
TABLE
2
VPORT
5
1ed
100
AcDbSymbolTable
0
VPORT
5
1
100
AcDbSymbolTableRecord
100
AcDbViewportTableRecord
2
*Active
70
0
10
0
20
0
11
1
21
1
12
-1
22
1
13
0
23
0
14
0.5
24
0.5
15
10
25
10
16
0
26
0
36
1
17
0
27
0
37
0
0
ENDTAB
0
TABLE
2
LTYPE
5
1ee
100
AcDbSymbolTable
0
LTYPE
5
14
100
AcDbSymbolTableRecord
100
AcDbLinetypeTableRecord
70
0
2
ByBlock
3

72
65
73
0
40
0
0
LTYPE
5
15
100
AcDbSymbolTableRecord
100
AcDbLinetypeTableRecord
70
0
2
ByLayer
3

72
65
73
0
40
0
0
LTYPE
5
16
100
AcDbSymbolTableRecord
100
AcDbLinetypeTableRecord
70
0
2
Continuous
3
Solid line
72
65
73
0
40
0
0
LTYPE
5
6E
100
AcDbSymbolTableRecord
100
AcDbLinetypeTableRecord
70
0
2
CENTER
3
____ _ ____ _ ____ _ ____
72
65
73
4
40
47.5
49
22
74
0
49
-8.5
74
0
49
8.5
74
0
49
-8.5
74
0
0
LTYPE
5
6F
100
AcDbSymbolTableRecord
100
AcDbLinetypeTableRecord
70
0
2
DASHED
3
__ __ __ __ __ __ __ __ __
72
65
73
2
40
25.72
49
12.86
74
0
49
-12.86
74
0
0
ENDTAB
0
TABLE
2
LAYER
5
1ef
100
AcDbSymbolTable
0
LAYER
5
10
100
AcDbSymbolTableRecord
100
AcDbLayerTableRecord
2
0
70
0
62
7
6
Continuous
290
1
370
-3
390
0
0
LAYER
5
71
100
AcDbSymbolTableRecord
100
AcDbLayerTableRecord
2
80
70
0
62
-6
6
Continuous
290
1
370
-3
390
0
0
LAYER
5
73
100
AcDbSymbolTableRecord
100
AcDbLayerTableRecord
2
81
70
0
62
-3
6
Continuous
290
1
370
-3
390
0
0
LAYER
5
75
100
AcDbSymbolTableRecord
100
AcDbLayerTableRecord
2
1
70
0
62
4
6
Continuous
290
1
370
-3
390
0
0
LAYER
5
86
100
AcDbSymbolTableRecord
100
AcDbLayerTableRecord
2
4
70
0
62
-2
6
CENTER
290
1
370
-3
390
0
0
LAYER
5
9F
100
AcDbSymbolTableRecord
100
AcDbLayerTableRecord
2
2
70
0
62
7
6
Continuous
290
1
370
-3
390
0
0
LAYER
5
102
100
AcDbSymbolTableRecord
100
AcDbLayerTableRecord
2
Defpoints
70
0
62
7
6
Continuous
290
0
370
-3
390
0
0
LAYER
5
1d9
100
AcDbSymbolTableRecord
100
AcDbLayerTableRecord
2
SK1
70
0
62
4
6
Continuous
290
1
370
-3
390
0
0
LAYER
5
1da
100
AcDbSymbolTableRecord
100
AcDbLayerTableRecord
2
SK4
70
0
62
2
6
CENTER
290
1
370
-3
390
0
0
LAYER
5
1db
100
AcDbSymbolTableRecord
100
AcDbLayerTableRecord
2
SK2
70
0
62
7
6
Continuous
290
1
370
-3
390
0
0
LAYER
5
1dc
100
AcDbSymbolTableRecord
100
AcDbLayerTableRecord
2
SK6
70
0
62
5
6
Continuous
290
1
370
-3
390
0
0
ENDTAB
0
TABLE
2
STYLE
5
1f0
100
AcDbSymbolTable
0
STYLE
5
11
100
AcDbSymbolTableRecord
100
AcDbTextStyleTableRecord
2
Standard
3
txt
70
0
71
0
40
0
41
1
42
0
50
0
0
STYLE
5
E7
100
AcDbSymbolTableRecord
100
AcDbTextStyleTableRecord
2
iso_b_vert
3
simplex.shx
70
0
71
0
40
0
41
1
42
0
50
0
0
STYLE
5
E8
100
AcDbSymbolTableRecord
100
AcDbTextStyleTableRecord
2
DWGDirectTextStyle
3
simplex
70
0
71
0
40
0
41
1
42
0
50
0
0
ENDTAB
0
TABLE
2
DIMSTYLE
5
1f1
100
AcDbSymbolTable
100
AcDbDimStyleTable
0
DIMSTYLE
105
27
100
AcDbSymbolTableRecord
100
AcDbDimStyleTableRecord
2
Standard
70
0
3
<>
41
0.18
42
0.0625
44
0.18
140
0.18
147
0.09
73
0
74
0
77
1
271
2
275
0
278
52
280
0
340
11
0
ENDTAB
0
TABLE
2
VIEW
5
1f2
100
AcDbSymbolTable
0
ENDTAB
0
TABLE
2
UCS
5
1f3
100
AcDbSymbolTable
0
ENDTAB
0
TABLE
2
APPID
5
1f4
100
AcDbSymbolTable
0
APPID
5
12
100
AcDbSymbolTableRecord
100
AcDbRegAppTableRecord
2
ACAD
70
0
0
APPID
5
FE
100
AcDbSymbolTableRecord
100
AcDbRegAppTableRecord
2
ACAD_DSTYLE_DIMBREAK
70
0
0
APPID
5
198
100
AcDbSymbolTableRecord
100
AcDbRegAppTableRecord
2
ACAD_DSTYLE_DIM_LINETYPE
70
0
0
APPID
5
199
100
AcDbSymbolTableRecord
100
AcDbRegAppTableRecord
2
ACAD_DSTYLE_DIM_EXT1_LINETYPE
70
0
0
APPID
5
19A
100
AcDbSymbolTableRecord
100
AcDbRegAppTableRecord
2
ACAD_DSTYLE_DIM_EXT2_LINETYPE
70
0
0
APPID
5
1D5
100
AcDbSymbolTableRecord
100
AcDbRegAppTableRecord
2
ACAD_MLEADERVER
70
0
0
ENDTAB
0
TABLE
2
BLOCK_RECORD
5
1f5
100
AcDbSymbolTable
0
BLOCK_RECORD
5
1F
100
AcDbSymbolTableRecord
100
AcDbBlockTableRecord
2
*Model_Space
340
0
70
0
0
BLOCK_RECORD
5
1B
100
AcDbSymbolTableRecord
100
AcDbBlockTableRecord
2
*Paper_Space
340
0
70
0
0
BLOCK_RECORD
5
23
100
AcDbSymbolTableRecord
100
AcDbBlockTableRecord
2
*Paper_Space0
340
0
70
0
0
BLOCK_RECORD
5
103
100
AcDbSymbolTableRecord
100
AcDbBlockTableRecord
2
*D1
340
0
70
0
0
BLOCK_RECORD
5
10F
100
AcDbSymbolTableRecord
100
AcDbBlockTableRecord
2
_U0
340
0
70
0
0
BLOCK_RECORD
5
11B
100
AcDbSymbolTableRecord
100
AcDbBlockTableRecord
2
*D3
340
0
70
0
0
BLOCK_RECORD
5
127
100
AcDbSymbolTableRecord
100
AcDbBlockTableRecord
2
_U1
340
0
70
0
0
BLOCK_RECORD
5
133
100
AcDbSymbolTableRecord
100
AcDbBlockTableRecord
2
*D5
340
0
70
0
0
BLOCK_RECORD
5
13F
100
AcDbSymbolTableRecord
100
AcDbBlockTableRecord
2
_U2
340
0
70
0
0
BLOCK_RECORD
5
14B
100
AcDbSymbolTableRecord
100
AcDbBlockTableRecord
2
*D7
340
0
70
0
0
BLOCK_RECORD
5
159
100
AcDbSymbolTableRecord
100
AcDbBlockTableRecord
2
_U3
340
0
70
0
0
BLOCK_RECORD
5
165
100
AcDbSymbolTableRecord
100
AcDbBlockTableRecord
2
*D9
340
0
70
0
0
BLOCK_RECORD
5
171
100
AcDbSymbolTableRecord
100
AcDbBlockTableRecord
2
_U4
340
0
70
0
0
ENDTAB
0
ENDSEC
0
SECTION
2
BLOCKS
0
BLOCK
5
20
100
AcDbEntity
8
0
100
AcDbBlockBegin
2
*Model_Space
70
0
10
0
20
0
30
0
3
*Model_Space
0
ENDBLK
5
21
100
AcDbEntity
8
0
100
AcDbBlockEnd
0
BLOCK
5
1C
100
AcDbEntity
8
0
100
AcDbBlockBegin
2
*Paper_Space
70
0
10
0
20
0
30
0
3
*Paper_Space
0
ENDBLK
5
1D
100
AcDbEntity
8
0
100
AcDbBlockEnd
0
BLOCK
5
24
100
AcDbEntity
8
0
100
AcDbBlockBegin
2
*Paper_Space0
70
0
10
0
20
0
30
0
3
*Paper_Space0
0
ENDBLK
5
25
100
AcDbEntity
8
0
100
AcDbBlockEnd
0
BLOCK
5
104
100
AcDbEntity
8
0
100
AcDbBlockBegin
2
*D1
70
1
10
0
20
0
30
0
3
*D1
0
LINE
5
106
100
AcDbEntity
8
0
62
256
6
ByLayer
370
-2
48
1
60
0
100
AcDbLine
10
0
20
-1.5875
30
0
11
0
21
-16.563398
31
0
39
0
210
0
220
0
230
1
0
LINE
5
107
100
AcDbEntity
8
0
62
256
6
ByLayer
370
-2
48
1
60
0
100
AcDbLine
10
61.7119
20
-5.9375
30
0
11
61.7119
21
-16.563398
31
0
39
0
210
0
220
0
230
1
0
LINE
5
108
100
AcDbEntity
8
0
62
256
6
ByLayer
370
-2
48
1
60
0
100
AcDbLine
10
3.5
20
-14.563398
30
0
11
58.2119
21
-14.563398
31
0
39
0
210
0
220
0
230
1
0
SOLID
5
109
100
AcDbEntity
8
0
62
256
6
ByLayer
370
-1
48
1
60
0
100
AcDbTrace
10
3.5
20
-13.980065
30
0
11
3.5
21
-15.146732
31
0
12
0
22
-14.563398
32
0
13
0
23
-14.563398
33
0
39
0
210
0
220
0
230
1
0
SOLID
5
10A
100
AcDbEntity
8
0
62
256
6
ByLayer
370
-1
48
1
60
0
100
AcDbTrace
10
58.2119
20
-15.146732
30
0
11
58.2119
21
-13.980065
31
0
12
61.7119
22
-14.563398
32
0
13
61.7119
23
-14.563398
33
0
39
0
210
0
220
0
230
1
0
MTEXT
5
10B
100
AcDbEntity
8
0
62
256
6
ByLayer
370
18
48
1
60
0
100
AcDbMText
10
30.85595
20
-7.563398
30
0
210
0
220
0
230
1
1
\A1;61.71
40
3.5
41
0
44
1
50
0
71
5
72
5
7
iso_b_vert
0
POINT
5
10C
100
AcDbEntity
8
Defpoints
62
0
6
ByLayer
370
-1
48
1
60
0
100
AcDbPoint
10
0
20
0
30
0
39
0
210
0
220
0
230
1
50
360
0
POINT
5
10D
100
AcDbEntity
8
Defpoints
62
0
6
ByLayer
370
-1
48
1
60
0
100
AcDbPoint
10
61.7119
20
-4.35
30
0
39
0
210
0
220
0
230
1
50
360
0
POINT
5
10E
100
AcDbEntity
8
Defpoints
62
0
6
ByLayer
370
-1
48
1
60
0
100
AcDbPoint
10
61.7119
20
-14.563398
30
0
39
0
210
0
220
0
230
1
50
360
0
ENDBLK
5
105
100
AcDbEntity
8
0
100
AcDbBlockEnd
0
BLOCK
5
116
100
AcDbEntity
8
0
100
AcDbBlockBegin
2
_U0
70
0
10
0
20
0
30
0
3
_U0
0
MTEXT
5
110
100
AcDbEntity
8
SK2
62
256
6
ByLayer
370
13
48
1
60
0
100
AcDbMText
10
26.593518
20
-13.530765
30
0
210
0
220
0
230
1
1
\W0.6563;61,71
40
3.5
41
0
44
1.084337
50
0
71
7
72
5
7
iso_b_vert
0
LINE
5
111
100
AcDbEntity
8
SK2
62
256
6
ByLayer
370
13
48
1
60
0
100
AcDbLine
10
0
20
-1.5875
30
0
11
0
21
-16.563398
31
0
39
0
210
0
220
0
230
1
0
LINE
5
112
100
AcDbEntity
8
SK2
62
256
6
ByLayer
370
13
48
1
60
0
100
AcDbLine
10
61.7119
20
-5.9375
30
0
11
61.7119
21
-16.563398
31
0
39
0
210
0
220
0
230
1
0
LINE
5
113
100
AcDbEntity
8
SK2
62
256
6
ByLayer
370
13
48
1
60
0
100
AcDbLine
10
0
20
-14.563398
30
0
11
61.7119
21
-14.563398
31
0
39
0
210
0
220
0
230
1
0
SOLID
5
114
100
AcDbEntity
8
SK2
62
256
6
ByLayer
370
18
48
1
60
0
100
AcDbTrace
10
0
20
-14.563398
30
0
11
3.499998
21
-14.102615
31
0
12
3.500002
22
-15.024182
32
0
13
3.500002
23
-15.024182
33
0
39
0
210
0
220
0
230
1
0
SOLID
5
115
100
AcDbEntity
8
SK2
62
256
6
ByLayer
370
18
48
1
60
0
100
AcDbTrace
10
61.7119
20
-14.563398
30
0
11
58.211902
21
-15.024182
31
0
12
58.211898
22
-14.102615
32
0
13
58.211898
23
-14.102615
33
0
39
0
210
0
220
0
230
1
0
ENDBLK
5
117
100
AcDbEntity
8
0
100
AcDbBlockEnd
0
BLOCK
5
11C
100
AcDbEntity
8
0
100
AcDbBlockBegin
2
*D3
70
1
10
0
20
0
30
0
3
*D3
0
LINE
5
11E
100
AcDbEntity
8
0
62
256
6
ByLayer
370
-2
48
1
60
0
100
AcDbLine
10
-40
20
-6.5875
30
0
11
-40
21
-35.692985
31
0
39
0
210
0
220
0
230
1
0
LINE
5
11F
100
AcDbEntity
8
0
62
256
6
ByLayer
370
-2
48
1
60
0
100
AcDbLine
10
63
20
-1.5875
30
0
11
63
21
-35.692985
31
0
39
0
210
0
220
0
230
1
0
LINE
5
120
100
AcDbEntity
8
0
62
256
6
ByLayer
370
-2
48
1
60
0
100
AcDbLine
10
-36.5
20
-33.692985
30
0
11
59.5
21
-33.692985
31
0
39
0
210
0
220
0
230
1
0
SOLID
5
121
100
AcDbEntity
8
0
62
256
6
ByLayer
370
-1
48
1
60
0
100
AcDbTrace
10
-36.5
20
-33.109652
30
0
11
-36.5
21
-34.276319
31
0
12
-40
22
-33.692985
32
0
13
-40
23
-33.692985
33
0
39
0
210
0
220
0
230
1
0
SOLID
5
122
100
AcDbEntity
8
0
62
256
6
ByLayer
370
-1
48
1
60
0
100
AcDbTrace
10
59.5
20
-34.276319
30
0
11
59.5
21
-33.109652
31
0
12
63
22
-33.692985
32
0
13
63
23
-33.692985
33
0
39
0
210
0
220
0
230
1
0
MTEXT
5
123
100
AcDbEntity
8
0
62
256
6
ByLayer
370
18
48
1
60
0
100
AcDbMText
10
11.5
20
-26.692985
30
0
210
0
220
0
230
1
1
\A1;103.00
40
3.5
41
0
44
1
50
0
71
5
72
5
7
iso_b_vert
0
POINT
5
124
100
AcDbEntity
8
Defpoints
62
0
6
ByLayer
370
-1
48
1
60
0
100
AcDbPoint
10
-40
20
-5
30
0
39
0
210
0
220
0
230
1
50
360
0
POINT
5
125
100
AcDbEntity
8
Defpoints
62
0
6
ByLayer
370
-1
48
1
60
0
100
AcDbPoint
10
63
20
0
30
0
39
0
210
0
220
0
230
1
50
360
0
POINT
5
126
100
AcDbEntity
8
Defpoints
62
0
6
ByLayer
370
-1
48
1
60
0
100
AcDbPoint
10
63
20
-33.692985
30
0
39
0
210
0
220
0
230
1
50
360
0
ENDBLK
5
11D
100
AcDbEntity
8
0
100
AcDbBlockEnd
0
BLOCK
5
12E
100
AcDbEntity
8
0
100
AcDbBlockBegin
2
_U1
70
0
10
0
20
0
30
0
3
_U1
0
MTEXT
5
128
100
AcDbEntity
8
SK2
62
256
6
ByLayer
370
13
48
1
60
0
100
AcDbMText
10
5.492401
20
-32.660352
30
0
210
0
220
0
230
1
1
\W0.6930;103,00
40
3.5
41
0
44
1.084337
50
0
71
7
72
5
7
iso_b_vert
0
LINE
5
129
100
AcDbEntity
8
SK2
62
256
6
ByLayer
370
13
48
1
60
0
100
AcDbLine
10
-40
20
-6.5875
30
0
11
-40
21
-35.692985
31
0
39
0
210
0
220
0
230
1
0
LINE
5
12A
100
AcDbEntity
8
SK2
62
256
6
ByLayer
370
13
48
1
60
0
100
AcDbLine
10
63
20
-1.5875
30
0
11
63
21
-35.692985
31
0
39
0
210
0
220
0
230
1
0
LINE
5
12B
100
AcDbEntity
8
SK2
62
256
6
ByLayer
370
13
48
1
60
0
100
AcDbLine
10
-40
20
-33.692985
30
0
11
63
21
-33.692985
31
0
39
0
210
0
220
0
230
1
0
SOLID
5
12C
100
AcDbEntity
8
SK2
62
256
6
ByLayer
370
18
48
1
60
0
100
AcDbTrace
10
-40
20
-33.692985
30
0
11
-36.500002
21
-33.232202
31
0
12
-36.499998
22
-34.153769
32
0
13
-36.499998
23
-34.153769
33
0
39
0
210
0
220
0
230
1
0
SOLID
5
12D
100
AcDbEntity
8
SK2
62
256
6
ByLayer
370
18
48
1
60
0
100
AcDbTrace
10
63
20
-33.692985
30
0
11
59.500002
21
-34.153769
31
0
12
59.499998
22
-33.232202
32
0
13
59.499998
23
-33.232202
33
0
39
0
210
0
220
0
230
1
0
ENDBLK
5
12F
100
AcDbEntity
8
0
100
AcDbBlockEnd
0
BLOCK
5
134
100
AcDbEntity
8
0
100
AcDbBlockBegin
2
*D5
70
1
10
0
20
0
30
0
3
*D5
0
LINE
5
136
100
AcDbEntity
8
0
62
256
6
ByLayer
370
-2
48
1
60
0
100
AcDbLine
10
18.21
20
5.9375
30
0
11
18.21
21
17.959119
31
0
39
0
210
0
220
0
230
1
0
LINE
5
137
100
AcDbEntity
8
0
62
256
6
ByLayer
370
-2
48
1
60
0
100
AcDbLine
10
63
20
1.5875
30
0
11
63
21
17.959119
31
0
39
0
210
0
220
0
230
1
0
LINE
5
138
100
AcDbEntity
8
0
62
256
6
ByLayer
370
-2
48
1
60
0
100
AcDbLine
10
21.71
20
15.959119
30
0
11
59.5
21
15.959119
31
0
39
0
210
0
220
0
230
1
0
SOLID
5
139
100
AcDbEntity
8
0
62
256
6
ByLayer
370
-1
48
1
60
0
100
AcDbTrace
10
21.71
20
16.542453
30
0
11
21.71
21
15.375786
31
0
12
18.21
22
15.959119
32
0
13
18.21
23
15.959119
33
0
39
0
210
0
220
0
230
1
0
SOLID
5
13A
100
AcDbEntity
8
0
62
256
6
ByLayer
370
-1
48
1
60
0
100
AcDbTrace
10
59.5
20
15.375786
30
0
11
59.5
21
16.542453
31
0
12
63
22
15.959119
32
0
13
63
23
15.959119
33
0
39
0
210
0
220
0
230
1
0
MTEXT
5
13B
100
AcDbEntity
8
0
62
256
6
ByLayer
370
18
48
1
60
0
100
AcDbMText
10
40.605
20
22.959119
30
0
210
0
220
0
230
1
1
\A1;44.79
40
3.5
41
0
44
1
50
0
71
5
72
5
7
iso_b_vert
0
POINT
5
13C
100
AcDbEntity
8
Defpoints
62
0
6
ByLayer
370
-1
48
1
60
0
100
AcDbPoint
10
18.21
20
4.35
30
0
39
0
210
0
220
0
230
1
50
360
0
POINT
5
13D
100
AcDbEntity
8
Defpoints
62
0
6
ByLayer
370
-1
48
1
60
0
100
AcDbPoint
10
63
20
0
30
0
39
0
210
0
220
0
230
1
50
360
0
POINT
5
13E
100
AcDbEntity
8
Defpoints
62
0
6
ByLayer
370
-1
48
1
60
0
100
AcDbPoint
10
63
20
15.959119
30
0
39
0
210
0
220
0
230
1
50
360
0
ENDBLK
5
135
100
AcDbEntity
8
0
100
AcDbBlockEnd
0
BLOCK
5
146
100
AcDbEntity
8
0
100
AcDbBlockBegin
2
_U2
70
0
10
0
20
0
30
0
3
_U2
0
MTEXT
5
140
100
AcDbEntity
8
SK2
62
256
6
ByLayer
370
13
48
1
60
0
100
AcDbMText
10
35.099168
20
16.991753
30
0
210
0
220
0
230
1
1
\W0.7936;44,79
40
3.5
41
0
44
1.084337
50
0
71
7
72
5
7
iso_b_vert
0
LINE
5
141
100
AcDbEntity
8
SK2
62
256
6
ByLayer
370
13
48
1
60
0
100
AcDbLine
10
18.21
20
5.9375
30
0
11
18.21
21
17.959119
31
0
39
0
210
0
220
0
230
1
0
LINE
5
142
100
AcDbEntity
8
SK2
62
256
6
ByLayer
370
13
48
1
60
0
100
AcDbLine
10
63
20
1.5875
30
0
11
63
21
17.959119
31
0
39
0
210
0
220
0
230
1
0
LINE
5
143
100
AcDbEntity
8
SK2
62
256
6
ByLayer
370
13
48
1
60
0
100
AcDbLine
10
18.21
20
15.959119
30
0
11
63
21
15.959119
31
0
39
0
210
0
220
0
230
1
0
SOLID
5
144
100
AcDbEntity
8
SK2
62
256
6
ByLayer
370
18
48
1
60
0
100
AcDbTrace
10
18.21
20
15.959119
30
0
11
21.709998
21
16.419903
31
0
12
21.710002
22
15.498335
32
0
13
21.710002
23
15.498335
33
0
39
0
210
0
220
0
230
1
0
SOLID
5
145
100
AcDbEntity
8
SK2
62
256
6
ByLayer
370
18
48
1
60
0
100
AcDbTrace
10
63
20
15.959119
30
0
11
59.500002
21
15.498335
31
0
12
59.499998
22
16.419903
32
0
13
59.499998
23
16.419903
33
0
39
0
210
0
220
0
230
1
0
ENDBLK
5
147
100
AcDbEntity
8
0
100
AcDbBlockEnd
0
BLOCK
5
14C
100
AcDbEntity
8
0
100
AcDbBlockBegin
2
*D7
70
1
10
0
20
0
30
0
3
*D7
0
LINE
5
14E
100
AcDbEntity
8
0
62
256
6
ByLayer
370
-2
48
1
60
0
100
AcDbLine
10
63
20
-1.5875
30
0
11
63
21
-19.152503
31
0
39
0
210
0
220
0
230
1
0
LINE
5
14F
100
AcDbEntity
8
0
62
256
6
ByLayer
370
-2
48
1
60
0
100
AcDbLine
10
61.7119
20
-5.9375
30
0
11
61.7119
21
-19.152503
31
0
39
0
210
0
220
0
230
1
0
LINE
5
150
100
AcDbEntity
8
0
62
256
6
ByLayer
370
-2
48
1
60
0
100
AcDbLine
10
63
20
-17.152503
30
0
11
90.5
21
-17.152503
31
0
39
0
210
0
220
0
230
1
0
LINE
5
151
100
AcDbEntity
8
0
62
256
6
ByLayer
370
-2
48
1
60
0
100
AcDbLine
10
66.5
20
-17.152503
30
0
11
70
21
-17.152503
31
0
39
0
210
0
220
0
230
1
0
LINE
5
152
100
AcDbEntity
8
0
62
256
6
ByLayer
370
-2
48
1
60
0
100
AcDbLine
10
58.2119
20
-17.152503
30
0
11
54.7119
21
-17.152503
31
0
39
0
210
0
220
0
230
1
0
SOLID
5
153
100
AcDbEntity
8
0
62
256
6
ByLayer
370
-1
48
1
60
0
100
AcDbTrace
10
66.5
20
-16.56917
30
0
11
66.5
21
-17.735837
31
0
12
63
22
-17.152503
32
0
13
63
23
-17.152503
33
0
39
0
210
0
220
0
230
1
0
SOLID
5
154
100
AcDbEntity
8
0
62
256
6
ByLayer
370
-1
48
1
60
0
100
AcDbTrace
10
58.2119
20
-17.735837
30
0
11
58.2119
21
-16.56917
31
0
12
61.7119
22
-17.152503
32
0
13
61.7119
23
-17.152503
33
0
39
0
210
0
220
0
230
1
0
MTEXT
5
155
100
AcDbEntity
8
0
62
256
6
ByLayer
370
18
48
1
60
0
100
AcDbMText
10
80.25
20
-10.152503
30
0
210
0
220
0
230
1
1
\A1;1.29
40
3.5
41
0
44
1
50
0
71
5
72
5
7
iso_b_vert
0
POINT
5
156
100
AcDbEntity
8
Defpoints
62
0
6
ByLayer
370
-1
48
1
60
0
100
AcDbPoint
10
63
20
0
30
0
39
0
210
0
220
0
230
1
50
360
0
POINT
5
157
100
AcDbEntity
8
Defpoints
62
0
6
ByLayer
370
-1
48
1
60
0
100
AcDbPoint
10
61.7119
20
-4.35
30
0
39
0
210
0
220
0
230
1
50
360
0
POINT
5
158
100
AcDbEntity
8
Defpoints
62
0
6
ByLayer
370
-1
48
1
60
0
100
AcDbPoint
10
61.7119
20
-17.152503
30
0
39
0
210
0
220
0
230
1
50
360
0
ENDBLK
5
14D
100
AcDbEntity
8
0
100
AcDbBlockEnd
0
BLOCK
5
160
100
AcDbEntity
8
0
100
AcDbBlockBegin
2
_U3
70
0
10
0
20
0
30
0
3
_U3
0
MTEXT
5
15A
100
AcDbEntity
8
SK2
62
256
6
ByLayer
370
13
48
1
60
0
100
AcDbMText
10
69.589293
20
-16.11987
30
0
210
0
220
0
230
1
1
\W0.6463;1,29
40
3.5
41
0
44
1.084337
50
0
71
7
72
5
7
iso_b_vert
0
LINE
5
15B
100
AcDbEntity
8
SK2
62
256
6
ByLayer
370
13
48
1
60
0
100
AcDbLine
10
63
20
-1.5875
30
0
11
63
21
-19.152503
31
0
39
0
210
0
220
0
230
1
0
LINE
5
15C
100
AcDbEntity
8
SK2
62
256
6
ByLayer
370
13
48
1
60
0
100
AcDbLine
10
61.7119
20
-5.9375
30
0
11
61.7119
21
-19.152503
31
0
39
0
210
0
220
0
230
1
0
LINE
5
15D
100
AcDbEntity
8
SK2
62
256
6
ByLayer
370
13
48
1
60
0
100
AcDbLine
10
52.9619
20
-17.152503
30
0
11
76.559058
21
-17.152503
31
0
39
0
210
0
220
0
230
1
0
SOLID
5
15E
100
AcDbEntity
8
SK2
62
256
6
ByLayer
370
18
48
1
60
0
100
AcDbTrace
10
63
20
-17.152503
30
0
11
66.499998
21
-16.691719
31
0
12
66.500002
22
-17.613287
32
0
13
66.500002
23
-17.613287
33
0
39
0
210
0
220
0
230
1
0
SOLID
5
15F
100
AcDbEntity
8
SK2
62
256
6
ByLayer
370
18
48
1
60
0
100
AcDbTrace
10
61.7119
20
-17.152503
30
0
11
58.211902
21
-17.613287
31
0
12
58.211898
22
-16.691719
32
0
13
58.211898
23
-16.691719
33
0
39
0
210
0
220
0
230
1
0
ENDBLK
5
161
100
AcDbEntity
8
0
100
AcDbBlockEnd
0
BLOCK
5
166
100
AcDbEntity
8
0
100
AcDbBlockBegin
2
*D9
70
1
10
0
20
0
30
0
3
*D9
0
LINE
5
168
100
AcDbEntity
8
0
62
256
6
ByLayer
370
-2
48
1
60
0
100
AcDbLine
10
-40
20
-6.5875
30
0
11
-40
21
-25.343428
31
0
39
0
210
0
220
0
230
1
0
LINE
5
169
100
AcDbEntity
8
0
62
256
6
ByLayer
370
-2
48
1
60
0
100
AcDbLine
10
61.7119
20
-5.9375
30
0
11
61.7119
21
-25.343428
31
0
39
0
210
0
220
0
230
1
0
LINE
5
16A
100
AcDbEntity
8
0
62
256
6
ByLayer
370
-2
48
1
60
0
100
AcDbLine
10
-36.5
20
-23.343428
30
0
11
58.2119
21
-23.343428
31
0
39
0
210
0
220
0
230
1
0
SOLID
5
16B
100
AcDbEntity
8
0
62
256
6
ByLayer
370
-1
48
1
60
0
100
AcDbTrace
10
-36.5
20
-22.760095
30
0
11
-36.5
21
-23.926762
31
0
12
-40
22
-23.343428
32
0
13
-40
23
-23.343428
33
0
39
0
210
0
220
0
230
1
0
SOLID
5
16C
100
AcDbEntity
8
0
62
256
6
ByLayer
370
-1
48
1
60
0
100
AcDbTrace
10
58.2119
20
-23.926762
30
0
11
58.2119
21
-22.760095
31
0
12
61.7119
22
-23.343428
32
0
13
61.7119
23
-23.343428
33
0
39
0
210
0
220
0
230
1
0
MTEXT
5
16D
100
AcDbEntity
8
0
62
256
6
ByLayer
370
18
48
1
60
0
100
AcDbMText
10
10.85595
20
-16.343428
30
0
210
0
220
0
230
1
1
\A1;101.71
40
3.5
41
0
44
1
50
0
71
5
72
5
7
iso_b_vert
0
POINT
5
16E
100
AcDbEntity
8
Defpoints
62
0
6
ByLayer
370
-1
48
1
60
0
100
AcDbPoint
10
-40
20
-5
30
0
39
0
210
0
220
0
230
1
50
360
0
POINT
5
16F
100
AcDbEntity
8
Defpoints
62
0
6
ByLayer
370
-1
48
1
60
0
100
AcDbPoint
10
61.7119
20
-4.35
30
0
39
0
210
0
220
0
230
1
50
360
0
POINT
5
170
100
AcDbEntity
8
Defpoints
62
0
6
ByLayer
370
-1
48
1
60
0
100
AcDbPoint
10
61.7119
20
-23.343428
30
0
39
0
210
0
220
0
230
1
50
360
0
ENDBLK
5
167
100
AcDbEntity
8
0
100
AcDbBlockEnd
0
BLOCK
5
178
100
AcDbEntity
8
0
100
AcDbBlockBegin
2
_U4
70
0
10
0
20
0
30
0
3
_U4
0
MTEXT
5
172
100
AcDbEntity
8
SK2
62
256
6
ByLayer
370
13
48
1
60
0
100
AcDbMText
10
5.723218
20
-22.310795
30
0
210
0
220
0
230
1
1
\W0.6303;101,71
40
3.5
41
0
44
1.084337
50
0
71
7
72
5
7
iso_b_vert
0
LINE
5
173
100
AcDbEntity
8
SK2
62
256
6
ByLayer
370
13
48
1
60
0
100
AcDbLine
10
-40
20
-6.5875
30
0
11
-40
21
-25.343428
31
0
39
0
210
0
220
0
230
1
0
LINE
5
174
100
AcDbEntity
8
SK2
62
256
6
ByLayer
370
13
48
1
60
0
100
AcDbLine
10
61.7119
20
-5.9375
30
0
11
61.7119
21
-25.343428
31
0
39
0
210
0
220
0
230
1
0
LINE
5
175
100
AcDbEntity
8
SK2
62
256
6
ByLayer
370
13
48
1
60
0
100
AcDbLine
10
-40
20
-23.343428
30
0
11
61.7119
21
-23.343428
31
0
39
0
210
0
220
0
230
1
0
SOLID
5
176
100
AcDbEntity
8
SK2
62
256
6
ByLayer
370
18
48
1
60
0
100
AcDbTrace
10
-40
20
-23.343428
30
0
11
-36.500002
21
-22.882645
31
0
12
-36.499998
22
-23.804212
32
0
13
-36.499998
23
-23.804212
33
0
39
0
210
0
220
0
230
1
0
SOLID
5
177
100
AcDbEntity
8
SK2
62
256
6
ByLayer
370
18
48
1
60
0
100
AcDbTrace
10
61.7119
20
-23.343428
30
0
11
58.211902
21
-23.804212
31
0
12
58.211898
22
-22.882645
32
0
13
58.211898
23
-22.882645
33
0
39
0
210
0
220
0
230
1
0
ENDBLK
5
179
100
AcDbEntity
8
0
100
AcDbBlockEnd
0
ENDSEC
0
SECTION
2
ENTITIES
0
ARC
5
A8
100
AcDbEntity
8
1
62
256
6
ByLayer
370
18
48
1
60
0
100
AcDbCircle
39
0
10
1.314447
20
-5.112266
30
0
40
0.800000000000001
210
0
220
0
230
1
100
AcDbArc
50
89.96419
51
145.238202
0
ARC
5
A9
100
AcDbEntity
8
1
62
256
6
ByLayer
370
18
48
1
60
0
100
AcDbCircle
39
0
10
1.314447
20
5.112266
30
0
40
0.800000000000001
210
0
220
0
230
1
100
AcDbArc
50
214.761798
51
270.03581
0
ARC
5
AA
100
AcDbEntity
8
1
62
256
6
ByLayer
370
18
48
1
60
0
100
AcDbCircle
39
0
10
0
20
-4.2
30
0
40
0.8
210
0
220
0
230
1
100
AcDbArc
50
270
51
325.238202
0
ARC
5
AB
100
AcDbEntity
8
1
62
256
6
ByLayer
370
18
48
1
60
0
100
AcDbCircle
39
0
10
0
20
4.2
30
0
40
0.8
210
0
220
0
230
1
100
AcDbArc
50
34.761798
51
90
0
ELLIPSE
5
AC
100
AcDbEntity
8
1
62
256
6
ByLayer
370
13
48
1
60
0
100
AcDbEllipse
10
4.184373
20
-4.013491
30
0
11
-0.0304228941156227
21
0.0952598945707458
31
0
210
0
220
0
230
1
40
0.497053
41
0.319383791467501
42
1.68000912277486
0
ELLIPSE
5
AD
100
AcDbEntity
8
1
62
256
6
ByLayer
370
13
48
1
60
0
100
AcDbEllipse
10
4.250199
20
-4.008543
30
0
11
0.0143193859634453
21
0.0989694659257586
31
0
210
0
220
0
230
1
40
0.416402
41
0.331380228076441
42
1.88341325429345
0
POINT
5
70
100
AcDbEntity
8
80
62
256
6
ByLayer
370
18
48
1
60
0
100
AcDbPoint
10
0
20
0
30
0
39
0
210
0
220
0
230
1
50
360
0
POINT
5
72
100
AcDbEntity
8
81
62
256
6
ByLayer
370
18
48
1
60
0
100
AcDbPoint
10
63
20
0
30
0
39
0
210
0
220
0
230
1
50
360
0
POINT
5
74
100
AcDbEntity
8
1
62
256
6
ByLayer
370
18
48
1
60
1
100
AcDbPoint
10
61.7119
20
-4.35
30
0
39
0
210
0
220
0
230
1
50
360
0
POINT
5
76
100
AcDbEntity
8
1
62
256
6
ByLayer
370
18
48
1
60
1
100
AcDbPoint
10
-40
20
-5
30
0
39
0
210
0
220
0
230
1
50
360
0
POINT
5
77
100
AcDbEntity
8
1
62
256
6
ByLayer
370
18
48
1
60
1
100
AcDbPoint
10
18.21
20
4.35
30
0
39
0
210
0
220
0
230
1
50
360
0
POINT
5
78
100
AcDbEntity
8
1
62
256
6
ByLayer
370
18
48
1
60
1
100
AcDbPoint
10
61.7119
20
-4.35
30
0
39
0
210
0
220
0
230
1
50
360
0
POINT
5
79
100
AcDbEntity
8
1
62
256
6
ByLayer
370
18
48
1
60
1
100
AcDbPoint
10
-40
20
-5
30
0
39
0
210
0
220
0
230
1
50
360
0
POINT
5
7A
100
AcDbEntity
8
1
62
256
6
ByLayer
370
18
48
1
60
1
100
AcDbPoint
10
61.7119
20
-4.35
30
0
39
0
210
0
220
0
230
1
50
360
0
SPLINE
5
AE
100
AcDbEntity
8
1
62
256
6
ByLayer
370
13
48
1
60
0
100
AcDbSpline
70
4
71
3
72
8
73
4
40
0
40
0
40
0
40
0
40
1
40
1
40
1
40
1
41
1
10
4.13843785332446
20
-4.13751130807873
30
0
41
1
10
4.13916077656631
20
-4.10464452667199
30
0
41
1
10
4.13988891252177
20
-4.0717760490177
30
0
41
1
10
4.14062225632824
20
-4.03890582465854
30
0
0
SPLINE
5
AF
100
AcDbEntity
8
1
62
256
6
ByLayer
370
18
48
1
60
0
100
AcDbSpline
70
4
71
3
72
8
73
4
40
0
40
0
40
0
40
0
40
1
40
1
40
1
40
1
41
1
10
62.9895186753834
20
-0.117760465261796
30
0
41
1
10
62.9901847282739
20
-0.0960802694166603
30
0
41
1
10
62.9941497073712
20
-0.0696320925682699
30
0
41
1
10
62.9999622223009
20
-0.0417742290337344
30
0
0
SPLINE
5
B0
100
AcDbEntity
8
1
62
256
6
ByLayer
370
18
48
1
60
0
100
AcDbSpline
70
4
71
3
72
40
73
36
40
0
40
0
40
0
40
0
40
0.0491858037371697
40
0.0491858037371697
40
0.117814238792814
40
0.117814238792814
40
0.186442673848458
40
0.186442673848458
40
0.323699543959746
40
0.323699543959746
40
0.460956414071033
40
0.460956414071033
40
0.529584849126677
40
0.529584849126677
40
0.563899066654499
40
0.568188343845477
40
0.568188343845477
40
0.572477621036455
40
0.572477621036455
40
0.58105617541841
40
0.58105617541841
40
0.585345452609388
40
0.585345452609388
40
0.589634729800366
40
0.598213284182321
40
0.598213284182321
40
0.735470154293609
40
0.735470154293609
40
0.804098589349253
40
0.804098589349253
40
0.872727024404897
40
0.872727024404897
40
0.941355459460541
40
0.941355459460541
40
1
40
1
40
1
40
1
41
1
10
11.8725891458104
20
3.12271525576915
30
0
41
1
10
11.8725891458104
20
3.04262614380363
30
0
41
1
10
11.8725891458104
20
2.95994463343885
30
0
41
1
10
11.8725891458104
20
2.75584398508067
30
0
41
1
10
11.8725891458104
20
2.63200164858705
30
0
41
1
10
11.8725891458104
20
2.37443841526453
30
0
41
1
10
11.8725891458104
20
2.24009119708461
30
0
41
1
10
11.8725891458104
20
1.82947967728302
30
0
41
1
10
11.8725891458104
20
1.54431319284566
30
0
41
1
10
11.8725891458104
20
0.95284690929131
30
0
41
1
10
11.8725891458104
20
0.646535398735182
30
0
41
1
10
11.8725891458104
20
0.171202842720618
30
0
41
1
10
11.8725891458104
20
0.0108415144931655
30
0
41
1
10
11.8725891458104
20
-0.231441730799304
30
0
41
1
10
11.8725891458104
20
-0.322720224587584
30
0
41
1
10
11.8725891458104
20
-0.414330632043573
30
0
41
1
10
11.8725891458104
20
-0.434696773666786
30
0
41
1
10
11.8725891458104
20
-0.444833576225932
30
0
41
1
10
11.8725891458104
20
-0.475592057638295
30
0
41
1
10
11.872589145811
20
-0.496774809346448
30
0
41
1
10
11.872589145811
20
-0.524651988975052
30
0
41
1
10
11.8725891458104
20
-0.533315637738013
30
0
41
1
10
11.8725891458104
20
-0.551038442741401
30
0
41
1
10
11.8725891458104
20
-0.577591067286249
30
0
41
1
10
11.8725891458104
20
-0.604029477853771
30
0
41
1
10
11.8725891458104
20
-0.902799294127846
30
0
41
1
10
11.8725891458104
20
-1.17072323458569
30
0
41
1
10
11.8725891458104
20
-1.54676433383875
30
0
41
1
10
11.8725891458104
20
-1.66791597685167
30
0
41
1
10
11.8725891458104
20
-1.89892375914039
30
0
41
1
10
11.8725891458104
20
-2.00915915315534
30
0
41
1
10
11.8725891458104
20
-2.21890198180935
30
0
41
1
10
11.8725891458104
20
-2.31841076271661
30
0
41
1
10
11.8725891458104
20
-2.4925796834076
30
0
41
1
10
11.8725891458104
20
-2.56903325003796
30
0
41
1
10
11.8725891458104
20
-2.64056267426622
30
0
0
SPLINE
5
B1
100
AcDbEntity
8
1
62
256
6
ByLayer
370
18
48
1
60
0
100
AcDbSpline
70
4
71
3
72
14
73
10
40
0
40
0
40
0
40
0
40
0.25
40
0.25
40
0.5
40
0.5
40
0.75
40
0.75
40
1
40
1
40
1
40
1
41
1
10
61.6897178191716
20
-4.23180799912413
30
0
41
1
10
61.7871585802196
20
-3.95905021335335
30
0
41
1
10
61.8867182051755
20
-3.68675224357642
30
0
41
1
10
62.0895861078048
20
-3.14306214344944
30
0
41
1
10
62.1929098714892
20
-2.87167329685363
30
0
41
1
10
62.4030439117669
20
-2.32981034037101
30
0
41
1
10
62.5099505467742
20
-2.05918844213588
30
0
41
1
10
62.7264586654688
20
-1.52029990780878
30
0
41
1
10
62.8361370585395
20
-1.25185782144126
30
0
41
1
10
62.9471660862318
20
-0.984381251667514
30
0
0
SPLINE
5
B2
100
AcDbEntity
8
1
62
256
6
ByLayer
370
18
48
1
60
0
100
AcDbSpline
70
4
71
3
72
14
73
10
40
0
40
0
40
0
40
0
40
0.25
40
0.25
40
0.5
40
0.5
40
0.75
40
0.75
40
1
40
1
40
1
40
1
41
1
10
61.5268817194902
20
-4.13034048749452
30
0
41
1
10
61.530215389375
20
-4.12990592542275
30
0
41
1
10
61.5328903976146
20
-4.13119294842227
30
0
41
1
10
61.5365226029811
20
-4.13823336582121
30
0
41
1
10
61.5374232244865
20
-4.14408471173468
30
0
41
1
10
61.5363372701202
20
-4.1611956382566
30
0
41
1
10
61.5342900894552
20
-4.1724351700824
30
0
41
1
10
61.5274381942123
20
-4.19763208426082
30
0
41
1
10
61.5226755141278
20
-4.21146654768515
30
0
41
1
10
61.5174084539918
20
-4.22462930000753
30
0
0
SPLINE
5
B3
100
AcDbEntity
8
1
62
256
6
ByLayer
370
18
48
1
60
0
100
AcDbSpline
70
4
71
3
72
14
73
10
40
0
40
0
40
0
40
0
40
0.25
40
0.25
40
0.5
40
0.5
40
0.75
40
0.75
40
1
40
1
40
1
40
1
41
1
10
4.0023374537065
20
1.24848170348076
30
0
41
1
10
4.00602142641412
20
1.25745069794883
30
0
41
1
10
4.01433108299599
20
1.26432240116884
30
0
41
1
10
4.04209298715554
20
1.27039889692523
30
0
41
1
10
4.06206207756912
20
1.26945667769141
30
0
41
1
10
4.11126253521684
20
1.25706045420785
30
0
41
1
10
4.13977480295247
20
1.24576495056701
30
0
41
1
10
4.19677046279804
20
1.21718412773382
30
0
41
1
10
4.22480488437239
20
1.20032911038263
30
0
41
1
10
4.25143823072904
20
1.18245036860967
30
0
0
SPLINE
5
B4
100
AcDbEntity
8
1
62
256
6
ByLayer
370
18
48
1
60
0
100
AcDbSpline
70
4
71
3
72
8
73
4
40
0
40
0
40
0
40
0
40
1
40
1
40
1
40
1
41
1
10
61.4694705289162
20
4.34411231680829
30
0
41
1
10
61.3203444288851
20
4.34787566936123
30
0
41
1
10
61.1712241554356
20
4.34969833619974
30
0
41
1
10
61.0220745815689
20
4.34958269514979
30
0
0
SPLINE
5
B5
100
AcDbEntity
8
1
62
256
6
ByLayer
370
18
48
1
60
0
100
AcDbSpline
70
4
71
3
72
48
73
44
40
0
40
0
40
0
40
0
40
0.0023120302408404
40
0.0023120302408404
40
0.122417717857972
40
0.122417717857972
40
0.182470561666537
40
0.182470561666537
40
0.212496983570821
40
0.212496983570821
40
0.242523405475105
40
0.242523405475105
40
0.272549827379388
40
0.272549827379388
40
0.302576249283671
40
0.302576249283671
40
0.362629093092238
40
0.362629093092238
40
0.392655514996522
40
0.392655514996522
40
0.422681936900805
40
0.422681936900805
40
0.482734780709372
40
0.482734780709372
40
0.512761202613656
40
0.512761202613656
40
0.542787624517939
40
0.542787624517939
40
0.602840468326507
40
0.602840468326507
40
0.722946155943641
40
0.722946155943641
40
0.752972577847925
40
0.752972577847925
40
0.782998999752208
40
0.782998999752208
40
0.813025421656492
40
0.813025421656492
40
0.843051843560775
40
0.843051843560775
40
0.96315753117791
40
0.96315753117791
40
1
40
1
40
1
40
1
41
1
10
36.4344284765702
20
-4.13870923650984
30
0
41
1
10
36.4114811881388
20
-4.14210683666357
30
0
41
1
10
36.3885385905863
20
-4.14546014461268
30
0
41
1
10
35.1740115802975
20
-4.32066466207903
30
0
41
1
10
33.9944379726213
20
-4.3724382018338
30
0
41
1
10
32.2135939372076
20
-4.26695515601466
30
0
41
1
10
31.6181186638531
20
-4.20131287650023
30
0
41
1
10
30.7181911987333
20
-4.0574677389609
30
0
41
1
10
30.4180568836729
20
-4.00208405589936
30
0
41
1
10
29.8191037207239
20
-3.8774068612527
30
0
41
1
10
29.5199199894174
20
-3.80806800882692
30
0
41
1
10
28.9214781742137
20
-3.65605457830577
30
0
41
1
10
28.6222550714383
20
-3.5733438996551
30
0
41
1
10
28.0231290905784
20
-3.39520579096089
30
0
41
1
10
27.7228493434998
20
-3.29967086450697
30
0
41
1
10
26.8227223532689
20
-2.99619095864551
30
0
41
1
10
26.2247542507587
20
-2.77133480039404
30
0
41
1
10
25.3267576856272
20
-2.40679161408139
30
0
41
1
10
25.0273022514011
20
-2.28065751151453
30
0
41
1
10
24.4274325268666
20
-2.02029834948397
30
0
41
1
10
24.1269753677124
20
-1.88607793387189
30
0
41
1
10
23.2278448400334
20
-1.47503620600125
30
0
41
1
10
22.6299710116305
20
-1.18898015958555
30
0
41
1
10
21.7313465010832
20
-0.749805479422804
30
0
41
1
10
21.4313779137739
20
-0.601510780048216
30
0
41
1
10
20.8310034721182
20
-0.303185814526074
30
0
41
1
10
20.5319143285027
20
-0.153839773677845
30
0
41
1
10
19.6370551505792
20
0.292969925572436
30
0
41
1
10
19.0437646747283
20
0.589344258836149
30
0
41
1
10
17.2658243780745
20
1.45809319338289
30
0
41
1
10
16.0836816217757
20
2.0111755226944
30
0
41
1
10
14.5848247461936
20
2.62081805131856
30
0
41
1
10
14.2841738776034
20
2.73853463737362
30
0
41
1
10
13.6847412300441
20
2.96304525333423
30
0
41
1
10
13.3853877600034
20
3.07005178313008
30
0
41
1
10
12.7866828414277
20
3.27257194411016
30
0
41
1
10
12.4873412997655
20
3.36810338328715
30
0
41
1
10
11.8881211493843
20
3.54695681165191
30
0
41
1
10
11.5879667740949
20
3.63032929609236
30
0
41
1
10
10.0868547803025
20
4.01357341871173
30
0
41
1
10
8.90363899650797
20
4.20804548685118
30
0
41
1
10
7.35472629741196
20
4.30445243296217
30
0
41
1
10
6.99094406468004
20
4.31575286407994
30
0
41
1
10
6.62639156533064
20
4.31557969483416
30
0
0
SPLINE
5
B6
100
AcDbEntity
8
1
62
256
6
ByLayer
370
18
48
1
60
0
100
AcDbSpline
70
4
71
3
72
8
73
4
40
0
40
0
40
0
40
0
40
1
40
1
40
1
40
1
41
1
10
62.9471660862318
20
0.984381251667486
30
0
41
1
10
62.9665361722615
20
0.695177718046523
30
0
41
1
10
62.9806541189499
20
0.406304096386037
30
0
41
1
10
62.9895186753833
20
0.117760465261881
30
0
0
SPLINE
5
B7
100
AcDbEntity
8
1
62
256
6
ByLayer
370
13
48
1
60
0
100
AcDbSpline
70
4
71
3
72
8
73
4
40
0
40
0
40
0
40
0
40
1
40
1
40
1
40
1
41
1
10
4.14062225632824
20
-3.92779664257435
30
0
41
1
10
4.17513424226297
20
-3.91471862990548
30
0
41
1
10
4.21226838593913
20
-3.90977252152348
30
0
41
1
10
4.25033109770564
20
-3.91301797008433
30
0
0
SPLINE
5
B8
100
AcDbEntity
8
1
62
256
6
ByLayer
370
18
48
1
60
0
100
AcDbSpline
70
4
71
3
72
12
73
8
40
0
40
0
40
0
40
0
40
0.205107129653681
40
0.205107129653681
40
0.855191656213461
40
0.855191656213461
40
1
40
1
40
1
40
1
41
1
10
34.035593550316
20
-4.11525617535816
30
0
41
1
10
33.6564403250494
20
-4.11465413987978
30
0
41
1
10
33.2772933758311
20
-4.10222543307208
30
0
41
1
10
31.6942438415163
20
-4.00109367414183
30
0
41
1
10
30.5080584846426
20
-3.80694233151107
30
0
41
1
10
29.0560718945841
20
-3.44769268028887
30
0
41
1
10
28.7915150039708
20
-3.37731651546423
30
0
41
1
10
28.5266973986147
20
-3.30224799577181
30
0
0
SPLINE
5
B9
100
AcDbEntity
8
1
62
256
6
ByLayer
370
13
48
1
60
0
100
AcDbSpline
70
4
71
3
72
22
73
18
40
0
40
0
40
0
40
0
40
0.0822690497569071
40
0.0822690497569071
40
0.156452971987855
40
0.156452971987855
40
0.230636894218803
40
0.230636894218803
40
0.527372583142589
40
0.527372583142589
40
0.675740427604482
40
0.675740427604482
40
0.749924349835428
40
0.749924349835428
40
0.824108272066374
40
0.824108272066374
40
1
40
1
40
1
40
1
41
1
10
28.5266973984935
20
-3.30224799573742
30
0
41
1
10
28.1970954314362
20
-3.20881488836565
30
0
41
1
10
27.8670895851932
20
-3.10811274648549
30
0
41
1
10
27.2379453976957
20
-2.90365439672635
30
0
41
1
10
26.9389745989
20
-2.80116598717404
30
0
41
1
10
26.339249058637
20
-2.58580074476541
30
0
41
1
10
26.0378723989257
20
-2.47267487493863
30
0
41
1
10
24.5380516457714
20
-1.88872265132531
30
0
41
1
10
23.3533006916684
20
-1.35983423680295
30
0
41
1
10
21.5712111777001
20
-0.530725400217761
30
0
41
1
10
20.9764650708849
20
-0.24821646414415
30
0
41
1
10
20.079618870885
20
0.177075219321722
30
0
41
1
10
19.7799091655012
20
0.319145366496144
30
0
41
1
10
19.1783902101832
20
0.602638469161775
30
0
41
1
10
18.8779265886993
20
0.74335255280505
30
0
41
1
10
17.8690633833462
20
1.21035264915611
30
0
41
1
10
17.1641093821957
20
1.52764974033164
30
0
41
1
10
16.4599741320676
20
1.82645018819738
30
0
0
SPLINE
5
BA
100
AcDbEntity
8
1
62
256
6
ByLayer
370
18
48
1
60
0
100
AcDbSpline
70
4
71
3
72
12
73
8
40
0
40
0
40
0
40
0
40
0.250000000000014
40
0.250000000000014
40
0.500000000000029
40
0.500000000000029
40
1
40
1
40
1
40
1
41
1
10
4.13843785332449
20
-4.13751130807967
30
0
41
1
10
4.12161262744172
20
-4.13512580258836
30
0
41
1
10
4.10604101641607
20
-4.13223283666281
30
0
41
1
10
4.07731075156818
20
-4.1254011087747
30
0
41
1
10
4.06406112079947
20
-4.12140909563053
30
0
41
1
10
4.02986840122054
20
-4.1082553690099
30
0
41
1
10
4.01364514094951
20
-4.09757886469046
30
0
41
1
10
4.00574199861393
20
-4.08594017604719
30
0
0
SPLINE
5
BB
100
AcDbEntity
8
1
62
256
6
ByLayer
370
13
48
1
60
0
100
AcDbSpline
70
4
71
3
72
8
73
4
40
0
40
0
40
0
40
0
40
1
40
1
40
1
40
1
41
1
10
4.14062225632824
20
-4.03890582465854
30
0
41
1
10
4.16149940518719
20
-4.03206715824359
30
0
41
1
10
4.18379574785757
20
-4.03024167268441
30
0
41
1
10
4.20658115372342
20
-4.03330726554444
30
0
0
SPLINE
5
BC
100
AcDbEntity
8
1
62
256
6
ByLayer
370
18
48
1
60
0
100
AcDbSpline
70
4
71
3
72
8
73
4
40
0
40
0
40
0
40
0
40
1
40
1
40
1
40
1
41
1
10
62.9471660862318
20
-0.984381251667543
30
0
41
1
10
62.9665319636234
20
-0.695240554784078
30
0
41
1
10
62.9806521919118
20
-0.406366821978565
30
0
41
1
10
62.9895186753833
20
-0.11776046526191
30
0
0
SPLINE
5
BD
100
AcDbEntity
8
1
62
256
6
ByLayer
370
18
48
1
60
0
100
AcDbSpline
70
4
71
3
72
10
73
6
40
0
40
0
40
0
40
0
40
0.5
40
0.5
40
1
40
1
40
1
40
1
41
1
10
61.6897178191775
20
-4.23180799910295
30
0
41
1
10
61.649326593395
20
-4.26189357098855
30
0
41
1
10
61.6106556972991
20
-4.28657661111538
30
0
41
1
10
61.5367589185734
20
-4.32441068884611
30
0
41
1
10
61.501943322922
20
-4.33731622302588
30
0
41
1
10
61.4694705289162
20
-4.34411231680829
30
0
0
SPLINE
5
BE
100
AcDbEntity
8
1
62
256
6
ByLayer
370
13
48
1
60
0
100
AcDbSpline
70
4
71
3
72
14
73
10
40
0
40
0
40
0
40
0
40
0.218293636065482
40
0.218293636065482
40
0.436587272130963
40
0.436587272130963
40
0.873174544261923
40
0.873174544261923
40
1
40
1
40
1
40
1
41
1
10
4.20658115372342
20
-4.03330726554444
30
0
41
1
10
4.50783587967379
20
-4.07383866280634
30
0
41
1
10
4.80887900498203
20
-4.10687999108117
30
0
41
1
10
5.41108611950935
20
-4.15794062262373
30
0
41
1
10
5.71267060849812
20
-4.17596961176409
30
0
41
1
10
6.61539881447663
20
-4.20723222014112
30
0
41
1
10
7.21296295623557
20
-4.19775124618042
30
0
41
1
10
7.98175994463591
20
-4.14737573002884
30
0
41
1
10
8.1546640625408
20
-4.13354583153301
30
0
41
1
10
8.32747195073881
20
-4.11726223208356
30
0
0
SPLINE
5
BF
100
AcDbEntity
8
1
62
256
6
ByLayer
370
18
48
1
60
0
100
AcDbSpline
70
4
71
3
72
18
73
14
40
0
40
0
40
0
40
0
40
0.0837992509252934
40
0.0837992509252934
40
0.195830422835759
40
0.195830422835759
40
0.41989276665669
40
0.41989276665669
40
0.868017454298549
40
0.868017454298549
40
0.980048626209014
40
0.980048626209014
40
1
40
1
40
1
40
1
41
1
10
47.4274286534127
20
-0.0015921016195932
30
0
41
1
10
47.6508246864032
20
-0.110551185009598
30
0
41
1
10
47.8746412934518
20
-0.219714394005109
30
0
41
1
10
48.398957662367
20
-0.474688356341375
30
0
41
1
10
48.7004759238774
20
-0.620761243813519
30
0
41
1
10
49.6003773241793
20
-1.05278106086249
30
0
41
1
10
50.1963937546324
20
-1.33329241611102
30
0
41
1
10
51.9800616884389
20
-2.13852929107546
30
0
41
1
10
53.1626690749809
20
-2.62805723853651
30
0
41
1
10
54.6571707220134
20
-3.13655416122705
30
0
41
1
10
54.9568712984143
20
-3.23312920513658
30
0
41
1
10
55.3112707201485
20
-3.34022653252762
30
0
41
1
10
55.3648257051078
20
-3.35621954098968
30
0
41
1
10
55.418359357409
20
-3.3720131260655
30
0
0
SPLINE
5
C0
100
AcDbEntity
8
1
62
256
6
ByLayer
370
13
48
1
60
0
100
AcDbSpline
70
4
71
3
72
12
73
8
40
0
40
0
40
0
40
0
40
0.120481354723177
40
0.120481354723177
40
0.413654236482117
40
0.413654236482117
40
1
40
1
40
1
40
1
41
1
10
55.4183583975288
20
-3.37201284288
30
0
41
1
10
55.6654278151668
20
-3.44490367452971
30
0
41
1
10
55.9120428427141
20
-3.51354674315482
30
0
41
1
10
56.7562170057895
20
-3.73366748584425
30
0
41
1
10
57.3511362342487
20
-3.86323570779965
30
0
41
1
10
59.1331434649607
20
-4.16736240387377
30
0
41
1
10
60.3178525838035
20
-4.2575318338456
30
0
41
1
10
61.5174084539635
20
-4.2246293000083
30
0
0
SPLINE
5
C1
100
AcDbEntity
8
1
62
256
6
ByLayer
370
18
48
1
60
0
100
AcDbSpline
70
4
71
3
72
64
73
60
40
0
40
0
40
0
40
0
40
0.0625000000000041
40
0.0625000000000041
40
0.0937500000000061
40
0.0937500000000061
40
0.125000000000008
40
0.125000000000008
40
0.15625000000001
40
0.15625000000001
40
0.187500000000012
40
0.187500000000012
40
0.203125000000013
40
0.203125000000013
40
0.218750000000014
40
0.218750000000014
40
0.234375000000015
40
0.234375000000015
40
0.250000000000017
40
0.250000000000017
40
0.265625000000018
40
0.265625000000018
40
0.281250000000019
40
0.281250000000019
40
0.312500000000021
40
0.312500000000021
40
0.328125000000022
40
0.328125000000022
40
0.343750000000023
40
0.343750000000023
40
0.375000000000025
40
0.375000000000025
40
0.382812500000025
40
0.382812500000025
40
0.390625000000024
40
0.390625000000024
40
0.394531250000024
40
0.394531250000024
40
0.398437500000023
40
0.398437500000023
40
0.402343750000022
40
0.402343750000022
40
0.406250000000021
40
0.406250000000021
40
0.43750000000002
40
0.43750000000002
40
0.500000000000018
40
0.500000000000018
40
0.562500000000016
40
0.562500000000016
40
0.625000000000013
40
0.625000000000013
40
0.750000000000009
40
0.750000000000009
40
0.875000000000005
40
0.875000000000005
40
0.937500000000002
40
0.937500000000002
40
1
40
1
40
1
40
1
41
1
10
4.00233745370792
20
1.24848170348156
30
0
41
1
10
3.75627274638055
20
1.40982328766401
30
0
41
1
10
3.51548761634001
20
1.57450479941897
30
0
41
1
10
3.16716873806945
20
1.83092568666081
30
0
41
1
10
3.05292120462434
20
1.9182532364768
30
0
41
1
10
2.83214241014576
20
2.096174519605
30
0
41
1
10
2.72571749406851
20
2.18662352013098
30
0
41
1
10
2.52398541525309
20
2.37210257731033
30
0
41
1
10
2.42840367656243
20
2.46729629396234
30
0
41
1
10
2.25513486762065
20
2.66440447614565
30
0
41
1
10
2.1789955153684
20
2.76445519016485
30
0
41
1
10
2.08950862409546
20
2.91874666212399
30
0
41
1
10
2.06407755427438
20
2.97072353584233
30
0
41
1
10
2.02519458835985
20
3.07337565838503
30
0
41
1
10
2.01151288311695
20
3.12438701991499
30
0
41
1
10
1.99800600277837
20
3.22583287538004
30
0
41
1
10
1.99845842032374
20
3.27533802588337
30
0
41
1
10
2.01399330072306
20
3.36944443638208
30
0
41
1
10
2.02901092344266
20
3.41446127023235
30
0
41
1
10
2.07353839021914
20
3.50062663654532
30
0
41
1
10
2.10247493658764
20
3.54062691721543
30
0
41
1
10
2.17104152963898
20
3.61486227641086
30
0
41
1
10
2.21109917930261
20
3.64945259463531
30
0
41
1
10
2.34257075391525
20
3.74460753094786
30
0
41
1
10
2.44441198450636
20
3.7968044455464
30
0
41
1
10
2.61089598271599
20
3.86495437827796
30
0
41
1
10
2.66890205805541
20
3.88596816356951
30
0
41
1
10
2.78764498144866
20
3.92476240992897
30
0
41
1
10
2.84847702607686
20
3.94259184328939
30
0
41
1
10
3.03461284710087
20
3.99231624970696
30
0
41
1
10
3.16375384072865
20
4.02053331427985
30
0
41
1
10
3.3287609791773
20
4.05139800223131
30
0
41
1
10
3.36194626752794
20
4.05734791437968
30
0
41
1
10
3.42866044281715
20
4.06884013531234
30
0
41
1
10
3.46233197917411
20
4.07429521109813
30
0
41
1
10
3.51257983708834
20
4.08250406898384
30
0
41
1
10
3.52977378421142
20
4.08481460914015
30
0
41
1
10
3.56556867943772
20
4.08764300181366
30
0
41
1
10
3.58414386187937
20
4.08842773294347
30
0
41
1
10
3.62127708114451
20
4.08903729332852
30
0
41
1
10
3.63980204488101
20
4.08881197777421
30
0
41
1
10
3.67685969112114
20
4.08845942739455
30
0
41
1
10
3.69539045480232
20
4.08830776253319
30
0
41
1
10
3.86215674816106
20
4.08680712087127
30
0
41
1
10
4.01036977316974
20
4.08491164845216
30
0
41
1
10
4.45454460992889
20
4.07750578205216
30
0
41
1
10
4.7501384836911
20
4.07028605422255
30
0
41
1
10
5.34030794232569
20
4.05079578099458
30
0
41
1
10
5.63469862022967
20
4.03852821081398
30
0
41
1
10
6.21975776111088
20
4.00829742215564
30
0
41
1
10
6.51075929081918
20
3.99031946545307
30
0
41
1
10
7.37938831946244
20
3.9264714449732
30
0
41
1
10
7.95261689943266
20
3.87070258415434
30
0
41
1
10
9.08875596862501
20
3.72425755803761
30
0
41
1
10
9.65168941182546
20
3.63353473514752
30
0
41
1
10
10.4902160143321
20
3.46582633244412
30
0
41
1
10
10.7688493512825
20
3.40463799551068
30
0
41
1
10
11.3227431097653
20
3.27169767641038
30
0
41
1
10
11.5982434063221
20
3.19991192590524
30
0
41
1
10
11.8725891458104
20
3.12271525578015
30
0
0
SPLINE
5
C2
100
AcDbEntity
8
1
62
256
6
ByLayer
370
18
48
1
60
0
100
AcDbSpline
70
4
71
3
72
52
73
48
40
0
40
0
40
0
40
0
40
0.0756200855548098
40
0.0756200855548098
40
0.113430128332215
40
0.113430128332215
40
0.15124017110962
40
0.15124017110962
40
0.226860256664431
40
0.226860256664431
40
0.264670299441837
40
0.264670299441837
40
0.302480342219242
40
0.302480342219242
40
0.340290384996648
40
0.340290384996648
40
0.378100427774054
40
0.378100427774054
40
0.453720513328865
40
0.453720513328865
40
0.491530556106271
40
0.491530556106271
40
0.529340598883676
40
0.529340598883676
40
0.567150641661082
40
0.567150641661082
40
0.604960684438488
40
0.604960684438488
40
0.642770727215893
40
0.642770727215893
40
0.680580769993299
40
0.680580769993299
40
0.718390812770705
40
0.718390812770705
40
0.756200855548111
40
0.756200855548111
40
0.831820941102922
40
0.831820941102922
40
0.869630983880328
40
0.869630983880328
40
0.907441026657733
40
0.907441026657733
40
0.945251069435139
40
0.945251069435139
40
0.983061112212545
40
0.983061112212545
40
1
40
1
40
1
40
1
41
1
10
11.8725891458104
20
3.12271525578015
30
0
41
1
10
12.3955485728171
20
2.9405860735877
30
0
41
1
10
12.9174913976244
20
2.74623083405118
30
0
41
1
10
13.6957682786684
20
2.43225634860931
30
0
41
1
10
13.9541799088697
20
2.32336910758454
30
0
41
1
10
14.4715604702889
20
2.10164561005118
30
0
41
1
10
14.7303307455158
20
1.98849721587851
30
0
41
1
10
15.5061662295778
20
1.64099040917645
30
0
41
1
10
16.0218390952826
20
1.39668175802853
30
0
41
1
10
16.7996357698742
20
1.02389313287887
30
0
41
1
10
17.0593510977424
20
0.898093306738247
30
0
41
1
10
17.579291905851
20
0.64251313333304
30
0
41
1
10
17.8393453195955
20
0.512333958308602
30
0
41
1
10
18.3621040177262
20
0.252415892973147
30
0
41
1
10
18.6247190886101
20
0.122072278928357
30
0
41
1
10
19.1470681389052
20
-0.137942321322299
30
0
41
1
10
19.407203288731
20
-0.26823538300772
30
0
41
1
10
20.1855588254904
20
-0.657653340049023
30
0
41
1
10
20.7041154998058
20
-0.910452402162235
30
0
41
1
10
21.4791399218212
20
-1.28435747687834
30
0
41
1
10
21.736967316889
20
-1.40815177930193
30
0
41
1
10
22.2538974961143
20
-1.64959848286259
30
0
41
1
10
22.5127017936573
20
-1.76785042705842
30
0
41
1
10
23.0305500567576
20
-2.0002401176387
30
0
41
1
10
23.2893733479218
20
-2.11477320091552
30
0
41
1
10
23.8079701757181
20
-2.33829791564725
30
0
41
1
10
24.0681833680584
20
-2.44651263112465
30
0
41
1
10
24.5900906644921
20
-2.65649661783078
30
0
41
1
10
24.8523196134545
20
-2.75845925480365
30
0
41
1
10
25.375103382309
20
-2.95559844325899
30
0
41
1
10
25.6354119187611
20
-3.05028085113827
30
0
41
1
10
26.1557874604557
20
-3.22920655507508
30
0
41
1
10
26.4155670641458
20
-3.31393720133448
30
0
41
1
10
26.9339178627933
20
-3.47460760527574
30
0
41
1
10
27.1921918941285
20
-3.55087203746456
30
0
41
1
10
27.9668760877417
20
-3.76422356484832
30
0
41
1
10
28.4841806149292
20
-3.88521545345452
30
0
41
1
10
29.2586735483619
20
-4.03742429997629
30
0
41
1
10
29.5169326401239
20
-4.08288751203287
30
0
41
1
10
30.0351506544614
20
-4.16227991664601
30
0
41
1
10
30.2948422476873
20
-4.19643204564179
30
0
41
1
10
30.8150200463302
20
-4.25371635348054
30
0
41
1
10
31.0751889334437
20
-4.27692618590999
30
0
41
1
10
31.5977347471086
20
-4.31139320108576
30
0
41
1
10
31.8600247882756
20
-4.32265294348576
30
0
41
1
10
32.2378841980979
20
-4.33044269159208
30
0
41
1
10
32.3546405412893
20
-4.33168124691864
30
0
41
1
10
32.4712255369894
20
-4.33174308899723
30
0
0
SPLINE
5
C3
100
AcDbEntity
8
1
62
256
6
ByLayer
370
18
48
1
60
0
100
AcDbSpline
70
4
71
3
72
26
73
22
40
0
40
0
40
0
40
0
40
0.115438404794225
40
0.115438404794225
40
0.203894564314802
40
0.203894564314802
40
0.292350723835379
40
0.292350723835379
40
0.380806883355957
40
0.380806883355957
40
0.469263042876534
40
0.469263042876534
40
0.557719202397111
40
0.557719202397111
40
0.646175361917688
40
0.646175361917688
40
0.734631521438265
40
0.734631521438265
40
0.823087680958842
40
0.823087680958842
40
1
40
1
40
1
40
1
41
1
10
52.8927568352197
20
3.08159769673813
30
0
41
1
10
53.2311635310982
20
3.20109674362482
30
0
41
1
10
53.568990727768
20
3.31291168752179
30
0
41
1
10
54.1638051662552
20
3.4982510818073
30
0
41
1
10
54.4214306677902
20
3.57424105141055
30
0
41
1
10
54.9376744559398
20
3.71535642403364
30
0
41
1
10
55.196002794172
20
3.78086110414358
30
0
41
1
10
55.7126675218027
20
3.90216893188767
30
0
41
1
10
55.970709356769
20
3.95819973971436
30
0
41
1
10
56.4879400563867
20
4.05927354437893
30
0
41
1
10
56.747364372881
20
4.10418354920475
30
0
41
1
10
57.2674205628407
20
4.18311971109162
30
0
41
1
10
57.5280731202026
20
4.21713831476026
30
0
41
1
10
58.0501133418865
20
4.27416108361197
30
0
41
1
10
58.3116612023454
20
4.29686532774588
30
0
41
1
10
58.8335137179358
20
4.33009277656654
30
0
41
1
10
59.0940728196871
20
4.3408025580423
30
0
41
1
10
59.6140806064776
20
4.35057141186689
30
0
41
1
10
59.8731866002478
20
4.34957623037482
30
0
41
1
10
60.6511131180689
20
4.32891397717052
30
0
41
1
10
61.1707703706996
20
4.29221552447606
30
0
41
1
10
61.6897178191797
20
4.23180799910133
30
0
0
SPLINE
5
C4
100
AcDbEntity
8
1
62
256
6
ByLayer
370
18
48
1
60
0
100
AcDbSpline
70
4
71
3
72
30
73
26
40
0
40
0
40
0
40
0
40
0.0625000000000027
40
0.0625000000000027
40
0.125000000000005
40
0.125000000000005
40
0.187500000000008
40
0.187500000000008
40
0.250000000000011
40
0.250000000000011
40
0.375000000000017
40
0.375000000000017
40
0.437500000000018
40
0.437500000000018
40
0.500000000000019
40
0.500000000000019
40
0.625000000000016
40
0.625000000000016
40
0.750000000000014
40
0.750000000000014
40
0.812500000000011
40
0.812500000000011
40
0.875000000000007
40
0.875000000000007
40
1
40
1
40
1
40
1
41
1
10
57.3944583912418
20
1.32753671383301
30
0
41
1
10
57.3947872501788
20
1.1980001704479
30
0
41
1
10
57.4043427090951
20
1.06708426643309
30
0
41
1
10
57.4415017856492
20
0.802554290103643
30
0
41
1
10
57.4695058860464
20
0.667776018726499
30
0
41
1
10
57.5410255338289
20
0.404069599170583
30
0
41
1
10
57.5844614701048
20
0.274531795966027
30
0
41
1
10
57.6848670452641
20
0.0195384674612171
30
0
41
1
10
57.7421104133196
20
-0.106423822818812
30
0
41
1
10
57.9305628747454
20
-0.475295179937689
30
0
41
1
10
58.0753565958313
20
-0.704628535559635
30
0
41
1
10
58.3140473581546
20
-1.03002129929001
30
0
41
1
10
58.3972805273707
20
-1.13530972484682
30
0
41
1
10
58.5704177330149
20
-1.34011329306932
30
0
41
1
10
58.6597400261492
20
-1.43894096472411
30
0
41
1
10
58.9325632267541
20
-1.72382298911833
30
0
41
1
10
59.1218171162738
20
-1.89959017465046
30
0
41
1
10
59.5120487344098
20
-2.22861414969444
30
0
41
1
10
59.7130636404149
20
-2.38179955663813
30
0
41
1
10
60.0222179295607
20
-2.59692395435909
30
0
41
1
10
60.126551899544
20
-2.66616235658125
30
0
41
1
10
60.3360290146761
20
-2.79901052913493
30
0
41
1
10
60.4413770499304
20
-2.8627660860619
30
0
41
1
10
60.7591257786706
20
-3.04656925730424
30
0
41
1
10
60.9732176382252
20
-3.15921229163746
30
0
41
1
10
61.1893909728059
20
-3.26274182221974
30
0
0
SPLINE
5
C5
100
AcDbEntity
8
1
62
256
6
ByLayer
370
18
48
1
60
0
100
AcDbSpline
70
4
71
3
72
14
73
10
40
0
40
0
40
0
40
0
40
0.560067248366091
40
0.560067248366091
40
0.840100872549136
40
0.840100872549136
40
0.980117684640659
40
0.980117684640659
40
1
40
1
40
1
40
1
41
1
10
61.5268817195267
20
-4.13034048749398
30
0
41
1
10
60.3281324956544
20
-4.14795195850556
30
0
41
1
10
59.1436928754782
20
-4.04567297078142
30
0
41
1
10
57.3620920386305
20
-3.72888638778326
30
0
41
1
10
56.7673295727052
20
-3.59601820057642
30
0
41
1
10
55.8702952886327
20
-3.35860563521518
30
0
41
1
10
55.5701186264707
20
-3.27298703752257
30
0
41
1
10
55.2269792058929
20
-3.16854292896494
30
0
41
1
10
55.1843337600297
20
-3.15544709334335
30
0
41
1
10
55.1417089312719
20
-3.14224380563437
30
0
0
SPLINE
5
C6
100
AcDbEntity
8
1
62
256
6
ByLayer
370
13
48
1
60
0
100
AcDbSpline
70
4
71
3
72
20
73
16
40
0
40
0
40
0
40
0
40
0.0651282635098022
40
0.0651282635098022
40
0.36875661792535
40
0.36875661792535
40
0.520570795133126
40
0.520570795133126
40
0.596477883737014
40
0.596477883737014
40
0.672384972340902
40
0.672384972340902
40
0.976013326756447
40
0.976013326756447
40
1
40
1
40
1
40
1
41
1
10
55.1417082488492
20
-3.14224359425
30
0
41
1
10
54.8841573696171
20
-3.06246570961704
30
0
41
1
10
54.6273592015792
20
-2.97876484937464
30
0
41
1
10
53.1765352380266
20
-2.48451671736714
30
0
41
1
10
51.994247048372
20
-1.99886591467006
30
0
41
1
10
50.2113051064149
20
-1.20501694779034
30
0
41
1
10
49.6155164193303
20
-0.92930394163929
30
0
41
1
10
48.7161470010059
20
-0.505910164558742
30
0
41
1
10
48.4149468899474
20
-0.362990779568293
30
0
41
1
10
47.8156435035545
20
-0.0779231333228552
30
0
41
1
10
47.5169196367049
20
0.06453881984757
30
0
41
1
10
46.0265205694971
20
0.773560777274156
30
0
41
1
10
44.8442425732611
20
1.32935891142426
30
0
41
1
10
43.5599314067458
20
1.87639085501405
30
0
41
1
10
43.4658473571316
20
1.91613501198481
30
0
41
1
10
43.3717027001206
20
1.95555404330756
30
0
0
SPLINE
5
C7
100
AcDbEntity
8
1
62
256
6
ByLayer
370
18
48
1
60
0
100
AcDbSpline
70
4
71
3
72
12
73
8
40
0
40
0
40
0
40
0
40
0.390983082721223
40
0.390983082721223
40
0.695491541360612
40
0.695491541360612
40
1
40
1
40
1
40
1
41
1
10
7.2091666092073
20
-4.09511055739409
30
0
41
1
10
6.8259023647847
20
-4.10230208109445
30
0
41
1
10
6.44157200228838
20
-4.09748534496276
30
0
41
1
10
5.754925876794
20
-4.06727365192197
30
0
41
1
10
5.45365049522729
20
-4.04662981675312
30
0
41
1
10
4.85203157977557
20
-3.99076129564571
30
0
41
1
10
4.55128263227084
20
-3.95552379518827
30
0
41
1
10
4.25033109770561
20
-3.91301797008433
30
0
0
SPLINE
5
C8
100
AcDbEntity
8
1
62
256
6
ByLayer
370
18
48
1
60
0
100
AcDbSpline
70
4
71
3
72
41
73
37
40
0
40
0
40
0
40
0
40
0.25000000000001
40
0.25000000000001
40
0.312500000000016
40
0.312500000000016
40
0.375000000000021
40
0.375000000000021
40
0.500000000000032
40
0.500000000000032
40
0.562500000000037
40
0.562500000000037
40
0.625000000000043
40
0.625000000000043
40
0.750000000000048
40
0.750000000000048
40
0.812500000000048
40
0.812500000000048
40
0.843750000000051
40
0.843750000000051
40
0.85156250000005
40
0.85156250000005
40
0.859375000000049
40
0.859375000000049
40
0.867187500000049
40
0.867187500000049
40
0.871093750000047
40
0.871093750000047
40
0.875000000000045
40
0.875000000000045
40
0.89062500000004
40
0.89062500000004
40
0.906250000000034
40
0.937500000000023
40
0.937500000000023
40
1
40
1
40
1
40
1
41
1
10
57.3944583912418
20
1.32753671383301
30
0
41
1
10
57.7511634930796
20
1.0422667154277
30
0
41
1
10
58.1230981848892
20
0.795531659889122
30
0
41
1
10
58.6095657216084
20
0.541638018867701
30
0
41
1
10
58.7076437270015
20
0.493767915691762
30
0
41
1
10
58.9037318323217
20
0.404702690055927
30
0
41
1
10
59.0019822405251
20
0.363379698779056
30
0
41
1
10
59.2973674725702
20
0.249271976503053
30
0
41
1
10
59.495127456089
20
0.186210880426103
30
0
41
1
10
59.7931912472749
20
0.113765044155485
30
0
41
1
10
59.8927879266027
20
0.0933817414113776
30
0
41
1
10
60.0925114872551
20
0.0608618140751673
30
0
41
1
10
60.1928387339506
20
0.0486972398959722
30
0
41
1
10
60.49077937026
20
0.0259343565978725
30
0
41
1
10
60.6865084580888
20
0.0286258450078662
30
0
41
1
10
60.9749327340069
20
0.0645331465825905
30
0
41
1
10
61.0697214173753
20
0.0818155352273493
30
0
41
1
10
61.2092251625842
20
0.116393389168536
30
0
41
1
10
61.2552593069636
20
0.129358054201475
30
0
41
1
10
61.3121228685984
20
0.147425639237213
30
0
41
1
10
61.3234618187805
20
0.151132344172311
30
0
41
1
10
61.346069662027
20
0.158733856109876
30
0
41
1
10
61.3576987701758
20
0.161839087977967
30
0
41
1
10
61.3790504527307
20
0.172359601866674
30
0
41
1
10
61.3885379799324
20
0.180395962972398
30
0
41
1
10
61.397564688383
20
0.197621367169546
30
0
41
1
10
61.3995429990334
20
0.204267694920219
30
0
41
1
10
61.401488728817
20
0.218325608929206
30
0
41
1
10
61.4019853177572
20
0.225584293242861
30
0
41
1
10
61.4048503320145
20
0.261626163469856
30
0
41
1
10
61.4073811945713
20
0.290377847781542
30
0
41
1
10
61.4112477024098
20
0.348290955290679
30
0
41
1
10
61.4160715134867
20
0.435415938338906
30
0
41
1
10
61.41811485721
20
0.523268328930328
30
0
41
1
10
61.4188296124047
20
0.69985525280461
30
0
41
1
10
61.4148014612764
20
0.81887851644737
30
0
41
1
10
61.4071252843399
20
0.937640606736835
30
0
0
SPLINE
5
C9
100
AcDbEntity
8
1
62
256
6
ByLayer
370
18
48
1
60
0
100
AcDbSpline
70
4
71
3
72
48
73
44
40
0
40
0
40
0
40
0
40
0.0323886687815952
40
0.0323886687815952
40
0.0647773375631904
40
0.0647773375631904
40
0.129554675126381
40
0.129554675126381
40
0.161943343907976
40
0.161943343907976
40
0.194332012689571
40
0.194332012689571
40
0.259109350252762
40
0.259109350252762
40
0.323886687815952
40
0.323886687815952
40
0.388664025379143
40
0.388664025379143
40
0.421052694160738
40
0.421052694160738
40
0.453441362942333
40
0.453441362942333
40
0.518218700505523
40
0.518218700505523
40
0.550607369287119
40
0.550607369287119
40
0.582996038068714
40
0.582996038068714
40
0.647773375631904
40
0.647773375631904
40
0.712550713195095
40
0.712550713195095
40
0.74493938197669
40
0.74493938197669
40
0.777328050758285
40
0.777328050758285
40
0.842105388321474
40
0.842105388321474
40
0.906882725884664
40
0.906882725884664
40
0.971660063447853
40
0.971660063447853
40
1
40
1
40
1
40
1
41
1
10
61.4694705289162
20
-4.34411231680829
30
0
41
1
10
61.170077387115
20
-4.35166781476804
30
0
41
1
10
60.8708003982436
20
-4.35139873710952
30
0
41
1
10
60.2719102588471
20
-4.33527885062637
30
0
41
1
10
59.9720189056468
20
-4.31940268466704
30
0
41
1
10
59.0730735281549
20
-4.24862915918166
30
0
41
1
10
58.4757539729899
20
-4.17077291791819
30
0
41
1
10
57.5791098535304
20
-4.0101583141936
30
0
41
1
10
57.2800991028789
20
-3.94932551769321
30
0
41
1
10
56.6811230380526
20
-3.81355800805844
30
0
41
1
10
56.381051410621
20
-3.73857687165062
30
0
41
1
10
55.483083898807
20
-3.4945521233812
30
0
41
1
10
54.8859626141773
20
-3.30605358833327
30
0
41
1
10
53.6895705888504
20
-2.88403915819816
30
0
41
1
10
53.0892820985103
20
-2.64989140318838
30
0
41
1
10
51.8930198785611
20
-2.14894976761272
30
0
41
1
10
51.2957423453407
20
-1.88193648115646
30
0
41
1
10
50.3973851300434
20
-1.46321921545942
30
0
41
1
10
50.0972034405115
20
-1.32040973741755
30
0
41
1
10
49.4981953808657
20
-1.03108689253057
30
0
41
1
10
49.1991644465328
20
-0.884455848577005
30
0
41
1
10
48.3023123842395
20
-0.440984229133107
30
0
41
1
10
47.7047704151064
20
-0.14049157983402
30
0
41
1
10
46.8053012509458
20
0.310148408205094
30
0
41
1
10
46.5057880750927
20
0.459860070398406
30
0
41
1
10
45.909268764611
20
0.755866900207877
30
0
41
1
10
45.6118915398974
20
0.902374557756559
30
0
41
1
10
44.7213939327443
20
1.33545851321787
30
0
41
1
10
44.1298990141653
20
1.61557770525366
30
0
41
1
10
42.9464337945788
20
2.14959076198079
30
0
41
1
10
42.3543934668583
20
2.40336019344949
30
0
41
1
10
41.4623640035626
20
2.75772384074159
30
0
41
1
10
41.1643502466718
20
2.87144655348851
30
0
41
1
10
40.5662670850323
20
3.08883447084725
30
0
41
1
10
40.2658444412144
20
3.19261857668624
30
0
41
1
10
39.3673294728211
20
3.48534308996997
30
0
41
1
10
38.7699258290725
20
3.65625142384511
30
0
41
1
10
37.5732704613614
20
3.94400445263136
30
0
41
1
10
36.9726417619172
20
4.06091600146013
30
0
41
1
10
35.7755170795406
20
4.23417199257688
30
0
41
1
10
35.1780476443342
20
4.29084455427838
30
0
41
1
10
34.3171158965526
20
4.32784065560793
30
0
41
1
10
34.0545352415218
20
4.33317501121144
30
0
41
1
10
33.7921751223492
20
4.33253378109217
30
0
0
SPLINE
5
CA
100
AcDbEntity
8
1
62
256
6
ByLayer
370
18
48
1
60
0
100
AcDbSpline
70
4
71
3
72
10
73
6
40
0
40
0
40
0
40
0
40
0.309019908257505
40
0.309019908257505
40
1
40
1
40
1
40
1
41
1
10
9.2867531490142
20
-4.11454710145503
30
0
41
1
10
8.75662292221145
20
-4.1942701932856
30
0
41
1
10
8.22829110572042
20
-4.25062170357424
30
0
41
1
10
6.51897876954172
20
-4.35522934691582
30
0
41
1
10
5.33812804558301
20
-4.30760516366536
30
0
41
1
10
4.13843785332466
20
-4.1375113080797
30
0
0
SPLINE
5
CB
100
AcDbEntity
8
1
62
256
6
ByLayer
370
18
48
1
60
0
100
AcDbSpline
70
4
71
3
72
8
73
4
40
0
40
0
40
0
40
0
40
1
40
1
40
1
40
1
41
1
10
62.9642460518482
20
-0.0480541366902401
30
0
41
1
10
62.3321329697279
20
-1.08284707395038
30
0
41
1
10
61.7400450398707
20
-2.15398326124239
30
0
41
1
10
61.1893909728059
20
-3.26274182221977
30
0
0
SPLINE
5
CC
100
AcDbEntity
8
1
62
256
6
ByLayer
370
18
48
1
60
0
100
AcDbSpline
70
4
71
3
72
31
73
27
40
0
40
0
40
0
40
0
40
0.0625000000000002
40
0.0625000000000002
40
0.125
40
0.125
40
0.25
40
0.25
40
0.312500000000001
40
0.312500000000001
40
0.375000000000001
40
0.437500000000001
40
0.437500000000001
40
0.500000000000001
40
0.500000000000001
40
0.625000000000001
40
0.625000000000001
40
0.687500000000001
40
0.687500000000001
40
0.75
40
0.75
40
0.875
40
0.875
40
0.9375
40
0.9375
40
1
40
1
40
1
40
1
41
1
10
4.00217041492391
20
-4.07524428163433
30
0
41
1
10
4.00217630168586
20
-4.02979773205848
30
0
41
1
10
4.0021820270108
20
-3.97787237300645
30
0
41
1
10
4.00219306598115
20
-3.86250616245857
30
0
41
1
10
4.00219837363608
20
-3.79919930041859
30
0
41
1
10
4.00221376881638
20
-3.5928607723597
30
0
41
1
10
4.0022233313245
20
-3.43356022504622
30
0
41
1
10
4.0022369815116
20
-3.16107409273872
30
0
41
1
10
4.0022414009901
20
-3.06481047274752
30
0
41
1
10
4.0022498819597
20
-2.86513140766499
30
0
41
1
10
4.00225805283466
20
-2.65737292175828
30
0
41
1
10
4.00226572277626
20
-2.43368371520211
30
0
41
1
10
4.00227318787805
20
-2.20192450685025
30
0
41
1
10
4.00227683468844
20
-2.0814155790373
30
0
41
1
10
4.00228739296583
20
-1.71168812701708
30
0
41
1
10
4.00229387315227
20
-1.45674101894397
30
0
41
1
10
4.00230291479116
20
-1.06200570331737
30
0
41
1
10
4.00230581313807
20
-0.928360680948657
30
0
41
1
10
4.00231137631215
20
-0.656828425708284
30
0
41
1
10
4.00231403756692
20
-0.519004631144185
30
0
41
1
10
4.00232148415753
20
-0.108044213340833
30
0
41
1
10
4.00232580582514
20
0.16555469125754
30
0
41
1
10
4.00233115600568
20
0.575393460187513
30
0
41
1
10
4.00233275326966
20
0.712443167628066
30
0
41
1
10
4.00233547831965
20
0.983903169064121
30
0
41
1
10
4.00233659763975
20
1.11731610924505
30
0
41
1
10
4.00233745370707
20
1.2484817034794
30
0
0
SPLINE
5
CD
100
AcDbEntity
8
1
62
256
6
ByLayer
370
18
48
1
60
0
100
AcDbSpline
70
4
71
3
72
16
73
12
40
0
40
0
40
0
40
0
40
0.267611164797168
40
0.267611164797168
40
0.401416747195752
40
0.401416747195752
40
0.535222329594337
40
0.535222329594337
40
0.802833494391505
40
0.802833494391505
40
1
40
1
40
1
40
1
41
1
10
61.1893909728058
20
-3.26274182221974
30
0
41
1
10
61.1891587287572
20
-3.41055362790081
30
0
41
1
10
61.1957820942739
20
-3.54026133967602
30
0
41
1
10
61.2162972139211
20
-3.70818618403013
30
0
41
1
10
61.2249122515398
20
-3.75969663740688
30
0
41
1
10
61.2459136325717
20
-3.85356784015596
30
0
41
1
10
61.2582391725497
20
-3.89554904821566
30
0
41
1
10
61.3003062618354
20
-4.00560192020561
30
0
41
1
10
61.3352459212837
20
-4.05859498240991
30
0
41
1
10
61.4087881119728
20
-4.11610672392067
30
0
41
1
10
61.4441561427902
20
-4.1295513696343
30
0
41
1
10
61.4833788545955
20
-4.13197156182028
30
0
0
SPLINE
5
CE
100
AcDbEntity
8
1
62
256
6
ByLayer
370
18
48
1
60
0
100
AcDbSpline
70
4
71
3
72
92
73
88
40
0
40
0
40
0
40
0
40
0.0142111829894452
40
0.0142111829894452
40
0.0355172478198337
40
0.0355172478198337
40
0.0781293774806118
40
0.0781293774806118
40
0.0994354423110014
40
0.0994354423110014
40
0.120741507141391
40
0.120741507141391
40
0.142047571971781
40
0.142047571971781
40
0.16335363680217
40
0.16335363680217
40
0.18465970163256
40
0.18465970163256
40
0.205965766462949
40
0.205965766462949
40
0.248577896123728
40
0.248577896123728
40
0.269883960954118
40
0.269883960954118
40
0.291190025784507
40
0.291190025784507
40
0.312496090614897
40
0.312496090614897
40
0.333802155445286
40
0.333802155445286
40
0.355108220275676
40
0.355108220275676
40
0.376414285106065
40
0.376414285106065
40
0.419026414766845
40
0.419026414766845
40
0.461638544427626
40
0.461638544427626
40
0.482944609258015
40
0.482944609258015
40
0.504250674088405
40
0.504250674088405
40
0.525556738918794
40
0.525556738918794
40
0.546862803749184
40
0.546862803749184
40
0.568168868579573
40
0.568168868579573
40
0.589474933409963
40
0.589474933409963
40
0.610780998240353
40
0.610780998240353
40
0.632087063070742
40
0.632087063070742
40
0.653393127901132
40
0.653393127901132
40
0.674699192731521
40
0.674699192731521
40
0.696005257561911
40
0.696005257561911
40
0.717311322392301
40
0.717311322392301
40
0.73861738722269
40
0.73861738722269
40
0.75992345205308
40
0.75992345205308
40
0.781229516883469
40
0.781229516883469
40
0.802535581713859
40
0.802535581713859
40
0.823841646544249
40
0.823841646544249
40
0.845147711374638
40
0.845147711374638
40
0.887759841035418
40
0.887759841035418
40
0.909065905865808
40
0.909065905865808
40
0.930371970696198
40
0.930371970696198
40
0.951678035526589
40
0.951678035526589
40
0.972984100356978
40
0.972984100356978
40
0.994290165187369
40
0.994290165187369
40
1
40
1
40
1
40
1
41
1
10
52.8829831954024
20
-3.09380366206852
30
0
41
1
10
52.7245527337225
20
-3.14313823067585
30
0
41
1
10
52.5660641406019
20
-3.19098675609507
30
0
41
1
10
52.1699194655622
20
-3.30735136670944
30
0
41
1
10
51.9320620006572
20
-3.37425423088183
30
0
41
1
10
51.2186731008724
20
-3.56291181115276
30
0
41
1
10
50.7438643648562
20
-3.67319231846656
30
0
41
1
10
50.0327259068543
20
-3.81226274638809
30
0
41
1
10
49.7956658611807
20
-3.85386290039665
30
0
41
1
10
49.3208013538728
20
-3.92697625900067
30
0
41
1
10
49.0831322980775
20
-3.95944436800428
30
0
41
1
10
48.6074855719929
20
-4.0166128783647
30
0
41
1
10
48.3694759626248
20
-4.04112232421554
30
0
41
1
10
47.8944305880251
20
-4.08020066858171
30
0
41
1
10
47.6570202772509
20
-4.09469148970044
30
0
41
1
10
47.1823352696029
20
-4.11543668062669
30
0
41
1
10
46.9450675748534
20
-4.12151896065595
30
0
41
1
10
46.4707259326475
20
-4.12389275720039
30
0
41
1
10
46.2336974652898
20
-4.11988817343152
30
0
41
1
10
45.521403516531
20
-4.09323458225413
30
0
41
1
10
45.0446411535691
20
-4.0595751274854
30
0
41
1
10
44.3324729408853
20
-3.97883422267665
30
0
41
1
10
44.0953326702179
20
-3.94682928959583
30
0
41
1
10
43.6208954325174
20
-3.87592676025804
30
0
41
1
10
43.383670631595
20
-3.83651624871351
30
0
41
1
10
42.9091349142797
20
-3.74846225069749
30
0
41
1
10
42.67187863252
20
-3.69964267106019
30
0
41
1
10
42.1969980140292
20
-3.59317417370835
30
0
41
1
10
41.9589883288479
20
-3.53639789477893
30
0
41
1
10
41.4834514557108
20
-3.41545083123523
30
0
41
1
10
41.2462857877858
20
-3.35128258100653
30
0
41
1
10
40.7732506365027
20
-3.21499722514724
30
0
41
1
10
40.5374625978859
20
-3.14265351006935
30
0
41
1
10
39.8307174256813
20
-2.91796161243994
30
0
41
1
10
39.3604894675117
20
-2.7563220276335
30
0
41
1
10
38.4217054552265
20
-2.40687435802346
30
0
41
1
10
37.9527786081388
20
-2.22201138977653
30
0
41
1
10
37.2476170284263
20
-1.93045394910135
30
0
41
1
10
37.0123536585589
20
-1.8306571369551
30
0
41
1
10
36.5416297579805
20
-1.62688491064887
30
0
41
1
10
36.3059272800026
20
-1.52316641208773
30
0
41
1
10
35.83326765022
20
-1.31240426245461
30
0
41
1
10
35.5963277618527
20
-1.20533639844444
30
0
41
1
10
35.1212664623552
20
-0.9877842184938
30
0
41
1
10
34.8832267317373
20
-0.877128480546844
30
0
41
1
10
34.4082241120242
20
-0.654774199698068
30
0
41
1
10
34.1708670912791
20
-0.543102776815346
30
0
41
1
10
33.6962362489021
20
-0.319189710293756
30
0
41
1
10
33.4589647011532
20
-0.20695293901764
30
0
41
1
10
32.9847344860125
20
0.0184908039139202
30
0
41
1
10
32.7478271067896
20
0.131813380169092
30
0
41
1
10
32.2732090810354
20
0.357152732504488
30
0
41
1
10
32.0355277232097
20
0.469239970183764
30
0
41
1
10
31.5595256913213
20
0.692400025970386
30
0
41
1
10
31.3215236850688
20
0.803571479794414
30
0
41
1
10
30.8466755237106
20
1.02432767338371
30
0
41
1
10
30.6094930555652
20
1.13350375980181
30
0
41
1
10
30.1349192539383
20
1.34791216563193
30
0
41
1
10
29.8975835488144
20
1.45337259024589
30
0
41
1
10
29.423000598434
20
1.66174164118434
30
0
41
1
10
29.1858665064276
20
1.76484551766367
30
0
41
1
10
28.7110913691773
20
1.96639883599283
30
0
41
1
10
28.4731092579332
20
2.06430376454682
30
0
41
1
10
27.996931913756
20
2.25592817414437
30
0
41
1
10
27.7591009526405
20
2.34935123957004
30
0
41
1
10
27.2841159254137
20
2.53138906469306
30
0
41
1
10
27.0470343370132
20
2.61986071098554
30
0
41
1
10
26.5724660036164
20
2.78859518872818
30
0
41
1
10
26.335088719082
20
2.86993282034217
30
0
41
1
10
25.8601875493848
20
3.02696476818136
30
0
41
1
10
25.6227104935651
20
3.10274589821029
30
0
41
1
10
25.1474598325007
20
3.24666244302981
30
0
41
1
10
24.9092567685174
20
3.31389532089895
30
0
41
1
10
24.195313377173
20
3.50571068070107
30
0
41
1
10
23.7202965115911
20
3.62084082126145
30
0
41
1
10
23.008323073384
20
3.7635141420933
30
0
41
1
10
22.7708435169775
20
3.80695006150444
30
0
41
1
10
22.2955429050281
20
3.88627162653461
30
0
41
1
10
22.0577194495344
20
3.92203641051788
30
0
41
1
10
21.5816132143999
20
3.98392567936043
30
0
41
1
10
21.343481236434
20
4.00934491681181
30
0
41
1
10
20.867882414585
20
4.05230884207449
30
0
41
1
10
20.6301975351826
20
4.06970334901499
30
0
41
1
10
20.1549818419307
20
4.0953521496744
30
0
41
1
10
19.9174688591849
20
4.1034845340244
30
0
41
1
10
19.6163576621237
20
4.10694067271791
30
0
41
1
10
19.5527213277879
20
4.10735487879487
30
0
41
1
10
19.4890811944424
20
4.10745782103612
30
0
0
SPLINE
5
CF
100
AcDbEntity
8
1
62
256
6
ByLayer
370
18
48
1
60
0
100
AcDbSpline
70
4
71
3
72
8
73
4
40
0
40
0
40
0
40
0
40
1
40
1
40
1
40
1
41
1
10
61.517408453987
20
-4.2246293000195
30
0
41
1
10
61.5014541303279
20
-4.26450027270053
30
0
41
1
10
61.4854738797948
20
-4.30432895467797
30
0
41
1
10
61.4694705289162
20
-4.34411231680829
30
0
0
SPLINE
5
D0
100
AcDbEntity
8
1
62
256
6
ByLayer
370
18
48
1
60
0
100
AcDbSpline
70
4
71
3
72
10
73
6
40
0
40
0
40
0
40
0
40
0.5
40
0.5
40
1
40
1
40
1
40
1
41
1
10
62.9999622223014
20
0.0417742290713079
30
0
41
1
10
62.9962282328037
20
0.0264322081062858
30
0
41
1
10
62.991125499742
20
0.0099841670119929
30
0
41
1
10
62.9788207272905
20
-0.0212423985300916
30
0
41
1
10
62.9715809546405
20
-0.0360466243959081
30
0
41
1
10
62.9642460518482
20
-0.0480541366902116
30
0
0
SPLINE
5
D1
100
AcDbEntity
8
1
62
256
6
ByLayer
370
18
48
1
60
0
100
AcDbSpline
70
4
71
3
72
10
73
6
40
0
40
0
40
0
40
0
40
0.5
40
0.5
40
1
40
1
40
1
40
1
41
1
10
61.5420351217516
20
1.03405222617329
30
0
41
1
10
61.7762637029437
20
1.02531109153367
30
0
41
1
10
62.0104271161566
20
1.01732205002128
30
0
41
1
10
62.4788061897931
20
1.00074099037147
30
0
41
1
10
62.7130072287702
20
0.992317715989856
30
0
41
1
10
62.9471660862317
20
0.984381251667486
30
0
0
SPLINE
5
D2
100
AcDbEntity
8
1
62
256
6
ByLayer
370
18
48
1
60
0
100
AcDbSpline
70
4
71
3
72
90
73
86
40
0
40
0
40
0
40
0
40
0.0053404181093274
40
0.0053404181093274
40
0.0282593259140349
40
0.0282593259140349
40
0.0511782337187424
40
0.0511782337187424
40
0.0970160493281585
40
0.0970160493281585
40
0.119934957132866
40
0.119934957132866
40
0.142853864937574
40
0.142853864937574
40
0.165772772742282
40
0.165772772742282
40
0.188691680546991
40
0.188691680546991
40
0.211610588351698
40
0.211610588351698
40
0.234529496156406
40
0.234529496156406
40
0.257448403961115
40
0.257448403961115
40
0.280367311765823
40
0.280367311765823
40
0.326205127375238
40
0.326205127375238
40
0.349124035179947
40
0.349124035179947
40
0.372042942984656
40
0.372042942984656
40
0.394961850789364
40
0.394961850789364
40
0.417880758594073
40
0.417880758594073
40
0.440799666398781
40
0.440799666398781
40
0.46371857420349
40
0.46371857420349
40
0.486637482008199
40
0.486637482008199
40
0.509556389812907
40
0.509556389812907
40
0.532475297617616
40
0.532475297617616
40
0.555394205422324
40
0.555394205422324
40
0.578313113227033
40
0.578313113227033
40
0.601232021031741
40
0.601232021031741
40
0.62415092883645
40
0.62415092883645
40
0.647069836641158
40
0.647069836641158
40
0.669988744445867
40
0.669988744445867
40
0.692907652250576
40
0.692907652250576
40
0.715826560055284
40
0.715826560055284
40
0.738745467859993
40
0.738745467859993
40
0.761664375664701
40
0.761664375664701
40
0.78458328346941
40
0.78458328346941
40
0.830421099078828
40
0.830421099078828
40
0.853340006883536
40
0.853340006883536
40
0.876258914688245
40
0.876258914688245
40
0.899177822492953
40
0.899177822492953
40
0.922096730297662
40
0.922096730297662
40
0.94501563810237
40
0.94501563810237
40
0.967934545907079
40
0.967934545907079
40
0.990853453711787
40
0.990853453711787
40
1
40
1
40
1
40
1
41
1
10
25.7136859424867
20
3.07637217264411
30
0
41
1
10
25.7743385339835
20
3.09776817607678
30
0
41
1
10
25.8349723903017
20
3.11889763841478
30
0
41
1
10
26.1557874604557
20
3.22920655507508
30
0
41
1
10
26.4155670641458
20
3.31393720133448
30
0
41
1
10
26.9339178627933
20
3.47460760527574
30
0
41
1
10
27.1921918941286
20
3.55087203746453
30
0
41
1
10
27.9668760877416
20
3.76422356484838
30
0
41
1
10
28.4841806149292
20
3.88521545345452
30
0
41
1
10
29.2586735483619
20
4.03742429997629
30
0
41
1
10
29.5169326401239
20
4.08288751203287
30
0
41
1
10
30.0351506544614
20
4.16227991664601
30
0
41
1
10
30.2948422476873
20
4.19643204564179
30
0
41
1
10
30.8150200463302
20
4.25371635348054
30
0
41
1
10
31.0751889334437
20
4.27692618590999
30
0
41
1
10
31.5977347471086
20
4.31139320108576
30
0
41
1
10
31.8600247882756
20
4.32265294348576
30
0
41
1
10
32.381930158913
20
4.33341226631038
30
0
41
1
10
32.6421335740912
20
4.33295480967251
30
0
41
1
10
33.1605755097248
20
4.32025039880798
30
0
41
1
10
33.4193432621264
20
4.30801521289052
30
0
41
1
10
33.9369733864353
20
4.27232160804664
30
0
41
1
10
34.1956226163031
20
4.2488413262389
30
0
41
1
10
34.7122296518347
20
4.19048260774301
30
0
41
1
10
34.9698475786067
20
4.15536554725753
30
0
41
1
10
35.7441884707038
20
4.03403059753043
30
0
41
1
10
36.262185233939
20
3.9322945032674
30
0
41
1
10
37.0394828972701
20
3.74567719201514
30
0
41
1
10
37.2992628620235
20
3.67833107466868
30
0
41
1
10
37.8208229644247
20
3.53415837208968
30
0
41
1
10
38.0829470489823
20
3.45699364686072
30
0
41
1
10
38.6059650023334
20
3.29292658400251
30
0
41
1
10
38.866074544868
20
3.20572780054607
30
0
41
1
10
39.385993690478
20
3.02464136358307
30
0
41
1
10
39.6456650965949
20
2.93059975321353
30
0
41
1
10
40.1639762263771
20
2.73496561837331
30
0
41
1
10
40.4225536966241
20
2.63326652336164
30
0
41
1
10
40.9385853582507
20
2.42205555324333
30
0
41
1
10
41.1966876337768
20
2.31362260965844
30
0
41
1
10
41.7132868385025
20
2.0916371579323
30
0
41
1
10
41.9716734473662
20
1.97789947549973
30
0
41
1
10
42.4882365909109
20
1.74416995212073
30
0
41
1
10
42.7461723103669
20
1.62368565919036
30
0
41
1
10
43.2639091124369
20
1.38029546540508
30
0
41
1
10
43.5234917885388
20
1.25701194772719
30
0
41
1
10
44.0436172491944
20
1.0063172961203
30
0
41
1
10
44.3040518346786
20
0.878671427090183
30
0
41
1
10
44.8260775064344
20
0.619395206854705
30
0
41
1
10
45.0881089878336
20
0.489163352719373
30
0
41
1
10
45.6098179522242
20
0.229576525463045
30
0
41
1
10
45.8700204042501
20
0.0998036749516586
30
0
41
1
10
46.388693685941
20
-0.16061003249493
30
0
41
1
10
46.6470507481208
20
-0.291468302208301
30
0
41
1
10
47.1642497667032
20
-0.549456197386434
30
0
41
1
10
47.4228131065256
20
-0.677178605846819
30
0
41
1
10
47.9394179658609
20
-0.931022169015279
30
0
41
1
10
48.1972806465167
20
-1.05749389910119
30
0
41
1
10
48.7129511507229
20
-1.30783968705634
30
0
41
1
10
48.9712941099014
20
-1.43066813071769
30
0
41
1
10
49.4887272718378
20
-1.67220819987929
30
0
41
1
10
49.7477973761217
20
-1.79096020752175
30
0
41
1
10
50.2661823223361
20
-2.02524044529278
30
0
41
1
10
50.5255117837115
20
-2.14072078407327
30
0
41
1
10
51.0466860445047
20
-2.36417788161728
30
0
41
1
10
51.3087504304489
20
-2.47294133883446
30
0
41
1
10
51.8317703091017
20
-2.68374841068513
30
0
41
1
10
52.0920296626074
20
-2.78601728691709
30
0
41
1
10
52.8710588276592
20
-3.08005650250621
30
0
41
1
10
53.3896550406826
20
-3.25703213002021
30
0
41
1
10
54.1638051662553
20
-3.49825108180733
30
0
41
1
10
54.4214306677903
20
-3.57424105141058
30
0
41
1
10
54.9376744559398
20
-3.71535642403367
30
0
41
1
10
55.1960027941721
20
-3.78086110414358
30
0
41
1
10
55.7126675218028
20
-3.90216893188767
30
0
41
1
10
55.9707093567691
20
-3.95819973971436
30
0
41
1
10
56.4879400563867
20
-4.05927354437895
30
0
41
1
10
56.747364372881
20
-4.10418354920475
30
0
41
1
10
57.2674205628409
20
-4.18311971109162
30
0
41
1
10
57.5280731202026
20
-4.21713831476026
30
0
41
1
10
58.0501133418865
20
-4.27416108361197
30
0
41
1
10
58.3116612023454
20
-4.29686532774588
30
0
41
1
10
58.8335137179359
20
-4.33009277656654
30
0
41
1
10
59.0940728196872
20
-4.3408025580423
30
0
41
1
10
59.4578398446557
20
-4.34763627665842
30
0
41
1
10
59.5614599702391
20
-4.34864913939418
30
0
41
1
10
59.6650070541225
20
-4.34872477052576
30
0
0
SPLINE
5
D3
100
AcDbEntity
8
1
62
256
6
ByLayer
370
13
48
1
60
0
100
AcDbSpline
70
4
71
3
72
12
73
8
40
0
40
0
40
0
40
0
40
0.500000000000003
40
0.500000000000003
40
0.750000000000001
40
0.750000000000001
40
1
40
1
40
1
40
1
41
1
10
4.00217041492419
20
-4.07524428163251
30
0
41
1
10
4.00736877615213
20
-4.04554448388336
30
0
41
1
10
4.02199651673143
20
-4.01634141928716
30
0
41
1
10
4.05687087491057
20
-3.97802059907065
30
0
41
1
10
4.07094109696226
20
-3.96588779502954
30
0
41
1
10
4.10293331731418
20
-3.94455586335439
30
0
41
1
10
4.12073686177376
20
-3.93533203744838
30
0
41
1
10
4.14062225632824
20
-3.92779664257438
30
0
0
SPLINE
5
D4
100
AcDbEntity
8
1
62
256
6
ByLayer
370
13
48
1
60
0
100
AcDbSpline
70
4
71
3
72
12
73
8
40
0
40
0
40
0
40
0
40
0.500000000000001
40
0.500000000000001
40
0.750000000000001
40
0.750000000000001
40
1
40
1
40
1
40
1
41
1
10
4.00574199861396
20
-4.08594017604395
30
0
41
1
10
4.01344772243934
20
-4.0764837007448
30
0
41
1
10
4.02889494765151
20
-4.06727258471793
30
0
41
1
10
4.06286171245284
20
-4.05507141935246
30
0
41
1
10
4.07626303345685
20
-4.05119665950167
30
0
41
1
10
4.10604604507213
20
-4.04437451732264
30
0
41
1
10
4.12245811845835
20
-4.04138843063814
30
0
41
1
10
4.14062225632824
20
-4.03890582465854
30
0
0
SPLINE
5
D5
100
AcDbEntity
8
1
62
256
6
ByLayer
370
18
48
1
60
0
100
AcDbSpline
70
4
71
3
72
14
73
10
40
0
40
0
40
0
40
0
40
0.25
40
0.25
40
0.5
40
0.5
40
0.75
40
0.75
40
1
40
1
40
1
40
1
41
1
10
61.6897178191695
20
4.23180799912981
30
0
41
1
10
61.7871743121152
20
3.95900617637136
30
0
41
1
10
61.8867396626797
20
3.68669406012827
30
0
41
1
10
62.0896020025772
20
3.14302022216262
30
0
41
1
10
62.1929144232577
20
2.87166201189024
30
0
41
1
10
62.4030108043006
20
2.32989526065683
30
0
41
1
10
62.509907731162
20
2.0592956168224
30
0
41
1
10
62.7264577718359
20
1.52030152552089
30
0
41
1
10
62.8361333055905
20
1.2518668625539
30
0
41
1
10
62.9471660862319
20
0.984381251667571
30
0
0
SPLINE
5
D6
100
AcDbEntity
8
1
62
256
6
ByLayer
370
18
48
1
60
0
100
AcDbSpline
70
4
71
3
72
18
73
14
40
0
40
0
40
0
40
0
40
0.014991294469921
40
0.014991294469921
40
0.247414369178909
40
0.247414369178909
40
0.712260518596884
40
0.712260518596884
40
0.828472055951379
40
0.828472055951379
40
0.944683593305874
40
0.944683593305874
40
1
40
1
40
1
40
1
41
1
10
20.2296017574793
20
-0.0027366183026629
30
0
41
1
10
20.2682174112794
20
-0.0214900761712045
30
0
41
1
10
20.3068194313465
20
-0.0402363323803456
30
0
41
1
10
20.9436882334741
20
-0.349479914850946
30
0
41
1
10
21.5386778399297
20
-0.638261968298309
30
0
41
1
10
23.3215366915148
20
-1.48354686315281
30
0
41
1
10
24.50665725201
20
-2.02010984606593
30
0
41
1
10
26.0079057706357
20
-2.60884301072298
30
0
41
1
10
26.309585726964
20
-2.72269550369424
30
0
41
1
10
26.9097254245123
20
-2.9389657910757
30
0
41
1
10
27.2088734124023
20
-3.04162709838494
30
0
41
1
10
27.6494279160676
20
-3.18457294083575
30
0
41
1
10
27.7913449470126
20
-3.22936304431386
30
0
41
1
10
27.9331389844592
20
-3.27280709024092
30
0
0
SPLINE
5
D7
100
AcDbEntity
8
1
62
256
6
ByLayer
370
13
48
1
60
0
100
AcDbSpline
70
4
71
3
72
14
73
10
40
0
40
0
40
0
40
0
40
0.178894478506637
40
0.178894478506637
40
0.648433036343228
40
0.648433036343228
40
0.883202315261526
40
0.883202315261526
40
1
40
1
40
1
40
1
41
1
10
27.93313898441
20
-3.27280709022585
30
0
41
1
10
28.3871212840253
20
-3.41190199315594
30
0
41
1
10
28.8398427898591
20
-3.53719859771184
30
0
41
1
10
30.4804398634286
20
-3.93691079682813
30
0
41
1
10
31.6671158256232
20
-4.12294889525737
30
0
41
1
10
33.4741515777077
20
-4.22067509858673
30
0
41
1
10
34.0748943774303
20
-4.22271600776455
30
0
41
1
10
34.9760035497463
20
-4.18020417625951
30
0
41
1
10
35.2759255168046
20
-4.15847990191921
30
0
41
1
10
35.574459382118
20
-4.12947806869704
30
0
0
SPLINE
5
D8
100
AcDbEntity
8
1
62
256
6
ByLayer
370
18
48
1
60
0
100
AcDbSpline
70
4
71
3
72
14
73
10
40
0
40
0
40
0
40
0
40
0.249999999999999
40
0.249999999999999
40
0.499999999999999
40
0.499999999999999
40
0.75
40
0.75
40
1
40
1
40
1
40
1
41
1
10
61.4071252843399
20
0.937640606736835
30
0
41
1
10
61.4061325144106
20
0.953000262065785
30
0
41
1
10
61.4092659356648
20
0.968585550460688
30
0
41
1
10
61.4245691741115
20
0.99561919178592
30
0
41
1
10
61.4367025904306
20
1.0068761601668
30
0
41
1
10
61.4639944605659
20
1.02275773486872
30
0
41
1
10
61.4793861846727
20
1.02784211356453
30
0
41
1
10
61.5103145862594
20
1.03373127044668
30
0
41
1
10
61.5262077395453
20
1.03464288542654
30
0
41
1
10
61.5420351217516
20
1.03405222617326
30
0
0
SPLINE
5
D9
100
AcDbEntity
8
1
62
256
6
ByLayer
370
18
48
1
60
0
100
AcDbSpline
70
4
71
3
72
10
73
6
40
0
40
0
40
0
40
0
40
0.5
40
0.5
40
1
40
1
40
1
40
1
41
1
10
61.689717819177
20
4.23180799910335
30
0
41
1
10
61.6493265933946
20
4.26189357098883
30
0
41
1
10
61.6106556972987
20
4.28657661111555
30
0
41
1
10
61.5367589185734
20
4.32441068884617
30
0
41
1
10
61.501943322922
20
4.33731622302588
30
0
41
1
10
61.4694705289162
20
4.34411231680829
30
0
0
SPLINE
5
DA
100
AcDbEntity
8
1
62
256
6
ByLayer
370
18
48
1
60
0
100
AcDbSpline
70
4
71
3
72
8
73
4
40
0
40
0
40
0
40
0
40
1
40
1
40
1
40
1
41
1
10
4.00574199861273
20
-4.08594017604548
30
0
41
1
10
4.0033752692037
20
-4.08245477422327
30
0
41
1
10
4.00216994257022
20
-4.07889091443539
30
0
41
1
10
4.00217041492391
20
-4.07524428163526
30
0
0
SPLINE
5
DB
100
AcDbEntity
8
1
62
256
6
ByLayer
370
13
48
1
60
0
100
AcDbSpline
70
4
71
3
72
31
73
27
40
0
40
0
40
0
40
0
40
0.125
40
0.125
40
0.1875
40
0.1875
40
0.25
40
0.3125
40
0.3125
40
0.375
40
0.375
40
0.5
40
0.5
40
0.5625
40
0.5625
40
0.625
40
0.625
40
0.6875
40
0.6875
40
0.75
40
0.75
40
0.875
40
0.875
40
0.9375
40
0.9375
40
1
40
1
40
1
40
1
41
1
10
4.25033109770567
20
-3.91301797008433
30
0
41
1
10
4.25041186838996
20
-3.8335172231898
30
0
41
1
10
4.25048626954376
20
-3.72986893309562
30
0
41
1
10
4.25059121540551
20
-3.53850084366556
30
0
41
1
10
4.25062504385494
20
-3.46866440106817
30
0
41
1
10
4.25068974464821
20
-3.31956165591569
30
0
41
1
10
4.2507518212584
20
-3.16046132686608
30
0
41
1
10
4.25080968455046
20
-2.9816703422517
30
0
41
1
10
4.25086587588225
20
-2.79290504980634
30
0
41
1
10
4.25089326737276
20
-2.69300333520329
30
0
41
1
10
4.25097248097006
20
-2.38172430069144
30
0
41
1
10
4.25102103594799
20
-2.16073166506644
30
0
41
1
10
4.25108962468954
20
-1.80960450138051
30
0
41
1
10
4.25111176399471
20
-1.68926574864722
30
0
41
1
10
4.25115477084191
20
-1.44180483404031
30
0
41
1
10
4.25117557044814
20
-1.3150152269445
30
0
41
1
10
4.25121533713846
20
-1.05866484866456
30
0
41
1
10
4.25123440067435
20
-0.928535911549943
30
0
41
1
10
4.25127080714384
20
-0.664974944632007
30
0
41
1
10
4.25128812664019
20
-0.531656339367146
30
0
41
1
10
4.25133669572148
20
-0.13229464022109
30
0
41
1
10
4.25136463199027
20
0.13287261392324
30
0
41
1
10
4.25139881537942
20
0.529051127228598
30
0
41
1
10
4.25140890505554
20
0.660846719116449
30
0
41
1
10
4.25142606055329
20
0.923893556902868
30
0
41
1
10
4.25143306317358
20
1.05435948539869
30
0
41
1
10
4.25143823072906
20
1.18245036860853
30
0
0
SPLINE
5
DC
100
AcDbEntity
8
1
62
256
6
ByLayer
370
18
48
1
60
0
100
AcDbSpline
70
4
71
3
72
22
73
18
40
0
40
0
40
0
40
0
40
0.125
40
0.125
40
0.25
40
0.25
40
0.375
40
0.375
40
0.5
40
0.5
40
0.625
40
0.625
40
0.75
40
0.75
40
0.875
40
0.875
40
1
40
1
40
1
40
1
41
1
10
4.2514382309372
20
1.18245036846994
30
0
41
1
10
4.54676974987046
20
0.984196799671224
30
0
41
1
10
4.84917064029304
20
0.793543945044007
30
0
41
1
10
5.46276245140672
20
0.420835864610126
30
0
41
1
10
5.7746106033523
20
0.238572086432214
30
0
41
1
10
6.40228726417411
20
-0.118189319258534
30
0
41
1
10
6.71746978246446
20
-0.29223924846454
30
0
41
1
10
7.35020706856838
20
-0.632805807297615
30
0
41
1
10
7.66768738522066
20
-0.799617679003262
30
0
41
1
10
8.30560961952372
20
-1.12449393940989
30
0
41
1
10
8.62636891561434
20
-1.28280169958381
30
0
41
1
10
9.27003499467122
20
-1.58927379508197
30
0
41
1
10
9.59222497374617
20
-1.73713041503711
30
0
41
1
10
10.238526596423
20
-2.01923448298516
30
0
41
1
10
10.5626911669113
20
-2.15377753897948
30
0
41
1
10
11.2145885436159
20
-2.40873123919391
30
0
41
1
10
11.5422982682119
20
-2.52881748336404
30
0
41
1
10
11.8725891458104
20
-2.64056267426659
30
0
0
SPLINE
5
DD
100
AcDbEntity
8
1
62
256
6
ByLayer
370
18
48
1
60
0
100
AcDbSpline
70
4
71
3
72
8
73
4
40
0
40
0
40
0
40
0
40
1
40
1
40
1
40
1
41
1
10
62.9895186753834
20
0.117760465261853
30
0
41
1
10
62.9901847282736
20
0.0960802694249026
30
0
41
1
10
62.9941497073683
20
0.0696320925881366
30
0
41
1
10
62.9999622222942
20
0.0417742290653109
30
0
0
SPLINE
5
DE
100
AcDbEntity
8
1
62
256
6
ByLayer
370
18
48
1
60
0
100
AcDbSpline
70
4
71
3
72
8
73
4
40
0
40
0
40
0
40
0
40
1
40
1
40
1
40
1
41
1
10
62.9999622222969
20
0.0417742290548802
30
0
41
1
10
63.0000125954095
20
0.0139231716816823
30
0
41
1
10
63.0000125889048
20
-0.0139267681173862
30
0
41
1
10
62.9999622222969
20
-0.0417742290394756
30
0
0
SPLINE
5
DF
100
AcDbEntity
8
1
62
256
6
ByLayer
370
18
48
1
60
0
100
AcDbSpline
70
4
71
3
72
42
73
38
40
0
40
0
40
0
40
0
40
0.10277988019713
40
0.10277988019713
40
0.154169820295695
40
0.154169820295695
40
0.20555976039426
40
0.20555976039426
40
0.256949700492826
40
0.256949700492826
40
0.308339640591391
40
0.308339640591391
40
0.359729580689957
40
0.359729580689957
40
0.411119520788522
40
0.411119520788522
40
0.462509460887088
40
0.462509460887088
40
0.513899400985653
40
0.513899400985653
40
0.565289341084218
40
0.565289341084218
40
0.616679281182784
40
0.616679281182784
40
0.668069221281349
40
0.668069221281349
40
0.719459161379915
40
0.719459161379915
40
0.77084910147848
40
0.77084910147848
40
0.822239041577044
40
0.822239041577044
40
0.925018921774173
40
0.925018921774173
40
0.976408861872737
40
0.976408861872737
40
1
40
1
40
1
40
1
41
1
10
11.8725891458104
20
-2.64056267426659
30
0
41
1
10
12.3490319494312
20
-2.81349843533883
30
0
41
1
10
12.8246579407397
20
-2.97385497201438
30
0
41
1
10
13.5369008198644
20
-3.19355913368111
30
0
41
1
10
13.7741074051188
20
-3.26327233089381
30
0
41
1
10
14.2490576878567
20
-3.39512030023192
30
0
41
1
10
14.4867887908091
20
-3.45736747640245
30
0
41
1
10
14.9626337818984
20
-3.57403742636299
30
0
41
1
10
15.2009708686666
20
-3.62837522789954
30
0
41
1
10
15.6769542711281
20
-3.7286559066286
30
0
41
1
10
15.9145838242029
20
-3.77465205446427
30
0
41
1
10
16.3899739439079
20
-3.85811489287787
30
0
41
1
10
16.6276083869024
20
-3.89557180276745
30
0
41
1
10
17.1026303220333
20
-3.96125557754232
30
0
41
1
10
17.3400157796521
20
-3.98956300488976
30
0
41
1
10
17.8149253170341
20
-4.03795153678567
30
0
41
1
10
18.0526602993469
20
-4.05799976527138
30
0
41
1
10
18.5288117467871
20
-4.08726650188174
30
0
41
1
10
18.7673626706413
20
-4.09696151133019
30
0
41
1
10
19.2425226928152
20
-4.10767911758336
30
0
41
1
10
19.4794220173055
20
-4.10896864355385
30
0
41
1
10
19.9525660889537
20
-4.10255066575712
30
0
41
1
10
20.188693318833
20
-4.09390939980702
30
0
41
1
10
20.6603252588194
20
-4.06764576663144
30
0
41
1
10
20.8958151650647
20
-4.05005581603302
30
0
41
1
10
21.3663052949602
20
-4.00698190003698
30
0
41
1
10
21.6012920987983
20
-3.98159161482437
30
0
41
1
10
22.0714363864467
20
-3.92001281490062
30
0
41
1
10
22.3065753305375
20
-3.88452517310273
30
0
41
1
10
22.7769808468135
20
-3.80582758108406
30
0
41
1
10
23.012243559913
20
-3.76275349532193
30
0
41
1
10
23.7183277434107
20
-3.6211850627912
30
0
41
1
10
24.1906691236772
20
-3.50683569591729
30
0
41
1
10
24.9018394474795
20
-3.31594826127474
30
0
41
1
10
25.1391696939538
20
-3.24907991128035
30
0
41
1
10
25.4866959568712
20
-3.14397466219668
30
0
41
1
10
25.5960243215976
20
-3.11008366883766
30
0
41
1
10
25.7053255150799
20
-3.07548858545999
30
0
0
SPLINE
5
E0
100
AcDbEntity
8
1
62
256
6
ByLayer
370
18
48
1
60
0
100
AcDbSpline
70
4
71
3
72
30
73
26
40
0
40
0
40
0
40
0
40
0.0555855794449497
40
0.0555855794449497
40
0.123043752341738
40
0.123043752341738
40
0.190501925238527
40
0.190501925238527
40
0.257960098135315
40
0.257960098135315
40
0.325418271032104
40
0.325418271032104
40
0.460334616825684
40
0.460334616825684
40
0.527792789722472
40
0.527792789722472
40
0.595250962619261
40
0.595250962619261
40
0.73016730841284
40
0.73016730841284
40
0.797625481309631
40
0.797625481309631
40
0.865083654206421
40
0.865083654206421
40
1
40
1
40
1
40
1
41
1
10
46.8439083954826
20
4.12149274041957
30
0
41
1
10
47.0394145078971
20
4.11899038642014
30
0
41
1
10
47.2349025254791
20
4.11324344200551
30
0
41
1
10
47.6675825862022
20
4.09409705464032
30
0
41
1
10
47.9047616542765
20
4.07948645605612
30
0
41
1
10
48.379093900656
20
4.04018965614137
30
0
41
1
10
48.61643009761
20
4.01563873576126
30
0
41
1
10
49.0920159358658
20
3.95827186737901
30
0
41
1
10
49.3302230432624
20
3.92565140293661
30
0
41
1
10
49.8055197316866
20
3.85221476419036
30
0
41
1
10
50.0426607692795
20
3.81044299991351
30
0
41
1
10
50.753697436091
20
3.67101524199947
30
0
41
1
10
51.2279442471917
20
3.5606365773526
30
0
41
1
10
51.939816605917
20
3.37211290722413
30
0
41
1
10
52.1771257444963
20
3.30529637460864
30
0
41
1
10
52.6527806417662
20
3.16545066396418
30
0
41
1
10
52.890633875453
20
3.09260328230533
30
0
41
1
10
53.6030727386102
20
2.86351785736645
30
0
41
1
10
54.0763534898054
20
2.69489286952836
30
0
41
1
10
54.7877321861912
20
2.42659167646448
30
0
41
1
10
55.0250343481705
20
2.33446471170811
30
0
41
1
10
55.4999289771724
20
2.144421545554
30
0
41
1
10
55.7378066239037
20
2.04635051620201
30
0
41
1
10
56.4499869557242
20
1.74618243953961
30
0
41
1
10
56.9231658222397
20
1.54018099681727
30
0
41
1
10
57.3944583912418
20
1.32753671383304
30
0
0
SPLINE
5
E1
100
AcDbEntity
8
1
62
256
6
ByLayer
370
18
48
1
60
0
100
AcDbSpline
70
4
71
3
72
28
73
24
40
0
40
0
40
0
40
0
40
0.0470069320726361
40
0.0858426948068335
40
0.121474008999009
40
0.154938220309118
40
0.193109307934182
40
0.238094407775622
40
0.275072253346302
40
0.307655451880336
40
0.357374496638773
40
0.403345084569188
40
0.438785625021335
40
0.483246893608649
40
0.532128720256642
40
0.614864658041826
40
0.707375411842341
40
0.802294794551269
40
0.836498595508707
40
0.864920534661332
40
0.898174674158168
40
0.940087432734592
40
1
40
1
40
1
40
1
41
1
10
33.9842751324674
20
-4.11521902114288
30
0
41
1
10
34.1762287953828
20
-4.11402477256163
30
0
41
1
10
34.529502152497
20
-4.11279924334679
30
0
41
1
10
35.0458052342886
20
-4.11518789409757
30
0
41
1
10
35.4940936534328
20
-4.11639518036395
30
0
41
1
10
35.949404370882
20
-4.11656472643102
30
0
41
1
10
36.4426514760261
20
-4.1168149379144
30
0
41
1
10
36.9512796821433
20
-4.11687611832042
30
0
41
1
10
37.4361150931293
20
-4.11754187532949
30
0
41
1
10
37.9410138537314
20
-4.11783650505225
30
0
41
1
10
38.4839839711048
20
-4.11752178113255
30
0
41
1
10
39.0390384042218
20
-4.11839949136052
30
0
41
1
10
39.5716692882164
20
-4.11887735692582
30
0
41
1
10
40.1168637604738
20
-4.11837448363104
30
0
41
1
10
40.8620759244804
20
-4.11942248508311
30
0
41
1
10
41.8108477051362
20
-4.11908010253489
30
0
41
1
10
42.9543944043756
20
-4.12156038189684
30
0
41
1
10
43.8925581583079
20
-4.11945880029376
30
0
41
1
10
44.5594327615347
20
-4.12153427236896
30
0
41
1
10
44.9652242685512
20
-4.12156907219665
30
0
41
1
10
45.4036162574713
20
-4.12118720625014
30
0
41
1
10
45.9748328204679
20
-4.12160893735225
30
0
41
1
10
46.405902605173
20
-4.12228901188857
30
0
41
1
10
46.6596088953831
20
-4.12287278434405
30
0
0
SPLINE
5
E2
100
AcDbEntity
8
1
62
256
6
ByLayer
370
18
48
1
60
0
100
AcDbSpline
70
4
71
1
72
4
73
2
40
0
40
0
40
1
40
1
41
1
10
61.2490100418506
20
-4.13220836069428
30
0
41
1
10
61.4854472081678
20
-4.13191781812444
30
0
0
SPLINE
5
E3
100
AcDbEntity
8
1
62
256
6
ByLayer
370
18
48
1
60
0
100
AcDbSpline
70
4
71
3
72
28
73
24
40
0
40
0
40
0
40
0
40
0.0019745006887021
40
0.0724224708856728
40
0.123309747783236
40
0.163486164181213
40
0.204687792941968
40
0.258393902807007
40
0.310541966515269
40
0.353141533257727
40
0.402777337479352
40
0.462664184775575
40
0.510592095215899
40
0.554381520539493
40
0.609222268674607
40
0.662071760567328
40
0.702596158616411
40
0.749728487313146
40
0.807602225320429
40
0.855769916692869
40
0.896712179395044
40
0.950114467510768
40
1
40
1
40
1
40
1
41
1
10
19.508494953
20
4.10733140537411
30
0
41
1
10
19.5017617769706
20
4.10732417202894
30
0
41
1
10
19.2548227722727
20
4.10706214986641
30
0
41
1
10
18.8318729823778
20
4.10729127746726
30
0
41
1
10
18.2908529791067
20
4.10698211730542
30
0
41
1
10
17.836433317758
20
4.10632691820737
30
0
41
1
10
17.380712785886
20
4.10606579315666
30
0
41
1
10
16.8771043789077
20
4.10594127974497
30
0
41
1
10
16.3708349665401
20
4.10526605486467
30
0
41
1
10
15.8779478793861
20
4.10457045613126
30
0
41
1
10
15.3587133278621
20
4.1047191091771
30
0
41
1
10
14.8217075740498
20
4.10445601326148
30
0
41
1
10
14.3040246315759
20
4.10367094629163
30
0
41
1
10
13.8044794514315
20
4.10350825374525
30
0
41
1
10
13.2872164254643
20
4.10361430753304
30
0
41
1
10
12.7813670704991
20
4.10301510284435
30
0
41
1
10
12.3018191829755
20
4.10245498867067
30
0
41
1
10
11.8050046591071
20
4.10239446022953
30
0
41
1
10
11.2827492839586
20
4.10204733089392
30
0
41
1
10
10.7806694625626
20
4.10135902731858
30
0
41
1
10
10.2951744674219
20
4.10119366948027
30
0
41
1
10
9.80265795998454
20
4.10116728208888
30
0
41
1
10
9.45014690227708
20
4.10078575519989
30
0
41
1
10
9.27987901832907
20
4.10060055163908
30
0
0
SPLINE
5
E4
100
AcDbEntity
8
1
62
256
6
ByLayer
370
18
48
1
60
0
100
AcDbSpline
70
4
71
3
72
29
73
25
40
0
40
0
40
0
40
0
40
0.0547944256837218
40
0.101489058583993
40
0.135072440372276
40
0.162098498876665
40
0.187033654524909
40
0.209952749236445
40
0.263135325067347
40
0.320576781455627
40
0.365650186720341
40
0.404992029518179
40
0.443024092814798
40
0.490009861857826
40
0.534264404300226
40
0.596033468924179
40
0.670530309644324
40
0.733503971178411
40
0.806610254404251
40
0.840574131201603
40
0.872248904383043
40
0.903772683551268
40
0.944529081005783
40
1
40
1
40
1
40
1
41
1
10
6.84656647188521
20
-4.09830632863091
30
0
41
1
10
7.07623515575636
20
-4.09851903695079
30
0
41
1
10
7.50163724002564
20
-4.0989148999322
30
0
41
1
10
8.0678133688611
20
-4.09950611913754
30
0
41
1
10
8.51765857141629
20
-4.09989717673423
30
0
41
1
10
8.87591328712975
20
-4.10019534089918
30
0
41
1
10
9.18982022553533
20
-4.1004801744528
30
0
41
1
10
9.61337997576658
20
-4.1010282432222
30
0
41
1
10
10.1732123050782
20
-4.10115900240254
30
0
41
1
10
10.8259144254339
20
-4.10147599886375
30
0
41
1
10
11.4205857627638
20
-4.10229888796479
30
0
41
1
10
11.9339053160281
20
-4.10237368752922
30
0
41
1
10
12.4552318106892
20
-4.10254746635658
30
0
41
1
10
12.9971605360995
20
-4.10339150529313
30
0
41
1
10
13.6385911954299
20
-4.10356547310633
30
0
41
1
10
14.3953603505957
20
-4.10376364055097
30
0
41
1
10
15.2305962205493
20
-4.10491230548377
30
0
41
1
10
16.1133637663086
20
-4.10456179755209
30
0
41
1
10
16.8262130443045
20
-4.10600545687453
30
0
41
1
10
17.4078453641337
20
-4.10598828100049
30
0
41
1
10
17.8151736240318
20
-4.10686192934617
30
0
41
1
10
18.2509207806999
20
-4.10784633107653
30
0
41
1
10
18.7864859981954
20
-4.10691070915897
30
0
41
1
10
19.1898735633649
20
-4.10725119440198
30
0
41
1
10
19.4224112019276
20
-4.10747875894435
30
0
0
SPLINE
5
E5
100
AcDbEntity
8
1
62
256
6
ByLayer
370
18
48
1
60
0
100
AcDbSpline
70
4
71
3
72
27
73
23
40
0
40
0
40
0
40
0
40
0.0492957986752673
40
0.0971076367407501
40
0.137169947596955
40
0.175734802559951
40
0.229915046684204
40
0.286011356667445
40
0.334990155529486
40
0.392541814335956
40
0.455011473865909
40
0.505800253255211
40
0.562169455754833
40
0.618421239032392
40
0.665796039009232
40
0.713955156108846
40
0.770187047470454
40
0.819203491478643
40
0.863274324837903
40
0.923151126754433
40
0.977340607056174
40
1
40
1
40
1
40
1
41
1
10
46.8553817253032
20
4.12127947705733
30
0
41
1
10
46.6835057970744
20
4.12153895107258
30
0
41
1
10
46.3461598411269
20
4.12184643799094
30
0
41
1
10
45.8804437439893
20
4.12159079384787
30
0
41
1
10
45.4415243469673
20
4.12109137999678
30
0
41
1
10
44.9814628892842
20
4.12166294781491
30
0
41
1
10
44.4653922786993
20
4.12144330359837
30
0
41
1
10
43.9133361859528
20
4.11976011956233
30
0
41
1
10
43.3495558301095
20
4.1207819010404
30
0
41
1
10
42.7636901031348
20
4.1208677601355
30
0
41
1
10
42.1715493820964
20
4.1189066919149
30
0
41
1
10
41.5835070961053
20
4.119771797629
30
0
41
1
10
41.0170191756869
20
4.1198440489068
30
0
41
1
10
40.462367268548
20
4.11835571523503
30
0
41
1
10
39.936177652293
20
4.11871835804661
30
0
41
1
10
39.41005741243
20
4.11886525880098
30
0
41
1
10
38.878245641651
20
4.11797089070694
30
0
41
1
10
38.360604154002
20
4.1176863061599
30
0
41
1
10
37.8303319793436
20
4.11782068855132
30
0
41
1
10
37.2821618117334
20
4.11733561324127
30
0
41
1
10
36.8080535886118
20
4.11687138181301
30
0
41
1
10
36.541832630592
20
4.11675504449295
30
0
41
1
10
36.4633248664499
20
4.11672833223787
30
0
0
LINE
5
7B
100
AcDbEntity
8
SK1
62
256
6
ByLayer
370
18
48
1
60
0
100
AcDbLine
10
-38.66
20
5
30
0
11
-38.66
21
-5
31
0
39
0
210
0
220
0
230
1
0
LINE
5
7D
100
AcDbEntity
8
SK1
62
256
6
ByLayer
370
18
48
1
60
0
100
AcDbLine
10
-40
20
3.66
30
0
11
-40
21
-3.66
31
0
39
0
210
0
220
0
230
1
0
LINE
5
7E
100
AcDbEntity
8
SK1
62
256
6
ByLayer
370
18
48
1
60
0
100
AcDbLine
10
0
20
-5
30
0
11
0
21
5
31
0
39
0
210
0
220
0
230
1
0
LINE
5
7F
100
AcDbEntity
8
1
62
256
6
ByLayer
370
13
48
1
60
0
100
AcDbLine
10
61.407125
20
0.937641
30
0
11
62.964246
21
-0.048054
31
0
39
0
210
0
220
0
230
1
0
LINE
5
80
100
AcDbEntity
8
1
62
256
6
ByLayer
370
13
48
1
60
0
100
AcDbLine
10
0.657224
20
4.656133
30
0
11
0.657224
21
-4.656133
31
0
39
0
210
0
220
0
230
1
0
LINE
5
81
100
AcDbEntity
8
1
62
256
6
ByLayer
370
13
48
1
60
0
100
AcDbLine
10
61.542035
20
1.034052
30
0
11
62.989519
21
0.11776
31
0
39
0
210
0
220
0
230
1
0
LINE
5
82
100
AcDbEntity
8
1
62
256
6
ByLayer
370
13
48
1
60
0
100
AcDbLine
10
1.314947
20
4.312266
30
0
11
1.314947
21
-4.312266
31
0
39
0
210
0
220
0
230
1
0
LINE
5
83
100
AcDbEntity
8
1
62
256
6
ByLayer
370
18
48
1
60
0
100
AcDbLine
10
0
20
-5
30
0
11
0
21
5
31
0
39
0
210
0
220
0
230
1
0
LINE
5
84
100
AcDbEntity
8
80
62
256
6
ByLayer
370
18
48
1
60
0
100
AcDbLine
10
0
20
0
30
0
11
-5
21
0
31
0
39
0
210
0
220
0
230
1
0
LINE
5
85
100
AcDbEntity
8
4
62
256
6
ByLayer
370
18
48
0.05
60
0
100
AcDbLine
10
63
20
0
30
0
11
0
21
0
31
0
39
0
210
0
220
0
230
1
0
LINE
5
87
100
AcDbEntity
8
SK4
62
256
6
ByLayer
370
18
48
0.05
60
0
100
AcDbLine
10
68
20
0
30
0
11
-45
21
0
31
0
39
0
210
0
220
0
230
1
0
LINE
5
89
100
AcDbEntity
8
1
62
256
6
ByLayer
370
18
48
1
60
0
100
AcDbLine
10
6.6235
20
4.315584
30
0
11
1.314947
21
4.312266
31
0
39
0
210
0
220
0
230
1
0
LINE
5
8A
100
AcDbEntity
8
SK1
62
256
6
ByLayer
370
18
48
1
60
0
100
AcDbLine
10
-38.66
20
-5
30
0
11
0
21
-5
31
0
39
0
210
0
220
0
230
1
0
LINE
5
8B
100
AcDbEntity
8
SK1
62
256
6
ByLayer
370
18
48
1
60
0
100
AcDbLine
10
0
20
5
30
0
11
-38.66
21
5
31
0
39
0
210
0
220
0
230
1
0
LINE
5
8C
100
AcDbEntity
8
SK1
62
256
6
ByLayer
370
18
48
1
60
0
100
AcDbLine
10
-40
20
-3.66
30
0
11
-38.66
21
-5
31
0
39
0
210
0
220
0
230
1
0
LINE
5
8D
100
AcDbEntity
8
SK1
62
256
6
ByLayer
370
18
48
1
60
0
100
AcDbLine
10
-38.66
20
5
30
0
11
-40
21
3.66
31
0
39
0
210
0
220
0
230
1
0
LINE
5
8E
100
AcDbEntity
8
1
62
256
6
ByLayer
370
18
48
1
60
0
100
AcDbLine
10
32.466981
20
-4.331736
30
0
11
33.824272
21
-4.332584
31
0
39
0
210
0
220
0
230
1
0
LINE
5
8F
100
AcDbEntity
8
1
62
256
6
ByLayer
370
18
48
1
60
0
100
AcDbLine
10
33.82417
20
4.332584
30
0
11
32.466981
21
4.331736
31
0
39
0
210
0
220
0
230
1
0
LINE
5
90
100
AcDbEntity
8
1
62
256
6
ByLayer
370
18
48
1
60
0
100
AcDbLine
10
1.314947
20
-4.312266
30
0
11
6.623326
21
-4.315583
31
0
39
0
210
0
220
0
230
1
0
LINE
5
91
100
AcDbEntity
8
1
62
256
6
ByLayer
370
18
48
1
60
0
100
AcDbLine
10
59.666952
20
-4.348736
30
0
11
61.024672
21
-4.349584
31
0
39
0
210
0
220
0
230
1
0
LINE
5
92
100
AcDbEntity
8
1
62
256
6
ByLayer
370
18
48
1
60
0
100
AcDbLine
10
61.024525
20
4.349584
30
0
11
59.666952
21
4.348736
31
0
39
0
210
0
220
0
230
1
0
LINE
5
93
100
AcDbEntity
8
81
62
256
6
ByLayer
370
18
48
1
60
0
100
AcDbLine
10
63
20
0
30
0
11
68
21
0
31
0
39
0
210
0
220
0
230
1
0
LINE
5
94
100
AcDbEntity
8
SK2
62
256
6
ByLayer
370
13
48
1
60
0
100
AcDbLine
10
-48.625163
20
-5
30
0
11
-48.625163
21
35.857173
31
0
39
0
210
0
220
0
230
1
0
LINE
5
96
100
AcDbEntity
8
SK2
62
256
6
ByLayer
370
13
48
1
60
0
100
AcDbLine
10
-41.5875
20
5
30
0
11
-50.625163
21
5
31
0
39
0
210
0
220
0
230
1
0
LINE
5
97
100
AcDbEntity
8
SK2
62
256
6
ByLayer
370
13
48
1
60
0
100
AcDbLine
10
-41.5875
20
-5
30
0
11
-50.625163
21
-5
31
0
39
0
210
0
220
0
230
1
0
LINE
5
98
100
AcDbEntity
8
1
62
256
6
ByLayer
370
18
48
1
60
1
100
AcDbLine
10
-48.625163
20
5
30
0
11
-48.164379
21
1.500002
31
0
39
0
210
0
220
0
230
1
0
LINE
5
99
100
AcDbEntity
8
1
62
256
6
ByLayer
370
18
48
1
60
1
100
AcDbLine
10
-48.164379
20
1.500002
30
0
11
-49.085946
21
1.499998
31
0
39
0
210
0
220
0
230
1
0
LINE
5
9A
100
AcDbEntity
8
1
62
256
6
ByLayer
370
18
48
1
60
1
100
AcDbLine
10
-49.085946
20
1.499998
30
0
11
-48.625163
21
5
31
0
39
0
210
0
220
0
230
1
0
LINE
5
9B
100
AcDbEntity
8
1
62
256
6
ByLayer
370
18
48
1
60
1
100
AcDbLine
10
-48.625163
20
-5
30
0
11
-49.085946
21
-1.500002
31
0
39
0
210
0
220
0
230
1
0
LINE
5
9C
100
AcDbEntity
8
1
62
256
6
ByLayer
370
18
48
1
60
1
100
AcDbLine
10
-49.085946
20
-1.500002
30
0
11
-48.164379
21
-1.499998
31
0
39
0
210
0
220
0
230
1
0
LINE
5
9D
100
AcDbEntity
8
1
62
256
6
ByLayer
370
18
48
1
60
1
100
AcDbLine
10
-48.164379
20
-1.499998
30
0
11
-48.625163
21
-5
31
0
39
0
210
0
220
0
230
1
0
LINE
5
9E
100
AcDbEntity
8
2
62
256
6
ByLayer
370
13
48
1
60
0
100
AcDbLine
10
75.083343
20
-4.35
30
0
11
75.083343
21
32.060193
31
0
39
0
210
0
220
0
230
1
0
LINE
5
A0
100
AcDbEntity
8
2
62
256
6
ByLayer
370
13
48
1
60
0
100
AcDbLine
10
63.2994
20
4.35
30
0
11
77.083343
21
4.35
31
0
39
0
210
0
220
0
230
1
0
LINE
5
A1
100
AcDbEntity
8
2
62
256
6
ByLayer
370
13
48
1
60
0
100
AcDbLine
10
63.2994
20
-4.35
30
0
11
77.083343
21
-4.35
31
0
39
0
210
0
220
0
230
1
0
LINE
5
A2
100
AcDbEntity
8
1
62
256
6
ByLayer
370
18
48
1
60
1
100
AcDbLine
10
75.083343
20
4.35
30
0
11
75.544126
21
0.850002
31
0
39
0
210
0
220
0
230
1
0
LINE
5
A3
100
AcDbEntity
8
1
62
256
6
ByLayer
370
18
48
1
60
1
100
AcDbLine
10
75.544126
20
0.850002
30
0
11
74.622559
21
0.849998
31
0
39
0
210
0
220
0
230
1
0
LINE
5
A4
100
AcDbEntity
8
1
62
256
6
ByLayer
370
18
48
1
60
1
100
AcDbLine
10
74.622559
20
0.849998
30
0
11
75.083343
21
4.35
31
0
39
0
210
0
220
0
230
1
0
LINE
5
A5
100
AcDbEntity
8
1
62
256
6
ByLayer
370
18
48
1
60
1
100
AcDbLine
10
75.083343
20
-4.35
30
0
11
74.622559
21
-0.850002
31
0
39
0
210
0
220
0
230
1
0
LINE
5
A6
100
AcDbEntity
8
1
62
256
6
ByLayer
370
18
48
1
60
1
100
AcDbLine
10
74.622559
20
-0.850002
30
0
11
75.544126
21
-0.849998
31
0
39
0
210
0
220
0
230
1
0
LINE
5
A7
100
AcDbEntity
8
1
62
256
6
ByLayer
370
18
48
1
60
1
100
AcDbLine
10
75.544126
20
-0.849998
30
0
11
75.083343
21
-4.35
31
0
39
0
210
0
220
0
230
1
0
LINE
5
EC
100
AcDbEntity
8
1
62
256
6
ByLayer
370
18
48
1
60
1
100
AcDbLine
10
-48.625163
20
5
30
0
11
-48.164379
21
1.500002
31
0
39
0
210
0
220
0
230
1
0
LINE
5
ED
100
AcDbEntity
8
1
62
256
6
ByLayer
370
18
48
1
60
1
100
AcDbLine
10
-48.164379
20
1.500002
30
0
11
-49.085946
21
1.499998
31
0
39
0
210
0
220
0
230
1
0
LINE
5
EE
100
AcDbEntity
8
1
62
256
6
ByLayer
370
18
48
1
60
1
100
AcDbLine
10
-49.085946
20
1.499998
30
0
11
-48.625163
21
5
31
0
39
0
210
0
220
0
230
1
0
LINE
5
F0
100
AcDbEntity
8
1
62
256
6
ByLayer
370
18
48
1
60
1
100
AcDbLine
10
-48.625163
20
-5
30
0
11
-49.085946
21
-1.500002
31
0
39
0
210
0
220
0
230
1
0
LINE
5
F1
100
AcDbEntity
8
1
62
256
6
ByLayer
370
18
48
1
60
1
100
AcDbLine
10
-49.085946
20
-1.500002
30
0
11
-48.164379
21
-1.499998
31
0
39
0
210
0
220
0
230
1
0
LINE
5
F2
100
AcDbEntity
8
1
62
256
6
ByLayer
370
18
48
1
60
1
100
AcDbLine
10
-48.164379
20
-1.499998
30
0
11
-48.625163
21
-5
31
0
39
0
210
0
220
0
230
1
0
LINE
5
F6
100
AcDbEntity
8
1
62
256
6
ByLayer
370
18
48
1
60
1
100
AcDbLine
10
75.083343
20
4.35
30
0
11
75.544126
21
0.850002
31
0
39
0
210
0
220
0
230
1
0
LINE
5
F7
100
AcDbEntity
8
1
62
256
6
ByLayer
370
18
48
1
60
1
100
AcDbLine
10
75.544126
20
0.850002
30
0
11
74.622559
21
0.849998
31
0
39
0
210
0
220
0
230
1
0
LINE
5
F8
100
AcDbEntity
8
1
62
256
6
ByLayer
370
18
48
1
60
1
100
AcDbLine
10
74.622559
20
0.849998
30
0
11
75.083343
21
4.35
31
0
39
0
210
0
220
0
230
1
0
LINE
5
FA
100
AcDbEntity
8
1
62
256
6
ByLayer
370
18
48
1
60
1
100
AcDbLine
10
75.083343
20
-4.35
30
0
11
74.622559
21
-0.850002
31
0
39
0
210
0
220
0
230
1
0
LINE
5
FB
100
AcDbEntity
8
1
62
256
6
ByLayer
370
18
48
1
60
1
100
AcDbLine
10
74.622559
20
-0.850002
30
0
11
75.544126
21
-0.849998
31
0
39
0
210
0
220
0
230
1
0
LINE
5
FC
100
AcDbEntity
8
1
62
256
6
ByLayer
370
18
48
1
60
1
100
AcDbLine
10
75.544126
20
-0.849998
30
0
11
75.083343
21
-4.35
31
0
39
0
210
0
220
0
230
1
0
MTEXT
5
E6
100
AcDbEntity
8
SK6
62
256
6
ByLayer
370
13
48
1
60
0
100
AcDbMText
10
-18.45116
20
36.890328
30
0
210
0
220
0
230
1
1
\W0.7870;462.1-0870-044A0-XM X2BM
40
3.5
41
0
44
1.084337
50
0
71
7
72
5
7
iso_b_vert
0
MTEXT
5
EA
100
AcDbEntity
8
SK2
62
256
6
ByLayer
370
18
48
1
60
0
100
AcDbMText
10
-50.189796
20
18.409024
30
0
210
0
220
0
230
1
1
%%c
40
3.5
41
0
44
1.084337
50
90
71
7
72
5
7
iso_b_vert
0
MTEXT
5
EB
100
AcDbEntity
8
SK2
62
256
6
ByLayer
370
18
48
1
60
0
100
AcDbMText
10
-50.189796
20
23.63168
30
0
210
0
220
0
230
1
1
\W0.6930;10,000
40
3.5
41
0
44
1.084337
50
90
71
7
72
5
7
iso_b_vert
0
MTEXT
5
F4
100
AcDbEntity
8
2
62
256
6
ByLayer
370
18
48
1
60
0
100
AcDbMText
10
73.518709
20
16.35211
30
0
210
0
220
0
230
1
1
%%c
40
3.5
41
0
44
1.084337
50
90
71
7
72
5
7
iso_b_vert
0
MTEXT
5
F5
100
AcDbEntity
8
2
62
256
6
ByLayer
370
18
48
1
60
0
100
AcDbMText
10
73.518709
20
21.574766
30
0
210
0
220
0
230
1
1
\W0.7317;8,700
40
3.5
41
0
44
1.084337
50
90
71
7
72
5
7
iso_b_vert
0
HATCH
5
EF
100
AcDbEntity
8
SK2
62
256
6
ByLayer
370
13
48
1
60
0
100
AcDbHatch
10
0
20
0
30
0
210
0
220
0
230
1
2
ANSI31
70
0
71
0
91
1
92
5
93
3
72
1
10
-48.6251625675374
20
5
11
-48.1643788259847
21
1.50000169255318
72
1
10
-48.1643788259847
20
1.50000169255318
11
-49.0859463090902
21
1.49999830744682
72
1
10
-49.0859463090902
20
1.49999830744682
11
-48.6251625675374
21
5
97
0
75
0
76
1
52
0
41
0.0062
77
0
78
1
53
45
43
0
44
0
45
-0.0139193969876572
46
0.0139193969876572
79
0
47
0
98
1
10
0
20
0
0
HATCH
5
F3
100
AcDbEntity
8
SK2
62
256
6
ByLayer
370
13
48
1
60
0
100
AcDbHatch
10
0
20
0
30
0
210
0
220
0
230
1
2
ANSI31
70
0
71
0
91
1
92
5
93
3
72
1
10
-48.6251625675374
20
-5
11
-49.0859463090902
21
-1.50000169255318
72
1
10
-49.0859463090902
20
-1.50000169255318
11
-48.1643788259847
21
-1.49999830744682
72
1
10
-48.1643788259847
20
-1.49999830744682
11
-48.6251625675374
21
-5
97
0
75
0
76
1
52
0
41
0.0062
77
0
78
1
53
45
43
0
44
0
45
-0.0139193969876572
46
0.0139193969876572
79
0
47
0
98
1
10
0
20
0
0
HATCH
5
F9
100
AcDbEntity
8
2
62
256
6
ByLayer
370
13
48
1
60
0
100
AcDbHatch
10
0
20
0
30
0
210
0
220
0
230
1
2
ANSI31
70
0
71
0
91
1
92
5
93
3
72
1
10
75.083342615295
20
4.35000000000002
11
75.5441263568477
21
0.850001692553207
72
1
10
75.5441263568477
20
0.850001692553207
11
74.6225588737422
21
0.849998307446839
72
1
10
74.6225588737422
20
0.849998307446839
11
75.083342615295
21
4.35000000000002
97
0
75
0
76
1
52
0
41
0.0062
77
0
78
1
53
45
43
0
44
0
45
-0.0139193969876572
46
0.0139193969876572
79
0
47
0
98
1
10
0
20
0
0
HATCH
5
FD
100
AcDbEntity
8
2
62
256
6
ByLayer
370
13
48
1
60
0
100
AcDbHatch
10
0
20
0
30
0
210
0
220
0
230
1
2
ANSI31
70
0
71
0
91
1
92
5
93
3
72
1
10
75.083342615295
20
-4.34999999999999
11
74.6225588737422
21
-0.850001692553178
72
1
10
74.6225588737422
20
-0.850001692553178
11
75.5441263568477
21
-0.84999830744681
72
1
10
75.5441263568477
20
-0.84999830744681
11
75.083342615295
21
-4.34999999999999
97
0
75
0
76
1
52
0
41
0.0062
77
0
78
1
53
45
43
0
44
0
45
-0.0139193969876572
46
0.0139193969876572
79
0
47
0
98
1
10
0
20
0
0
DIMENSION
5
FF
100
AcDbEntity
8
SK2
62
256
6
ByLayer
370
13
48
1
60
0
100
AcDbDimension
2
_U0
10
61.7119
20
-14.563398
30
0
11
30.85595
21
-14.563398
31
0
70
32
71
1
72
1
41
1
210
0
220
0
230
1
3
Standard
100
AcDbAlignedDimension
13
0
23
0
33
0
14
61.7119
24
-4.35
34
0
50
0
100
AcDbRotatedDimension
1001
ACAD
1000
DSTYLE
1002
{
1070
   371
1070
    13
1070
   372
1070
    13
1070
   170
1070
     0
1070
   144
1040
1.0
1070
   277
1070
     2
1070
   278
1070
    44
1070
   146
1040
1.0
1070
   345
1005
16
1070
   347
1005
16
1070
   346
1005
16
1070
   344
1005
0
1070
   343
1005
0
1070
   172
1070
     1
1070
    76
1070
     0
1070
    75
1070
     0
1070
   282
1070
     0
1070
   281
1070
     0
1070
    71
1070
     0
1070
    74
1070
     0
1070
   279
1070
     0
1070
   173
1070
     1
1070
   340
1005
E7
1070
   271
1070
     2
1070
   272
1070
     2
1070
    77
1070
     1
1070
    73
1070
     1
1070
   171
1070
     3
1070
   274
1070
     4
1070
   177
1070
    35
1070
   176
1070
    35
1070
   178
1070
    35
1070
    48
1040
-0.1
1070
    41
1040
3.5
1070
   147
1040
1.75
1070
    42
1040
1.5875
1070
    44
1040
2.0
1070
   140
1040
3.5
1002
}
1001
ACAD_DSTYLE_DIM_LINETYPE
1070
   380
1005
16
1001
ACAD_DSTYLE_DIM_EXT1_LINETYPE
1070
   381
1005
16
1001
ACAD_DSTYLE_DIM_EXT2_LINETYPE
1070
   382
1005
16
0
DIMENSION
5
118
100
AcDbEntity
8
SK2
62
256
6
ByLayer
370
13
48
1
60
0
100
AcDbDimension
2
_U1
10
63
20
-33.692985
30
0
11
11.5
21
-33.692985
31
0
70
32
71
1
72
1
41
1
210
0
220
0
230
1
3
Standard
100
AcDbAlignedDimension
13
-40
23
-5
33
0
14
63
24
0
34
0
50
0
100
AcDbRotatedDimension
1001
ACAD
1000
DSTYLE
1002
{
1070
   371
1070
    13
1070
   372
1070
    13
1070
   170
1070
     0
1070
   144
1040
1.0
1070
   277
1070
     2
1070
   278
1070
    44
1070
   146
1040
1.0
1070
   345
1005
16
1070
   347
1005
16
1070
   346
1005
16
1070
   344
1005
0
1070
   343
1005
0
1070
   172
1070
     1
1070
    76
1070
     0
1070
    75
1070
     0
1070
   282
1070
     0
1070
   281
1070
     0
1070
    71
1070
     0
1070
    74
1070
     0
1070
   279
1070
     0
1070
   173
1070
     1
1070
   340
1005
E7
1070
   271
1070
     2
1070
   272
1070
     2
1070
    77
1070
     1
1070
    73
1070
     1
1070
   171
1070
     3
1070
   274
1070
     4
1070
   177
1070
    35
1070
   176
1070
    35
1070
   178
1070
    35
1070
    48
1040
-0.1
1070
    41
1040
3.5
1070
   147
1040
1.75
1070
    42
1040
1.5875
1070
    44
1040
2.0
1070
   140
1040
3.5
1002
}
1001
ACAD_DSTYLE_DIM_LINETYPE
1070
   380
1005
16
1001
ACAD_DSTYLE_DIM_EXT1_LINETYPE
1070
   381
1005
16
1001
ACAD_DSTYLE_DIM_EXT2_LINETYPE
1070
   382
1005
16
0
DIMENSION
5
130
100
AcDbEntity
8
SK2
62
256
6
ByLayer
370
13
48
1
60
0
100
AcDbDimension
2
_U2
10
63
20
15.959119
30
0
11
40.605
21
15.959119
31
0
70
32
71
1
72
1
41
1
210
0
220
0
230
1
3
Standard
100
AcDbAlignedDimension
13
18.21
23
4.35
33
0
14
63
24
0
34
0
50
0
100
AcDbRotatedDimension
1001
ACAD
1000
DSTYLE
1002
{
1070
   371
1070
    13
1070
   372
1070
    13
1070
   170
1070
     0
1070
   144
1040
1.0
1070
   277
1070
     2
1070
   278
1070
    44
1070
   146
1040
1.0
1070
   345
1005
16
1070
   347
1005
16
1070
   346
1005
16
1070
   344
1005
0
1070
   343
1005
0
1070
   172
1070
     1
1070
    76
1070
     0
1070
    75
1070
     0
1070
   282
1070
     0
1070
   281
1070
     0
1070
    71
1070
     0
1070
    74
1070
     0
1070
   279
1070
     0
1070
   173
1070
     1
1070
   340
1005
E7
1070
   271
1070
     2
1070
   272
1070
     2
1070
    77
1070
     1
1070
    73
1070
     1
1070
   171
1070
     3
1070
   274
1070
     4
1070
   177
1070
    35
1070
   176
1070
    35
1070
   178
1070
    35
1070
    48
1040
-0.1
1070
    41
1040
3.5
1070
   147
1040
1.75
1070
    42
1040
1.5875
1070
    44
1040
2.0
1070
   140
1040
3.5
1002
}
1001
ACAD_DSTYLE_DIM_LINETYPE
1070
   380
1005
16
1001
ACAD_DSTYLE_DIM_EXT1_LINETYPE
1070
   381
1005
16
1001
ACAD_DSTYLE_DIM_EXT2_LINETYPE
1070
   382
1005
16
0
DIMENSION
5
148
100
AcDbEntity
8
SK2
62
256
6
ByLayer
370
13
48
1
60
0
100
AcDbDimension
2
_U3
10
61.7119
20
-17.152503
30
0
11
80.25
21
-17.152503
31
0
70
32
71
1
72
1
41
1
210
0
220
0
230
1
3
Standard
100
AcDbAlignedDimension
13
63
23
0
33
0
14
61.7119
24
-4.35
34
0
50
0
100
AcDbRotatedDimension
1001
ACAD
1000
DSTYLE
1002
{
1070
   371
1070
    13
1070
   372
1070
    13
1070
   170
1070
     0
1070
   144
1040
1.0
1070
   277
1070
     2
1070
   278
1070
    44
1070
   146
1040
1.0
1070
   345
1005
16
1070
   347
1005
16
1070
   346
1005
16
1070
   344
1005
0
1070
   343
1005
0
1070
   172
1070
     1
1070
    76
1070
     0
1070
    75
1070
     0
1070
   282
1070
     0
1070
   281
1070
     0
1070
    71
1070
     0
1070
    74
1070
     0
1070
   279
1070
     0
1070
   173
1070
     1
1070
   340
1005
E7
1070
   271
1070
     2
1070
   272
1070
     2
1070
    77
1070
     1
1070
    73
1070
     1
1070
   171
1070
     3
1070
   274
1070
     4
1070
   177
1070
    35
1070
   176
1070
    35
1070
   178
1070
    35
1070
    48
1040
-0.1
1070
    41
1040
3.5
1070
   147
1040
1.75
1070
    42
1040
1.5875
1070
    44
1040
2.0
1070
   140
1040
3.5
1002
}
1001
ACAD_DSTYLE_DIM_LINETYPE
1070
   380
1005
16
1001
ACAD_DSTYLE_DIM_EXT1_LINETYPE
1070
   381
1005
16
1001
ACAD_DSTYLE_DIM_EXT2_LINETYPE
1070
   382
1005
16
0
DIMENSION
5
162
100
AcDbEntity
8
SK2
62
256
6
ByLayer
370
13
48
1
60
0
100
AcDbDimension
2
_U4
10
61.7119
20
-23.343428
30
0
11
10.85595
21
-23.343428
31
0
70
32
71
1
72
1
41
1
210
0
220
0
230
1
3
Standard
100
AcDbAlignedDimension
13
-40
23
-5
33
0
14
61.7119
24
-4.35
34
0
50
0
100
AcDbRotatedDimension
1001
ACAD
1000
DSTYLE
1002
{
1070
   371
1070
    13
1070
   372
1070
    13
1070
   170
1070
     0
1070
   144
1040
1.0
1070
   277
1070
     2
1070
   278
1070
    44
1070
   146
1040
1.0
1070
   345
1005
16
1070
   347
1005
16
1070
   346
1005
16
1070
   344
1005
0
1070
   343
1005
0
1070
   172
1070
     1
1070
    76
1070
     0
1070
    75
1070
     0
1070
   282
1070
     0
1070
   281
1070
     0
1070
    71
1070
     0
1070
    74
1070
     0
1070
   279
1070
     0
1070
   173
1070
     1
1070
   340
1005
E7
1070
   271
1070
     2
1070
   272
1070
     2
1070
    77
1070
     1
1070
    73
1070
     1
1070
   171
1070
     3
1070
   274
1070
     4
1070
   177
1070
    35
1070
   176
1070
    35
1070
   178
1070
    35
1070
    48
1040
-0.1
1070
    41
1040
3.5
1070
   147
1040
1.75
1070
    42
1040
1.5875
1070
    44
1040
2.0
1070
   140
1040
3.5
1002
}
1001
ACAD_DSTYLE_DIM_LINETYPE
1070
   380
1005
16
1001
ACAD_DSTYLE_DIM_EXT1_LINETYPE
1070
   381
1005
16
1001
ACAD_DSTYLE_DIM_EXT2_LINETYPE
1070
   382
1005
16
0
ENDSEC
0
SECTION
2
OBJECTS
0
DICTIONARY
5
1ea
330
0
100
AcDbDictionary
280
0
281
1
3
ACAD_GROUP
350
1eb
3
ACAD_MLINESTYLE
350
1ec
0
DICTIONARY
5
1eb
330
0
100
AcDbDictionary
280
0
281
1
0
DICTIONARY
5
1ec
330
0
100
AcDbDictionary
280
0
281
1
3
Standard
350
18
0
MLINESTYLE
5
18
330
1ec
100
AcDbMlineStyle
2
Standard
70
0
3

62
256
51
90
52
90
71
2
49
-0.5
62
256
6
ByLayer
49
0.5
62
256
6
ByLayer
0
RASTERVARIABLES
5
1d8
330

100
AcDbRasterVariables
90
0
70
1
71
1
72
1
0
ENDSEC
0
EOF
