0
SECTION
2
HEADER
9
$ACADVER
1
AC1015
9
$DWGCODEPAGE
3
ANSI_1252
9
$HANDSEED
5
1f5
9
$ANGBASE
50
0
9
$ANGDIR
70
0
9
$ATTMODE
70
1
9
$AUNITS
70
0
9
$AUPREC
70
0
9
$CECOLOR
62
256
9
$CELTSCALE
40
1
9
$CELTYPE
6
ByLayer
9
$CELWEIGHT
370
18
9
$CLAYER
8
0
9
$CMLJUST
70
0
9
$CMLSCALE
40
1
9
$CMLSTYLE
2
Standard
9
$DIMSTYLE
2
Standard
9
$TEXTSIZE
40
0.2
9
$TEXTSTYLE
7
Standard
9
$LUNITS
70
2
9
$LUPREC
70
4
9
$EXTNAMES
290
1
9
$INSUNITS
70
4
9
$LTSCALE
40
1
9
$LWDISPLAY
290
1
9
$PDMODE
70
0
9
$PDSIZE
40
0
9
$PLINEGEN
70
0
0
ENDSEC
0
SECTION
2
CLASSES
0
CLASS
1
RASTERVARIABLES
2
AcDbRasterVariables
3
ISM
90
0
280
0
281
0
0
ENDSEC
0
SECTION
2
TABLES
0
TABLE
2
VPORT
5
1eb
100
AcDbSymbolTable
0
VPORT
5
1
100
AcDbSymbolTableRecord
100
AcDbViewportTableRecord
2
*Active
70
0
10
0
20
0
11
1
21
1
12
-1
22
1
13
0
23
0
14
0.5
24
0.5
15
10
25
10
16
0
26
0
36
1
17
0
27
0
37
0
0
ENDTAB
0
TABLE
2
LTYPE
5
1ec
100
AcDbSymbolTable
0
LTYPE
5
14
100
AcDbSymbolTableRecord
100
AcDbLinetypeTableRecord
70
0
2
ByBlock
3

72
65
73
0
40
0
0
LTYPE
5
15
100
AcDbSymbolTableRecord
100
AcDbLinetypeTableRecord
70
0
2
ByLayer
3

72
65
73
0
40
0
0
LTYPE
5
16
100
AcDbSymbolTableRecord
100
AcDbLinetypeTableRecord
70
0
2
Continuous
3
Solid line
72
65
73
0
40
0
0
LTYPE
5
6E
100
AcDbSymbolTableRecord
100
AcDbLinetypeTableRecord
70
0
2
CENTER
3
____ _ ____ _ ____ _ ____
72
65
73
4
40
47.5
49
22
74
0
49
-8.5
74
0
49
8.5
74
0
49
-8.5
74
0
0
LTYPE
5
6F
100
AcDbSymbolTableRecord
100
AcDbLinetypeTableRecord
70
0
2
DASHED
3
__ __ __ __ __ __ __ __ __
72
65
73
2
40
25.72
49
12.86
74
0
49
-12.86
74
0
0
ENDTAB
0
TABLE
2
LAYER
5
1ed
100
AcDbSymbolTable
0
LAYER
5
10
100
AcDbSymbolTableRecord
100
AcDbLayerTableRecord
2
0
70
0
62
7
6
Continuous
290
1
370
-3
390
0
0
LAYER
5
71
100
AcDbSymbolTableRecord
100
AcDbLayerTableRecord
2
80
70
0
62
-6
6
Continuous
290
1
370
-3
390
0
0
LAYER
5
73
100
AcDbSymbolTableRecord
100
AcDbLayerTableRecord
2
81
70
0
62
-3
6
Continuous
290
1
370
-3
390
0
0
LAYER
5
75
100
AcDbSymbolTableRecord
100
AcDbLayerTableRecord
2
1
70
0
62
4
6
Continuous
290
1
370
-3
390
0
0
LAYER
5
85
100
AcDbSymbolTableRecord
100
AcDbLayerTableRecord
2
4
70
0
62
-2
6
CENTER
290
1
370
-3
390
0
0
LAYER
5
A0
100
AcDbSymbolTableRecord
100
AcDbLayerTableRecord
2
2
70
0
62
7
6
Continuous
290
1
370
-3
390
0
0
LAYER
5
100
100
AcDbSymbolTableRecord
100
AcDbLayerTableRecord
2
Defpoints
70
0
62
7
6
Continuous
290
0
370
-3
390
0
0
LAYER
5
1d7
100
AcDbSymbolTableRecord
100
AcDbLayerTableRecord
2
SK1
70
0
62
4
6
Continuous
290
1
370
-3
390
0
0
LAYER
5
1d8
100
AcDbSymbolTableRecord
100
AcDbLayerTableRecord
2
SK4
70
0
62
2
6
CENTER
290
1
370
-3
390
0
0
LAYER
5
1d9
100
AcDbSymbolTableRecord
100
AcDbLayerTableRecord
2
SK2
70
0
62
7
6
Continuous
290
1
370
-3
390
0
0
LAYER
5
1da
100
AcDbSymbolTableRecord
100
AcDbLayerTableRecord
2
SK6
70
0
62
5
6
Continuous
290
1
370
-3
390
0
0
ENDTAB
0
TABLE
2
STYLE
5
1ee
100
AcDbSymbolTable
0
STYLE
5
11
100
AcDbSymbolTableRecord
100
AcDbTextStyleTableRecord
2
Standard
3
txt
70
0
71
0
40
0
41
1
42
0
50
0
0
STYLE
5
E5
100
AcDbSymbolTableRecord
100
AcDbTextStyleTableRecord
2
iso_b_vert
3
simplex.shx
70
0
71
0
40
0
41
1
42
0
50
0
0
STYLE
5
E6
100
AcDbSymbolTableRecord
100
AcDbTextStyleTableRecord
2
DWGDirectTextStyle
3
simplex
70
0
71
0
40
0
41
1
42
0
50
0
0
ENDTAB
0
TABLE
2
DIMSTYLE
5
1ef
100
AcDbSymbolTable
100
AcDbDimStyleTable
0
DIMSTYLE
105
27
100
AcDbSymbolTableRecord
100
AcDbDimStyleTableRecord
2
Standard
70
0
3
<>
41
0.18
42
0.0625
44
0.18
140
0.18
147
0.09
73
0
74
0
77
1
271
2
275
0
278
52
280
0
340
11
0
ENDTAB
0
TABLE
2
VIEW
5
1f0
100
AcDbSymbolTable
0
ENDTAB
0
TABLE
2
UCS
5
1f1
100
AcDbSymbolTable
0
ENDTAB
0
TABLE
2
APPID
5
1f2
100
AcDbSymbolTable
0
APPID
5
12
100
AcDbSymbolTableRecord
100
AcDbRegAppTableRecord
2
ACAD
70
0
0
APPID
5
FC
100
AcDbSymbolTableRecord
100
AcDbRegAppTableRecord
2
ACAD_DSTYLE_DIMBREAK
70
0
0
APPID
5
196
100
AcDbSymbolTableRecord
100
AcDbRegAppTableRecord
2
ACAD_DSTYLE_DIM_LINETYPE
70
0
0
APPID
5
197
100
AcDbSymbolTableRecord
100
AcDbRegAppTableRecord
2
ACAD_DSTYLE_DIM_EXT1_LINETYPE
70
0
0
APPID
5
198
100
AcDbSymbolTableRecord
100
AcDbRegAppTableRecord
2
ACAD_DSTYLE_DIM_EXT2_LINETYPE
70
0
0
APPID
5
1D3
100
AcDbSymbolTableRecord
100
AcDbRegAppTableRecord
2
ACAD_MLEADERVER
70
0
0
ENDTAB
0
TABLE
2
BLOCK_RECORD
5
1f3
100
AcDbSymbolTable
0
BLOCK_RECORD
5
1F
100
AcDbSymbolTableRecord
100
AcDbBlockTableRecord
2
*Model_Space
340
0
70
0
0
BLOCK_RECORD
5
1B
100
AcDbSymbolTableRecord
100
AcDbBlockTableRecord
2
*Paper_Space
340
0
70
0
0
BLOCK_RECORD
5
23
100
AcDbSymbolTableRecord
100
AcDbBlockTableRecord
2
*Paper_Space0
340
0
70
0
0
BLOCK_RECORD
5
101
100
AcDbSymbolTableRecord
100
AcDbBlockTableRecord
2
*D1
340
0
70
0
0
BLOCK_RECORD
5
10D
100
AcDbSymbolTableRecord
100
AcDbBlockTableRecord
2
_U0
340
0
70
0
0
BLOCK_RECORD
5
119
100
AcDbSymbolTableRecord
100
AcDbBlockTableRecord
2
*D3
340
0
70
0
0
BLOCK_RECORD
5
125
100
AcDbSymbolTableRecord
100
AcDbBlockTableRecord
2
_U1
340
0
70
0
0
BLOCK_RECORD
5
131
100
AcDbSymbolTableRecord
100
AcDbBlockTableRecord
2
*D5
340
0
70
0
0
BLOCK_RECORD
5
13D
100
AcDbSymbolTableRecord
100
AcDbBlockTableRecord
2
_U2
340
0
70
0
0
BLOCK_RECORD
5
149
100
AcDbSymbolTableRecord
100
AcDbBlockTableRecord
2
*D7
340
0
70
0
0
BLOCK_RECORD
5
157
100
AcDbSymbolTableRecord
100
AcDbBlockTableRecord
2
_U3
340
0
70
0
0
BLOCK_RECORD
5
163
100
AcDbSymbolTableRecord
100
AcDbBlockTableRecord
2
*D9
340
0
70
0
0
BLOCK_RECORD
5
16F
100
AcDbSymbolTableRecord
100
AcDbBlockTableRecord
2
_U4
340
0
70
0
0
ENDTAB
0
ENDSEC
0
SECTION
2
BLOCKS
0
BLOCK
5
20
100
AcDbEntity
8
0
100
AcDbBlockBegin
2
*Model_Space
70
0
10
0
20
0
30
0
3
*Model_Space
0
ENDBLK
5
21
100
AcDbEntity
8
0
100
AcDbBlockEnd
0
BLOCK
5
1C
100
AcDbEntity
8
0
100
AcDbBlockBegin
2
*Paper_Space
70
0
10
0
20
0
30
0
3
*Paper_Space
0
ENDBLK
5
1D
100
AcDbEntity
8
0
100
AcDbBlockEnd
0
BLOCK
5
24
100
AcDbEntity
8
0
100
AcDbBlockBegin
2
*Paper_Space0
70
0
10
0
20
0
30
0
3
*Paper_Space0
0
ENDBLK
5
25
100
AcDbEntity
8
0
100
AcDbBlockEnd
0
BLOCK
5
102
100
AcDbEntity
8
0
100
AcDbBlockBegin
2
*D1
70
1
10
0
20
0
30
0
3
*D1
0
LINE
5
104
100
AcDbEntity
8
0
62
256
6
ByLayer
370
-2
48
1
60
0
100
AcDbLine
10
0
20
-1.5875
30
0
11
0
21
-17.213398
31
0
39
0
210
0
220
0
230
1
0
LINE
5
105
100
AcDbEntity
8
0
62
256
6
ByLayer
370
-2
48
1
60
0
100
AcDbLine
10
61.516
20
-6.5875
30
0
11
61.516
21
-17.213398
31
0
39
0
210
0
220
0
230
1
0
LINE
5
106
100
AcDbEntity
8
0
62
256
6
ByLayer
370
-2
48
1
60
0
100
AcDbLine
10
3.5
20
-15.213398
30
0
11
58.016
21
-15.213398
31
0
39
0
210
0
220
0
230
1
0
SOLID
5
107
100
AcDbEntity
8
0
62
256
6
ByLayer
370
-1
48
1
60
0
100
AcDbTrace
10
3.5
20
-14.630065
30
0
11
3.5
21
-15.796732
31
0
12
0
22
-15.213398
32
0
13
0
23
-15.213398
33
0
39
0
210
0
220
0
230
1
0
SOLID
5
108
100
AcDbEntity
8
0
62
256
6
ByLayer
370
-1
48
1
60
0
100
AcDbTrace
10
58.016
20
-15.796732
30
0
11
58.016
21
-14.630065
31
0
12
61.516
22
-15.213398
32
0
13
61.516
23
-15.213398
33
0
39
0
210
0
220
0
230
1
0
MTEXT
5
109
100
AcDbEntity
8
0
62
256
6
ByLayer
370
18
48
1
60
0
100
AcDbMText
10
30.758
20
-8.213398
30
0
210
0
220
0
230
1
1
\A1;61.52
40
3.5
41
0
44
1
50
0
71
5
72
5
7
iso_b_vert
0
POINT
5
10A
100
AcDbEntity
8
Defpoints
62
0
6
ByLayer
370
-1
48
1
60
0
100
AcDbPoint
10
0
20
0
30
0
39
0
210
0
220
0
230
1
50
360
0
POINT
5
10B
100
AcDbEntity
8
Defpoints
62
0
6
ByLayer
370
-1
48
1
60
0
100
AcDbPoint
10
61.516
20
-5
30
0
39
0
210
0
220
0
230
1
50
360
0
POINT
5
10C
100
AcDbEntity
8
Defpoints
62
0
6
ByLayer
370
-1
48
1
60
0
100
AcDbPoint
10
61.516
20
-15.213398
30
0
39
0
210
0
220
0
230
1
50
360
0
ENDBLK
5
103
100
AcDbEntity
8
0
100
AcDbBlockEnd
0
BLOCK
5
114
100
AcDbEntity
8
0
100
AcDbBlockBegin
2
_U0
70
0
10
0
20
0
30
0
3
_U0
0
MTEXT
5
10E
100
AcDbEntity
8
SK2
62
256
6
ByLayer
370
13
48
1
60
0
100
AcDbMText
10
26.058135
20
-14.180765
30
0
210
0
220
0
230
1
1
\W0.6713;61,52
40
3.5
41
0
44
1.084337
50
0
71
7
72
5
7
iso_b_vert
0
LINE
5
10F
100
AcDbEntity
8
SK2
62
256
6
ByLayer
370
13
48
1
60
0
100
AcDbLine
10
0
20
-1.5875
30
0
11
0
21
-17.213398
31
0
39
0
210
0
220
0
230
1
0
LINE
5
110
100
AcDbEntity
8
SK2
62
256
6
ByLayer
370
13
48
1
60
0
100
AcDbLine
10
61.516
20
-6.5875
30
0
11
61.516
21
-17.213398
31
0
39
0
210
0
220
0
230
1
0
LINE
5
111
100
AcDbEntity
8
SK2
62
256
6
ByLayer
370
13
48
1
60
0
100
AcDbLine
10
0
20
-15.213398
30
0
11
61.516
21
-15.213398
31
0
39
0
210
0
220
0
230
1
0
SOLID
5
112
100
AcDbEntity
8
SK2
62
256
6
ByLayer
370
18
48
1
60
0
100
AcDbTrace
10
0
20
-15.213398
30
0
11
3.499998
21
-14.752615
31
0
12
3.500002
22
-15.674182
32
0
13
3.500002
23
-15.674182
33
0
39
0
210
0
220
0
230
1
0
SOLID
5
113
100
AcDbEntity
8
SK2
62
256
6
ByLayer
370
18
48
1
60
0
100
AcDbTrace
10
61.516
20
-15.213398
30
0
11
58.016002
21
-15.674182
31
0
12
58.015998
22
-14.752615
32
0
13
58.015998
23
-14.752615
33
0
39
0
210
0
220
0
230
1
0
ENDBLK
5
115
100
AcDbEntity
8
0
100
AcDbBlockEnd
0
BLOCK
5
11A
100
AcDbEntity
8
0
100
AcDbBlockBegin
2
*D3
70
1
10
0
20
0
30
0
3
*D3
0
LINE
5
11C
100
AcDbEntity
8
0
62
256
6
ByLayer
370
-2
48
1
60
0
100
AcDbLine
10
-40
20
-6.5875
30
0
11
-40
21
-35.692985
31
0
39
0
210
0
220
0
230
1
0
LINE
5
11D
100
AcDbEntity
8
0
62
256
6
ByLayer
370
-2
48
1
60
0
100
AcDbLine
10
63
20
-1.5875
30
0
11
63
21
-35.692985
31
0
39
0
210
0
220
0
230
1
0
LINE
5
11E
100
AcDbEntity
8
0
62
256
6
ByLayer
370
-2
48
1
60
0
100
AcDbLine
10
-36.5
20
-33.692985
30
0
11
59.5
21
-33.692985
31
0
39
0
210
0
220
0
230
1
0
SOLID
5
11F
100
AcDbEntity
8
0
62
256
6
ByLayer
370
-1
48
1
60
0
100
AcDbTrace
10
-36.5
20
-33.109652
30
0
11
-36.5
21
-34.276319
31
0
12
-40
22
-33.692985
32
0
13
-40
23
-33.692985
33
0
39
0
210
0
220
0
230
1
0
SOLID
5
120
100
AcDbEntity
8
0
62
256
6
ByLayer
370
-1
48
1
60
0
100
AcDbTrace
10
59.5
20
-34.276319
30
0
11
59.5
21
-33.109652
31
0
12
63
22
-33.692985
32
0
13
63
23
-33.692985
33
0
39
0
210
0
220
0
230
1
0
MTEXT
5
121
100
AcDbEntity
8
0
62
256
6
ByLayer
370
18
48
1
60
0
100
AcDbMText
10
11.5
20
-26.692985
30
0
210
0
220
0
230
1
1
\A1;103.00
40
3.5
41
0
44
1
50
0
71
5
72
5
7
iso_b_vert
0
POINT
5
122
100
AcDbEntity
8
Defpoints
62
0
6
ByLayer
370
-1
48
1
60
0
100
AcDbPoint
10
-40
20
-5
30
0
39
0
210
0
220
0
230
1
50
360
0
POINT
5
123
100
AcDbEntity
8
Defpoints
62
0
6
ByLayer
370
-1
48
1
60
0
100
AcDbPoint
10
63
20
0
30
0
39
0
210
0
220
0
230
1
50
360
0
POINT
5
124
100
AcDbEntity
8
Defpoints
62
0
6
ByLayer
370
-1
48
1
60
0
100
AcDbPoint
10
63
20
-33.692985
30
0
39
0
210
0
220
0
230
1
50
360
0
ENDBLK
5
11B
100
AcDbEntity
8
0
100
AcDbBlockEnd
0
BLOCK
5
12C
100
AcDbEntity
8
0
100
AcDbBlockBegin
2
_U1
70
0
10
0
20
0
30
0
3
_U1
0
MTEXT
5
126
100
AcDbEntity
8
SK2
62
256
6
ByLayer
370
13
48
1
60
0
100
AcDbMText
10
5.492401
20
-32.660352
30
0
210
0
220
0
230
1
1
\W0.6930;103,00
40
3.5
41
0
44
1.084337
50
0
71
7
72
5
7
iso_b_vert
0
LINE
5
127
100
AcDbEntity
8
SK2
62
256
6
ByLayer
370
13
48
1
60
0
100
AcDbLine
10
-40
20
-6.5875
30
0
11
-40
21
-35.692985
31
0
39
0
210
0
220
0
230
1
0
LINE
5
128
100
AcDbEntity
8
SK2
62
256
6
ByLayer
370
13
48
1
60
0
100
AcDbLine
10
63
20
-1.5875
30
0
11
63
21
-35.692985
31
0
39
0
210
0
220
0
230
1
0
LINE
5
129
100
AcDbEntity
8
SK2
62
256
6
ByLayer
370
13
48
1
60
0
100
AcDbLine
10
-40
20
-33.692985
30
0
11
63
21
-33.692985
31
0
39
0
210
0
220
0
230
1
0
SOLID
5
12A
100
AcDbEntity
8
SK2
62
256
6
ByLayer
370
18
48
1
60
0
100
AcDbTrace
10
-40
20
-33.692985
30
0
11
-36.500002
21
-33.232202
31
0
12
-36.499998
22
-34.153769
32
0
13
-36.499998
23
-34.153769
33
0
39
0
210
0
220
0
230
1
0
SOLID
5
12B
100
AcDbEntity
8
SK2
62
256
6
ByLayer
370
18
48
1
60
0
100
AcDbTrace
10
63
20
-33.692985
30
0
11
59.500002
21
-34.153769
31
0
12
59.499998
22
-33.232202
32
0
13
59.499998
23
-33.232202
33
0
39
0
210
0
220
0
230
1
0
ENDBLK
5
12D
100
AcDbEntity
8
0
100
AcDbBlockEnd
0
BLOCK
5
132
100
AcDbEntity
8
0
100
AcDbBlockBegin
2
*D5
70
1
10
0
20
0
30
0
3
*D5
0
LINE
5
134
100
AcDbEntity
8
0
62
256
6
ByLayer
370
-2
48
1
60
0
100
AcDbLine
10
15
20
6.5875
30
0
11
15
21
18.609119
31
0
39
0
210
0
220
0
230
1
0
LINE
5
135
100
AcDbEntity
8
0
62
256
6
ByLayer
370
-2
48
1
60
0
100
AcDbLine
10
63
20
1.5875
30
0
11
63
21
18.609119
31
0
39
0
210
0
220
0
230
1
0
LINE
5
136
100
AcDbEntity
8
0
62
256
6
ByLayer
370
-2
48
1
60
0
100
AcDbLine
10
18.5
20
16.609119
30
0
11
59.5
21
16.609119
31
0
39
0
210
0
220
0
230
1
0
SOLID
5
137
100
AcDbEntity
8
0
62
256
6
ByLayer
370
-1
48
1
60
0
100
AcDbTrace
10
18.5
20
17.192453
30
0
11
18.5
21
16.025786
31
0
12
15
22
16.609119
32
0
13
15
23
16.609119
33
0
39
0
210
0
220
0
230
1
0
SOLID
5
138
100
AcDbEntity
8
0
62
256
6
ByLayer
370
-1
48
1
60
0
100
AcDbTrace
10
59.5
20
16.025786
30
0
11
59.5
21
17.192453
31
0
12
63
22
16.609119
32
0
13
63
23
16.609119
33
0
39
0
210
0
220
0
230
1
0
MTEXT
5
139
100
AcDbEntity
8
0
62
256
6
ByLayer
370
18
48
1
60
0
100
AcDbMText
10
39
20
23.609119
30
0
210
0
220
0
230
1
1
\A1;48.00
40
3.5
41
0
44
1
50
0
71
5
72
5
7
iso_b_vert
0
POINT
5
13A
100
AcDbEntity
8
Defpoints
62
0
6
ByLayer
370
-1
48
1
60
0
100
AcDbPoint
10
15
20
5
30
0
39
0
210
0
220
0
230
1
50
360
0
POINT
5
13B
100
AcDbEntity
8
Defpoints
62
0
6
ByLayer
370
-1
48
1
60
0
100
AcDbPoint
10
63
20
0
30
0
39
0
210
0
220
0
230
1
50
360
0
POINT
5
13C
100
AcDbEntity
8
Defpoints
62
0
6
ByLayer
370
-1
48
1
60
0
100
AcDbPoint
10
63
20
16.609119
30
0
39
0
210
0
220
0
230
1
50
360
0
ENDBLK
5
133
100
AcDbEntity
8
0
100
AcDbBlockEnd
0
BLOCK
5
144
100
AcDbEntity
8
0
100
AcDbBlockBegin
2
_U2
70
0
10
0
20
0
30
0
3
_U2
0
MTEXT
5
13E
100
AcDbEntity
8
SK2
62
256
6
ByLayer
370
13
48
1
60
0
100
AcDbMText
10
33.678435
20
17.641753
30
0
210
0
220
0
230
1
1
\W0.7581;48,00
40
3.5
41
0
44
1.084337
50
0
71
7
72
5
7
iso_b_vert
0
LINE
5
13F
100
AcDbEntity
8
SK2
62
256
6
ByLayer
370
13
48
1
60
0
100
AcDbLine
10
15
20
6.5875
30
0
11
15
21
18.609119
31
0
39
0
210
0
220
0
230
1
0
LINE
5
140
100
AcDbEntity
8
SK2
62
256
6
ByLayer
370
13
48
1
60
0
100
AcDbLine
10
63
20
1.5875
30
0
11
63
21
18.609119
31
0
39
0
210
0
220
0
230
1
0
LINE
5
141
100
AcDbEntity
8
SK2
62
256
6
ByLayer
370
13
48
1
60
0
100
AcDbLine
10
15
20
16.609119
30
0
11
63
21
16.609119
31
0
39
0
210
0
220
0
230
1
0
SOLID
5
142
100
AcDbEntity
8
SK2
62
256
6
ByLayer
370
18
48
1
60
0
100
AcDbTrace
10
15
20
16.609119
30
0
11
18.499998
21
17.069903
31
0
12
18.500002
22
16.148335
32
0
13
18.500002
23
16.148335
33
0
39
0
210
0
220
0
230
1
0
SOLID
5
143
100
AcDbEntity
8
SK2
62
256
6
ByLayer
370
18
48
1
60
0
100
AcDbTrace
10
63
20
16.609119
30
0
11
59.500002
21
16.148335
31
0
12
59.499998
22
17.069903
32
0
13
59.499998
23
17.069903
33
0
39
0
210
0
220
0
230
1
0
ENDBLK
5
145
100
AcDbEntity
8
0
100
AcDbBlockEnd
0
BLOCK
5
14A
100
AcDbEntity
8
0
100
AcDbBlockBegin
2
*D7
70
1
10
0
20
0
30
0
3
*D7
0
LINE
5
14C
100
AcDbEntity
8
0
62
256
6
ByLayer
370
-2
48
1
60
0
100
AcDbLine
10
63
20
-1.5875
30
0
11
63
21
-19.802503
31
0
39
0
210
0
220
0
230
1
0
LINE
5
14D
100
AcDbEntity
8
0
62
256
6
ByLayer
370
-2
48
1
60
0
100
AcDbLine
10
61.516
20
-6.5875
30
0
11
61.516
21
-19.802503
31
0
39
0
210
0
220
0
230
1
0
LINE
5
14E
100
AcDbEntity
8
0
62
256
6
ByLayer
370
-2
48
1
60
0
100
AcDbLine
10
63
20
-17.802503
30
0
11
90.666667
21
-17.802503
31
0
39
0
210
0
220
0
230
1
0
LINE
5
14F
100
AcDbEntity
8
0
62
256
6
ByLayer
370
-2
48
1
60
0
100
AcDbLine
10
66.5
20
-17.802503
30
0
11
70
21
-17.802503
31
0
39
0
210
0
220
0
230
1
0
LINE
5
150
100
AcDbEntity
8
0
62
256
6
ByLayer
370
-2
48
1
60
0
100
AcDbLine
10
58.016
20
-17.802503
30
0
11
54.516
21
-17.802503
31
0
39
0
210
0
220
0
230
1
0
SOLID
5
151
100
AcDbEntity
8
0
62
256
6
ByLayer
370
-1
48
1
60
0
100
AcDbTrace
10
66.5
20
-17.21917
30
0
11
66.5
21
-18.385837
31
0
12
63
22
-17.802503
32
0
13
63
23
-17.802503
33
0
39
0
210
0
220
0
230
1
0
SOLID
5
152
100
AcDbEntity
8
0
62
256
6
ByLayer
370
-1
48
1
60
0
100
AcDbTrace
10
58.016
20
-18.385837
30
0
11
58.016
21
-17.21917
31
0
12
61.516
22
-17.802503
32
0
13
61.516
23
-17.802503
33
0
39
0
210
0
220
0
230
1
0
MTEXT
5
153
100
AcDbEntity
8
0
62
256
6
ByLayer
370
18
48
1
60
0
100
AcDbMText
10
80.333333
20
-10.802503
30
0
210
0
220
0
230
1
1
\A1;1.48
40
3.5
41
0
44
1
50
0
71
5
72
5
7
iso_b_vert
0
POINT
5
154
100
AcDbEntity
8
Defpoints
62
0
6
ByLayer
370
-1
48
1
60
0
100
AcDbPoint
10
63
20
0
30
0
39
0
210
0
220
0
230
1
50
360
0
POINT
5
155
100
AcDbEntity
8
Defpoints
62
0
6
ByLayer
370
-1
48
1
60
0
100
AcDbPoint
10
61.516
20
-5
30
0
39
0
210
0
220
0
230
1
50
360
0
POINT
5
156
100
AcDbEntity
8
Defpoints
62
0
6
ByLayer
370
-1
48
1
60
0
100
AcDbPoint
10
61.516
20
-17.802503
30
0
39
0
210
0
220
0
230
1
50
360
0
ENDBLK
5
14B
100
AcDbEntity
8
0
100
AcDbBlockEnd
0
BLOCK
5
15E
100
AcDbEntity
8
0
100
AcDbBlockBegin
2
_U3
70
0
10
0
20
0
30
0
3
_U3
0
MTEXT
5
158
100
AcDbEntity
8
SK2
62
256
6
ByLayer
370
13
48
1
60
0
100
AcDbMText
10
69.405026
20
-16.76987
30
0
210
0
220
0
230
1
1
\W0.6709;1,48
40
3.5
41
0
44
1.084337
50
0
71
7
72
5
7
iso_b_vert
0
LINE
5
159
100
AcDbEntity
8
SK2
62
256
6
ByLayer
370
13
48
1
60
0
100
AcDbLine
10
63
20
-1.5875
30
0
11
63
21
-19.802503
31
0
39
0
210
0
220
0
230
1
0
LINE
5
15A
100
AcDbEntity
8
SK2
62
256
6
ByLayer
370
13
48
1
60
0
100
AcDbLine
10
61.516
20
-6.5875
30
0
11
61.516
21
-19.802503
31
0
39
0
210
0
220
0
230
1
0
LINE
5
15B
100
AcDbEntity
8
SK2
62
256
6
ByLayer
370
13
48
1
60
0
100
AcDbLine
10
52.766
20
-17.802503
30
0
11
76.743324
21
-17.802503
31
0
39
0
210
0
220
0
230
1
0
SOLID
5
15C
100
AcDbEntity
8
SK2
62
256
6
ByLayer
370
18
48
1
60
0
100
AcDbTrace
10
63
20
-17.802503
30
0
11
66.499998
21
-17.341719
31
0
12
66.500002
22
-18.263287
32
0
13
66.500002
23
-18.263287
33
0
39
0
210
0
220
0
230
1
0
SOLID
5
15D
100
AcDbEntity
8
SK2
62
256
6
ByLayer
370
18
48
1
60
0
100
AcDbTrace
10
61.516
20
-17.802503
30
0
11
58.016002
21
-18.263287
31
0
12
58.015998
22
-17.341719
32
0
13
58.015998
23
-17.341719
33
0
39
0
210
0
220
0
230
1
0
ENDBLK
5
15F
100
AcDbEntity
8
0
100
AcDbBlockEnd
0
BLOCK
5
164
100
AcDbEntity
8
0
100
AcDbBlockBegin
2
*D9
70
1
10
0
20
0
30
0
3
*D9
0
LINE
5
166
100
AcDbEntity
8
0
62
256
6
ByLayer
370
-2
48
1
60
0
100
AcDbLine
10
-40
20
-6.5875
30
0
11
-40
21
-25.343428
31
0
39
0
210
0
220
0
230
1
0
LINE
5
167
100
AcDbEntity
8
0
62
256
6
ByLayer
370
-2
48
1
60
0
100
AcDbLine
10
61.516
20
-6.5875
30
0
11
61.516
21
-25.343428
31
0
39
0
210
0
220
0
230
1
0
LINE
5
168
100
AcDbEntity
8
0
62
256
6
ByLayer
370
-2
48
1
60
0
100
AcDbLine
10
-36.5
20
-23.343428
30
0
11
58.016
21
-23.343428
31
0
39
0
210
0
220
0
230
1
0
SOLID
5
169
100
AcDbEntity
8
0
62
256
6
ByLayer
370
-1
48
1
60
0
100
AcDbTrace
10
-36.5
20
-22.760095
30
0
11
-36.5
21
-23.926762
31
0
12
-40
22
-23.343428
32
0
13
-40
23
-23.343428
33
0
39
0
210
0
220
0
230
1
0
SOLID
5
16A
100
AcDbEntity
8
0
62
256
6
ByLayer
370
-1
48
1
60
0
100
AcDbTrace
10
58.016
20
-23.926762
30
0
11
58.016
21
-22.760095
31
0
12
61.516
22
-23.343428
32
0
13
61.516
23
-23.343428
33
0
39
0
210
0
220
0
230
1
0
MTEXT
5
16B
100
AcDbEntity
8
0
62
256
6
ByLayer
370
18
48
1
60
0
100
AcDbMText
10
10.758
20
-16.343428
30
0
210
0
220
0
230
1
1
\A1;101.52
40
3.5
41
0
44
1
50
0
71
5
72
5
7
iso_b_vert
0
POINT
5
16C
100
AcDbEntity
8
Defpoints
62
0
6
ByLayer
370
-1
48
1
60
0
100
AcDbPoint
10
-40
20
-5
30
0
39
0
210
0
220
0
230
1
50
360
0
POINT
5
16D
100
AcDbEntity
8
Defpoints
62
0
6
ByLayer
370
-1
48
1
60
0
100
AcDbPoint
10
61.516
20
-5
30
0
39
0
210
0
220
0
230
1
50
360
0
POINT
5
16E
100
AcDbEntity
8
Defpoints
62
0
6
ByLayer
370
-1
48
1
60
0
100
AcDbPoint
10
61.516
20
-23.343428
30
0
39
0
210
0
220
0
230
1
50
360
0
ENDBLK
5
165
100
AcDbEntity
8
0
100
AcDbBlockEnd
0
BLOCK
5
176
100
AcDbEntity
8
0
100
AcDbBlockBegin
2
_U4
70
0
10
0
20
0
30
0
3
_U4
0
MTEXT
5
170
100
AcDbEntity
8
SK2
62
256
6
ByLayer
370
13
48
1
60
0
100
AcDbMText
10
5.187835
20
-22.310795
30
0
210
0
220
0
230
1
1
\W0.6440;101,52
40
3.5
41
0
44
1.084337
50
0
71
7
72
5
7
iso_b_vert
0
LINE
5
171
100
AcDbEntity
8
SK2
62
256
6
ByLayer
370
13
48
1
60
0
100
AcDbLine
10
-40
20
-6.5875
30
0
11
-40
21
-25.343428
31
0
39
0
210
0
220
0
230
1
0
LINE
5
172
100
AcDbEntity
8
SK2
62
256
6
ByLayer
370
13
48
1
60
0
100
AcDbLine
10
61.516
20
-6.5875
30
0
11
61.516
21
-25.343428
31
0
39
0
210
0
220
0
230
1
0
LINE
5
173
100
AcDbEntity
8
SK2
62
256
6
ByLayer
370
13
48
1
60
0
100
AcDbLine
10
-40
20
-23.343428
30
0
11
61.516
21
-23.343428
31
0
39
0
210
0
220
0
230
1
0
SOLID
5
174
100
AcDbEntity
8
SK2
62
256
6
ByLayer
370
18
48
1
60
0
100
AcDbTrace
10
-40
20
-23.343428
30
0
11
-36.500002
21
-22.882645
31
0
12
-36.499998
22
-23.804212
32
0
13
-36.499998
23
-23.804212
33
0
39
0
210
0
220
0
230
1
0
SOLID
5
175
100
AcDbEntity
8
SK2
62
256
6
ByLayer
370
18
48
1
60
0
100
AcDbTrace
10
61.516
20
-23.343428
30
0
11
58.016002
21
-23.804212
31
0
12
58.015998
22
-22.882645
32
0
13
58.015998
23
-22.882645
33
0
39
0
210
0
220
0
230
1
0
ENDBLK
5
177
100
AcDbEntity
8
0
100
AcDbBlockEnd
0
ENDSEC
0
SECTION
2
ENTITIES
0
ELLIPSE
5
A9
100
AcDbEntity
8
1
62
256
6
ByLayer
370
13
48
1
60
0
100
AcDbEllipse
10
4.176875
20
-4.633076
30
0
11
-0.0354495305826525
21
0.0935057794014337
31
0
210
0
220
0
230
1
40
0.539149
41
0.299611527417538
42
1.6162749559938
0
ELLIPSE
5
AA
100
AcDbEntity
8
1
62
256
6
ByLayer
370
13
48
1
60
0
100
AcDbEllipse
10
4.250193
20
-4.626181
30
0
11
0.015325740665724
21
0.09881863019212
31
0
210
0
220
0
230
1
40
0.466756
41
0.318139451816663
42
1.87362101355229
0
POINT
5
70
100
AcDbEntity
8
80
62
256
6
ByLayer
370
18
48
1
60
0
100
AcDbPoint
10
0
20
0
30
0
39
0
210
0
220
0
230
1
50
360
0
POINT
5
72
100
AcDbEntity
8
81
62
256
6
ByLayer
370
18
48
1
60
0
100
AcDbPoint
10
63
20
0
30
0
39
0
210
0
220
0
230
1
50
360
0
POINT
5
74
100
AcDbEntity
8
1
62
256
6
ByLayer
370
18
48
1
60
1
100
AcDbPoint
10
61.516
20
-5
30
0
39
0
210
0
220
0
230
1
50
360
0
POINT
5
76
100
AcDbEntity
8
1
62
256
6
ByLayer
370
18
48
1
60
1
100
AcDbPoint
10
-40
20
-5
30
0
39
0
210
0
220
0
230
1
50
360
0
POINT
5
77
100
AcDbEntity
8
1
62
256
6
ByLayer
370
18
48
1
60
1
100
AcDbPoint
10
15
20
5
30
0
39
0
210
0
220
0
230
1
50
360
0
POINT
5
78
100
AcDbEntity
8
1
62
256
6
ByLayer
370
18
48
1
60
1
100
AcDbPoint
10
61.516
20
-5
30
0
39
0
210
0
220
0
230
1
50
360
0
POINT
5
79
100
AcDbEntity
8
1
62
256
6
ByLayer
370
18
48
1
60
1
100
AcDbPoint
10
-40
20
-5
30
0
39
0
210
0
220
0
230
1
50
360
0
POINT
5
7A
100
AcDbEntity
8
1
62
256
6
ByLayer
370
18
48
1
60
1
100
AcDbPoint
10
61.516
20
-5
30
0
39
0
210
0
220
0
230
1
50
360
0
SPLINE
5
AB
100
AcDbEntity
8
1
62
256
6
ByLayer
370
18
48
1
60
0
100
AcDbSpline
70
4
71
3
72
14
73
10
40
0
40
0
40
0
40
0
40
0.25
40
0.25
40
0.5
40
0.5
40
0.75
40
0.75
40
1
40
1
40
1
40
1
41
1
10
61.2204307681932
20
1.05582270734814
30
0
41
1
10
61.2198553778424
20
1.07110073342847
30
0
41
1
10
61.2234903821645
20
1.08648928650723
30
0
41
1
10
61.2394445581079
20
1.11302241665138
30
0
41
1
10
61.2517133659301
20
1.12404024926485
30
0
41
1
10
61.279100667973
20
1.13971000592687
30
0
41
1
10
61.2944577180331
20
1.14478473552518
30
0
41
1
10
61.3253471865744
20
1.1507432818637
30
0
41
1
10
61.3411554104898
20
1.15172439456728
30
0
41
1
10
61.3569575103696
20
1.15121078733895
30
0
0
SPLINE
5
AC
100
AcDbEntity
8
1
62
256
6
ByLayer
370
18
48
1
60
0
100
AcDbSpline
70
4
71
3
72
8
73
4
40
0
40
0
40
0
40
0
40
1
40
1
40
1
40
1
41
1
10
4.00000042108184
20
-4.72022585689317
30
0
41
1
10
4.00000014258808
20
-4.72018872901074
30
0
41
1
10
4.00000000345852
20
-4.7201515969528
30
0
41
1
10
4.00000000349752
20
-4.72011446086967
30
0
0
SPLINE
5
AD
100
AcDbEntity
8
1
62
256
6
ByLayer
370
18
48
1
60
0
100
AcDbSpline
70
4
71
3
72
12
73
8
40
0
40
0
40
0
40
0
40
0.25
40
0.25
40
0.5
40
0.5
40
1
40
1
40
1
40
1
41
1
10
61.4940276592287
20
-4.86407347533225
30
0
41
1
10
61.604119970891
20
-4.54931434242857
30
0
41
1
10
61.717842002141
20
-4.23410375036462
30
0
41
1
10
61.9512660815777
20
-3.60333229491155
30
0
41
1
10
62.0705864462246
20
-3.28886527605948
30
0
41
1
10
62.434512167248
20
-2.3494347978523
30
0
41
1
10
62.6853950332855
20
-1.72698230290956
30
0
41
1
10
62.9417771314794
20
-1.10892950778236
30
0
0
SPLINE
5
AE
100
AcDbEntity
8
1
62
256
6
ByLayer
370
18
48
1
60
0
100
AcDbSpline
70
4
71
3
72
8
73
4
40
0
40
0
40
0
40
0
40
1
40
1
40
1
40
1
41
1
10
62.989550325123
20
0.117740430229531
30
0
41
1
10
62.9902034862019
20
0.0960666818524487
30
0
41
1
10
62.9941603377593
20
0.0696239248463826
30
0
41
1
10
62.9999671362314
20
0.0417724267012147
30
0
0
SPLINE
5
AF
100
AcDbEntity
8
1
62
256
6
ByLayer
370
18
48
1
60
0
100
AcDbSpline
70
4
71
3
72
38
73
34
40
0
40
0
40
0
40
0
40
0.0945181010472547
40
0.0945181010472547
40
0.155015509944709
40
0.155015509944709
40
0.215512918842163
40
0.215512918842163
40
0.336507736637071
40
0.336507736637071
40
0.457502554431979
40
0.457502554431979
40
0.517999963329433
40
0.517999963329433
40
0.54824866777816
40
0.54824866777816
40
0.563373020002524
40
0.563373020002524
40
0.570935196114705
40
0.570935196114705
40
0.574716284170796
40
0.574716284170796
40
0.578497372226887
40
0.578497372226887
40
0.699492190021796
40
0.699492190021796
40
0.75998959891925
40
0.75998959891925
40
0.820487007816705
40
0.820487007816705
40
0.941481825611614
40
0.941481825611614
40
1
40
1
40
1
40
1
41
1
10
11.8316987633545
20
3.53141188349008
30
0
41
1
10
11.8316987633545
20
3.36957035251353
30
0
41
1
10
11.8316987633545
20
3.19405901204672
30
0
41
1
10
11.8316987633545
20
2.88439834600823
30
0
41
1
10
11.8316987633544
20
2.7577852964944
30
0
41
1
10
11.8316987633544
20
2.49890400486859
30
0
41
1
10
11.8316987633545
20
2.36605017341844
30
0
41
1
10
11.8316987633545
20
1.9577960431279
30
0
41
1
10
11.8316987633545
20
1.67276159005348
30
0
41
1
10
11.8316987633545
20
1.07819581942832
30
0
41
1
10
11.8316987633545
20
0.76725504955229
30
0
41
1
10
11.8316987633545
20
0.292979718608507
30
0
41
1
10
11.8316987633545
20
0.133227970649614
30
0
41
1
10
11.8316987633545
20
-0.10885690652529
30
0
41
1
10
11.8316987633545
20
-0.189978607432977
30
0
41
1
10
11.8316987633545
20
-0.312011108780752
30
0
41
1
10
11.8316987633545
20
-0.352757495748278
30
0
41
1
10
11.8316987633545
20
-0.413980064426511
30
0
41
1
10
11.8316987633545
20
-0.434333126834815
30
0
41
1
10
11.8316987633545
20
-0.46530155713927
30
0
41
1
10
11.8316987633545
20
-0.475869022090222
30
0
41
1
10
11.8316987633545
20
-0.496139501849285
30
0
41
1
10
11.8316987633545
20
-0.505693064045232
30
0
41
1
10
11.8316987633545
20
-0.809741595756662
30
0
41
1
10
11.8316987633545
20
-1.09271750285038
30
0
41
1
10
11.8316987633545
20
-1.49172608311963
30
0
41
1
10
11.8316987633545
20
-1.62101663881319
30
0
41
1
10
11.8316987633545
20
-1.86874876645271
30
0
41
1
10
11.8316987633545
20
-1.98732514202786
30
0
41
1
10
11.8316987633545
20
-2.32686331743682
30
0
41
1
10
11.8316987633545
20
-2.53210320541976
30
0
41
1
10
11.8316987633545
20
-2.80002182530737
30
0
41
1
10
11.8316987633545
20
-2.88051799371243
30
0
41
1
10
11.8316987633545
20
-2.95400548417427
30
0
0
SPLINE
5
B0
100
AcDbEntity
8
1
62
256
6
ByLayer
370
18
48
1
60
0
100
AcDbSpline
70
4
71
3
72
50
73
46
40
0
40
0
40
0
40
0
40
0.0759503325419723
40
0.0759503325419723
40
0.113925498812959
40
0.113925498812959
40
0.151900665083945
40
0.151900665083945
40
0.189875831354932
40
0.189875831354932
40
0.227850997625919
40
0.227850997625919
40
0.265826163896905
40
0.265826163896905
40
0.303801330167892
40
0.303801330167892
40
0.379751662709865
40
0.379751662709865
40
0.455701995251838
40
0.455701995251838
40
0.493677161522824
40
0.493677161522824
40
0.531652327793811
40
0.531652327793811
40
0.569627494064797
40
0.569627494064797
40
0.607602660335784
40
0.607602660335784
40
0.645577826606771
40
0.645577826606771
40
0.683552992877757
40
0.683552992877757
40
0.75950332541973
40
0.75950332541973
40
0.835453657961703
40
0.835453657961703
40
0.87342882423269
40
0.87342882423269
40
0.911403990503676
40
0.911403990503676
40
0.949379156774663
40
0.949379156774663
40
0.98735432304565
40
0.98735432304565
40
1
40
1
40
1
40
1
41
1
10
11.8316987633545
20
3.53141188349016
30
0
41
1
10
12.3528202608873
20
3.31880035027186
30
0
41
1
10
12.8730192715249
20
3.09240735830082
30
0
41
1
10
13.6483228079522
20
2.72817103259504
30
0
41
1
10
13.9056081467699
20
2.60209790362234
30
0
41
1
10
14.4210044983775
20
2.34536797838049
30
0
41
1
10
14.6789005081576
20
2.21442168753791
30
0
41
1
10
15.1945681998432
20
1.94661281939057
30
0
41
1
10
15.4522786070765
20
1.80964612510368
30
0
41
1
10
15.967409803216
20
1.52936220196918
30
0
41
1
10
16.2256047811672
20
1.38734190946698
30
0
41
1
10
16.7436651289841
20
1.10032000045027
30
0
41
1
10
17.0033836713016
20
0.955071432247848
30
0
41
1
10
17.5237934777873
20
0.66023485236272
30
0
41
1
10
17.7847546924249
20
0.509670612547154
30
0
41
1
10
18.5658474546345
20
0.0618589135594334
30
0
41
1
10
19.0844705092824
20
-0.234285218176723
30
0
41
1
10
20.1148902947808
20
-0.826706356696349
30
0
41
1
10
20.6306469505903
20
-1.11593893165647
30
0
41
1
10
21.4035126076853
20
-1.54224991956838
30
0
41
1
10
21.6606251980371
20
-1.68371338640094
30
0
41
1
10
22.1769109732117
20
-1.96013909080102
30
0
41
1
10
22.4358519496772
20
-2.09551068963583
30
0
41
1
10
22.9548168606207
20
-2.36140931234385
30
0
41
1
10
23.2147565717277
20
-2.49207018228083
30
0
41
1
10
23.7357107642827
20
-2.74842603213281
30
0
41
1
10
23.9966255265642
20
-2.87244524770969
30
0
41
1
10
24.5164634449058
20
-3.11062791043597
30
0
41
1
10
24.7757478019443
20
-3.22521208620711
30
0
41
1
10
25.2926087332125
20
-3.44604042271726
30
0
41
1
10
25.5498897903074
20
-3.55260385642873
30
0
41
1
10
26.3229072720824
20
-3.85498999248446
30
0
41
1
10
26.8385417458071
20
-4.03553879661413
30
0
41
1
10
27.8678789235166
20
-4.35668511718467
30
0
41
1
10
28.385546302238
20
-4.49347996279553
30
0
41
1
10
29.1648463618931
20
-4.66407026530021
30
0
41
1
10
29.4253532941009
20
-4.71536462039592
30
0
41
1
10
29.9466376751038
20
-4.80394563441592
30
0
41
1
10
30.2067314714451
20
-4.84143349599989
30
0
41
1
10
30.7253426692268
20
-4.90339345365831
30
0
41
1
10
30.9837447117605
20
-4.92788512763087
30
0
41
1
10
31.4990401884443
20
-4.96366878693075
30
0
41
1
10
31.7567021779209
20
-4.9748043620173
30
0
41
1
10
32.1002471609563
20
-4.98088505915129
30
0
41
1
10
32.1860651003565
20
-4.98167718454292
30
0
41
1
10
32.271871019079
20
-4.98174000522155
30
0
0
SPLINE
5
B1
100
AcDbEntity
8
1
62
256
6
ByLayer
370
18
48
1
60
0
100
AcDbSpline
70
4
71
3
72
30
73
26
40
0
40
0
40
0
40
0
40
0.0094556020051597
40
0.0094556020051597
40
0.0995050927319637
40
0.0995050927319637
40
0.189554583458767
40
0.189554583458767
40
0.279604074185571
40
0.279604074185571
40
0.369653564912374
40
0.369653564912374
40
0.459703055639179
40
0.459703055639179
40
0.549752546365982
40
0.549752546365982
40
0.639802037092786
40
0.639802037092786
40
0.729851527819589
40
0.729851527819589
40
0.819901018546393
40
0.819901018546393
40
0.909950509273197
40
0.909950509273197
40
1
40
1
40
1
40
1
41
1
10
52.8711947027147
20
3.61313523353107
30
0
41
1
10
52.8985201212152
20
3.62405274769967
30
0
41
1
10
52.9258612573533
20
3.63491252894528
30
0
41
1
10
53.2137667945227
20
3.74856196544897
30
0
41
1
10
53.4749946008549
20
3.84616103004498
30
0
41
1
10
53.9944636538008
20
4.0302184305765
30
0
41
1
10
54.2530982654225
20
4.11706191049896
30
0
41
1
10
54.7688346590109
20
4.27960007777719
30
0
41
1
10
55.0266566810994
20
4.35461577435112
30
0
41
1
10
55.5420733337583
20
4.49264363437976
30
0
41
1
10
55.7996161349852
20
4.55570601952059
30
0
41
1
10
56.3138801169472
20
4.67019537184547
30
0
41
1
10
56.5704234762769
20
4.72165822238537
30
0
41
1
10
57.0853365246998
20
4.81120294322434
30
0
41
1
10
57.3433831176544
20
4.84954239909283
30
0
41
1
10
57.8601513684285
20
4.91356030504755
30
0
41
1
10
58.1187124537077
20
4.9392730842174
30
0
41
1
10
58.6368455769427
20
4.97744742890768
30
0
41
1
10
58.8975700700471
20
4.98976803697124
30
0
41
1
10
59.419331798458
20
5.0008687601354
30
0
41
1
10
59.6796551316061
20
4.99967331901979
30
0
41
1
10
60.1986772903837
20
4.98378472276735
30
0
41
1
10
60.4572285814767
20
4.96898508953083
30
0
41
1
10
60.9754396637406
20
4.92633447729418
30
0
41
1
10
61.2347568531347
20
4.8984883996043
30
0
41
1
10
61.4940276592287
20
4.86407347533228
30
0
0
SPLINE
5
B2
100
AcDbEntity
8
1
62
256
6
ByLayer
370
18
48
1
60
0
100
AcDbSpline
70
4
71
3
72
8
73
4
40
0
40
0
40
0
40
0
40
1
40
1
40
1
40
1
41
1
10
61.2280034936431
20
4.99565005574223
30
0
41
1
10
61.1090285537057
20
4.99838949576835
30
0
41
1
10
60.990054414711
20
4.99970947313531
30
0
41
1
10
60.8710589308514
20
4.99961106310806
30
0
0
SPLINE
5
B3
100
AcDbEntity
8
1
62
256
6
ByLayer
370
18
48
1
60
0
100
AcDbSpline
70
4
71
3
72
50
73
46
40
0
40
0
40
0
40
0
40
0.0049795721648392
40
0.0049795721648392
40
0.0646153660393013
40
0.0646153660393013
40
0.0944332629765322
40
0.0944332629765322
40
0.124251159913763
40
0.124251159913763
40
0.183886953788226
40
0.183886953788226
40
0.213704850725458
40
0.213704850725458
40
0.243522747662689
40
0.243522747662689
40
0.362794335411616
40
0.362794335411616
40
0.392612232348848
40
0.392612232348848
40
0.422430129286079
40
0.422430129286079
40
0.482065923160541
40
0.482065923160541
40
0.541701717035004
40
0.541701717035004
40
0.571519613972235
40
0.571519613972235
40
0.601337510909466
40
0.601337510909466
40
0.720609098658392
40
0.720609098658392
40
0.780244892532855
40
0.780244892532855
40
0.810062789470086
40
0.810062789470086
40
0.839880686407317
40
0.839880686407317
40
0.869698583344548
40
0.869698583344548
40
0.899516480281779
40
0.899516480281779
40
0.959152274156241
40
0.959152274156241
40
1
40
1
40
1
40
1
41
1
10
36.4066918700033
20
-4.73802087890638
30
0
41
1
10
36.3573295767472
20
-4.74681452368006
30
0
41
1
10
36.3079669994845
20
-4.75537723021489
30
0
41
1
10
35.6674077545497
20
-4.86347862595014
30
0
41
1
10
35.0758356180543
20
-4.92994188234582
30
0
41
1
10
34.1834139843112
20
-4.97721822409252
30
0
41
1
10
33.8851011258778
20
-4.98423782439227
30
0
41
1
10
33.2859565481131
20
-4.98036370294261
30
0
41
1
10
32.9862840654648
20
-4.96945675425087
30
0
41
1
10
32.089196767872
20
-4.91023693854851
30
0
41
1
10
31.4922903545505
20
-4.83541958301478
30
0
41
1
10
30.5939045274561
20
-4.67176315725368
30
0
41
1
10
30.2938339635518
20
-4.60858710469873
30
0
41
1
10
29.6970282018935
20
-4.46677324243623
30
0
41
1
10
29.3996590268206
20
-4.38802285401545
30
0
41
1
10
27.9159188502474
20
-3.95734927853326
30
0
41
1
10
26.7388676194429
20
-3.49468485612931
30
0
41
1
10
25.2496453012037
20
-2.80331460332823
30
0
41
1
10
24.9506090871635
20
-2.65929006959348
30
0
41
1
10
24.3510208717803
20
-2.36151613135198
30
0
41
1
10
24.0524930336092
20
-2.20876559153876
30
0
41
1
10
23.1595547619258
20
-1.74093063814828
30
0
41
1
10
22.5676886309153
20
-1.41643001216752
30
0
41
1
10
21.3846611514594
20
-0.752921565325551
30
0
41
1
10
20.7936158585326
20
-0.413708506045452
30
0
41
1
10
19.9029107887255
20
0.0978542177612667
30
0
41
1
10
19.6053867845789
20
0.268953192084467
30
0
41
1
10
19.0081722423905
20
0.610690569297788
30
0
41
1
10
18.7076668037075
20
0.781764548342181
30
0
41
1
10
17.2126904788549
20
1.62426726061804
30
0
41
1
10
16.0346617157125
20
2.26067871181232
30
0
41
1
10
14.2572505410367
20
3.10037845319107
30
0
41
1
10
13.6631137967401
20
3.36122885161376
30
0
41
1
10
12.7646481111738
20
3.7165366246509
30
0
41
1
10
12.4644339014396
20
3.82873916621963
30
0
41
1
10
11.8658752663077
20
4.03837616159723
30
0
41
1
10
11.5669398076371
20
4.13602485106401
30
0
41
1
10
10.9688925050103
20
4.31617190782092
30
0
41
1
10
10.6697931030861
20
4.39868552861344
30
0
41
1
10
10.0707255250834
20
4.54790636742175
30
0
41
1
10
9.77030835412336
20
4.61465315330869
30
0
41
1
10
8.87382096418528
20
4.78867346877641
30
0
41
1
10
8.28045090046029
20
4.87041314304309
30
0
41
1
10
7.28270528358115
20
4.94983997586954
30
0
41
1
10
6.87766951338293
20
4.96589717651298
30
0
41
1
10
6.47222425234267
20
4.96562421528509
30
0
0
SPLINE
5
B4
100
AcDbEntity
8
1
62
256
6
ByLayer
370
18
48
1
60
0
100
AcDbSpline
70
4
71
3
72
40
73
36
40
0
40
0
40
0
40
0
40
0.100954046561458
40
0.100954046561458
40
0.151431069842186
40
0.151431069842186
40
0.201908093122915
40
0.201908093122915
40
0.252385116403643
40
0.252385116403643
40
0.302862139684372
40
0.302862139684372
40
0.403816186245828
40
0.403816186245828
40
0.454293209526557
40
0.454293209526557
40
0.504770232807285
40
0.504770232807285
40
0.605724279368742
40
0.605724279368742
40
0.65620130264947
40
0.65620130264947
40
0.706678325930199
40
0.706678325930199
40
0.757155349210927
40
0.757155349210927
40
0.807632372491654
40
0.807632372491654
40
0.858109395772381
40
0.858109395772381
40
0.908586419053109
40
0.908586419053109
40
0.959063442333836
40
0.959063442333836
40
1
40
1
40
1
40
1
41
1
10
11.8316987633545
20
-2.95400548417422
30
0
41
1
10
12.3014830375889
20
-3.1538847971365
30
0
41
1
10
12.7688891926249
20
-3.33921609247705
30
0
41
1
10
13.4665327608334
20
-3.59422647183763
30
0
41
1
10
13.6984861470012
20
-3.67526922020301
30
0
41
1
10
14.1622378565055
20
-3.82898319489405
30
0
41
1
10
14.3940967806776
20
-3.90171951209012
30
0
41
1
10
14.8576143261117
20
-4.03876828404793
30
0
41
1
10
15.0892430510536
20
-4.10296174799086
30
0
41
1
10
15.5524145509888
20
-4.22245957153532
30
0
41
1
10
15.7839304743383
20
-4.27794361510473
30
0
41
1
10
16.4800070298368
20
-4.43104381352646
30
0
41
1
10
16.9455164541533
20
-4.51292509748799
30
0
41
1
10
17.6464127263426
20
-4.60839463401808
30
0
41
1
10
17.8808752553885
20
-4.63605530957358
30
0
41
1
10
18.3505142777933
20
-4.67948201865457
30
0
41
1
10
18.5849651801723
20
-4.69532446590438
30
0
41
1
10
19.2876368575341
20
-4.72838356268153
30
0
41
1
10
19.7549598469844
20
-4.73243824448923
30
0
41
1
10
20.4576971049496
20
-4.70314025003358
30
0
41
1
10
20.6921547617456
20
-4.68818924982764
30
0
41
1
10
21.161539248147
20
-4.6488468044968
30
0
41
1
10
21.3962183147891
20
-4.62491207960665
30
0
41
1
10
21.8646844032596
20
-4.56538383479082
30
0
41
1
10
22.0987731908778
20
-4.52973950898243
30
0
41
1
10
22.5669742803576
20
-4.44969956107246
30
0
41
1
10
22.8010271004195
20
-4.40504531069257
30
0
41
1
10
23.2691324456686
20
-4.30693717293423
30
0
41
1
10
23.5030742039074
20
-4.25277810028723
30
0
41
1
10
23.9720073487809
20
-4.13396604943645
30
0
41
1
10
24.2070622702429
20
-4.06986087970645
30
0
41
1
10
24.67617554194
20
-3.93384983897241
30
0
41
1
10
24.9104991131342
20
-3.86223609230248
30
0
41
1
10
25.3342965698992
20
-3.7241422218253
30
0
41
1
10
25.5239219513682
20
-3.6589913693339
30
0
41
1
10
25.7136965186427
20
-3.59134864122086
30
0
0
SPLINE
5
B5
100
AcDbEntity
8
1
62
256
6
ByLayer
370
18
48
1
60
0
100
AcDbSpline
70
4
71
3
72
28
73
24
40
0
40
0
40
0
40
0
40
0.0441179693923486
40
0.0441179693923486
40
0.117647356362165
40
0.117647356362165
40
0.191176743331981
40
0.191176743331981
40
0.264706130301798
40
0.264706130301798
40
0.411764904241434
40
0.411764904241434
40
0.485294291211253
40
0.485294291211253
40
0.558823678181073
40
0.558823678181073
40
0.705882452120715
40
0.705882452120715
40
0.852941226060358
40
0.852941226060358
40
0.926470613030179
40
0.926470613030179
40
1
40
1
40
1
40
1
41
1
10
47.0823960511023
20
4.73741724845115
30
0
41
1
10
47.2218602801096
20
4.73469183225046
30
0
41
1
10
47.3615242484254
20
4.73019757938064
30
0
41
1
10
47.7344586011792
20
4.71383252561913
30
0
41
1
10
47.9680370445911
20
4.6985839807223
30
0
41
1
10
48.4364268823908
20
4.65660695728619
30
0
41
1
10
48.6710259444836
20
4.63011632948104
30
0
41
1
10
49.1395688260988
20
4.56827953154678
30
0
41
1
10
49.3738427582779
20
4.53325681565994
30
0
41
1
10
50.0760552143938
20
4.41252875856031
30
0
41
1
10
50.5429120079014
20
4.30938195882013
30
0
41
1
10
51.246039838055
20
4.12821686828121
30
0
41
1
10
51.4811366162386
20
4.0631771936234
30
0
41
1
10
51.9494663842763
20
3.92495757036849
30
0
41
1
10
52.1828939362162
20
3.85174662866027
30
0
41
1
10
52.8815393476298
20
3.62084505362506
30
0
41
1
10
53.3460011110342
20
3.4520884405571
30
0
41
1
10
54.2724773909008
20
3.0839262055419
30
0
41
1
10
54.7346824014885
20
2.88572479213283
30
0
41
1
10
55.429988946539
20
2.5714998987969
30
0
41
1
10
55.6619313331488
20
2.46375980365306
30
0
41
1
10
56.1262795276022
20
2.24282323934378
30
0
41
1
10
56.3585958371314
20
2.1294570619051
30
0
41
1
10
56.591639530575
20
2.0139385575684
30
0
0
SPLINE
5
B6
100
AcDbEntity
8
1
62
256
6
ByLayer
370
13
48
1
60
0
100
AcDbSpline
70
4
71
3
72
14
73
10
40
0
40
0
40
0
40
0
40
0.25
40
0.25
40
0.5
40
0.5
40
0.75
40
0.75
40
1
40
1
40
1
40
1
41
1
10
4.00000042119396
20
-4.72022585849066
30
0
41
1
10
4.00004954603105
20
-4.71418454154517
30
0
41
1
10
4.00284860027844
20
-4.70795831753833
30
0
41
1
10
4.01388268901354
20
-4.69590223542346
30
0
41
1
10
4.02209525878962
20
-4.69002870275625
30
0
41
1
10
4.04357409124833
20
-4.67895531344581
30
0
41
1
10
4.0571314214414
20
-4.67362981988057
30
0
41
1
10
4.08912232318323
20
-4.6640970022313
30
0
41
1
10
4.1073309749203
20
-4.65990983904177
30
0
41
1
10
4.12812519577483
20
-4.65642011717497
30
0
0
SPLINE
5
B7
100
AcDbEntity
8
1
62
256
6
ByLayer
370
13
48
1
60
0
100
AcDbSpline
70
4
71
3
72
8
73
4
40
0
40
0
40
0
40
0
40
1
40
1
40
1
40
1
41
1
10
4.12558629967864
20
-4.78276725268418
30
0
41
1
10
4.12642425797276
20
-4.74065367994126
30
0
41
1
10
4.12727054144844
20
-4.69853799803468
30
0
41
1
10
4.12812519577483
20
-4.65642011717497
30
0
0
SPLINE
5
B8
100
AcDbEntity
8
1
62
256
6
ByLayer
370
18
48
1
60
0
100
AcDbSpline
70
4
71
3
72
36
73
32
40
0
40
0
40
0
40
0
40
0.0624999999999956
40
0.0624999999999956
40
0.0937499999999934
40
0.0937499999999934
40
0.124999999999991
40
0.124999999999991
40
0.187499999999988
40
0.187499999999988
40
0.218749999999987
40
0.218749999999987
40
0.249999999999986
40
0.249999999999986
40
0.312499999999983
40
0.312499999999983
40
0.343749999999982
40
0.343749999999982
40
0.374999999999981
40
0.374999999999981
40
0.499999999999982
40
0.499999999999982
40
0.562499999999984
40
0.562499999999984
40
0.624999999999987
40
0.624999999999987
40
0.749999999999991
40
0.749999999999991
40
0.874999999999996
40
0.874999999999996
40
1
40
1
40
1
40
1
41
1
10
56.591639530575
20
2.01393855756842
30
0
41
1
10
56.5669771964999
20
1.86298589875653
30
0
41
1
10
56.5539685794852
20
1.70728422716312
30
0
41
1
10
56.5530065579267
20
1.46617203048456
30
0
41
1
10
56.5558344118654
20
1.38429643717654
30
0
41
1
10
56.5675842111366
20
1.22142897067946
30
0
41
1
10
56.5764852910165
20
1.140040987661
30
0
41
1
10
56.6118762423217
20
0.89600838068759
30
0
41
1
10
56.6470274185025
20
0.733494699590125
30
0
41
1
10
56.7160782975925
20
0.489970968271138
30
0
41
1
10
56.7419216847885
20
0.408613795245344
30
0
41
1
10
56.7979301601916
20
0.24872126274542
30
0
41
1
10
56.828171054784
20
0.169864109587024
30
0
41
1
10
56.9250508614349
20
-0.0637092131796635
30
0
41
1
10
56.9978213079101
20
-0.215439706070043
30
0
41
1
10
57.1176468731967
20
-0.437839868469609
30
0
41
1
10
57.1593742028331
20
-0.51110384064711
30
0
41
1
10
57.2462028455784
20
-0.655988864451444
30
0
41
1
10
57.2913220324736
20
-0.727612067927993
30
0
41
1
10
57.5220962395895
20
-1.07773403828025
30
0
41
1
10
57.7250009275922
20
-1.33637472127256
30
0
41
1
10
58.0498342684141
20
-1.70030784153141
30
0
41
1
10
58.1616349048653
20
-1.817484989538
30
0
41
1
10
58.3917064785856
20
-2.04424671748796
30
0
41
1
10
58.5098117767799
20
-2.15367545287393
30
0
41
1
10
58.8676307256557
20
-2.46767341587414
30
0
41
1
10
59.1125252169205
20
-2.65978697489834
30
0
41
1
10
59.6125882043456
20
-3.01614902448387
30
0
41
1
10
59.8677826150104
20
-3.1803272299463
30
0
41
1
10
60.3871657180688
20
-3.48428942666814
30
0
41
1
10
60.6520240317906
20
-3.62439339149114
30
0
41
1
10
60.9187361208081
20
-3.75194096304281
30
0
0
SPLINE
5
B9
100
AcDbEntity
8
1
62
256
6
ByLayer
370
18
48
1
60
0
100
AcDbSpline
70
4
71
3
72
12
73
8
40
0
40
0
40
0
40
0
40
0.500000000000006
40
0.500000000000006
40
0.750000000000003
40
0.750000000000003
40
1
40
1
40
1
40
1
41
1
10
61.4940276592287
20
-4.86407347533228
30
0
41
1
10
61.4449685635469
20
-4.90062249704249
30
0
41
1
10
61.3982730782226
20
-4.93012221311056
30
0
41
1
10
61.3317263598744
20
-4.96326005065188
30
0
41
1
10
61.3101275243474
20
-4.97245086590144
30
0
41
1
10
61.2680970046915
20
-4.9869895908509
30
0
41
1
10
61.2476388624768
20
-4.99233049121264
30
0
41
1
10
61.228003493643
20
-4.99565005574223
30
0
0
SPLINE
5
BA
100
AcDbEntity
8
1
62
256
6
ByLayer
370
18
48
1
60
0
100
AcDbSpline
70
4
71
3
72
14
73
10
40
0
40
0
40
0
40
0
40
0.637856664105559
40
0.637856664105559
40
0.797320830131947
40
0.797320830131947
40
0.956784996158335
40
0.956784996158335
40
1
40
1
40
1
40
1
41
1
10
61.2996759480874
20
-4.74836242531674
30
0
41
1
10
60.1052783905255
20
-4.76458632779455
30
0
41
1
10
58.9211216221473
20
-4.64441341702303
30
0
41
1
10
57.4261780914856
20
-4.33394542532881
30
0
41
1
10
57.1267251748517
20
-4.2638294174991
30
0
41
1
10
56.5312564057485
20
-4.10960039345184
30
0
41
1
10
56.2345362351857
20
-4.0253487493107
30
0
41
1
10
55.8582593419993
20
-3.90976426612707
30
0
41
1
10
55.778080044422
20
-3.88462809171239
30
0
41
1
10
55.6979436089921
20
-3.85900996510245
30
0
0
SPLINE
5
BB
100
AcDbEntity
8
1
62
256
6
ByLayer
370
13
48
1
60
0
100
AcDbSpline
70
4
71
3
72
22
73
18
40
0
40
0
40
0
40
0
40
0.130274211116697
40
0.130274211116697
40
0.280967446679885
40
0.280967446679885
40
0.35631406446148
40
0.35631406446148
40
0.431660682243075
40
0.431660682243075
40
0.733047153369459
40
0.733047153369459
40
0.883740388932649
40
0.883740388932649
40
0.959087006714246
40
0.959087006714246
40
1
40
1
40
1
40
1
41
1
10
55.6979437324753
20
-3.85901000457773
30
0
41
1
10
55.1866702591417
20
-3.69556539612233
30
0
41
1
10
54.6771414845293
20
-3.51250298115878
30
0
41
1
10
53.5779860667835
20
-3.08066237008049
30
0
41
1
10
52.9882692429964
20
-2.82603931908682
30
0
41
1
10
52.0994594275303
20
-2.41501383225554
30
0
41
1
10
51.8024569761412
20
-2.27319157187208
30
0
41
1
10
51.2062451158564
20
-1.98098183541788
30
0
41
1
10
50.906224658068
20
-1.83017010070057
30
0
41
1
10
49.4138424153118
20
-1.06518707312776
30
0
41
1
10
48.2381300611294
20
-0.415388907356288
30
0
41
1
10
46.4680965747925
20
0.552944665953532
30
0
41
1
10
45.8768403768022
20
0.874350183051916
30
0
41
1
10
44.9843813408037
20
1.3474652579759
30
0
41
1
10
44.6853947875488
20
1.50376256279975
30
0
41
1
10
44.2235575245132
20
1.74040574366015
30
0
41
1
10
44.0613833796845
20
1.82262406372837
30
0
41
1
10
43.8995060598796
20
1.9037164948931
30
0
0
SPLINE
5
BC
100
AcDbEntity
8
1
62
256
6
ByLayer
370
18
48
1
60
0
100
AcDbSpline
70
4
71
3
72
10
73
6
40
0
40
0
40
0
40
0
40
0.25791193258429
40
0.25791193258429
40
1
40
1
40
1
40
1
41
1
10
6.67151091061243
20
-4.71582080156554
30
0
41
1
10
6.46349092763114
20
-4.71559544406762
30
0
41
1
10
6.25501998133498
20
-4.71130708772725
30
0
41
1
10
5.44759898746807
20
-4.67884107797047
30
0
41
1
10
4.84969032189505
20
-4.62111348611217
30
0
41
1
10
4.25032234499537
20
-4.53008347199852
30
0
0
SPLINE
5
BD
100
AcDbEntity
8
1
62
256
6
ByLayer
370
13
48
1
60
0
100
AcDbSpline
70
4
71
3
72
10
73
6
40
0
40
0
40
0
40
0
40
0.5
40
0.5
40
1
40
1
40
1
40
1
41
1
10
4.12812519577486
20
-4.54937708962333
30
0
41
1
10
4.14697310432553
20
-4.54102266120793
30
0
41
1
10
4.16714157661659
20
-4.53518351967699
30
0
41
1
10
4.20810725258508
20
-4.52878678911662
30
0
41
1
10
4.22900673476184
20
-4.52813028204241
30
0
41
1
10
4.25032234499537
20
-4.53008347199852
30
0
0
SPLINE
5
BE
100
AcDbEntity
8
1
62
256
6
ByLayer
370
18
48
1
60
0
100
AcDbSpline
70
4
71
3
72
10
73
6
40
0
40
0
40
0
40
0
40
0.5
40
0.5
40
1
40
1
40
1
40
1
41
1
10
62.9999671362382
20
0.041772426707098
30
0
41
1
10
62.9962306582081
20
0.0264306987060365
30
0
41
1
10
62.9911262441294
20
0.0099828955687826
30
0
41
1
10
62.978818378761
20
-0.0212418151781151
30
0
41
1
10
62.9715768358196
20
-0.0360448069832842
30
0
41
1
10
62.9642396292018
20
-0.0480500709901719
30
0
0
SPLINE
5
BF
100
AcDbEntity
8
1
62
256
6
ByLayer
370
18
48
1
60
0
100
AcDbSpline
70
4
71
3
72
24
73
20
40
0
40
0
40
0
40
0
40
0.125000000000001
40
0.125000000000001
40
0.187500000000002
40
0.187500000000002
40
0.250000000000003
40
0.250000000000003
40
0.375000000000003
40
0.375000000000003
40
0.500000000000002
40
0.500000000000002
40
0.625000000000001
40
0.625000000000001
40
0.750000000000001
40
0.750000000000001
40
0.875
40
0.875
40
1
40
1
40
1
40
1
41
1
10
4.25127573378174
20
1.51068791335103
30
0
41
1
10
4.54458896579632
20
1.29146868874372
30
0
41
1
10
4.84568306189672
20
1.07863997770221
30
0
41
1
10
5.3044395141097
20
0.76416678151628
30
0
41
1
10
5.45858579070938
20
0.660182371501008
30
0
41
1
10
5.76892928442081
20
0.453480134179585
30
0
41
1
10
5.92536429359166
20
0.350610320604034
30
0
41
1
10
6.39513296430772
20
0.0449771918924284
30
0
41
1
10
6.709054721163
20
-0.154969227358748
30
0
41
1
10
7.33804246615526
20
-0.548446109549417
30
0
41
1
10
7.65309489016727
20
-0.742162740190849
30
0
41
1
10
8.28493750298611
20
-1.12199318726258
30
0
41
1
10
8.6017328339899
20
-1.30816328287679
30
0
41
1
10
9.23825809174986
20
-1.6717543644007
30
0
41
1
10
9.55799630832698
20
-1.84907378675609
30
0
41
1
10
10.2024458125433
20
-2.1914495312015
30
0
41
1
10
10.5258338616312
20
-2.35588243002763
30
0
41
1
10
11.1755358591724
20
-2.66823004900053
30
0
41
1
10
11.5020990054639
20
-2.81604376985473
30
0
41
1
10
11.8316987633545
20
-2.95400548417422
30
0
0
SPLINE
5
C0
100
AcDbEntity
8
1
62
256
6
ByLayer
370
18
48
1
60
0
100
AcDbSpline
70
4
71
3
72
44
73
40
40
0
40
0
40
0
40
0
40
0.125000000000001
40
0.125000000000001
40
0.187500000000001
40
0.187500000000001
40
0.250000000000002
40
0.250000000000002
40
0.499999999999999
40
0.499999999999999
40
0.562499999999996
40
0.562499999999996
40
0.624999999999992
40
0.624999999999992
40
0.687499999999989
40
0.687499999999989
40
0.749999999999986
40
0.749999999999986
40
0.812499999999983
40
0.812499999999983
40
0.843749999999981
40
0.843749999999981
40
0.859374999999982
40
0.859374999999982
40
0.867187499999983
40
0.867187499999983
40
0.874999999999984
40
0.874999999999984
40
0.882812499999985
40
0.882812499999985
40
0.886718749999985
40
0.886718749999985
40
0.890624999999985
40
0.890624999999985
40
0.906249999999987
40
0.906249999999987
40
0.937499999999992
40
0.937499999999992
40
1
40
1
40
1
40
1
41
1
10
56.591639530575
20
2.01393855756842
30
0
41
1
10
56.7818075440172
20
1.82476354127959
30
0
41
1
10
56.9788735727931
20
1.64756902482668
30
0
41
1
10
57.2845712513782
20
1.39931659938861
30
0
41
1
10
57.3881565733525
20
1.31949420861036
30
0
41
1
10
57.5987745235055
20
1.16583672186573
30
0
41
1
10
57.7061743280302
20
1.09177879325154
30
0
41
1
10
58.2455603793386
20
0.741290701920491
30
0
41
1
10
58.6869630308506
20
0.52128271652802
30
0
41
1
10
59.2527779908567
20
0.332091757300759
30
0
41
1
10
59.3666550576743
20
0.298611604651171
30
0
41
1
10
59.5959818893954
20
0.241249565167436
30
0
41
1
10
59.7113611604994
20
0.217428550766101
30
0
41
1
10
59.9401791823575
20
0.181092909716313
30
0
41
1
10
60.0540487543847
20
0.168469840717819
30
0
41
1
10
60.2805752184543
20
0.155688523433639
30
0
41
1
10
60.393451216921
20
0.155586064638271
30
0
41
1
10
60.6168256790325
20
0.168951518612062
30
0
41
1
10
60.7271308992703
20
0.182420562984817
30
0
41
1
10
60.8894322392276
20
0.213646615441945
30
0
41
1
10
60.9430278661999
20
0.225899714163461
30
0
41
1
10
61.0224364724864
20
0.247139192369758
30
0
41
1
10
61.0487437343849
20
0.254695731916087
30
0
41
1
10
61.0879551994325
20
0.266763289166988
30
0
41
1
10
61.100981707245
20
0.270907225354904
30
0
41
1
10
61.126942802612
20
0.279439829064188
30
0
41
1
10
61.1401171821567
20
0.283236052278255
30
0
41
1
10
61.1651971784989
20
0.29399465430717
30
0
41
1
10
61.1765428658804
20
0.302021888737954
30
0
41
1
10
61.1887308456898
20
0.319986634429682
30
0
41
1
10
61.1917919837504
20
0.327008336187902
30
0
41
1
10
61.1957225341138
20
0.342382590615188
30
0
41
1
10
61.1967267523465
20
0.350451157944235
30
0
41
1
10
61.2009527831204
20
0.391109551255624
30
0
41
1
10
61.2045104197224
20
0.423571220412612
30
0
41
1
10
61.2133090585199
20
0.521667776734205
30
0
41
1
10
61.2175396116669
20
0.587530676906681
30
0
41
1
10
61.2258382282919
20
0.786369143935218
30
0
41
1
10
61.2255078976833
20
0.921012457814754
30
0
41
1
10
61.2204307681931
20
1.05582270734814
30
0
0
SPLINE
5
C1
100
AcDbEntity
8
1
62
256
6
ByLayer
370
18
48
1
60
0
100
AcDbSpline
70
4
71
3
72
16
73
12
40
0
40
0
40
0
40
0
40
0.198360092402955
40
0.198360092402955
40
0.52975413236232
40
0.52975413236232
40
0.695451152342007
40
0.695451152342007
40
0.861148172321693
40
0.861148172321693
40
1
40
1
40
1
40
1
41
1
10
33.8737741692221
20
-4.73281678149641
30
0
41
1
10
33.5176210837598
20
-4.73247645616203
30
0
41
1
10
33.1604819491178
20
-4.72012515049744
30
0
41
1
10
32.2024864077236
20
-4.65451552565313
30
0
41
1
10
31.6049326492582
20
-4.57987508717272
30
0
41
1
10
30.7069085935433
20
-4.4194650439523
30
0
41
1
10
30.4069488058582
20
-4.35782271283986
30
0
41
1
10
29.8100360831223
20
-4.21991586111753
30
0
41
1
10
29.5126006264238
20
-4.14355794528851
30
0
41
1
10
28.9670980517167
20
-3.99038308455468
30
0
41
1
10
28.7188296671277
20
-3.91565710559198
30
0
41
1
10
28.4707982914719
20
-3.83629659881544
30
0
0
SPLINE
5
C2
100
AcDbEntity
8
1
62
256
6
ByLayer
370
13
48
1
60
0
100
AcDbSpline
70
4
71
3
72
18
73
14
40
0
40
0
40
0
40
0
40
0.233323176928792
40
0.233323176928792
40
0.307112577505106
40
0.307112577505106
40
0.380901978081421
40
0.380901978081421
40
0.528480779234051
40
0.528480779234051
40
0.823638381539311
40
0.823638381539311
40
1
40
1
40
1
40
1
41
1
10
28.4707992440326
20
-3.83629690359825
30
0
41
1
10
27.5348902540088
20
-3.53684204527033
30
0
41
1
10
26.6023558397631
20
-3.17140001508977
30
0
41
1
10
25.3649493871446
20
-2.62156259898131
30
0
41
1
10
25.0668373514616
20
-2.48429061498476
30
0
41
1
10
24.4683096051673
20
-2.20031282736645
30
0
41
1
10
24.1686438988596
20
-2.05389531932545
30
0
41
1
10
23.274547590808
20
-1.60685537979902
30
0
41
1
10
22.68211311917
20
-1.29732787372973
30
0
41
1
10
20.9073148773075
20
-0.349663374374842
30
0
41
1
10
19.7276880174167
20
0.307938438495143
30
0
41
1
10
17.8119930207947
20
1.33124794142933
30
0
41
1
10
17.1022922017291
20
1.70041807434512
30
0
41
1
10
16.3946320107632
20
2.04805658358293
30
0
0
SPLINE
5
C3
100
AcDbEntity
8
1
62
256
6
ByLayer
370
18
48
1
60
0
100
AcDbSpline
70
4
71
3
72
68
73
64
40
0
40
0
40
0
40
0
40
0.0625000000000002
40
0.0625000000000002
40
0.0937500000000003
40
0.0937500000000003
40
0.125000000000001
40
0.125000000000001
40
0.156250000000001
40
0.156250000000001
40
0.171875
40
0.171875
40
0.1875
40
0.1875
40
0.203124999999999
40
0.203124999999999
40
0.218749999999999
40
0.218749999999999
40
0.234374999999999
40
0.234374999999999
40
0.249999999999998
40
0.249999999999998
40
0.265624999999998
40
0.265624999999998
40
0.281249999999998
40
0.281249999999998
40
0.312499999999997
40
0.312499999999997
40
0.328124999999997
40
0.328124999999997
40
0.343749999999997
40
0.343749999999997
40
0.374999999999997
40
0.374999999999997
40
0.390624999999998
40
0.390624999999998
40
0.398437499999997
40
0.398437499999997
40
0.402343749999998
40
0.402343749999998
40
0.406249999999998
40
0.406249999999998
40
0.410156249999999
40
0.410156249999999
40
0.414062499999999
40
0.414062499999999
40
0.41796875
40
0.41796875
40
0.421875
40
0.421875
40
0.437499999999999
40
0.437499999999999
40
0.499999999999998
40
0.499999999999998
40
0.624999999999998
40
0.624999999999998
40
0.749999999999998
40
0.749999999999998
40
0.812499999999998
40
0.812499999999998
40
0.874999999999999
40
0.874999999999999
40
1
40
1
40
1
40
1
41
1
10
4.00000369470592
20
1.60568616141447
30
0
41
1
10
3.75860936913506
20
1.78149451861302
30
0
41
1
10
3.52290667883722
20
1.95972833082138
30
0
41
1
10
3.18299817821861
20
2.2345515811856
30
0
41
1
10
3.07200078890105
20
2.32742708080391
30
0
41
1
10
2.85622614297847
20
2.51689602400211
30
0
41
1
10
2.75140901744223
20
2.61345747600058
30
0
41
1
10
2.5507448156356
20
2.81231289358948
30
0
41
1
10
2.45629478454401
20
2.91324043549309
30
0
41
1
10
2.32837770109296
20
3.0670514169139
30
0
41
1
10
2.28799812290598
20
3.11878365247304
30
0
41
1
10
2.21281152096628
20
3.22347801409603
30
0
41
1
10
2.17800033255378
20
3.27651292613717
30
0
41
1
10
2.11658612051031
20
3.38201576564578
30
0
41
1
10
2.08978926803795
20
3.43472053614889
30
0
41
1
10
2.04553916122708
20
3.54015214180677
30
0
41
1
10
2.02801259905675
20
3.59321902670416
30
0
41
1
10
2.00481298532162
20
3.69797718787712
30
0
41
1
10
1.99922229807459
20
3.74905491429592
30
0
41
1
10
2.00094034110998
20
3.84860194315311
30
0
41
1
10
2.00838108360986
20
3.89745824730022
30
0
41
1
10
2.03660555423721
20
3.99067613504701
30
0
41
1
10
2.05710692012778
20
4.03458692834934
30
0
41
1
10
2.10979229713607
20
4.11766056963626
30
0
41
1
10
2.14227824302245
20
4.15708297783155
30
0
41
1
10
2.25395572027364
20
4.26700866157265
30
0
41
1
10
2.34580761895378
20
4.32868025351587
30
0
41
1
10
2.50179026071922
20
4.40988277529902
30
0
41
1
10
2.55702350240165
20
4.435057750938
30
0
41
1
10
2.67073488867973
20
4.48138436802421
30
0
41
1
10
2.72944986930361
20
4.5026755619468
30
0
41
1
10
2.91021239970377
20
4.56207192550892
30
0
41
1
10
3.03682806631369
20
4.59575708614071
30
0
41
1
10
3.23355934333261
20
4.64024044477634
30
0
41
1
10
3.30028655662389
20
4.65404287616951
30
0
41
1
10
3.40191203406624
20
4.67344211907596
30
0
41
1
10
3.43598187427034
20
4.67967879187705
30
0
41
1
10
3.48735694403058
20
4.68871719508579
30
0
41
1
10
3.5045272803147
20
4.69167723379056
30
0
41
1
10
3.5389559533719
20
4.69749614899544
30
0
41
1
10
3.55594455714834
20
4.70052293706505
30
0
41
1
10
3.59125603255495
20
4.70570193803979
30
0
41
1
10
3.61049399700033
20
4.70742881896902
30
0
41
1
10
3.64838425046924
20
4.70946286477113
30
0
41
1
10
3.66734623189194
20
4.70978397633257
30
0
41
1
10
3.70528836059964
20
4.70968138166683
30
0
41
1
10
3.72426704348618
20
4.70931687077939
30
0
41
1
10
3.76221954514682
20
4.70878723660925
30
0
41
1
10
3.78119564599922
20
4.70852839193202
30
0
41
1
10
3.87607840503864
20
4.70714014132605
30
0
41
1
10
3.95198646492824
20
4.70585801485868
30
0
41
1
10
4.33122721372305
20
4.69858096564386
30
0
41
1
10
4.63400176626988
20
4.69000188762132
30
0
41
1
10
5.53975478263109
20
4.65504836909093
30
0
41
1
10
6.13599608611153
20
4.61975925609801
30
0
41
1
10
7.31446969157122
20
4.51667780775139
30
0
41
1
10
7.89665658289479
20
4.44872528217169
30
0
41
1
10
8.76081922041271
20
4.31377772082689
30
0
41
1
10
9.04772532130633
20
4.26320018561279
30
0
41
1
10
9.61605787175264
20
4.15031987741736
30
0
41
1
10
9.89770763367102
20
4.08799356256054
30
0
41
1
10
10.7362045419992
20
3.88226658845508
30
0
41
1
10
11.2865378865154
20
3.71990218467042
30
0
41
1
10
11.8316987633545
20
3.53141188349016
30
0
0
SPLINE
5
C4
100
AcDbEntity
8
1
62
256
6
ByLayer
370
18
48
1
60
0
100
AcDbSpline
70
4
71
3
72
8
73
4
40
0
40
0
40
0
40
0
40
1
40
1
40
1
40
1
41
1
10
62.9642396292018
20
-0.0480500709901719
30
0
41
1
10
62.2356289661829
20
-1.24021540356927
30
0
41
1
10
61.5532509518106
20
-2.47435228291081
30
0
41
1
10
60.9187361208081
20
-3.75194096304284
30
0
0
SPLINE
5
C5
100
AcDbEntity
8
1
62
256
6
ByLayer
370
13
48
1
60
0
100
AcDbSpline
70
4
71
3
72
14
73
10
40
0
40
0
40
0
40
0
40
0.454235989345479
40
0.454235989345479
40
0.681353984018219
40
0.681353984018219
40
0.908471978690959
40
0.908471978690959
40
1
40
1
40
1
40
1
41
1
10
4.20159746355415
20
-4.64882242835773
30
0
41
1
10
4.80162621648873
20
-4.73595294036133
30
0
41
1
10
5.40012935368233
20
-4.78889930772968
30
0
41
1
10
6.29978904847863
20
-4.81668846156049
30
0
41
1
10
6.6001443429524
20
-4.81729353268639
30
0
41
1
10
7.1976500882011
20
-4.80136264870504
30
0
41
1
10
7.49540132013661
20
-4.78486475733135
30
0
41
1
10
7.91224092602246
20
-4.74995996526809
30
0
41
1
10
8.03186789454011
20
-4.73857466857038
30
0
41
1
10
8.15141254360429
20
-4.72584463391604
30
0
0
SPLINE
5
C6
100
AcDbEntity
8
1
62
256
6
ByLayer
370
18
48
1
60
0
100
AcDbSpline
70
4
71
3
72
16
73
12
40
0
40
0
40
0
40
0
40
0.475667477666505
40
0.475667477666505
40
0.603397724385311
40
0.603397724385311
40
0.731127971104116
40
0.731127971104116
40
0.986588464541732
40
0.986588464541732
40
1
40
1
40
1
40
1
41
1
10
47.2839375964124
20
-0.0057742827396794
30
0
41
1
10
48.3825525807017
20
-0.620106266656506
30
0
41
1
10
49.4788420328336
20
-1.23320736970666
30
0
41
1
10
50.8904816628066
20
-1.96563735420679
30
0
41
1
10
51.1907572015772
20
-2.11821720554633
30
0
41
1
10
51.7872886313961
20
-2.41335211716881
30
0
41
1
10
52.0844250893377
20
-2.55637220170118
30
0
41
1
10
52.9735838496285
20
-2.97021454935319
30
0
41
1
10
53.5635098166032
20
-3.22562096412378
30
0
41
1
10
54.1842484144072
20
-3.46919963348586
30
0
41
1
10
54.2152110770369
20
-3.48128345399539
30
0
41
1
10
54.2461739293159
20
-3.49330066127948
30
0
0
SPLINE
5
C7
100
AcDbEntity
8
1
62
256
6
ByLayer
370
13
48
1
60
0
100
AcDbSpline
70
4
71
3
72
14
73
10
40
0
40
0
40
0
40
0
40
0.240025337029334
40
0.240025337029334
40
0.366687780857779
40
0.366687780857779
40
0.493350224686223
40
0.493350224686223
40
1
40
1
40
1
40
1
41
1
10
54.2461748603282
20
-3.49330102262107
30
0
41
1
10
54.804986488747
20
-3.71018525421354
30
0
41
1
10
55.3638598917822
20
-3.90537199831107
30
0
41
1
10
56.2215816603453
20
-4.16547524742239
30
0
41
1
10
56.5185645407517
20
-4.24838536487084
30
0
41
1
10
57.1146620231447
20
-4.39943009363878
30
0
41
1
10
57.4145335975713
20
-4.46770461575957
30
0
41
1
10
58.9104487017205
20
-4.76750157510418
30
0
41
1
10
60.0951625875668
20
-4.87524359208942
30
0
41
1
10
61.2904531573085
20
-4.84352961111102
30
0
0
SPLINE
5
C8
100
AcDbEntity
8
1
62
256
6
ByLayer
370
18
48
1
60
0
100
AcDbSpline
70
4
71
3
72
8
73
4
40
0
40
0
40
0
40
0
40
1
40
1
40
1
40
1
41
1
10
61.2904531573159
20
-4.84352961111495
30
0
41
1
10
61.2696693530264
20
-4.89432379427544
30
0
41
1
10
61.2488519636568
20
-4.9450301713884
30
0
41
1
10
61.228003493643
20
-4.99565005574223
30
0
0
SPLINE
5
C9
100
AcDbEntity
8
1
62
256
6
ByLayer
370
13
48
1
60
0
100
AcDbSpline
70
4
71
3
72
14
73
10
40
0
40
0
40
0
40
0
40
0.25
40
0.25
40
0.5
40
0.5
40
0.75
40
0.75
40
1
40
1
40
1
40
1
41
1
10
4.00000000349752
20
-4.72011445260119
30
0
41
1
10
4.00003032257345
20
-4.70378206056995
30
0
41
1
10
4.00280628252671
20
-4.68699502351646
30
0
41
1
10
4.01380724814086
20
-4.65457978456516
30
0
41
1
10
4.02201168232375
20
-4.63883048416494
30
0
41
1
10
4.04349137148273
20
-4.60922596734491
30
0
41
1
10
4.05705973574743
20
-4.59503196208902
30
0
41
1
10
4.08908695158351
20
-4.5696917861537
30
0
41
1
10
4.1073167360895
20
-4.55860054199761
30
0
41
1
10
4.12812519577486
20
-4.54937708962333
30
0
0
SPLINE
5
CA
100
AcDbEntity
8
1
62
256
6
ByLayer
370
18
48
1
60
0
100
AcDbSpline
70
4
71
3
72
14
73
10
40
0
40
0
40
0
40
0
40
0.25
40
0.25
40
0.5
40
0.5
40
0.75
40
0.75
40
1
40
1
40
1
40
1
41
1
10
61.4940276592287
20
4.86407347533225
30
0
41
1
10
61.6041379379092
20
4.54926297387246
30
0
41
1
10
61.7178906531752
20
4.23396820991366
30
0
41
1
10
61.9513974443892
20
3.60298139513489
30
0
41
1
10
62.070707487523
20
3.2885489789999
30
0
41
1
10
62.3133026664807
20
2.6623263927886
30
0
41
1
10
62.4366288619178
20
2.35034639632082
30
0
41
1
10
62.6867385879799
20
1.72821109553385
30
0
41
1
10
62.8135835160759
20
1.41796209186569
30
0
41
1
10
62.9417771314783
20
1.10892950778484
30
0
0
SPLINE
5
CB
100
AcDbEntity
8
1
62
256
6
ByLayer
370
18
48
1
60
0
100
AcDbSpline
70
4
71
3
72
14
73
10
40
0
40
0
40
0
40
0
40
0.25
40
0.25
40
0.5
40
0.5
40
0.75
40
0.75
40
1
40
1
40
1
40
1
41
1
10
61.2996759480169
20
-4.74836242531768
30
0
41
1
10
61.3030497340155
20
-4.74800519888785
30
0
41
1
10
61.3058052900326
20
-4.74927588388991
30
0
41
1
10
61.3096587843003
20
-4.7561616106409
30
0
41
1
10
61.310708437008
20
-4.76184716283083
30
0
41
1
10
61.3098796945307
20
-4.77880806630336
30
0
41
1
10
61.307912134159
20
-4.79015067026205
30
0
41
1
10
61.3008744719643
20
-4.81601942808607
30
0
41
1
10
61.2959034731908
20
-4.83020941530413
30
0
41
1
10
61.2904531573176
20
-4.8435296111108
30
0
0
SPLINE
5
CC
100
AcDbEntity
8
1
62
256
6
ByLayer
370
18
48
1
60
0
100
AcDbSpline
70
4
71
3
72
94
73
90
40
0
40
0
40
0
40
0
40
0.0145212027344895
40
0.0145212027344895
40
0.0565485324466109
40
0.0565485324466109
40
0.0985758621587323
40
0.0985758621587323
40
0.119589527014793
40
0.119589527014793
40
0.140603191870854
40
0.140603191870854
40
0.161616856726914
40
0.161616856726914
40
0.182630521582975
40
0.182630521582975
40
0.203644186439036
40
0.203644186439036
40
0.224657851295097
40
0.224657851295097
40
0.266685181007218
40
0.266685181007218
40
0.287698845863279
40
0.287698845863279
40
0.30871251071934
40
0.30871251071934
40
0.329726175575402
40
0.329726175575402
40
0.350739840431463
40
0.350739840431463
40
0.371753505287524
40
0.371753505287524
40
0.392767170143585
40
0.392767170143585
40
0.413780834999646
40
0.413780834999646
40
0.434794499855708
40
0.434794499855708
40
0.455808164711769
40
0.455808164711769
40
0.47682182956783
40
0.47682182956783
40
0.518849159279953
40
0.518849159279953
40
0.539862824136014
40
0.539862824136014
40
0.560876488992075
40
0.560876488992075
40
0.581890153848137
40
0.581890153848137
40
0.602903818704198
40
0.602903818704198
40
0.623917483560259
40
0.623917483560259
40
0.64493114841632
40
0.64493114841632
40
0.665944813272381
40
0.665944813272381
40
0.686958478128442
40
0.686958478128442
40
0.707972142984503
40
0.707972142984503
40
0.728985807840564
40
0.728985807840564
40
0.749999472696625
40
0.749999472696625
40
0.771013137552687
40
0.771013137552687
40
0.792026802408748
40
0.792026802408748
40
0.813040467264809
40
0.813040467264809
40
0.83405413212087
40
0.83405413212087
40
0.855067796976931
40
0.855067796976931
40
0.876081461832992
40
0.876081461832992
40
0.897095126689053
40
0.897095126689053
40
0.918108791545114
40
0.918108791545114
40
0.939122456401175
40
0.939122456401175
40
0.960136121257236
40
0.960136121257236
40
0.981149786113296
40
0.981149786113296
40
1
40
1
40
1
40
1
41
1
10
52.8997618815685
20
-3.60942182169086
30
0
41
1
10
52.7382181169098
20
-3.66645324134495
30
0
41
1
10
52.576394671071
20
-3.72170517817742
30
0
41
1
10
51.9457329449972
20
-3.93009860844259
30
0
41
1
10
51.4778344737684
20
-4.06852919098807
30
0
41
1
10
50.542660169352
20
-4.30941114166234
30
0
41
1
10
50.0759170882766
20
-4.41259148223077
30
0
41
1
10
49.3720628522609
20
-4.53354326140726
30
0
41
1
10
49.1373498553867
20
-4.56859287422026
30
0
41
1
10
48.6700269680874
20
-4.63022753965041
30
0
41
1
10
48.437199258446
20
-4.65650096448897
30
0
41
1
10
47.9720649646496
20
-4.69825939416086
30
0
41
1
10
47.7398028730966
20
-4.71351035220914
30
0
41
1
10
47.2757251501776
20
-4.73404788084488
30
0
41
1
10
47.0439574575602
20
-4.73980383605874
30
0
41
1
10
46.5810293491156
20
-4.74109665353805
30
0
41
1
10
46.3498044371746
20
-4.73658439464745
30
0
41
1
10
45.8866738985747
20
-4.71642391320066
30
0
41
1
10
45.6548455742925
20
-4.70083653807998
30
0
41
1
10
44.9588487259944
20
-4.64062965992778
30
0
41
1
10
44.4947689306114
20
-4.58114637021251
30
0
41
1
10
43.7937709289667
20
-4.45986833497838
30
0
41
1
10
43.5592893698655
20
-4.41479065739088
30
0
41
1
10
43.089822024975
20
-4.31522133924901
30
0
41
1
10
42.8556628900001
20
-4.2606760701089
30
0
41
1
10
42.3877397962244
20
-4.14145767403917
30
0
41
1
10
42.1537594100239
20
-4.07685780367768
30
0
41
1
10
41.6858115559462
20
-3.94061106259991
30
0
41
1
10
41.4518189489162
20
-3.86851434843274
30
0
41
1
10
40.9837485486693
20
-3.71512422835516
30
0
41
1
10
40.7497609142546
20
-3.63361964336426
30
0
41
1
10
40.280682946218
20
-3.46266942977098
30
0
41
1
10
40.0458050353313
20
-3.37378491290082
30
0
41
1
10
39.576965122423
20
-3.18941677737777
30
0
41
1
10
39.3427810047368
20
-3.09374544528572
30
0
41
1
10
38.8748790100063
20
-2.89493771478254
30
0
41
1
10
38.6411054055029
20
-2.79174133329278
30
0
41
1
10
38.1730488330328
20
-2.58082635851446
30
0
41
1
10
37.9388395118248
20
-2.47274351143699
30
0
41
1
10
37.4698145079174
20
-2.25085419820749
30
0
41
1
10
37.234686592525
20
-2.13680807367035
30
0
41
1
10
36.5325223291039
20
-1.78825440505383
30
0
41
1
10
36.0666121343542
20
-1.54955508403691
30
0
41
1
10
35.3697490005096
20
-1.18376456777989
30
0
41
1
10
35.1379170335214
20
-1.06030279387943
30
0
41
1
10
34.6747570847299
20
-0.811383768855791
30
0
41
1
10
34.4432319634011
20
-0.686257738086738
30
0
41
1
10
33.9799495479584
20
-0.435069234185704
30
0
41
1
10
33.7481537302963
20
-0.309063263507198
30
0
41
1
10
33.2844276133686
20
-0.0560772073363296
30
0
41
1
10
33.0526641460412
20
0.0711794849385683
30
0
41
1
10
32.5883147084533
20
0.325344498210598
30
0
41
1
10
32.3556781325063
20
0.452185344756174
30
0
41
1
10
31.8890295255093
20
0.704698221179939
30
0
41
1
10
31.6550045212006
20
0.830343129588272
30
0
41
1
10
31.1862123701229
20
1.0813348429474
30
0
41
1
10
30.9514745062077
20
1.20666097467171
30
0
41
1
10
30.4827987369545
20
1.45269596217892
30
0
41
1
10
30.2485618433518
20
1.57356544070549
30
0
41
1
10
29.780206415923
20
1.81155259882578
30
0
41
1
10
29.546150165791
20
1.92888395926212
30
0
41
1
10
29.0783443991764
20
2.16020337226303
30
0
41
1
10
28.8444163914343
20
2.27376350833538
30
0
41
1
10
28.3753992247046
20
2.49422189367965
30
0
41
1
10
28.1401321966341
20
2.60188459005656
30
0
41
1
10
27.6712054955786
20
2.81152626330353
30
0
41
1
10
27.4375350167762
20
2.91361810064683
30
0
41
1
10
26.9714873043652
20
3.11081508169016
30
0
41
1
10
26.7388562816995
20
3.20482745204041
30
0
41
1
10
26.2740374876784
20
3.38595251145583
30
0
41
1
10
26.0418743760606
20
3.47321432313973
30
0
41
1
10
25.5781354606002
20
3.64041386729662
30
0
41
1
10
25.3466879151696
20
3.72049268181678
30
0
41
1
10
24.8834606498045
20
3.87060551690982
30
0
41
1
10
24.6516562833337
20
3.94119730440875
30
0
41
1
10
24.1877521696092
20
4.0751973188996
30
0
41
1
10
23.9556301030337
20
4.13829779051557
30
0
41
1
10
23.4910080522472
20
4.25564147120821
30
0
41
1
10
23.2584693994203
20
4.30929827051656
30
0
41
1
10
22.7918911738603
20
4.40682831169761
30
0
41
1
10
22.558036429793
20
4.45134907760678
30
0
41
1
10
22.0890299873958
20
4.53127861719344
30
0
41
1
10
21.8538958706574
20
4.56692931630687
30
0
41
1
10
21.3863805225386
20
4.62597972372788
30
0
41
1
10
21.1533809267161
20
4.64961200937333
30
0
41
1
10
20.6878622001815
20
4.68846543558533
30
0
41
1
10
20.455455254621
20
4.70323462015375
30
0
41
1
10
20.0152178448252
20
4.72158695165632
30
0
41
1
10
19.8073983393293
20
4.72559751053674
30
0
41
1
10
19.5997195664401
20
4.72545321096396
30
0
0
SPLINE
5
CD
100
AcDbEntity
8
1
62
256
6
ByLayer
370
13
48
1
60
0
100
AcDbSpline
70
4
71
3
72
30
73
26
40
0
40
0
40
0
40
0
40
0.125
40
0.125
40
0.1875
40
0.1875
40
0.25
40
0.3125
40
0.3125
40
0.375
40
0.375
40
0.5
40
0.5
40
0.5625
40
0.5625
40
0.625
40
0.625
40
0.6875
40
0.6875
40
0.75
40
0.8125
40
0.8125
40
0.875
40
0.875
40
1
40
1
40
1
40
1
41
1
10
4.25032234499537
20
-4.53008347199852
30
0
41
1
10
4.25039091882513
20
-4.44151753773141
30
0
41
1
10
4.25045102844413
20
-4.32294401077377
30
0
41
1
10
4.25053316615387
20
-4.10040986253773
30
0
41
1
10
4.25055910270632
20
-4.01888718317667
30
0
41
1
10
4.2506081428827
20
-3.84399836039847
30
0
41
1
10
4.25065459730493
20
-3.65662307762906
30
0
41
1
10
4.25069746239234
20
-3.44458698263895
30
0
41
1
10
4.25073922808613
20
-3.21999816503026
30
0
41
1
10
4.25075966625147
20
-3.10072235112827
30
0
41
1
10
4.25081909442974
20
-2.73073628374598
30
0
41
1
10
4.25085651822664
20
-2.46708516227392
30
0
41
1
10
4.25091228159698
20
-2.04651420482662
30
0
41
1
10
4.25093081958309
20
-1.90186063465467
30
0
41
1
10
4.25096788115462
20
-1.60485754120333
30
0
41
1
10
4.25098623297327
20
-1.45390688831171
30
0
41
1
10
4.25102270538301
20
-1.14714452876393
30
0
41
1
10
4.2510408906187
20
-0.990747297032328
30
0
41
1
10
4.25107647588578
20
-0.677518649069896
30
0
41
1
10
4.25111135782203
20
-0.363209599523117
30
0
41
1
10
4.25114447003133
20
-0.0467790222834878
30
0
41
1
10
4.25117633895547
20
0.270725313409088
30
0
41
1
10
4.2511917303878
20
0.430917559000591
30
0
41
1
10
4.25123445161171
20
0.904566560243694
30
0
41
1
10
4.25125851046713
20
1.21178989451661
30
0
41
1
10
4.25127573320492
20
1.51068791357713
30
0
0
SPLINE
5
CE
100
AcDbEntity
8
1
62
256
6
ByLayer
370
18
48
1
60
0
100
AcDbSpline
70
4
71
3
72
12
73
8
40
0
40
0
40
0
40
0
40
0.500000000000006
40
0.500000000000006
40
0.750000000000003
40
0.750000000000003
40
1
40
1
40
1
40
1
41
1
10
61.4940276592287
20
4.86407347533228
30
0
41
1
10
61.4449685635468
20
4.90062249704249
30
0
41
1
10
61.3982730782226
20
4.93012221311054
30
0
41
1
10
61.3317263598744
20
4.96326005065188
30
0
41
1
10
61.3101275243474
20
4.97245086590144
30
0
41
1
10
61.2680970046915
20
4.9869895908509
30
0
41
1
10
61.2476388624768
20
4.99233049121264
30
0
41
1
10
61.228003493643
20
4.99565005574223
30
0
0
SPLINE
5
CF
100
AcDbEntity
8
1
62
256
6
ByLayer
370
18
48
1
60
0
100
AcDbSpline
70
4
71
3
72
32
73
28
40
0
40
0
40
0
40
0
40
0.0624999999999998
40
0.0624999999999998
40
0.125
40
0.125
40
0.249999999999999
40
0.249999999999999
40
0.374999999999999
40
0.374999999999999
40
0.437499999999999
40
0.437499999999999
40
0.499999999999999
40
0.499999999999999
40
0.624999999999999
40
0.624999999999999
40
0.656249999999999
40
0.656249999999999
40
0.687499999999999
40
0.687499999999999
40
0.749999999999999
40
0.749999999999999
40
0.875
40
0.875
40
0.9375
40
0.9375
40
1
40
1
40
1
40
1
41
1
10
4.00000000349749
20
-4.72011445260119
30
0
41
1
10
4.00000005720923
20
-4.66893914734158
30
0
41
1
10
4.00000011658494
20
-4.60970009706736
30
0
41
1
10
4.00000024099359
20
-4.47726501696459
30
0
41
1
10
4.00000030613813
20
-4.4039986790163
30
0
41
1
10
4.00000050701465
20
-4.16351099535834
30
0
41
1
10
4.00000064795697
20
-3.97543616394222
30
0
41
1
10
4.00000093932624
20
-3.54355223021074
30
0
41
1
10
4.00000108563665
20
-3.30635744902906
30
0
41
1
10
4.00000131179388
20
-2.91988882691729
30
0
41
1
10
4.0000013883531
20
-2.78591483238608
30
0
41
1
10
4.00000154525443
20
-2.50740359990877
30
0
41
1
10
4.00000162568358
20
-2.36270800896412
30
0
41
1
10
4.00000186925161
20
-1.9223690794388
30
0
41
1
10
4.0000020366856
20
-1.61745030640009
30
0
41
1
10
4.00000225553936
20
-1.22214914134631
30
0
41
1
10
4.00000229976882
20
-1.14237479750179
30
0
41
1
10
4.00000238913532
20
-0.98137243166866
30
0
41
1
10
4.00000243437461
20
-0.899957457628972
30
0
41
1
10
4.00000256993619
20
-0.656055119287373
30
0
41
1
10
4.00000266047573
20
-0.493279142566564
30
0
41
1
10
4.00000293051806
20
-0.0044425932609897
30
0
41
1
10
4.00000310910309
20
0.322121618974052
30
0
41
1
10
4.00000335660962
20
0.813010337901204
30
0
41
1
10
4.00000343489523
20
0.975626595059595
30
0
41
1
10
4.00000357663362
20
1.29442733006221
30
0
41
1
10
4.00000364043979
20
1.45130473779776
30
0
41
1
10
4.00000369471107
20
1.60568616142072
30
0
0
SPLINE
5
D0
100
AcDbEntity
8
1
62
256
6
ByLayer
370
18
48
1
60
0
100
AcDbSpline
70
4
71
3
72
8
73
4
40
0
40
0
40
0
40
0
40
1
40
1
40
1
40
1
41
1
10
62.9417771314784
20
1.10892950778489
30
0
41
1
10
62.963679345513
20
0.778166498328716
30
0
41
1
10
62.9796045360859
20
0.447770090523761
30
0
41
1
10
62.989550325123
20
0.11774043022956
30
0
0
SPLINE
5
D1
100
AcDbEntity
8
1
62
256
6
ByLayer
370
18
48
1
60
0
100
AcDbSpline
70
4
71
3
72
14
73
10
40
0
40
0
40
0
40
0
40
0.25
40
0.25
40
0.5
40
0.5
40
0.75
40
0.75
40
1
40
1
40
1
40
1
41
1
10
4.12558629967864
20
-4.78276725268492
30
0
41
1
10
4.1064533566082
20
-4.77981549059805
30
0
41
1
10
4.08917215199438
20
-4.77622954952972
30
0
41
1
10
4.05820462926786
20
-4.76772314699949
30
0
41
1
10
4.0446599797059
20
-4.76279799693736
30
0
41
1
10
4.02283725158384
20
-4.75204082149938
30
0
41
1
10
4.01427116413788
20
-4.74604896633727
30
0
41
1
10
4.00296285785686
20
-4.73357039610224
30
0
41
1
10
4.0000516141501
20
-4.72705127974768
30
0
41
1
10
4.00000042109389
20
-4.72022585849649
30
0
0
SPLINE
5
D2
100
AcDbEntity
8
1
62
256
6
ByLayer
370
18
48
1
60
0
100
AcDbSpline
70
4
71
3
72
18
73
14
40
0
40
0
40
0
40
0
40
0.269945190251317
40
0.269945190251317
40
0.508835139903055
40
0.508835139903055
40
0.568557627315993
40
0.568557627315993
40
0.628280114728931
40
0.628280114728931
40
0.747725089554806
40
0.747725089554806
40
1
40
1
40
1
40
1
41
1
10
20.047121347168
20
0.0148050223482983
30
0
41
1
10
20.7179014452451
20
-0.358901695197233
30
0
41
1
10
21.3855720193188
20
-0.731201240191496
30
0
41
1
10
22.6464148404482
20
-1.41551478281872
30
0
41
1
10
23.2392090677869
20
-1.72972778006229
30
0
41
1
10
23.9849683999294
20
-2.10701054233144
30
0
41
1
10
24.1343633244899
20
-2.18168440202223
30
0
41
1
10
24.4337339843242
20
-2.32929596973355
30
0
41
1
10
24.5838962177594
20
-2.40232118001782
30
0
41
1
10
25.0331406775363
20
-2.61745146161422
30
0
41
1
10
25.3314476077028
20
-2.75589422991527
30
0
41
1
10
26.2572842745074
20
-3.16982131459912
30
0
41
1
10
26.8821418002507
20
-3.42629719054221
30
0
41
1
10
27.5069118932656
20
-3.65426287167
30
0
0
SPLINE
5
D3
100
AcDbEntity
8
1
62
256
6
ByLayer
370
13
48
1
60
0
100
AcDbSpline
70
4
71
3
72
16
73
12
40
0
40
0
40
0
40
0
40
0.214248273730575
40
0.214248273730575
40
0.327730817024282
40
0.327730817024282
40
0.441213360317989
40
0.441213360317989
40
0.668178446905404
40
0.668178446905404
40
1
40
1
40
1
40
1
41
1
10
27.5069118931887
20
-3.65426287164192
30
0
41
1
10
28.0653850787392
20
-3.8580381828489
30
0
41
1
10
28.6237884027395
20
-4.03903293530234
30
0
41
1
10
29.4815647071439
20
-4.27660684328495
30
0
41
1
10
29.779251751723
20
-4.35165491096075
30
0
41
1
10
30.3767413987198
20
-4.48646007279194
30
0
41
1
10
30.677026832938
20
-4.54629755814264
30
0
41
1
10
31.5758692311638
20
-4.70054437307985
30
0
41
1
10
32.1739328351359
20
-4.7701464401201
30
0
41
1
10
33.6509382399632
20
-4.85661053426463
30
0
41
1
10
34.5180518345927
20
-4.83337308958934
30
0
41
1
10
35.3844087856154
20
-4.73898155111755
30
0
0
SPLINE
5
D4
100
AcDbEntity
8
1
62
256
6
ByLayer
370
18
48
1
60
0
100
AcDbSpline
70
4
71
3
72
8
73
4
40
0
40
0
40
0
40
0
40
1
40
1
40
1
40
1
41
1
10
62.9417771314783
20
-1.10892950778509
30
0
41
1
10
62.9636752426695
20
-0.77822845867891
30
0
41
1
10
62.9796026720404
20
-0.447831944872263
30
0
41
1
10
62.989550325123
20
-0.117740430229503
30
0
0
SPLINE
5
D5
100
AcDbEntity
8
1
62
256
6
ByLayer
370
18
48
1
60
0
100
AcDbSpline
70
4
71
3
72
8
73
4
40
0
40
0
40
0
40
0
40
1
40
1
40
1
40
1
41
1
10
62.9999671362338
20
0.0417724266910398
30
0
41
1
10
63.0000109570023
20
0.013922607860394
30
0
41
1
10
63.0000109518678
20
-0.0139258710127024
30
0
41
1
10
62.9999671362339
20
-0.041772426688766
30
0
0
SPLINE
5
D6
100
AcDbEntity
8
1
62
256
6
ByLayer
370
18
48
1
60
0
100
AcDbSpline
70
4
71
3
72
8
73
4
40
0
40
0
40
0
40
0
40
1
40
1
40
1
40
1
41
1
10
62.9895503251231
20
-0.117740430229389
30
0
41
1
10
62.9902034862021
20
-0.0960666818492086
30
0
41
1
10
62.9941603377605
20
-0.0696239248387087
30
0
41
1
10
62.9999671362339
20
-0.0417724266891071
30
0
0
SPLINE
5
D7
100
AcDbEntity
8
1
62
256
6
ByLayer
370
18
48
1
60
0
100
AcDbSpline
70
4
71
3
72
10
73
6
40
0
40
0
40
0
40
0
40
0.5
40
0.5
40
1
40
1
40
1
40
1
41
1
10
61.3569575103696
20
1.15121078733856
30
0
41
1
10
61.621268646139
20
1.14262002339584
30
0
41
1
10
61.885559590282
20
1.13420787130872
30
0
41
1
10
62.4137729067568
20
1.12064389366071
30
0
41
1
10
62.6777944663355
20
1.11461467378459
30
0
41
1
10
62.9417771314784
20
1.10892950778489
30
0
0
SPLINE
5
D8
100
AcDbEntity
8
1
62
256
6
ByLayer
370
18
48
1
60
0
100
AcDbSpline
70
4
71
3
72
14
73
10
40
0
40
0
40
0
40
0
40
0.25
40
0.25
40
0.5
40
0.5
40
0.75
40
0.75
40
1
40
1
40
1
40
1
41
1
10
4.00000369471121
20
1.6056861614158
30
0
41
1
10
4.00017068924649
20
1.61530784061756
30
0
41
1
10
4.00560028963869
20
1.62213380111251
30
0
41
1
10
4.0303488083585
20
1.62630349431387
30
0
41
1
10
4.05005559155052
20
1.6232999367293
30
0
41
1
10
4.10161050577949
20
1.60440853172528
30
0
41
1
10
4.13252547080413
20
1.58874612680907
30
0
41
1
10
4.19295178823518
20
1.55249001989918
30
0
41
1
10
4.22300821334849
20
1.53181476081323
30
0
41
1
10
4.25127573320489
20
1.51068791378216
30
0
0
SPLINE
5
D9
100
AcDbEntity
8
1
62
256
6
ByLayer
370
13
48
1
60
0
100
AcDbSpline
70
4
71
3
72
8
73
4
40
0
40
0
40
0
40
0
40
1
40
1
40
1
40
1
41
1
10
4.12812519577483
20
-4.65642011717497
30
0
41
1
10
4.1511706699757
20
-4.64750986063362
30
0
41
1
10
4.17597342957808
20
-4.64510154800155
30
0
41
1
10
4.20159746355418
20
-4.64882242835773
30
0
0
SPLINE
5
DA
100
AcDbEntity
8
1
62
256
6
ByLayer
370
18
48
1
60
0
100
AcDbSpline
70
4
71
3
72
44
73
40
40
0
40
0
40
0
40
0
40
0.0323645538885807
40
0.0323645538885807
40
0.0647291077771614
40
0.0647291077771614
40
0.129458215554323
40
0.129458215554323
40
0.258916431108644
40
0.258916431108644
40
0.291280984997225
40
0.291280984997225
40
0.323645538885806
40
0.323645538885806
40
0.356010092774387
40
0.356010092774387
40
0.388374646662967
40
0.388374646662967
40
0.517832862217288
40
0.517832862217288
40
0.582561969994448
40
0.582561969994448
40
0.598744246938738
40
0.598744246938738
40
0.614926523883028
40
0.614926523883028
40
0.647291077771607
40
0.647291077771607
40
0.776749293325927
40
0.776749293325927
40
0.809113847214507
40
0.809113847214507
40
0.841478401103088
40
0.841478401103088
40
0.906207508880249
40
0.906207508880249
40
0.970936616657411
40
0.970936616657411
40
1
40
1
40
1
40
1
41
1
10
61.228003493643
20
-4.99565005574223
30
0
41
1
10
60.9294384249835
20
-5.00252462193168
30
0
41
1
10
60.630996782619
20
-5.00045742633424
30
0
41
1
10
60.0336609128695
20
-4.97851593464353
30
0
41
1
10
59.7342013383055
20
-4.95857773881599
30
0
41
1
10
58.8386737888573
20
-4.87255478829749
30
0
41
1
10
58.246303369715
20
-4.78056044113279
30
0
41
1
10
56.4741595921115
20
-4.40788092282159
30
0
41
1
10
55.2988620711
20
-4.03075291192746
30
0
41
1
10
53.8068751560771
20
-3.42365511411305
30
0
41
1
10
53.5072950433633
20
-3.2954501487111
30
0
41
1
10
52.9101979248609
20
-3.02861241414917
30
0
41
1
10
52.6120546275667
20
-2.88969956372537
30
0
41
1
10
52.0157443529239
20
-2.60208497681444
30
0
41
1
10
51.7175553561385
20
-2.45341604217839
30
0
41
1
10
51.1203215752159
20
-2.14750772874629
30
0
41
1
10
50.8206731582536
20
-1.98993791329812
30
0
41
1
10
49.3293701453107
20
-1.18958345282519
30
0
41
1
10
48.1540112083814
20
-0.5071745845392
30
0
41
1
10
46.3805912635203
20
0.514592167825384
30
0
41
1
10
45.7876259586185
20
0.85470038487685
30
0
41
1
10
45.0405553571126
20
1.27292860166642
30
0
41
1
10
44.890810611657
20
1.35619395900216
30
0
41
1
10
44.5923117009941
20
1.5208437711681
30
0
41
1
10
44.4433428007615
20
1.60234897089799
30
0
41
1
10
43.9971365964742
20
1.84420379825434
30
0
41
1
10
43.7006670774528
20
2.00200703922513
30
0
41
1
10
42.2211968890449
20
2.77065368439614
30
0
41
1
10
41.0464243268803
20
3.31978567916445
30
0
41
1
10
39.5589045387958
20
3.88022674672865
30
0
41
1
10
39.2599214467674
20
3.98617710067322
30
0
41
1
10
38.6616612781758
20
4.18339826199517
30
0
41
1
10
38.3630913265428
20
4.2744934480597
30
0
41
1
10
37.4679570444511
20
4.52437789357933
30
0
41
1
10
36.8718332921897
20
4.65965394539501
30
0
41
1
10
35.6746850125019
20
4.86280151407735
30
0
41
1
10
35.0780723537211
20
4.9298085551795
30
0
41
1
10
34.2132960321828
20
4.97564186667512
30
0
41
1
10
33.9452337584346
20
4.98272144622698
30
0
41
1
10
33.6767748480992
20
4.98261402404782
30
0
0
SPLINE
5
DB
100
AcDbEntity
8
1
62
256
6
ByLayer
370
18
48
1
60
0
100
AcDbSpline
70
4
71
3
72
14
73
10
40
0
40
0
40
0
40
0
40
0.286480125637308
40
0.286480125637308
40
0.464860094227981
40
0.464860094227981
40
0.643240062818653
40
0.643240062818653
40
1
40
1
40
1
40
1
41
1
10
9.14083019491568
20
-4.73339698611579
30
0
41
1
10
8.66589615096137
20
-4.81573690525062
30
0
41
1
10
8.19012148867108
20
-4.87684459428729
30
0
41
1
10
7.41417298326954
20
-4.93981742400933
30
0
41
1
10
7.11505091324764
20
-4.95534859020103
30
0
41
1
10
6.51616559081532
20
-4.96854915267971
30
0
41
1
10
6.21729701317764
20
-4.96622718185802
30
0
41
1
10
5.32121675149736
20
-4.93276072371606
30
0
41
1
10
4.72448063010083
20
-4.87516252988121
30
0
41
1
10
4.12558629967873
20
-4.78276725268492
30
0
0
SPLINE
5
DC
100
AcDbEntity
8
1
62
256
6
ByLayer
370
18
48
1
60
0
100
AcDbSpline
70
4
71
3
72
16
73
12
40
0
40
0
40
0
40
0
40
0.264593713536974
40
0.264593713536974
40
0.396890570305461
40
0.396890570305461
40
0.529187427073948
40
0.529187427073948
40
0.793781140610921
40
0.793781140610921
40
1
40
1
40
1
40
1
41
1
10
60.918736120808
20
-3.75194096304281
30
0
41
1
10
60.9185221959926
20
-3.92006348711178
30
0
41
1
10
60.9260373854379
20
-4.06776761908668
30
0
41
1
10
60.9492284323894
20
-4.25929141225197
30
0
41
1
10
60.9589598915136
20
-4.31809955149711
30
0
41
1
10
60.9826650838642
20
-4.42540934688597
30
0
41
1
10
60.9965912279621
20
-4.47355489400411
30
0
41
1
10
61.0440900473752
20
-4.5999652667673
30
0
41
1
10
61.0835251297012
20
-4.66123536495951
30
0
41
1
10
61.1684954994939
20
-4.73040552208556
30
0
41
1
10
61.2109793103962
20
-4.74691837052751
30
0
41
1
10
61.2583177137376
20
-4.74951056763217
30
0
0
SPLINE
5
DD
100
AcDbEntity
8
1
62
256
6
ByLayer
370
18
48
1
60
0
100
AcDbSpline
70
4
71
3
72
86
73
82
40
0
40
0
40
0
40
0
40
0.0036513828325689
40
0.0036513828325689
40
0.0495787708444198
40
0.0495787708444198
40
0.0955061588562707
40
0.0955061588562707
40
0.118469852862196
40
0.118469852862196
40
0.141433546868122
40
0.141433546868122
40
0.164397240874047
40
0.164397240874047
40
0.187360934879972
40
0.187360934879972
40
0.210324628885898
40
0.210324628885898
40
0.233288322891823
40
0.233288322891823
40
0.279215710903673
40
0.279215710903673
40
0.302179404909598
40
0.302179404909598
40
0.325143098915523
40
0.325143098915523
40
0.348106792921448
40
0.348106792921448
40
0.371070486927373
40
0.371070486927373
40
0.394034180933298
40
0.394034180933298
40
0.416997874939223
40
0.416997874939223
40
0.439961568945148
40
0.439961568945148
40
0.462925262951073
40
0.462925262951073
40
0.485888956956998
40
0.485888956956998
40
0.508852650962923
40
0.508852650962923
40
0.554780038974774
40
0.554780038974774
40
0.577743732980699
40
0.577743732980699
40
0.600707426986624
40
0.600707426986624
40
0.623671120992549
40
0.623671120992549
40
0.646634814998474
40
0.646634814998474
40
0.669598509004399
40
0.669598509004399
40
0.692562203010324
40
0.692562203010324
40
0.715525897016249
40
0.715525897016249
40
0.738489591022174
40
0.738489591022174
40
0.784416979034025
40
0.784416979034025
40
0.80738067303995
40
0.80738067303995
40
0.830344367045876
40
0.830344367045876
40
0.853308061051801
40
0.853308061051801
40
0.876271755057727
40
0.876271755057727
40
0.899235449063652
40
0.899235449063652
40
0.922199143069578
40
0.922199143069578
40
0.945162837075503
40
0.945162837075503
40
0.968126531081429
40
0.968126531081429
40
0.991090225087354
40
0.991090225087354
40
1
40
1
40
1
40
1
41
1
10
25.6846707663577
20
3.60488799618574
30
0
41
1
10
25.7256288385553
20
3.62119910511572
30
0
41
1
10
25.7665906130152
20
3.6373720874243
30
0
41
1
10
26.3229072720825
20
3.85498999248446
30
0
41
1
10
26.8385417458072
20
4.03553879661408
30
0
41
1
10
27.8678789235166
20
4.35668511718472
30
0
41
1
10
28.385546302238
20
4.4934799627955
30
0
41
1
10
29.1648463618931
20
4.66407026530021
30
0
41
1
10
29.4253532941009
20
4.71536462039592
30
0
41
1
10
29.9466376751038
20
4.8039456344159
30
0
41
1
10
30.206731471445
20
4.84143349599989
30
0
41
1
10
30.7253426692267
20
4.90339345365831
30
0
41
1
10
30.9837447117606
20
4.9278851276309
30
0
41
1
10
31.4990401884443
20
4.96366878693075
30
0
41
1
10
31.7567021779209
20
4.9748043620173
30
0
41
1
10
32.2721490579444
20
4.98392769817661
30
0
41
1
10
32.5298400001088
20
4.9819340739962
30
0
41
1
10
33.0447009957391
20
4.96470619300135
30
0
41
1
10
33.3015980179247
20
4.94934978167055
30
0
41
1
10
34.0753038979953
20
4.8837981940716
30
0
41
1
10
34.5937117505127
20
4.81436056018444
30
0
41
1
10
35.3737228800134
20
4.66919815812687
30
0
41
1
10
35.6351488619413
20
4.6143720625976
30
0
41
1
10
36.1554662213756
20
4.493372378939
30
0
41
1
10
36.4149218716721
20
4.42703358075653
30
0
41
1
10
36.9319721707539
20
4.28236674108331
30
0
41
1
10
37.1893235010457
20
4.20375170610683
30
0
41
1
10
37.7047382810547
20
4.03694989625177
30
0
41
1
10
37.9625103489209
20
3.94854387636599
30
0
41
1
10
38.4776713759921
20
3.76129308933273
30
0
41
1
10
38.7349349816782
20
3.66228976851411
30
0
41
1
10
39.2492051578391
20
3.45373273218004
30
0
41
1
10
39.5069741968097
20
3.3451343692951
30
0
41
1
10
40.023809415939
20
3.1194820238776
30
0
41
1
10
40.2827901400785
20
3.00232209194465
30
0
41
1
10
40.8014379310373
20
2.7584606787857
30
0
41
1
10
41.0609566064751
20
2.63128899676727
30
0
41
1
10
41.582911872285
20
2.37128643014785
30
0
41
1
10
41.8432662180967
20
2.23893674418244
30
0
41
1
10
42.36225720232
20
1.96883856041012
30
0
41
1
10
42.620748792471
20
1.83084451987273
30
0
41
1
10
43.3939597402882
20
1.40924581748277
30
0
41
1
10
43.9096879443184
20
1.12361132953387
30
0
41
1
10
44.6814862787716
20
0.684729403863741
30
0
41
1
10
44.9381934782995
20
0.536213981620278
30
0
41
1
10
45.4535365158157
20
0.240094906393665
30
0
41
1
10
45.711868573752
20
0.0919697701280313
30
0
41
1
10
46.2293449108152
20
-0.205329170417059
30
0
41
1
10
46.4883499436243
20
-0.354759109352443
30
0
41
1
10
47.0074119819481
20
-0.654334119743368
30
0
41
1
10
47.2688327037638
20
-0.803456153348293
30
0
41
1
10
47.7897238626202
20
-1.09725851334539
30
0
41
1
10
48.0493963672762
20
-1.2422319610167
30
0
41
1
10
48.5667255850359
20
-1.52919793640225
30
0
41
1
10
48.8241885059734
20
-1.67148173046152
30
0
41
1
10
49.3397292410867
20
-1.94861308467776
30
0
41
1
10
49.59749237078
20
-2.08402783096804
30
0
41
1
10
50.1124986992755
20
-2.34945044074618
30
0
41
1
10
50.3695893859367
20
-2.47968675044879
30
0
41
1
10
51.1404592220287
20
-2.861471590836
30
0
41
1
10
51.6570447735561
20
-3.09943060241409
30
0
41
1
10
52.4337100070143
20
-3.43456244343869
30
0
41
1
10
52.692672923089
20
-3.54286246610545
30
0
41
1
10
53.2137667945227
20
-3.74856196544897
30
0
41
1
10
53.4749946008549
20
-3.84616103004498
30
0
41
1
10
53.9944636538009
20
-4.0302184305765
30
0
41
1
10
54.2530982654225
20
-4.11706191049896
30
0
41
1
10
54.7688346590109
20
-4.27960007777719
30
0
41
1
10
55.0266566810994
20
-4.35461577435112
30
0
41
1
10
55.5420733337583
20
-4.49264363437976
30
0
41
1
10
55.7996161349852
20
-4.55570601952059
30
0
41
1
10
56.3138801169473
20
-4.67019537184547
30
0
41
1
10
56.5704234762769
20
-4.72165822238537
30
0
41
1
10
57.0853365246998
20
-4.81120294322434
30
0
41
1
10
57.3433831176543
20
-4.84954239909283
30
0
41
1
10
57.8601513684285
20
-4.91356030504755
30
0
41
1
10
58.1187124537077
20
-4.93927308421743
30
0
41
1
10
58.6368455769427
20
-4.97744742890765
30
0
41
1
10
58.8975700700472
20
-4.98976803697124
30
0
41
1
10
59.2596711376958
20
-4.99747190540492
30
0
41
1
10
59.3608074107902
20
-4.99860990367554
30
0
41
1
10
59.461844875603
20
-4.99873221496776
30
0
0
SPLINE
5
DE
100
AcDbEntity
8
1
62
256
6
ByLayer
370
18
48
1
60
0
100
AcDbSpline
70
4
71
3
72
29
73
25
40
0
40
0
40
0
40
0
40
0.0420200544549006
40
0.0757590352526379
40
0.106017174140095
40
0.135114025484497
40
0.163985294906945
40
0.206368906855867
40
0.249820691540305
40
0.288209943471558
40
0.348865829729484
40
0.406624941460209
40
0.463043101577769
40
0.525399268524921
40
0.590180236582519
40
0.658778133504502
40
0.727214612548846
40
0.791710923835191
40
0.841032243709515
40
0.880539988359405
40
0.917095287971386
40
0.951710827627592
40
0.99013372251183
40
1
40
1
40
1
40
1
41
1
10
33.8083853537233
20
-4.73275941886544
30
0
41
1
10
33.9865834600278
20
-4.73179326638532
30
0
41
1
10
34.3113169444136
20
-4.73088065173374
30
0
41
1
10
34.7914372269519
20
-4.73132298724042
30
0
41
1
10
35.1912338791989
20
-4.73388444508103
30
0
41
1
10
35.5838804283033
20
-4.73398971542127
30
0
41
1
10
36.0306743585429
20
-4.73433945170765
30
0
41
1
10
36.5415198985237
20
-4.73434308370847
30
0
41
1
10
37.0946850823194
20
-4.73485967140385
30
0
41
1
10
37.7292430229149
20
-4.73552882005379
30
0
41
1
10
38.427519526436
20
-4.73496475332104
30
0
41
1
10
39.2060746982874
20
-4.73673319324215
30
0
41
1
10
39.9922094348669
20
-4.73579071735162
30
0
41
1
10
40.8095999283458
20
-4.73759934609464
30
0
41
1
10
41.6812457062806
20
-4.73663751304207
30
0
41
1
10
42.5799495180378
20
-4.7387191866587
30
0
41
1
10
43.4774281095073
20
-4.73757270710897
30
0
41
1
10
44.2889396170979
20
-4.73944306190839
30
0
41
1
10
44.9719773448576
20
-4.73906367383847
30
0
41
1
10
45.5295807159334
20
-4.73905308070314
30
0
41
1
10
46.0242647171204
20
-4.7406579804084
30
0
41
1
10
46.5011063286153
20
-4.74057810889761
30
0
41
1
10
46.8624952581985
20
-4.73581679488976
30
0
41
1
10
47.0771509099966
20
-4.73651638237521
30
0
41
1
10
47.121110078616
20
-4.73670656963301
30
0
0
SPLINE
5
DF
100
AcDbEntity
8
1
62
256
6
ByLayer
370
18
48
1
60
0
100
AcDbSpline
70
4
71
3
72
22
73
18
40
0
40
0
40
0
40
0
40
0.0277464585877711
40
0.0919720834836854
40
0.141491052476582
40
0.191962245178927
40
0.256303856343831
40
0.313440605132978
40
0.404506993895081
40
0.499248635586379
40
0.588361666077352
40
0.686951056653359
40
0.77349624846638
40
0.871743655027032
40
0.956050152813827
40
0.998746335325027
40
1
40
1
40
1
40
1
41
1
10
47.0855350098404
20
4.73752688223041
30
0
41
1
10
46.9857914296921
20
4.73736669772384
30
0
41
1
10
46.6562578410498
20
4.7369845619229
30
0
41
1
10
46.1716249896204
20
4.7418857029237
30
0
41
1
10
45.5826633919656
20
4.7389409600971
30
0
41
1
10
44.9966475417076
20
4.73906573948742
30
0
41
1
10
44.3822645032918
20
4.73951639297601
30
0
41
1
10
43.6232514538662
20
4.73756633934559
30
0
41
1
10
42.7555521373828
20
4.73905230968512
30
0
41
1
10
41.7736999478645
20
4.73648952460039
30
0
41
1
10
40.7649574461225
20
4.73750803860111
30
0
41
1
10
39.78550622406
20
4.73622788322692
30
0
41
1
10
38.773416634745
20
4.73577128244699
30
0
41
1
10
37.8123582366345
20
4.73551397386836
30
0
41
1
10
37.0078716585502
20
4.73463824355571
30
0
41
1
10
36.5498359760559
20
4.73444354670721
30
0
41
1
10
36.3928694996819
20
4.73439523638575
30
0
41
1
10
36.388392040167
20
4.73439387155534
30
0
0
SPLINE
5
E0
100
AcDbEntity
8
1
62
256
6
ByLayer
370
18
48
1
60
0
100
AcDbSpline
70
4
71
1
72
4
73
2
40
0
40
0
40
1
40
1
41
1
10
61.0845525927362
20
-4.74968165853943
30
0
41
1
10
61.2603262755891
20
-4.7493120177283
30
0
0
SPLINE
5
E1
100
AcDbEntity
8
1
62
256
6
ByLayer
370
18
48
1
60
0
100
AcDbSpline
70
4
71
1
72
4
73
2
40
0
40
0
40
1
40
1
41
1
10
47.2729641910022
20
0.0003641358006803
30
0
41
1
10
47.272952103951
20
0.0003718369712828
30
0
0
SPLINE
5
E2
100
AcDbEntity
8
1
62
256
6
ByLayer
370
18
48
1
60
0
100
AcDbSpline
70
4
71
3
72
25
73
21
40
0
40
0
40
0
40
0
40
0.0366438136370026
40
0.0834558565663818
40
0.123837787650448
40
0.162835666087934
40
0.214613737007925
40
0.269663189098012
40
0.359777948015973
40
0.456442129133118
40
0.549560810807835
40
0.619638919178457
40
0.695585173985118
40
0.758925128852136
40
0.833915751859613
40
0.900970321381329
40
0.931531208611654
40
0.964211137024607
40
0.998251150051645
40
1
40
1
40
1
40
1
41
1
10
19.7970014767095
20
4.72419079993645
30
0
41
1
10
19.6658470225553
20
4.72384197833256
30
0
41
1
10
19.3683290992332
20
4.72332057521766
30
0
41
1
10
18.9400397902347
20
4.72455854117339
30
0
41
1
10
18.4904382739645
20
4.72473554963091
30
0
41
1
10
18.0244407413591
20
4.72536392780992
30
0
41
1
10
17.5057938214683
20
4.72314582882811
30
0
41
1
10
16.8055162484077
20
4.72367258986861
30
0
41
1
10
15.9455648143778
20
4.72259283921011
30
0
41
1
10
14.9502688466747
20
4.72199163842163
30
0
41
1
10
14.0262119884584
20
4.72047932896388
30
0
41
1
10
13.1758278508124
20
4.72091078903605
30
0
41
1
10
12.4313417422574
20
4.71961593092283
30
0
41
1
10
11.6693810145843
20
4.71974965660641
30
0
41
1
10
10.9390565300899
20
4.71892875676602
30
0
41
1
10
10.3252782647487
20
4.71847048581611
30
0
41
1
10
9.86195403097051
20
4.71842616460666
30
0
41
1
10
9.51603012852561
20
4.71825588564809
30
0
41
1
10
9.27256794515145
20
4.71802215908076
30
0
41
1
10
9.14530211181358
20
4.7179050859279
30
0
41
1
10
9.13908315788305
20
4.71789937909975
30
0
0
SPLINE
5
E3
100
AcDbEntity
8
1
62
256
6
ByLayer
370
18
48
1
60
0
100
AcDbSpline
70
4
71
3
72
33
73
29
40
0
40
0
40
0
40
0
40
0.0467415226024816
40
0.0886137604274712
40
0.127458092156922
40
0.158863901797888
40
0.184676489029516
40
0.226617444385349
40
0.275036984547011
40
0.312295933577873
40
0.344417976043827
40
0.385963046240032
40
0.42570182785987
40
0.45610613779292
40
0.489513357135066
40
0.531531849032117
40
0.577585270287901
40
0.616086830840022
40
0.667716893354987
40
0.713684059964045
40
0.752054140397955
40
0.803667032729074
40
0.836454258086629
40
0.862605988322092
40
0.88843310986198
40
0.919046010508551
40
0.959026391652537
40
1
40
1
40
1
40
1
41
1
10
6.60590724684752
20
-4.71577251323075
30
0
41
1
10
6.79905155862659
20
-4.71463057175899
30
0
41
1
10
7.16873023036257
20
-4.71349531429442
30
0
41
1
10
7.73417642771778
20
-4.7136651612341
30
0
41
1
10
8.19831841110224
20
-4.71776862994906
30
0
41
1
10
8.61410747087655
20
-4.71729006429254
30
0
41
1
10
9.04473804236676
20
-4.71785744466368
30
0
41
1
10
9.54911635433064
20
-4.71831507234165
30
0
41
1
10
10.1036969829436
20
-4.71846690266065
30
0
41
1
10
10.614680612511
20
-4.71857651455545
30
0
41
1
10
11.0963229992026
20
-4.71900927186368
30
0
41
1
10
11.5887165055725
20
-4.71964935725276
30
0
41
1
10
12.0735244857303
20
-4.71962947592081
30
0
41
1
10
12.5233417621128
20
-4.71988503261926
30
0
41
1
10
12.9829838889425
20
-4.72050479753429
30
0
41
1
10
13.5106041536806
20
-4.72081167251824
30
0
41
1
10
14.0603660088599
20
-4.72064385918722
30
0
41
1
10
14.6512775251199
20
-4.72131912928697
30
0
41
1
10
15.2423852587144
20
-4.72205826237533
30
0
41
1
10
15.8327182717352
20
-4.72217479675689
30
0
41
1
10
16.4233400755503
20
-4.72401071830373
30
0
41
1
10
16.9561217449541
20
-4.72326481390141
30
0
41
1
10
17.4374042271666
20
-4.72343082211245
30
0
41
1
10
17.8009060925756
20
-4.72387281036509
30
0
41
1
10
18.1598266474038
20
-4.72419552943384
30
0
41
1
10
18.5771094912959
20
-4.72456331864868
30
0
41
1
10
19.0584586245357
20
-4.72412759118762
30
0
41
1
10
19.410189787848
20
-4.72496179530626
30
0
41
1
10
19.588530297455
20
-4.72552058815199
30
0
0
LINE
5
7B
100
AcDbEntity
8
SK1
62
256
6
ByLayer
370
18
48
1
60
0
100
AcDbLine
10
-38.66
20
5
30
0
11
-38.66
21
-5
31
0
39
0
210
0
220
0
230
1
0
LINE
5
7D
100
AcDbEntity
8
SK1
62
256
6
ByLayer
370
18
48
1
60
0
100
AcDbLine
10
-40
20
3.66
30
0
11
-40
21
-3.66
31
0
39
0
210
0
220
0
230
1
0
LINE
5
7E
100
AcDbEntity
8
SK1
62
256
6
ByLayer
370
18
48
1
60
0
100
AcDbLine
10
0
20
-5
30
0
11
0
21
5
31
0
39
0
210
0
220
0
230
1
0
LINE
5
7F
100
AcDbEntity
8
1
62
256
6
ByLayer
370
18
48
1
60
0
100
AcDbLine
10
1.5
20
4.962504
30
0
11
1.5
21
-4.962504
31
0
39
0
210
0
220
0
230
1
0
LINE
5
80
100
AcDbEntity
8
1
62
256
6
ByLayer
370
13
48
1
60
0
100
AcDbLine
10
61.356958
20
1.151211
30
0
11
62.98955
21
0.11774
31
0
39
0
210
0
220
0
230
1
0
LINE
5
81
100
AcDbEntity
8
1
62
256
6
ByLayer
370
18
48
1
60
0
100
AcDbLine
10
0
20
-5
30
0
11
0
21
5
31
0
39
0
210
0
220
0
230
1
0
LINE
5
82
100
AcDbEntity
8
1
62
256
6
ByLayer
370
13
48
1
60
0
100
AcDbLine
10
61.220431
20
1.055823
30
0
11
62.96424
21
-0.04805
31
0
39
0
210
0
220
0
230
1
0
LINE
5
83
100
AcDbEntity
8
80
62
256
6
ByLayer
370
18
48
1
60
0
100
AcDbLine
10
0
20
0
30
0
11
-5
21
0
31
0
39
0
210
0
220
0
230
1
0
LINE
5
84
100
AcDbEntity
8
4
62
256
6
ByLayer
370
18
48
0.05
60
0
100
AcDbLine
10
63
20
0
30
0
11
0
21
0
31
0
39
0
210
0
220
0
230
1
0
LINE
5
86
100
AcDbEntity
8
SK4
62
256
6
ByLayer
370
18
48
0.05
60
0
100
AcDbLine
10
68
20
0
30
0
11
-45
21
0
31
0
39
0
210
0
220
0
230
1
0
LINE
5
88
100
AcDbEntity
8
SK1
62
256
6
ByLayer
370
18
48
1
60
0
100
AcDbLine
10
-40
20
-3.66
30
0
11
-38.66
21
-5
31
0
39
0
210
0
220
0
230
1
0
LINE
5
89
100
AcDbEntity
8
SK1
62
256
6
ByLayer
370
18
48
1
60
0
100
AcDbLine
10
-38.66
20
5
30
0
11
-40
21
3.66
31
0
39
0
210
0
220
0
230
1
0
LINE
5
8A
100
AcDbEntity
8
SK1
62
256
6
ByLayer
370
18
48
1
60
0
100
AcDbLine
10
-38.66
20
-5
30
0
11
0
21
-5
31
0
39
0
210
0
220
0
230
1
0
LINE
5
8B
100
AcDbEntity
8
SK1
62
256
6
ByLayer
370
18
48
1
60
0
100
AcDbLine
10
0
20
5
30
0
11
-38.66
21
5
31
0
39
0
210
0
220
0
230
1
0
LINE
5
8C
100
AcDbEntity
8
1
62
256
6
ByLayer
370
18
48
1
60
0
100
AcDbLine
10
1.5
20
4.962504
30
0
11
0
21
5
31
0
39
0
210
0
220
0
230
1
0
LINE
5
8D
100
AcDbEntity
8
1
62
256
6
ByLayer
370
18
48
1
60
0
100
AcDbLine
10
0
20
-5
30
0
11
1.5
21
-4.962504
31
0
39
0
210
0
220
0
230
1
0
LINE
5
8E
100
AcDbEntity
8
1
62
256
6
ByLayer
370
18
48
1
60
0
100
AcDbLine
10
1.5
20
-4.962504
30
0
11
6.473569
21
-4.965612
31
0
39
0
210
0
220
0
230
1
0
LINE
5
8F
100
AcDbEntity
8
1
62
256
6
ByLayer
370
18
48
1
60
0
100
AcDbLine
10
32.274078
20
-4.981738
30
0
11
33.67307
21
-4.982612
31
0
39
0
210
0
220
0
230
1
0
LINE
5
90
100
AcDbEntity
8
1
62
256
6
ByLayer
370
18
48
1
60
0
100
AcDbLine
10
59.469037
20
-4.998735
30
0
11
60.874165
21
-4.999613
31
0
39
0
210
0
220
0
230
1
0
LINE
5
91
100
AcDbEntity
8
1
62
256
6
ByLayer
370
18
48
1
60
0
100
AcDbLine
10
60.874028
20
4.999613
30
0
11
59.469037
21
4.998735
31
0
39
0
210
0
220
0
230
1
0
LINE
5
92
100
AcDbEntity
8
1
62
256
6
ByLayer
370
18
48
1
60
0
100
AcDbLine
10
33.673032
20
4.982612
30
0
11
32.274078
21
4.981738
31
0
39
0
210
0
220
0
230
1
0
LINE
5
93
100
AcDbEntity
8
1
62
256
6
ByLayer
370
18
48
1
60
0
100
AcDbLine
10
6.47348
20
4.965612
30
0
11
1.5
21
4.962504
31
0
39
0
210
0
220
0
230
1
0
LINE
5
94
100
AcDbEntity
8
81
62
256
6
ByLayer
370
18
48
1
60
0
100
AcDbLine
10
63
20
0
30
0
11
68
21
0
31
0
39
0
210
0
220
0
230
1
0
LINE
5
95
100
AcDbEntity
8
SK2
62
256
6
ByLayer
370
13
48
1
60
0
100
AcDbLine
10
-48.625163
20
-5
30
0
11
-48.625163
21
35.857173
31
0
39
0
210
0
220
0
230
1
0
LINE
5
97
100
AcDbEntity
8
SK2
62
256
6
ByLayer
370
13
48
1
60
0
100
AcDbLine
10
-41.5875
20
5
30
0
11
-50.625163
21
5
31
0
39
0
210
0
220
0
230
1
0
LINE
5
98
100
AcDbEntity
8
SK2
62
256
6
ByLayer
370
13
48
1
60
0
100
AcDbLine
10
-41.5875
20
-5
30
0
11
-50.625163
21
-5
31
0
39
0
210
0
220
0
230
1
0
LINE
5
99
100
AcDbEntity
8
1
62
256
6
ByLayer
370
18
48
1
60
1
100
AcDbLine
10
-48.625163
20
5
30
0
11
-48.164379
21
1.500002
31
0
39
0
210
0
220
0
230
1
0
LINE
5
9A
100
AcDbEntity
8
1
62
256
6
ByLayer
370
18
48
1
60
1
100
AcDbLine
10
-48.164379
20
1.500002
30
0
11
-49.085946
21
1.499998
31
0
39
0
210
0
220
0
230
1
0
LINE
5
9B
100
AcDbEntity
8
1
62
256
6
ByLayer
370
18
48
1
60
1
100
AcDbLine
10
-49.085946
20
1.499998
30
0
11
-48.625163
21
5
31
0
39
0
210
0
220
0
230
1
0
LINE
5
9C
100
AcDbEntity
8
1
62
256
6
ByLayer
370
18
48
1
60
1
100
AcDbLine
10
-48.625163
20
-5
30
0
11
-49.085946
21
-1.500002
31
0
39
0
210
0
220
0
230
1
0
LINE
5
9D
100
AcDbEntity
8
1
62
256
6
ByLayer
370
18
48
1
60
1
100
AcDbLine
10
-49.085946
20
-1.500002
30
0
11
-48.164379
21
-1.499998
31
0
39
0
210
0
220
0
230
1
0
LINE
5
9E
100
AcDbEntity
8
1
62
256
6
ByLayer
370
18
48
1
60
1
100
AcDbLine
10
-48.164379
20
-1.499998
30
0
11
-48.625163
21
-5
31
0
39
0
210
0
220
0
230
1
0
LINE
5
9F
100
AcDbEntity
8
2
62
256
6
ByLayer
370
13
48
1
60
0
100
AcDbLine
10
75.083343
20
-5
30
0
11
75.083343
21
34.450259
31
0
39
0
210
0
220
0
230
1
0
LINE
5
A1
100
AcDbEntity
8
2
62
256
6
ByLayer
370
13
48
1
60
0
100
AcDbLine
10
63.1035
20
5
30
0
11
77.083343
21
5
31
0
39
0
210
0
220
0
230
1
0
LINE
5
A2
100
AcDbEntity
8
2
62
256
6
ByLayer
370
13
48
1
60
0
100
AcDbLine
10
63.1035
20
-5
30
0
11
77.083343
21
-5
31
0
39
0
210
0
220
0
230
1
0
LINE
5
A3
100
AcDbEntity
8
1
62
256
6
ByLayer
370
18
48
1
60
1
100
AcDbLine
10
75.083343
20
5
30
0
11
75.544126
21
1.500002
31
0
39
0
210
0
220
0
230
1
0
LINE
5
A4
100
AcDbEntity
8
1
62
256
6
ByLayer
370
18
48
1
60
1
100
AcDbLine
10
75.544126
20
1.500002
30
0
11
74.622559
21
1.499998
31
0
39
0
210
0
220
0
230
1
0
LINE
5
A5
100
AcDbEntity
8
1
62
256
6
ByLayer
370
18
48
1
60
1
100
AcDbLine
10
74.622559
20
1.499998
30
0
11
75.083343
21
5
31
0
39
0
210
0
220
0
230
1
0
LINE
5
A6
100
AcDbEntity
8
1
62
256
6
ByLayer
370
18
48
1
60
1
100
AcDbLine
10
75.083343
20
-5
30
0
11
74.622559
21
-1.500002
31
0
39
0
210
0
220
0
230
1
0
LINE
5
A7
100
AcDbEntity
8
1
62
256
6
ByLayer
370
18
48
1
60
1
100
AcDbLine
10
74.622559
20
-1.500002
30
0
11
75.544126
21
-1.499998
31
0
39
0
210
0
220
0
230
1
0
LINE
5
A8
100
AcDbEntity
8
1
62
256
6
ByLayer
370
18
48
1
60
1
100
AcDbLine
10
75.544126
20
-1.499998
30
0
11
75.083343
21
-5
31
0
39
0
210
0
220
0
230
1
0
LINE
5
EA
100
AcDbEntity
8
1
62
256
6
ByLayer
370
18
48
1
60
1
100
AcDbLine
10
-48.625163
20
5
30
0
11
-48.164379
21
1.500002
31
0
39
0
210
0
220
0
230
1
0
LINE
5
EB
100
AcDbEntity
8
1
62
256
6
ByLayer
370
18
48
1
60
1
100
AcDbLine
10
-48.164379
20
1.500002
30
0
11
-49.085946
21
1.499998
31
0
39
0
210
0
220
0
230
1
0
LINE
5
EC
100
AcDbEntity
8
1
62
256
6
ByLayer
370
18
48
1
60
1
100
AcDbLine
10
-49.085946
20
1.499998
30
0
11
-48.625163
21
5
31
0
39
0
210
0
220
0
230
1
0
LINE
5
EE
100
AcDbEntity
8
1
62
256
6
ByLayer
370
18
48
1
60
1
100
AcDbLine
10
-48.625163
20
-5
30
0
11
-49.085946
21
-1.500002
31
0
39
0
210
0
220
0
230
1
0
LINE
5
EF
100
AcDbEntity
8
1
62
256
6
ByLayer
370
18
48
1
60
1
100
AcDbLine
10
-49.085946
20
-1.500002
30
0
11
-48.164379
21
-1.499998
31
0
39
0
210
0
220
0
230
1
0
LINE
5
F0
100
AcDbEntity
8
1
62
256
6
ByLayer
370
18
48
1
60
1
100
AcDbLine
10
-48.164379
20
-1.499998
30
0
11
-48.625163
21
-5
31
0
39
0
210
0
220
0
230
1
0
LINE
5
F4
100
AcDbEntity
8
1
62
256
6
ByLayer
370
18
48
1
60
1
100
AcDbLine
10
75.083343
20
5
30
0
11
75.544126
21
1.500002
31
0
39
0
210
0
220
0
230
1
0
LINE
5
F5
100
AcDbEntity
8
1
62
256
6
ByLayer
370
18
48
1
60
1
100
AcDbLine
10
75.544126
20
1.500002
30
0
11
74.622559
21
1.499998
31
0
39
0
210
0
220
0
230
1
0
LINE
5
F6
100
AcDbEntity
8
1
62
256
6
ByLayer
370
18
48
1
60
1
100
AcDbLine
10
74.622559
20
1.499998
30
0
11
75.083343
21
5
31
0
39
0
210
0
220
0
230
1
0
LINE
5
F8
100
AcDbEntity
8
1
62
256
6
ByLayer
370
18
48
1
60
1
100
AcDbLine
10
75.083343
20
-5
30
0
11
74.622559
21
-1.500002
31
0
39
0
210
0
220
0
230
1
0
LINE
5
F9
100
AcDbEntity
8
1
62
256
6
ByLayer
370
18
48
1
60
1
100
AcDbLine
10
74.622559
20
-1.500002
30
0
11
75.544126
21
-1.499998
31
0
39
0
210
0
220
0
230
1
0
LINE
5
FA
100
AcDbEntity
8
1
62
256
6
ByLayer
370
18
48
1
60
1
100
AcDbLine
10
75.544126
20
-1.499998
30
0
11
75.083343
21
-5
31
0
39
0
210
0
220
0
230
1
0
MTEXT
5
E4
100
AcDbEntity
8
SK6
62
256
6
ByLayer
370
13
48
1
60
0
100
AcDbMText
10
-17.645193
20
37.540328
30
0
210
0
220
0
230
1
1
\W0.7670;462.1-1000-050A0-XM X2BM
40
3.5
41
0
44
1.084337
50
0
71
7
72
5
7
iso_b_vert
0
MTEXT
5
E8
100
AcDbEntity
8
SK2
62
256
6
ByLayer
370
18
48
1
60
0
100
AcDbMText
10
-50.189796
20
18.409024
30
0
210
0
220
0
230
1
1
%%c
40
3.5
41
0
44
1.084337
50
90
71
7
72
5
7
iso_b_vert
0
MTEXT
5
E9
100
AcDbEntity
8
SK2
62
256
6
ByLayer
370
18
48
1
60
0
100
AcDbMText
10
-50.189796
20
23.63168
30
0
210
0
220
0
230
1
1
\W0.6930;10,000
40
3.5
41
0
44
1.084337
50
90
71
7
72
5
7
iso_b_vert
0
MTEXT
5
F2
100
AcDbEntity
8
2
62
256
6
ByLayer
370
18
48
1
60
0
100
AcDbMText
10
73.518709
20
17.00211
30
0
210
0
220
0
230
1
1
%%c
40
3.5
41
0
44
1.084337
50
90
71
7
72
5
7
iso_b_vert
0
MTEXT
5
F3
100
AcDbEntity
8
2
62
256
6
ByLayer
370
18
48
1
60
0
100
AcDbMText
10
73.518709
20
22.224766
30
0
210
0
220
0
230
1
1
\W0.6930;10,000
40
3.5
41
0
44
1.084337
50
90
71
7
72
5
7
iso_b_vert
0
HATCH
5
ED
100
AcDbEntity
8
SK2
62
256
6
ByLayer
370
13
48
1
60
0
100
AcDbHatch
10
0
20
0
30
0
210
0
220
0
230
1
2
ANSI31
70
0
71
0
91
1
92
5
93
3
72
1
10
-48.6251625675374
20
5
11
-48.1643788259847
21
1.50000169255318
72
1
10
-48.1643788259847
20
1.50000169255318
11
-49.0859463090902
21
1.49999830744682
72
1
10
-49.0859463090902
20
1.49999830744682
11
-48.6251625675374
21
5
97
0
75
0
76
1
52
0
41
0.0062
77
0
78
1
53
45
43
0
44
0
45
-0.0139193969876572
46
0.0139193969876572
79
0
47
0
98
1
10
0
20
0
0
HATCH
5
F1
100
AcDbEntity
8
SK2
62
256
6
ByLayer
370
13
48
1
60
0
100
AcDbHatch
10
0
20
0
30
0
210
0
220
0
230
1
2
ANSI31
70
0
71
0
91
1
92
5
93
3
72
1
10
-48.6251625675374
20
-5
11
-49.0859463090902
21
-1.50000169255318
72
1
10
-49.0859463090902
20
-1.50000169255318
11
-48.1643788259847
21
-1.49999830744682
72
1
10
-48.1643788259847
20
-1.49999830744682
11
-48.6251625675374
21
-5
97
0
75
0
76
1
52
0
41
0.0062
77
0
78
1
53
45
43
0
44
0
45
-0.0139193969876572
46
0.0139193969876572
79
0
47
0
98
1
10
0
20
0
0
HATCH
5
F7
100
AcDbEntity
8
2
62
256
6
ByLayer
370
13
48
1
60
0
100
AcDbHatch
10
0
20
0
30
0
210
0
220
0
230
1
2
ANSI31
70
0
71
0
91
1
92
5
93
3
72
1
10
75.083342615295
20
5
11
75.5441263568477
21
1.50000169255318
72
1
10
75.5441263568477
20
1.50000169255318
11
74.6225588737422
21
1.49999830744682
72
1
10
74.6225588737422
20
1.49999830744682
11
75.083342615295
21
5
97
0
75
0
76
1
52
0
41
0.0062
77
0
78
1
53
45
43
0
44
0
45
-0.0139193969876572
46
0.0139193969876572
79
0
47
0
98
1
10
0
20
0
0
HATCH
5
FB
100
AcDbEntity
8
2
62
256
6
ByLayer
370
13
48
1
60
0
100
AcDbHatch
10
0
20
0
30
0
210
0
220
0
230
1
2
ANSI31
70
0
71
0
91
1
92
5
93
3
72
1
10
75.083342615295
20
-5
11
74.6225588737422
21
-1.50000169255318
72
1
10
74.6225588737422
20
-1.50000169255318
11
75.5441263568477
21
-1.49999830744682
72
1
10
75.5441263568477
20
-1.49999830744682
11
75.083342615295
21
-5
97
0
75
0
76
1
52
0
41
0.0062
77
0
78
1
53
45
43
0
44
0
45
-0.0139193969876572
46
0.0139193969876572
79
0
47
0
98
1
10
0
20
0
0
DIMENSION
5
FD
100
AcDbEntity
8
SK2
62
256
6
ByLayer
370
13
48
1
60
0
100
AcDbDimension
2
_U0
10
61.516
20
-15.213398
30
0
11
30.758
21
-15.213398
31
0
70
32
71
1
72
1
41
1
210
0
220
0
230
1
3
Standard
100
AcDbAlignedDimension
13
0
23
0
33
0
14
61.516
24
-5
34
0
50
0
100
AcDbRotatedDimension
1001
ACAD
1000
DSTYLE
1002
{
1070
   371
1070
    13
1070
   372
1070
    13
1070
   170
1070
     0
1070
   144
1040
1.0
1070
   277
1070
     2
1070
   278
1070
    44
1070
   146
1040
1.0
1070
   345
1005
16
1070
   347
1005
16
1070
   346
1005
16
1070
   344
1005
0
1070
   343
1005
0
1070
   172
1070
     1
1070
    76
1070
     0
1070
    75
1070
     0
1070
   282
1070
     0
1070
   281
1070
     0
1070
    71
1070
     0
1070
    74
1070
     0
1070
   279
1070
     0
1070
   173
1070
     1
1070
   340
1005
E5
1070
   271
1070
     2
1070
   272
1070
     2
1070
    77
1070
     1
1070
    73
1070
     1
1070
   171
1070
     3
1070
   274
1070
     4
1070
   177
1070
    35
1070
   176
1070
    35
1070
   178
1070
    35
1070
    48
1040
-0.1
1070
    41
1040
3.5
1070
   147
1040
1.75
1070
    42
1040
1.5875
1070
    44
1040
2.0
1070
   140
1040
3.5
1002
}
1001
ACAD_DSTYLE_DIM_LINETYPE
1070
   380
1005
16
1001
ACAD_DSTYLE_DIM_EXT1_LINETYPE
1070
   381
1005
16
1001
ACAD_DSTYLE_DIM_EXT2_LINETYPE
1070
   382
1005
16
0
DIMENSION
5
116
100
AcDbEntity
8
SK2
62
256
6
ByLayer
370
13
48
1
60
0
100
AcDbDimension
2
_U1
10
63
20
-33.692985
30
0
11
11.5
21
-33.692985
31
0
70
32
71
1
72
1
41
1
210
0
220
0
230
1
3
Standard
100
AcDbAlignedDimension
13
-40
23
-5
33
0
14
63
24
0
34
0
50
0
100
AcDbRotatedDimension
1001
ACAD
1000
DSTYLE
1002
{
1070
   371
1070
    13
1070
   372
1070
    13
1070
   170
1070
     0
1070
   144
1040
1.0
1070
   277
1070
     2
1070
   278
1070
    44
1070
   146
1040
1.0
1070
   345
1005
16
1070
   347
1005
16
1070
   346
1005
16
1070
   344
1005
0
1070
   343
1005
0
1070
   172
1070
     1
1070
    76
1070
     0
1070
    75
1070
     0
1070
   282
1070
     0
1070
   281
1070
     0
1070
    71
1070
     0
1070
    74
1070
     0
1070
   279
1070
     0
1070
   173
1070
     1
1070
   340
1005
E5
1070
   271
1070
     2
1070
   272
1070
     2
1070
    77
1070
     1
1070
    73
1070
     1
1070
   171
1070
     3
1070
   274
1070
     4
1070
   177
1070
    35
1070
   176
1070
    35
1070
   178
1070
    35
1070
    48
1040
-0.1
1070
    41
1040
3.5
1070
   147
1040
1.75
1070
    42
1040
1.5875
1070
    44
1040
2.0
1070
   140
1040
3.5
1002
}
1001
ACAD_DSTYLE_DIM_LINETYPE
1070
   380
1005
16
1001
ACAD_DSTYLE_DIM_EXT1_LINETYPE
1070
   381
1005
16
1001
ACAD_DSTYLE_DIM_EXT2_LINETYPE
1070
   382
1005
16
0
DIMENSION
5
12E
100
AcDbEntity
8
SK2
62
256
6
ByLayer
370
13
48
1
60
0
100
AcDbDimension
2
_U2
10
63
20
16.609119
30
0
11
39
21
16.609119
31
0
70
32
71
1
72
1
41
1
210
0
220
0
230
1
3
Standard
100
AcDbAlignedDimension
13
15
23
5
33
0
14
63
24
0
34
0
50
0
100
AcDbRotatedDimension
1001
ACAD
1000
DSTYLE
1002
{
1070
   371
1070
    13
1070
   372
1070
    13
1070
   170
1070
     0
1070
   144
1040
1.0
1070
   277
1070
     2
1070
   278
1070
    44
1070
   146
1040
1.0
1070
   345
1005
16
1070
   347
1005
16
1070
   346
1005
16
1070
   344
1005
0
1070
   343
1005
0
1070
   172
1070
     1
1070
    76
1070
     0
1070
    75
1070
     0
1070
   282
1070
     0
1070
   281
1070
     0
1070
    71
1070
     0
1070
    74
1070
     0
1070
   279
1070
     0
1070
   173
1070
     1
1070
   340
1005
E5
1070
   271
1070
     2
1070
   272
1070
     2
1070
    77
1070
     1
1070
    73
1070
     1
1070
   171
1070
     3
1070
   274
1070
     4
1070
   177
1070
    35
1070
   176
1070
    35
1070
   178
1070
    35
1070
    48
1040
-0.1
1070
    41
1040
3.5
1070
   147
1040
1.75
1070
    42
1040
1.5875
1070
    44
1040
2.0
1070
   140
1040
3.5
1002
}
1001
ACAD_DSTYLE_DIM_LINETYPE
1070
   380
1005
16
1001
ACAD_DSTYLE_DIM_EXT1_LINETYPE
1070
   381
1005
16
1001
ACAD_DSTYLE_DIM_EXT2_LINETYPE
1070
   382
1005
16
0
DIMENSION
5
146
100
AcDbEntity
8
SK2
62
256
6
ByLayer
370
13
48
1
60
0
100
AcDbDimension
2
_U3
10
61.516
20
-17.802503
30
0
11
80.333333
21
-17.802503
31
0
70
32
71
1
72
1
41
1
210
0
220
0
230
1
3
Standard
100
AcDbAlignedDimension
13
63
23
0
33
0
14
61.516
24
-5
34
0
50
0
100
AcDbRotatedDimension
1001
ACAD
1000
DSTYLE
1002
{
1070
   371
1070
    13
1070
   372
1070
    13
1070
   170
1070
     0
1070
   144
1040
1.0
1070
   277
1070
     2
1070
   278
1070
    44
1070
   146
1040
1.0
1070
   345
1005
16
1070
   347
1005
16
1070
   346
1005
16
1070
   344
1005
0
1070
   343
1005
0
1070
   172
1070
     1
1070
    76
1070
     0
1070
    75
1070
     0
1070
   282
1070
     0
1070
   281
1070
     0
1070
    71
1070
     0
1070
    74
1070
     0
1070
   279
1070
     0
1070
   173
1070
     1
1070
   340
1005
E5
1070
   271
1070
     2
1070
   272
1070
     2
1070
    77
1070
     1
1070
    73
1070
     1
1070
   171
1070
     3
1070
   274
1070
     4
1070
   177
1070
    35
1070
   176
1070
    35
1070
   178
1070
    35
1070
    48
1040
-0.1
1070
    41
1040
3.5
1070
   147
1040
1.75
1070
    42
1040
1.5875
1070
    44
1040
2.0
1070
   140
1040
3.5
1002
}
1001
ACAD_DSTYLE_DIM_LINETYPE
1070
   380
1005
16
1001
ACAD_DSTYLE_DIM_EXT1_LINETYPE
1070
   381
1005
16
1001
ACAD_DSTYLE_DIM_EXT2_LINETYPE
1070
   382
1005
16
0
DIMENSION
5
160
100
AcDbEntity
8
SK2
62
256
6
ByLayer
370
13
48
1
60
0
100
AcDbDimension
2
_U4
10
61.516
20
-23.343428
30
0
11
10.758
21
-23.343428
31
0
70
32
71
1
72
1
41
1
210
0
220
0
230
1
3
Standard
100
AcDbAlignedDimension
13
-40
23
-5
33
0
14
61.516
24
-5
34
0
50
0
100
AcDbRotatedDimension
1001
ACAD
1000
DSTYLE
1002
{
1070
   371
1070
    13
1070
   372
1070
    13
1070
   170
1070
     0
1070
   144
1040
1.0
1070
   277
1070
     2
1070
   278
1070
    44
1070
   146
1040
1.0
1070
   345
1005
16
1070
   347
1005
16
1070
   346
1005
16
1070
   344
1005
0
1070
   343
1005
0
1070
   172
1070
     1
1070
    76
1070
     0
1070
    75
1070
     0
1070
   282
1070
     0
1070
   281
1070
     0
1070
    71
1070
     0
1070
    74
1070
     0
1070
   279
1070
     0
1070
   173
1070
     1
1070
   340
1005
E5
1070
   271
1070
     2
1070
   272
1070
     2
1070
    77
1070
     1
1070
    73
1070
     1
1070
   171
1070
     3
1070
   274
1070
     4
1070
   177
1070
    35
1070
   176
1070
    35
1070
   178
1070
    35
1070
    48
1040
-0.1
1070
    41
1040
3.5
1070
   147
1040
1.75
1070
    42
1040
1.5875
1070
    44
1040
2.0
1070
   140
1040
3.5
1002
}
1001
ACAD_DSTYLE_DIM_LINETYPE
1070
   380
1005
16
1001
ACAD_DSTYLE_DIM_EXT1_LINETYPE
1070
   381
1005
16
1001
ACAD_DSTYLE_DIM_EXT2_LINETYPE
1070
   382
1005
16
0
ENDSEC
0
SECTION
2
OBJECTS
0
DICTIONARY
5
1e8
330
0
100
AcDbDictionary
280
0
281
1
3
ACAD_GROUP
350
1e9
3
ACAD_MLINESTYLE
350
1ea
0
DICTIONARY
5
1e9
330
0
100
AcDbDictionary
280
0
281
1
0
DICTIONARY
5
1ea
330
0
100
AcDbDictionary
280
0
281
1
3
Standard
350
18
0
MLINESTYLE
5
18
330
1ea
100
AcDbMlineStyle
2
Standard
70
0
3

62
256
51
90
52
90
71
2
49
-0.5
62
256
6
ByLayer
49
0.5
62
256
6
ByLayer
0
RASTERVARIABLES
5
1d6
330

100
AcDbRasterVariables
90
0
70
1
71
1
72
1
0
ENDSEC
0
EOF
