0
SECTION
2
HEADER
9
$ACADVER
1
AC1015
9
$DWGCODEPAGE
3
ANSI_1252
9
$HANDSEED
5
1f7
9
$ANGBASE
50
0
9
$ANGDIR
70
0
9
$ATTMODE
70
1
9
$AUNITS
70
0
9
$AUPREC
70
0
9
$CECOLOR
62
256
9
$CELTSCALE
40
1
9
$CELTYPE
6
ByLayer
9
$CELWEIGHT
370
18
9
$CLAYER
8
0
9
$CMLJUST
70
0
9
$CMLSCALE
40
1
9
$CMLSTYLE
2
Standard
9
$DIMSTYLE
2
Standard
9
$TEXTSIZE
40
0.2
9
$TEXTSTYLE
7
Standard
9
$LUNITS
70
2
9
$LUPREC
70
4
9
$EXTNAMES
290
1
9
$INSUNITS
70
4
9
$LTSCALE
40
1
9
$LWDISPLAY
290
1
9
$PDMODE
70
0
9
$PDSIZE
40
0
9
$PLINEGEN
70
0
0
ENDSEC
0
SECTION
2
CLASSES
0
CLASS
1
RASTERVARIABLES
2
AcDbRasterVariables
3
ISM
90
0
280
0
281
0
0
ENDSEC
0
SECTION
2
TABLES
0
TABLE
2
VPORT
5
1ed
100
AcDbSymbolTable
0
VPORT
5
1
100
AcDbSymbolTableRecord
100
AcDbViewportTableRecord
2
*Active
70
0
10
0
20
0
11
1
21
1
12
-1
22
1
13
0
23
0
14
0.5
24
0.5
15
10
25
10
16
0
26
0
36
1
17
0
27
0
37
0
0
ENDTAB
0
TABLE
2
LTYPE
5
1ee
100
AcDbSymbolTable
0
LTYPE
5
14
100
AcDbSymbolTableRecord
100
AcDbLinetypeTableRecord
70
0
2
ByBlock
3

72
65
73
0
40
0
0
LTYPE
5
15
100
AcDbSymbolTableRecord
100
AcDbLinetypeTableRecord
70
0
2
ByLayer
3

72
65
73
0
40
0
0
LTYPE
5
16
100
AcDbSymbolTableRecord
100
AcDbLinetypeTableRecord
70
0
2
Continuous
3
Solid line
72
65
73
0
40
0
0
LTYPE
5
6E
100
AcDbSymbolTableRecord
100
AcDbLinetypeTableRecord
70
0
2
CENTER
3
____ _ ____ _ ____ _ ____
72
65
73
4
40
47.5
49
22
74
0
49
-8.5
74
0
49
8.5
74
0
49
-8.5
74
0
0
LTYPE
5
6F
100
AcDbSymbolTableRecord
100
AcDbLinetypeTableRecord
70
0
2
DASHED
3
__ __ __ __ __ __ __ __ __
72
65
73
2
40
25.72
49
12.86
74
0
49
-12.86
74
0
0
ENDTAB
0
TABLE
2
LAYER
5
1ef
100
AcDbSymbolTable
0
LAYER
5
10
100
AcDbSymbolTableRecord
100
AcDbLayerTableRecord
2
0
70
0
62
7
6
Continuous
290
1
370
-3
390
0
0
LAYER
5
71
100
AcDbSymbolTableRecord
100
AcDbLayerTableRecord
2
80
70
0
62
-6
6
Continuous
290
1
370
-3
390
0
0
LAYER
5
73
100
AcDbSymbolTableRecord
100
AcDbLayerTableRecord
2
81
70
0
62
-3
6
Continuous
290
1
370
-3
390
0
0
LAYER
5
75
100
AcDbSymbolTableRecord
100
AcDbLayerTableRecord
2
1
70
0
62
4
6
Continuous
290
1
370
-3
390
0
0
LAYER
5
86
100
AcDbSymbolTableRecord
100
AcDbLayerTableRecord
2
4
70
0
62
-2
6
CENTER
290
1
370
-3
390
0
0
LAYER
5
9F
100
AcDbSymbolTableRecord
100
AcDbLayerTableRecord
2
2
70
0
62
7
6
Continuous
290
1
370
-3
390
0
0
LAYER
5
102
100
AcDbSymbolTableRecord
100
AcDbLayerTableRecord
2
Defpoints
70
0
62
7
6
Continuous
290
0
370
-3
390
0
0
LAYER
5
1d9
100
AcDbSymbolTableRecord
100
AcDbLayerTableRecord
2
SK1
70
0
62
4
6
Continuous
290
1
370
-3
390
0
0
LAYER
5
1da
100
AcDbSymbolTableRecord
100
AcDbLayerTableRecord
2
SK4
70
0
62
2
6
CENTER
290
1
370
-3
390
0
0
LAYER
5
1db
100
AcDbSymbolTableRecord
100
AcDbLayerTableRecord
2
SK2
70
0
62
7
6
Continuous
290
1
370
-3
390
0
0
LAYER
5
1dc
100
AcDbSymbolTableRecord
100
AcDbLayerTableRecord
2
SK6
70
0
62
5
6
Continuous
290
1
370
-3
390
0
0
ENDTAB
0
TABLE
2
STYLE
5
1f0
100
AcDbSymbolTable
0
STYLE
5
11
100
AcDbSymbolTableRecord
100
AcDbTextStyleTableRecord
2
Standard
3
txt
70
0
71
0
40
0
41
1
42
0
50
0
0
STYLE
5
E7
100
AcDbSymbolTableRecord
100
AcDbTextStyleTableRecord
2
iso_b_vert
3
simplex.shx
70
0
71
0
40
0
41
1
42
0
50
0
0
STYLE
5
E8
100
AcDbSymbolTableRecord
100
AcDbTextStyleTableRecord
2
DWGDirectTextStyle
3
simplex
70
0
71
0
40
0
41
1
42
0
50
0
0
ENDTAB
0
TABLE
2
DIMSTYLE
5
1f1
100
AcDbSymbolTable
100
AcDbDimStyleTable
0
DIMSTYLE
105
27
100
AcDbSymbolTableRecord
100
AcDbDimStyleTableRecord
2
Standard
70
0
3
<>
41
0.18
42
0.0625
44
0.18
140
0.18
147
0.09
73
0
74
0
77
1
271
2
275
0
278
52
280
0
340
11
0
ENDTAB
0
TABLE
2
VIEW
5
1f2
100
AcDbSymbolTable
0
ENDTAB
0
TABLE
2
UCS
5
1f3
100
AcDbSymbolTable
0
ENDTAB
0
TABLE
2
APPID
5
1f4
100
AcDbSymbolTable
0
APPID
5
12
100
AcDbSymbolTableRecord
100
AcDbRegAppTableRecord
2
ACAD
70
0
0
APPID
5
FE
100
AcDbSymbolTableRecord
100
AcDbRegAppTableRecord
2
ACAD_DSTYLE_DIMBREAK
70
0
0
APPID
5
198
100
AcDbSymbolTableRecord
100
AcDbRegAppTableRecord
2
ACAD_DSTYLE_DIM_LINETYPE
70
0
0
APPID
5
199
100
AcDbSymbolTableRecord
100
AcDbRegAppTableRecord
2
ACAD_DSTYLE_DIM_EXT1_LINETYPE
70
0
0
APPID
5
19A
100
AcDbSymbolTableRecord
100
AcDbRegAppTableRecord
2
ACAD_DSTYLE_DIM_EXT2_LINETYPE
70
0
0
APPID
5
1D5
100
AcDbSymbolTableRecord
100
AcDbRegAppTableRecord
2
ACAD_MLEADERVER
70
0
0
ENDTAB
0
TABLE
2
BLOCK_RECORD
5
1f5
100
AcDbSymbolTable
0
BLOCK_RECORD
5
1F
100
AcDbSymbolTableRecord
100
AcDbBlockTableRecord
2
*Model_Space
340
0
70
0
0
BLOCK_RECORD
5
1B
100
AcDbSymbolTableRecord
100
AcDbBlockTableRecord
2
*Paper_Space
340
0
70
0
0
BLOCK_RECORD
5
23
100
AcDbSymbolTableRecord
100
AcDbBlockTableRecord
2
*Paper_Space0
340
0
70
0
0
BLOCK_RECORD
5
103
100
AcDbSymbolTableRecord
100
AcDbBlockTableRecord
2
*D1
340
0
70
0
0
BLOCK_RECORD
5
10F
100
AcDbSymbolTableRecord
100
AcDbBlockTableRecord
2
_U0
340
0
70
0
0
BLOCK_RECORD
5
11B
100
AcDbSymbolTableRecord
100
AcDbBlockTableRecord
2
*D3
340
0
70
0
0
BLOCK_RECORD
5
127
100
AcDbSymbolTableRecord
100
AcDbBlockTableRecord
2
_U1
340
0
70
0
0
BLOCK_RECORD
5
133
100
AcDbSymbolTableRecord
100
AcDbBlockTableRecord
2
*D5
340
0
70
0
0
BLOCK_RECORD
5
13F
100
AcDbSymbolTableRecord
100
AcDbBlockTableRecord
2
_U2
340
0
70
0
0
BLOCK_RECORD
5
14B
100
AcDbSymbolTableRecord
100
AcDbBlockTableRecord
2
*D7
340
0
70
0
0
BLOCK_RECORD
5
159
100
AcDbSymbolTableRecord
100
AcDbBlockTableRecord
2
_U3
340
0
70
0
0
BLOCK_RECORD
5
165
100
AcDbSymbolTableRecord
100
AcDbBlockTableRecord
2
*D9
340
0
70
0
0
BLOCK_RECORD
5
171
100
AcDbSymbolTableRecord
100
AcDbBlockTableRecord
2
_U4
340
0
70
0
0
ENDTAB
0
ENDSEC
0
SECTION
2
BLOCKS
0
BLOCK
5
20
100
AcDbEntity
8
0
100
AcDbBlockBegin
2
*Model_Space
70
0
10
0
20
0
30
0
3
*Model_Space
0
ENDBLK
5
21
100
AcDbEntity
8
0
100
AcDbBlockEnd
0
BLOCK
5
1C
100
AcDbEntity
8
0
100
AcDbBlockBegin
2
*Paper_Space
70
0
10
0
20
0
30
0
3
*Paper_Space
0
ENDBLK
5
1D
100
AcDbEntity
8
0
100
AcDbBlockEnd
0
BLOCK
5
24
100
AcDbEntity
8
0
100
AcDbBlockBegin
2
*Paper_Space0
70
0
10
0
20
0
30
0
3
*Paper_Space0
0
ENDBLK
5
25
100
AcDbEntity
8
0
100
AcDbBlockEnd
0
BLOCK
5
104
100
AcDbEntity
8
0
100
AcDbBlockBegin
2
*D1
70
1
10
0
20
0
30
0
3
*D1
0
LINE
5
106
100
AcDbEntity
8
0
62
256
6
ByLayer
370
-2
48
1
60
0
100
AcDbLine
10
0
20
-1.5875
30
0
11
0
21
-16.759898
31
0
39
0
210
0
220
0
230
1
0
LINE
5
107
100
AcDbEntity
8
0
62
256
6
ByLayer
370
-2
48
1
60
0
100
AcDbLine
10
61.6531
20
-6.134
30
0
11
61.6531
21
-16.759898
31
0
39
0
210
0
220
0
230
1
0
LINE
5
108
100
AcDbEntity
8
0
62
256
6
ByLayer
370
-2
48
1
60
0
100
AcDbLine
10
3.5
20
-14.759898
30
0
11
58.1531
21
-14.759898
31
0
39
0
210
0
220
0
230
1
0
SOLID
5
109
100
AcDbEntity
8
0
62
256
6
ByLayer
370
-1
48
1
60
0
100
AcDbTrace
10
3.5
20
-14.176565
30
0
11
3.5
21
-15.343232
31
0
12
0
22
-14.759898
32
0
13
0
23
-14.759898
33
0
39
0
210
0
220
0
230
1
0
SOLID
5
10A
100
AcDbEntity
8
0
62
256
6
ByLayer
370
-1
48
1
60
0
100
AcDbTrace
10
58.1531
20
-15.343232
30
0
11
58.1531
21
-14.176565
31
0
12
61.6531
22
-14.759898
32
0
13
61.6531
23
-14.759898
33
0
39
0
210
0
220
0
230
1
0
MTEXT
5
10B
100
AcDbEntity
8
0
62
256
6
ByLayer
370
18
48
1
60
0
100
AcDbMText
10
30.82655
20
-7.759898
30
0
210
0
220
0
230
1
1
\A1;61.65
40
3.5
41
0
44
1
50
0
71
5
72
5
7
iso_b_vert
0
POINT
5
10C
100
AcDbEntity
8
Defpoints
62
0
6
ByLayer
370
-1
48
1
60
0
100
AcDbPoint
10
0
20
0
30
0
39
0
210
0
220
0
230
1
50
360
0
POINT
5
10D
100
AcDbEntity
8
Defpoints
62
0
6
ByLayer
370
-1
48
1
60
0
100
AcDbPoint
10
61.6531
20
-4.5465
30
0
39
0
210
0
220
0
230
1
50
360
0
POINT
5
10E
100
AcDbEntity
8
Defpoints
62
0
6
ByLayer
370
-1
48
1
60
0
100
AcDbPoint
10
61.6531
20
-14.759898
30
0
39
0
210
0
220
0
230
1
50
360
0
ENDBLK
5
105
100
AcDbEntity
8
0
100
AcDbBlockEnd
0
BLOCK
5
116
100
AcDbEntity
8
0
100
AcDbBlockBegin
2
_U0
70
0
10
0
20
0
30
0
3
_U0
0
MTEXT
5
110
100
AcDbEntity
8
SK2
62
256
6
ByLayer
370
13
48
1
60
0
100
AcDbMText
10
26.126685
20
-13.727265
30
0
210
0
220
0
230
1
1
\W0.6713;61,65
40
3.5
41
0
44
1.084337
50
0
71
7
72
5
7
iso_b_vert
0
LINE
5
111
100
AcDbEntity
8
SK2
62
256
6
ByLayer
370
13
48
1
60
0
100
AcDbLine
10
0
20
-1.5875
30
0
11
0
21
-16.759898
31
0
39
0
210
0
220
0
230
1
0
LINE
5
112
100
AcDbEntity
8
SK2
62
256
6
ByLayer
370
13
48
1
60
0
100
AcDbLine
10
61.6531
20
-6.134
30
0
11
61.6531
21
-16.759898
31
0
39
0
210
0
220
0
230
1
0
LINE
5
113
100
AcDbEntity
8
SK2
62
256
6
ByLayer
370
13
48
1
60
0
100
AcDbLine
10
0
20
-14.759898
30
0
11
61.6531
21
-14.759898
31
0
39
0
210
0
220
0
230
1
0
SOLID
5
114
100
AcDbEntity
8
SK2
62
256
6
ByLayer
370
18
48
1
60
0
100
AcDbTrace
10
0
20
-14.759898
30
0
11
3.499998
21
-14.299115
31
0
12
3.500002
22
-15.220682
32
0
13
3.500002
23
-15.220682
33
0
39
0
210
0
220
0
230
1
0
SOLID
5
115
100
AcDbEntity
8
SK2
62
256
6
ByLayer
370
18
48
1
60
0
100
AcDbTrace
10
61.6531
20
-14.759898
30
0
11
58.153102
21
-15.220682
31
0
12
58.153098
22
-14.299115
32
0
13
58.153098
23
-14.299115
33
0
39
0
210
0
220
0
230
1
0
ENDBLK
5
117
100
AcDbEntity
8
0
100
AcDbBlockEnd
0
BLOCK
5
11C
100
AcDbEntity
8
0
100
AcDbBlockBegin
2
*D3
70
1
10
0
20
0
30
0
3
*D3
0
LINE
5
11E
100
AcDbEntity
8
0
62
256
6
ByLayer
370
-2
48
1
60
0
100
AcDbLine
10
-40
20
-6.5875
30
0
11
-40
21
-35.692985
31
0
39
0
210
0
220
0
230
1
0
LINE
5
11F
100
AcDbEntity
8
0
62
256
6
ByLayer
370
-2
48
1
60
0
100
AcDbLine
10
63
20
-1.5875
30
0
11
63
21
-35.692985
31
0
39
0
210
0
220
0
230
1
0
LINE
5
120
100
AcDbEntity
8
0
62
256
6
ByLayer
370
-2
48
1
60
0
100
AcDbLine
10
-36.5
20
-33.692985
30
0
11
59.5
21
-33.692985
31
0
39
0
210
0
220
0
230
1
0
SOLID
5
121
100
AcDbEntity
8
0
62
256
6
ByLayer
370
-1
48
1
60
0
100
AcDbTrace
10
-36.5
20
-33.109652
30
0
11
-36.5
21
-34.276319
31
0
12
-40
22
-33.692985
32
0
13
-40
23
-33.692985
33
0
39
0
210
0
220
0
230
1
0
SOLID
5
122
100
AcDbEntity
8
0
62
256
6
ByLayer
370
-1
48
1
60
0
100
AcDbTrace
10
59.5
20
-34.276319
30
0
11
59.5
21
-33.109652
31
0
12
63
22
-33.692985
32
0
13
63
23
-33.692985
33
0
39
0
210
0
220
0
230
1
0
MTEXT
5
123
100
AcDbEntity
8
0
62
256
6
ByLayer
370
18
48
1
60
0
100
AcDbMText
10
11.5
20
-26.692985
30
0
210
0
220
0
230
1
1
\A1;103.00
40
3.5
41
0
44
1
50
0
71
5
72
5
7
iso_b_vert
0
POINT
5
124
100
AcDbEntity
8
Defpoints
62
0
6
ByLayer
370
-1
48
1
60
0
100
AcDbPoint
10
-40
20
-5
30
0
39
0
210
0
220
0
230
1
50
360
0
POINT
5
125
100
AcDbEntity
8
Defpoints
62
0
6
ByLayer
370
-1
48
1
60
0
100
AcDbPoint
10
63
20
0
30
0
39
0
210
0
220
0
230
1
50
360
0
POINT
5
126
100
AcDbEntity
8
Defpoints
62
0
6
ByLayer
370
-1
48
1
60
0
100
AcDbPoint
10
63
20
-33.692985
30
0
39
0
210
0
220
0
230
1
50
360
0
ENDBLK
5
11D
100
AcDbEntity
8
0
100
AcDbBlockEnd
0
BLOCK
5
12E
100
AcDbEntity
8
0
100
AcDbBlockBegin
2
_U1
70
0
10
0
20
0
30
0
3
_U1
0
MTEXT
5
128
100
AcDbEntity
8
SK2
62
256
6
ByLayer
370
13
48
1
60
0
100
AcDbMText
10
5.492401
20
-32.660352
30
0
210
0
220
0
230
1
1
\W0.6930;103,00
40
3.5
41
0
44
1.084337
50
0
71
7
72
5
7
iso_b_vert
0
LINE
5
129
100
AcDbEntity
8
SK2
62
256
6
ByLayer
370
13
48
1
60
0
100
AcDbLine
10
-40
20
-6.5875
30
0
11
-40
21
-35.692985
31
0
39
0
210
0
220
0
230
1
0
LINE
5
12A
100
AcDbEntity
8
SK2
62
256
6
ByLayer
370
13
48
1
60
0
100
AcDbLine
10
63
20
-1.5875
30
0
11
63
21
-35.692985
31
0
39
0
210
0
220
0
230
1
0
LINE
5
12B
100
AcDbEntity
8
SK2
62
256
6
ByLayer
370
13
48
1
60
0
100
AcDbLine
10
-40
20
-33.692985
30
0
11
63
21
-33.692985
31
0
39
0
210
0
220
0
230
1
0
SOLID
5
12C
100
AcDbEntity
8
SK2
62
256
6
ByLayer
370
18
48
1
60
0
100
AcDbTrace
10
-40
20
-33.692985
30
0
11
-36.500002
21
-33.232202
31
0
12
-36.499998
22
-34.153769
32
0
13
-36.499998
23
-34.153769
33
0
39
0
210
0
220
0
230
1
0
SOLID
5
12D
100
AcDbEntity
8
SK2
62
256
6
ByLayer
370
18
48
1
60
0
100
AcDbTrace
10
63
20
-33.692985
30
0
11
59.500002
21
-34.153769
31
0
12
59.499998
22
-33.232202
32
0
13
59.499998
23
-33.232202
33
0
39
0
210
0
220
0
230
1
0
ENDBLK
5
12F
100
AcDbEntity
8
0
100
AcDbBlockEnd
0
BLOCK
5
134
100
AcDbEntity
8
0
100
AcDbBlockBegin
2
*D5
70
1
10
0
20
0
30
0
3
*D5
0
LINE
5
136
100
AcDbEntity
8
0
62
256
6
ByLayer
370
-2
48
1
60
0
100
AcDbLine
10
16.2
20
6.134
30
0
11
16.2
21
18.155619
31
0
39
0
210
0
220
0
230
1
0
LINE
5
137
100
AcDbEntity
8
0
62
256
6
ByLayer
370
-2
48
1
60
0
100
AcDbLine
10
63
20
1.5875
30
0
11
63
21
18.155619
31
0
39
0
210
0
220
0
230
1
0
LINE
5
138
100
AcDbEntity
8
0
62
256
6
ByLayer
370
-2
48
1
60
0
100
AcDbLine
10
19.7
20
16.155619
30
0
11
59.5
21
16.155619
31
0
39
0
210
0
220
0
230
1
0
SOLID
5
139
100
AcDbEntity
8
0
62
256
6
ByLayer
370
-1
48
1
60
0
100
AcDbTrace
10
19.7
20
16.738953
30
0
11
19.7
21
15.572286
31
0
12
16.2
22
16.155619
32
0
13
16.2
23
16.155619
33
0
39
0
210
0
220
0
230
1
0
SOLID
5
13A
100
AcDbEntity
8
0
62
256
6
ByLayer
370
-1
48
1
60
0
100
AcDbTrace
10
59.5
20
15.572286
30
0
11
59.5
21
16.738953
31
0
12
63
22
16.155619
32
0
13
63
23
16.155619
33
0
39
0
210
0
220
0
230
1
0
MTEXT
5
13B
100
AcDbEntity
8
0
62
256
6
ByLayer
370
18
48
1
60
0
100
AcDbMText
10
39.6
20
23.155619
30
0
210
0
220
0
230
1
1
\A1;46.80
40
3.5
41
0
44
1
50
0
71
5
72
5
7
iso_b_vert
0
POINT
5
13C
100
AcDbEntity
8
Defpoints
62
0
6
ByLayer
370
-1
48
1
60
0
100
AcDbPoint
10
16.2
20
4.5465
30
0
39
0
210
0
220
0
230
1
50
360
0
POINT
5
13D
100
AcDbEntity
8
Defpoints
62
0
6
ByLayer
370
-1
48
1
60
0
100
AcDbPoint
10
63
20
0
30
0
39
0
210
0
220
0
230
1
50
360
0
POINT
5
13E
100
AcDbEntity
8
Defpoints
62
0
6
ByLayer
370
-1
48
1
60
0
100
AcDbPoint
10
63
20
16.155619
30
0
39
0
210
0
220
0
230
1
50
360
0
ENDBLK
5
135
100
AcDbEntity
8
0
100
AcDbBlockEnd
0
BLOCK
5
146
100
AcDbEntity
8
0
100
AcDbBlockBegin
2
_U2
70
0
10
0
20
0
30
0
3
_U2
0
MTEXT
5
140
100
AcDbEntity
8
SK2
62
256
6
ByLayer
370
13
48
1
60
0
100
AcDbMText
10
34.278435
20
17.188253
30
0
210
0
220
0
230
1
1
\W0.7581;46,80
40
3.5
41
0
44
1.084337
50
0
71
7
72
5
7
iso_b_vert
0
LINE
5
141
100
AcDbEntity
8
SK2
62
256
6
ByLayer
370
13
48
1
60
0
100
AcDbLine
10
16.2
20
6.134
30
0
11
16.2
21
18.155619
31
0
39
0
210
0
220
0
230
1
0
LINE
5
142
100
AcDbEntity
8
SK2
62
256
6
ByLayer
370
13
48
1
60
0
100
AcDbLine
10
63
20
1.5875
30
0
11
63
21
18.155619
31
0
39
0
210
0
220
0
230
1
0
LINE
5
143
100
AcDbEntity
8
SK2
62
256
6
ByLayer
370
13
48
1
60
0
100
AcDbLine
10
16.2
20
16.155619
30
0
11
63
21
16.155619
31
0
39
0
210
0
220
0
230
1
0
SOLID
5
144
100
AcDbEntity
8
SK2
62
256
6
ByLayer
370
18
48
1
60
0
100
AcDbTrace
10
16.2
20
16.155619
30
0
11
19.699998
21
16.616403
31
0
12
19.700002
22
15.694835
32
0
13
19.700002
23
15.694835
33
0
39
0
210
0
220
0
230
1
0
SOLID
5
145
100
AcDbEntity
8
SK2
62
256
6
ByLayer
370
18
48
1
60
0
100
AcDbTrace
10
63
20
16.155619
30
0
11
59.500002
21
15.694835
31
0
12
59.499998
22
16.616403
32
0
13
59.499998
23
16.616403
33
0
39
0
210
0
220
0
230
1
0
ENDBLK
5
147
100
AcDbEntity
8
0
100
AcDbBlockEnd
0
BLOCK
5
14C
100
AcDbEntity
8
0
100
AcDbBlockBegin
2
*D7
70
1
10
0
20
0
30
0
3
*D7
0
LINE
5
14E
100
AcDbEntity
8
0
62
256
6
ByLayer
370
-2
48
1
60
0
100
AcDbLine
10
63
20
-1.5875
30
0
11
63
21
-19.349003
31
0
39
0
210
0
220
0
230
1
0
LINE
5
14F
100
AcDbEntity
8
0
62
256
6
ByLayer
370
-2
48
1
60
0
100
AcDbLine
10
61.6531
20
-6.134
30
0
11
61.6531
21
-19.349003
31
0
39
0
210
0
220
0
230
1
0
LINE
5
150
100
AcDbEntity
8
0
62
256
6
ByLayer
370
-2
48
1
60
0
100
AcDbLine
10
63
20
-17.349003
30
0
11
90.666667
21
-17.349003
31
0
39
0
210
0
220
0
230
1
0
LINE
5
151
100
AcDbEntity
8
0
62
256
6
ByLayer
370
-2
48
1
60
0
100
AcDbLine
10
66.5
20
-17.349003
30
0
11
70
21
-17.349003
31
0
39
0
210
0
220
0
230
1
0
LINE
5
152
100
AcDbEntity
8
0
62
256
6
ByLayer
370
-2
48
1
60
0
100
AcDbLine
10
58.1531
20
-17.349003
30
0
11
54.6531
21
-17.349003
31
0
39
0
210
0
220
0
230
1
0
SOLID
5
153
100
AcDbEntity
8
0
62
256
6
ByLayer
370
-1
48
1
60
0
100
AcDbTrace
10
66.5
20
-16.76567
30
0
11
66.5
21
-17.932337
31
0
12
63
22
-17.349003
32
0
13
63
23
-17.349003
33
0
39
0
210
0
220
0
230
1
0
SOLID
5
154
100
AcDbEntity
8
0
62
256
6
ByLayer
370
-1
48
1
60
0
100
AcDbTrace
10
58.1531
20
-17.932337
30
0
11
58.1531
21
-16.76567
31
0
12
61.6531
22
-17.349003
32
0
13
61.6531
23
-17.349003
33
0
39
0
210
0
220
0
230
1
0
MTEXT
5
155
100
AcDbEntity
8
0
62
256
6
ByLayer
370
18
48
1
60
0
100
AcDbMText
10
80.333333
20
-10.349003
30
0
210
0
220
0
230
1
1
\A1;1.35
40
3.5
41
0
44
1
50
0
71
5
72
5
7
iso_b_vert
0
POINT
5
156
100
AcDbEntity
8
Defpoints
62
0
6
ByLayer
370
-1
48
1
60
0
100
AcDbPoint
10
63
20
0
30
0
39
0
210
0
220
0
230
1
50
360
0
POINT
5
157
100
AcDbEntity
8
Defpoints
62
0
6
ByLayer
370
-1
48
1
60
0
100
AcDbPoint
10
61.6531
20
-4.5465
30
0
39
0
210
0
220
0
230
1
50
360
0
POINT
5
158
100
AcDbEntity
8
Defpoints
62
0
6
ByLayer
370
-1
48
1
60
0
100
AcDbPoint
10
61.6531
20
-17.349003
30
0
39
0
210
0
220
0
230
1
50
360
0
ENDBLK
5
14D
100
AcDbEntity
8
0
100
AcDbBlockEnd
0
BLOCK
5
160
100
AcDbEntity
8
0
100
AcDbBlockBegin
2
_U3
70
0
10
0
20
0
30
0
3
_U3
0
MTEXT
5
15A
100
AcDbEntity
8
SK2
62
256
6
ByLayer
370
13
48
1
60
0
100
AcDbMText
10
69.589293
20
-16.31637
30
0
210
0
220
0
230
1
1
\W0.6367;1,35
40
3.5
41
0
44
1.084337
50
0
71
7
72
5
7
iso_b_vert
0
LINE
5
15B
100
AcDbEntity
8
SK2
62
256
6
ByLayer
370
13
48
1
60
0
100
AcDbLine
10
63
20
-1.5875
30
0
11
63
21
-19.349003
31
0
39
0
210
0
220
0
230
1
0
LINE
5
15C
100
AcDbEntity
8
SK2
62
256
6
ByLayer
370
13
48
1
60
0
100
AcDbLine
10
61.6531
20
-6.134
30
0
11
61.6531
21
-19.349003
31
0
39
0
210
0
220
0
230
1
0
LINE
5
15D
100
AcDbEntity
8
SK2
62
256
6
ByLayer
370
13
48
1
60
0
100
AcDbLine
10
52.9031
20
-17.349003
30
0
11
76.559058
21
-17.349003
31
0
39
0
210
0
220
0
230
1
0
SOLID
5
15E
100
AcDbEntity
8
SK2
62
256
6
ByLayer
370
18
48
1
60
0
100
AcDbTrace
10
63
20
-17.349003
30
0
11
66.499998
21
-16.888219
31
0
12
66.500002
22
-17.809787
32
0
13
66.500002
23
-17.809787
33
0
39
0
210
0
220
0
230
1
0
SOLID
5
15F
100
AcDbEntity
8
SK2
62
256
6
ByLayer
370
18
48
1
60
0
100
AcDbTrace
10
61.6531
20
-17.349003
30
0
11
58.153102
21
-17.809787
31
0
12
58.153098
22
-16.888219
32
0
13
58.153098
23
-16.888219
33
0
39
0
210
0
220
0
230
1
0
ENDBLK
5
161
100
AcDbEntity
8
0
100
AcDbBlockEnd
0
BLOCK
5
166
100
AcDbEntity
8
0
100
AcDbBlockBegin
2
*D9
70
1
10
0
20
0
30
0
3
*D9
0
LINE
5
168
100
AcDbEntity
8
0
62
256
6
ByLayer
370
-2
48
1
60
0
100
AcDbLine
10
-40
20
-6.5875
30
0
11
-40
21
-25.343428
31
0
39
0
210
0
220
0
230
1
0
LINE
5
169
100
AcDbEntity
8
0
62
256
6
ByLayer
370
-2
48
1
60
0
100
AcDbLine
10
61.6531
20
-6.134
30
0
11
61.6531
21
-25.343428
31
0
39
0
210
0
220
0
230
1
0
LINE
5
16A
100
AcDbEntity
8
0
62
256
6
ByLayer
370
-2
48
1
60
0
100
AcDbLine
10
-36.5
20
-23.343428
30
0
11
58.1531
21
-23.343428
31
0
39
0
210
0
220
0
230
1
0
SOLID
5
16B
100
AcDbEntity
8
0
62
256
6
ByLayer
370
-1
48
1
60
0
100
AcDbTrace
10
-36.5
20
-22.760095
30
0
11
-36.5
21
-23.926762
31
0
12
-40
22
-23.343428
32
0
13
-40
23
-23.343428
33
0
39
0
210
0
220
0
230
1
0
SOLID
5
16C
100
AcDbEntity
8
0
62
256
6
ByLayer
370
-1
48
1
60
0
100
AcDbTrace
10
58.1531
20
-23.926762
30
0
11
58.1531
21
-22.760095
31
0
12
61.6531
22
-23.343428
32
0
13
61.6531
23
-23.343428
33
0
39
0
210
0
220
0
230
1
0
MTEXT
5
16D
100
AcDbEntity
8
0
62
256
6
ByLayer
370
18
48
1
60
0
100
AcDbMText
10
10.82655
20
-16.343428
30
0
210
0
220
0
230
1
1
\A1;101.65
40
3.5
41
0
44
1
50
0
71
5
72
5
7
iso_b_vert
0
POINT
5
16E
100
AcDbEntity
8
Defpoints
62
0
6
ByLayer
370
-1
48
1
60
0
100
AcDbPoint
10
-40
20
-5
30
0
39
0
210
0
220
0
230
1
50
360
0
POINT
5
16F
100
AcDbEntity
8
Defpoints
62
0
6
ByLayer
370
-1
48
1
60
0
100
AcDbPoint
10
61.6531
20
-4.5465
30
0
39
0
210
0
220
0
230
1
50
360
0
POINT
5
170
100
AcDbEntity
8
Defpoints
62
0
6
ByLayer
370
-1
48
1
60
0
100
AcDbPoint
10
61.6531
20
-23.343428
30
0
39
0
210
0
220
0
230
1
50
360
0
ENDBLK
5
167
100
AcDbEntity
8
0
100
AcDbBlockEnd
0
BLOCK
5
178
100
AcDbEntity
8
0
100
AcDbBlockBegin
2
_U4
70
0
10
0
20
0
30
0
3
_U4
0
MTEXT
5
172
100
AcDbEntity
8
SK2
62
256
6
ByLayer
370
13
48
1
60
0
100
AcDbMText
10
5.256385
20
-22.310795
30
0
210
0
220
0
230
1
1
\W0.6440;101,65
40
3.5
41
0
44
1.084337
50
0
71
7
72
5
7
iso_b_vert
0
LINE
5
173
100
AcDbEntity
8
SK2
62
256
6
ByLayer
370
13
48
1
60
0
100
AcDbLine
10
-40
20
-6.5875
30
0
11
-40
21
-25.343428
31
0
39
0
210
0
220
0
230
1
0
LINE
5
174
100
AcDbEntity
8
SK2
62
256
6
ByLayer
370
13
48
1
60
0
100
AcDbLine
10
61.6531
20
-6.134
30
0
11
61.6531
21
-25.343428
31
0
39
0
210
0
220
0
230
1
0
LINE
5
175
100
AcDbEntity
8
SK2
62
256
6
ByLayer
370
13
48
1
60
0
100
AcDbLine
10
-40
20
-23.343428
30
0
11
61.6531
21
-23.343428
31
0
39
0
210
0
220
0
230
1
0
SOLID
5
176
100
AcDbEntity
8
SK2
62
256
6
ByLayer
370
18
48
1
60
0
100
AcDbTrace
10
-40
20
-23.343428
30
0
11
-36.500002
21
-22.882645
31
0
12
-36.499998
22
-23.804212
32
0
13
-36.499998
23
-23.804212
33
0
39
0
210
0
220
0
230
1
0
SOLID
5
177
100
AcDbEntity
8
SK2
62
256
6
ByLayer
370
18
48
1
60
0
100
AcDbTrace
10
61.6531
20
-23.343428
30
0
11
58.153102
21
-23.804212
31
0
12
58.153098
22
-22.882645
32
0
13
58.153098
23
-22.882645
33
0
39
0
210
0
220
0
230
1
0
ENDBLK
5
179
100
AcDbEntity
8
0
100
AcDbBlockEnd
0
ENDSEC
0
SECTION
2
ENTITIES
0
ARC
5
A8
100
AcDbEntity
8
1
62
256
6
ByLayer
370
18
48
1
60
0
100
AcDbCircle
39
0
10
0
20
-4.2
30
0
40
0.799999999999998
210
0
220
0
230
1
100
AcDbArc
50
270
51
316.136808
0
ARC
5
A9
100
AcDbEntity
8
1
62
256
6
ByLayer
370
18
48
1
60
0
100
AcDbCircle
39
0
10
1.153594
20
5.308702
30
0
40
0.800000000000004
210
0
220
0
230
1
100
AcDbArc
50
223.863192
51
270.03581
0
ARC
5
AA
100
AcDbEntity
8
1
62
256
6
ByLayer
370
18
48
1
60
0
100
AcDbCircle
39
0
10
1.153594
20
-5.308702
30
0
40
0.800000000000004
210
0
220
0
230
1
100
AcDbArc
50
89.96419
51
136.136808
0
ARC
5
AB
100
AcDbEntity
8
1
62
256
6
ByLayer
370
18
48
1
60
0
100
AcDbCircle
39
0
10
0
20
4.2
30
0
40
0.799999999999998
210
0
220
0
230
1
100
AcDbArc
50
43.863192
51
90
0
ELLIPSE
5
AC
100
AcDbEntity
8
1
62
256
6
ByLayer
370
13
48
1
60
0
100
AcDbEllipse
10
4.250195
20
-4.19486
30
0
11
0.014645431409671
21
0.0989217435088193
31
0
210
0
220
0
230
1
40
0.432041
41
0.327256177097731
42
1.88042527424396
0
ELLIPSE
5
AD
100
AcDbEntity
8
1
62
256
6
ByLayer
370
13
48
1
60
0
100
AcDbEllipse
10
4.182037
20
-4.200366
30
0
11
-0.0319482792594672
21
0.0947592077444673
31
0
210
0
220
0
230
1
40
0.510591
41
0.313403313773165
42
1.66100168907216
0
POINT
5
70
100
AcDbEntity
8
80
62
256
6
ByLayer
370
18
48
1
60
0
100
AcDbPoint
10
0
20
0
30
0
39
0
210
0
220
0
230
1
50
360
0
POINT
5
72
100
AcDbEntity
8
81
62
256
6
ByLayer
370
18
48
1
60
0
100
AcDbPoint
10
63
20
0
30
0
39
0
210
0
220
0
230
1
50
360
0
POINT
5
74
100
AcDbEntity
8
1
62
256
6
ByLayer
370
18
48
1
60
1
100
AcDbPoint
10
61.6531
20
-4.5465
30
0
39
0
210
0
220
0
230
1
50
360
0
POINT
5
76
100
AcDbEntity
8
1
62
256
6
ByLayer
370
18
48
1
60
1
100
AcDbPoint
10
-40
20
-5
30
0
39
0
210
0
220
0
230
1
50
360
0
POINT
5
77
100
AcDbEntity
8
1
62
256
6
ByLayer
370
18
48
1
60
1
100
AcDbPoint
10
16.2
20
4.5465
30
0
39
0
210
0
220
0
230
1
50
360
0
POINT
5
78
100
AcDbEntity
8
1
62
256
6
ByLayer
370
18
48
1
60
1
100
AcDbPoint
10
61.6531
20
-4.5465
30
0
39
0
210
0
220
0
230
1
50
360
0
POINT
5
79
100
AcDbEntity
8
1
62
256
6
ByLayer
370
18
48
1
60
1
100
AcDbPoint
10
-40
20
-5
30
0
39
0
210
0
220
0
230
1
50
360
0
POINT
5
7A
100
AcDbEntity
8
1
62
256
6
ByLayer
370
18
48
1
60
1
100
AcDbPoint
10
61.6531
20
-4.5465
30
0
39
0
210
0
220
0
230
1
50
360
0
SPLINE
5
AE
100
AcDbEntity
8
1
62
256
6
ByLayer
370
18
48
1
60
0
100
AcDbSpline
70
4
71
3
72
96
73
92
40
0
40
0
40
0
40
0
40
0.0209062111172516
40
0.0209062111172516
40
0.0421092767293974
40
0.0421092767293974
40
0.0633123423415431
40
0.0633123423415431
40
0.0845154079536889
40
0.0845154079536889
40
0.105718473565835
40
0.105718473565835
40
0.12692153917798
40
0.12692153917798
40
0.148124604790126
40
0.148124604790126
40
0.169327670402272
40
0.169327670402272
40
0.190530736014418
40
0.190530736014418
40
0.211733801626563
40
0.211733801626563
40
0.254139932850855
40
0.254139932850855
40
0.275342998463
40
0.275342998463
40
0.296546064075145
40
0.296546064075145
40
0.317749129687291
40
0.317749129687291
40
0.338952195299436
40
0.338952195299436
40
0.360155260911581
40
0.360155260911581
40
0.381358326523726
40
0.381358326523726
40
0.402561392135872
40
0.402561392135872
40
0.423764457748017
40
0.423764457748017
40
0.466170588972307
40
0.466170588972307
40
0.487373654584452
40
0.487373654584452
40
0.508576720196598
40
0.508576720196598
40
0.529779785808743
40
0.529779785808743
40
0.550982851420888
40
0.550982851420888
40
0.593388982645179
40
0.593388982645179
40
0.614592048257324
40
0.614592048257324
40
0.635795113869469
40
0.635795113869469
40
0.656998179481614
40
0.656998179481614
40
0.678201245093759
40
0.678201245093759
40
0.699404310705905
40
0.699404310705905
40
0.72060737631805
40
0.72060737631805
40
0.741810441930195
40
0.741810441930195
40
0.76301350754234
40
0.76301350754234
40
0.784216573154485
40
0.784216573154485
40
0.80541963876663
40
0.80541963876663
40
0.826622704378776
40
0.826622704378776
40
0.847825769990921
40
0.847825769990921
40
0.869028835603066
40
0.869028835603066
40
0.890231901215211
40
0.890231901215211
40
0.911434966827356
40
0.911434966827356
40
0.932638032439502
40
0.932638032439502
40
0.953841098051647
40
0.953841098051647
40
0.975044163663792
40
0.975044163663792
40
0.996247229275937
40
0.996247229275937
40
1
40
1
40
1
40
1
41
1
10
52.8784924781086
20
-3.25417190269988
30
0
41
1
10
52.6453548644977
20
-3.329464694135
30
0
41
1
10
52.4121631600128
20
-3.40149785773795
30
0
41
1
10
51.9422650535315
20
-3.54036153653559
30
0
41
1
10
51.7052573601233
20
-3.6066770924528
30
0
41
1
10
51.232046953293
20
-3.73092962294604
30
0
41
1
10
50.9956291304925
20
-3.78894491674063
30
0
41
1
10
50.523245355453
20
-3.89646644212226
30
0
41
1
10
50.2873980057185
20
-3.9460864682608
30
0
41
1
10
49.8153009879608
20
-4.0351644707219
30
0
41
1
10
49.5789786102642
20
-4.07430536419446
30
0
41
1
10
49.1057617332165
20
-4.14356794563705
30
0
41
1
10
48.8688280826715
20
-4.17440128970949
30
0
41
1
10
48.3952355579846
20
-4.2271616535655
30
0
41
1
10
48.1593072343528
20
-4.24893223584962
30
0
41
1
10
47.6881849641579
20
-4.28191137979286
30
0
41
1
10
47.453041210319
20
-4.29355985393337
30
0
41
1
10
46.9835246536232
20
-4.30829943013057
30
0
41
1
10
46.749204673677
20
-4.31116979026845
30
0
41
1
10
46.2813840622842
20
-4.30659699105883
30
0
41
1
10
46.0476788183112
20
-4.29877070148999
30
0
41
1
10
45.3463401797304
20
-4.2622396708494
30
0
41
1
10
44.8790867541648
20
-4.22187293586086
30
0
41
1
10
44.1774140861888
20
-4.12977233295913
30
0
41
1
10
43.9431255409984
20
-4.09435823488212
30
0
41
1
10
43.4739223524632
20
-4.01610694613211
30
0
41
1
10
43.2389340128507
20
-3.97272539909369
30
0
41
1
10
42.7680600153066
20
-3.87617315247633
30
0
41
1
10
42.532205295826
20
-3.82266261051356
30
0
41
1
10
42.0588725382903
20
-3.7074030601145
30
0
41
1
10
41.8217556850615
20
-3.64625899780668
30
0
41
1
10
41.3485247453547
20
-3.51610028567134
30
0
41
1
10
41.1121467918226
20
-3.44703411462822
30
0
41
1
10
40.6398474829334
20
-3.30028929785143
30
0
41
1
10
40.4038700919503
20
-3.22277905793916
30
0
41
1
10
39.9314897015796
20
-3.06233451090995
30
0
41
1
10
39.6951429907285
20
-2.97888688801172
30
0
41
1
10
39.2219819232236
20
-2.80489667870936
30
0
41
1
10
38.9849311465756
20
-2.71406481423185
30
0
41
1
10
38.274812056135
20
-2.43240367249965
30
0
41
1
10
37.8034688714526
20
-2.23588506394054
30
0
41
1
10
37.0991182045849
20
-1.92709365915442
30
0
41
1
10
36.8648974307133
20
-1.8216633410137
30
0
41
1
10
36.396819879394
20
-1.60784758971423
30
0
41
1
10
36.1628912042227
20
-1.49944281488248
30
0
41
1
10
35.6950705213981
20
-1.27975809568045
30
0
41
1
10
35.4611646418061
20
-1.16847068885917
30
0
41
1
10
34.9934842417078
20
-0.943020761033154
30
0
41
1
10
34.7598380316148
20
-0.828780882789431
30
0
41
1
10
34.0577147103662
20
-0.484391182389686
30
0
41
1
10
33.5878770285192
20
-0.252419326835337
30
0
41
1
10
32.8814171009266
20
0.0993239991072699
30
0
41
1
10
32.6455601048764
20
0.217059290258192
30
0
41
1
10
32.1719152977397
20
0.451552430759705
30
0
41
1
10
31.9344702756219
20
0.568251386736364
30
0
41
1
10
31.4608455225356
20
0.799845891406591
30
0
41
1
10
31.2244054028245
20
0.91521764084402
30
0
41
1
10
30.7519323027848
20
1.14398586751534
30
0
41
1
10
30.5156415149663
20
1.25678679751567
30
0
41
1
10
30.0426706676105
20
1.47871802584504
30
0
41
1
10
29.8060080124617
20
1.58797653849558
30
0
41
1
10
29.3326142462672
20
1.80399386520688
30
0
41
1
10
29.0958119722491
20
1.91101145407617
30
0
41
1
10
28.6218103828564
20
2.1190894296457
30
0
41
1
10
28.3849972447214
20
2.21988083206349
30
0
41
1
10
27.9116544031869
20
2.41703819688607
30
0
41
1
10
27.6751505319078
20
2.51319805285684
30
0
41
1
10
27.202581664383
20
2.7004226007129
30
0
41
1
10
26.9664634710239
20
2.79104505902794
30
0
41
1
10
26.493426128076
20
2.9645099213769
30
0
41
1
10
26.2566920940703
20
3.04826732161203
30
0
41
1
10
25.7827718264579
20
3.20949855339668
30
0
41
1
10
25.545470792199
20
3.28706441163197
30
0
41
1
10
25.0721555044417
20
3.43358322747505
30
0
41
1
10
24.8356781668522
20
3.50212144801967
30
0
41
1
10
24.3627270669161
20
3.63233024045809
30
0
41
1
10
24.1262866145436
20
3.6937432763917
30
0
41
1
10
23.6535689666315
20
3.80881431528627
30
0
41
1
10
23.4173705749508
20
3.86210862009622
30
0
41
1
10
22.944270605183
20
3.9580776091793
30
0
41
1
10
22.7074050699482
20
4.00197092585842
30
0
41
1
10
22.2330059529424
20
4.08171207839047
30
0
41
1
10
21.9963661800045
20
4.11738730429232
30
0
41
1
10
21.5246365050212
20
4.17833114582317
30
0
41
1
10
21.2895642998393
20
4.20308312245757
30
0
41
1
10
20.8197700623497
20
4.24471176578001
30
0
41
1
10
20.5851431559811
20
4.26128983867014
30
0
41
1
10
20.1163879890365
20
4.28511217544246
30
0
41
1
10
19.8822857992409
20
4.29215790156744
30
0
41
1
10
19.6070190611759
20
4.29407326429092
30
0
41
1
10
19.5656304351851
20
4.29422286908178
30
0
41
1
10
19.5242448888457
20
4.29423508832227
30
0
0
SPLINE
5
AF
100
AcDbEntity
8
1
62
256
6
ByLayer
370
18
48
1
60
0
100
AcDbSpline
70
4
71
3
72
12
73
8
40
0
40
0
40
0
40
0
40
0.650089410591898
40
0.650089410591898
40
0.975134115887847
40
0.975134115887847
40
1
40
1
40
1
40
1
41
1
10
61.4585697255021
20
-4.3171448397473
30
0
41
1
10
60.2611228740802
20
-4.33455638923502
30
0
41
1
10
59.0798196531044
20
-4.2270193969282
30
0
41
1
10
57.3039593828032
20
-3.89641743660735
30
0
41
1
10
56.7112768843456
20
-3.75793928810123
30
0
41
1
10
56.069770161383
20
-3.58048509561527
30
0
41
1
10
56.0241637977435
20
-3.56771986943917
30
0
41
1
10
55.9785377177718
20
-3.55480096649811
30
0
0
SPLINE
5
B0
100
AcDbEntity
8
1
62
256
6
ByLayer
370
13
48
1
60
0
100
AcDbSpline
70
4
71
3
72
22
73
18
40
0
40
0
40
0
40
0
40
0.0607516644834639
40
0.0607516644834639
40
0.132477384828298
40
0.132477384828298
40
0.419380266207639
40
0.419380266207639
40
0.562831706897311
40
0.562831706897311
40
0.634557427242147
40
0.634557427242147
40
0.706283147586983
40
0.706283147586983
40
0.993186028966327
40
0.993186028966327
40
1
40
1
40
1
40
1
41
1
10
55.9785372629195
20
-3.55480083770789
30
0
41
1
10
55.7259533909103
20
-3.48328238208791
30
0
41
1
10
55.4727652766009
20
-3.40705422785945
30
0
41
1
10
54.9189329834148
20
-3.23093796989323
30
0
41
1
10
54.6182507615088
20
-3.12931722741197
30
0
41
1
10
53.1236966678275
20
-2.59727707564264
30
0
41
1
10
51.9439224423745
20
-2.0906529909854
30
0
41
1
10
50.1681261232303
20
-1.26452796312194
30
0
41
1
10
49.5752992544193
20
-0.977898211629935
30
0
41
1
10
48.6810687539283
20
-0.538001263901094
30
0
41
1
10
48.382133856849
20
-0.389775724925897
30
0
41
1
10
47.7819039670453
20
-0.0913836685706713
30
0
41
1
10
47.4814419671864
20
0.0583888590568336
30
0
41
1
10
45.9867703206653
20
0.801725492526856
30
0
41
1
10
44.8048255253662
20
1.38267631119007
30
0
41
1
10
43.5890396630269
20
1.92453468446891
30
0
41
1
10
43.5608311332218
20
1.93707593057067
30
0
41
1
10
43.5326189789523
20
1.94958730575649
30
0
0
SPLINE
5
B1
100
AcDbEntity
8
1
62
256
6
ByLayer
370
18
48
1
60
0
100
AcDbSpline
70
4
71
3
72
8
73
4
40
0
40
0
40
0
40
0
40
1
40
1
40
1
40
1
41
1
10
6.79113293462339
20
-4.28509832399033
30
0
41
1
10
5.94867460967276
20
-4.28426286261788
30
0
41
1
10
5.10409550215167
20
-4.22267563416511
30
0
41
1
10
4.25032518105041
20
-4.09915471725117
30
0
0
SPLINE
5
B2
100
AcDbEntity
8
1
62
256
6
ByLayer
370
18
48
1
60
0
100
AcDbSpline
70
4
71
3
72
44
73
40
40
0
40
0
40
0
40
0
40
0.0613671385804546
40
0.0613671385804546
40
0.127259546775579
40
0.127259546775579
40
0.193151954970704
40
0.193151954970704
40
0.324936771360953
40
0.324936771360953
40
0.390829179556077
40
0.390829179556077
40
0.456721587751202
40
0.456721587751202
40
0.522613995946326
40
0.522613995946326
40
0.555560200043888
40
0.555560200043888
40
0.572033302092669
40
0.572033302092669
40
0.576151577604865
40
0.576151577604865
40
0.58026985311706
40
0.58026985311706
40
0.584388128629255
40
0.584388128629255
40
0.588506404141451
40
0.588506404141451
40
0.720291220531701
40
0.720291220531701
40
0.786183628726826
40
0.786183628726826
40
0.852076036921951
40
0.852076036921951
40
0.917968445117076
40
0.917968445117076
40
0.983860853312201
40
0.983860853312201
40
1
40
1
40
1
40
1
41
1
10
11.8732972883302
20
3.24383018913181
30
0
41
1
10
11.8732972883302
20
3.1426861174227
30
0
41
1
10
11.8732972883302
20
3.03706832069656
30
0
41
1
10
11.8732972883302
20
2.80903575850172
30
0
41
1
10
11.8732972883302
20
2.68592725106077
30
0
41
1
10
11.8732972883302
20
2.42962798231437
30
0
41
1
10
11.8732972883302
20
2.29670109795214
30
0
41
1
10
11.8732972883302
20
1.89081691035318
30
0
41
1
10
11.8732972883302
20
1.60840096081685
30
0
41
1
10
11.8732972883302
20
1.16824892095775
30
0
41
1
10
11.8732972883302
20
1.01876160326742
30
0
41
1
10
11.8732972883302
20
0.714283113668188
30
0
41
1
10
11.8732972883302
20
0.558962810295128
30
0
41
1
10
11.8732972883302
20
0.244299583792071
30
0
41
1
10
11.8732972883302
20
0.0854719226272493
30
0
41
1
10
11.8732972883302
20
-0.154972973022893
30
0
41
1
10
11.8732972883302
20
-0.235520040146667
30
0
41
1
10
11.8732972883302
20
-0.356765620667005
30
0
41
1
10
11.8732972883302
20
-0.397249247498763
30
0
41
1
10
11.8732972883302
20
-0.447935587624954
30
0
41
1
10
11.8732972883302
20
-0.458085946773764
30
0
41
1
10
11.8732972883302
20
-0.478511742829227
30
0
41
1
10
11.8732972883302
20
-0.488903430130449
30
0
41
1
10
11.8732972883302
20
-0.508516964018241
30
0
41
1
10
11.8732972883302
20
-0.517742537905349
30
0
41
1
10
11.8732972883302
20
-0.535814157490421
30
0
41
1
10
11.8732972883302
20
-0.544837972512624
30
0
41
1
10
11.8732972883302
20
-0.842199752574061
30
0
41
1
10
11.8732972883302
20
-1.11767315722838
30
0
41
1
10
11.8732972883302
20
-1.50510949185016
30
0
41
1
10
11.8732972883302
20
-1.63025425061724
30
0
41
1
10
11.8732972883302
20
-1.86919130232639
30
0
41
1
10
11.8732972883302
20
-1.9833595984212
30
0
41
1
10
11.8732972883302
20
-2.20089598980763
30
0
41
1
10
11.8732972883302
20
-2.30426551181262
30
0
41
1
10
11.8732972883302
20
-2.49973055797417
30
0
41
1
10
11.8732972883302
20
-2.59219742882993
30
0
41
1
10
11.8732972883302
20
-2.69865498598321
30
0
41
1
10
11.8732972883302
20
-2.71916644394295
30
0
41
1
10
11.8732972883302
20
-2.73924258697221
30
0
0
SPLINE
5
B3
100
AcDbEntity
8
1
62
256
6
ByLayer
370
18
48
1
60
0
100
AcDbSpline
70
4
71
3
72
64
73
60
40
0
40
0
40
0
40
0
40
0.0624999999999882
40
0.0624999999999882
40
0.0937499999999829
40
0.0937499999999829
40
0.124999999999978
40
0.124999999999978
40
0.140624999999975
40
0.140624999999975
40
0.156249999999972
40
0.156249999999972
40
0.187499999999968
40
0.187499999999968
40
0.203124999999966
40
0.203124999999966
40
0.218749999999964
40
0.218749999999964
40
0.234374999999961
40
0.234374999999961
40
0.249999999999959
40
0.249999999999959
40
0.265624999999957
40
0.265624999999957
40
0.281249999999955
40
0.281249999999955
40
0.296874999999952
40
0.296874999999952
40
0.31249999999995
40
0.31249999999995
40
0.343749999999947
40
0.343749999999947
40
0.374999999999943
40
0.374999999999943
40
0.390624999999942
40
0.390624999999942
40
0.398437499999942
40
0.398437499999942
40
0.402343749999942
40
0.402343749999942
40
0.406249999999941
40
0.406249999999941
40
0.410156249999941
40
0.410156249999941
40
0.414062499999941
40
0.42187499999994
40
0.437499999999941
40
0.437499999999941
40
0.499999999999947
40
0.499999999999947
40
0.62499999999996
40
0.62499999999996
40
0.687499999999967
40
0.687499999999967
40
0.749999999999973
40
0.749999999999973
40
0.874999999999987
40
0.874999999999987
40
1
40
1
40
1
40
1
41
1
10
4.00117248126389
20
1.3522241791153
30
0
41
1
10
3.75798556553275
20
1.51706649342105
30
0
41
1
10
3.52010713185246
20
1.68500750738559
30
0
41
1
10
3.17608947957984
20
1.94569452945447
30
0
41
1
10
3.06358137879849
20
2.03407932015094
30
0
41
1
10
2.84451000026718
20
2.21519995768648
30
0
41
1
10
2.73889338763593
20
2.30713159266961
30
0
41
1
10
2.58865653892045
20
2.44817649922518
30
0
41
1
10
2.53995234556967
20
2.4957225341455
30
0
41
1
10
2.44589182742013
20
2.59216557225605
30
0
41
1
10
2.40045516614677
20
2.6411697133876
30
0
41
1
10
2.27218139813516
20
2.7886879129756
30
0
41
1
10
2.19655243433965
20
2.88819908076877
30
0
41
1
10
2.10562441657601
20
3.04079899642323
30
0
41
1
10
2.0790395112877
20
3.09238952814062
30
0
41
1
10
2.03603910659649
20
3.19649157531253
30
0
41
1
10
2.02010442151834
20
3.24786542855776
30
0
41
1
10
2.00090813651286
20
3.34923796578354
30
0
41
1
10
1.99769680016658
20
3.39971455379884
30
0
41
1
10
2.00570951754924
20
3.49690300014532
30
0
41
1
10
2.01674682356642
20
3.54315552807313
30
0
41
1
10
2.05232409252665
20
3.63135094972935
30
0
41
1
10
2.07723071478691
20
3.67367753000491
30
0
41
1
10
2.13805233372256
20
3.75188399037594
30
0
41
1
10
2.17382163883548
20
3.78791324729275
30
0
41
1
10
2.25427665351614
20
3.8550256745373
30
0
41
1
10
2.29922266545725
20
3.88624681477947
30
0
41
1
10
2.39554969497095
20
3.9439154267094
30
0
41
1
10
2.44655808533702
20
3.97020166196802
30
0
41
1
10
2.60639409202417
20
4.04316847402066
30
0
41
1
10
2.72192397673984
20
4.08405696121773
30
0
41
1
10
2.96552373479818
20
4.15576498931514
30
0
41
1
10
3.09294283913951
20
4.18629393426173
30
0
41
1
10
3.28884891911355
20
4.22637284592085
30
0
41
1
10
3.35505894945101
20
4.23878806383905
30
0
41
1
10
3.45527264773335
20
4.25617316336454
30
0
41
1
10
3.48883440572752
20
4.26176717442149
30
0
41
1
10
3.53942077781059
20
4.26986692434826
30
0
41
1
10
3.55715048682004
20
4.27198919125132
30
0
41
1
10
3.59500931703605
20
4.27457912376755
30
0
41
1
10
3.61385697134097
20
4.2751840349506
30
0
41
1
10
3.65143353716729
20
4.27540343123025
30
0
41
1
10
3.67017663614337
20
4.27513534512235
30
0
41
1
10
3.70768339430009
20
4.27477076937049
30
0
41
1
10
3.76394019805849
20
4.27419566224208
30
0
41
1
10
3.89518278211375
20
4.27265566308492
30
0
41
1
10
4.00763662089349
20
4.27099439537491
30
0
41
1
10
4.38239489036374
20
4.26468775040502
30
0
41
1
10
4.68193105000134
20
4.25718999854243
30
0
41
1
10
5.57594845411455
20
4.22669710539049
30
0
41
1
10
6.16712074077142
20
4.19581757274867
30
0
41
1
10
7.04712509905107
20
4.12803589664386
30
0
41
1
10
7.33933955738411
20
4.1018392092316
30
0
41
1
10
7.92164569716459
20
4.04099823513545
30
0
41
1
10
8.21205197201533
20
4.00629169001556
30
0
41
1
10
9.07638539989469
20
3.88819363537883
30
0
41
1
10
9.64431988861011
20
3.79067539928315
30
0
41
1
10
10.7672327489315
20
3.5512336726083
30
0
41
1
10
11.3222432997781
20
3.40928625595069
30
0
41
1
10
11.8732972883302
20
3.24383018915523
30
0
0
SPLINE
5
B4
100
AcDbEntity
8
1
62
256
6
ByLayer
370
18
48
1
60
0
100
AcDbSpline
70
4
71
3
72
14
73
10
40
0
40
0
40
0
40
0
40
0.25
40
0.25
40
0.5
40
0.5
40
0.75
40
0.75
40
1
40
1
40
1
40
1
41
1
10
4.00117248126281
20
1.35222417911476
30
0
41
1
10
4.00385925997551
20
1.36138613432792
30
0
41
1
10
4.01136307083229
20
1.36828339849228
30
0
41
1
10
4.03829424756509
20
1.3738996546156
30
0
41
1
10
4.05824007406534
20
1.37242989386607
30
0
41
1
10
4.10829428708391
20
1.35823308906259
30
0
41
1
10
4.13744641490973
20
1.34576049055784
30
0
41
1
10
4.19571305049027
20
1.31485594175155
30
0
41
1
10
4.22422180681986
20
1.2969663387249
30
0
41
1
10
4.25135955695893
20
1.27812190876639
30
0
0
SPLINE
5
B5
100
AcDbEntity
8
1
62
256
6
ByLayer
370
18
48
1
60
0
100
AcDbSpline
70
4
71
3
72
8
73
4
40
0
40
0
40
0
40
0
40
1
40
1
40
1
40
1
41
1
10
62.9895292000759
20
0.117753802893702
30
0
41
1
10
62.9901909657237
20
0.0960757509455732
30
0
41
1
10
62.9941532420964
20
0.069629376365782
30
0
41
1
10
62.9999638560855
20
0.0417736298107911
30
0
0
SPLINE
5
B6
100
AcDbEntity
8
1
62
256
6
ByLayer
370
18
48
1
60
0
100
AcDbSpline
70
4
71
3
72
8
73
4
40
0
40
0
40
0
40
0
40
1
40
1
40
1
40
1
41
1
10
62.9895292000759
20
-0.117753802893645
30
0
41
1
10
62.9901909657238
20
-0.0960757509440668
30
0
41
1
10
62.994153242097
20
-0.0696293763622577
30
0
41
1
10
62.9999638560867
20
-0.0417736298051921
30
0
0
SPLINE
5
B7
100
AcDbEntity
8
1
62
256
6
ByLayer
370
18
48
1
60
0
100
AcDbSpline
70
4
71
3
72
24
73
20
40
0
40
0
40
0
40
0
40
0.124999999999997
40
0.124999999999997
40
0.187499999999996
40
0.187499999999996
40
0.249999999999996
40
0.249999999999996
40
0.374999999999996
40
0.374999999999996
40
0.499999999999997
40
0.499999999999997
40
0.624999999999998
40
0.624999999999998
40
0.749999999999998
40
0.749999999999998
40
0.874999999999999
40
0.874999999999999
40
1
40
1
40
1
40
1
41
1
10
4.25135955747763
20
1.27812190840621
30
0
41
1
10
4.54770890307569
20
1.072337182062
30
0
41
1
10
4.85142086374839
20
0.873885399356567
30
0
41
1
10
5.31382505112316
20
0.582260628832785
30
0
41
1
10
5.46913808034944
20
0.48610833972603
30
0
41
1
10
5.78175151540032
20
0.295498747484373
30
0
41
1
10
5.93929975512552
20
0.200896942184016
30
0
41
1
10
6.41213047928386
20
-0.0792834079066154
30
0
41
1
10
6.72786562125077
20
-0.261452134777102
30
0
41
1
10
7.3602311603405
20
-0.617908594704232
30
0
41
1
10
7.67685929655991
20
-0.792467531422801
30
0
41
1
10
8.31153007415645
20
-1.13254221357127
30
0
41
1
10
8.62958042626155
20
-1.29814907200358
30
0
41
1
10
9.26809104197247
20
-1.61963729710095
30
0
41
1
10
9.58854095864621
20
-1.77552048936465
30
0
41
1
10
10.2333575390416
20
-2.07455945275189
30
0
41
1
10
10.5577163942764
20
-2.21793213775643
30
0
41
1
10
11.2119197418879
20
-2.49060352984299
30
0
41
1
10
11.5417336635549
20
-2.61953402178554
30
0
41
1
10
11.8732972883302
20
-2.73924258697218
30
0
0
SPLINE
5
B8
100
AcDbEntity
8
1
62
256
6
ByLayer
370
18
48
1
60
0
100
AcDbSpline
70
4
71
3
72
8
73
4
40
0
40
0
40
0
40
0
40
1
40
1
40
1
40
1
41
1
10
62.9642439165293
20
-0.0480527849678083
30
0
41
1
10
62.3029596342668
20
-1.13041965478794
30
0
41
1
10
61.6835776590415
20
-2.2508299678077
30
0
41
1
10
61.107573488886
20
-3.4106233406155
30
0
0
SPLINE
5
B9
100
AcDbEntity
8
1
62
256
6
ByLayer
370
18
48
1
60
0
100
AcDbSpline
70
4
71
3
72
14
73
10
40
0
40
0
40
0
40
0
40
0.25
40
0.25
40
0.5
40
0.5
40
0.75
40
0.75
40
1
40
1
40
1
40
1
41
1
10
61.3510429067154
20
0.973142095124445
30
0
41
1
10
61.3501802564062
20
0.988482781463006
30
0
41
1
10
61.3534776232709
20
1.00401255371085
30
0
41
1
10
61.3690101475137
20
1.03088922282083
30
0
41
1
10
61.3812013021861
20
1.04206328974186
30
0
41
1
10
61.4085436591753
20
1.05785831385128
30
0
41
1
10
61.4239346406422
20
1.0629289420614
30
0
41
1
10
61.4548633270489
20
1.06881868120308
30
0
41
1
10
61.4707384163869
20
1.06974247282204
30
0
41
1
10
61.4865634709921
20
1.06916710982659
30
0
0
SPLINE
5
BA
100
AcDbEntity
8
1
62
256
6
ByLayer
370
18
48
1
60
0
100
AcDbSpline
70
4
71
3
72
52
73
48
40
0
40
0
40
0
40
0
40
0.0323802834084419
40
0.0323802834084419
40
0.0647605668168838
40
0.0647605668168838
40
0.129521133633768
40
0.129521133633768
40
0.161901417042209
40
0.161901417042209
40
0.19428170045065
40
0.19428170045065
40
0.259042267267532
40
0.259042267267532
40
0.291422550675972
40
0.291422550675972
40
0.323802834084412
40
0.323802834084412
40
0.388563400901293
40
0.388563400901293
40
0.420943684309735
40
0.420943684309735
40
0.453323967718176
40
0.453323967718176
40
0.485704251126618
40
0.485704251126618
40
0.518084534535059
40
0.518084534535059
40
0.647605668168828
40
0.647605668168828
40
0.712366234985713
40
0.712366234985713
40
0.744746518394155
40
0.744746518394155
40
0.777126801802597
40
0.777126801802597
40
0.84188736861948
40
0.84188736861948
40
0.874267652027922
40
0.874267652027922
40
0.906647935436363
40
0.906647935436363
40
0.939028218844805
40
0.939028218844805
40
0.971408502253246
40
0.971408502253246
40
1
40
1
40
1
40
1
41
1
10
61.3969141434463
20
-4.54104205381725
30
0
41
1
10
61.0981115527811
20
-4.54844837652607
30
0
41
1
10
60.7994279856971
20
-4.54770941417794
30
0
41
1
10
60.2016928517536
20
-4.53001128174321
30
0
41
1
10
59.9023402391718
20
-4.51302274593235
30
0
41
1
10
59.0051176056741
20
-4.43797688604033
30
0
41
1
10
58.4089877781935
20
-4.35603264742872
30
0
41
1
10
57.5139299908602
20
-4.18747517172994
30
0
41
1
10
57.2154125581781
20
-4.12369346189317
30
0
41
1
10
56.6173107107807
20
-3.98141880525796
30
0
41
1
10
56.3179473475917
20
-3.90295988483578
30
0
41
1
10
55.421971166392
20
-3.64773439385979
30
0
41
1
10
54.8260152271854
20
-3.45071795551343
30
0
41
1
10
53.9299735961686
20
-3.11986313703625
30
0
41
1
10
53.6305444643659
20
-3.00354521288199
30
0
41
1
10
53.0324656265182
20
-2.76079081746497
30
0
41
1
10
52.7339506039246
20
-2.63442350686748
30
0
41
1
10
51.8387620357203
20
-2.24232427200749
30
0
41
1
10
51.2424590248236
20
-1.96358064583987
30
0
41
1
10
50.3447598511759
20
-1.52611344659135
30
0
41
1
10
50.045431902595
20
-1.37723101472002
30
0
41
1
10
49.4481098409414
20
-1.07562564407033
30
0
41
1
10
49.1498066937223
20
-0.9227236530227
30
0
41
1
10
48.5530834480687
20
-0.614287620178402
30
0
41
1
10
48.254662317342
20
-0.458756710856448
30
0
41
1
10
47.6570710503731
20
-0.146263437163725
30
0
41
1
10
47.3573242913212
20
0.0110443257554778
30
0
41
1
10
45.8640902026461
20
0.793046709174462
30
0
41
1
10
44.6863405727032
20
1.40422963926653
30
0
41
1
10
42.9132821029334
20
2.24112500145657
30
0
41
1
10
42.3211393380452
20
2.50671258334657
30
0
41
1
10
41.4274609708239
20
2.87821475610099
30
0
41
1
10
41.1280764542771
20
2.99775770910728
30
0
41
1
10
40.5296878780427
20
3.22535783049011
30
0
41
1
10
40.2309814018403
20
3.3333519282495
30
0
41
1
10
39.3354287311699
20
3.63885206638472
30
0
41
1
10
38.7390279364178
20
3.81770898794002
30
0
41
1
10
37.8413358350656
20
4.04409050520494
30
0
41
1
10
37.5418452246447
20
4.11248250824093
30
0
41
1
10
36.9442221372291
20
4.23397885646637
30
0
41
1
10
36.6457379018318
20
4.28719533820552
30
0
41
1
10
36.0487740588354
20
4.37818639695723
30
0
41
1
10
35.7502847342539
20
4.41595309947121
30
0
41
1
10
35.1525652095674
20
4.4756454596405
30
0
41
1
10
34.8529499854938
20
4.49758857302606
30
0
41
1
10
34.2895032031601
20
4.52361068951339
30
0
41
1
10
34.025677624299
20
4.52948951358673
30
0
41
1
10
33.7620015502082
20
4.52906966124471
30
0
0
SPLINE
5
BB
100
AcDbEntity
8
1
62
256
6
ByLayer
370
18
48
1
60
0
100
AcDbSpline
70
4
71
3
72
10
73
6
40
0
40
0
40
0
40
0
40
0.300331837356212
40
0.300331837356212
40
1
40
1
40
1
40
1
41
1
10
9.23233082860887
20
-4.3032526825771
30
0
41
1
10
8.71960827785233
20
-4.38360656399939
30
0
41
1
10
8.2095094595648
20
-4.44092766784405
30
0
41
1
10
6.51390238256297
20
-4.55413248259669
30
0
41
1
10
5.33219180377196
20
-4.50675193726178
30
0
41
1
10
4.13442641518387
20
-4.33213429855769
30
0
0
SPLINE
5
BC
100
AcDbEntity
8
1
62
256
6
ByLayer
370
18
48
1
60
0
100
AcDbSpline
70
4
71
3
72
16
73
12
40
0
40
0
40
0
40
0
40
0.212929632260852
40
0.212929632260852
40
0.555805766148189
40
0.555805766148189
40
0.727243833091861
40
0.727243833091861
40
0.898681900035534
40
0.898681900035534
40
1
40
1
40
1
40
1
41
1
10
33.9910437720256
20
-4.30196966675533
30
0
41
1
10
33.6180462730383
20
-4.30155976433724
30
0
41
1
10
33.245111095866
20
-4.28918233430687
30
0
41
1
10
32.2702741969614
20
-4.22565167876471
30
0
41
1
10
31.6704567704466
20
-4.15574341566844
30
0
41
1
10
30.7691694049524
20
-4.00659597185049
30
0
41
1
10
30.4681910580938
20
-3.94942453876894
30
0
41
1
10
29.8690292171144
20
-3.82169671962981
30
0
41
1
10
29.5703967424833
20
-3.7510703781694
30
0
41
1
10
29.0962700035366
20
-3.62857568747899
30
0
41
1
10
28.9203694410429
20
-3.58085169680066
30
0
41
1
10
28.7446253448707
20
-3.53099411950151
30
0
0
SPLINE
5
BD
100
AcDbEntity
8
1
62
256
6
ByLayer
370
13
48
1
60
0
100
AcDbSpline
70
4
71
3
72
22
73
18
40
0
40
0
40
0
40
0
40
0.247855760319983
40
0.247855760319983
40
0.320561831883088
40
0.320561831883088
40
0.393267903446192
40
0.393267903446192
40
0.538680046572401
40
0.538680046572401
40
0.829504332824816
40
0.829504332824816
40
0.902210404387919
40
0.902210404387919
40
0.974916475951023
40
0.974916475951023
40
1
40
1
40
1
40
1
41
1
10
28.7446253449694
20
-3.53099411952948
30
0
41
1
10
27.7308789893498
20
-3.24340017818477
30
0
41
1
10
26.7223387995392
20
-2.88481456527609
30
0
41
1
10
25.4092332102103
20
-2.35118955427464
30
0
41
1
10
25.1107919473622
20
-2.2255827547142
30
0
41
1
10
24.5120936881777
20
-1.96610258719474
30
0
41
1
10
24.2111132228653
20
-1.83184228594339
30
0
41
1
10
23.3106759271881
20
-1.42115092170869
30
0
41
1
10
22.7145545926333
20
-1.13703971117877
30
0
41
1
10
20.930922083865
20
-0.269684043266352
30
0
41
1
10
19.7485426743116
20
0.32937843094561
30
0
41
1
10
18.2541646997973
20
1.05309602728039
30
0
41
1
10
17.9544868787426
20
1.19661908440744
30
0
41
1
10
17.3529077273059
20
1.47993884832056
30
0
41
1
10
17.0531566431575
20
1.61866352450213
30
0
41
1
10
16.6511217414637
20
1.80040497537976
30
0
41
1
10
16.5480955278617
20
1.84660443812786
30
0
41
1
10
16.4451541603005
20
1.89236452369116
30
0
0
SPLINE
5
BE
100
AcDbEntity
8
1
62
256
6
ByLayer
370
18
48
1
60
0
100
AcDbSpline
70
4
71
3
72
12
73
8
40
0
40
0
40
0
40
0
40
0.250000000000013
40
0.250000000000013
40
0.500000000000027
40
0.500000000000027
40
1
40
1
40
1
40
1
41
1
10
4.13442641518373
20
-4.33213429855766
30
0
41
1
10
4.11687884954233
20
-4.32957610602139
30
0
41
1
10
4.1007522435969
20
-4.32647161437993
30
0
41
1
10
4.07123990059949
20
-4.31913014551455
30
0
41
1
10
4.05781310958409
20
-4.31484630028822
30
0
41
1
10
4.0238078000753
20
-4.30077438073843
30
0
41
1
10
4.00865051867476
20
-4.28940695092544
30
0
41
1
10
4.00280206498186
20
-4.27709543706871
30
0
0
SPLINE
5
BF
100
AcDbEntity
8
1
62
256
6
ByLayer
370
13
48
1
60
0
100
AcDbSpline
70
4
71
3
72
8
73
4
40
0
40
0
40
0
40
0
40
1
40
1
40
1
40
1
41
1
10
4.1367285253576
20
-4.11525134286521
30
0
41
1
10
4.17227555480034
20
-4.10109668697541
30
0
41
1
10
4.21082752158378
20
-4.0957058331677
30
0
41
1
10
4.25032518105041
20
-4.09915471725117
30
0
0
SPLINE
5
C0
100
AcDbEntity
8
1
62
256
6
ByLayer
370
18
48
1
60
0
100
AcDbSpline
70
4
71
3
72
8
73
4
40
0
40
0
40
0
40
0
40
1
40
1
40
1
40
1
41
1
10
61.3969141434465
20
4.54104205381725
30
0
41
1
10
61.2570985124587
20
4.54450761842474
30
0
41
1
10
61.1172871139031
20
4.54619032015736
30
0
41
1
10
60.9774488947885
20
4.54609210009076
30
0
0
SPLINE
5
C1
100
AcDbEntity
8
1
62
256
6
ByLayer
370
18
48
1
60
0
100
AcDbSpline
70
4
71
3
72
52
73
48
40
0
40
0
40
0
40
0
40
0.0045181343741214
40
0.0045181343741214
40
0.0344394936241817
40
0.0344394936241817
40
0.064360852874242
40
0.064360852874242
40
0.124203571374362
40
0.124203571374362
40
0.184046289874483
40
0.184046289874483
40
0.243889008374603
40
0.243889008374603
40
0.273810367624664
40
0.273810367624664
40
0.303731726874725
40
0.303731726874725
40
0.333653086124786
40
0.333653086124786
40
0.363574445374846
40
0.363574445374846
40
0.423417163874967
40
0.423417163874967
40
0.453338523125027
40
0.453338523125027
40
0.483259882375088
40
0.483259882375088
40
0.602945319375329
40
0.602945319375329
40
0.66278803787545
40
0.66278803787545
40
0.69270939712551
40
0.69270939712551
40
0.722630756375571
40
0.722630756375571
40
0.782473474875691
40
0.782473474875691
40
0.842316193375812
40
0.842316193375812
40
0.872237552625873
40
0.872237552625873
40
0.902158911875933
40
0.902158911875933
40
0.962001630376055
40
0.962001630376055
40
1
40
1
40
1
40
1
41
1
10
36.4803611195909
20
-4.31189108629687
30
0
41
1
10
36.4352865419885
20
-4.31910762755183
30
0
41
1
10
36.3902105732428
20
-4.32614900317813
30
0
41
1
10
36.0465994265084
20
-4.3784810635384
30
0
41
1
10
35.7479531828664
20
-4.41623183758773
30
0
41
1
10
35.1497057607378
20
-4.47588473036245
30
0
41
1
10
34.8499324403249
20
-4.49777776809546
30
0
41
1
10
33.9529467918314
20
-4.53905377955021
30
0
41
1
10
33.3565581494732
20
-4.53419685701002
30
0
41
1
10
32.1613650578173
20
-4.46005714017045
30
0
41
1
10
31.561740450228
20
-4.39045223902485
30
0
41
1
10
30.3669084424772
20
-4.19028955355728
30
0
41
1
10
29.7703864139598
20
-4.05968263412498
30
0
41
1
10
28.8726860527603
20
-3.82118512075931
30
0
41
1
10
28.5729295969968
20
-3.73451206018458
30
0
41
1
10
27.9749520689082
20
-3.54857783237009
30
0
41
1
10
27.6763272295885
20
-3.44923114488566
30
0
41
1
10
27.0791035449977
20
-3.23870110448118
30
0
41
1
10
26.7805195686688
20
-3.12749922940063
30
0
41
1
10
26.1827378156375
20
-2.89410899444147
30
0
41
1
10
25.8832646362494
20
-2.77177284395609
30
0
41
1
10
24.9849240417133
20
-2.39051471206531
30
0
41
1
10
24.3881382987286
20
-2.11838379924609
30
0
41
1
10
23.4920297954402
20
-1.69029788704282
30
0
41
1
10
23.1932182364483
20
-1.54420580458964
30
0
41
1
10
22.5945779530924
20
-1.24662201339933
30
0
41
1
10
22.2948139934199
20
-1.0951758499871
30
0
41
1
10
20.803675593086
20
-0.333527530722449
30
0
41
1
10
19.6259418330987
20
0.294728496573413
30
0
41
1
10
17.8499991084146
20
1.20276457793221
30
0
41
1
10
17.2566419558105
20
1.50007201123103
30
0
41
1
10
16.3601778715657
20
1.92950379519735
30
0
41
1
10
16.0600580453651
20
2.07001706209607
30
0
41
1
10
15.461795042101
20
2.34229878678178
30
0
41
1
10
15.1630761047196
20
2.47432132276327
30
0
41
1
10
14.2669816318248
20
2.85618779658901
30
0
41
1
10
13.6694546123513
20
3.09219781784032
30
0
41
1
10
12.470795631358
20
3.51771613016888
30
0
41
1
10
11.8737490107853
20
3.70588496365804
30
0
41
1
10
10.9774035310284
20
3.94675484121646
30
0
41
1
10
10.6784860879842
20
4.02014764529764
30
0
41
1
10
10.0797620181831
20
4.15249952587257
30
0
41
1
10
9.77974177956946
20
4.21144932337069
30
0
41
1
10
8.88403149798813
20
4.3645522194646
30
0
41
1
10
8.2906275568339
20
4.43558552932282
30
0
41
1
10
7.32199568363984
20
4.5001343294669
30
0
41
1
10
6.94619898021776
20
4.51247999738337
30
0
41
1
10
6.57013023873955
20
4.5120661925763
30
0
0
SPLINE
5
C2
100
AcDbEntity
8
1
62
256
6
ByLayer
370
18
48
1
60
0
100
AcDbSpline
70
4
71
3
72
12
73
8
40
0
40
0
40
0
40
0
40
0.25
40
0.25
40
0.5
40
0.5
40
1
40
1
40
1
40
1
41
1
10
61.6301749646913
20
-4.42323280487383
30
0
41
1
10
61.7319060176413
20
-4.13661865517085
30
0
41
1
10
61.8359649221212
20
-3.85093592687042
30
0
41
1
10
62.0480915561438
20
-3.28116365815896
30
0
41
1
10
62.1561542563453
20
-2.9970722004164
30
0
41
1
10
62.4856831415131
20
-2.1469083037571
30
0
41
1
10
62.7127089540519
20
-1.58260841461669
30
0
41
1
10
62.945572476264
20
-1.02152479527274
30
0
0
SPLINE
5
C3
100
AcDbEntity
8
1
62
256
6
ByLayer
370
13
48
1
60
0
100
AcDbSpline
70
4
71
3
72
12
73
8
40
0
40
0
40
0
40
0
40
0.500000000000001
40
0.500000000000001
40
0.75
40
0.75
40
1
40
1
40
1
40
1
41
1
10
4.00106358841902
20
-4.26970321062521
30
0
41
1
10
4.0047960020008
20
-4.23895043685567
30
0
41
1
10
4.01846589184089
20
-4.20847933208424
30
0
41
1
10
4.05261776394875
20
-4.1683348473822
30
0
41
1
10
4.06656156230895
20
-4.15558495994637
30
0
41
1
10
4.09860448421307
20
-4.13306238206621
30
0
41
1
10
4.11655299097913
20
-4.1232851434666
30
0
41
1
10
4.1367285253576
20
-4.11525134286521
30
0
0
SPLINE
5
C4
100
AcDbEntity
8
1
62
256
6
ByLayer
370
18
48
1
60
0
100
AcDbSpline
70
4
71
3
72
31
73
27
40
0
40
0
40
0
40
0
40
0.0625000000000001
40
0.0625000000000001
40
0.125
40
0.125
40
0.25
40
0.25
40
0.3125
40
0.3125
40
0.375000000000001
40
0.437500000000001
40
0.437500000000001
40
0.500000000000001
40
0.500000000000001
40
0.625
40
0.625
40
0.6875
40
0.6875
40
0.75
40
0.75
40
0.875
40
0.875
40
0.9375
40
0.9375
40
1
40
1
40
1
40
1
41
1
10
4.00106358841902
20
-4.26970321062569
30
0
41
1
10
4.00106741080083
20
-4.22248366950481
30
0
41
1
10
4.00107110828577
20
-4.16830923387019
30
0
41
1
10
4.00107819435627
20
-4.04776817639774
30
0
41
1
10
4.00108158472881
20
-3.98145927777236
30
0
41
1
10
4.00109138235419
20
-3.76487387998921
30
0
41
1
10
4.00109741777459
20
-3.59710420892731
30
0
41
1
10
4.00110601615387
20
-3.30919798390437
30
0
41
1
10
4.00110878407617
20
-3.20781595331772
30
0
41
1
10
4.00111410682928
20
-2.99707257710256
30
0
41
1
10
4.00111923924598
20
-2.77759374337853
30
0
41
1
10
4.00112408448058
20
-2.54083858931375
30
0
41
1
10
4.00112882307653
20
-2.29529963557218
30
0
41
1
10
4.00113115131538
20
-2.16740170780127
30
0
41
1
10
4.00113790236111
20
-1.77680181530491
30
0
41
1
10
4.00114210884368
20
-1.50710815273928
30
0
41
1
10
4.001148089759
20
-1.08893003930783
30
0
41
1
10
4.00115002687113
20
-0.947248666516458
30
0
41
1
10
4.00115378591261
20
-0.659163535492041
30
0
41
1
10
4.00115559140446
20
-0.513965055214356
30
0
41
1
10
4.00116071465169
20
-0.0799970097504001
30
0
41
1
10
4.00116377441051
20
0.209231381704797
30
0
41
1
10
4.00116767368922
20
0.642947680473185
30
0
41
1
10
4.00116886147896
20
0.788278630306309
30
0
41
1
10
4.00117091649236
20
1.0737901588879
30
0
41
1
10
4.00117178704824
20
1.2141675943721
30
0
41
1
10
4.0011724812631
20
1.35222417911368
30
0
0
SPLINE
5
C5
100
AcDbEntity
8
1
62
256
6
ByLayer
370
13
48
1
60
0
100
AcDbSpline
70
4
71
3
72
8
73
4
40
0
40
0
40
0
40
0
40
1
40
1
40
1
40
1
41
1
10
4.13442641518375
20
-4.33213429855681
30
0
41
1
10
4.13518768086584
20
-4.29647409072066
30
0
41
1
10
4.13595504915853
20
-4.2608120436561
30
0
41
1
10
4.13672852535763
20
-4.22514809586929
30
0
0
SPLINE
5
C6
100
AcDbEntity
8
1
62
256
6
ByLayer
370
18
48
1
60
0
100
AcDbSpline
70
4
71
3
72
54
73
50
40
0
40
0
40
0
40
0
40
0.0757403988723908
40
0.0757403988723908
40
0.113610598308586
40
0.113610598308586
40
0.151480797744782
40
0.151480797744782
40
0.189350997180977
40
0.189350997180977
40
0.227221196617172
40
0.227221196617172
40
0.265091396053368
40
0.265091396053368
40
0.302961595489563
40
0.302961595489563
40
0.340831794925758
40
0.340831794925758
40
0.378701994361954
40
0.378701994361954
40
0.454442393234344
40
0.454442393234344
40
0.492312592670539
40
0.492312592670539
40
0.530182792106734
40
0.530182792106734
40
0.568052991542929
40
0.568052991542929
40
0.605923190979124
40
0.605923190979124
40
0.643793390415319
40
0.643793390415319
40
0.681663589851514
40
0.681663589851514
40
0.719533789287709
40
0.719533789287709
40
0.757403988723904
40
0.757403988723904
40
0.833144387596296
40
0.833144387596296
40
0.87101458703249
40
0.87101458703249
40
0.908884786468686
40
0.908884786468686
40
0.94675498590488
40
0.94675498590488
40
0.984625185341075
40
0.984625185341075
40
1
40
1
40
1
40
1
41
1
10
11.8732972883302
20
3.24383018915523
30
0
41
1
10
12.3952580290966
20
3.05244372971589
30
0
41
1
10
12.9162415944053
20
2.84841842065583
30
0
41
1
10
13.6929653568394
20
2.51932173158613
30
0
41
1
10
13.950814498444
20
2.40526476671084
30
0
41
1
10
14.4671494512121
20
2.17303001807272
30
0
41
1
10
14.725433139888
20
2.05455011481831
30
0
41
1
10
15.2417399741102
20
1.8120756628891
30
0
41
1
10
15.4996855409854
20
1.68793630788946
30
0
41
1
10
16.0152773259551
20
1.4339295115787
30
0
41
1
10
16.2736127699202
20
1.30533293726052
30
0
41
1
10
16.7915342895105
20
1.04536072378616
30
0
41
1
10
17.0510149342972
20
0.913790352797292
30
0
41
1
10
17.5706228435674
20
0.646593770470702
30
0
41
1
10
17.8305203963363
20
0.51046669850453
30
0
41
1
10
18.3531870156315
20
0.2385370162784
30
0
41
1
10
18.6146724154683
20
0.102798660295264
30
0
41
1
10
19.1352931177081
20
-0.168090882324322
30
0
41
1
10
19.3946391329828
20
-0.30368487083706
30
0
41
1
10
20.1704972592686
20
-0.709428517436351
30
0
41
1
10
20.6876734297317
20
-0.973001407558172
30
0
41
1
10
21.4612307581728
20
-1.362305730504
30
0
41
1
10
21.7185385126129
20
-1.4913534905827
30
0
41
1
10
22.2346926048312
20
-1.74312969973536
30
0
41
1
10
22.4932487144737
20
-1.8664164193423
30
0
41
1
10
23.0108435703465
20
-2.10864599594734
30
0
41
1
10
23.2697141204314
20
-2.22787858103513
30
0
41
1
10
23.7883591535181
20
-2.46112780883681
30
0
41
1
10
24.0487303662795
20
-2.57412027954237
30
0
41
1
10
24.5713466425063
20
-2.79324541837289
30
0
41
1
10
24.8331346143588
20
-2.89923593736148
30
0
41
1
10
25.3533624687171
20
-3.1032753997595
30
0
41
1
10
25.6123225422876
20
-3.20151111790534
30
0
41
1
10
26.1303756291898
20
-3.38710981546899
30
0
41
1
10
26.3891587984609
20
-3.47497278746144
30
0
41
1
10
26.9057937551215
20
-3.64153965292917
30
0
41
1
10
27.1634134484128
20
-3.72048514971911
30
0
41
1
10
27.9359183917957
20
-3.94208395261361
30
0
41
1
10
28.4525035337359
20
-4.06772485415794
30
0
41
1
10
29.2271067790488
20
-4.22544345044176
30
0
41
1
10
29.4853228684587
20
-4.27271202918266
30
0
41
1
10
30.0040492425632
20
-4.35506709930172
30
0
41
1
10
30.2642387517297
20
-4.39042050657639
30
0
41
1
10
30.785850914301
20
-4.44955676088085
30
0
41
1
10
31.0472745725997
20
-4.47340443280598
30
0
41
1
10
31.5688116208405
20
-4.50849683560995
30
0
41
1
10
31.8297007065633
20
-4.51976637218183
30
0
41
1
10
32.1963884527129
20
-4.5270508972861
30
0
41
1
10
32.3022610025641
20
-4.52815155319328
30
0
41
1
10
32.4081016980962
20
-4.5282409754827
30
0
0
SPLINE
5
C7
100
AcDbEntity
8
1
62
256
6
ByLayer
370
18
48
1
60
0
100
AcDbSpline
70
4
71
3
72
28
73
24
40
0
40
0
40
0
40
0
40
0.0214400036406902
40
0.0214400036406902
40
0.110400003309719
40
0.110400003309719
40
0.199360002978748
40
0.199360002978748
40
0.288320002647777
40
0.288320002647777
40
0.377280002316805
40
0.377280002316805
40
0.466240001985834
40
0.466240001985834
40
0.555200001654862
40
0.555200001654862
40
0.644160001323891
40
0.644160001323891
40
0.733120000992919
40
0.733120000992919
40
0.822080000661947
40
0.822080000661947
40
1
40
1
40
1
40
1
41
1
10
52.8875265117257
20
3.2405307586358
30
0
41
1
10
52.9504162339117
20
3.26363361168723
30
0
41
1
10
53.0133692653874
20
3.28647926140107
30
0
41
1
10
53.3378657034408
20
3.40278012689819
30
0
41
1
10
53.5985902431879
20
3.49157361767791
30
0
41
1
10
54.1179805807617
20
3.65988470362211
30
0
41
1
10
54.3764197881752
20
3.73963835173987
30
0
41
1
10
54.8935017083612
20
3.88733812486768
30
0
41
1
10
55.1519136393887
20
3.95562258318347
30
0
41
1
10
55.6679995840689
20
4.08172867411042
30
0
41
1
10
55.9255663414967
20
4.13962636321483
30
0
41
1
10
56.4400531235751
20
4.24463111073436
30
0
41
1
10
56.6976478479044
20
4.2912392842338
30
0
41
1
10
57.213560243629
20
4.37289296329217
30
0
41
1
10
57.4717982162019
20
4.40799779289389
30
0
41
1
10
57.9884189177158
20
4.46677232841986
30
0
41
1
10
58.2466044152333
20
4.49043923655617
30
0
41
1
10
58.7654123694973
20
4.52529328591652
30
0
41
1
10
59.0257654240165
20
4.53663986821184
30
0
41
1
10
59.5479081161046
20
4.54713385470512
30
0
41
1
10
59.80908413829
20
4.54622789965401
30
0
41
1
10
60.5896314114272
20
4.52474907978984
30
0
41
1
10
61.1104648913948
20
4.48615792572298
30
0
41
1
10
61.6301749646977
20
4.42323280485584
30
0
0
SPLINE
5
C8
100
AcDbEntity
8
1
62
256
6
ByLayer
370
13
48
1
60
0
100
AcDbSpline
70
4
71
3
72
12
73
8
40
0
40
0
40
0
40
0
40
0.499999999999979
40
0.499999999999979
40
0.74999999999999
40
0.74999999999999
40
1
40
1
40
1
40
1
41
1
10
4.00280206498201
20
-4.27709543707772
30
0
41
1
10
4.00850713928469
20
-4.26677404976914
30
0
41
1
10
4.02292525388907
20
-4.25663045839727
30
0
41
1
10
4.05661998985556
20
-4.2431464350326
30
0
41
1
10
4.07015744995812
20
-4.23884761565171
30
0
41
1
10
4.10073229818491
20
-4.23124766847704
30
0
41
1
10
4.11773656921031
20
-4.22791783465888
30
0
41
1
10
4.1367285253576
20
-4.22514809586929
30
0
0
SPLINE
5
C9
100
AcDbEntity
8
1
62
256
6
ByLayer
370
18
48
1
60
0
100
AcDbSpline
70
4
71
3
72
16
73
12
40
0
40
0
40
0
40
0
40
0.266725005073909
40
0.266725005073909
40
0.400087507610864
40
0.400087507610864
40
0.533450010147818
40
0.533450010147818
40
0.800175015221729
40
0.800175015221729
40
1
40
1
40
1
40
1
41
1
10
61.1075734888859
20
-3.4106233406155
30
0
41
1
10
61.1073465239485
20
-3.56465810882943
30
0
41
1
10
61.1142466641453
20
-3.69986949259072
30
0
41
1
10
61.1355934057892
20
-3.87499410631014
30
0
41
1
10
61.1445555153486
20
-3.92872766418804
30
0
41
1
10
61.1663979332329
20
-4.02668493533059
30
0
41
1
10
61.1792205496154
20
-4.0705328022934
30
0
41
1
10
61.2229752221962
20
-4.18552678792659
30
0
41
1
10
61.2593118226666
20
-4.24099890603742
30
0
41
1
10
61.336322229049
20
-4.30188811671181
30
0
41
1
10
61.3737904600505
20
-4.31620172861304
30
0
41
1
10
61.4153992810522
20
-4.31866237310871
30
0
0
SPLINE
5
CA
100
AcDbEntity
8
1
62
256
6
ByLayer
370
18
48
1
60
0
100
AcDbSpline
70
4
71
3
72
42
73
38
40
0
40
0
40
0
40
0
40
0.125000000000003
40
0.125000000000003
40
0.250000000000006
40
0.250000000000006
40
0.375000000000009
40
0.375000000000009
40
0.500000000000012
40
0.500000000000012
40
0.562500000000014
40
0.562500000000014
40
0.625000000000015
40
0.625000000000015
40
0.687500000000017
40
0.687500000000017
40
0.750000000000018
40
0.750000000000018
40
0.81250000000002
40
0.81250000000002
40
0.843750000000018
40
0.843750000000018
40
0.85937500000002
40
0.85937500000002
40
0.867187500000018
40
0.867187500000018
40
0.875000000000016
40
0.875000000000016
40
0.878906250000016
40
0.878906250000016
40
0.882812500000015
40
0.890625000000014
40
0.890625000000014
40
0.906250000000012
40
0.937500000000008
40
0.937500000000008
40
1
40
1
40
1
40
1
41
1
10
57.1434376565509
20
1.53191837373078
30
0
41
1
10
57.3261270108877
20
1.37542741204769
30
0
41
1
10
57.5134875379461
20
1.22932940715083
30
0
41
1
10
57.8976109051164
20
0.958052733693023
30
0
41
1
10
58.0945808345073
20
0.832744269710133
30
0
41
1
10
58.4981868021382
20
0.606049665050961
30
0
41
1
10
58.7013975499682
20
0.506390058606854
30
0
41
1
10
59.1106661134973
20
0.334752899488052
30
0
41
1
10
59.3167193218922
20
0.262730549975004
30
0
41
1
10
59.6281841199686
20
0.17788625036107
30
0
41
1
10
59.7324055895891
20
0.153492757519473
30
0
41
1
10
59.9417420305751
20
0.113393293346036
30
0
41
1
10
60.0464754723486
20
0.097850814948373
30
0
41
1
10
60.2541413942664
20
0.0766577778474584
30
0
41
1
10
60.3573561832217
20
0.0709060431626654
30
0
41
1
10
60.5624535634155
20
0.0698433733900288
30
0
41
1
10
60.6645454268825
20
0.0745516800048449
30
0
41
1
10
60.8661786541983
20
0.0954513721954697
30
0
41
1
10
60.9656912593065
20
0.111631495313446
30
0
41
1
10
61.112059724459
20
0.145210014779337
30
0
41
1
10
61.1603849588153
20
0.15795981827975
30
0
41
1
10
61.2320082029857
20
0.179498116446638
30
0
41
1
10
61.2557401555185
20
0.187080214285885
30
0
41
1
10
61.2911055299555
20
0.199066466383357
30
0
41
1
10
61.303145139594
20
0.20264867159932
30
0
41
1
10
61.3239348652215
20
0.216726357951075
30
0
41
1
10
61.3324806458204
20
0.227117131490218
30
0
41
1
10
61.338255238314
20
0.247976177919554
30
0
41
1
10
61.3390233543824
20
0.255489939334808
30
0
41
1
10
61.3405301705253
20
0.270412507021831
30
0
41
1
10
61.3427215632724
20
0.292822349265634
30
0
41
1
10
61.3447089060909
20
0.31530942333481
30
0
41
1
10
61.3484177505665
20
0.360383738613564
30
0
41
1
10
61.3547639599233
20
0.450842842052396
30
0
41
1
10
61.3580628528689
20
0.542184938607875
30
0
41
1
10
61.3609732068549
20
0.725937605271042
30
0
41
1
10
61.3579922373056
20
0.849560732291934
30
0
41
1
10
61.3510429067153
20
0.973142095124445
30
0
0
SPLINE
5
CB
100
AcDbEntity
8
1
62
256
6
ByLayer
370
18
48
1
60
0
100
AcDbSpline
70
4
71
3
72
10
73
6
40
0
40
0
40
0
40
0
40
0.5
40
0.5
40
1
40
1
40
1
40
1
41
1
10
61.4865634709921
20
1.06916710982659
30
0
41
1
10
61.729814261724
20
1.06032306428662
30
0
41
1
10
61.9729808009815
20
1.0524004873202
30
0
41
1
10
62.459289472368
20
1.03682227710652
30
0
41
1
10
62.7024538924069
20
1.0289228782915
30
0
41
1
10
62.9455724762707
20
1.02152479527248
30
0
0
SPLINE
5
CC
100
AcDbEntity
8
1
62
256
6
ByLayer
370
13
48
1
60
0
100
AcDbSpline
70
4
71
3
72
14
73
10
40
0
40
0
40
0
40
0
40
0.22099473545427
40
0.22099473545427
40
0.441989470908539
40
0.441989470908539
40
0.883978941817075
40
0.883978941817075
40
1
40
1
40
1
40
1
41
1
10
4.20502662540372
20
-4.21897584216941
30
0
41
1
10
4.506150495751
20
-4.26052751596308
30
0
41
1
10
4.80732908953112
20
-4.29426759340046
30
0
41
1
10
5.40687977866224
20
-4.34587016436143
30
0
41
1
10
5.70568446582595
20
-4.36379904278971
30
0
41
1
10
6.60014785189179
20
-4.39424779004801
30
0
41
1
10
7.19388103348189
20
-4.38349594869393
30
0
41
1
10
7.94348590825857
20
-4.33110223527694
30
0
41
1
10
8.09933983343979
20
-4.31809340406193
30
0
41
1
10
8.25523785584059
20
-4.30298592887891
30
0
0
SPLINE
5
CD
100
AcDbEntity
8
1
62
256
6
ByLayer
370
18
48
1
60
0
100
AcDbSpline
70
4
71
3
72
18
73
14
40
0
40
0
40
0
40
0
40
0.0285684589296495
40
0.0285684589296495
40
0.0878391209722598
40
0.0878391209722598
40
0.206380445057475
40
0.206380445057475
40
0.443463093227911
40
0.443463093227911
40
0.917628389568788
40
0.917628389568788
40
1
40
1
40
1
40
1
41
1
10
47.4027328249808
20
-0.0124817738485774
30
0
41
1
10
47.474947672566
20
-0.0492636836203246
30
0
41
1
10
47.5472214061064
20
-0.0860737292858857
30
0
41
1
10
47.7696384724136
20
-0.199306541107745
30
0
41
1
10
47.920170756536
20
-0.275881195319073
30
0
41
1
10
48.3704941418162
20
-0.504519362342933
30
0
41
1
10
48.6695009774209
20
-0.65574047511609
30
0
41
1
10
49.563857880303
20
-1.10396254434841
30
0
41
1
10
50.1566861636719
20
-1.39520233597941
30
0
41
1
10
51.9326247883831
20
-2.23222418481524
30
0
41
1
10
53.1124643132699
20
-2.74248376615168
30
0
41
1
10
54.5168707845597
20
-3.24161861553128
30
0
41
1
10
54.7256382659542
20
-3.31306995737691
30
0
41
1
10
54.9343233227629
20
-3.38156065428231
30
0
0
SPLINE
5
CE
100
AcDbEntity
8
1
62
256
6
ByLayer
370
13
48
1
60
0
100
AcDbSpline
70
4
71
3
72
14
73
10
40
0
40
0
40
0
40
0
40
0.0417683912574081
40
0.0417683912574081
40
0.178658621077777
40
0.178658621077777
40
0.452439080718517
40
0.452439080718517
40
1
40
1
40
1
40
1
41
1
10
54.934323323322
20
-3.38156065446589
30
0
41
1
10
55.025957791724
20
-3.41163520171381
30
0
41
1
10
55.1175763676413
20
-3.44113889981946
30
0
41
1
10
55.5090368700002
20
-3.56470101206836
30
0
41
1
10
55.8078425455248
20
-3.65277752536809
30
0
41
1
10
56.7017802044387
20
-3.8964245277096
30
0
41
1
10
57.2943985094365
20
-4.0314817400014
30
0
41
1
10
59.0700399556466
20
-4.34912704891286
30
0
41
1
10
60.2512471351757
20
-4.44443639990141
30
0
41
1
10
61.4491704391623
20
-4.41168686682781
30
0
0
SPLINE
5
CF
100
AcDbEntity
8
1
62
256
6
ByLayer
370
18
48
1
60
0
100
AcDbSpline
70
4
71
3
72
8
73
4
40
0
40
0
40
0
40
0
40
1
40
1
40
1
40
1
41
1
10
4.00280206498442
20
-4.27709543707311
30
0
41
1
10
4.00165000078286
20
-4.27467023972685
30
0
41
1
10
4.00106338690199
20
-4.27219263835556
30
0
41
1
10
4.00106358841899
20
-4.26970321062595
30
0
0
SPLINE
5
D0
100
AcDbEntity
8
1
62
256
6
ByLayer
370
18
48
1
60
0
100
AcDbSpline
70
4
71
3
72
10
73
6
40
0
40
0
40
0
40
0
40
0.5
40
0.5
40
1
40
1
40
1
40
1
41
1
10
61.6301749646962
20
-4.42323280485698
30
0
41
1
10
61.5873718275308
20
-4.45509039001743
30
0
41
1
10
61.5464649544232
20
-4.48110431614711
30
0
41
1
10
61.4684288410454
20
-4.52072974404678
30
0
41
1
10
61.4313256901567
20
-4.53424099884847
30
0
41
1
10
61.3969141434463
20
-4.54104205381725
30
0
0
SPLINE
5
D1
100
AcDbEntity
8
1
62
256
6
ByLayer
370
18
48
1
60
0
100
AcDbSpline
70
4
71
3
72
8
73
4
40
0
40
0
40
0
40
0
40
1
40
1
40
1
40
1
41
1
10
62.945572476264
20
-1.02152479527271
30
0
41
1
10
62.96568619268
20
-0.719989619507942
30
0
41
1
10
62.9803412273949
20
-0.418732479765197
30
0
41
1
10
62.9895292000759
20
-0.117753802893759
30
0
0
SPLINE
5
D2
100
AcDbEntity
8
1
62
256
6
ByLayer
370
18
48
1
60
0
100
AcDbSpline
70
4
71
3
72
10
73
6
40
0
40
0
40
0
40
0
40
0.5
40
0.5
40
1
40
1
40
1
40
1
41
1
10
62.9999638560925
20
0.0417736298167029
30
0
41
1
10
62.9962290392073
20
0.026431706268653
30
0
41
1
10
62.9911257472327
20
0.0099837442670605
30
0
41
1
10
62.9788199465157
20
-0.0212422045134133
30
0
41
1
10
62.9715795853074
20
-0.0360460201521278
30
0
41
1
10
62.9642439165293
20
-0.0480527849678083
30
0
0
SPLINE
5
D3
100
AcDbEntity
8
1
62
256
6
ByLayer
370
18
48
1
60
0
100
AcDbSpline
70
4
71
3
72
8
73
4
40
0
40
0
40
0
40
0
40
1
40
1
40
1
40
1
41
1
10
62.945572476264
20
1.02152479527291
30
0
41
1
10
62.9656903604475
20
0.719927138339955
30
0
41
1
10
62.9803431314212
20
0.418670107865211
30
0
41
1
10
62.9895292000759
20
0.117753802893731
30
0
0
SPLINE
5
D4
100
AcDbEntity
8
1
62
256
6
ByLayer
370
18
48
1
60
0
100
AcDbSpline
70
4
71
3
72
16
73
12
40
0
40
0
40
0
40
0
40
0.269747249505701
40
0.269747249505701
40
0.519745124088312
40
0.519745124088312
40
0.64474406137962
40
0.64474406137962
40
0.769742998670928
40
0.769742998670928
40
1
40
1
40
1
40
1
41
1
10
20.1750990660146
20
0.0015489214110289
30
0
41
1
10
20.8159250458806
20
-0.32358915654558
30
0
41
1
10
21.4555821846727
20
-0.64827057764856
30
0
41
1
10
22.6920727224591
20
-1.26037150002961
30
0
41
1
10
23.2884618198849
20
-1.54907419813492
30
0
41
1
10
24.1896470459195
20
-1.96527126131806
30
0
41
1
10
24.490771865385
20
-2.10109288500217
30
0
41
1
10
25.0896709664219
20
-2.363165787383
30
0
41
1
10
25.3881825447734
20
-2.48981036213465
30
0
41
1
10
26.2348171490802
20
-2.83596379451566
30
0
41
1
10
26.7815308859662
20
-3.0437037402024
30
0
41
1
10
27.3281871249842
20
-3.23215106327689
30
0
0
SPLINE
5
D5
100
AcDbEntity
8
1
62
256
6
ByLayer
370
13
48
1
60
0
100
AcDbSpline
70
4
71
3
72
18
73
14
40
0
40
0
40
0
40
0
40
0.237789909366466
40
0.237789909366466
40
0.347983517832203
40
0.347983517832203
40
0.458177126297941
40
0.458177126297941
40
0.678564343229416
40
0.678564343229416
40
0.898951560160892
40
0.898951560160892
40
1
40
1
40
1
40
1
41
1
10
27.328187124835
20
-3.23215106322544
30
0
41
1
10
27.9685775084927
20
-3.45291110383522
30
0
41
1
10
28.6088889856599
20
-3.64719515164074
30
0
41
1
10
29.5504445480962
20
-3.88647266459597
30
0
41
1
10
29.8492524633006
20
-3.95564367335942
30
0
41
1
10
30.4488490365279
20
-4.07998100267005
30
0
41
1
10
30.7500759742926
20
-4.13519926704805
30
0
41
1
10
31.6519280501435
20
-4.27772381521979
30
0
41
1
10
32.2521324259848
20
-4.34231213887236
30
0
41
1
10
33.455754047262
20
-4.40828037683835
30
0
41
1
10
34.0560542078094
20
-4.40943878119469
30
0
41
1
10
34.9334357076649
20
-4.36480266202778
30
0
41
1
10
35.2090197728682
20
-4.34408545280209
30
0
41
1
10
35.4835602992833
20
-4.31694097684036
30
0
0
SPLINE
5
D6
100
AcDbEntity
8
1
62
256
6
ByLayer
370
18
48
1
60
0
100
AcDbSpline
70
4
71
3
72
8
73
4
40
0
40
0
40
0
40
0
40
1
40
1
40
1
40
1
41
1
10
62.999963856088
20
0.0417736298004741
30
0
41
1
10
63.0000120506643
20
0.0139229862429886
30
0
41
1
10
63.0000120446372
20
-0.0139264691870267
30
0
41
1
10
62.999963856088
20
-0.0417736298026057
30
0
0
SPLINE
5
D7
100
AcDbEntity
8
1
62
256
6
ByLayer
370
18
48
1
60
0
100
AcDbSpline
70
4
71
3
72
14
73
10
40
0
40
0
40
0
40
0
40
0.25
40
0.25
40
0.5
40
0.5
40
0.75
40
0.75
40
1
40
1
40
1
40
1
41
1
10
61.4585697254607
20
-4.3171448397479
30
0
41
1
10
61.461914334081
20
-4.31673107034794
30
0
41
1
10
61.4646133729894
20
-4.3180086655704
30
0
41
1
10
61.4683131226199
20
-4.3249908793575
30
0
41
1
10
61.4692602295888
20
-4.33077952121985
30
0
41
1
10
61.4682541454558
20
-4.34784332230763
30
0
41
1
10
61.4662282597253
20
-4.35912719893344
30
0
41
1
10
61.4593134415391
20
-4.38454706625657
30
0
41
1
10
61.4544881160207
20
-4.39848596541998
30
0
41
1
10
61.4491704391921
20
-4.41168686682698
30
0
0
SPLINE
5
D8
100
AcDbEntity
8
1
62
256
6
ByLayer
370
13
48
1
60
0
100
AcDbSpline
70
4
71
3
72
30
73
26
40
0
40
0
40
0
40
0
40
0.125
40
0.125
40
0.1875
40
0.1875
40
0.25
40
0.3125
40
0.3125
40
0.375
40
0.375
40
0.5
40
0.5
40
0.5625
40
0.5625
40
0.625
40
0.625
40
0.6875
40
0.6875
40
0.75
40
0.8125
40
0.8125
40
0.875
40
0.875
40
1
40
1
40
1
40
1
41
1
10
4.25032518105041
20
-4.09915471725117
30
0
41
1
10
4.25040057705101
20
-4.016766983021
30
0
41
1
10
4.25046907123908
20
-3.90849315673418
30
0
41
1
10
4.25056484113767
20
-3.70758432564492
30
0
41
1
10
4.25059553740758
20
-3.63417829301892
30
0
41
1
10
4.25065405818248
20
-3.47723020599216
30
0
41
1
10
4.25071000844252
20
-3.30954866002671
30
0
41
1
10
4.25076199984801
20
-3.12070876978026
30
0
41
1
10
4.25081251733107
20
-2.92113473240428
30
0
41
1
10
4.25083716940574
20
-2.81535577214373
30
0
41
1
10
4.25090847833198
20
-2.48637630140104
30
0
41
1
10
4.25095246417584
20
-2.25254929101635
30
0
41
1
10
4.2510154505953
20
-1.8805765414148
30
0
41
1
10
4.25103593052668
20
-1.75302135721714
30
0
41
1
10
4.25107606314708
20
-1.49055366025169
30
0
41
1
10
4.25109558115358
20
-1.35649081809763
30
0
41
1
10
4.25113331663866
20
-1.08502770332365
30
0
41
1
10
4.2511516426714
20
-0.946838525735018
30
0
41
1
10
4.25118682900313
20
-0.668482504017788
30
0
41
1
10
4.25122042398777
20
-0.389235195116328
30
0
41
1
10
4.25125070563121
20
-0.108245769630543
30
0
41
1
10
4.25127910919548
20
0.173620326321696
30
0
41
1
10
4.25129243280514
20
0.315719673973518
30
0
41
1
10
4.25132853614292
20
0.737791671058574
30
0
41
1
10
4.25134739606551
20
1.01159648493865
30
0
41
1
10
4.25135955695902
20
1.27812190872447
30
0
0
SPLINE
5
D9
100
AcDbEntity
8
1
62
256
6
ByLayer
370
18
48
1
60
0
100
AcDbSpline
70
4
71
3
72
8
73
4
40
0
40
0
40
0
40
0
40
1
40
1
40
1
40
1
41
1
10
61.4491704391869
20
-4.41168686683989
30
0
41
1
10
61.4317794633507
20
-4.45485920784179
30
0
41
1
10
61.4143595151052
20
-4.49797889469957
30
0
41
1
10
61.3969141434463
20
-4.54104205381725
30
0
0
SPLINE
5
DA
100
AcDbEntity
8
1
62
256
6
ByLayer
370
13
48
1
60
0
100
AcDbSpline
70
4
71
3
72
8
73
4
40
0
40
0
40
0
40
0
40
1
40
1
40
1
40
1
41
1
10
4.1367285253576
20
-4.22514809586929
30
0
41
1
10
4.15825549771637
20
-4.21771817152114
30
0
41
1
10
4.18139618178589
20
-4.21571510935647
30
0
41
1
10
4.20502662540372
20
-4.21897584216941
30
0
0
SPLINE
5
DB
100
AcDbEntity
8
1
62
256
6
ByLayer
370
18
48
1
60
0
100
AcDbSpline
70
4
71
3
72
14
73
10
40
0
40
0
40
0
40
0
40
0.25
40
0.25
40
0.5
40
0.5
40
0.75
40
0.75
40
1
40
1
40
1
40
1
41
1
10
61.6301749646894
20
4.42323280487904
30
0
41
1
10
61.7315896757547
20
4.13750990772559
30
0
41
1
10
61.8354861095519
20
3.85224209064069
30
0
41
1
10
62.0475447620559
20
3.28261237133697
30
0
41
1
10
62.1557015146537
20
2.9982484396628
30
0
41
1
10
62.3757906213773
20
2.43041595157175
30
0
41
1
10
62.4878244084442
20
2.1467996343527
30
0
41
1
10
62.7145645427895
20
1.58245615664507
30
0
41
1
10
62.8293849148307
20
1.30147820692119
30
0
41
1
10
62.9455724762651
20
1.02152479527015
30
0
0
SPLINE
5
DC
100
AcDbEntity
8
1
62
256
6
ByLayer
370
18
48
1
60
0
100
AcDbSpline
70
4
71
3
72
28
73
24
40
0
40
0
40
0
40
0
40
0.062499999999999
40
0.062499999999999
40
0.124999999999998
40
0.124999999999998
40
0.187499999999997
40
0.187499999999997
40
0.249999999999996
40
0.249999999999996
40
0.374999999999994
40
0.374999999999994
40
0.437499999999994
40
0.437499999999994
40
0.499999999999995
40
0.499999999999995
40
0.624999999999996
40
0.624999999999996
40
0.749999999999997
40
0.749999999999997
40
0.874999999999999
40
0.874999999999999
40
1
40
1
40
1
40
1
41
1
10
57.1434376565509
20
1.53191837373061
30
0
41
1
10
57.1367233517689
20
1.39528114541022
30
0
41
1
10
57.1400924982037
20
1.25629904401339
30
0
41
1
10
57.1670628523099
20
0.973629942603708
30
0
41
1
10
57.1910283989388
20
0.829119004945142
30
0
41
1
10
57.256618058944
20
0.546344831204181
30
0
41
1
10
57.2982545751261
20
0.406783953796293
30
0
41
1
10
57.3974032924174
20
0.130941248411546
30
0
41
1
10
57.4554191208662
20
-0.0062684358678951
30
0
41
1
10
57.6468642235848
20
-0.404166209268709
30
0
41
1
10
57.797300267718
20
-0.652687440240896
30
0
41
1
10
58.0484502071271
20
-1.0067504357404
30
0
41
1
10
58.1369339155739
20
-1.12206024704844
30
0
41
1
10
58.3190069334764
20
-1.34333286997383
30
0
41
1
10
58.4127481051006
20
-1.44954743428494
30
0
41
1
10
58.7009307964544
20
-1.75681384195278
30
0
41
1
10
58.9021977144879
20
-1.94670710874908
30
0
41
1
10
59.3192401747039
20
-2.30277406054623
30
0
41
1
10
59.5361161538427
20
-2.46946933291329
30
0
41
1
10
59.9752140405481
20
-2.77700627946038
30
0
41
1
10
60.1979300065335
20
-2.91840251748485
30
0
41
1
10
60.648786654677
20
-3.18000289217193
30
0
41
1
10
60.8769256434727
20
-3.30021364409396
30
0
41
1
10
61.107573488886
20
-3.41062334061547
30
0
0
SPLINE
5
DD
100
AcDbEntity
8
1
62
256
6
ByLayer
370
18
48
1
60
0
100
AcDbSpline
70
4
71
3
72
10
73
6
40
0
40
0
40
0
40
0
40
0.5
40
0.5
40
1
40
1
40
1
40
1
41
1
10
61.6301749646957
20
4.42323280485732
30
0
41
1
10
61.5873718275304
20
4.45509039001766
30
0
41
1
10
61.5464649544229
20
4.48110431614725
30
0
41
1
10
61.4684288410452
20
4.52072974404683
30
0
41
1
10
61.4313256901566
20
4.53424099884847
30
0
41
1
10
61.3969141434463
20
4.54104205381725
30
0
0
SPLINE
5
DE
100
AcDbEntity
8
1
62
256
6
ByLayer
370
18
48
1
60
0
100
AcDbSpline
70
4
71
3
72
88
73
84
40
0
40
0
40
0
40
0
40
0.0046332751370363
40
0.0046332751370363
40
0.0275689202192023
40
0.0275689202192023
40
0.0505045653013683
40
0.0505045653013683
40
0.0963758554657004
40
0.0963758554657004
40
0.119311500547866
40
0.119311500547866
40
0.142247145630032
40
0.142247145630032
40
0.165182790712198
40
0.165182790712198
40
0.188118435794364
40
0.188118435794364
40
0.21105408087653
40
0.21105408087653
40
0.233989725958697
40
0.233989725958697
40
0.256925371040863
40
0.256925371040863
40
0.279861016123029
40
0.279861016123029
40
0.32573230628736
40
0.32573230628736
40
0.348667951369525
40
0.348667951369525
40
0.371603596451691
40
0.371603596451691
40
0.394539241533856
40
0.394539241533856
40
0.417474886616022
40
0.417474886616022
40
0.440410531698187
40
0.440410531698187
40
0.463346176780353
40
0.463346176780353
40
0.486281821862518
40
0.486281821862518
40
0.509217466944684
40
0.509217466944684
40
0.555088757109015
40
0.555088757109015
40
0.57802440219118
40
0.57802440219118
40
0.600960047273346
40
0.600960047273346
40
0.623895692355512
40
0.623895692355512
40
0.646831337437677
40
0.646831337437677
40
0.669766982519843
40
0.669766982519843
40
0.692702627602009
40
0.692702627602009
40
0.715638272684174
40
0.715638272684174
40
0.73857391776634
40
0.73857391776634
40
0.784445207930671
40
0.784445207930671
40
0.807380853012837
40
0.807380853012837
40
0.830316498095002
40
0.830316498095002
40
0.853252143177168
40
0.853252143177168
40
0.876187788259333
40
0.876187788259333
40
0.899123433341499
40
0.899123433341499
40
0.922059078423665
40
0.922059078423665
40
0.94499472350583
40
0.94499472350583
40
0.967930368587996
40
0.967930368587996
40
0.990866013670162
40
0.990866013670162
40
1
40
1
40
1
40
1
41
1
10
25.714367766395
20
3.23741879138876
30
0
41
1
10
25.7666988670802
20
3.25659545387617
30
0
41
1
10
25.8190226201301
20
3.27556388624853
30
0
41
1
10
26.1303756291898
20
3.38710981546896
30
0
41
1
10
26.3891587984609
20
3.47497278746144
30
0
41
1
10
26.9057937551215
20
3.64153965292917
30
0
41
1
10
27.1634134484128
20
3.72048514971914
30
0
41
1
10
27.9359183917958
20
3.94208395261353
30
0
41
1
10
28.4525035337359
20
4.06772485415794
30
0
41
1
10
29.2271067790488
20
4.22544345044176
30
0
41
1
10
29.4853228684586
20
4.27271202918266
30
0
41
1
10
30.0040492425632
20
4.35506709930169
30
0
41
1
10
30.2642387517297
20
4.39042050657639
30
0
41
1
10
30.7858509143009
20
4.44955676088085
30
0
41
1
10
31.0472745725997
20
4.47340443280598
30
0
41
1
10
31.5688116208404
20
4.50849683560995
30
0
41
1
10
31.8297007065633
20
4.51976637218183
30
0
41
1
10
32.3513096614482
20
4.53012852244825
30
0
41
1
10
32.6120491073802
20
4.52922562622521
30
0
41
1
10
33.1327662449561
20
4.51499965185585
30
0
41
1
10
33.3930651930378
20
4.50163691482769
30
0
41
1
10
33.9154064548706
20
4.46287850723337
30
0
41
1
10
34.1774440329457
20
4.43741033405442
30
0
41
1
10
34.6987859461491
20
4.37459357797158
30
0
41
1
10
34.9581246159019
20
4.33700238789498
30
0
41
1
10
35.7352179586966
20
4.2074369693072
30
0
41
1
10
36.2527737649575
20
4.09967475125404
30
0
41
1
10
37.025526832912
20
3.90406699205965
30
0
41
1
10
37.2829583964907
20
3.83350955779315
30
0
41
1
10
37.7989073692325
20
3.68328657842582
30
0
41
1
10
38.0571641011114
20
3.60338034540644
30
0
41
1
10
38.5738487888718
20
3.43344749703755
30
0
41
1
10
38.8319260219125
20
3.34291811754491
30
0
41
1
10
39.349814197432
20
3.15349597999676
30
0
41
1
10
39.6097049920725
20
3.05478498195447
30
0
41
1
10
40.130925539892
20
2.84870551198031
30
0
41
1
10
40.3928536264391
20
2.74109195548246
30
0
41
1
10
40.9136682166754
20
2.51786411986885
30
0
41
1
10
41.1733207045545
20
2.40311058607432
30
0
41
1
10
41.6921919298969
20
2.16929604194655
30
0
41
1
10
41.9511895683867
20
2.04986332351729
30
0
41
1
10
42.467936969812
20
1.80531559383121
30
0
41
1
10
42.7253247681246
20
1.67952923056291
30
0
41
1
10
43.4982920008562
20
1.29844098028786
30
0
41
1
10
44.0144984467049
20
1.03926604143868
30
0
41
1
10
44.7875701251682
20
0.63783209266964
30
0
41
1
10
45.045694526339
20
0.503117322164343
30
0
41
1
10
45.5636124113698
20
0.233495674266663
30
0
41
1
10
45.8232088182661
20
0.0982073579391454
30
0
41
1
10
46.3433207652655
20
-0.17411097912111
30
0
41
1
10
46.6039873656008
20
-0.312103447349529
30
0
41
1
10
47.1258715692177
20
-0.584746089436891
30
0
41
1
10
47.3863102088803
20
-0.719256995649857
30
0
41
1
10
47.9057350430649
20
-0.985726067360901
30
0
41
1
10
48.1646819878334
20
-1.11775686787112
30
0
41
1
10
48.6808942826369
20
-1.37963981611162
30
0
41
1
10
48.9388346699716
20
-1.50820008021535
30
0
41
1
10
49.4548503053153
20
-1.75984706271021
30
0
41
1
10
49.7127777181128
20
-1.88321409953798
30
0
41
1
10
50.2280823831913
20
-2.12570245345265
30
0
41
1
10
50.4851455794028
20
-2.24533442075986
30
0
41
1
10
51.2586301949807
20
-2.59238693315535
30
0
41
1
10
51.7764552771972
20
-2.80972652972127
30
0
41
1
10
52.5545520940422
20
-3.11716468288111
30
0
41
1
10
52.8149091426362
20
-3.21535033258724
30
0
41
1
10
53.3378657034408
20
-3.40278012689819
30
0
41
1
10
53.5985902431879
20
-3.49157361767789
30
0
41
1
10
54.1179805807617
20
-3.65988470362211
30
0
41
1
10
54.3764197881752
20
-3.73963835173987
30
0
41
1
10
54.8935017083612
20
-3.88733812486768
30
0
41
1
10
55.1519136393886
20
-3.95562258318344
30
0
41
1
10
55.6679995840689
20
-4.08172867411039
30
0
41
1
10
55.9255663414967
20
-4.13962636321483
30
0
41
1
10
56.4400531235751
20
-4.24463111073433
30
0
41
1
10
56.6976478479043
20
-4.29123928423377
30
0
41
1
10
57.213560243629
20
-4.37289296329214
30
0
41
1
10
57.4717982162019
20
-4.40799779289389
30
0
41
1
10
57.9884189177157
20
-4.46677232841986
30
0
41
1
10
58.2466044152333
20
-4.49043923655617
30
0
41
1
10
58.7654123694972
20
-4.52529328591652
30
0
41
1
10
59.0257654240164
20
-4.53663986821184
30
0
41
1
10
59.3908069046408
20
-4.54397644578961
30
0
41
1
10
59.4947936406895
20
-4.54509018237908
30
0
41
1
10
59.598727610254
20
-4.54522171071926
30
0
0
SPLINE
5
DF
100
AcDbEntity
8
1
62
256
6
ByLayer
370
18
48
1
60
0
100
AcDbSpline
70
4
71
3
72
42
73
38
40
0
40
0
40
0
40
0
40
0.102364637944305
40
0.102364637944305
40
0.153546956916458
40
0.153546956916458
40
0.204729275888611
40
0.204729275888611
40
0.307093913832917
40
0.307093913832917
40
0.358276232805069
40
0.358276232805069
40
0.409458551777222
40
0.409458551777222
40
0.460640870749374
40
0.460640870749374
40
0.511823189721527
40
0.511823189721527
40
0.563005508693679
40
0.563005508693679
40
0.614187827665831
40
0.614187827665831
40
0.665370146637984
40
0.665370146637984
40
0.716552465610136
40
0.716552465610136
40
0.767734784582289
40
0.767734784582289
40
0.818917103554442
40
0.818917103554442
40
0.870099422526596
40
0.870099422526596
40
0.92128174149875
40
0.92128174149875
40
0.972464060470904
40
0.972464060470904
40
1
40
1
40
1
40
1
41
1
10
11.8732972883302
20
-2.73924258697218
30
0
41
1
10
12.3471520305849
20
-2.92001593908324
30
0
41
1
10
12.8188200408192
20
-3.08732869039738
30
0
41
1
10
13.5229546477066
20
-3.31649759920836
30
0
41
1
10
13.7570938813215
20
-3.38918733962555
30
0
41
1
10
14.2252243609726
20
-3.52672938883285
30
0
41
1
10
14.4592343388561
20
-3.59167756756591
30
0
41
1
10
15.1608312088239
20
-3.77452002597923
30
0
41
1
10
15.6274764776082
20
-3.87994346870133
30
0
41
1
10
16.3293773762109
20
-4.01298114387996
30
0
41
1
10
16.5636498693754
20
-4.05310248017139
30
0
41
1
10
17.0327200302264
20
-4.12411396685181
30
0
41
1
10
17.2675336577626
20
-4.15501707843518
30
0
41
1
10
17.7378702058126
20
-4.20842600835056
30
0
41
1
10
17.9735665756447
20
-4.23110376155074
30
0
41
1
10
18.446604273714
20
-4.2653834408197
30
0
41
1
10
18.6839440172537
20
-4.2773456626993
30
0
41
1
10
19.1572304154661
20
-4.29223091740096
30
0
41
1
10
19.3934935064034
20
-4.29528973285429
30
0
41
1
10
19.8659314603013
20
-4.29252043543863
30
0
41
1
10
20.1021526910011
20
-4.28566713866584
30
0
41
1
10
20.5747411385595
20
-4.26197839621295
30
0
41
1
10
20.8110916610692
20
-4.24539377727103
30
0
41
1
10
21.2839823753276
20
-4.2036621401702
30
0
41
1
10
21.5204843853249
20
-4.17882147772639
30
0
41
1
10
21.9944194835426
20
-4.11768430330386
30
0
41
1
10
22.2311129079071
20
-4.0819992941141
30
0
41
1
10
22.7041358837404
20
-4.00255108683248
30
0
41
1
10
22.9404529771583
20
-3.95879623219017
30
0
41
1
10
23.4127430619674
20
-3.86310211636319
30
0
41
1
10
23.6487182689428
20
-3.80994114987274
30
0
41
1
10
24.1213167085172
20
-3.69500590833462
30
0
41
1
10
24.3578465234643
20
-3.63362538038945
30
0
41
1
10
24.8312565597308
20
-3.50338635125868
30
0
41
1
10
25.0683437454646
20
-3.43471470791076
30
0
41
1
10
25.4320836599858
20
-3.32218983663267
30
0
41
1
10
25.5592631870702
20
-3.28165939692329
30
0
41
1
10
25.6864119925536
20
-3.24010185637897
30
0
0
SPLINE
5
E0
100
AcDbEntity
8
1
62
256
6
ByLayer
370
18
48
1
60
0
100
AcDbSpline
70
4
71
3
72
32
73
28
40
0
40
0
40
0
40
0
40
0.0378013051185224
40
0.0378013051185224
40
0.106529783324342
40
0.106529783324342
40
0.175258261530161
40
0.175258261530161
40
0.24398673973598
40
0.24398673973598
40
0.312715217941799
40
0.312715217941799
40
0.381443696147618
40
0.381443696147618
40
0.450172174353437
40
0.450172174353437
40
0.587629130765076
40
0.587629130765076
40
0.656357608970896
40
0.656357608970896
40
0.725086087176717
40
0.725086087176717
40
0.862543043588358
40
0.862543043588358
40
0.931271521794179
40
0.931271521794179
40
1
40
1
40
1
40
1
41
1
10
46.8478326710975
20
4.30873328635221
30
0
41
1
10
46.9777230573864
20
4.30737557964522
30
0
41
1
10
47.107700247414
20
4.30452892001904
30
0
41
1
10
47.4742586564451
20
4.29263234277011
30
0
41
1
10
47.7112534255483
20
4.28062540969398
30
0
41
1
10
48.1844041249651
20
4.24681136128453
30
0
41
1
10
48.4204218322894
20
4.22464643730436
30
0
41
1
10
48.8926066947788
20
4.17142977286369
30
0
41
1
10
49.1287453128742
20
4.14044689703644
30
0
41
1
10
49.6010182860966
20
4.07081237627989
30
0
41
1
10
49.837077539931
20
4.03135502384913
30
0
41
1
10
50.3091853255868
20
3.94164704733964
30
0
41
1
10
50.5453124847673
20
3.89169908404332
30
0
41
1
10
51.0186971806379
20
3.78341325819966
30
0
41
1
10
51.2555727287329
20
3.72500470686734
30
0
41
1
10
51.9647920053586
20
3.53798620241167
30
0
41
1
10
52.4363167510836
20
3.39755191611346
30
0
41
1
10
53.1450818880598
20
3.16775859239044
30
0
41
1
10
53.3814211727252
20
3.08744488707902
30
0
41
1
10
53.8543258877452
20
2.91873336910493
30
0
41
1
10
54.0911690826625
20
2.830228082399
30
0
41
1
10
54.8002007996494
20
2.55702986486537
30
0
41
1
10
55.2708834812001
20
2.36459768811216
30
0
41
1
10
55.9739984782069
20
2.06099360991402
30
0
41
1
10
56.2079048534684
20
1.95740613503338
30
0
41
1
10
56.6757951544259
20
1.74728866704669
30
0
41
1
10
56.9096786912204
20
1.64054127752914
30
0
41
1
10
57.1434376565509
20
1.5319183737308
30
0
0
SPLINE
5
E1
100
AcDbEntity
8
1
62
256
6
ByLayer
370
18
48
1
60
0
100
AcDbSpline
70
4
71
1
72
4
73
2
40
0
40
0
40
1
40
1
41
1
10
61.2003367603567
20
-4.31887854410328
30
0
41
1
10
61.4174649149145
20
-4.31857021555444
30
0
0
SPLINE
5
E2
100
AcDbEntity
8
1
62
256
6
ByLayer
370
18
48
1
60
0
100
AcDbSpline
70
4
71
3
72
28
73
24
40
0
40
0
40
0
40
0
40
0.0425475715249248
40
0.0891251919998415
40
0.131529430642327
40
0.165979776654745
40
0.206987313196956
40
0.260316940428682
40
0.311793570720687
40
0.353895265096772
40
0.403133634890707
40
0.462410399732147
40
0.509804700600805
40
0.55316099063002
40
0.607445942989314
40
0.659825752330117
40
0.699989583180458
40
0.746593414386111
40
0.803951390673235
40
0.851840210762134
40
0.89239585068801
40
0.94521953678415
40
1
40
1
40
1
40
1
41
1
10
19.5328530670765
20
4.29438370174705
30
0
41
1
10
19.3862299436973
20
4.29397263741171
30
0
41
1
10
19.0799969134057
20
4.29329665195573
30
0
41
1
10
18.6317858359334
20
4.2940106240986
30
0
41
1
10
18.2120985907831
20
4.29317392719904
30
0
41
1
10
17.8057452640456
20
4.29287067193292
30
0
41
1
10
17.369168909949
20
4.29261338293978
30
0
41
1
10
16.8663902273628
20
4.29249580405295
30
0
41
1
10
16.3622216617844
20
4.29179487485175
30
0
41
1
10
15.8715259889108
20
4.29109414342744
30
0
41
1
10
15.3541329022174
20
4.29125617048129
30
0
41
1
10
14.8189842041125
20
4.29098731590531
30
0
41
1
10
14.3033735843342
20
4.2902063392975
30
0
41
1
10
13.805888826665
20
4.29005912117938
30
0
41
1
10
13.290291841054
20
4.29017950336973
30
0
41
1
10
12.7859494352226
20
4.2895803144454
30
0
41
1
10
12.3079822128564
20
4.28902210388111
30
0
41
1
10
11.8127889522026
20
4.2889812343154
30
0
41
1
10
11.2917582192757
20
4.28865962646998
30
0
41
1
10
10.7904730152221
20
4.2879764479907
30
0
41
1
10
10.3061935430026
20
4.28782629141051
30
0
41
1
10
9.79696983712856
20
4.28782513311302
30
0
41
1
10
9.42738164971607
20
4.28743554042171
30
0
41
1
10
9.23919797572037
20
4.28723768522539
30
0
0
SPLINE
5
E3
100
AcDbEntity
8
1
62
256
6
ByLayer
370
18
48
1
60
0
100
AcDbSpline
70
4
71
3
72
34
73
30
40
0
40
0
40
0
40
0
40
0.0497401576607529
40
0.0900079706303029
40
0.12698644984507
40
0.162246066921005
40
0.201972368128566
40
0.244892890140494
40
0.280607475505664
40
0.314886968438005
40
0.360714295548994
40
0.402292866194269
40
0.4323657549518
40
0.46508328670236
40
0.501760496196842
40
0.539014728306061
40
0.569530102172116
40
0.60832218219249
40
0.658654555971529
40
0.700143352258779
40
0.739380898976084
40
0.787545546943075
40
0.831712858989493
40
0.870156863390772
40
0.890503005331509
40
0.911850279601285
40
0.939405806386323
40
0.977185789566044
40
1
40
1
40
1
40
1
41
1
10
33.9299894842568
20
-4.30191795379483
30
0
41
1
10
34.1349444892582
20
-4.30060421503384
30
0
41
1
10
34.5084326063456
20
-4.29926611202782
30
0
41
1
10
35.0497209574623
20
-4.30217737208295
30
0
41
1
10
35.5212677949714
20
-4.30312655113318
30
0
41
1
10
35.9999535932192
20
-4.30333877219397
30
0
41
1
10
36.5020156810067
20
-4.30350223455264
30
0
41
1
10
37.0065790785871
20
-4.30370176165746
30
0
41
1
10
37.4877932044033
20
-4.30432616257082
30
0
41
1
10
37.9814116890174
20
-4.30454194663102
30
0
41
1
10
38.5000365768562
20
-4.30422891025282
30
0
41
1
10
39.000696483627
20
-4.30511996821861
30
0
41
1
10
39.4455048992313
20
-4.30549976731308
30
0
41
1
10
39.8694340715942
20
-4.30545787054044
30
0
41
1
10
40.3239626561017
20
-4.30501623367826
30
0
41
1
10
40.7691092406589
20
-4.30606608911802
30
0
41
1
10
41.2232679345748
20
-4.30656846916582
30
0
41
1
10
41.7331682508773
20
-4.30619025724115
30
0
41
1
10
42.28983416371
20
-4.305957701138
30
0
41
1
10
42.8483980756735
20
-4.30771073454218
30
0
41
1
10
43.3977254565096
20
-4.30734723300017
30
0
41
1
10
43.9584691819763
20
-4.3064363428511
30
0
41
1
10
44.5158268700865
20
-4.30843643832654
30
0
41
1
10
44.9546300890404
20
-4.30829799329672
30
0
41
1
10
45.2961659284963
20
-4.30806737239189
30
0
41
1
10
45.591241446218
20
-4.30785702610393
30
0
41
1
10
45.9606853086223
20
-4.30855375997325
30
0
41
1
10
46.3363715110023
20
-4.3098339440283
30
0
41
1
10
46.5946138261603
20
-4.30964473948916
30
0
41
1
10
46.691843424093
20
-4.30949998351289
30
0
0
SPLINE
5
E4
100
AcDbEntity
8
1
62
256
6
ByLayer
370
18
48
1
60
0
100
AcDbSpline
70
4
71
3
72
27
73
23
40
0
40
0
40
0
40
0
40
0.0567547631763665
40
0.104117800207963
40
0.137083301432856
40
0.163314537525269
40
0.188148105228174
40
0.211625076538439
40
0.265041166428499
40
0.32159447084218
40
0.377427130544601
40
0.424314510667077
40
0.478300822156794
40
0.534863109791519
40
0.621562354642426
40
0.712919860335782
40
0.805406545631658
40
0.840752399963013
40
0.873793132357835
40
0.904044600987929
40
0.943284436537551
40
1
40
1
40
1
40
1
41
1
10
6.79365187705585
20
-4.2849857014067
30
0
41
1
10
7.03335072323193
20
-4.28519940493027
30
0
41
1
10
7.47308672832253
20
-4.285594476087
30
0
41
1
10
8.05199610074493
20
-4.28622415328093
30
0
41
1
10
8.50209125723291
20
-4.28658326244692
30
0
41
1
10
8.85671564636758
20
-4.28686458113475
30
0
41
1
10
9.1715569062726
20
-4.28714158981848
30
0
41
1
10
9.60120290324255
20
-4.28768166383159
30
0
41
1
10
10.1648282750556
20
-4.2877945916282
30
0
41
1
10
10.8651008657238
20
-4.28811072085821
30
0
41
1
10
11.5377929859468
20
-4.28903029615839
30
0
41
1
10
12.1996565389439
20
-4.28887432860992
30
0
41
1
10
12.8646020744397
20
-4.28979837951238
30
0
41
1
10
13.697685181585
20
-4.29008308146859
30
0
41
1
10
14.6886231504547
20
-4.29107611130354
30
0
41
1
10
15.8312811763169
20
-4.29080226278759
30
0
41
1
10
16.7570509613957
20
-4.2925449834851
30
0
41
1
10
17.4365096214194
20
-4.29254306140467
30
0
41
1
10
17.8531142898661
20
-4.29362534703588
30
0
41
1
10
18.2861669245767
20
-4.29441217723158
30
0
41
1
10
18.8192084293749
20
-4.29343947069256
30
0
41
1
10
19.2244823948985
20
-4.29386814988288
30
0
41
1
10
19.4640242126617
20
-4.29420454697762
30
0
0
SPLINE
5
E5
100
AcDbEntity
8
1
62
256
6
ByLayer
370
18
48
1
60
0
100
AcDbSpline
70
4
71
3
72
29
73
25
40
0
40
0
40
0
40
0
40
0.0411975920334991
40
0.0872250214659116
40
0.1248847198098
40
0.155271471996754
40
0.201270869640474
40
0.258634877639316
40
0.307041876536592
40
0.350418271734863
40
0.40762690449345
40
0.46497978713331
40
0.508313254244094
40
0.558916225067696
40
0.60610298538047
40
0.647587919589317
40
0.683245499137847
40
0.730785404831839
40
0.790932105400055
40
0.83602647571006
40
0.877309659893405
40
0.926734751646802
40
0.976466393619436
40
1
40
1
40
1
40
1
41
1
10
46.8564154914692
20
4.30857156632126
30
0
41
1
10
46.713354029012
20
4.30869720386659
30
0
41
1
10
46.4115327752335
20
4.30878786964885
30
0
41
1
10
45.9872892874255
20
4.30894210412038
30
0
41
1
10
45.5949244486113
20
4.30769387205351
30
0
41
1
10
45.2005798519386
20
4.30810500985561
30
0
41
1
10
44.7390682599055
20
4.30857342329958
30
0
41
1
10
44.2146257270543
20
4.30730052463545
30
0
41
1
10
43.6994481385158
20
4.30674796583119
30
0
41
1
10
43.1847573227527
20
4.30761904401422
30
0
41
1
10
42.6391765596787
20
4.30736043003981
30
0
41
1
10
42.0937419190188
20
4.3056655790048
30
0
41
1
10
41.5711254415895
20
4.30642910994553
30
0
41
1
10
41.0836262300513
20
4.30659439728095
30
0
41
1
10
40.6025137850309
20
4.30552696604971
30
0
41
1
10
40.1730271798044
20
4.30516339161531
30
0
41
1
10
39.742324801512
20
4.3054955171807
30
0
41
1
10
39.2471530004899
20
4.30551212236361
30
0
41
1
10
38.7193857421166
20
4.30440823646396
30
0
41
1
10
38.213229445731
20
4.30447155669427
30
0
41
1
10
37.7441102319283
20
4.30446379047876
30
0
41
1
10
37.2590202030175
20
4.304082227371
30
0
41
1
10
36.8350287906557
20
4.30358857988617
30
0
41
1
10
36.5822062776976
20
4.30348205700415
30
0
41
1
10
36.5009660442546
20
4.30345598329805
30
0
0
LINE
5
7B
100
AcDbEntity
8
SK1
62
256
6
ByLayer
370
18
48
1
60
0
100
AcDbLine
10
-40
20
3.66
30
0
11
-40
21
-3.66
31
0
39
0
210
0
220
0
230
1
0
LINE
5
7D
100
AcDbEntity
8
SK1
62
256
6
ByLayer
370
18
48
1
60
0
100
AcDbLine
10
-38.66
20
5
30
0
11
-38.66
21
-5
31
0
39
0
210
0
220
0
230
1
0
LINE
5
7E
100
AcDbEntity
8
SK1
62
256
6
ByLayer
370
18
48
1
60
0
100
AcDbLine
10
0
20
-5
30
0
11
0
21
5
31
0
39
0
210
0
220
0
230
1
0
LINE
5
7F
100
AcDbEntity
8
1
62
256
6
ByLayer
370
13
48
1
60
0
100
AcDbLine
10
1.154094
20
4.508702
30
0
11
1.154094
21
-4.508702
31
0
39
0
210
0
220
0
230
1
0
LINE
5
80
100
AcDbEntity
8
1
62
256
6
ByLayer
370
18
48
1
60
0
100
AcDbLine
10
0
20
-5
30
0
11
0
21
5
31
0
39
0
210
0
220
0
230
1
0
LINE
5
81
100
AcDbEntity
8
1
62
256
6
ByLayer
370
13
48
1
60
0
100
AcDbLine
10
0.576797
20
4.754351
30
0
11
0.576797
21
-4.754351
31
0
39
0
210
0
220
0
230
1
0
LINE
5
82
100
AcDbEntity
8
1
62
256
6
ByLayer
370
13
48
1
60
0
100
AcDbLine
10
61.486563
20
1.069167
30
0
11
62.989529
21
0.117754
31
0
39
0
210
0
220
0
230
1
0
LINE
5
83
100
AcDbEntity
8
1
62
256
6
ByLayer
370
13
48
1
60
0
100
AcDbLine
10
61.351043
20
0.973142
30
0
11
62.964244
21
-0.048053
31
0
39
0
210
0
220
0
230
1
0
LINE
5
84
100
AcDbEntity
8
80
62
256
6
ByLayer
370
18
48
1
60
0
100
AcDbLine
10
0
20
0
30
0
11
-5
21
0
31
0
39
0
210
0
220
0
230
1
0
LINE
5
85
100
AcDbEntity
8
4
62
256
6
ByLayer
370
18
48
0.05
60
0
100
AcDbLine
10
63
20
0
30
0
11
0
21
0
31
0
39
0
210
0
220
0
230
1
0
LINE
5
87
100
AcDbEntity
8
SK4
62
256
6
ByLayer
370
18
48
0.05
60
0
100
AcDbLine
10
68
20
0
30
0
11
-45
21
0
31
0
39
0
210
0
220
0
230
1
0
LINE
5
89
100
AcDbEntity
8
SK1
62
256
6
ByLayer
370
18
48
1
60
0
100
AcDbLine
10
-38.66
20
-5
30
0
11
0
21
-5
31
0
39
0
210
0
220
0
230
1
0
LINE
5
8A
100
AcDbEntity
8
SK1
62
256
6
ByLayer
370
18
48
1
60
0
100
AcDbLine
10
0
20
5
30
0
11
-38.66
21
5
31
0
39
0
210
0
220
0
230
1
0
LINE
5
8B
100
AcDbEntity
8
SK1
62
256
6
ByLayer
370
18
48
1
60
0
100
AcDbLine
10
-40
20
-3.66
30
0
11
-38.66
21
-5
31
0
39
0
210
0
220
0
230
1
0
LINE
5
8C
100
AcDbEntity
8
SK1
62
256
6
ByLayer
370
18
48
1
60
0
100
AcDbLine
10
-38.66
20
5
30
0
11
-40
21
3.66
31
0
39
0
210
0
220
0
230
1
0
LINE
5
8D
100
AcDbEntity
8
1
62
256
6
ByLayer
370
18
48
1
60
0
100
AcDbLine
10
1.154094
20
-4.508702
30
0
11
6.578156
21
-4.512092
31
0
39
0
210
0
220
0
230
1
0
LINE
5
8E
100
AcDbEntity
8
1
62
256
6
ByLayer
370
18
48
1
60
0
100
AcDbLine
10
32.411736
20
-4.528238
30
0
11
33.777592
21
-4.529092
31
0
39
0
210
0
220
0
230
1
0
LINE
5
8F
100
AcDbEntity
8
1
62
256
6
ByLayer
370
18
48
1
60
0
100
AcDbLine
10
59.608953
20
-4.545236
30
0
11
60.978756
21
-4.546093
31
0
39
0
210
0
220
0
230
1
0
LINE
5
90
100
AcDbEntity
8
1
62
256
6
ByLayer
370
18
48
1
60
0
100
AcDbLine
10
60.978611
20
4.546093
30
0
11
59.608953
21
4.545236
31
0
39
0
210
0
220
0
230
1
0
LINE
5
91
100
AcDbEntity
8
1
62
256
6
ByLayer
370
18
48
1
60
0
100
AcDbLine
10
33.777629
20
4.529092
30
0
11
32.411736
21
4.528238
31
0
39
0
210
0
220
0
230
1
0
LINE
5
92
100
AcDbEntity
8
1
62
256
6
ByLayer
370
18
48
1
60
0
100
AcDbLine
10
6.578081
20
4.512092
30
0
11
1.154094
21
4.508702
31
0
39
0
210
0
220
0
230
1
0
LINE
5
93
100
AcDbEntity
8
81
62
256
6
ByLayer
370
18
48
1
60
0
100
AcDbLine
10
63
20
0
30
0
11
68
21
0
31
0
39
0
210
0
220
0
230
1
0
LINE
5
94
100
AcDbEntity
8
SK2
62
256
6
ByLayer
370
13
48
1
60
0
100
AcDbLine
10
-48.625163
20
-5
30
0
11
-48.625163
21
35.857173
31
0
39
0
210
0
220
0
230
1
0
LINE
5
96
100
AcDbEntity
8
SK2
62
256
6
ByLayer
370
13
48
1
60
0
100
AcDbLine
10
-41.5875
20
5
30
0
11
-50.625163
21
5
31
0
39
0
210
0
220
0
230
1
0
LINE
5
97
100
AcDbEntity
8
SK2
62
256
6
ByLayer
370
13
48
1
60
0
100
AcDbLine
10
-41.5875
20
-5
30
0
11
-50.625163
21
-5
31
0
39
0
210
0
220
0
230
1
0
LINE
5
98
100
AcDbEntity
8
1
62
256
6
ByLayer
370
18
48
1
60
1
100
AcDbLine
10
-48.625163
20
5
30
0
11
-48.164379
21
1.500002
31
0
39
0
210
0
220
0
230
1
0
LINE
5
99
100
AcDbEntity
8
1
62
256
6
ByLayer
370
18
48
1
60
1
100
AcDbLine
10
-48.164379
20
1.500002
30
0
11
-49.085946
21
1.499998
31
0
39
0
210
0
220
0
230
1
0
LINE
5
9A
100
AcDbEntity
8
1
62
256
6
ByLayer
370
18
48
1
60
1
100
AcDbLine
10
-49.085946
20
1.499998
30
0
11
-48.625163
21
5
31
0
39
0
210
0
220
0
230
1
0
LINE
5
9B
100
AcDbEntity
8
1
62
256
6
ByLayer
370
18
48
1
60
1
100
AcDbLine
10
-48.625163
20
-5
30
0
11
-49.085946
21
-1.500002
31
0
39
0
210
0
220
0
230
1
0
LINE
5
9C
100
AcDbEntity
8
1
62
256
6
ByLayer
370
18
48
1
60
1
100
AcDbLine
10
-49.085946
20
-1.500002
30
0
11
-48.164379
21
-1.499998
31
0
39
0
210
0
220
0
230
1
0
LINE
5
9D
100
AcDbEntity
8
1
62
256
6
ByLayer
370
18
48
1
60
1
100
AcDbLine
10
-48.164379
20
-1.499998
30
0
11
-48.625163
21
-5
31
0
39
0
210
0
220
0
230
1
0
LINE
5
9E
100
AcDbEntity
8
2
62
256
6
ByLayer
370
13
48
1
60
0
100
AcDbLine
10
75.083343
20
-4.5465
30
0
11
75.083343
21
32.256693
31
0
39
0
210
0
220
0
230
1
0
LINE
5
A0
100
AcDbEntity
8
2
62
256
6
ByLayer
370
13
48
1
60
0
100
AcDbLine
10
63.2406
20
4.5465
30
0
11
77.083343
21
4.5465
31
0
39
0
210
0
220
0
230
1
0
LINE
5
A1
100
AcDbEntity
8
2
62
256
6
ByLayer
370
13
48
1
60
0
100
AcDbLine
10
63.2406
20
-4.5465
30
0
11
77.083343
21
-4.5465
31
0
39
0
210
0
220
0
230
1
0
LINE
5
A2
100
AcDbEntity
8
1
62
256
6
ByLayer
370
18
48
1
60
1
100
AcDbLine
10
75.083343
20
4.5465
30
0
11
75.544126
21
1.046502
31
0
39
0
210
0
220
0
230
1
0
LINE
5
A3
100
AcDbEntity
8
1
62
256
6
ByLayer
370
18
48
1
60
1
100
AcDbLine
10
75.544126
20
1.046502
30
0
11
74.622559
21
1.046498
31
0
39
0
210
0
220
0
230
1
0
LINE
5
A4
100
AcDbEntity
8
1
62
256
6
ByLayer
370
18
48
1
60
1
100
AcDbLine
10
74.622559
20
1.046498
30
0
11
75.083343
21
4.5465
31
0
39
0
210
0
220
0
230
1
0
LINE
5
A5
100
AcDbEntity
8
1
62
256
6
ByLayer
370
18
48
1
60
1
100
AcDbLine
10
75.083343
20
-4.5465
30
0
11
74.622559
21
-1.046502
31
0
39
0
210
0
220
0
230
1
0
LINE
5
A6
100
AcDbEntity
8
1
62
256
6
ByLayer
370
18
48
1
60
1
100
AcDbLine
10
74.622559
20
-1.046502
30
0
11
75.544126
21
-1.046498
31
0
39
0
210
0
220
0
230
1
0
LINE
5
A7
100
AcDbEntity
8
1
62
256
6
ByLayer
370
18
48
1
60
1
100
AcDbLine
10
75.544126
20
-1.046498
30
0
11
75.083343
21
-4.5465
31
0
39
0
210
0
220
0
230
1
0
LINE
5
EC
100
AcDbEntity
8
1
62
256
6
ByLayer
370
18
48
1
60
1
100
AcDbLine
10
-48.625163
20
5
30
0
11
-48.164379
21
1.500002
31
0
39
0
210
0
220
0
230
1
0
LINE
5
ED
100
AcDbEntity
8
1
62
256
6
ByLayer
370
18
48
1
60
1
100
AcDbLine
10
-48.164379
20
1.500002
30
0
11
-49.085946
21
1.499998
31
0
39
0
210
0
220
0
230
1
0
LINE
5
EE
100
AcDbEntity
8
1
62
256
6
ByLayer
370
18
48
1
60
1
100
AcDbLine
10
-49.085946
20
1.499998
30
0
11
-48.625163
21
5
31
0
39
0
210
0
220
0
230
1
0
LINE
5
F0
100
AcDbEntity
8
1
62
256
6
ByLayer
370
18
48
1
60
1
100
AcDbLine
10
-48.625163
20
-5
30
0
11
-49.085946
21
-1.500002
31
0
39
0
210
0
220
0
230
1
0
LINE
5
F1
100
AcDbEntity
8
1
62
256
6
ByLayer
370
18
48
1
60
1
100
AcDbLine
10
-49.085946
20
-1.500002
30
0
11
-48.164379
21
-1.499998
31
0
39
0
210
0
220
0
230
1
0
LINE
5
F2
100
AcDbEntity
8
1
62
256
6
ByLayer
370
18
48
1
60
1
100
AcDbLine
10
-48.164379
20
-1.499998
30
0
11
-48.625163
21
-5
31
0
39
0
210
0
220
0
230
1
0
LINE
5
F6
100
AcDbEntity
8
1
62
256
6
ByLayer
370
18
48
1
60
1
100
AcDbLine
10
75.083343
20
4.5465
30
0
11
75.544126
21
1.046502
31
0
39
0
210
0
220
0
230
1
0
LINE
5
F7
100
AcDbEntity
8
1
62
256
6
ByLayer
370
18
48
1
60
1
100
AcDbLine
10
75.544126
20
1.046502
30
0
11
74.622559
21
1.046498
31
0
39
0
210
0
220
0
230
1
0
LINE
5
F8
100
AcDbEntity
8
1
62
256
6
ByLayer
370
18
48
1
60
1
100
AcDbLine
10
74.622559
20
1.046498
30
0
11
75.083343
21
4.5465
31
0
39
0
210
0
220
0
230
1
0
LINE
5
FA
100
AcDbEntity
8
1
62
256
6
ByLayer
370
18
48
1
60
1
100
AcDbLine
10
75.083343
20
-4.5465
30
0
11
74.622559
21
-1.046502
31
0
39
0
210
0
220
0
230
1
0
LINE
5
FB
100
AcDbEntity
8
1
62
256
6
ByLayer
370
18
48
1
60
1
100
AcDbLine
10
74.622559
20
-1.046502
30
0
11
75.544126
21
-1.046498
31
0
39
0
210
0
220
0
230
1
0
LINE
5
FC
100
AcDbEntity
8
1
62
256
6
ByLayer
370
18
48
1
60
1
100
AcDbLine
10
75.544126
20
-1.046498
30
0
11
75.083343
21
-4.5465
31
0
39
0
210
0
220
0
230
1
0
MTEXT
5
E6
100
AcDbEntity
8
SK6
62
256
6
ByLayer
370
13
48
1
60
0
100
AcDbMText
10
-18.266893
20
37.086828
30
0
210
0
220
0
230
1
1
\W0.7823;462.1-0909-045A0-XM X2BM
40
3.5
41
0
44
1.084337
50
0
71
7
72
5
7
iso_b_vert
0
MTEXT
5
EA
100
AcDbEntity
8
SK2
62
256
6
ByLayer
370
18
48
1
60
0
100
AcDbMText
10
-50.189796
20
18.409024
30
0
210
0
220
0
230
1
1
%%c
40
3.5
41
0
44
1.084337
50
90
71
7
72
5
7
iso_b_vert
0
MTEXT
5
EB
100
AcDbEntity
8
SK2
62
256
6
ByLayer
370
18
48
1
60
0
100
AcDbMText
10
-50.189796
20
23.63168
30
0
210
0
220
0
230
1
1
\W0.6930;10,000
40
3.5
41
0
44
1.084337
50
90
71
7
72
5
7
iso_b_vert
0
MTEXT
5
F4
100
AcDbEntity
8
2
62
256
6
ByLayer
370
18
48
1
60
0
100
AcDbMText
10
73.518709
20
16.54861
30
0
210
0
220
0
230
1
1
%%c
40
3.5
41
0
44
1.084337
50
90
71
7
72
5
7
iso_b_vert
0
MTEXT
5
F5
100
AcDbEntity
8
2
62
256
6
ByLayer
370
18
48
1
60
0
100
AcDbMText
10
73.518709
20
21.771266
30
0
210
0
220
0
230
1
1
\W0.7317;9,093
40
3.5
41
0
44
1.084337
50
90
71
7
72
5
7
iso_b_vert
0
HATCH
5
EF
100
AcDbEntity
8
SK2
62
256
6
ByLayer
370
13
48
1
60
0
100
AcDbHatch
10
0
20
0
30
0
210
0
220
0
230
1
2
ANSI31
70
0
71
0
91
1
92
5
93
3
72
1
10
-48.6251625675374
20
5
11
-48.1643788259847
21
1.50000169255318
72
1
10
-48.1643788259847
20
1.50000169255318
11
-49.0859463090902
21
1.49999830744682
72
1
10
-49.0859463090902
20
1.49999830744682
11
-48.6251625675374
21
5
97
0
75
0
76
1
52
0
41
0.0062
77
0
78
1
53
45
43
0
44
0
45
-0.0139193969876572
46
0.0139193969876572
79
0
47
0
98
1
10
0
20
0
0
HATCH
5
F3
100
AcDbEntity
8
SK2
62
256
6
ByLayer
370
13
48
1
60
0
100
AcDbHatch
10
0
20
0
30
0
210
0
220
0
230
1
2
ANSI31
70
0
71
0
91
1
92
5
93
3
72
1
10
-48.6251625675374
20
-5
11
-49.0859463090902
21
-1.50000169255318
72
1
10
-49.0859463090902
20
-1.50000169255318
11
-48.1643788259847
21
-1.49999830744682
72
1
10
-48.1643788259847
20
-1.49999830744682
11
-48.6251625675374
21
-5
97
0
75
0
76
1
52
0
41
0.0062
77
0
78
1
53
45
43
0
44
0
45
-0.0139193969876572
46
0.0139193969876572
79
0
47
0
98
1
10
0
20
0
0
HATCH
5
F9
100
AcDbEntity
8
2
62
256
6
ByLayer
370
13
48
1
60
0
100
AcDbHatch
10
0
20
0
30
0
210
0
220
0
230
1
2
ANSI31
70
0
71
0
91
1
92
5
93
3
72
1
10
75.083342615295
20
4.54650000000001
11
75.5441263568477
21
1.04650169255319
72
1
10
75.5441263568477
20
1.04650169255319
11
74.6225588737422
21
1.04649830744683
72
1
10
74.6225588737422
20
1.04649830744683
11
75.083342615295
21
4.54650000000001
97
0
75
0
76
1
52
0
41
0.0062
77
0
78
1
53
45
43
0
44
0
45
-0.0139193969876572
46
0.0139193969876572
79
0
47
0
98
1
10
0
20
0
0
HATCH
5
FD
100
AcDbEntity
8
2
62
256
6
ByLayer
370
13
48
1
60
0
100
AcDbHatch
10
0
20
0
30
0
210
0
220
0
230
1
2
ANSI31
70
0
71
0
91
1
92
5
93
3
72
1
10
75.083342615295
20
-4.54649999999998
11
74.6225588737422
21
-1.04650169255316
72
1
10
74.6225588737422
20
-1.04650169255316
11
75.5441263568477
21
-1.0464983074468
72
1
10
75.5441263568477
20
-1.0464983074468
11
75.083342615295
21
-4.54649999999998
97
0
75
0
76
1
52
0
41
0.0062
77
0
78
1
53
45
43
0
44
0
45
-0.0139193969876572
46
0.0139193969876572
79
0
47
0
98
1
10
0
20
0
0
DIMENSION
5
FF
100
AcDbEntity
8
SK2
62
256
6
ByLayer
370
13
48
1
60
0
100
AcDbDimension
2
_U0
10
61.6531
20
-14.759898
30
0
11
30.82655
21
-14.759898
31
0
70
32
71
1
72
1
41
1
210
0
220
0
230
1
3
Standard
100
AcDbAlignedDimension
13
0
23
0
33
0
14
61.6531
24
-4.5465
34
0
50
0
100
AcDbRotatedDimension
1001
ACAD
1000
DSTYLE
1002
{
1070
   371
1070
    13
1070
   372
1070
    13
1070
   170
1070
     0
1070
   144
1040
1.0
1070
   277
1070
     2
1070
   278
1070
    44
1070
   146
1040
1.0
1070
   345
1005
16
1070
   347
1005
16
1070
   346
1005
16
1070
   344
1005
0
1070
   343
1005
0
1070
   172
1070
     1
1070
    76
1070
     0
1070
    75
1070
     0
1070
   282
1070
     0
1070
   281
1070
     0
1070
    71
1070
     0
1070
    74
1070
     0
1070
   279
1070
     0
1070
   173
1070
     1
1070
   340
1005
E7
1070
   271
1070
     2
1070
   272
1070
     2
1070
    77
1070
     1
1070
    73
1070
     1
1070
   171
1070
     3
1070
   274
1070
     4
1070
   177
1070
    35
1070
   176
1070
    35
1070
   178
1070
    35
1070
    48
1040
-0.1
1070
    41
1040
3.5
1070
   147
1040
1.75
1070
    42
1040
1.5875
1070
    44
1040
2.0
1070
   140
1040
3.5
1002
}
1001
ACAD_DSTYLE_DIM_LINETYPE
1070
   380
1005
16
1001
ACAD_DSTYLE_DIM_EXT1_LINETYPE
1070
   381
1005
16
1001
ACAD_DSTYLE_DIM_EXT2_LINETYPE
1070
   382
1005
16
0
DIMENSION
5
118
100
AcDbEntity
8
SK2
62
256
6
ByLayer
370
13
48
1
60
0
100
AcDbDimension
2
_U1
10
63
20
-33.692985
30
0
11
11.5
21
-33.692985
31
0
70
32
71
1
72
1
41
1
210
0
220
0
230
1
3
Standard
100
AcDbAlignedDimension
13
-40
23
-5
33
0
14
63
24
0
34
0
50
0
100
AcDbRotatedDimension
1001
ACAD
1000
DSTYLE
1002
{
1070
   371
1070
    13
1070
   372
1070
    13
1070
   170
1070
     0
1070
   144
1040
1.0
1070
   277
1070
     2
1070
   278
1070
    44
1070
   146
1040
1.0
1070
   345
1005
16
1070
   347
1005
16
1070
   346
1005
16
1070
   344
1005
0
1070
   343
1005
0
1070
   172
1070
     1
1070
    76
1070
     0
1070
    75
1070
     0
1070
   282
1070
     0
1070
   281
1070
     0
1070
    71
1070
     0
1070
    74
1070
     0
1070
   279
1070
     0
1070
   173
1070
     1
1070
   340
1005
E7
1070
   271
1070
     2
1070
   272
1070
     2
1070
    77
1070
     1
1070
    73
1070
     1
1070
   171
1070
     3
1070
   274
1070
     4
1070
   177
1070
    35
1070
   176
1070
    35
1070
   178
1070
    35
1070
    48
1040
-0.1
1070
    41
1040
3.5
1070
   147
1040
1.75
1070
    42
1040
1.5875
1070
    44
1040
2.0
1070
   140
1040
3.5
1002
}
1001
ACAD_DSTYLE_DIM_LINETYPE
1070
   380
1005
16
1001
ACAD_DSTYLE_DIM_EXT1_LINETYPE
1070
   381
1005
16
1001
ACAD_DSTYLE_DIM_EXT2_LINETYPE
1070
   382
1005
16
0
DIMENSION
5
130
100
AcDbEntity
8
SK2
62
256
6
ByLayer
370
13
48
1
60
0
100
AcDbDimension
2
_U2
10
63
20
16.155619
30
0
11
39.6
21
16.155619
31
0
70
32
71
1
72
1
41
1
210
0
220
0
230
1
3
Standard
100
AcDbAlignedDimension
13
16.2
23
4.5465
33
0
14
63
24
0
34
0
50
0
100
AcDbRotatedDimension
1001
ACAD
1000
DSTYLE
1002
{
1070
   371
1070
    13
1070
   372
1070
    13
1070
   170
1070
     0
1070
   144
1040
1.0
1070
   277
1070
     2
1070
   278
1070
    44
1070
   146
1040
1.0
1070
   345
1005
16
1070
   347
1005
16
1070
   346
1005
16
1070
   344
1005
0
1070
   343
1005
0
1070
   172
1070
     1
1070
    76
1070
     0
1070
    75
1070
     0
1070
   282
1070
     0
1070
   281
1070
     0
1070
    71
1070
     0
1070
    74
1070
     0
1070
   279
1070
     0
1070
   173
1070
     1
1070
   340
1005
E7
1070
   271
1070
     2
1070
   272
1070
     2
1070
    77
1070
     1
1070
    73
1070
     1
1070
   171
1070
     3
1070
   274
1070
     4
1070
   177
1070
    35
1070
   176
1070
    35
1070
   178
1070
    35
1070
    48
1040
-0.1
1070
    41
1040
3.5
1070
   147
1040
1.75
1070
    42
1040
1.5875
1070
    44
1040
2.0
1070
   140
1040
3.5
1002
}
1001
ACAD_DSTYLE_DIM_LINETYPE
1070
   380
1005
16
1001
ACAD_DSTYLE_DIM_EXT1_LINETYPE
1070
   381
1005
16
1001
ACAD_DSTYLE_DIM_EXT2_LINETYPE
1070
   382
1005
16
0
DIMENSION
5
148
100
AcDbEntity
8
SK2
62
256
6
ByLayer
370
13
48
1
60
0
100
AcDbDimension
2
_U3
10
61.6531
20
-17.349003
30
0
11
80.333333
21
-17.349003
31
0
70
32
71
1
72
1
41
1
210
0
220
0
230
1
3
Standard
100
AcDbAlignedDimension
13
63
23
0
33
0
14
61.6531
24
-4.5465
34
0
50
0
100
AcDbRotatedDimension
1001
ACAD
1000
DSTYLE
1002
{
1070
   371
1070
    13
1070
   372
1070
    13
1070
   170
1070
     0
1070
   144
1040
1.0
1070
   277
1070
     2
1070
   278
1070
    44
1070
   146
1040
1.0
1070
   345
1005
16
1070
   347
1005
16
1070
   346
1005
16
1070
   344
1005
0
1070
   343
1005
0
1070
   172
1070
     1
1070
    76
1070
     0
1070
    75
1070
     0
1070
   282
1070
     0
1070
   281
1070
     0
1070
    71
1070
     0
1070
    74
1070
     0
1070
   279
1070
     0
1070
   173
1070
     1
1070
   340
1005
E7
1070
   271
1070
     2
1070
   272
1070
     2
1070
    77
1070
     1
1070
    73
1070
     1
1070
   171
1070
     3
1070
   274
1070
     4
1070
   177
1070
    35
1070
   176
1070
    35
1070
   178
1070
    35
1070
    48
1040
-0.1
1070
    41
1040
3.5
1070
   147
1040
1.75
1070
    42
1040
1.5875
1070
    44
1040
2.0
1070
   140
1040
3.5
1002
}
1001
ACAD_DSTYLE_DIM_LINETYPE
1070
   380
1005
16
1001
ACAD_DSTYLE_DIM_EXT1_LINETYPE
1070
   381
1005
16
1001
ACAD_DSTYLE_DIM_EXT2_LINETYPE
1070
   382
1005
16
0
DIMENSION
5
162
100
AcDbEntity
8
SK2
62
256
6
ByLayer
370
13
48
1
60
0
100
AcDbDimension
2
_U4
10
61.6531
20
-23.343428
30
0
11
10.82655
21
-23.343428
31
0
70
32
71
1
72
1
41
1
210
0
220
0
230
1
3
Standard
100
AcDbAlignedDimension
13
-40
23
-5
33
0
14
61.6531
24
-4.5465
34
0
50
0
100
AcDbRotatedDimension
1001
ACAD
1000
DSTYLE
1002
{
1070
   371
1070
    13
1070
   372
1070
    13
1070
   170
1070
     0
1070
   144
1040
1.0
1070
   277
1070
     2
1070
   278
1070
    44
1070
   146
1040
1.0
1070
   345
1005
16
1070
   347
1005
16
1070
   346
1005
16
1070
   344
1005
0
1070
   343
1005
0
1070
   172
1070
     1
1070
    76
1070
     0
1070
    75
1070
     0
1070
   282
1070
     0
1070
   281
1070
     0
1070
    71
1070
     0
1070
    74
1070
     0
1070
   279
1070
     0
1070
   173
1070
     1
1070
   340
1005
E7
1070
   271
1070
     2
1070
   272
1070
     2
1070
    77
1070
     1
1070
    73
1070
     1
1070
   171
1070
     3
1070
   274
1070
     4
1070
   177
1070
    35
1070
   176
1070
    35
1070
   178
1070
    35
1070
    48
1040
-0.1
1070
    41
1040
3.5
1070
   147
1040
1.75
1070
    42
1040
1.5875
1070
    44
1040
2.0
1070
   140
1040
3.5
1002
}
1001
ACAD_DSTYLE_DIM_LINETYPE
1070
   380
1005
16
1001
ACAD_DSTYLE_DIM_EXT1_LINETYPE
1070
   381
1005
16
1001
ACAD_DSTYLE_DIM_EXT2_LINETYPE
1070
   382
1005
16
0
ENDSEC
0
SECTION
2
OBJECTS
0
DICTIONARY
5
1ea
330
0
100
AcDbDictionary
280
0
281
1
3
ACAD_GROUP
350
1eb
3
ACAD_MLINESTYLE
350
1ec
0
DICTIONARY
5
1eb
330
0
100
AcDbDictionary
280
0
281
1
0
DICTIONARY
5
1ec
330
0
100
AcDbDictionary
280
0
281
1
3
Standard
350
18
0
MLINESTYLE
5
18
330
1ec
100
AcDbMlineStyle
2
Standard
70
0
3

62
256
51
90
52
90
71
2
49
-0.5
62
256
6
ByLayer
49
0.5
62
256
6
ByLayer
0
RASTERVARIABLES
5
1d8
330

100
AcDbRasterVariables
90
0
70
1
71
1
72
1
0
ENDSEC
0
EOF
