0
SECTION
2
HEADER
9
$ACADVER
1
AC1015
9
$DWGCODEPAGE
3
ANSI_1252
9
$HANDSEED
5
1f7
9
$ANGBASE
50
0
9
$ANGDIR
70
0
9
$ATTMODE
70
1
9
$AUNITS
70
0
9
$AUPREC
70
0
9
$CECOLOR
62
256
9
$CELTSCALE
40
1
9
$CELTYPE
6
ByLayer
9
$CELWEIGHT
370
18
9
$CLAYER
8
0
9
$CMLJUST
70
0
9
$CMLSCALE
40
1
9
$CMLSTYLE
2
Standard
9
$DIMSTYLE
2
Standard
9
$TEXTSIZE
40
0.2
9
$TEXTSTYLE
7
Standard
9
$LUNITS
70
2
9
$LUPREC
70
4
9
$EXTNAMES
290
1
9
$INSUNITS
70
4
9
$LTSCALE
40
1
9
$LWDISPLAY
290
1
9
$PDMODE
70
0
9
$PDSIZE
40
0
9
$PLINEGEN
70
0
0
ENDSEC
0
SECTION
2
CLASSES
0
CLASS
1
RASTERVARIABLES
2
AcDbRasterVariables
3
ISM
90
0
280
0
281
0
0
ENDSEC
0
SECTION
2
TABLES
0
TABLE
2
VPORT
5
1ed
100
AcDbSymbolTable
0
VPORT
5
1
100
AcDbSymbolTableRecord
100
AcDbViewportTableRecord
2
*Active
70
0
10
0
20
0
11
1
21
1
12
-1
22
1
13
0
23
0
14
0.5
24
0.5
15
10
25
10
16
0
26
0
36
1
17
0
27
0
37
0
0
ENDTAB
0
TABLE
2
LTYPE
5
1ee
100
AcDbSymbolTable
0
LTYPE
5
14
100
AcDbSymbolTableRecord
100
AcDbLinetypeTableRecord
70
0
2
ByBlock
3

72
65
73
0
40
0
0
LTYPE
5
15
100
AcDbSymbolTableRecord
100
AcDbLinetypeTableRecord
70
0
2
ByLayer
3

72
65
73
0
40
0
0
LTYPE
5
16
100
AcDbSymbolTableRecord
100
AcDbLinetypeTableRecord
70
0
2
Continuous
3
Solid line
72
65
73
0
40
0
0
LTYPE
5
6E
100
AcDbSymbolTableRecord
100
AcDbLinetypeTableRecord
70
0
2
CENTER
3
____ _ ____ _ ____ _ ____
72
65
73
4
40
47.5
49
22
74
0
49
-8.5
74
0
49
8.5
74
0
49
-8.5
74
0
0
LTYPE
5
6F
100
AcDbSymbolTableRecord
100
AcDbLinetypeTableRecord
70
0
2
DASHED
3
__ __ __ __ __ __ __ __ __
72
65
73
2
40
25.72
49
12.86
74
0
49
-12.86
74
0
0
ENDTAB
0
TABLE
2
LAYER
5
1ef
100
AcDbSymbolTable
0
LAYER
5
10
100
AcDbSymbolTableRecord
100
AcDbLayerTableRecord
2
0
70
0
62
7
6
Continuous
290
1
370
-3
390
0
0
LAYER
5
71
100
AcDbSymbolTableRecord
100
AcDbLayerTableRecord
2
80
70
0
62
-6
6
Continuous
290
1
370
-3
390
0
0
LAYER
5
73
100
AcDbSymbolTableRecord
100
AcDbLayerTableRecord
2
81
70
0
62
-3
6
Continuous
290
1
370
-3
390
0
0
LAYER
5
75
100
AcDbSymbolTableRecord
100
AcDbLayerTableRecord
2
1
70
0
62
4
6
Continuous
290
1
370
-3
390
0
0
LAYER
5
86
100
AcDbSymbolTableRecord
100
AcDbLayerTableRecord
2
4
70
0
62
-2
6
CENTER
290
1
370
-3
390
0
0
LAYER
5
9F
100
AcDbSymbolTableRecord
100
AcDbLayerTableRecord
2
2
70
0
62
7
6
Continuous
290
1
370
-3
390
0
0
LAYER
5
102
100
AcDbSymbolTableRecord
100
AcDbLayerTableRecord
2
Defpoints
70
0
62
7
6
Continuous
290
0
370
-3
390
0
0
LAYER
5
1d9
100
AcDbSymbolTableRecord
100
AcDbLayerTableRecord
2
SK1
70
0
62
4
6
Continuous
290
1
370
-3
390
0
0
LAYER
5
1da
100
AcDbSymbolTableRecord
100
AcDbLayerTableRecord
2
SK4
70
0
62
2
6
CENTER
290
1
370
-3
390
0
0
LAYER
5
1db
100
AcDbSymbolTableRecord
100
AcDbLayerTableRecord
2
SK2
70
0
62
7
6
Continuous
290
1
370
-3
390
0
0
LAYER
5
1dc
100
AcDbSymbolTableRecord
100
AcDbLayerTableRecord
2
SK6
70
0
62
5
6
Continuous
290
1
370
-3
390
0
0
ENDTAB
0
TABLE
2
STYLE
5
1f0
100
AcDbSymbolTable
0
STYLE
5
11
100
AcDbSymbolTableRecord
100
AcDbTextStyleTableRecord
2
Standard
3
txt
70
0
71
0
40
0
41
1
42
0
50
0
0
STYLE
5
E7
100
AcDbSymbolTableRecord
100
AcDbTextStyleTableRecord
2
iso_b_vert
3
simplex.shx
70
0
71
0
40
0
41
1
42
0
50
0
0
STYLE
5
E8
100
AcDbSymbolTableRecord
100
AcDbTextStyleTableRecord
2
DWGDirectTextStyle
3
simplex
70
0
71
0
40
0
41
1
42
0
50
0
0
ENDTAB
0
TABLE
2
DIMSTYLE
5
1f1
100
AcDbSymbolTable
100
AcDbDimStyleTable
0
DIMSTYLE
105
27
100
AcDbSymbolTableRecord
100
AcDbDimStyleTableRecord
2
Standard
70
0
3
<>
41
0.18
42
0.0625
44
0.18
140
0.18
147
0.09
73
0
74
0
77
1
271
2
275
0
278
52
280
0
340
11
0
ENDTAB
0
TABLE
2
VIEW
5
1f2
100
AcDbSymbolTable
0
ENDTAB
0
TABLE
2
UCS
5
1f3
100
AcDbSymbolTable
0
ENDTAB
0
TABLE
2
APPID
5
1f4
100
AcDbSymbolTable
0
APPID
5
12
100
AcDbSymbolTableRecord
100
AcDbRegAppTableRecord
2
ACAD
70
0
0
APPID
5
FE
100
AcDbSymbolTableRecord
100
AcDbRegAppTableRecord
2
ACAD_DSTYLE_DIMBREAK
70
0
0
APPID
5
198
100
AcDbSymbolTableRecord
100
AcDbRegAppTableRecord
2
ACAD_DSTYLE_DIM_LINETYPE
70
0
0
APPID
5
199
100
AcDbSymbolTableRecord
100
AcDbRegAppTableRecord
2
ACAD_DSTYLE_DIM_EXT1_LINETYPE
70
0
0
APPID
5
19A
100
AcDbSymbolTableRecord
100
AcDbRegAppTableRecord
2
ACAD_DSTYLE_DIM_EXT2_LINETYPE
70
0
0
APPID
5
1D5
100
AcDbSymbolTableRecord
100
AcDbRegAppTableRecord
2
ACAD_MLEADERVER
70
0
0
ENDTAB
0
TABLE
2
BLOCK_RECORD
5
1f5
100
AcDbSymbolTable
0
BLOCK_RECORD
5
1F
100
AcDbSymbolTableRecord
100
AcDbBlockTableRecord
2
*Model_Space
340
0
70
0
0
BLOCK_RECORD
5
1B
100
AcDbSymbolTableRecord
100
AcDbBlockTableRecord
2
*Paper_Space
340
0
70
0
0
BLOCK_RECORD
5
23
100
AcDbSymbolTableRecord
100
AcDbBlockTableRecord
2
*Paper_Space0
340
0
70
0
0
BLOCK_RECORD
5
103
100
AcDbSymbolTableRecord
100
AcDbBlockTableRecord
2
*D1
340
0
70
0
0
BLOCK_RECORD
5
10F
100
AcDbSymbolTableRecord
100
AcDbBlockTableRecord
2
_U0
340
0
70
0
0
BLOCK_RECORD
5
11B
100
AcDbSymbolTableRecord
100
AcDbBlockTableRecord
2
*D3
340
0
70
0
0
BLOCK_RECORD
5
127
100
AcDbSymbolTableRecord
100
AcDbBlockTableRecord
2
_U1
340
0
70
0
0
BLOCK_RECORD
5
133
100
AcDbSymbolTableRecord
100
AcDbBlockTableRecord
2
*D5
340
0
70
0
0
BLOCK_RECORD
5
13F
100
AcDbSymbolTableRecord
100
AcDbBlockTableRecord
2
_U2
340
0
70
0
0
BLOCK_RECORD
5
14B
100
AcDbSymbolTableRecord
100
AcDbBlockTableRecord
2
*D7
340
0
70
0
0
BLOCK_RECORD
5
159
100
AcDbSymbolTableRecord
100
AcDbBlockTableRecord
2
_U3
340
0
70
0
0
BLOCK_RECORD
5
165
100
AcDbSymbolTableRecord
100
AcDbBlockTableRecord
2
*D9
340
0
70
0
0
BLOCK_RECORD
5
171
100
AcDbSymbolTableRecord
100
AcDbBlockTableRecord
2
_U4
340
0
70
0
0
ENDTAB
0
ENDSEC
0
SECTION
2
BLOCKS
0
BLOCK
5
20
100
AcDbEntity
8
0
100
AcDbBlockBegin
2
*Model_Space
70
0
10
0
20
0
30
0
3
*Model_Space
0
ENDBLK
5
21
100
AcDbEntity
8
0
100
AcDbBlockEnd
0
BLOCK
5
1C
100
AcDbEntity
8
0
100
AcDbBlockBegin
2
*Paper_Space
70
0
10
0
20
0
30
0
3
*Paper_Space
0
ENDBLK
5
1D
100
AcDbEntity
8
0
100
AcDbBlockEnd
0
BLOCK
5
24
100
AcDbEntity
8
0
100
AcDbBlockBegin
2
*Paper_Space0
70
0
10
0
20
0
30
0
3
*Paper_Space0
0
ENDBLK
5
25
100
AcDbEntity
8
0
100
AcDbBlockEnd
0
BLOCK
5
104
100
AcDbEntity
8
0
100
AcDbBlockBegin
2
*D1
70
1
10
0
20
0
30
0
3
*D1
0
LINE
5
106
100
AcDbEntity
8
0
62
256
6
ByLayer
370
-2
48
1
60
0
100
AcDbLine
10
0
20
-1.5875
30
0
11
0
21
-16.488398
31
0
39
0
210
0
220
0
230
1
0
LINE
5
107
100
AcDbEntity
8
0
62
256
6
ByLayer
370
-2
48
1
60
0
100
AcDbLine
10
61.7345
20
-5.8625
30
0
11
61.7345
21
-16.488398
31
0
39
0
210
0
220
0
230
1
0
LINE
5
108
100
AcDbEntity
8
0
62
256
6
ByLayer
370
-2
48
1
60
0
100
AcDbLine
10
3.5
20
-14.488398
30
0
11
58.2345
21
-14.488398
31
0
39
0
210
0
220
0
230
1
0
SOLID
5
109
100
AcDbEntity
8
0
62
256
6
ByLayer
370
-1
48
1
60
0
100
AcDbTrace
10
3.5
20
-13.905065
30
0
11
3.5
21
-15.071732
31
0
12
0
22
-14.488398
32
0
13
0
23
-14.488398
33
0
39
0
210
0
220
0
230
1
0
SOLID
5
10A
100
AcDbEntity
8
0
62
256
6
ByLayer
370
-1
48
1
60
0
100
AcDbTrace
10
58.2345
20
-15.071732
30
0
11
58.2345
21
-13.905065
31
0
12
61.7345
22
-14.488398
32
0
13
61.7345
23
-14.488398
33
0
39
0
210
0
220
0
230
1
0
MTEXT
5
10B
100
AcDbEntity
8
0
62
256
6
ByLayer
370
18
48
1
60
0
100
AcDbMText
10
30.86725
20
-7.488398
30
0
210
0
220
0
230
1
1
\A1;61.73
40
3.5
41
0
44
1
50
0
71
5
72
5
7
iso_b_vert
0
POINT
5
10C
100
AcDbEntity
8
Defpoints
62
0
6
ByLayer
370
-1
48
1
60
0
100
AcDbPoint
10
0
20
0
30
0
39
0
210
0
220
0
230
1
50
360
0
POINT
5
10D
100
AcDbEntity
8
Defpoints
62
0
6
ByLayer
370
-1
48
1
60
0
100
AcDbPoint
10
61.7345
20
-4.275
30
0
39
0
210
0
220
0
230
1
50
360
0
POINT
5
10E
100
AcDbEntity
8
Defpoints
62
0
6
ByLayer
370
-1
48
1
60
0
100
AcDbPoint
10
61.7345
20
-14.488398
30
0
39
0
210
0
220
0
230
1
50
360
0
ENDBLK
5
105
100
AcDbEntity
8
0
100
AcDbBlockEnd
0
BLOCK
5
116
100
AcDbEntity
8
0
100
AcDbBlockBegin
2
_U0
70
0
10
0
20
0
30
0
3
_U0
0
MTEXT
5
110
100
AcDbEntity
8
SK2
62
256
6
ByLayer
370
13
48
1
60
0
100
AcDbMText
10
26.167385
20
-13.455765
30
0
210
0
220
0
230
1
1
\W0.6713;61,73
40
3.5
41
0
44
1.084337
50
0
71
7
72
5
7
iso_b_vert
0
LINE
5
111
100
AcDbEntity
8
SK2
62
256
6
ByLayer
370
13
48
1
60
0
100
AcDbLine
10
0
20
-1.5875
30
0
11
0
21
-16.488398
31
0
39
0
210
0
220
0
230
1
0
LINE
5
112
100
AcDbEntity
8
SK2
62
256
6
ByLayer
370
13
48
1
60
0
100
AcDbLine
10
61.7345
20
-5.8625
30
0
11
61.7345
21
-16.488398
31
0
39
0
210
0
220
0
230
1
0
LINE
5
113
100
AcDbEntity
8
SK2
62
256
6
ByLayer
370
13
48
1
60
0
100
AcDbLine
10
0
20
-14.488398
30
0
11
61.7345
21
-14.488398
31
0
39
0
210
0
220
0
230
1
0
SOLID
5
114
100
AcDbEntity
8
SK2
62
256
6
ByLayer
370
18
48
1
60
0
100
AcDbTrace
10
0
20
-14.488398
30
0
11
3.499998
21
-14.027615
31
0
12
3.500002
22
-14.949182
32
0
13
3.500002
23
-14.949182
33
0
39
0
210
0
220
0
230
1
0
SOLID
5
115
100
AcDbEntity
8
SK2
62
256
6
ByLayer
370
18
48
1
60
0
100
AcDbTrace
10
61.7345
20
-14.488398
30
0
11
58.234502
21
-14.949182
31
0
12
58.234498
22
-14.027615
32
0
13
58.234498
23
-14.027615
33
0
39
0
210
0
220
0
230
1
0
ENDBLK
5
117
100
AcDbEntity
8
0
100
AcDbBlockEnd
0
BLOCK
5
11C
100
AcDbEntity
8
0
100
AcDbBlockBegin
2
*D3
70
1
10
0
20
0
30
0
3
*D3
0
LINE
5
11E
100
AcDbEntity
8
0
62
256
6
ByLayer
370
-2
48
1
60
0
100
AcDbLine
10
-40
20
-6.5875
30
0
11
-40
21
-35.692985
31
0
39
0
210
0
220
0
230
1
0
LINE
5
11F
100
AcDbEntity
8
0
62
256
6
ByLayer
370
-2
48
1
60
0
100
AcDbLine
10
63
20
-1.5875
30
0
11
63
21
-35.692985
31
0
39
0
210
0
220
0
230
1
0
LINE
5
120
100
AcDbEntity
8
0
62
256
6
ByLayer
370
-2
48
1
60
0
100
AcDbLine
10
-36.5
20
-33.692985
30
0
11
59.5
21
-33.692985
31
0
39
0
210
0
220
0
230
1
0
SOLID
5
121
100
AcDbEntity
8
0
62
256
6
ByLayer
370
-1
48
1
60
0
100
AcDbTrace
10
-36.5
20
-33.109652
30
0
11
-36.5
21
-34.276319
31
0
12
-40
22
-33.692985
32
0
13
-40
23
-33.692985
33
0
39
0
210
0
220
0
230
1
0
SOLID
5
122
100
AcDbEntity
8
0
62
256
6
ByLayer
370
-1
48
1
60
0
100
AcDbTrace
10
59.5
20
-34.276319
30
0
11
59.5
21
-33.109652
31
0
12
63
22
-33.692985
32
0
13
63
23
-33.692985
33
0
39
0
210
0
220
0
230
1
0
MTEXT
5
123
100
AcDbEntity
8
0
62
256
6
ByLayer
370
18
48
1
60
0
100
AcDbMText
10
11.5
20
-26.692985
30
0
210
0
220
0
230
1
1
\A1;103.00
40
3.5
41
0
44
1
50
0
71
5
72
5
7
iso_b_vert
0
POINT
5
124
100
AcDbEntity
8
Defpoints
62
0
6
ByLayer
370
-1
48
1
60
0
100
AcDbPoint
10
-40
20
-5
30
0
39
0
210
0
220
0
230
1
50
360
0
POINT
5
125
100
AcDbEntity
8
Defpoints
62
0
6
ByLayer
370
-1
48
1
60
0
100
AcDbPoint
10
63
20
0
30
0
39
0
210
0
220
0
230
1
50
360
0
POINT
5
126
100
AcDbEntity
8
Defpoints
62
0
6
ByLayer
370
-1
48
1
60
0
100
AcDbPoint
10
63
20
-33.692985
30
0
39
0
210
0
220
0
230
1
50
360
0
ENDBLK
5
11D
100
AcDbEntity
8
0
100
AcDbBlockEnd
0
BLOCK
5
12E
100
AcDbEntity
8
0
100
AcDbBlockBegin
2
_U1
70
0
10
0
20
0
30
0
3
_U1
0
MTEXT
5
128
100
AcDbEntity
8
SK2
62
256
6
ByLayer
370
13
48
1
60
0
100
AcDbMText
10
5.492401
20
-32.660352
30
0
210
0
220
0
230
1
1
\W0.6930;103,00
40
3.5
41
0
44
1.084337
50
0
71
7
72
5
7
iso_b_vert
0
LINE
5
129
100
AcDbEntity
8
SK2
62
256
6
ByLayer
370
13
48
1
60
0
100
AcDbLine
10
-40
20
-6.5875
30
0
11
-40
21
-35.692985
31
0
39
0
210
0
220
0
230
1
0
LINE
5
12A
100
AcDbEntity
8
SK2
62
256
6
ByLayer
370
13
48
1
60
0
100
AcDbLine
10
63
20
-1.5875
30
0
11
63
21
-35.692985
31
0
39
0
210
0
220
0
230
1
0
LINE
5
12B
100
AcDbEntity
8
SK2
62
256
6
ByLayer
370
13
48
1
60
0
100
AcDbLine
10
-40
20
-33.692985
30
0
11
63
21
-33.692985
31
0
39
0
210
0
220
0
230
1
0
SOLID
5
12C
100
AcDbEntity
8
SK2
62
256
6
ByLayer
370
18
48
1
60
0
100
AcDbTrace
10
-40
20
-33.692985
30
0
11
-36.500002
21
-33.232202
31
0
12
-36.499998
22
-34.153769
32
0
13
-36.499998
23
-34.153769
33
0
39
0
210
0
220
0
230
1
0
SOLID
5
12D
100
AcDbEntity
8
SK2
62
256
6
ByLayer
370
18
48
1
60
0
100
AcDbTrace
10
63
20
-33.692985
30
0
11
59.500002
21
-34.153769
31
0
12
59.499998
22
-33.232202
32
0
13
59.499998
23
-33.232202
33
0
39
0
210
0
220
0
230
1
0
ENDBLK
5
12F
100
AcDbEntity
8
0
100
AcDbBlockEnd
0
BLOCK
5
134
100
AcDbEntity
8
0
100
AcDbBlockBegin
2
*D5
70
1
10
0
20
0
30
0
3
*D5
0
LINE
5
136
100
AcDbEntity
8
0
62
256
6
ByLayer
370
-2
48
1
60
0
100
AcDbLine
10
18.98
20
5.8625
30
0
11
18.98
21
17.884119
31
0
39
0
210
0
220
0
230
1
0
LINE
5
137
100
AcDbEntity
8
0
62
256
6
ByLayer
370
-2
48
1
60
0
100
AcDbLine
10
63
20
1.5875
30
0
11
63
21
17.884119
31
0
39
0
210
0
220
0
230
1
0
LINE
5
138
100
AcDbEntity
8
0
62
256
6
ByLayer
370
-2
48
1
60
0
100
AcDbLine
10
22.48
20
15.884119
30
0
11
59.5
21
15.884119
31
0
39
0
210
0
220
0
230
1
0
SOLID
5
139
100
AcDbEntity
8
0
62
256
6
ByLayer
370
-1
48
1
60
0
100
AcDbTrace
10
22.48
20
16.467453
30
0
11
22.48
21
15.300786
31
0
12
18.98
22
15.884119
32
0
13
18.98
23
15.884119
33
0
39
0
210
0
220
0
230
1
0
SOLID
5
13A
100
AcDbEntity
8
0
62
256
6
ByLayer
370
-1
48
1
60
0
100
AcDbTrace
10
59.5
20
15.300786
30
0
11
59.5
21
16.467453
31
0
12
63
22
15.884119
32
0
13
63
23
15.884119
33
0
39
0
210
0
220
0
230
1
0
MTEXT
5
13B
100
AcDbEntity
8
0
62
256
6
ByLayer
370
18
48
1
60
0
100
AcDbMText
10
40.99
20
22.884119
30
0
210
0
220
0
230
1
1
\A1;44.02
40
3.5
41
0
44
1
50
0
71
5
72
5
7
iso_b_vert
0
POINT
5
13C
100
AcDbEntity
8
Defpoints
62
0
6
ByLayer
370
-1
48
1
60
0
100
AcDbPoint
10
18.98
20
4.275
30
0
39
0
210
0
220
0
230
1
50
360
0
POINT
5
13D
100
AcDbEntity
8
Defpoints
62
0
6
ByLayer
370
-1
48
1
60
0
100
AcDbPoint
10
63
20
0
30
0
39
0
210
0
220
0
230
1
50
360
0
POINT
5
13E
100
AcDbEntity
8
Defpoints
62
0
6
ByLayer
370
-1
48
1
60
0
100
AcDbPoint
10
63
20
15.884119
30
0
39
0
210
0
220
0
230
1
50
360
0
ENDBLK
5
135
100
AcDbEntity
8
0
100
AcDbBlockEnd
0
BLOCK
5
146
100
AcDbEntity
8
0
100
AcDbBlockBegin
2
_U2
70
0
10
0
20
0
30
0
3
_U2
0
MTEXT
5
140
100
AcDbEntity
8
SK2
62
256
6
ByLayer
370
13
48
1
60
0
100
AcDbMText
10
35.484168
20
16.916753
30
0
210
0
220
0
230
1
1
\W0.7845;44,02
40
3.5
41
0
44
1.084337
50
0
71
7
72
5
7
iso_b_vert
0
LINE
5
141
100
AcDbEntity
8
SK2
62
256
6
ByLayer
370
13
48
1
60
0
100
AcDbLine
10
18.98
20
5.8625
30
0
11
18.98
21
17.884119
31
0
39
0
210
0
220
0
230
1
0
LINE
5
142
100
AcDbEntity
8
SK2
62
256
6
ByLayer
370
13
48
1
60
0
100
AcDbLine
10
63
20
1.5875
30
0
11
63
21
17.884119
31
0
39
0
210
0
220
0
230
1
0
LINE
5
143
100
AcDbEntity
8
SK2
62
256
6
ByLayer
370
13
48
1
60
0
100
AcDbLine
10
18.98
20
15.884119
30
0
11
63
21
15.884119
31
0
39
0
210
0
220
0
230
1
0
SOLID
5
144
100
AcDbEntity
8
SK2
62
256
6
ByLayer
370
18
48
1
60
0
100
AcDbTrace
10
18.98
20
15.884119
30
0
11
22.479998
21
16.344903
31
0
12
22.480002
22
15.423335
32
0
13
22.480002
23
15.423335
33
0
39
0
210
0
220
0
230
1
0
SOLID
5
145
100
AcDbEntity
8
SK2
62
256
6
ByLayer
370
18
48
1
60
0
100
AcDbTrace
10
63
20
15.884119
30
0
11
59.500002
21
15.423335
31
0
12
59.499998
22
16.344903
32
0
13
59.499998
23
16.344903
33
0
39
0
210
0
220
0
230
1
0
ENDBLK
5
147
100
AcDbEntity
8
0
100
AcDbBlockEnd
0
BLOCK
5
14C
100
AcDbEntity
8
0
100
AcDbBlockBegin
2
*D7
70
1
10
0
20
0
30
0
3
*D7
0
LINE
5
14E
100
AcDbEntity
8
0
62
256
6
ByLayer
370
-2
48
1
60
0
100
AcDbLine
10
63
20
-1.5875
30
0
11
63
21
-19.077503
31
0
39
0
210
0
220
0
230
1
0
LINE
5
14F
100
AcDbEntity
8
0
62
256
6
ByLayer
370
-2
48
1
60
0
100
AcDbLine
10
61.7345
20
-5.8625
30
0
11
61.7345
21
-19.077503
31
0
39
0
210
0
220
0
230
1
0
LINE
5
150
100
AcDbEntity
8
0
62
256
6
ByLayer
370
-2
48
1
60
0
100
AcDbLine
10
63
20
-17.077503
30
0
11
90.666667
21
-17.077503
31
0
39
0
210
0
220
0
230
1
0
LINE
5
151
100
AcDbEntity
8
0
62
256
6
ByLayer
370
-2
48
1
60
0
100
AcDbLine
10
66.5
20
-17.077503
30
0
11
70
21
-17.077503
31
0
39
0
210
0
220
0
230
1
0
LINE
5
152
100
AcDbEntity
8
0
62
256
6
ByLayer
370
-2
48
1
60
0
100
AcDbLine
10
58.2345
20
-17.077503
30
0
11
54.7345
21
-17.077503
31
0
39
0
210
0
220
0
230
1
0
SOLID
5
153
100
AcDbEntity
8
0
62
256
6
ByLayer
370
-1
48
1
60
0
100
AcDbTrace
10
66.5
20
-16.49417
30
0
11
66.5
21
-17.660837
31
0
12
63
22
-17.077503
32
0
13
63
23
-17.077503
33
0
39
0
210
0
220
0
230
1
0
SOLID
5
154
100
AcDbEntity
8
0
62
256
6
ByLayer
370
-1
48
1
60
0
100
AcDbTrace
10
58.2345
20
-17.660837
30
0
11
58.2345
21
-16.49417
31
0
12
61.7345
22
-17.077503
32
0
13
61.7345
23
-17.077503
33
0
39
0
210
0
220
0
230
1
0
MTEXT
5
155
100
AcDbEntity
8
0
62
256
6
ByLayer
370
18
48
1
60
0
100
AcDbMText
10
80.333333
20
-10.077503
30
0
210
0
220
0
230
1
1
\A1;1.27
40
3.5
41
0
44
1
50
0
71
5
72
5
7
iso_b_vert
0
POINT
5
156
100
AcDbEntity
8
Defpoints
62
0
6
ByLayer
370
-1
48
1
60
0
100
AcDbPoint
10
63
20
0
30
0
39
0
210
0
220
0
230
1
50
360
0
POINT
5
157
100
AcDbEntity
8
Defpoints
62
0
6
ByLayer
370
-1
48
1
60
0
100
AcDbPoint
10
61.7345
20
-4.275
30
0
39
0
210
0
220
0
230
1
50
360
0
POINT
5
158
100
AcDbEntity
8
Defpoints
62
0
6
ByLayer
370
-1
48
1
60
0
100
AcDbPoint
10
61.7345
20
-17.077503
30
0
39
0
210
0
220
0
230
1
50
360
0
ENDBLK
5
14D
100
AcDbEntity
8
0
100
AcDbBlockEnd
0
BLOCK
5
160
100
AcDbEntity
8
0
100
AcDbBlockBegin
2
_U3
70
0
10
0
20
0
30
0
3
_U3
0
MTEXT
5
15A
100
AcDbEntity
8
SK2
62
256
6
ByLayer
370
13
48
1
60
0
100
AcDbMText
10
69.589293
20
-16.04487
30
0
210
0
220
0
230
1
1
\W0.6367;1,27
40
3.5
41
0
44
1.084337
50
0
71
7
72
5
7
iso_b_vert
0
LINE
5
15B
100
AcDbEntity
8
SK2
62
256
6
ByLayer
370
13
48
1
60
0
100
AcDbLine
10
63
20
-1.5875
30
0
11
63
21
-19.077503
31
0
39
0
210
0
220
0
230
1
0
LINE
5
15C
100
AcDbEntity
8
SK2
62
256
6
ByLayer
370
13
48
1
60
0
100
AcDbLine
10
61.7345
20
-5.8625
30
0
11
61.7345
21
-19.077503
31
0
39
0
210
0
220
0
230
1
0
LINE
5
15D
100
AcDbEntity
8
SK2
62
256
6
ByLayer
370
13
48
1
60
0
100
AcDbLine
10
52.9845
20
-17.077503
30
0
11
76.559058
21
-17.077503
31
0
39
0
210
0
220
0
230
1
0
SOLID
5
15E
100
AcDbEntity
8
SK2
62
256
6
ByLayer
370
18
48
1
60
0
100
AcDbTrace
10
63
20
-17.077503
30
0
11
66.499998
21
-16.616719
31
0
12
66.500002
22
-17.538287
32
0
13
66.500002
23
-17.538287
33
0
39
0
210
0
220
0
230
1
0
SOLID
5
15F
100
AcDbEntity
8
SK2
62
256
6
ByLayer
370
18
48
1
60
0
100
AcDbTrace
10
61.7345
20
-17.077503
30
0
11
58.234502
21
-17.538287
31
0
12
58.234498
22
-16.616719
32
0
13
58.234498
23
-16.616719
33
0
39
0
210
0
220
0
230
1
0
ENDBLK
5
161
100
AcDbEntity
8
0
100
AcDbBlockEnd
0
BLOCK
5
166
100
AcDbEntity
8
0
100
AcDbBlockBegin
2
*D9
70
1
10
0
20
0
30
0
3
*D9
0
LINE
5
168
100
AcDbEntity
8
0
62
256
6
ByLayer
370
-2
48
1
60
0
100
AcDbLine
10
-40
20
-6.5875
30
0
11
-40
21
-25.343428
31
0
39
0
210
0
220
0
230
1
0
LINE
5
169
100
AcDbEntity
8
0
62
256
6
ByLayer
370
-2
48
1
60
0
100
AcDbLine
10
61.7345
20
-5.8625
30
0
11
61.7345
21
-25.343428
31
0
39
0
210
0
220
0
230
1
0
LINE
5
16A
100
AcDbEntity
8
0
62
256
6
ByLayer
370
-2
48
1
60
0
100
AcDbLine
10
-36.5
20
-23.343428
30
0
11
58.2345
21
-23.343428
31
0
39
0
210
0
220
0
230
1
0
SOLID
5
16B
100
AcDbEntity
8
0
62
256
6
ByLayer
370
-1
48
1
60
0
100
AcDbTrace
10
-36.5
20
-22.760095
30
0
11
-36.5
21
-23.926762
31
0
12
-40
22
-23.343428
32
0
13
-40
23
-23.343428
33
0
39
0
210
0
220
0
230
1
0
SOLID
5
16C
100
AcDbEntity
8
0
62
256
6
ByLayer
370
-1
48
1
60
0
100
AcDbTrace
10
58.2345
20
-23.926762
30
0
11
58.2345
21
-22.760095
31
0
12
61.7345
22
-23.343428
32
0
13
61.7345
23
-23.343428
33
0
39
0
210
0
220
0
230
1
0
MTEXT
5
16D
100
AcDbEntity
8
0
62
256
6
ByLayer
370
18
48
1
60
0
100
AcDbMText
10
10.86725
20
-16.343428
30
0
210
0
220
0
230
1
1
\A1;101.73
40
3.5
41
0
44
1
50
0
71
5
72
5
7
iso_b_vert
0
POINT
5
16E
100
AcDbEntity
8
Defpoints
62
0
6
ByLayer
370
-1
48
1
60
0
100
AcDbPoint
10
-40
20
-5
30
0
39
0
210
0
220
0
230
1
50
360
0
POINT
5
16F
100
AcDbEntity
8
Defpoints
62
0
6
ByLayer
370
-1
48
1
60
0
100
AcDbPoint
10
61.7345
20
-4.275
30
0
39
0
210
0
220
0
230
1
50
360
0
POINT
5
170
100
AcDbEntity
8
Defpoints
62
0
6
ByLayer
370
-1
48
1
60
0
100
AcDbPoint
10
61.7345
20
-23.343428
30
0
39
0
210
0
220
0
230
1
50
360
0
ENDBLK
5
167
100
AcDbEntity
8
0
100
AcDbBlockEnd
0
BLOCK
5
178
100
AcDbEntity
8
0
100
AcDbBlockBegin
2
_U4
70
0
10
0
20
0
30
0
3
_U4
0
MTEXT
5
172
100
AcDbEntity
8
SK2
62
256
6
ByLayer
370
13
48
1
60
0
100
AcDbMText
10
5.297085
20
-22.310795
30
0
210
0
220
0
230
1
1
\W0.6440;101,73
40
3.5
41
0
44
1.084337
50
0
71
7
72
5
7
iso_b_vert
0
LINE
5
173
100
AcDbEntity
8
SK2
62
256
6
ByLayer
370
13
48
1
60
0
100
AcDbLine
10
-40
20
-6.5875
30
0
11
-40
21
-25.343428
31
0
39
0
210
0
220
0
230
1
0
LINE
5
174
100
AcDbEntity
8
SK2
62
256
6
ByLayer
370
13
48
1
60
0
100
AcDbLine
10
61.7345
20
-5.8625
30
0
11
61.7345
21
-25.343428
31
0
39
0
210
0
220
0
230
1
0
LINE
5
175
100
AcDbEntity
8
SK2
62
256
6
ByLayer
370
13
48
1
60
0
100
AcDbLine
10
-40
20
-23.343428
30
0
11
61.7345
21
-23.343428
31
0
39
0
210
0
220
0
230
1
0
SOLID
5
176
100
AcDbEntity
8
SK2
62
256
6
ByLayer
370
18
48
1
60
0
100
AcDbTrace
10
-40
20
-23.343428
30
0
11
-36.500002
21
-22.882645
31
0
12
-36.499998
22
-23.804212
32
0
13
-36.499998
23
-23.804212
33
0
39
0
210
0
220
0
230
1
0
SOLID
5
177
100
AcDbEntity
8
SK2
62
256
6
ByLayer
370
18
48
1
60
0
100
AcDbTrace
10
61.7345
20
-23.343428
30
0
11
58.234502
21
-23.804212
31
0
12
58.234498
22
-22.882645
32
0
13
58.234498
23
-22.882645
33
0
39
0
210
0
220
0
230
1
0
ENDBLK
5
179
100
AcDbEntity
8
0
100
AcDbBlockEnd
0
ENDSEC
0
SECTION
2
ENTITIES
0
ARC
5
A8
100
AcDbEntity
8
1
62
256
6
ByLayer
370
18
48
1
60
0
100
AcDbCircle
39
0
10
1.363436
20
-5.037282
30
0
40
0.799999999999999
210
0
220
0
230
1
100
AcDbArc
50
89.96419
51
148.446046
0
ARC
5
A9
100
AcDbEntity
8
1
62
256
6
ByLayer
370
18
48
1
60
0
100
AcDbCircle
39
0
10
1.363436
20
5.037282
30
0
40
0.799999999999999
210
0
220
0
230
1
100
AcDbArc
50
211.553954
51
270.03581
0
ARC
5
AA
100
AcDbEntity
8
1
62
256
6
ByLayer
370
18
48
1
60
0
100
AcDbCircle
39
0
10
0
20
-4.2
30
0
40
0.799999999999999
210
0
220
0
230
1
100
AcDbArc
50
270
51
328.446046
0
ARC
5
AB
100
AcDbEntity
8
1
62
256
6
ByLayer
370
18
48
1
60
0
100
AcDbCircle
39
0
10
0
20
4.2
30
0
40
0.799999999999999
210
0
220
0
230
1
100
AcDbArc
50
31.553954
51
90
0
ELLIPSE
5
AC
100
AcDbEntity
8
1
62
256
6
ByLayer
370
13
48
1
60
0
100
AcDbEllipse
10
4.250198
20
-3.937521
30
0
11
0.0141889180155689
21
0.0989882548868676
31
0
210
0
220
0
230
1
40
0.410339
41
0.332998456626956
42
1.88456540944907
0
ELLIPSE
5
AD
100
AcDbEntity
8
1
62
256
6
ByLayer
370
13
48
1
60
0
100
AcDbEllipse
10
4.185281
20
-3.942265
30
0
11
-0.0298393821565457
21
0.0954442836031348
31
0
210
0
220
0
230
1
40
0.491692
41
0.321680424298567
42
1.68720214915048
0
POINT
5
70
100
AcDbEntity
8
80
62
256
6
ByLayer
370
18
48
1
60
0
100
AcDbPoint
10
0
20
0
30
0
39
0
210
0
220
0
230
1
50
360
0
POINT
5
72
100
AcDbEntity
8
81
62
256
6
ByLayer
370
18
48
1
60
0
100
AcDbPoint
10
63
20
0
30
0
39
0
210
0
220
0
230
1
50
360
0
POINT
5
74
100
AcDbEntity
8
1
62
256
6
ByLayer
370
18
48
1
60
1
100
AcDbPoint
10
61.7345
20
-4.275
30
0
39
0
210
0
220
0
230
1
50
360
0
POINT
5
76
100
AcDbEntity
8
1
62
256
6
ByLayer
370
18
48
1
60
1
100
AcDbPoint
10
-40
20
-5
30
0
39
0
210
0
220
0
230
1
50
360
0
POINT
5
77
100
AcDbEntity
8
1
62
256
6
ByLayer
370
18
48
1
60
1
100
AcDbPoint
10
18.98
20
4.275
30
0
39
0
210
0
220
0
230
1
50
360
0
POINT
5
78
100
AcDbEntity
8
1
62
256
6
ByLayer
370
18
48
1
60
1
100
AcDbPoint
10
61.7345
20
-4.275
30
0
39
0
210
0
220
0
230
1
50
360
0
POINT
5
79
100
AcDbEntity
8
1
62
256
6
ByLayer
370
18
48
1
60
1
100
AcDbPoint
10
-40
20
-5
30
0
39
0
210
0
220
0
230
1
50
360
0
POINT
5
7A
100
AcDbEntity
8
1
62
256
6
ByLayer
370
18
48
1
60
1
100
AcDbPoint
10
61.7345
20
-4.275
30
0
39
0
210
0
220
0
230
1
50
360
0
SPLINE
5
AE
100
AcDbEntity
8
1
62
256
6
ByLayer
370
13
48
1
60
0
100
AcDbSpline
70
4
71
3
72
8
73
4
40
0
40
0
40
0
40
0
40
1
40
1
40
1
40
1
41
1
10
4.14213475024349
20
-3.8563547450207
30
0
41
1
10
4.17623867715875
20
-3.84368068426193
30
0
41
1
10
4.21282298389272
20
-3.83890067738255
30
0
41
1
10
4.25032989823785
20
-3.84206780379731
30
0
0
SPLINE
5
AF
100
AcDbEntity
8
1
62
256
6
ByLayer
370
18
48
1
60
0
100
AcDbSpline
70
4
71
3
72
10
73
6
40
0
40
0
40
0
40
0
40
0.5
40
0.5
40
1
40
1
40
1
40
1
41
1
10
62.9999615590869
20
0.0417744723308999
30
0
41
1
10
62.9962279054542
20
0.0264324118203376
30
0
41
1
10
62.9911253992775
20
0.0099843386300051
30
0
41
1
10
62.9788210442173
20
-0.0212424772918496
30
0
41
1
10
62.9715815104772
20
-0.0360468696580085
30
0
41
1
10
62.9642469186298
20
-0.0480546853679584
30
0
0
SPLINE
5
B0
100
AcDbEntity
8
1
62
256
6
ByLayer
370
18
48
1
60
0
100
AcDbSpline
70
4
71
3
72
44
73
40
40
0
40
0
40
0
40
0
40
0.0323907619755884
40
0.0323907619755884
40
0.0647815239511769
40
0.0647815239511769
40
0.129563047902354
40
0.129563047902354
40
0.161953809877942
40
0.161953809877942
40
0.194344571853529
40
0.194344571853529
40
0.259126095804705
40
0.259126095804705
40
0.323907619755881
40
0.323907619755881
40
0.388689143707057
40
0.388689143707057
40
0.421079905682644
40
0.421079905682644
40
0.453470667658232
40
0.453470667658232
40
0.518252191609408
40
0.518252191609408
40
0.64781523951176
40
0.64781523951176
40
0.680206001487348
40
0.680206001487348
40
0.712596763462936
40
0.712596763462936
40
0.744987525438524
40
0.744987525438524
40
0.777378287414112
40
0.777378287414112
40
0.906941335316461
40
0.906941335316461
40
0.971722859267636
40
0.971722859267636
40
1
40
1
40
1
40
1
41
1
10
61.497065718804
20
-4.26895863024234
30
0
41
1
10
61.1971623765336
20
-4.27656387701356
30
0
41
1
10
60.8973742357417
20
-4.27645329659526
30
0
41
1
10
60.2974717033105
20
-4.26086636243619
30
0
41
1
10
59.9970844468637
20
-4.24536569929467
30
0
41
1
10
59.0966418565456
20
-4.17603890841093
30
0
41
1
10
58.4983072509414
20
-4.09956770650356
30
0
41
1
10
57.6002018292986
20
-3.94164483660168
30
0
41
1
10
57.3007145031401
20
-3.8818117610405
30
0
41
1
10
56.7008161614926
20
-3.74825709852993
30
0
41
1
10
56.40021910024
20
-3.67447147246881
30
0
41
1
10
55.5006665181953
20
-3.43424114684839
30
0
41
1
10
54.9025024091049
20
-3.2486746059665
30
0
41
1
10
53.7042152684383
20
-2.83332513787809
30
0
41
1
10
53.1029104133402
20
-2.60282247900841
30
0
41
1
10
51.9045327949656
20
-2.10931461889456
30
0
41
1
10
51.3063097936507
20
-1.84631968243264
30
0
41
1
10
50.4067710368513
20
-1.43412479211966
30
0
41
1
10
50.1060143396109
20
-1.29346400387206
30
0
41
1
10
49.5064554439949
20
-1.00878848386114
30
0
41
1
10
49.2077480373011
20
-0.86480489422928
30
0
41
1
10
48.3137065858993
20
-0.430295585637936
30
0
41
1
10
47.720489802951
20
-0.137132663116432
30
0
41
1
10
45.9423173374759
20
0.738369587846762
30
0
41
1
10
44.7587727555816
20
1.31655433350059
30
0
41
1
10
43.2574664599349
20
1.98233727080466
30
0
41
1
10
42.9571269005759
20
2.11214413787863
30
0
41
1
10
42.3576415560015
20
2.36314990025772
30
0
41
1
10
42.0581962206215
20
2.48450232370149
30
0
41
1
10
41.4592992125706
20
2.71791360438169
30
0
41
1
10
41.1598403202093
20
2.82995842822894
30
0
41
1
10
40.5601913068656
20
3.04359956305848
30
0
41
1
10
40.2595070960306
20
3.1453769583575
30
0
41
1
10
38.7592811708362
20
3.62407719889782
30
0
41
1
10
37.5759086094281
20
3.90747284310618
30
0
41
1
10
35.7970606808884
20
4.16028043366049
30
0
41
1
10
35.2034727227545
20
4.2159060340567
30
0
41
1
10
34.3464258453727
20
4.25257724846364
30
0
41
1
10
34.0854333300181
20
4.25798944567947
30
0
41
1
10
33.8236545817753
20
4.25756028142678
30
0
0
SPLINE
5
B1
100
AcDbEntity
8
1
62
256
6
ByLayer
370
18
48
1
60
0
100
AcDbSpline
70
4
71
3
72
10
73
6
40
0
40
0
40
0
40
0
40
0.305555136151653
40
0.305555136151653
40
1
40
1
40
1
40
1
41
1
10
9.28830385856614
20
-4.04551503556448
30
0
41
1
10
8.7625768177306
20
-4.12271627741308
30
0
41
1
10
8.23909016940578
20
-4.17722015386386
30
0
41
1
10
6.52763512728538
20
-4.27997252590089
30
0
41
1
10
5.34185460778306
20
-4.23183233436291
30
0
41
1
10
4.13999834405948
20
-4.06333293919681
30
0
0
SPLINE
5
B2
100
AcDbEntity
8
1
62
256
6
ByLayer
370
18
48
1
60
0
100
AcDbSpline
70
4
71
3
72
42
73
38
40
0
40
0
40
0
40
0
40
0.0402307925828559
40
0.0402307925828559
40
0.109971094813126
40
0.109971094813126
40
0.179711397043396
40
0.179711397043396
40
0.319192001503937
40
0.319192001503937
40
0.458672605964477
40
0.458672605964477
40
0.528412908194747
40
0.528412908194747
40
0.563283059309882
40
0.563283059309882
40
0.572000597088666
40
0.572000597088666
40
0.576359365978057
40
0.576359365978057
40
0.58071813486745
40
0.58071813486745
40
0.585076903756842
40
0.585076903756842
40
0.589435672646234
40
0.589435672646234
40
0.598153210425017
40
0.598153210425017
40
0.667893512655288
40
0.667893512655288
40
0.737633814885557
40
0.737633814885557
40
0.877114419346098
40
0.877114419346098
40
0.946854721576369
40
0.946854721576369
40
1
40
1
40
1
40
1
41
1
10
11.8730679613725
20
3.07566649199063
30
0
41
1
10
11.8730679613724
20
3.01089971175915
30
0
41
1
10
11.8730679613724
20
2.94448020134439
30
0
41
1
10
11.8730679613724
20
2.75849859327565
30
0
41
1
10
11.8730679613724
20
2.63566218089804
30
0
41
1
10
11.8730679613724
20
2.38023933231767
30
0
41
1
10
11.8730679613724
20
2.24696095241208
30
0
41
1
10
11.8730679613724
20
1.83869340643901
30
0
41
1
10
11.8730679613725
20
1.55519921069265
30
0
41
1
10
11.8730679613725
20
0.967330384287806
30
0
41
1
10
11.8730679613724
20
0.662943549114573
30
0
41
1
10
11.8730679613724
20
0.190725300384599
30
0
41
1
10
11.8730679613724
20
0.0310427399441267
30
0
41
1
10
11.8730679613724
20
-0.210002000058893
30
0
41
1
10
11.8730679613724
20
-0.290716738997617
30
0
41
1
10
11.8730679613724
20
-0.391964078334837
30
0
41
1
10
11.8730679613724
20
-0.412229891335983
30
0
41
1
10
11.8730679613724
20
-0.442653090827321
30
0
41
1
10
11.8730679613724
20
-0.452733250387979
30
0
41
1
10
11.8730679613724
20
-0.473289410086039
30
0
41
1
10
11.8730679613724
20
-0.483461865095535
30
0
41
1
10
11.8730679613724
20
-0.503600462105538
30
0
41
1
10
11.8730679613724
20
-0.513374864327119
30
0
41
1
10
11.8730679613724
20
-0.531445023352461
30
0
41
1
10
11.8730679613724
20
-0.540220963868393
30
0
41
1
10
11.8730679613724
20
-0.566849970919208
30
0
41
1
10
11.8730679613724
20
-0.584551422468195
30
0
41
1
10
11.8730679613724
20
-0.743402329109387
30
0
41
1
10
11.8730679613724
20
-0.88116580097352
30
0
41
1
10
11.8730679613724
20
-1.14897192997665
30
0
41
1
10
11.8730679613724
20
-1.27947338039675
30
0
41
1
10
11.8730679613724
20
-1.6557618273973
30
0
41
1
10
11.8730679613724
20
-1.88696297139839
30
0
41
1
10
11.8730679613724
20
-2.20302870132269
30
0
41
1
10
11.8730679613724
20
-2.30323313720092
30
0
41
1
10
11.8730679613724
20
-2.47018357425992
30
0
41
1
10
11.8730679613724
20
-2.53868324991328
30
0
41
1
10
11.8730679613724
20
-2.60315257805564
30
0
0
SPLINE
5
B3
100
AcDbEntity
8
1
62
256
6
ByLayer
370
18
48
1
60
0
100
AcDbSpline
70
4
71
3
72
62
73
58
40
0
40
0
40
0
40
0
40
0.0625000000000111
40
0.0625000000000111
40
0.0937500000000166
40
0.0937500000000166
40
0.125000000000022
40
0.125000000000022
40
0.156250000000028
40
0.156250000000028
40
0.187500000000033
40
0.187500000000033
40
0.203125000000036
40
0.203125000000036
40
0.218750000000039
40
0.218750000000039
40
0.22656250000004
40
0.22656250000004
40
0.234375000000041
40
0.234375000000041
40
0.250000000000044
40
0.250000000000044
40
0.265625000000047
40
0.265625000000047
40
0.281250000000049
40
0.281250000000049
40
0.296875000000052
40
0.296875000000052
40
0.312500000000055
40
0.312500000000055
40
0.34375000000006
40
0.34375000000006
40
0.375000000000066
40
0.375000000000066
40
0.382812500000067
40
0.382812500000067
40
0.386718750000067
40
0.386718750000067
40
0.390625000000067
40
0.390625000000067
40
0.398437500000066
40
0.398437500000066
40
0.406250000000064
40
0.406250000000064
40
0.437500000000062
40
0.437500000000062
40
0.500000000000055
40
0.500000000000055
40
0.625000000000042
40
0.625000000000042
40
0.750000000000028
40
0.750000000000028
40
0.812500000000021
40
0.812500000000021
40
0.875000000000013
40
0.875000000000013
40
1
40
1
40
1
40
1
41
1
10
4.00288356109712
20
1.20879731590358
30
0
41
1
10
3.7545509636179
20
1.36947561569886
30
0
41
1
10
3.51154400425099
20
1.53362354975371
30
0
41
1
10
3.16006644692024
20
1.78959049183916
30
0
41
1
10
3.04478353150776
20
1.87683953833223
30
0
41
1
10
2.82253132153204
20
2.05439298930972
30
0
41
1
10
2.71545417340292
20
2.14471383636428
30
0
41
1
10
2.51272073046758
20
2.33012092838584
30
0
41
1
10
2.41695489195558
20
2.425149893504
30
0
41
1
10
2.24323780264581
20
2.62319407487772
30
0
41
1
10
2.16690594207103
20
2.72436481820432
30
0
41
1
10
2.07935241967471
20
2.8798345874508
30
0
41
1
10
2.05494628301437
20
2.93208412403752
30
0
41
1
10
2.01882673226066
20
3.03490031434126
30
0
41
1
10
2.00689088839383
20
3.08583073708871
30
0
41
1
10
1.99986923296001
20
3.16151694103232
30
0
41
1
10
1.99936689969232
20
3.18680235563255
30
0
41
1
10
2.00226537441574
20
3.23610195968945
30
0
41
1
10
2.0056312653573
20
3.26011269339711
30
0
41
1
10
2.02130303495949
20
3.33032087111172
30
0
41
1
10
2.03918639297339
20
3.37469541810629
30
0
41
1
10
2.08921791078518
20
3.45899270476221
30
0
41
1
10
2.12117223526479
20
3.4983621805348
30
0
41
1
10
2.19473369693611
20
3.57038974196084
30
0
41
1
10
2.23658672504152
20
3.60346491298571
30
0
41
1
10
2.32865575051036
20
3.66492579205925
30
0
41
1
10
2.37871426990495
20
3.69314863264563
30
0
41
1
10
2.48318954329079
20
3.74468935526173
30
0
41
1
10
2.53792684458713
20
3.76819584976408
30
0
41
1
10
2.70811302310858
20
3.83347078904779
30
0
41
1
10
2.82985476440947
20
3.87015850659159
30
0
41
1
10
3.08272646579257
20
3.93398896710144
30
0
41
1
10
3.21347664601146
20
3.96102820299214
30
0
41
1
10
3.38052273052659
20
3.99064495397644
30
0
41
1
10
3.41409989022267
20
3.99635253649507
30
0
41
1
10
3.46470110393795
20
4.0046181940761
30
0
41
1
10
3.48146449625406
20
4.00741799277952
30
0
41
1
10
3.51555075757216
20
4.01260549359719
30
0
41
1
10
3.53387020813142
20
4.01450531483445
30
0
41
1
10
3.58860569134242
20
4.01788388468981
30
0
41
1
10
3.62532167880329
20
4.01732690596572
30
0
41
1
10
3.69870994331265
20
4.01676405576944
30
0
41
1
10
3.73540677908952
20
4.01644881009375
30
0
41
1
10
3.91890444215153
20
4.01470279038278
30
0
41
1
10
4.06562896073351
20
4.01276460341097
30
0
41
1
10
4.50547281991271
20
4.00528671489468
30
0
41
1
10
4.79857759414904
20
3.99808263496408
30
0
41
1
10
5.6744954134995
20
3.96920455671196
30
0
41
1
10
6.25370066097537
20
3.94038905561158
30
0
41
1
10
7.40329764979617
20
3.85714389426349
30
0
41
1
10
7.97369534786282
20
3.802668042362
30
0
41
1
10
8.82351831103344
20
3.69526744279992
30
0
41
1
10
9.10599384195311
20
3.65515969854289
30
0
41
1
10
9.66713887499307
20
3.56577357772929
30
0
41
1
10
9.94606811000807
20
3.51647844705016
30
0
41
1
10
10.7785067687331
20
3.35372209342799
30
0
41
1
10
11.3276619870338
20
3.22529433807586
30
0
41
1
10
11.8730679613724
20
3.07566649200638
30
0
0
SPLINE
5
B4
100
AcDbEntity
8
1
62
256
6
ByLayer
370
18
48
1
60
0
100
AcDbSpline
70
4
71
3
72
12
73
8
40
0
40
0
40
0
40
0
40
0.222772105850368
40
0.222772105850368
40
0.924398082263371
40
0.924398082263371
40
1
40
1
40
1
40
1
41
1
10
34.0525898159733
20
-4.04394250143511
30
0
41
1
10
33.6708769856762
20
-4.04326409973982
30
0
41
1
10
33.2891743925011
20
-4.03080720730526
30
0
41
1
10
31.7031522378266
20
-3.93025257348503
30
0
41
1
10
30.5162834678598
20
-3.73859132523728
30
0
41
1
10
29.2003929306924
20
-3.41786146653808
30
0
41
1
10
29.0723874058261
20
-3.38553088498662
30
0
41
1
10
28.944350765596
20
-3.35209452245451
30
0
0
SPLINE
5
B5
100
AcDbEntity
8
1
62
256
6
ByLayer
370
13
48
1
60
0
100
AcDbSpline
70
4
71
3
72
22
73
18
40
0
40
0
40
0
40
0
40
0.111552700308097
40
0.111552700308097
40
0.182651105031794
40
0.182651105031794
40
0.25374950975549
40
0.25374950975549
40
0.538143128650277
40
0.538143128650277
40
0.68033993809767
40
0.68033993809767
40
0.751438342821367
40
0.751438342821367
40
0.822536747545063
40
0.822536747545063
40
1
40
1
40
1
40
1
41
1
10
28.9443507653162
20
-3.35209452238146
30
0
41
1
10
28.4782633714382
20
-3.2303772776452
30
0
41
1
10
28.0117636512405
20
-3.0940067379841
30
0
41
1
10
27.2453771197316
20
-2.84886090615549
30
0
41
1
10
26.9464328291411
20
-2.74800795969745
30
0
41
1
10
26.346842140744
20
-2.53614115747567
30
0
41
1
10
26.0454613529094
20
-2.42484521555232
30
0
41
1
10
24.5440273698243
20
-1.84977083498242
30
0
41
1
10
23.3582736064084
20
-1.32918630816127
30
0
41
1
10
21.5758560513121
20
-0.514015592825729
30
0
41
1
10
20.9811933237273
20
-0.236399258626989
30
0
41
1
10
20.0848739453164
20
0.181255940642672
30
0
41
1
10
19.78540571387
20
0.320730243742503
30
0
41
1
10
19.1845225081698
20
0.598951586932913
30
0
41
1
10
18.8831745005538
20
0.737590704630691
30
0
41
1
10
17.8351505041734
20
1.21409665193622
30
0
41
1
10
17.0923038368893
20
1.54188273093635
30
0
41
1
10
16.3505231684246
20
1.84883694075231
30
0
0
SPLINE
5
B6
100
AcDbEntity
8
1
62
256
6
ByLayer
370
18
48
1
60
0
100
AcDbSpline
70
4
71
3
72
8
73
4
40
0
40
0
40
0
40
0
40
1
40
1
40
1
40
1
41
1
10
62.9999615590823
20
0.0417744723143869
30
0
41
1
10
63.0000128165425
20
0.0139232464022143
30
0
41
1
10
63.0000128098374
20
-0.013926889698098
30
0
41
1
10
62.9999615590823
20
-0.0417744723018814
30
0
0
SPLINE
5
B7
100
AcDbEntity
8
1
62
256
6
ByLayer
370
18
48
1
60
0
100
AcDbSpline
70
4
71
3
72
22
73
18
40
0
40
0
40
0
40
0
40
0.125
40
0.125
40
0.25
40
0.25
40
0.375
40
0.375
40
0.5
40
0.5
40
0.625
40
0.625
40
0.75
40
0.75
40
0.875
40
0.875
40
1
40
1
40
1
40
1
41
1
10
4.25144356216322
20
1.14588319826186
30
0
41
1
10
4.5469890530415
20
0.950147729132368
30
0
41
1
10
4.84951466291531
20
0.762135702364589
30
0
41
1
10
5.46326184090225
20
0.394934867490946
30
0
41
1
10
5.77514735464837
20
0.215536506423661
30
0
41
1
10
6.40276183752468
20
-0.135245353491712
30
0
41
1
10
6.71792175446816
20
-0.306229902666899
30
0
41
1
10
7.35064043798471
20
-0.640524149993126
30
0
41
1
10
7.66812252354239
20
-0.804141546315662
30
0
41
1
10
8.30606443470535
20
-1.12248901847266
30
0
41
1
10
8.62683758985031
20
-1.27746067843421
30
0
41
1
10
9.27051269678998
20
-1.57722440399641
30
0
41
1
10
9.59274011363595
20
-1.72174563412545
30
0
41
1
10
10.2391249661693
20
-1.99725879841247
30
0
41
1
10
10.5633330468789
20
-2.12855833880707
30
0
41
1
10
11.2152329519341
20
-2.37723580541561
30
0
41
1
10
11.5429028781634
20
-2.49428568759839
30
0
41
1
10
11.8730679613724
20
-2.60315257805976
30
0
0
SPLINE
5
B8
100
AcDbEntity
8
1
62
256
6
ByLayer
370
18
48
1
60
0
100
AcDbSpline
70
4
71
3
72
10
73
6
40
0
40
0
40
0
40
0
40
0.5
40
0.5
40
1
40
1
40
1
40
1
41
1
10
61.5633270941924
20
1.02057389762908
30
0
41
1
10
61.7940912154357
20
1.01190329536359
30
0
41
1
10
62.0248104380731
20
1.00376672717368
30
0
41
1
10
62.4863044140441
20
0.986833096255992
30
0
41
1
10
62.7170606870665
20
0.978255842488835
30
0
41
1
10
62.9477780871551
20
0.970140952100252
30
0
0
SPLINE
5
B9
100
AcDbEntity
8
1
62
256
6
ByLayer
370
13
48
1
60
0
100
AcDbSpline
70
4
71
3
72
8
73
4
40
0
40
0
40
0
40
0
40
1
40
1
40
1
40
1
41
1
10
4.13999834405936
20
-4.06333293919584
30
0
41
1
10
4.14070559714321
20
-4.03153104706499
30
0
41
1
10
4.14141773510318
20
-3.99972751783238
30
0
41
1
10
4.14213475024351
20
-3.96792230504025
30
0
0
SPLINE
5
BA
100
AcDbEntity
8
1
62
256
6
ByLayer
370
18
48
1
60
0
100
AcDbSpline
70
4
71
3
72
18
73
14
40
0
40
0
40
0
40
0
40
0.0141333920240198
40
0.0141333920240198
40
0.253683058711746
40
0.253683058711746
40
0.732782392087203
40
0.732782392087203
40
0.852557225431064
40
0.852557225431064
40
0.972332058774925
40
0.972332058774925
40
1
40
1
40
1
40
1
41
1
10
20.2449071101902
20
-0.0015816660715871
30
0
41
1
10
20.2802033825007
20
-0.0184322833639499
30
0
41
1
10
20.3154892534152
20
-0.0352774965841718
30
0
41
1
10
20.9486645666759
20
-0.337519461267334
30
0
41
1
10
21.5435497855302
20
-0.621405861983789
30
0
41
1
10
23.3266914961368
20
-1.45276344342199
30
0
41
1
10
24.5128112296081
20
-1.98105237949596
30
0
41
1
10
26.0156956206235
20
-2.56094516913794
30
0
41
1
10
26.3173531975419
20
-2.67296227881857
30
0
41
1
10
26.9173409306007
20
-2.88573935792755
30
0
41
1
10
27.2164544627572
20
-2.98676886654675
30
0
41
1
10
27.5838806966526
20
-3.10412039609642
30
0
41
1
10
27.652793510711
20
-3.12583953375957
30
0
41
1
10
27.7216747746859
20
-3.14725228229872
30
0
0
SPLINE
5
BB
100
AcDbEntity
8
1
62
256
6
ByLayer
370
13
48
1
60
0
100
AcDbSpline
70
4
71
3
72
16
73
12
40
0
40
0
40
0
40
0
40
0.201526578732096
40
0.201526578732096
40
0.657211226956582
40
0.657211226956582
40
0.885053551068827
40
0.885053551068827
40
0.99897471312495
40
0.99897471312495
40
1
40
1
40
1
40
1
41
1
10
27.7216747747622
20
-3.14725228232254
30
0
41
1
10
28.2491690665709
20
-3.3112315994029
30
0
41
1
10
28.7748130938372
20
-3.45724263022143
30
0
41
1
10
30.4887429524175
20
-3.86855734693251
30
0
41
1
10
31.6760651086289
20
-4.05213097536824
30
0
41
1
10
33.4837453610842
20
-4.14907310290047
30
0
41
1
10
34.0847431447883
20
-4.15135058071576
30
0
41
1
10
34.9877025168926
20
-4.10985704824171
30
0
41
1
10
35.2892347548728
20
-4.08847246644532
30
0
41
1
10
35.5920748523656
20
-4.05959620225411
30
0
41
1
10
35.59477601445
20
-4.05933804932243
30
0
41
1
10
35.597477098575
20
-4.05907931102385
30
0
0
SPLINE
5
BC
100
AcDbEntity
8
1
62
256
6
ByLayer
370
18
48
1
60
0
100
AcDbSpline
70
4
71
3
72
14
73
10
40
0
40
0
40
0
40
0
40
0.25
40
0.25
40
0.5
40
0.5
40
0.75
40
0.75
40
1
40
1
40
1
40
1
41
1
10
61.5528717291933
20
-4.05904894327006
30
0
41
1
10
61.5562003859078
20
-4.05860713350808
30
0
41
1
10
61.5588656073243
20
-4.05989777621832
30
0
41
1
10
61.562471914823
20
-4.0669573733793
30
0
41
1
10
61.5633557235953
20
-4.07282542551894
30
0
41
1
10
61.5622423100289
20
-4.08995354613666
30
0
41
1
10
61.5601883534198
20
-4.10117812082592
30
0
41
1
10
61.5533544744637
20
-4.12631273587951
30
0
41
1
10
61.5486165786944
20
-4.14010102052228
30
0
41
1
10
61.5433710626553
20
-4.1532431870495
30
0
0
SPLINE
5
BD
100
AcDbEntity
8
1
62
256
6
ByLayer
370
18
48
1
60
0
100
AcDbSpline
70
4
71
3
72
8
73
4
40
0
40
0
40
0
40
0
40
1
40
1
40
1
40
1
41
1
10
61.497065718804
20
4.26895863024234
30
0
41
1
10
61.3447835933101
20
4.27282035160383
30
0
41
1
10
61.1925079233736
20
4.27469327800105
30
0
41
1
10
61.040202268173
20
4.27457991039873
30
0
0
SPLINE
5
BE
100
AcDbEntity
8
1
62
256
6
ByLayer
370
18
48
1
60
0
100
AcDbSpline
70
4
71
3
72
50
73
46
40
0
40
0
40
0
40
0
40
0.0020731944382134
40
0.0020731944382134
40
0.0621694239054666
40
0.0621694239054666
40
0.0922175386390927
40
0.0922175386390927
40
0.122265653372719
40
0.122265653372719
40
0.18236188283997
40
0.18236188283997
40
0.212409997573596
40
0.212409997573596
40
0.242458112307222
40
0.242458112307222
40
0.302554341774474
40
0.302554341774474
40
0.362650571241726
40
0.362650571241726
40
0.392698685975352
40
0.392698685975352
40
0.422746800708978
40
0.422746800708978
40
0.482843030176229
40
0.482843030176229
40
0.60303548911073
40
0.60303548911073
40
0.663131718577981
40
0.663131718577981
40
0.723227948045232
40
0.723227948045232
40
0.753276062778858
40
0.753276062778858
40
0.783324177512483
40
0.783324177512483
40
0.843420406979734
40
0.843420406979734
40
0.873468521713359
40
0.873468521713359
40
0.903516636446984
40
0.903516636446984
40
0.963612865914235
40
0.963612865914235
40
1
40
1
40
1
40
1
41
1
10
36.4306392629019
20
-4.07019139636827
30
0
41
1
10
36.4099986281277
20
-4.07317090518865
30
0
41
1
10
36.3893603968554
20
-4.0761151315032
30
0
41
1
10
35.7705537851495
20
-4.1633424490341
30
0
41
1
10
35.1733484977936
20
-4.21825629973748
30
0
41
1
10
34.2752999627724
20
-4.25504592309662
30
0
41
1
10
33.9752181940971
20
-4.25970512100574
30
0
41
1
10
33.3761081875276
20
-4.25368587086678
30
0
41
1
10
33.0769877591132
20
-4.24303649270786
30
0
41
1
10
32.180034499989
20
-4.18845107592696
30
0
41
1
10
31.5826470552474
20
-4.12183409066458
30
0
41
1
10
30.6835725028952
20
-3.97806950791937
30
0
41
1
10
30.3835696580144
20
-3.92284007901392
30
0
41
1
10
29.7849715724172
20
-3.79878632723182
30
0
41
1
10
29.4859996102863
20
-3.72991913843245
30
0
41
1
10
28.5891179291394
20
-3.50379546684371
30
0
41
1
10
27.9909980896627
20
-3.3266764383649
30
0
41
1
10
26.7913232080053
20
-2.92674883245982
30
0
41
1
10
26.1937693250196
20
-2.70481523101319
30
0
41
1
10
25.2967373870725
20
-2.34556094279958
30
0
41
1
10
24.997667792246
20
-2.22132699843735
30
0
41
1
10
24.3986963709816
20
-1.96508505628046
30
0
41
1
10
24.0982988660549
20
-1.83286649927501
30
0
41
1
10
23.2010578506404
20
-1.42886463907252
30
0
41
1
10
22.6068888379249
20
-1.14904109559106
30
0
41
1
10
20.8285375787541
20
-0.294288438551774
30
0
41
1
10
19.6490796641688
20
0.297117132215647
30
0
41
1
10
17.8599688104279
20
1.15589359089029
30
0
41
1
10
17.2587995865826
20
1.43837917730983
30
0
41
1
10
16.0618065929815
20
1.97559669549327
30
0
41
1
10
15.4643681893455
20
2.23154424123254
30
0
41
1
10
14.5659280303181
20
2.58952975061416
30
0
41
1
10
14.2656793224845
20
2.70466436700366
30
0
41
1
10
13.6661705117771
20
2.92448954790143
30
0
41
1
10
13.3668896152891
20
3.02917660772857
30
0
41
1
10
12.4694131717597
20
3.32613187426188
30
0
41
1
10
11.8717161633648
20
3.50146556548435
30
0
41
1
10
10.9722874213492
20
3.72563947731024
30
0
41
1
10
10.6720522272467
20
3.79384210566431
30
0
41
1
10
10.0746991819059
20
3.91580439257578
30
0
41
1
10
9.77699188448474
20
3.96970428541897
30
0
41
1
10
8.88578181853546
20
4.10975623020983
30
0
41
1
10
8.29432414546096
20
4.17433245746119
30
0
41
1
10
7.34513569596774
20
4.23062432687732
30
0
41
1
10
6.987249085478
20
4.24102158357016
30
0
41
1
10
6.62893171895237
20
4.24053474399165
30
0
0
SPLINE
5
BF
100
AcDbEntity
8
1
62
256
6
ByLayer
370
18
48
1
60
0
100
AcDbSpline
70
4
71
3
72
10
73
6
40
0
40
0
40
0
40
0
40
0.5
40
0.5
40
1
40
1
40
1
40
1
41
1
10
4.13999834405931
20
-4.06333293919681
30
0
41
1
10
4.10691530980606
20
-4.05869472127492
30
0
41
1
10
4.07794485240402
20
-4.05195452149283
30
0
41
1
10
4.03233879066849
20
-4.03489057606799
30
0
41
1
10
4.01576942010269
20
-4.02449125626489
30
0
41
1
10
4.00714821006099
20
-4.01311820265147
30
0
0
SPLINE
5
C0
100
AcDbEntity
8
1
62
256
6
ByLayer
370
18
48
1
60
0
100
AcDbSpline
70
4
71
3
72
8
73
4
40
0
40
0
40
0
40
0
40
1
40
1
40
1
40
1
41
1
10
62.9895144025299
20
0.117763170096197
30
0
41
1
10
62.9901821960379
20
0.0960821039052746
30
0
41
1
10
62.9941482723999
20
0.0696331953818685
30
0
41
1
10
62.9999615590797
20
0.0417744723248745
30
0
0
SPLINE
5
C1
100
AcDbEntity
8
1
62
256
6
ByLayer
370
18
48
1
60
0
100
AcDbSpline
70
4
71
3
72
42
73
38
40
0
40
0
40
0
40
0
40
0.102954033474256
40
0.102954033474256
40
0.154431050211383
40
0.154431050211383
40
0.205908066948511
40
0.205908066948511
40
0.257385083685638
40
0.257385083685638
40
0.308862100422766
40
0.308862100422766
40
0.360339117159893
40
0.360339117159893
40
0.41181613389702
40
0.41181613389702
40
0.463293150634148
40
0.463293150634148
40
0.514770167371275
40
0.514770167371275
40
0.566247184108402
40
0.566247184108402
40
0.61772420084553
40
0.61772420084553
40
0.669201217582657
40
0.669201217582657
40
0.720678234319785
40
0.720678234319785
40
0.772155251056912
40
0.772155251056912
40
0.823632267794039
40
0.823632267794039
40
0.926586301268291
40
0.926586301268291
40
0.978063318005418
40
0.978063318005418
40
1
40
1
40
1
40
1
41
1
10
11.8730679613724
20
-2.60315257805976
30
0
41
1
10
12.3497061069559
20
-2.77276900001047
30
0
41
1
10
12.8255391603894
20
-2.9299912994465
30
0
41
1
10
13.5380913271132
20
-3.14526366237047
30
0
41
1
10
13.775400259823
20
-3.21354797403882
30
0
41
1
10
14.2505357303985
20
-3.3426477224362
30
0
41
1
10
14.4883475688862
20
-3.40357744582016
30
0
41
1
10
14.9643328783337
20
-3.51771977273072
30
0
41
1
10
15.2027012822679
20
-3.57084043210466
30
0
41
1
10
15.6789717554257
20
-3.66886414061975
30
0
41
1
10
15.9167452709989
20
-3.71379149428776
30
0
41
1
10
16.3923894375652
20
-3.79525442099327
30
0
41
1
10
16.6301372433354
20
-3.83177657332766
30
0
41
1
10
17.1053595748441
20
-3.89571545927203
30
0
41
1
10
17.3428289735845
20
-3.92321583165958
30
0
41
1
10
17.8178883378742
20
-3.97011635237544
30
0
41
1
10
18.0556812795874
20
-3.98948526456206
30
0
41
1
10
18.5318907327895
20
-4.01759711157953
30
0
41
1
10
18.7705774867416
20
-4.02680567655315
30
0
41
1
10
19.2462701808738
20
-4.03667224533325
30
0
41
1
10
19.4834257616001
20
-4.03758949121581
30
0
41
1
10
19.9570599225693
20
-4.03056738405783
30
0
41
1
10
20.1934120209665
20
-4.02172249777837
30
0
41
1
10
20.6654472002957
20
-3.99519418349638
30
0
41
1
10
20.9011170718793
20
-3.97754109391846
30
0
41
1
10
21.3719247670225
20
-3.93446993293478
30
0
41
1
10
21.607061589244
20
-3.90914372762245
30
0
41
1
10
22.0774332090356
20
-3.84790470548037
30
0
41
1
10
22.3126507012958
20
-3.81267557252502
30
0
41
1
10
22.7831507332592
20
-3.73463172157076
30
0
41
1
10
23.0184278276954
20
-3.691950943368
30
0
41
1
10
23.7244779286697
20
-3.55181475895728
30
0
41
1
10
24.1966506690144
20
-3.43888667302284
30
0
41
1
10
24.9072922249628
20
-3.25051829136609
30
0
41
1
10
25.1444066101112
20
-3.18455131490873
30
0
41
1
10
25.4837201701272
20
-3.08333457055042
30
0
41
1
10
25.5852584565721
20
-3.05234720825538
30
0
41
1
10
25.6868398610685
20
-3.02073633255444
30
0
0
SPLINE
5
C2
100
AcDbEntity
8
1
62
256
6
ByLayer
370
18
48
1
60
0
100
AcDbSpline
70
4
71
3
72
32
73
28
40
0
40
0
40
0
40
0
40
0.0627301396747439
40
0.0627301396747439
40
0.129677986840834
40
0.129677986840834
40
0.196625834006924
40
0.196625834006924
40
0.263573681173014
40
0.263573681173014
40
0.330521528339104
40
0.330521528339104
40
0.464417222671282
40
0.464417222671282
40
0.531365069837371
40
0.531365069837371
40
0.598312917003459
40
0.598312917003459
40
0.73220861133564
40
0.73220861133564
40
0.79915645850173
40
0.79915645850173
40
0.86610430566782
40
0.86610430566782
40
0.93305215283391
40
0.93305215283391
40
1
40
1
40
1
40
1
41
1
10
46.8448346119126
20
4.04995157320948
30
0
41
1
10
47.0676957822436
20
4.04687517938149
30
0
41
1
10
47.2904502363408
20
4.03966580320179
30
0
41
1
10
47.7507135372372
20
4.01714557238913
30
0
41
1
10
47.9881840072886
20
4.00137884499438
30
0
41
1
10
48.4630418606665
20
3.95987283766846
30
0
41
1
10
48.7006840084808
20
3.93441423033178
30
0
41
1
10
49.1765673434271
20
3.87550323383755
30
0
41
1
10
49.4148795933764
20
3.84234729429863
30
0
41
1
10
49.8913661928602
20
3.76716363143058
30
0
41
1
10
50.1289808043849
20
3.72450307339443
30
0
41
1
10
50.8415755613792
20
3.58327785562969
30
0
41
1
10
51.3164519982257
20
3.47230766437744
30
0
41
1
10
52.0286536132225
20
3.28356124632998
30
0
41
1
10
52.2660555719039
20
3.21689181428096
30
0
41
1
10
52.7417559761709
20
3.077696266738
30
0
41
1
10
52.9801837122429
20
3.00496153176914
30
0
41
1
10
53.6941862212473
20
2.77562790131611
30
0
41
1
10
54.1681987973948
20
2.60750005119064
30
0
41
1
10
54.8802188898525
20
2.34078841296326
30
0
41
1
10
55.117597319387
20
2.24921663273162
30
0
41
1
10
55.5924328586252
20
2.06070985840935
30
0
41
1
10
55.8298151142405
20
1.96363778532566
30
0
41
1
10
56.3053343732468
20
1.76563471358324
30
0
41
1
10
56.5436418738518
20
1.66482586071399
30
0
41
1
10
57.0186562339878
20
1.46026826549496
30
0
41
1
10
57.2556090768252
20
1.35630113517459
30
0
41
1
10
57.4920915679441
20
1.25084748587329
30
0
0
SPLINE
5
C3
100
AcDbEntity
8
1
62
256
6
ByLayer
370
18
48
1
60
0
100
AcDbSpline
70
4
71
3
72
10
73
6
40
0
40
0
40
0
40
0
40
0.5
40
0.5
40
1
40
1
40
1
40
1
41
1
10
61.7124868151707
20
-4.1587132159845
30
0
41
1
10
61.6729730375043
20
-4.18815729444415
30
0
41
1
10
61.6351156452029
20
-4.21235598530677
30
0
41
1
10
61.5627251586334
20
-4.24952828122358
30
0
41
1
10
61.5288220327971
20
-4.26217495563546
30
0
41
1
10
61.497065718804
20
-4.26895863024234
30
0
0
SPLINE
5
C4
100
AcDbEntity
8
1
62
256
6
ByLayer
370
18
48
1
60
0
100
AcDbSpline
70
4
71
3
72
10
73
6
40
0
40
0
40
0
40
0
40
0.5
40
0.5
40
1
40
1
40
1
40
1
41
1
10
61.7124868151708
20
4.15871321598445
30
0
41
1
10
61.6729730375044
20
4.1881572944441
30
0
41
1
10
61.635115645203
20
4.21235598530674
30
0
41
1
10
61.5627251586334
20
4.24952828122358
30
0
41
1
10
61.5288220327972
20
4.26217495563543
30
0
41
1
10
61.497065718804
20
4.26895863024234
30
0
0
SPLINE
5
C5
100
AcDbEntity
8
1
62
256
6
ByLayer
370
18
48
1
60
0
100
AcDbSpline
70
4
71
3
72
94
73
90
40
0
40
0
40
0
40
0
40
0.0120358776449345
40
0.0120358776449345
40
0.0333007194289428
40
0.0333007194289428
40
0.0758304029969605
40
0.0758304029969605
40
0.0970952447809694
40
0.0970952447809694
40
0.118360086564978
40
0.118360086564978
40
0.139624928348987
40
0.139624928348987
40
0.160889770132996
40
0.160889770132996
40
0.182154611917005
40
0.182154611917005
40
0.203419453701014
40
0.203419453701014
40
0.224684295485022
40
0.224684295485022
40
0.245949137269031
40
0.245949137269031
40
0.26721397905304
40
0.26721397905304
40
0.288478820837049
40
0.288478820837049
40
0.331008504405067
40
0.331008504405067
40
0.352273346189076
40
0.352273346189076
40
0.373538187973085
40
0.373538187973085
40
0.416067871541104
40
0.416067871541104
40
0.458597555109123
40
0.458597555109123
40
0.479862396893132
40
0.479862396893132
40
0.501127238677141
40
0.501127238677141
40
0.52239208046115
40
0.52239208046115
40
0.543656922245158
40
0.543656922245158
40
0.564921764029167
40
0.564921764029167
40
0.586186605813176
40
0.586186605813176
40
0.607451447597185
40
0.607451447597185
40
0.628716289381194
40
0.628716289381194
40
0.649981131165203
40
0.649981131165203
40
0.671245972949212
40
0.671245972949212
40
0.692510814733221
40
0.692510814733221
40
0.71377565651723
40
0.71377565651723
40
0.735040498301238
40
0.735040498301238
40
0.756305340085247
40
0.756305340085247
40
0.777570181869256
40
0.777570181869256
40
0.798835023653265
40
0.798835023653265
40
0.820099865437274
40
0.820099865437274
40
0.841364707221283
40
0.841364707221283
40
0.862629549005292
40
0.862629549005292
40
0.8838943907893
40
0.8838943907893
40
0.905159232573309
40
0.905159232573309
40
0.926424074357319
40
0.926424074357319
40
0.947688916141328
40
0.947688916141328
40
0.968953757925337
40
0.968953757925337
40
0.990218599709347
40
0.990218599709347
40
1
40
1
40
1
40
1
41
1
10
52.8981029877938
20
-3.02909175634787
30
0
41
1
10
52.7633614761507
20
-3.07052134945116
30
0
41
1
10
52.6285729691143
20
-3.11086070014994
30
0
41
1
10
52.2555808677133
20
-3.21987105683212
30
0
41
1
10
52.0173020649156
20
-3.28669669813365
30
0
41
1
10
51.3020206371568
20
-3.47586791124382
30
0
41
1
10
50.8259371913073
20
-3.5867595533
30
0
41
1
10
50.112944871132
20
-3.72748018642289
30
0
41
1
10
49.8754250864301
20
-3.76988716857858
30
0
41
1
10
49.3996315139725
20
-3.84453090640736
30
0
41
1
10
49.1614909820816
20
-3.87753645523756
30
0
41
1
10
48.6849063439822
20
-3.93618936158345
30
0
41
1
10
48.44625543785
20
-3.96156594015483
30
0
41
1
10
47.9698673032174
20
-4.00273674868319
30
0
41
1
10
47.7318583235653
20
-4.01828796269177
30
0
41
1
10
47.2559626758094
20
-4.04111496015474
30
0
41
1
10
47.0180963675363
20
-4.04830158675259
30
0
41
1
10
46.5425827706028
20
-4.05315033762017
30
0
41
1
10
46.3050205978939
20
-4.05058309068716
30
0
41
1
10
45.8292996019081
20
-4.03547761069208
30
0
41
1
10
45.5911958288781
20
-4.02383052894345
30
0
41
1
10
45.1144312444912
20
-3.99203881653142
30
0
41
1
10
44.875661643461
20
-3.97165438380026
30
0
41
1
10
44.3993885524778
20
-3.92103198549506
30
0
41
1
10
44.1616368290795
20
-3.89054216228286
30
0
41
1
10
43.6860012166167
20
-3.82268647584982
30
0
41
1
10
43.4482119314284
20
-3.78492224618964
30
0
41
1
10
42.7347872410709
20
-3.65804237955561
30
0
41
1
10
42.2594530202225
20
-3.55419877973003
30
0
41
1
10
41.5440826587135
20
-3.37810738718846
30
0
41
1
10
41.3056471022546
20
-3.315618434556
30
0
41
1
10
40.8306490317337
20
-3.18294871832882
30
0
41
1
10
40.5939223796723
20
-3.11240433585533
30
0
41
1
10
39.8846853105536
20
-2.89282154981669
30
0
41
1
10
39.4129596109652
20
-2.73490000754899
30
0
41
1
10
38.4715063054635
20
-2.39310161146858
30
0
41
1
10
38.0015970465362
20
-2.21183068540967
30
0
41
1
10
37.2952253329342
20
-1.92622771631508
30
0
41
1
10
37.0595983191032
20
-1.82848325966779
30
0
41
1
10
36.5882584244257
20
-1.62881364641902
30
0
41
1
10
36.3523924187356
20
-1.52704210800803
30
0
41
1
10
35.8794832726288
20
-1.32037212945389
30
0
41
1
10
35.6424947835836
20
-1.21539718201817
30
0
41
1
10
35.1674261514694
20
-1.00215541863628
30
0
41
1
10
34.9293927258849
20
-0.893758516709141
30
0
41
1
10
34.4528253778713
20
-0.674751813663164
30
0
41
1
10
34.2147593222658
20
-0.564768168182411
30
0
41
1
10
33.7388612058617
20
-0.344272767498012
30
0
41
1
10
33.5010168277979
20
-0.23378813219324
30
0
41
1
10
33.0257327653703
20
-0.0119281146436094
30
0
41
1
10
32.7883826421507
20
0.0996406953259168
30
0
41
1
10
32.3131185209446
20
0.321585690496164
30
0
41
1
10
32.0752086740576
20
0.431971424064443
30
0
41
1
10
31.5988657988566
20
0.651635104597631
30
0
41
1
10
31.3603030364066
20
0.761194364679625
30
0
41
1
10
30.8839432690445
20
0.979045207119071
30
0
41
1
10
30.6461510161919
20
1.08692622210901
30
0
41
1
10
30.1705038478359
20
1.29863615451558
30
0
41
1
10
29.9327150745991
20
1.40272986758765
30
0
41
1
10
29.457330055337
20
1.60830378486671
30
0
41
1
10
29.2198289326535
20
1.70995859701873
30
0
41
1
10
28.7446657703194
20
1.90897734220701
30
0
41
1
10
28.5067176143644
20
2.00558726839068
30
0
41
1
10
28.0302591704599
20
2.1947542262607
30
0
41
1
10
27.7915648690395
20
2.28726776160619
30
0
41
1
10
27.3152786470537
20
2.46738055817883
30
0
41
1
10
27.0776440561452
20
2.5550156216145
30
0
41
1
10
26.6022632440806
20
2.72209473508332
30
0
41
1
10
26.3645628645981
20
2.80255567906008
30
0
41
1
10
25.8891672440604
20
2.95794190205493
30
0
41
1
10
25.6515087921597
20
3.03289927865637
30
0
41
1
10
25.1761404698027
20
3.17542138365115
30
0
41
1
10
24.9382418864786
20
3.24202437566754
30
0
41
1
10
24.4616256781935
20
3.36890653063699
30
0
41
1
10
24.2230267581887
20
3.42910414751978
30
0
41
1
10
23.7468125985819
20
3.54182307265594
30
0
41
1
10
23.5090699189126
20
3.59433567193119
30
0
41
1
10
23.0339100933616
20
3.68909438333836
30
0
41
1
10
22.7962927910261
20
3.73233004589801
30
0
41
1
10
22.3208882332839
20
3.81142556796928
30
0
41
1
10
22.0831057493838
20
3.84712512755931
30
0
41
1
10
21.6073306041322
20
3.90914924789644
30
0
41
1
10
21.3693352672935
20
3.93476844177098
30
0
41
1
10
20.8925683982442
20
3.97826008863277
30
0
41
1
10
20.6542472784951
20
3.99598520881582
30
0
41
1
10
20.1781271050142
20
4.02241067375144
30
0
41
1
10
19.9402748157137
20
4.03104742833
30
0
41
1
10
19.5932780377075
20
4.03584144179951
30
0
41
1
10
19.4839931372806
20
4.03642066795487
30
0
41
1
10
19.3747072473788
20
4.03610410271202
30
0
0
SPLINE
5
C6
100
AcDbEntity
8
1
62
256
6
ByLayer
370
18
48
1
60
0
100
AcDbSpline
70
4
71
3
72
31
73
27
40
0
40
0
40
0
40
0
40
0.0624999999999999
40
0.0624999999999999
40
0.125
40
0.125
40
0.25
40
0.25
40
0.3125
40
0.3125
40
0.375
40
0.437499999999999
40
0.437499999999999
40
0.499999999999999
40
0.499999999999999
40
0.624999999999999
40
0.624999999999999
40
0.687499999999999
40
0.687499999999999
40
0.75
40
0.75
40
0.875
40
0.875
40
0.9375
40
0.9375
40
1
40
1
40
1
40
1
41
1
10
4.00269609210579
20
-4.00113885226364
30
0
41
1
10
4.00270269799131
20
-3.95638548828859
30
0
41
1
10
4.00270913039745
20
-3.90533733237959
30
0
41
1
10
4.00272155432631
20
-3.79197174203029
30
0
41
1
10
4.00272753462758
20
-3.72982162438859
30
0
41
1
10
4.00274489532461
20
-3.52742097945449
30
0
41
1
10
4.00275569867242
20
-3.37136315830102
30
0
41
1
10
4.0027711255637
20
-3.10476141706792
30
0
41
1
10
4.00277612921926
20
-3.01047973657978
30
0
41
1
10
4.00278572686304
20
-2.8150210885961
30
0
41
1
10
4.00279497138189
20
-2.61172921259126
30
0
41
1
10
4.0028036371026
20
-2.39301056042112
30
0
41
1
10
4.00281206172929
20
-2.16648851567635
30
0
41
1
10
4.00281616897581
20
-2.0488500883634
30
0
41
1
10
4.00282807294261
20
-1.68706032156942
30
0
41
1
10
4.00283535259564
20
-1.4377150047481
30
0
41
1
10
4.00284546496604
20
-1.05187253766624
30
0
41
1
10
4.00284869858606
20
-0.921274071320624
30
0
41
1
10
4.00285488945138
20
-0.656012068728359
30
0
41
1
10
4.002857849397
20
-0.521109681521864
30
0
41
1
10
4.0028661092586
20
-0.118877153329748
30
0
41
1
10
4.00287086999674
20
0.148797587535597
30
0
41
1
10
4.00287672730767
20
0.549595564770158
30
0
41
1
10
4.00287846585533
20
0.683334548175822
30
0
41
1
10
4.00288143233362
20
0.949468928666676
30
0
41
1
10
4.00288264282995
20
1.08024265617289
30
0
41
1
10
4.00288356109635
20
1.20879731590145
30
0
0
SPLINE
5
C7
100
AcDbEntity
8
1
62
256
6
ByLayer
370
13
48
1
60
0
100
AcDbSpline
70
4
71
3
72
31
73
27
40
0
40
0
40
0
40
0
40
0.125
40
0.125
40
0.1875
40
0.1875
40
0.25
40
0.3125
40
0.3125
40
0.375000000000001
40
0.375000000000001
40
0.500000000000001
40
0.500000000000001
40
0.562500000000001
40
0.562500000000001
40
0.625000000000001
40
0.625000000000001
40
0.687500000000001
40
0.687500000000001
40
0.750000000000001
40
0.750000000000001
40
0.875
40
0.875
40
0.9375
40
0.9375
40
1
40
1
40
1
40
1
41
1
10
4.25032989823785
20
-3.84206780379731
30
0
41
1
10
4.25041106338082
20
-3.76367441784794
30
0
41
1
10
4.25048608670153
20
-3.66177422096735
30
0
41
1
10
4.25059213931766
20
-3.47398650780761
30
0
41
1
10
4.25062637449213
20
-3.4054891470133
30
0
41
1
10
4.2506919068035
20
-3.25932300703096
30
0
41
1
10
4.25075483636249
20
-3.10343031086464
30
0
41
1
10
4.2508135425137
20
-2.92838670659867
30
0
41
1
10
4.25087054719546
20
-2.743647550037
30
0
41
1
10
4.25089832507149
20
-2.64594046104659
30
0
41
1
10
4.25097869021494
20
-2.34126534353169
30
0
41
1
10
4.25102788383467
20
-2.12505582559641
30
0
41
1
10
4.25109715876954
20
-1.78168618145517
30
0
41
1
10
4.25111948188285
20
-1.66403121193031
30
0
41
1
10
4.25116275761883
20
-1.42214673823199
30
0
41
1
10
4.25118366616942
20
-1.2980979136224
30
0
41
1
10
4.25122353731064
20
-1.04738038303702
30
0
41
1
10
4.25124259388946
20
-0.920188783385015
30
0
41
1
10
4.25127892519029
20
-0.662369264243807
30
0
41
1
10
4.25129615281733
20
-0.532022689689796
30
0
41
1
10
4.25134440760775
20
-0.140908034261429
30
0
41
1
10
4.2513719515303
20
0.118649084214951
30
0
41
1
10
4.25140541919887
20
0.50625638698196
30
0
41
1
10
4.25141524944604
20
0.635168721109324
30
0
41
1
10
4.25143187679146
20
0.892396674187864
30
0
41
1
10
4.25143863630512
20
1.0203807871334
30
0
41
1
10
4.25144356194645
20
1.14588319840442
30
0
0
SPLINE
5
C8
100
AcDbEntity
8
1
62
256
6
ByLayer
370
18
48
1
60
0
100
AcDbSpline
70
4
71
3
72
8
73
4
40
0
40
0
40
0
40
0
40
1
40
1
40
1
40
1
41
1
10
62.9642469186298
20
-0.0480546853679584
30
0
41
1
10
62.3432612327983
20
-1.06470044140556
30
0
41
1
10
61.7615848982616
20
-2.1170415891732
30
0
41
1
10
61.2206012446848
20
-3.20633428001031
30
0
0
SPLINE
5
C9
100
AcDbEntity
8
1
62
256
6
ByLayer
370
18
48
1
60
0
100
AcDbSpline
70
4
71
3
72
36
73
32
40
0
40
0
40
0
40
0
40
0.249999999999985
40
0.249999999999985
40
0.312499999999983
40
0.312499999999983
40
0.374999999999981
40
0.374999999999981
40
0.499999999999982
40
0.499999999999982
40
0.562499999999983
40
0.562499999999983
40
0.624999999999983
40
0.624999999999983
40
0.749999999999979
40
0.749999999999979
40
0.812499999999979
40
0.812499999999979
40
0.843749999999979
40
0.843749999999979
40
0.85156249999998
40
0.85156249999998
40
0.85937499999998
40
0.85937499999998
40
0.86718749999998
40
0.86718749999998
40
0.871093749999981
40
0.871093749999981
40
0.874999999999981
40
0.874999999999981
40
1
40
1
40
1
40
1
41
1
10
57.4920915679449
20
1.25084748587426
30
0
41
1
10
57.8452742989408
20
0.975906977262326
30
0
41
1
10
58.2127661521142
20
0.739018400015453
30
0
41
1
10
58.6921385769482
20
0.49611346780793
30
0
41
1
10
58.7889016108316
20
0.450283442448892
30
0
41
1
10
58.9821979519299
20
0.365161331871349
30
0
41
1
10
59.0790045315121
20
0.325731306089551
30
0
41
1
10
59.3699125620594
20
0.217092547282448
30
0
41
1
10
59.5644938881488
20
0.157368773196651
30
0
41
1
10
59.8574756979282
20
0.0897192423627757
30
0
41
1
10
59.9553247161692
20
0.0708935100255417
30
0
41
1
10
60.1514232426487
20
0.0411579196906757
30
0
41
1
10
60.2499541428751
20
0.0302539517342666
30
0
41
1
10
60.5426753784044
20
0.0108842406099825
30
0
41
1
10
60.7347933875481
20
0.0153364549113633
30
0
41
1
10
61.0175690698692
20
0.0529758653892713
30
0
41
1
10
61.1106048688484
20
0.0707005783569628
30
0
41
1
10
61.2474708612532
20
0.105688007090038
30
0
41
1
10
61.2926260102584
20
0.118744486541175
30
0
41
1
10
61.3484028277262
20
0.136876580054832
30
0
41
1
10
61.3595215761506
20
0.140604184060777
30
0
41
1
10
61.3817748490811
20
0.148008304937463
30
0
41
1
10
61.3931373070246
20
0.151630828957849
30
0
41
1
10
61.4120533657464
20
0.165519249231096
30
0
41
1
10
61.4198967123669
20
0.175891476268333
30
0
41
1
10
61.4247380581394
20
0.195643871400023
30
0
41
1
10
61.4252744849879
20
0.202725811421516
30
0
41
1
10
61.4262712213014
20
0.216921117251019
30
0
41
1
10
61.4269123553347
20
0.223970939774063
30
0
41
1
10
61.4463715411719
20
0.457184037993955
30
0
41
1
10
61.444564210753
20
0.690176878830414
30
0
41
1
10
61.428693502523
20
0.923987408020821
30
0
0
SPLINE
5
CA
100
AcDbEntity
8
1
62
256
6
ByLayer
370
18
48
1
60
0
100
AcDbSpline
70
4
71
3
72
18
73
14
40
0
40
0
40
0
40
0
40
0.267961777396568
40
0.267961777396568
40
0.401942666094852
40
0.401942666094852
40
0.535923554793136
40
0.535923554793136
40
0.803885332189704
40
0.803885332189704
40
0.937866220887988
40
0.937866220887988
40
1
40
1
40
1
40
1
41
1
10
61.2206012446847
20
-3.20633428001031
30
0
41
1
10
61.2203683146602
20
-3.35175087137623
30
0
41
1
10
61.2268859262682
20
-3.47934143837051
30
0
41
1
10
61.2470809263296
20
-3.64449930549989
30
0
41
1
10
61.2555621637924
20
-3.69515589448386
30
0
41
1
10
61.2762388790948
20
-3.78745899346436
30
0
41
1
10
61.2883726253843
20
-3.82872553834909
30
0
41
1
10
61.3297879395138
20
-3.93688845722235
30
0
41
1
10
61.3641875694498
20
-3.98893709761205
30
0
41
1
10
61.4267272560542
20
-4.03764827392169
30
0
41
1
10
61.4494717106577
20
-4.04897844686485
30
0
41
1
10
61.4854199614095
20
-4.0581699585656
30
0
41
1
10
61.4971752984666
20
-4.0599962731132
30
0
41
1
10
61.5093024511857
20
-4.06074664367895
30
0
0
SPLINE
5
CB
100
AcDbEntity
8
1
62
256
6
ByLayer
370
18
48
1
60
0
100
AcDbSpline
70
4
71
3
72
12
73
8
40
0
40
0
40
0
40
0
40
0.499999999999998
40
0.499999999999998
40
0.749999999999999
40
0.749999999999999
40
1
40
1
40
1
40
1
41
1
10
61.712486815165
20
-4.15871321600503
30
0
41
1
10
61.9043211304455
20
-3.62294473305587
30
0
41
1
10
62.1040308632952
20
-3.08895928681667
30
0
41
1
10
62.4136804340302
20
-2.29070952226357
30
0
41
1
10
62.5186993707295
20
-2.02490280466654
30
0
41
1
10
62.7312489063733
20
-1.49589220029836
30
0
41
1
10
62.8388628765913
20
-1.23251602561396
30
0
41
1
10
62.9477780871487
20
-0.970140952100593
30
0
0
SPLINE
5
CC
100
AcDbEntity
8
1
62
256
6
ByLayer
370
18
48
1
60
0
100
AcDbSpline
70
4
71
3
72
90
73
86
40
0
40
0
40
0
40
0
40
0.0055002360807834
40
0.0055002360807834
40
0.0284165370851601
40
0.0284165370851601
40
0.0513328380895368
40
0.0513328380895368
40
0.0971654400982901
40
0.0971654400982901
40
0.120081741102666
40
0.120081741102666
40
0.142998042107043
40
0.142998042107043
40
0.165914343111419
40
0.165914343111419
40
0.188830644115795
40
0.188830644115795
40
0.211746945120171
40
0.211746945120171
40
0.234663246124547
40
0.234663246124547
40
0.257579547128924
40
0.257579547128924
40
0.2804958481333
40
0.2804958481333
40
0.326328450142053
40
0.326328450142053
40
0.34924475114643
40
0.34924475114643
40
0.372161052150806
40
0.372161052150806
40
0.395077353155182
40
0.395077353155182
40
0.417993654159558
40
0.417993654159558
40
0.440909955163934
40
0.440909955163934
40
0.463826256168311
40
0.463826256168311
40
0.486742557172687
40
0.486742557172687
40
0.509658858177063
40
0.509658858177063
40
0.532575159181439
40
0.532575159181439
40
0.555491460185815
40
0.555491460185815
40
0.578407761190192
40
0.578407761190192
40
0.601324062194568
40
0.601324062194568
40
0.624240363198944
40
0.624240363198944
40
0.64715666420332
40
0.64715666420332
40
0.670072965207697
40
0.670072965207697
40
0.692989266212073
40
0.692989266212073
40
0.715905567216449
40
0.715905567216449
40
0.738821868220825
40
0.738821868220825
40
0.761738169225201
40
0.761738169225201
40
0.784654470229578
40
0.784654470229578
40
0.830487072238331
40
0.830487072238331
40
0.853403373242708
40
0.853403373242708
40
0.876319674247084
40
0.876319674247084
40
0.899235975251461
40
0.899235975251461
40
0.922152276255838
40
0.922152276255838
40
0.945068577260214
40
0.945068577260214
40
0.967984878264591
40
0.967984878264591
40
0.990901179268968
40
0.990901179268968
40
1
40
1
40
1
40
1
41
1
10
25.7132235851044
20
3.01533745228076
30
0
41
1
10
25.7758082010653
20
3.03708377082546
30
0
41
1
10
25.8383695513918
20
3.05855150080492
30
0
41
1
10
26.1615296845215
20
3.16793705232828
30
0
41
1
10
26.4216728558423
20
3.25149541128641
30
0
41
1
10
26.9406535662546
20
3.40996226812291
30
0
41
1
10
27.1991851533836
20
3.48521182412213
30
0
41
1
10
27.9746404321415
20
3.69552941266952
30
0
41
1
10
28.4921677425958
20
3.81484036499663
30
0
41
1
10
29.2666264493076
20
3.96504378441873
30
0
41
1
10
29.5248833698243
20
4.00986692039237
30
0
41
1
10
30.0428732221819
20
4.08822665395039
30
0
41
1
10
30.3023623854139
20
4.12196788911285
30
0
41
1
10
30.8219770467116
20
4.17864000865274
30
0
41
1
10
31.0817829189237
20
4.20164893099019
30
0
41
1
10
31.6035295466798
20
4.2359167354536
30
0
41
1
10
31.8660731724576
20
4.24724589504009
30
0
41
1
10
32.389212964319
20
4.25830278194604
30
0
41
1
10
32.6499424811259
20
4.25806592023619
30
0
41
1
10
33.169364990245
20
4.24595662972936
30
0
41
1
10
33.4286236136896
20
4.23411011333718
30
0
41
1
10
33.9469877484224
20
4.19935820287085
30
0
41
1
10
34.2059122272191
20
4.17643206960338
30
0
41
1
10
34.7228961963261
20
4.1193496219143
30
0
41
1
10
34.9806381576156
20
4.08496070517148
30
0
41
1
10
35.7552337352939
20
3.9662234824448
30
0
41
1
10
36.2729172256926
20
3.86653548638103
30
0
41
1
10
37.0493124213345
20
3.68378031490946
30
0
41
1
10
37.3087645084427
20
3.61792011250128
30
0
41
1
10
37.8293516334485
20
3.47686531248382
30
0
41
1
10
38.0903521521553
20
3.40153394165475
30
0
41
1
10
38.6134364634217
20
3.24053884895645
30
0
41
1
10
38.8749191095999
20
3.15454472204033
30
0
41
1
10
39.3963669962881
20
2.976442020104
30
0
41
1
10
39.6566854643817
20
2.88393650387815
30
0
41
1
10
40.1760719342457
20
2.69145768429902
30
0
41
1
10
40.4350370945581
20
2.59130573341079
30
0
41
1
10
40.9518259985576
20
2.3836210600478
30
0
41
1
10
41.2102616635268
20
2.27713836167354
30
0
41
1
10
41.7272011394511
20
2.05902294756916
30
0
41
1
10
41.9856371287173
20
1.94727389566165
30
0
41
1
10
42.5020319116177
20
1.71757570775213
30
0
41
1
10
42.7598410171959
20
1.59930349212513
30
0
41
1
10
43.277116381444
20
1.36059288158822
30
0
41
1
10
43.5363205191
20
1.23968061283301
30
0
41
1
10
44.0554117362401
20
0.993824382821686
30
0
41
1
10
44.3151430746162
20
0.868542467667197
30
0
41
1
10
44.8357119075542
20
0.614617309144876
30
0
41
1
10
45.0974609318425
20
0.486947639145342
30
0
41
1
10
45.6211787994273
20
0.230931315583717
30
0
41
1
10
45.8822593687503
20
0.102956584486293
30
0
41
1
10
46.4023997151863
20
-0.153947239392437
30
0
41
1
10
46.6614847560837
20
-0.282796646480563
30
0
41
1
10
47.1798484950455
20
-0.536735461792688
30
0
41
1
10
47.438836973538
20
-0.662460974711905
30
0
41
1
10
47.9560134602395
20
-0.912321435179535
30
0
41
1
10
48.2139601772934
20
-1.03693727890229
30
0
41
1
10
48.7298528854612
20
-1.28288740608616
30
0
41
1
10
48.9881742445364
20
-1.40348453147473
30
0
41
1
10
49.5052029993235
20
-1.64070646068797
30
0
41
1
10
49.7639207819506
20
-1.75731270042002
30
0
41
1
10
50.2812338010646
20
-1.98745116938804
30
0
41
1
10
50.5400319233957
20
-2.100576976345
30
0
41
1
10
51.0597385302418
20
-2.31953615160953
30
0
41
1
10
51.320358732441
20
-2.42592094757549
30
0
41
1
10
51.8427605452989
20
-2.63312525089049
30
0
41
1
10
52.1046333768209
20
-2.73454876093899
30
0
41
1
10
52.8870478705729
20
-3.024710123576
30
0
41
1
10
53.4072075181533
20
-3.19924967897021
30
0
41
1
10
54.1827085340809
20
-3.43714742254181
30
0
41
1
10
54.4408206756284
20
-3.51182352026424
30
0
41
1
10
54.9575574093545
20
-3.65060654988346
30
0
41
1
10
55.2159392082962
20
-3.71503327776011
30
0
41
1
10
55.7323644536759
20
-3.83433042556527
30
0
41
1
10
55.9900810106606
20
-3.88945170912706
30
0
41
1
10
56.5066321157784
20
-3.98861581865978
30
0
41
1
10
56.7655258480684
20
-4.03268049938077
30
0
41
1
10
57.284102852896
20
-4.11018212062075
30
0
41
1
10
57.5437944585042
20
-4.1436143339763
30
0
41
1
10
58.0635905962802
20
-4.19967825955882
30
0
41
1
10
58.3242328604713
20
-4.22201855410495
30
0
41
1
10
58.8478799163123
20
-4.25503039027026
30
0
41
1
10
59.109639953304
20
-4.26572279218883
30
0
41
1
10
59.4741417696426
20
-4.27257860766395
30
0
41
1
10
59.5775792286801
20
-4.2736071019217
30
0
41
1
10
59.6809380323792
20
-4.27371728656632
30
0
0
SPLINE
5
CD
100
AcDbEntity
8
1
62
256
6
ByLayer
370
13
48
1
60
0
100
AcDbSpline
70
4
71
3
72
8
73
4
40
0
40
0
40
0
40
0
40
1
40
1
40
1
40
1
41
1
10
4.14213475024349
20
-3.96792230504025
30
0
41
1
10
4.16275679409324
20
-3.96130440979036
30
0
41
1
10
4.18472540000681
20
-3.95954515251745
30
0
41
1
10
4.20718282050251
20
-3.96253576383671
30
0
0
SPLINE
5
CE
100
AcDbEntity
8
1
62
256
6
ByLayer
370
18
48
1
60
0
100
AcDbSpline
70
4
71
3
72
8
73
4
40
0
40
0
40
0
40
0
40
1
40
1
40
1
40
1
41
1
10
4.00714821005721
20
-4.01311820264667
30
0
41
1
10
4.00420189267339
20
-4.00923143670363
30
0
41
1
10
4.00269548665179
20
-4.00524065394708
30
0
41
1
10
4.00269609210579
20
-4.00113885225701
30
0
0
SPLINE
5
CF
100
AcDbEntity
8
1
62
256
6
ByLayer
370
18
48
1
60
0
100
AcDbSpline
70
4
71
3
72
14
73
10
40
0
40
0
40
0
40
0
40
0.25
40
0.25
40
0.5
40
0.5
40
0.75
40
0.75
40
1
40
1
40
1
40
1
41
1
10
61.4286935025231
20
0.923987408020821
30
0
41
1
10
61.4276505585257
20
0.939352272927948
30
0
41
1
10
61.4307183136834
20
0.954956952820623
30
0
41
1
10
61.4459222914937
20
0.982052485536059
30
0
41
1
10
61.4580268256377
20
0.993345692600741
30
0
41
1
10
61.4852909345803
20
1.00926935272591
30
0
41
1
10
61.500679561078
20
1.01436310452593
30
0
41
1
10
61.5316032623051
20
1.02025887291475
30
0
41
1
10
61.5475006646764
20
1.02116855105646
30
0
41
1
10
61.5633270941924
20
1.02057389762908
30
0
0
SPLINE
5
D0
100
AcDbEntity
8
1
62
256
6
ByLayer
370
18
48
1
60
0
100
AcDbSpline
70
4
71
3
72
54
73
50
40
0
40
0
40
0
40
0
40
0.0755771962970786
40
0.0755771962970786
40
0.113365794445618
40
0.113365794445618
40
0.151154392594157
40
0.151154392594157
40
0.188942990742696
40
0.188942990742696
40
0.226731588891236
40
0.226731588891236
40
0.264520187039775
40
0.264520187039775
40
0.302308785188314
40
0.302308785188314
40
0.340097383336854
40
0.340097383336854
40
0.377885981485393
40
0.377885981485393
40
0.45346317778247
40
0.45346317778247
40
0.491251775931009
40
0.491251775931009
40
0.529040374079548
40
0.529040374079548
40
0.566828972228087
40
0.566828972228087
40
0.604617570376626
40
0.604617570376626
40
0.642406168525165
40
0.642406168525165
40
0.680194766673704
40
0.680194766673704
40
0.717983364822243
40
0.717983364822243
40
0.755771962970782
40
0.755771962970782
40
0.831349159267859
40
0.831349159267859
40
0.869137757416398
40
0.869137757416398
40
0.906926355564937
40
0.906926355564937
40
0.944714953713476
40
0.944714953713476
40
0.982503551862015
40
0.982503551862015
40
1
40
1
40
1
40
1
41
1
10
11.8730679613724
20
3.07566649200638
30
0
41
1
10
12.3962512884865
20
2.89708879300312
30
0
41
1
10
12.9184010543376
20
2.70645128765827
30
0
41
1
10
13.6970394156245
20
2.39831682082348
30
0
41
1
10
13.9555892054593
20
2.29142973008888
30
0
41
1
10
14.4732131124496
20
2.07377247441974
30
0
41
1
10
14.7320912654836
20
1.96268839771201
30
0
41
1
10
15.2495105585002
20
1.73520587059454
30
0
41
1
10
15.5079612273783
20
1.618627969746
30
0
41
1
10
16.0245898059372
20
1.38014873606596
30
0
41
1
10
16.2833911333551
20
1.2594716493347
30
0
41
1
10
16.8019966981154
20
1.01538999724374
30
0
41
1
10
17.0617227126676
20
0.891832004468057
30
0
41
1
10
17.5816355267845
20
0.640772325749964
30
0
41
1
10
17.8416693479697
20
0.512907062090335
30
0
41
1
10
18.364298144092
20
0.257648154723256
30
0
41
1
10
18.6270622162227
20
0.129513429526327
30
0
41
1
10
19.1499534316514
20
-0.126267520933425
30
0
41
1
10
19.4103370943897
20
-0.254487177343833
30
0
41
1
10
20.1894678003913
20
-0.637553743900298
30
0
41
1
10
20.7084190529968
20
-0.886190074051541
30
0
41
1
10
21.4838314938388
20
-1.25410772174615
30
0
41
1
10
21.7417971416949
20
-1.37586281885137
30
0
41
1
10
22.2588920498425
20
-1.61332444023364
30
0
41
1
10
22.5177269306467
20
-1.72963313195723
30
0
41
1
10
23.0355473808144
20
-1.95822222263556
30
0
41
1
10
23.2942984008629
20
-2.0709293702171
30
0
41
1
10
23.8127478586098
20
-2.29070896760453
30
0
41
1
10
24.072826473089
20
-2.3971028282844
30
0
41
1
10
24.5943288250184
20
-2.60358629580168
30
0
41
1
10
24.8557654189914
20
-2.70365955688334
30
0
41
1
10
25.3795041379181
20
-2.89817099321718
30
0
41
1
10
25.6403096033257
20
-2.99151075402693
30
0
41
1
10
26.1615296845215
20
-3.16793705232828
30
0
41
1
10
26.4216728558423
20
-3.25149541128644
30
0
41
1
10
26.9406535662545
20
-3.40996226812291
30
0
41
1
10
27.1991851533836
20
-3.48521182412213
30
0
41
1
10
27.9746404321415
20
-3.69552941266952
30
0
41
1
10
28.4921677425958
20
-3.81484036499663
30
0
41
1
10
29.2666264493075
20
-3.96504378441873
30
0
41
1
10
29.5248833698244
20
-4.00986692039237
30
0
41
1
10
30.0428732221819
20
-4.08822665395039
30
0
41
1
10
30.3023623854139
20
-4.12196788911285
30
0
41
1
10
30.8219770467116
20
-4.17864000865274
30
0
41
1
10
31.0817829189237
20
-4.20164893099019
30
0
41
1
10
31.6035295466797
20
-4.2359167354536
30
0
41
1
10
31.8660731724576
20
-4.24724589504009
30
0
41
1
10
32.2487521950254
20
-4.25533405568021
30
0
41
1
10
32.369681163692
20
-4.25665782393921
30
0
41
1
10
32.4904123179912
20
-4.25674043434913
30
0
0
SPLINE
5
D1
100
AcDbEntity
8
1
62
256
6
ByLayer
370
18
48
1
60
0
100
AcDbSpline
70
4
71
3
72
26
73
22
40
0
40
0
40
0
40
0
40
0.114263052332581
40
0.114263052332581
40
0.202836747099323
40
0.202836747099323
40
0.291410441866065
40
0.291410441866065
40
0.379984136632806
40
0.379984136632806
40
0.468557831399549
40
0.468557831399549
40
0.55713152616629
40
0.55713152616629
40
0.645705220933032
40
0.645705220933032
40
0.734278915699774
40
0.734278915699774
40
0.822852610466516
40
0.822852610466516
40
1
40
1
40
1
40
1
41
1
10
52.9203015129279
20
3.03026097132479
30
0
41
1
10
53.255945612796
20
3.14661854239043
30
0
41
1
10
53.5907340437719
20
3.25554947153455
30
0
41
1
10
54.1827085340809
20
3.43714742254187
30
0
41
1
10
54.4408206756284
20
3.51182352026424
30
0
41
1
10
54.9575574093545
20
3.65060654988346
30
0
41
1
10
55.2159392082962
20
3.71503327776011
30
0
41
1
10
55.7323644536759
20
3.83433042556527
30
0
41
1
10
55.9900810106605
20
3.88945170912703
30
0
41
1
10
56.5066321157783
20
3.98861581865978
30
0
41
1
10
56.7655258480684
20
4.03268049938077
30
0
41
1
10
57.2841028528959
20
4.11018212062075
30
0
41
1
10
57.5437944585041
20
4.1436143339763
30
0
41
1
10
58.0635905962802
20
4.19967825955879
30
0
41
1
10
58.3242328604712
20
4.22201855410495
30
0
41
1
10
58.8478799163122
20
4.25503039027026
30
0
41
1
10
59.1096399533039
20
4.26572279218883
30
0
41
1
10
59.6314579497428
20
4.27553752488649
30
0
41
1
10
59.8913814506033
20
4.27460929357773
30
0
41
1
10
60.6718718042617
20
4.25439666232782
30
0
41
1
10
61.1926514569183
20
4.21824182507999
30
0
41
1
10
61.7124868151728
20
4.15871321598288
30
0
0
SPLINE
5
D2
100
AcDbEntity
8
1
62
256
6
ByLayer
370
13
48
1
60
0
100
AcDbSpline
70
4
71
3
72
12
73
8
40
0
40
0
40
0
40
0
40
0.49999999999998
40
0.49999999999998
40
0.74999999999999
40
0.74999999999999
40
1
40
1
40
1
40
1
41
1
10
4.00269609210557
20
-4.00113885226676
30
0
41
1
10
4.0084354205689
20
-3.97183942542392
30
0
41
1
10
4.02341050504958
20
-3.94312701998825
30
0
41
1
10
4.0585421859783
20
-3.90549867000502
30
0
41
1
10
4.07265477032038
20
-3.89360000396795
30
0
41
1
10
4.10461829813045
20
-3.87271776352563
30
0
41
1
10
4.12236273071611
20
-3.86370263130462
30
0
41
1
10
4.14213475024349
20
-3.8563547450207
30
0
0
SPLINE
5
D3
100
AcDbEntity
8
1
62
256
6
ByLayer
370
13
48
1
60
0
100
AcDbSpline
70
4
71
3
72
12
73
8
40
0
40
0
40
0
40
0
40
0.499999999999977
40
0.499999999999977
40
0.749999999999988
40
0.749999999999988
40
1
40
1
40
1
40
1
41
1
10
4.00714821006099
20
-4.01311820264192
30
0
41
1
10
4.01554797808245
20
-4.00399298999551
30
0
41
1
10
4.03133756411984
20
-3.99512988268646
30
0
41
1
10
4.06534667094169
20
-3.98340802264471
30
0
41
1
10
4.07867370385745
20
-3.9796920455133
30
0
41
1
10
4.10812302916818
20
-3.97315800568049
30
0
41
1
10
4.12429607839377
20
-3.97029901364925
30
0
41
1
10
4.14213475024349
20
-3.96792230504025
30
0
0
SPLINE
5
D4
100
AcDbEntity
8
1
62
256
6
ByLayer
370
18
48
1
60
0
100
AcDbSpline
70
4
71
3
72
28
73
24
40
0
40
0
40
0
40
0
40
0.0625000000000006
40
0.0625000000000006
40
0.0937500000000014
40
0.0937500000000014
40
0.125000000000002
40
0.125000000000002
40
0.250000000000002
40
0.250000000000002
40
0.375000000000001
40
0.375000000000001
40
0.437500000000001
40
0.437500000000001
40
0.500000000000001
40
0.500000000000001
40
0.625000000000001
40
0.625000000000001
40
0.75
40
0.75
40
0.875
40
0.875
40
1
40
1
40
1
40
1
41
1
10
57.492091567945
20
1.25084748587446
30
0
41
1
10
57.4949434934494
20
1.12410791012601
30
0
41
1
10
57.5066786277529
20
0.996331549412389
30
0
41
1
10
57.5371893438396
20
0.803160476659286
30
0
41
1
10
57.5495150511896
20
0.738518548100444
30
0
41
1
10
57.5784548589636
20
0.608734180236695
30
0
41
1
10
57.5950670621993
20
0.543699459547327
30
0
41
1
10
57.6869058949586
20
0.223101645449105
30
0
41
1
10
57.7892070340831
20
-0.023897323280238
30
0
41
1
10
58.0386999507497
20
-0.501358125319939
30
0
41
1
10
58.1813754519119
20
-0.723598299229252
30
0
41
1
10
58.415508460402
20
-1.03845342508257
30
0
41
1
10
58.4969863586509
20
-1.14024711689325
30
0
41
1
10
58.6660845369608
20
-1.33818504827974
30
0
41
1
10
58.7537538678516
20
-1.43433422415328
30
0
41
1
10
59.0208568653891
20
-1.71102396105837
30
0
41
1
10
59.2057139996897
20
-1.88161922507729
30
0
41
1
10
59.5862103666299
20
-2.2007887275231
30
0
41
1
10
59.7818796627288
20
-2.34930156526647
30
0
41
1
10
60.1825311598561
20
-2.62730685053418
30
0
41
1
10
60.387801149285
20
-2.75686132319538
30
0
41
1
10
60.8011374200476
20
-2.99565484034315
30
0
41
1
10
61.0099042268672
20
-3.105422599706
30
0
41
1
10
61.2206012446847
20
-3.20633428001031
30
0
0
SPLINE
5
D5
100
AcDbEntity
8
1
62
256
6
ByLayer
370
18
48
1
60
0
100
AcDbSpline
70
4
71
3
72
12
73
8
40
0
40
0
40
0
40
0
40
0.500000000000002
40
0.500000000000002
40
0.750000000000001
40
0.750000000000001
40
1
40
1
40
1
40
1
41
1
10
61.7124868151652
20
4.1587132160044
30
0
41
1
10
61.9042970503002
20
3.62301198579385
30
0
41
1
10
62.1040001091966
20
3.08904008461593
30
0
41
1
10
62.413659654251
20
2.29076233266781
30
0
41
1
10
62.5186791580996
20
2.02495365597639
30
0
41
1
10
62.7312298929008
20
1.4959389782087
30
0
41
1
10
62.8388506368847
20
1.23254551087948
30
0
41
1
10
62.9477780871498
20
0.970140952097978
30
0
0
SPLINE
5
D6
100
AcDbEntity
8
1
62
256
6
ByLayer
370
13
48
1
60
0
100
AcDbSpline
70
4
71
3
72
14
73
10
40
0
40
0
40
0
40
0
40
0.215008192228129
40
0.215008192228129
40
0.430016384456258
40
0.430016384456258
40
0.860032768912517
40
0.860032768912517
40
1
40
1
40
1
40
1
41
1
10
4.20718282050251
20
-3.96253576383671
30
0
41
1
10
4.50856792353107
20
-4.00267063599375
30
0
41
1
10
4.80980157486667
20
-4.03544646495516
30
0
41
1
10
5.41249621548369
20
-4.08622135817276
30
0
41
1
10
5.71418277860562
20
-4.10420472541193
30
0
41
1
10
6.61513114952092
20
-4.13570840637766
30
0
41
1
10
7.21199240467229
20
-4.12703831092955
30
0
41
1
10
8.00123408954229
20
-4.07702091701006
30
0
41
1
10
8.19489214110919
20
-4.06166325859758
30
0
41
1
10
8.38847807443193
20
-4.04327783008546
30
0
0
SPLINE
5
D7
100
AcDbEntity
8
1
62
256
6
ByLayer
370
18
48
1
60
0
100
AcDbSpline
70
4
71
3
72
18
73
14
40
0
40
0
40
0
40
0
40
0.0813719940063416
40
0.0813719940063416
40
0.189723565417043
40
0.189723565417043
40
0.406426708238446
40
0.406426708238446
40
0.839832993881253
40
0.839832993881253
40
0.948184565291956
40
0.948184565291956
40
1
40
1
40
1
40
1
41
1
10
47.4402160316681
20
0.0007545658066306
30
0
41
1
10
47.6644695638175
20
-0.106774431293644
30
0
41
1
10
47.8891148924657
20
-0.214493551448641
30
0
41
1
10
48.4140932698467
20
-0.465481747035938
30
0
41
1
10
48.7155613240061
20
-0.609068865572027
30
0
41
1
10
49.6166830191412
20
-1.03438310486774
30
0
41
1
10
50.2133890574382
20
-1.3104810291031
30
0
41
1
10
51.9985345859974
20
-2.10282609284079
30
0
41
1
10
53.1813303095367
20
-2.58425012966725
30
0
41
1
10
54.6747064403825
20
-3.08367172669287
30
0
41
1
10
54.9741125447094
20
-3.17848696062714
30
0
41
1
10
55.4181927378808
20
-3.31042939162046
30
0
41
1
10
55.5620644599356
20
-3.35182649874761
30
0
41
1
10
55.7058737690066
20
-3.39181041010062
30
0
0
SPLINE
5
D8
100
AcDbEntity
8
1
62
256
6
ByLayer
370
13
48
1
60
0
100
AcDbSpline
70
4
71
3
72
12
73
8
40
0
40
0
40
0
40
0
40
0.0800063563712232
40
0.0800063563712232
40
0.38667090424748
40
0.38667090424748
40
1
40
1
40
1
40
1
41
1
10
55.7058737670858
20
-3.39181040956655
30
0
41
1
10
55.8627849815872
20
-3.43543709919743
30
0
41
1
10
56.0196218926512
20
-3.47738136156167
30
0
41
1
10
56.7755590801814
20
-3.6711773477553
30
0
41
1
10
57.3716591548439
20
-3.79873346503487
30
0
41
1
10
59.1567993079814
20
-4.09791610498226
30
0
41
1
10
60.3431149204937
20
-4.18615433539432
30
0
41
1
10
61.5433710626255
20
-4.15324318705029
30
0
0
SPLINE
5
D9
100
AcDbEntity
8
1
62
256
6
ByLayer
370
18
48
1
60
0
100
AcDbSpline
70
4
71
3
72
8
73
4
40
0
40
0
40
0
40
0
40
1
40
1
40
1
40
1
41
1
10
62.98951440253
20
-0.117763170096083
30
0
41
1
10
62.9901821960382
20
-0.0960821038980839
30
0
41
1
10
62.9941482724025
20
-0.0696331953646734
30
0
41
1
10
62.9999615590854
20
-0.0417744722975328
30
0
0
SPLINE
5
DA
100
AcDbEntity
8
1
62
256
6
ByLayer
370
18
48
1
60
0
100
AcDbSpline
70
4
71
3
72
8
73
4
40
0
40
0
40
0
40
0
40
1
40
1
40
1
40
1
41
1
10
61.5433710626503
20
-4.153243187062
30
0
41
1
10
61.5279598290437
20
-4.19185464052751
30
0
41
1
10
61.5125238555395
20
-4.23042736881729
30
0
41
1
10
61.497065718804
20
-4.26895863024234
30
0
0
SPLINE
5
DB
100
AcDbEntity
8
1
62
256
6
ByLayer
370
18
48
1
60
0
100
AcDbSpline
70
4
71
3
72
8
73
4
40
0
40
0
40
0
40
0
40
1
40
1
40
1
40
1
41
1
10
62.9477780871488
20
-0.970140952100508
30
0
41
1
10
62.9668564384708
20
-0.685752186938828
30
0
41
1
10
62.9807712052979
20
-0.401626124187459
30
0
41
1
10
62.9895144025299
20
-0.117763170096197
30
0
0
SPLINE
5
DC
100
AcDbEntity
8
1
62
256
6
ByLayer
370
18
48
1
60
0
100
AcDbSpline
70
4
71
3
72
14
73
10
40
0
40
0
40
0
40
0
40
0.25
40
0.25
40
0.5
40
0.5
40
0.75
40
0.75
40
1
40
1
40
1
40
1
41
1
10
4.00288356109579
20
1.20879731590276
30
0
41
1
10
4.00693019389371
20
1.21770710172473
30
0
41
1
10
4.01552533431388
20
1.22457835580784
30
0
41
1
10
4.04357167687706
20
1.23084971144999
30
0
41
1
10
4.06352928487627
20
1.23011488361252
30
0
41
1
10
4.11238884197948
20
1.21840235861274
30
0
41
1
10
4.14065133554959
20
1.2075521188743
30
0
41
1
10
4.19715438807134
20
1.17985266018729
30
0
41
1
10
4.22500384496274
20
1.16339383743511
30
0
41
1
10
4.25144356194645
20
1.14588319840541
30
0
0
SPLINE
5
DD
100
AcDbEntity
8
1
62
256
6
ByLayer
370
18
48
1
60
0
100
AcDbSpline
70
4
71
3
72
8
73
4
40
0
40
0
40
0
40
0
40
1
40
1
40
1
40
1
41
1
10
62.9477780871488
20
0.970140952100678
30
0
41
1
10
62.9668606628735
20
0.685689216472895
30
0
41
1
10
62.9807731413904
20
0.401563265609553
30
0
41
1
10
62.9895144025299
20
0.117763170096225
30
0
0
SPLINE
5
DE
100
AcDbEntity
8
1
62
256
6
ByLayer
370
18
48
1
60
0
100
AcDbSpline
70
4
71
3
72
14
73
10
40
0
40
0
40
0
40
0
40
0.559518776279614
40
0.559518776279614
40
0.839278164419421
40
0.839278164419421
40
0.979157858489321
40
0.979157858489321
40
1
40
1
40
1
40
1
41
1
10
61.5528717292283
20
-4.05904894326954
30
0
41
1
10
60.3534285617791
20
-4.0766914167323
30
0
41
1
10
59.1674125063025
20
-3.97635776432207
30
0
41
1
10
57.3827640910844
20
-3.6645629269994
30
0
41
1
10
56.7868552067387
20
-3.53372342180276
30
0
41
1
10
55.8880445888033
20
-3.29982274802506
30
0
41
1
10
55.5869420581259
20
-3.21534728064563
30
0
41
1
10
55.2421340886431
20
-3.11216091789632
30
0
41
1
10
55.1974412630497
20
-3.09866210967476
30
0
41
1
10
55.1527688558702
20
-3.08504713303572
30
0
0
SPLINE
5
DF
100
AcDbEntity
8
1
62
256
6
ByLayer
370
13
48
1
60
0
100
AcDbSpline
70
4
71
3
72
20
73
16
40
0
40
0
40
0
40
0
40
0.0654011894812031
40
0.0654011894812031
40
0.372809728907578
40
0.372809728907578
40
0.526513998620764
40
0.526513998620764
40
0.603366133477356
40
0.603366133477356
40
0.680218268333949
40
0.680218268333949
40
0.987626807760324
40
0.987626807760324
40
1
40
1
40
1
40
1
41
1
10
55.1527695531772
20
-3.0850473455566
30
0
41
1
10
54.897627878575
20
-3.00728687027177
30
0
41
1
10
54.6431522529873
20
-2.92573697978372
30
0
41
1
10
53.1954113492381
20
-2.44097554113321
30
0
41
1
10
52.0128728025579
20
-1.96345663893672
30
0
41
1
10
50.2284378631047
20
-1.18253561834041
30
0
41
1
10
49.6319672541522
20
-0.911248138196669
30
0
41
1
10
48.7314054159776
20
-0.494587803952783
30
0
41
1
10
48.4302998452474
20
-0.354173901904971
30
0
41
1
10
47.8312321228002
20
-0.074136682632826
30
0
41
1
10
47.5325658919193
20
0.0658353119422088
30
0
41
1
10
46.0421952693644
20
0.762552711390725
30
0
41
1
10
44.8591351053914
20
1.30903443039082
30
0
41
1
10
43.6197972689016
20
1.82755641085356
30
0
41
1
10
43.5718304305512
20
1.84754175408193
30
0
41
1
10
43.5238487370788
20
1.86744686155188
30
0
0
SPLINE
5
E0
100
AcDbEntity
8
1
62
256
6
ByLayer
370
18
48
1
60
0
100
AcDbSpline
70
4
71
3
72
12
73
8
40
0
40
0
40
0
40
0
40
0.361834066936969
40
0.361834066936969
40
0.680917033468486
40
0.680917033468486
40
1
40
1
40
1
40
1
41
1
10
7.0736977229941
20
-4.02613884187701
30
0
41
1
10
6.73533465317897
20
-4.02953677818562
30
0
41
1
10
6.396218725907
20
-4.02373357313658
30
0
41
1
10
5.7558697553664
20
-3.99534408047117
30
0
41
1
10
5.45448020313765
20
-3.97474284050892
30
0
41
1
10
4.85236609158773
20
-3.91915426873015
30
0
41
1
10
4.5514204295286
20
-3.88417977831878
30
0
41
1
10
4.25032989823782
20
-3.84206780379731
30
0
0
SPLINE
5
E1
100
AcDbEntity
8
1
62
256
6
ByLayer
370
18
48
1
60
0
100
AcDbSpline
70
4
71
3
72
28
73
24
40
0
40
0
40
0
40
0
40
0.0466254114721578
40
0.0854269272503272
40
0.12104360217733
40
0.154398197750114
40
0.192482268978992
40
0.237654525359706
40
0.274977931928632
40
0.307642139545533
40
0.357506230550593
40
0.403819143811103
40
0.43945092487749
40
0.484039899049742
40
0.53321028714269
40
0.616361716720567
40
0.709339029632496
40
0.804733954797456
40
0.839063441345516
40
0.867633953110587
40
0.901038880726131
40
0.942890593104959
40
1
40
1
40
1
40
1
41
1
10
34.0052650757405
20
-4.04391200266005
30
0
41
1
10
34.1951522723009
20
-4.04273587922469
30
0
41
1
10
34.5457715356179
20
-4.04152196367943
30
0
41
1
10
35.0588049599523
20
-4.04388293124288
30
0
41
1
10
35.5053341014965
20
-4.0450824127924
30
0
41
1
10
35.9583884203969
20
-4.04525363523899
30
0
41
1
10
36.4501888056747
20
-4.04550830417946
30
0
41
1
10
36.9592308431733
20
-4.04556621615262
30
0
41
1
10
37.4452560340981
20
-4.04623209831192
30
0
41
1
10
37.9511175948702
20
-4.04653462595709
30
0
41
1
10
38.4949143268918
20
-4.04622721318029
30
0
41
1
10
39.0512554888391
20
-4.0471015033427
30
0
41
1
10
39.5850557195608
20
-4.04756988213651
30
0
41
1
10
40.1312772220786
20
-4.04707639247033
30
0
41
1
10
40.8777924540352
20
-4.04813238196587
30
0
41
1
10
41.8288046796344
20
-4.04780390588425
30
0
41
1
10
42.974745924363
20
-4.05024398907267
30
0
41
1
10
43.9147003271274
20
-4.0482032211273
30
0
41
1
10
44.582849260678
20
-4.05027079742285
30
0
41
1
10
44.9888350549115
20
-4.05015075631661
30
0
41
1
10
45.4271050205036
20
-4.04991294824859
30
0
41
1
10
45.9842445411358
20
-4.05034577920912
30
0
41
1
10
46.4020870592293
20
-4.05101182087893
30
0
41
1
10
46.643369996109
20
-4.05154795713221
30
0
0
SPLINE
5
E2
100
AcDbEntity
8
1
62
256
6
ByLayer
370
18
48
1
60
0
100
AcDbSpline
70
4
71
3
72
28
73
24
40
0
40
0
40
0
40
0
40
0.00138248504069
40
0.0714334055932521
40
0.122903622017038
40
0.163584411162355
40
0.205206220982259
40
0.259510633193794
40
0.312344976807413
40
0.355489125302033
40
0.405700419968515
40
0.466322133768245
40
0.514851259205544
40
0.559176173394822
40
0.614691725820858
40
0.66816235905653
40
0.709164077591898
40
0.756892763260487
40
0.815446886236038
40
0.864124557148309
40
0.905555987388571
40
0.959622538866758
40
1
40
1
40
1
40
1
41
1
10
19.4963027045413
20
4.03600192136611
30
0
41
1
10
19.4916400038213
20
4.03599627590421
30
0
41
1
10
19.2507343153589
20
4.03570763353292
30
0
41
1
10
18.8334718876812
20
4.03602129178839
30
0
41
1
10
18.2961675266548
20
4.03581384328291
30
0
41
1
10
17.8414814256659
20
4.0350888486125
30
0
41
1
10
17.3851064355078
20
4.03481417462959
30
0
41
1
10
16.8812302114677
20
4.03470955909256
30
0
41
1
10
16.374159904757
20
4.03403444030181
30
0
41
1
10
15.8804442170233
20
4.03333120312126
30
0
41
1
10
15.3604849423869
20
4.03347584197908
30
0
41
1
10
14.8227500604795
20
4.03321854151517
30
0
41
1
10
14.3042791180229
20
4.03242996448813
30
0
41
1
10
13.8039334107573
20
4.03226303496513
30
0
41
1
10
13.2860140924815
20
4.03236790158502
30
0
41
1
10
12.7795767125555
20
4.0317643274785
30
0
41
1
10
12.2994262025694
20
4.03120088096412
30
0
41
1
10
11.8019944915225
20
4.03113781224928
30
0
41
1
10
11.2792709186075
20
4.03078826371612
30
0
41
1
10
10.7768884090888
20
4.03010050208576
30
0
41
1
10
10.2909432261435
20
4.02992932709844
30
0
41
1
10
9.83192105325432
20
4.02989501812948
30
0
41
1
10
9.5130163460006
20
4.02957584766693
30
0
41
1
10
9.37667477760604
20
4.02942928153425
30
0
0
SPLINE
5
E3
100
AcDbEntity
8
1
62
256
6
ByLayer
370
18
48
1
60
0
100
AcDbSpline
70
4
71
3
72
26
73
22
40
0
40
0
40
0
40
0
40
0.0470593280016471
40
0.0956151450563034
40
0.137438825181371
40
0.177857882067003
40
0.231074035139928
40
0.286102331772085
40
0.350212656860593
40
0.426124410091984
40
0.495086890497778
40
0.56429710513009
40
0.619571915132278
40
0.667617203475893
40
0.716377310901991
40
0.771973849709823
40
0.821041320939029
40
0.865687269345586
40
0.925397504941072
40
0.979660342007347
40
1
40
1
40
1
40
1
41
1
10
46.8500619055825
20
4.04980383003311
30
0
41
1
10
46.6867616690595
20
4.05001262162767
30
0
41
1
10
46.3561781382276
20
4.05028966284561
30
0
41
1
10
45.8919903355951
20
4.05031910372512
30
0
41
1
10
45.440184523179
20
4.04985226426811
30
0
41
1
10
44.9730346381033
20
4.05040715895097
30
0
41
1
10
44.4600568211197
20
4.0500873456424
30
0
41
1
10
43.8654082167202
20
4.0483641683501
30
0
41
1
10
43.192428173321
20
4.05001715542818
30
0
41
1
10
42.4713811757935
20
4.04823585076772
30
0
41
1
10
41.7327354328995
20
4.0481617631936
30
0
41
1
10
41.065292058006
20
4.04870159321035
30
0
41
1
10
40.4700190060675
20
4.04704716654592
30
0
41
1
10
39.9453048801624
20
4.04743505575772
30
0
41
1
10
39.4194806336274
20
4.04756504165456
30
0
41
1
10
38.8901295495035
20
4.04667345408981
30
0
41
1
10
38.3749709194423
20
4.04638856221945
30
0
41
1
10
37.8456234040356
20
4.04651691686246
30
0
41
1
10
37.2983843929457
20
4.04603566962757
30
0
41
1
10
36.834853924365
20
4.04557647805638
30
0
41
1
10
36.5776215922988
20
4.04545997946096
30
0
41
1
10
36.5074841510285
20
4.04543466807903
30
0
0
SPLINE
5
E4
100
AcDbEntity
8
1
62
256
6
ByLayer
370
18
48
1
60
0
100
AcDbSpline
70
4
71
1
72
4
73
2
40
0
40
0
40
1
40
1
41
1
10
61.2671936587861
20
-4.06095918671593
30
0
41
1
10
61.5113678465207
20
-4.06067465276698
30
0
0
SPLINE
5
E5
100
AcDbEntity
8
1
62
256
6
ByLayer
370
18
48
1
60
0
100
AcDbSpline
70
4
71
3
72
28
73
24
40
0
40
0
40
0
40
0
40
0.0642984277491739
40
0.115441876512671
40
0.150937639237415
40
0.181753924335974
40
0.209264138264643
40
0.262360815953995
40
0.320147140641582
40
0.365151929995842
40
0.404415251154396
40
0.442511842847682
40
0.489766273668502
40
0.534008951821882
40
0.595529039164346
40
0.670633719282365
40
0.732914901648632
40
0.807073703980578
40
0.840460425175751
40
0.871575797646822
40
0.903630521233969
40
0.944999730762286
40
1
40
1
40
1
40
1
41
1
10
6.86766167547012
20
-4.02705045273188
30
0
41
1
10
7.13632915611231
20
-4.02731352548523
30
0
41
1
10
7.61867237522068
20
-4.02777844539844
30
0
41
1
10
8.24973646851822
20
-4.02836608108942
30
0
41
1
10
8.7401620878191
20
-4.02881698237078
30
0
41
1
10
9.13219760671302
20
-4.0291298927342
30
0
41
1
10
9.59792606885185
20
-4.02974720840763
30
0
41
1
10
10.1763383973239
20
-4.02989354760405
30
0
41
1
10
10.8278845720266
20
-4.03022506872887
30
0
41
1
10
11.421599200136
20
-4.03104181081605
30
0
41
1
10
11.9330350534066
20
-4.03111791512643
30
0
41
1
10
12.4538633903917
20
-4.03129531300229
30
0
41
1
10
12.9955107914741
20
-4.03214225067529
30
0
41
1
10
13.6350516738537
20
-4.03232199100967
30
0
41
1
10
14.3910026572854
20
-4.03250913010163
30
0
41
1
10
15.2223407888434
20
-4.03367352663011
30
0
41
1
10
16.106507422121
20
-4.03330588881229
30
0
41
1
10
16.8163134784595
20
-4.03476385887083
30
0
41
1
10
17.395849419746
20
-4.03474347990192
30
0
41
1
10
17.7994312791114
20
-4.03552171026573
30
0
41
1
10
18.2362791890367
20
-4.03657014503275
30
0
41
1
10
18.7730571225258
20
-4.03568449463279
30
0
41
1
10
19.1758246845949
20
-4.03599518884238
30
0
41
1
10
19.4056979918837
20
-4.03618533538813
30
0
0
LINE
5
7B
100
AcDbEntity
8
SK1
62
256
6
ByLayer
370
18
48
1
60
0
100
AcDbLine
10
-38.66
20
5
30
0
11
-38.66
21
-5
31
0
39
0
210
0
220
0
230
1
0
LINE
5
7D
100
AcDbEntity
8
SK1
62
256
6
ByLayer
370
18
48
1
60
0
100
AcDbLine
10
0
20
-5
30
0
11
0
21
5
31
0
39
0
210
0
220
0
230
1
0
LINE
5
7E
100
AcDbEntity
8
SK1
62
256
6
ByLayer
370
18
48
1
60
0
100
AcDbLine
10
-40
20
3.66
30
0
11
-40
21
-3.66
31
0
39
0
210
0
220
0
230
1
0
LINE
5
7F
100
AcDbEntity
8
1
62
256
6
ByLayer
370
13
48
1
60
0
100
AcDbLine
10
0.681718
20
4.618641
30
0
11
0.681718
21
-4.618641
31
0
39
0
210
0
220
0
230
1
0
LINE
5
80
100
AcDbEntity
8
1
62
256
6
ByLayer
370
13
48
1
60
0
100
AcDbLine
10
61.428694
20
0.923987
30
0
11
62.964247
21
-0.048055
31
0
39
0
210
0
220
0
230
1
0
LINE
5
81
100
AcDbEntity
8
1
62
256
6
ByLayer
370
18
48
1
60
0
100
AcDbLine
10
0
20
-5
30
0
11
0
21
5
31
0
39
0
210
0
220
0
230
1
0
LINE
5
82
100
AcDbEntity
8
1
62
256
6
ByLayer
370
13
48
1
60
0
100
AcDbLine
10
61.563327
20
1.020574
30
0
11
62.989514
21
0.117763
31
0
39
0
210
0
220
0
230
1
0
LINE
5
83
100
AcDbEntity
8
1
62
256
6
ByLayer
370
13
48
1
60
0
100
AcDbLine
10
1.363936
20
4.237282
30
0
11
1.363936
21
-4.237282
31
0
39
0
210
0
220
0
230
1
0
LINE
5
84
100
AcDbEntity
8
80
62
256
6
ByLayer
370
18
48
1
60
0
100
AcDbLine
10
0
20
0
30
0
11
-5
21
0
31
0
39
0
210
0
220
0
230
1
0
LINE
5
85
100
AcDbEntity
8
4
62
256
6
ByLayer
370
18
48
0.05
60
0
100
AcDbLine
10
63
20
0
30
0
11
0
21
0
31
0
39
0
210
0
220
0
230
1
0
LINE
5
87
100
AcDbEntity
8
SK4
62
256
6
ByLayer
370
18
48
0.05
60
0
100
AcDbLine
10
68
20
0
30
0
11
-45
21
0
31
0
39
0
210
0
220
0
230
1
0
LINE
5
89
100
AcDbEntity
8
SK1
62
256
6
ByLayer
370
18
48
1
60
0
100
AcDbLine
10
-38.66
20
-5
30
0
11
0
21
-5
31
0
39
0
210
0
220
0
230
1
0
LINE
5
8A
100
AcDbEntity
8
SK1
62
256
6
ByLayer
370
18
48
1
60
0
100
AcDbLine
10
0
20
5
30
0
11
-38.66
21
5
31
0
39
0
210
0
220
0
230
1
0
LINE
5
8B
100
AcDbEntity
8
SK1
62
256
6
ByLayer
370
18
48
1
60
0
100
AcDbLine
10
-40
20
-3.66
30
0
11
-38.66
21
-5
31
0
39
0
210
0
220
0
230
1
0
LINE
5
8C
100
AcDbEntity
8
SK1
62
256
6
ByLayer
370
18
48
1
60
0
100
AcDbLine
10
-38.66
20
5
30
0
11
-40
21
3.66
31
0
39
0
210
0
220
0
230
1
0
LINE
5
8D
100
AcDbEntity
8
1
62
256
6
ByLayer
370
18
48
1
60
0
100
AcDbLine
10
1.363936
20
-4.237282
30
0
11
6.641525
21
-4.240581
31
0
39
0
210
0
220
0
230
1
0
LINE
5
8E
100
AcDbEntity
8
1
62
256
6
ByLayer
370
18
48
1
60
0
100
AcDbLine
10
32.48859
20
-4.256735
30
0
11
33.841828
21
-4.257581
31
0
39
0
210
0
220
0
230
1
0
LINE
5
8F
100
AcDbEntity
8
1
62
256
6
ByLayer
370
18
48
1
60
0
100
AcDbLine
10
59.687328
20
-4.273734
30
0
11
61.042293
21
-4.274581
31
0
39
0
210
0
220
0
230
1
0
LINE
5
90
100
AcDbEntity
8
1
62
256
6
ByLayer
370
18
48
1
60
0
100
AcDbLine
10
61.042146
20
4.274581
30
0
11
59.687328
21
4.273734
31
0
39
0
210
0
220
0
230
1
0
LINE
5
91
100
AcDbEntity
8
1
62
256
6
ByLayer
370
18
48
1
60
0
100
AcDbLine
10
33.840998
20
4.25758
30
0
11
32.48859
21
4.256735
31
0
39
0
210
0
220
0
230
1
0
LINE
5
92
100
AcDbEntity
8
1
62
256
6
ByLayer
370
18
48
1
60
0
100
AcDbLine
10
6.641145
20
4.24058
30
0
11
1.363936
21
4.237282
31
0
39
0
210
0
220
0
230
1
0
LINE
5
93
100
AcDbEntity
8
81
62
256
6
ByLayer
370
18
48
1
60
0
100
AcDbLine
10
63
20
0
30
0
11
68
21
0
31
0
39
0
210
0
220
0
230
1
0
LINE
5
94
100
AcDbEntity
8
SK2
62
256
6
ByLayer
370
13
48
1
60
0
100
AcDbLine
10
-48.625163
20
-5
30
0
11
-48.625163
21
35.857173
31
0
39
0
210
0
220
0
230
1
0
LINE
5
96
100
AcDbEntity
8
SK2
62
256
6
ByLayer
370
13
48
1
60
0
100
AcDbLine
10
-41.5875
20
5
30
0
11
-50.625163
21
5
31
0
39
0
210
0
220
0
230
1
0
LINE
5
97
100
AcDbEntity
8
SK2
62
256
6
ByLayer
370
13
48
1
60
0
100
AcDbLine
10
-41.5875
20
-5
30
0
11
-50.625163
21
-5
31
0
39
0
210
0
220
0
230
1
0
LINE
5
98
100
AcDbEntity
8
1
62
256
6
ByLayer
370
18
48
1
60
1
100
AcDbLine
10
-48.625163
20
5
30
0
11
-48.164379
21
1.500002
31
0
39
0
210
0
220
0
230
1
0
LINE
5
99
100
AcDbEntity
8
1
62
256
6
ByLayer
370
18
48
1
60
1
100
AcDbLine
10
-48.164379
20
1.500002
30
0
11
-49.085946
21
1.499998
31
0
39
0
210
0
220
0
230
1
0
LINE
5
9A
100
AcDbEntity
8
1
62
256
6
ByLayer
370
18
48
1
60
1
100
AcDbLine
10
-49.085946
20
1.499998
30
0
11
-48.625163
21
5
31
0
39
0
210
0
220
0
230
1
0
LINE
5
9B
100
AcDbEntity
8
1
62
256
6
ByLayer
370
18
48
1
60
1
100
AcDbLine
10
-48.625163
20
-5
30
0
11
-49.085946
21
-1.500002
31
0
39
0
210
0
220
0
230
1
0
LINE
5
9C
100
AcDbEntity
8
1
62
256
6
ByLayer
370
18
48
1
60
1
100
AcDbLine
10
-49.085946
20
-1.500002
30
0
11
-48.164379
21
-1.499998
31
0
39
0
210
0
220
0
230
1
0
LINE
5
9D
100
AcDbEntity
8
1
62
256
6
ByLayer
370
18
48
1
60
1
100
AcDbLine
10
-48.164379
20
-1.499998
30
0
11
-48.625163
21
-5
31
0
39
0
210
0
220
0
230
1
0
LINE
5
9E
100
AcDbEntity
8
2
62
256
6
ByLayer
370
13
48
1
60
0
100
AcDbLine
10
75.083343
20
-4.275
30
0
11
75.083343
21
31.985193
31
0
39
0
210
0
220
0
230
1
0
LINE
5
A0
100
AcDbEntity
8
2
62
256
6
ByLayer
370
13
48
1
60
0
100
AcDbLine
10
63.322
20
4.275
30
0
11
77.083343
21
4.275
31
0
39
0
210
0
220
0
230
1
0
LINE
5
A1
100
AcDbEntity
8
2
62
256
6
ByLayer
370
13
48
1
60
0
100
AcDbLine
10
63.322
20
-4.275
30
0
11
77.083343
21
-4.275
31
0
39
0
210
0
220
0
230
1
0
LINE
5
A2
100
AcDbEntity
8
1
62
256
6
ByLayer
370
18
48
1
60
1
100
AcDbLine
10
75.083343
20
4.275
30
0
11
75.544126
21
0.775002
31
0
39
0
210
0
220
0
230
1
0
LINE
5
A3
100
AcDbEntity
8
1
62
256
6
ByLayer
370
18
48
1
60
1
100
AcDbLine
10
75.544126
20
0.775002
30
0
11
74.622559
21
0.774998
31
0
39
0
210
0
220
0
230
1
0
LINE
5
A4
100
AcDbEntity
8
1
62
256
6
ByLayer
370
18
48
1
60
1
100
AcDbLine
10
74.622559
20
0.774998
30
0
11
75.083343
21
4.275
31
0
39
0
210
0
220
0
230
1
0
LINE
5
A5
100
AcDbEntity
8
1
62
256
6
ByLayer
370
18
48
1
60
1
100
AcDbLine
10
75.083343
20
-4.275
30
0
11
74.622559
21
-0.775002
31
0
39
0
210
0
220
0
230
1
0
LINE
5
A6
100
AcDbEntity
8
1
62
256
6
ByLayer
370
18
48
1
60
1
100
AcDbLine
10
74.622559
20
-0.775002
30
0
11
75.544126
21
-0.774998
31
0
39
0
210
0
220
0
230
1
0
LINE
5
A7
100
AcDbEntity
8
1
62
256
6
ByLayer
370
18
48
1
60
1
100
AcDbLine
10
75.544126
20
-0.774998
30
0
11
75.083343
21
-4.275
31
0
39
0
210
0
220
0
230
1
0
LINE
5
EC
100
AcDbEntity
8
1
62
256
6
ByLayer
370
18
48
1
60
1
100
AcDbLine
10
-48.625163
20
5
30
0
11
-48.164379
21
1.500002
31
0
39
0
210
0
220
0
230
1
0
LINE
5
ED
100
AcDbEntity
8
1
62
256
6
ByLayer
370
18
48
1
60
1
100
AcDbLine
10
-48.164379
20
1.500002
30
0
11
-49.085946
21
1.499998
31
0
39
0
210
0
220
0
230
1
0
LINE
5
EE
100
AcDbEntity
8
1
62
256
6
ByLayer
370
18
48
1
60
1
100
AcDbLine
10
-49.085946
20
1.499998
30
0
11
-48.625163
21
5
31
0
39
0
210
0
220
0
230
1
0
LINE
5
F0
100
AcDbEntity
8
1
62
256
6
ByLayer
370
18
48
1
60
1
100
AcDbLine
10
-48.625163
20
-5
30
0
11
-49.085946
21
-1.500002
31
0
39
0
210
0
220
0
230
1
0
LINE
5
F1
100
AcDbEntity
8
1
62
256
6
ByLayer
370
18
48
1
60
1
100
AcDbLine
10
-49.085946
20
-1.500002
30
0
11
-48.164379
21
-1.499998
31
0
39
0
210
0
220
0
230
1
0
LINE
5
F2
100
AcDbEntity
8
1
62
256
6
ByLayer
370
18
48
1
60
1
100
AcDbLine
10
-48.164379
20
-1.499998
30
0
11
-48.625163
21
-5
31
0
39
0
210
0
220
0
230
1
0
LINE
5
F6
100
AcDbEntity
8
1
62
256
6
ByLayer
370
18
48
1
60
1
100
AcDbLine
10
75.083343
20
4.275
30
0
11
75.544126
21
0.775002
31
0
39
0
210
0
220
0
230
1
0
LINE
5
F7
100
AcDbEntity
8
1
62
256
6
ByLayer
370
18
48
1
60
1
100
AcDbLine
10
75.544126
20
0.775002
30
0
11
74.622559
21
0.774998
31
0
39
0
210
0
220
0
230
1
0
LINE
5
F8
100
AcDbEntity
8
1
62
256
6
ByLayer
370
18
48
1
60
1
100
AcDbLine
10
74.622559
20
0.774998
30
0
11
75.083343
21
4.275
31
0
39
0
210
0
220
0
230
1
0
LINE
5
FA
100
AcDbEntity
8
1
62
256
6
ByLayer
370
18
48
1
60
1
100
AcDbLine
10
75.083343
20
-4.275
30
0
11
74.622559
21
-0.775002
31
0
39
0
210
0
220
0
230
1
0
LINE
5
FB
100
AcDbEntity
8
1
62
256
6
ByLayer
370
18
48
1
60
1
100
AcDbLine
10
74.622559
20
-0.775002
30
0
11
75.544126
21
-0.774998
31
0
39
0
210
0
220
0
230
1
0
LINE
5
FC
100
AcDbEntity
8
1
62
256
6
ByLayer
370
18
48
1
60
1
100
AcDbLine
10
75.544126
20
-0.774998
30
0
11
75.083343
21
-4.275
31
0
39
0
210
0
220
0
230
1
0
MTEXT
5
E6
100
AcDbEntity
8
SK6
62
256
6
ByLayer
370
13
48
1
60
0
100
AcDbMText
10
-18.266893
20
36.815328
30
0
210
0
220
0
230
1
1
\W0.7823;462.1-0855-043A0-XM X2BM
40
3.5
41
0
44
1.084337
50
0
71
7
72
5
7
iso_b_vert
0
MTEXT
5
EA
100
AcDbEntity
8
SK2
62
256
6
ByLayer
370
18
48
1
60
0
100
AcDbMText
10
-50.189796
20
18.409024
30
0
210
0
220
0
230
1
1
%%c
40
3.5
41
0
44
1.084337
50
90
71
7
72
5
7
iso_b_vert
0
MTEXT
5
EB
100
AcDbEntity
8
SK2
62
256
6
ByLayer
370
18
48
1
60
0
100
AcDbMText
10
-50.189796
20
23.63168
30
0
210
0
220
0
230
1
1
\W0.6930;10,000
40
3.5
41
0
44
1.084337
50
90
71
7
72
5
7
iso_b_vert
0
MTEXT
5
F4
100
AcDbEntity
8
2
62
256
6
ByLayer
370
18
48
1
60
0
100
AcDbMText
10
73.518709
20
16.27711
30
0
210
0
220
0
230
1
1
%%c
40
3.5
41
0
44
1.084337
50
90
71
7
72
5
7
iso_b_vert
0
MTEXT
5
F5
100
AcDbEntity
8
2
62
256
6
ByLayer
370
18
48
1
60
0
100
AcDbMText
10
73.518709
20
21.499766
30
0
210
0
220
0
230
1
1
\W0.7317;8,550
40
3.5
41
0
44
1.084337
50
90
71
7
72
5
7
iso_b_vert
0
HATCH
5
EF
100
AcDbEntity
8
SK2
62
256
6
ByLayer
370
13
48
1
60
0
100
AcDbHatch
10
0
20
0
30
0
210
0
220
0
230
1
2
ANSI31
70
0
71
0
91
1
92
5
93
3
72
1
10
-48.6251625675374
20
5
11
-48.1643788259847
21
1.50000169255318
72
1
10
-48.1643788259847
20
1.50000169255318
11
-49.0859463090902
21
1.49999830744682
72
1
10
-49.0859463090902
20
1.49999830744682
11
-48.6251625675374
21
5
97
0
75
0
76
1
52
0
41
0.0062
77
0
78
1
53
45
43
0
44
0
45
-0.0139193969876572
46
0.0139193969876572
79
0
47
0
98
1
10
0
20
0
0
HATCH
5
F3
100
AcDbEntity
8
SK2
62
256
6
ByLayer
370
13
48
1
60
0
100
AcDbHatch
10
0
20
0
30
0
210
0
220
0
230
1
2
ANSI31
70
0
71
0
91
1
92
5
93
3
72
1
10
-48.6251625675374
20
-5
11
-49.0859463090902
21
-1.50000169255318
72
1
10
-49.0859463090902
20
-1.50000169255318
11
-48.1643788259847
21
-1.49999830744682
72
1
10
-48.1643788259847
20
-1.49999830744682
11
-48.6251625675374
21
-5
97
0
75
0
76
1
52
0
41
0.0062
77
0
78
1
53
45
43
0
44
0
45
-0.0139193969876572
46
0.0139193969876572
79
0
47
0
98
1
10
0
20
0
0
HATCH
5
F9
100
AcDbEntity
8
2
62
256
6
ByLayer
370
13
48
1
60
0
100
AcDbHatch
10
0
20
0
30
0
210
0
220
0
230
1
2
ANSI31
70
0
71
0
91
1
92
5
93
3
72
1
10
75.083342615295
20
4.27500000000001
11
75.5441263568477
21
0.77500169255319
72
1
10
75.5441263568477
20
0.77500169255319
11
74.6225588737422
21
0.774998307446822
72
1
10
74.6225588737422
20
0.774998307446822
11
75.083342615295
21
4.27500000000001
97
0
75
0
76
1
52
0
41
0.0062
77
0
78
1
53
45
43
0
44
0
45
-0.0139193969876572
46
0.0139193969876572
79
0
47
0
98
1
10
0
20
0
0
HATCH
5
FD
100
AcDbEntity
8
2
62
256
6
ByLayer
370
13
48
1
60
0
100
AcDbHatch
10
0
20
0
30
0
210
0
220
0
230
1
2
ANSI31
70
0
71
0
91
1
92
5
93
3
72
1
10
75.083342615295
20
-4.27499999999998
11
74.6225588737422
21
-0.775001692553161
72
1
10
74.6225588737422
20
-0.775001692553161
11
75.5441263568477
21
-0.774998307446793
72
1
10
75.5441263568477
20
-0.774998307446793
11
75.083342615295
21
-4.27499999999998
97
0
75
0
76
1
52
0
41
0.0062
77
0
78
1
53
45
43
0
44
0
45
-0.0139193969876572
46
0.0139193969876572
79
0
47
0
98
1
10
0
20
0
0
DIMENSION
5
FF
100
AcDbEntity
8
SK2
62
256
6
ByLayer
370
13
48
1
60
0
100
AcDbDimension
2
_U0
10
61.7345
20
-14.488398
30
0
11
30.86725
21
-14.488398
31
0
70
32
71
1
72
1
41
1
210
0
220
0
230
1
3
Standard
100
AcDbAlignedDimension
13
0
23
0
33
0
14
61.7345
24
-4.275
34
0
50
0
100
AcDbRotatedDimension
1001
ACAD
1000
DSTYLE
1002
{
1070
   371
1070
    13
1070
   372
1070
    13
1070
   170
1070
     0
1070
   144
1040
1.0
1070
   277
1070
     2
1070
   278
1070
    44
1070
   146
1040
1.0
1070
   345
1005
16
1070
   347
1005
16
1070
   346
1005
16
1070
   344
1005
0
1070
   343
1005
0
1070
   172
1070
     1
1070
    76
1070
     0
1070
    75
1070
     0
1070
   282
1070
     0
1070
   281
1070
     0
1070
    71
1070
     0
1070
    74
1070
     0
1070
   279
1070
     0
1070
   173
1070
     1
1070
   340
1005
E7
1070
   271
1070
     2
1070
   272
1070
     2
1070
    77
1070
     1
1070
    73
1070
     1
1070
   171
1070
     3
1070
   274
1070
     4
1070
   177
1070
    35
1070
   176
1070
    35
1070
   178
1070
    35
1070
    48
1040
-0.1
1070
    41
1040
3.5
1070
   147
1040
1.75
1070
    42
1040
1.5875
1070
    44
1040
2.0
1070
   140
1040
3.5
1002
}
1001
ACAD_DSTYLE_DIM_LINETYPE
1070
   380
1005
16
1001
ACAD_DSTYLE_DIM_EXT1_LINETYPE
1070
   381
1005
16
1001
ACAD_DSTYLE_DIM_EXT2_LINETYPE
1070
   382
1005
16
0
DIMENSION
5
118
100
AcDbEntity
8
SK2
62
256
6
ByLayer
370
13
48
1
60
0
100
AcDbDimension
2
_U1
10
63
20
-33.692985
30
0
11
11.5
21
-33.692985
31
0
70
32
71
1
72
1
41
1
210
0
220
0
230
1
3
Standard
100
AcDbAlignedDimension
13
-40
23
-5
33
0
14
63
24
0
34
0
50
0
100
AcDbRotatedDimension
1001
ACAD
1000
DSTYLE
1002
{
1070
   371
1070
    13
1070
   372
1070
    13
1070
   170
1070
     0
1070
   144
1040
1.0
1070
   277
1070
     2
1070
   278
1070
    44
1070
   146
1040
1.0
1070
   345
1005
16
1070
   347
1005
16
1070
   346
1005
16
1070
   344
1005
0
1070
   343
1005
0
1070
   172
1070
     1
1070
    76
1070
     0
1070
    75
1070
     0
1070
   282
1070
     0
1070
   281
1070
     0
1070
    71
1070
     0
1070
    74
1070
     0
1070
   279
1070
     0
1070
   173
1070
     1
1070
   340
1005
E7
1070
   271
1070
     2
1070
   272
1070
     2
1070
    77
1070
     1
1070
    73
1070
     1
1070
   171
1070
     3
1070
   274
1070
     4
1070
   177
1070
    35
1070
   176
1070
    35
1070
   178
1070
    35
1070
    48
1040
-0.1
1070
    41
1040
3.5
1070
   147
1040
1.75
1070
    42
1040
1.5875
1070
    44
1040
2.0
1070
   140
1040
3.5
1002
}
1001
ACAD_DSTYLE_DIM_LINETYPE
1070
   380
1005
16
1001
ACAD_DSTYLE_DIM_EXT1_LINETYPE
1070
   381
1005
16
1001
ACAD_DSTYLE_DIM_EXT2_LINETYPE
1070
   382
1005
16
0
DIMENSION
5
130
100
AcDbEntity
8
SK2
62
256
6
ByLayer
370
13
48
1
60
0
100
AcDbDimension
2
_U2
10
63
20
15.884119
30
0
11
40.99
21
15.884119
31
0
70
32
71
1
72
1
41
1
210
0
220
0
230
1
3
Standard
100
AcDbAlignedDimension
13
18.98
23
4.275
33
0
14
63
24
0
34
0
50
0
100
AcDbRotatedDimension
1001
ACAD
1000
DSTYLE
1002
{
1070
   371
1070
    13
1070
   372
1070
    13
1070
   170
1070
     0
1070
   144
1040
1.0
1070
   277
1070
     2
1070
   278
1070
    44
1070
   146
1040
1.0
1070
   345
1005
16
1070
   347
1005
16
1070
   346
1005
16
1070
   344
1005
0
1070
   343
1005
0
1070
   172
1070
     1
1070
    76
1070
     0
1070
    75
1070
     0
1070
   282
1070
     0
1070
   281
1070
     0
1070
    71
1070
     0
1070
    74
1070
     0
1070
   279
1070
     0
1070
   173
1070
     1
1070
   340
1005
E7
1070
   271
1070
     2
1070
   272
1070
     2
1070
    77
1070
     1
1070
    73
1070
     1
1070
   171
1070
     3
1070
   274
1070
     4
1070
   177
1070
    35
1070
   176
1070
    35
1070
   178
1070
    35
1070
    48
1040
-0.1
1070
    41
1040
3.5
1070
   147
1040
1.75
1070
    42
1040
1.5875
1070
    44
1040
2.0
1070
   140
1040
3.5
1002
}
1001
ACAD_DSTYLE_DIM_LINETYPE
1070
   380
1005
16
1001
ACAD_DSTYLE_DIM_EXT1_LINETYPE
1070
   381
1005
16
1001
ACAD_DSTYLE_DIM_EXT2_LINETYPE
1070
   382
1005
16
0
DIMENSION
5
148
100
AcDbEntity
8
SK2
62
256
6
ByLayer
370
13
48
1
60
0
100
AcDbDimension
2
_U3
10
61.7345
20
-17.077503
30
0
11
80.333333
21
-17.077503
31
0
70
32
71
1
72
1
41
1
210
0
220
0
230
1
3
Standard
100
AcDbAlignedDimension
13
63
23
0
33
0
14
61.7345
24
-4.275
34
0
50
0
100
AcDbRotatedDimension
1001
ACAD
1000
DSTYLE
1002
{
1070
   371
1070
    13
1070
   372
1070
    13
1070
   170
1070
     0
1070
   144
1040
1.0
1070
   277
1070
     2
1070
   278
1070
    44
1070
   146
1040
1.0
1070
   345
1005
16
1070
   347
1005
16
1070
   346
1005
16
1070
   344
1005
0
1070
   343
1005
0
1070
   172
1070
     1
1070
    76
1070
     0
1070
    75
1070
     0
1070
   282
1070
     0
1070
   281
1070
     0
1070
    71
1070
     0
1070
    74
1070
     0
1070
   279
1070
     0
1070
   173
1070
     1
1070
   340
1005
E7
1070
   271
1070
     2
1070
   272
1070
     2
1070
    77
1070
     1
1070
    73
1070
     1
1070
   171
1070
     3
1070
   274
1070
     4
1070
   177
1070
    35
1070
   176
1070
    35
1070
   178
1070
    35
1070
    48
1040
-0.1
1070
    41
1040
3.5
1070
   147
1040
1.75
1070
    42
1040
1.5875
1070
    44
1040
2.0
1070
   140
1040
3.5
1002
}
1001
ACAD_DSTYLE_DIM_LINETYPE
1070
   380
1005
16
1001
ACAD_DSTYLE_DIM_EXT1_LINETYPE
1070
   381
1005
16
1001
ACAD_DSTYLE_DIM_EXT2_LINETYPE
1070
   382
1005
16
0
DIMENSION
5
162
100
AcDbEntity
8
SK2
62
256
6
ByLayer
370
13
48
1
60
0
100
AcDbDimension
2
_U4
10
61.7345
20
-23.343428
30
0
11
10.86725
21
-23.343428
31
0
70
32
71
1
72
1
41
1
210
0
220
0
230
1
3
Standard
100
AcDbAlignedDimension
13
-40
23
-5
33
0
14
61.7345
24
-4.275
34
0
50
0
100
AcDbRotatedDimension
1001
ACAD
1000
DSTYLE
1002
{
1070
   371
1070
    13
1070
   372
1070
    13
1070
   170
1070
     0
1070
   144
1040
1.0
1070
   277
1070
     2
1070
   278
1070
    44
1070
   146
1040
1.0
1070
   345
1005
16
1070
   347
1005
16
1070
   346
1005
16
1070
   344
1005
0
1070
   343
1005
0
1070
   172
1070
     1
1070
    76
1070
     0
1070
    75
1070
     0
1070
   282
1070
     0
1070
   281
1070
     0
1070
    71
1070
     0
1070
    74
1070
     0
1070
   279
1070
     0
1070
   173
1070
     1
1070
   340
1005
E7
1070
   271
1070
     2
1070
   272
1070
     2
1070
    77
1070
     1
1070
    73
1070
     1
1070
   171
1070
     3
1070
   274
1070
     4
1070
   177
1070
    35
1070
   176
1070
    35
1070
   178
1070
    35
1070
    48
1040
-0.1
1070
    41
1040
3.5
1070
   147
1040
1.75
1070
    42
1040
1.5875
1070
    44
1040
2.0
1070
   140
1040
3.5
1002
}
1001
ACAD_DSTYLE_DIM_LINETYPE
1070
   380
1005
16
1001
ACAD_DSTYLE_DIM_EXT1_LINETYPE
1070
   381
1005
16
1001
ACAD_DSTYLE_DIM_EXT2_LINETYPE
1070
   382
1005
16
0
ENDSEC
0
SECTION
2
OBJECTS
0
DICTIONARY
5
1ea
330
0
100
AcDbDictionary
280
0
281
1
3
ACAD_GROUP
350
1eb
3
ACAD_MLINESTYLE
350
1ec
0
DICTIONARY
5
1eb
330
0
100
AcDbDictionary
280
0
281
1
0
DICTIONARY
5
1ec
330
0
100
AcDbDictionary
280
0
281
1
3
Standard
350
18
0
MLINESTYLE
5
18
330
1ec
100
AcDbMlineStyle
2
Standard
70
0
3

62
256
51
90
52
90
71
2
49
-0.5
62
256
6
ByLayer
49
0.5
62
256
6
ByLayer
0
RASTERVARIABLES
5
1d8
330

100
AcDbRasterVariables
90
0
70
1
71
1
72
1
0
ENDSEC
0
EOF
