0
SECTION
2
HEADER
9
$ACADVER
1
AC1015
9
$DWGCODEPAGE
3
ANSI_1252
9
$HANDSEED
5
1f3
9
$ANGBASE
50
0
9
$ANGDIR
70
0
9
$ATTMODE
70
1
9
$AUNITS
70
0
9
$AUPREC
70
0
9
$CECOLOR
62
256
9
$CELTSCALE
40
1
9
$CELTYPE
6
ByLayer
9
$CELWEIGHT
370
18
9
$CLAYER
8
0
9
$CMLJUST
70
0
9
$CMLSCALE
40
1
9
$CMLSTYLE
2
Standard
9
$DIMSTYLE
2
Standard
9
$TEXTSIZE
40
0.2
9
$TEXTSTYLE
7
Standard
9
$LUNITS
70
2
9
$LUPREC
70
4
9
$EXTNAMES
290
1
9
$INSUNITS
70
4
9
$LTSCALE
40
1
9
$LWDISPLAY
290
1
9
$PDMODE
70
0
9
$PDSIZE
40
0
9
$PLINEGEN
70
0
0
ENDSEC
0
SECTION
2
CLASSES
0
CLASS
1
RASTERVARIABLES
2
AcDbRasterVariables
3
ISM
90
0
280
0
281
0
0
ENDSEC
0
SECTION
2
TABLES
0
TABLE
2
VPORT
5
1e9
100
AcDbSymbolTable
0
VPORT
5
1
100
AcDbSymbolTableRecord
100
AcDbViewportTableRecord
2
*Active
70
0
10
0
20
0
11
1
21
1
12
-1
22
1
13
0
23
0
14
0.5
24
0.5
15
10
25
10
16
0
26
0
36
1
17
0
27
0
37
0
0
ENDTAB
0
TABLE
2
LTYPE
5
1ea
100
AcDbSymbolTable
0
LTYPE
5
14
100
AcDbSymbolTableRecord
100
AcDbLinetypeTableRecord
70
0
2
ByBlock
3

72
65
73
0
40
0
0
LTYPE
5
15
100
AcDbSymbolTableRecord
100
AcDbLinetypeTableRecord
70
0
2
ByLayer
3

72
65
73
0
40
0
0
LTYPE
5
16
100
AcDbSymbolTableRecord
100
AcDbLinetypeTableRecord
70
0
2
Continuous
3
Solid line
72
65
73
0
40
0
0
LTYPE
5
6E
100
AcDbSymbolTableRecord
100
AcDbLinetypeTableRecord
70
0
2
CENTER
3
____ _ ____ _ ____ _ ____
72
65
73
4
40
47.5
49
22
74
0
49
-8.5
74
0
49
8.5
74
0
49
-8.5
74
0
0
LTYPE
5
6F
100
AcDbSymbolTableRecord
100
AcDbLinetypeTableRecord
70
0
2
DASHED
3
__ __ __ __ __ __ __ __ __
72
65
73
2
40
25.72
49
12.86
74
0
49
-12.86
74
0
0
ENDTAB
0
TABLE
2
LAYER
5
1eb
100
AcDbSymbolTable
0
LAYER
5
10
100
AcDbSymbolTableRecord
100
AcDbLayerTableRecord
2
0
70
0
62
7
6
Continuous
290
1
370
-3
390
0
0
LAYER
5
71
100
AcDbSymbolTableRecord
100
AcDbLayerTableRecord
2
80
70
0
62
-6
6
Continuous
290
1
370
-3
390
0
0
LAYER
5
73
100
AcDbSymbolTableRecord
100
AcDbLayerTableRecord
2
81
70
0
62
-3
6
Continuous
290
1
370
-3
390
0
0
LAYER
5
75
100
AcDbSymbolTableRecord
100
AcDbLayerTableRecord
2
1
70
0
62
4
6
Continuous
290
1
370
-3
390
0
0
LAYER
5
88
100
AcDbSymbolTableRecord
100
AcDbLayerTableRecord
2
4
70
0
62
-2
6
CENTER
290
1
370
-3
390
0
0
LAYER
5
A1
100
AcDbSymbolTableRecord
100
AcDbLayerTableRecord
2
2
70
0
62
7
6
Continuous
290
1
370
-3
390
0
0
LAYER
5
FE
100
AcDbSymbolTableRecord
100
AcDbLayerTableRecord
2
Defpoints
70
0
62
7
6
Continuous
290
0
370
-3
390
0
0
LAYER
5
1d5
100
AcDbSymbolTableRecord
100
AcDbLayerTableRecord
2
SK1
70
0
62
4
6
Continuous
290
1
370
-3
390
0
0
LAYER
5
1d6
100
AcDbSymbolTableRecord
100
AcDbLayerTableRecord
2
SK4
70
0
62
2
6
CENTER
290
1
370
-3
390
0
0
LAYER
5
1d7
100
AcDbSymbolTableRecord
100
AcDbLayerTableRecord
2
SK2
70
0
62
7
6
Continuous
290
1
370
-3
390
0
0
LAYER
5
1d8
100
AcDbSymbolTableRecord
100
AcDbLayerTableRecord
2
SK6
70
0
62
5
6
Continuous
290
1
370
-3
390
0
0
ENDTAB
0
TABLE
2
STYLE
5
1ec
100
AcDbSymbolTable
0
STYLE
5
11
100
AcDbSymbolTableRecord
100
AcDbTextStyleTableRecord
2
Standard
3
txt
70
0
71
0
40
0
41
1
42
0
50
0
0
STYLE
5
E3
100
AcDbSymbolTableRecord
100
AcDbTextStyleTableRecord
2
iso_b_vert
3
simplex.shx
70
0
71
0
40
0
41
1
42
0
50
0
0
STYLE
5
E4
100
AcDbSymbolTableRecord
100
AcDbTextStyleTableRecord
2
DWGDirectTextStyle
3
simplex
70
0
71
0
40
0
41
1
42
0
50
0
0
ENDTAB
0
TABLE
2
DIMSTYLE
5
1ed
100
AcDbSymbolTable
100
AcDbDimStyleTable
0
DIMSTYLE
105
27
100
AcDbSymbolTableRecord
100
AcDbDimStyleTableRecord
2
Standard
70
0
3
<>
41
0.18
42
0.0625
44
0.18
140
0.18
147
0.09
73
0
74
0
77
1
271
2
275
0
278
52
280
0
340
11
0
ENDTAB
0
TABLE
2
VIEW
5
1ee
100
AcDbSymbolTable
0
ENDTAB
0
TABLE
2
UCS
5
1ef
100
AcDbSymbolTable
0
ENDTAB
0
TABLE
2
APPID
5
1f0
100
AcDbSymbolTable
0
APPID
5
12
100
AcDbSymbolTableRecord
100
AcDbRegAppTableRecord
2
ACAD
70
0
0
APPID
5
FA
100
AcDbSymbolTableRecord
100
AcDbRegAppTableRecord
2
ACAD_DSTYLE_DIMBREAK
70
0
0
APPID
5
194
100
AcDbSymbolTableRecord
100
AcDbRegAppTableRecord
2
ACAD_DSTYLE_DIM_LINETYPE
70
0
0
APPID
5
195
100
AcDbSymbolTableRecord
100
AcDbRegAppTableRecord
2
ACAD_DSTYLE_DIM_EXT1_LINETYPE
70
0
0
APPID
5
196
100
AcDbSymbolTableRecord
100
AcDbRegAppTableRecord
2
ACAD_DSTYLE_DIM_EXT2_LINETYPE
70
0
0
APPID
5
1D1
100
AcDbSymbolTableRecord
100
AcDbRegAppTableRecord
2
ACAD_MLEADERVER
70
0
0
ENDTAB
0
TABLE
2
BLOCK_RECORD
5
1f1
100
AcDbSymbolTable
0
BLOCK_RECORD
5
1F
100
AcDbSymbolTableRecord
100
AcDbBlockTableRecord
2
*Model_Space
340
0
70
0
0
BLOCK_RECORD
5
1B
100
AcDbSymbolTableRecord
100
AcDbBlockTableRecord
2
*Paper_Space
340
0
70
0
0
BLOCK_RECORD
5
23
100
AcDbSymbolTableRecord
100
AcDbBlockTableRecord
2
*Paper_Space0
340
0
70
0
0
BLOCK_RECORD
5
FF
100
AcDbSymbolTableRecord
100
AcDbBlockTableRecord
2
*D1
340
0
70
0
0
BLOCK_RECORD
5
10B
100
AcDbSymbolTableRecord
100
AcDbBlockTableRecord
2
_U0
340
0
70
0
0
BLOCK_RECORD
5
117
100
AcDbSymbolTableRecord
100
AcDbBlockTableRecord
2
*D3
340
0
70
0
0
BLOCK_RECORD
5
123
100
AcDbSymbolTableRecord
100
AcDbBlockTableRecord
2
_U1
340
0
70
0
0
BLOCK_RECORD
5
12F
100
AcDbSymbolTableRecord
100
AcDbBlockTableRecord
2
*D5
340
0
70
0
0
BLOCK_RECORD
5
13B
100
AcDbSymbolTableRecord
100
AcDbBlockTableRecord
2
_U2
340
0
70
0
0
BLOCK_RECORD
5
147
100
AcDbSymbolTableRecord
100
AcDbBlockTableRecord
2
*D7
340
0
70
0
0
BLOCK_RECORD
5
155
100
AcDbSymbolTableRecord
100
AcDbBlockTableRecord
2
_U3
340
0
70
0
0
BLOCK_RECORD
5
161
100
AcDbSymbolTableRecord
100
AcDbBlockTableRecord
2
*D9
340
0
70
0
0
BLOCK_RECORD
5
16D
100
AcDbSymbolTableRecord
100
AcDbBlockTableRecord
2
_U4
340
0
70
0
0
ENDTAB
0
ENDSEC
0
SECTION
2
BLOCKS
0
BLOCK
5
20
100
AcDbEntity
8
0
100
AcDbBlockBegin
2
*Model_Space
70
0
10
0
20
0
30
0
3
*Model_Space
0
ENDBLK
5
21
100
AcDbEntity
8
0
100
AcDbBlockEnd
0
BLOCK
5
1C
100
AcDbEntity
8
0
100
AcDbBlockBegin
2
*Paper_Space
70
0
10
0
20
0
30
0
3
*Paper_Space
0
ENDBLK
5
1D
100
AcDbEntity
8
0
100
AcDbBlockEnd
0
BLOCK
5
24
100
AcDbEntity
8
0
100
AcDbBlockBegin
2
*Paper_Space0
70
0
10
0
20
0
30
0
3
*Paper_Space0
0
ENDBLK
5
25
100
AcDbEntity
8
0
100
AcDbBlockEnd
0
BLOCK
5
100
100
AcDbEntity
8
0
100
AcDbBlockBegin
2
*D1
70
1
10
0
20
0
30
0
3
*D1
0
LINE
5
102
100
AcDbEntity
8
0
62
256
6
ByLayer
370
-2
48
1
60
0
100
AcDbLine
10
0
20
-1.5875
30
0
11
0
21
-19.713398
31
0
39
0
210
0
220
0
230
1
0
LINE
5
103
100
AcDbEntity
8
0
62
256
6
ByLayer
370
-2
48
1
60
0
100
AcDbLine
10
82.7625
20
-9.0875
30
0
11
82.7625
21
-19.713398
31
0
39
0
210
0
220
0
230
1
0
LINE
5
104
100
AcDbEntity
8
0
62
256
6
ByLayer
370
-2
48
1
60
0
100
AcDbLine
10
3.5
20
-17.713398
30
0
11
79.2625
21
-17.713398
31
0
39
0
210
0
220
0
230
1
0
SOLID
5
105
100
AcDbEntity
8
0
62
256
6
ByLayer
370
-1
48
1
60
0
100
AcDbTrace
10
3.5
20
-17.130065
30
0
11
3.5
21
-18.296732
31
0
12
0
22
-17.713398
32
0
13
0
23
-17.713398
33
0
39
0
210
0
220
0
230
1
0
SOLID
5
106
100
AcDbEntity
8
0
62
256
6
ByLayer
370
-1
48
1
60
0
100
AcDbTrace
10
79.2625
20
-18.296732
30
0
11
79.2625
21
-17.130065
31
0
12
82.7625
22
-17.713398
32
0
13
82.7625
23
-17.713398
33
0
39
0
210
0
220
0
230
1
0
MTEXT
5
107
100
AcDbEntity
8
0
62
256
6
ByLayer
370
18
48
1
60
0
100
AcDbMText
10
41.38125
20
-10.713398
30
0
210
0
220
0
230
1
1
\A1;82.76
40
3.5
41
0
44
1
50
0
71
5
72
5
7
iso_b_vert
0
POINT
5
108
100
AcDbEntity
8
Defpoints
62
0
6
ByLayer
370
-1
48
1
60
0
100
AcDbPoint
10
0
20
0
30
0
39
0
210
0
220
0
230
1
50
360
0
POINT
5
109
100
AcDbEntity
8
Defpoints
62
0
6
ByLayer
370
-1
48
1
60
0
100
AcDbPoint
10
82.7625
20
-7.5
30
0
39
0
210
0
220
0
230
1
50
360
0
POINT
5
10A
100
AcDbEntity
8
Defpoints
62
0
6
ByLayer
370
-1
48
1
60
0
100
AcDbPoint
10
82.7625
20
-17.713398
30
0
39
0
210
0
220
0
230
1
50
360
0
ENDBLK
5
101
100
AcDbEntity
8
0
100
AcDbBlockEnd
0
BLOCK
5
112
100
AcDbEntity
8
0
100
AcDbBlockBegin
2
_U0
70
0
10
0
20
0
30
0
3
_U0
0
MTEXT
5
10C
100
AcDbEntity
8
SK2
62
256
6
ByLayer
370
13
48
1
60
0
100
AcDbMText
10
36.243951
20
-16.680765
30
0
210
0
220
0
230
1
1
\W0.7317;82,76
40
3.5
41
0
44
1.084337
50
0
71
7
72
5
7
iso_b_vert
0
LINE
5
10D
100
AcDbEntity
8
SK2
62
256
6
ByLayer
370
13
48
1
60
0
100
AcDbLine
10
0
20
-1.5875
30
0
11
0
21
-19.713398
31
0
39
0
210
0
220
0
230
1
0
LINE
5
10E
100
AcDbEntity
8
SK2
62
256
6
ByLayer
370
13
48
1
60
0
100
AcDbLine
10
82.7625
20
-9.0875
30
0
11
82.7625
21
-19.713398
31
0
39
0
210
0
220
0
230
1
0
LINE
5
10F
100
AcDbEntity
8
SK2
62
256
6
ByLayer
370
13
48
1
60
0
100
AcDbLine
10
0
20
-17.713398
30
0
11
82.7625
21
-17.713398
31
0
39
0
210
0
220
0
230
1
0
SOLID
5
110
100
AcDbEntity
8
SK2
62
256
6
ByLayer
370
18
48
1
60
0
100
AcDbTrace
10
0
20
-17.713398
30
0
11
3.499998
21
-17.252615
31
0
12
3.500002
22
-18.174182
32
0
13
3.500002
23
-18.174182
33
0
39
0
210
0
220
0
230
1
0
SOLID
5
111
100
AcDbEntity
8
SK2
62
256
6
ByLayer
370
18
48
1
60
0
100
AcDbTrace
10
82.7625
20
-17.713398
30
0
11
79.262502
21
-18.174182
31
0
12
79.262498
22
-17.252615
32
0
13
79.262498
23
-17.252615
33
0
39
0
210
0
220
0
230
1
0
ENDBLK
5
113
100
AcDbEntity
8
0
100
AcDbBlockEnd
0
BLOCK
5
118
100
AcDbEntity
8
0
100
AcDbBlockBegin
2
*D3
70
1
10
0
20
0
30
0
3
*D3
0
LINE
5
11A
100
AcDbEntity
8
0
62
256
6
ByLayer
370
-2
48
1
60
0
100
AcDbLine
10
-48
20
-9.5875
30
0
11
-48
21
-38.692985
31
0
39
0
210
0
220
0
230
1
0
LINE
5
11B
100
AcDbEntity
8
0
62
256
6
ByLayer
370
-2
48
1
60
0
100
AcDbLine
10
85
20
-1.5875
30
0
11
85
21
-38.692985
31
0
39
0
210
0
220
0
230
1
0
LINE
5
11C
100
AcDbEntity
8
0
62
256
6
ByLayer
370
-2
48
1
60
0
100
AcDbLine
10
-44.5
20
-36.692985
30
0
11
81.5
21
-36.692985
31
0
39
0
210
0
220
0
230
1
0
SOLID
5
11D
100
AcDbEntity
8
0
62
256
6
ByLayer
370
-1
48
1
60
0
100
AcDbTrace
10
-44.5
20
-36.109652
30
0
11
-44.5
21
-37.276319
31
0
12
-48
22
-36.692985
32
0
13
-48
23
-36.692985
33
0
39
0
210
0
220
0
230
1
0
SOLID
5
11E
100
AcDbEntity
8
0
62
256
6
ByLayer
370
-1
48
1
60
0
100
AcDbTrace
10
81.5
20
-37.276319
30
0
11
81.5
21
-36.109652
31
0
12
85
22
-36.692985
32
0
13
85
23
-36.692985
33
0
39
0
210
0
220
0
230
1
0
MTEXT
5
11F
100
AcDbEntity
8
0
62
256
6
ByLayer
370
18
48
1
60
0
100
AcDbMText
10
18.5
20
-29.692985
30
0
210
0
220
0
230
1
1
\A1;133.00
40
3.5
41
0
44
1
50
0
71
5
72
5
7
iso_b_vert
0
POINT
5
120
100
AcDbEntity
8
Defpoints
62
0
6
ByLayer
370
-1
48
1
60
0
100
AcDbPoint
10
-48
20
-8
30
0
39
0
210
0
220
0
230
1
50
360
0
POINT
5
121
100
AcDbEntity
8
Defpoints
62
0
6
ByLayer
370
-1
48
1
60
0
100
AcDbPoint
10
85
20
0
30
0
39
0
210
0
220
0
230
1
50
360
0
POINT
5
122
100
AcDbEntity
8
Defpoints
62
0
6
ByLayer
370
-1
48
1
60
0
100
AcDbPoint
10
85
20
-36.692985
30
0
39
0
210
0
220
0
230
1
50
360
0
ENDBLK
5
119
100
AcDbEntity
8
0
100
AcDbBlockEnd
0
BLOCK
5
12A
100
AcDbEntity
8
0
100
AcDbBlockBegin
2
_U1
70
0
10
0
20
0
30
0
3
_U1
0
MTEXT
5
124
100
AcDbEntity
8
SK2
62
256
6
ByLayer
370
13
48
1
60
0
100
AcDbMText
10
12.492401
20
-35.660352
30
0
210
0
220
0
230
1
1
\W0.6930;133,00
40
3.5
41
0
44
1.084337
50
0
71
7
72
5
7
iso_b_vert
0
LINE
5
125
100
AcDbEntity
8
SK2
62
256
6
ByLayer
370
13
48
1
60
0
100
AcDbLine
10
-48
20
-9.5875
30
0
11
-48
21
-38.692985
31
0
39
0
210
0
220
0
230
1
0
LINE
5
126
100
AcDbEntity
8
SK2
62
256
6
ByLayer
370
13
48
1
60
0
100
AcDbLine
10
85
20
-1.5875
30
0
11
85
21
-38.692985
31
0
39
0
210
0
220
0
230
1
0
LINE
5
127
100
AcDbEntity
8
SK2
62
256
6
ByLayer
370
13
48
1
60
0
100
AcDbLine
10
-48
20
-36.692985
30
0
11
85
21
-36.692985
31
0
39
0
210
0
220
0
230
1
0
SOLID
5
128
100
AcDbEntity
8
SK2
62
256
6
ByLayer
370
18
48
1
60
0
100
AcDbTrace
10
-48
20
-36.692985
30
0
11
-44.500002
21
-36.232202
31
0
12
-44.499998
22
-37.153769
32
0
13
-44.499998
23
-37.153769
33
0
39
0
210
0
220
0
230
1
0
SOLID
5
129
100
AcDbEntity
8
SK2
62
256
6
ByLayer
370
18
48
1
60
0
100
AcDbTrace
10
85
20
-36.692985
30
0
11
81.500002
21
-37.153769
31
0
12
81.499998
22
-36.232202
32
0
13
81.499998
23
-36.232202
33
0
39
0
210
0
220
0
230
1
0
ENDBLK
5
12B
100
AcDbEntity
8
0
100
AcDbBlockEnd
0
BLOCK
5
130
100
AcDbEntity
8
0
100
AcDbBlockBegin
2
*D5
70
1
10
0
20
0
30
0
3
*D5
0
LINE
5
132
100
AcDbEntity
8
0
62
256
6
ByLayer
370
-2
48
1
60
0
100
AcDbLine
10
17
20
9.0875
30
0
11
17
21
21.109119
31
0
39
0
210
0
220
0
230
1
0
LINE
5
133
100
AcDbEntity
8
0
62
256
6
ByLayer
370
-2
48
1
60
0
100
AcDbLine
10
85
20
1.5875
30
0
11
85
21
21.109119
31
0
39
0
210
0
220
0
230
1
0
LINE
5
134
100
AcDbEntity
8
0
62
256
6
ByLayer
370
-2
48
1
60
0
100
AcDbLine
10
20.5
20
19.109119
30
0
11
81.5
21
19.109119
31
0
39
0
210
0
220
0
230
1
0
SOLID
5
135
100
AcDbEntity
8
0
62
256
6
ByLayer
370
-1
48
1
60
0
100
AcDbTrace
10
20.5
20
19.692453
30
0
11
20.5
21
18.525786
31
0
12
17
22
19.109119
32
0
13
17
23
19.109119
33
0
39
0
210
0
220
0
230
1
0
SOLID
5
136
100
AcDbEntity
8
0
62
256
6
ByLayer
370
-1
48
1
60
0
100
AcDbTrace
10
81.5
20
18.525786
30
0
11
81.5
21
19.692453
31
0
12
85
22
19.109119
32
0
13
85
23
19.109119
33
0
39
0
210
0
220
0
230
1
0
MTEXT
5
137
100
AcDbEntity
8
0
62
256
6
ByLayer
370
18
48
1
60
0
100
AcDbMText
10
51
20
26.109119
30
0
210
0
220
0
230
1
1
\A1;68.00
40
3.5
41
0
44
1
50
0
71
5
72
5
7
iso_b_vert
0
POINT
5
138
100
AcDbEntity
8
Defpoints
62
0
6
ByLayer
370
-1
48
1
60
0
100
AcDbPoint
10
17
20
7.5
30
0
39
0
210
0
220
0
230
1
50
360
0
POINT
5
139
100
AcDbEntity
8
Defpoints
62
0
6
ByLayer
370
-1
48
1
60
0
100
AcDbPoint
10
85
20
0
30
0
39
0
210
0
220
0
230
1
50
360
0
POINT
5
13A
100
AcDbEntity
8
Defpoints
62
0
6
ByLayer
370
-1
48
1
60
0
100
AcDbPoint
10
85
20
19.109119
30
0
39
0
210
0
220
0
230
1
50
360
0
ENDBLK
5
131
100
AcDbEntity
8
0
100
AcDbBlockEnd
0
BLOCK
5
142
100
AcDbEntity
8
0
100
AcDbBlockBegin
2
_U2
70
0
10
0
20
0
30
0
3
_U2
0
MTEXT
5
13C
100
AcDbEntity
8
SK2
62
256
6
ByLayer
370
13
48
1
60
0
100
AcDbMText
10
45.862701
20
20.141753
30
0
210
0
220
0
230
1
1
\W0.7317;68,00
40
3.5
41
0
44
1.084337
50
0
71
7
72
5
7
iso_b_vert
0
LINE
5
13D
100
AcDbEntity
8
SK2
62
256
6
ByLayer
370
13
48
1
60
0
100
AcDbLine
10
17
20
9.0875
30
0
11
17
21
21.109119
31
0
39
0
210
0
220
0
230
1
0
LINE
5
13E
100
AcDbEntity
8
SK2
62
256
6
ByLayer
370
13
48
1
60
0
100
AcDbLine
10
85
20
1.5875
30
0
11
85
21
21.109119
31
0
39
0
210
0
220
0
230
1
0
LINE
5
13F
100
AcDbEntity
8
SK2
62
256
6
ByLayer
370
13
48
1
60
0
100
AcDbLine
10
17
20
19.109119
30
0
11
85
21
19.109119
31
0
39
0
210
0
220
0
230
1
0
SOLID
5
140
100
AcDbEntity
8
SK2
62
256
6
ByLayer
370
18
48
1
60
0
100
AcDbTrace
10
17
20
19.109119
30
0
11
20.499998
21
19.569903
31
0
12
20.500002
22
18.648335
32
0
13
20.500002
23
18.648335
33
0
39
0
210
0
220
0
230
1
0
SOLID
5
141
100
AcDbEntity
8
SK2
62
256
6
ByLayer
370
18
48
1
60
0
100
AcDbTrace
10
85
20
19.109119
30
0
11
81.500002
21
18.648335
31
0
12
81.499998
22
19.569903
32
0
13
81.499998
23
19.569903
33
0
39
0
210
0
220
0
230
1
0
ENDBLK
5
143
100
AcDbEntity
8
0
100
AcDbBlockEnd
0
BLOCK
5
148
100
AcDbEntity
8
0
100
AcDbBlockBegin
2
*D7
70
1
10
0
20
0
30
0
3
*D7
0
LINE
5
14A
100
AcDbEntity
8
0
62
256
6
ByLayer
370
-2
48
1
60
0
100
AcDbLine
10
85
20
-1.5875
30
0
11
85
21
-22.302503
31
0
39
0
210
0
220
0
230
1
0
LINE
5
14B
100
AcDbEntity
8
0
62
256
6
ByLayer
370
-2
48
1
60
0
100
AcDbLine
10
82.7625
20
-9.0875
30
0
11
82.7625
21
-22.302503
31
0
39
0
210
0
220
0
230
1
0
LINE
5
14C
100
AcDbEntity
8
0
62
256
6
ByLayer
370
-2
48
1
60
0
100
AcDbLine
10
85
20
-20.302503
30
0
11
113.333333
21
-20.302503
31
0
39
0
210
0
220
0
230
1
0
LINE
5
14D
100
AcDbEntity
8
0
62
256
6
ByLayer
370
-2
48
1
60
0
100
AcDbLine
10
88.5
20
-20.302503
30
0
11
92
21
-20.302503
31
0
39
0
210
0
220
0
230
1
0
LINE
5
14E
100
AcDbEntity
8
0
62
256
6
ByLayer
370
-2
48
1
60
0
100
AcDbLine
10
79.2625
20
-20.302503
30
0
11
75.7625
21
-20.302503
31
0
39
0
210
0
220
0
230
1
0
SOLID
5
14F
100
AcDbEntity
8
0
62
256
6
ByLayer
370
-1
48
1
60
0
100
AcDbTrace
10
88.5
20
-19.71917
30
0
11
88.5
21
-20.885837
31
0
12
85
22
-20.302503
32
0
13
85
23
-20.302503
33
0
39
0
210
0
220
0
230
1
0
SOLID
5
150
100
AcDbEntity
8
0
62
256
6
ByLayer
370
-1
48
1
60
0
100
AcDbTrace
10
79.2625
20
-20.885837
30
0
11
79.2625
21
-19.71917
31
0
12
82.7625
22
-20.302503
32
0
13
82.7625
23
-20.302503
33
0
39
0
210
0
220
0
230
1
0
MTEXT
5
151
100
AcDbEntity
8
0
62
256
6
ByLayer
370
18
48
1
60
0
100
AcDbMText
10
102.666667
20
-13.302503
30
0
210
0
220
0
230
1
1
\A1;2.24
40
3.5
41
0
44
1
50
0
71
5
72
5
7
iso_b_vert
0
POINT
5
152
100
AcDbEntity
8
Defpoints
62
0
6
ByLayer
370
-1
48
1
60
0
100
AcDbPoint
10
85
20
0
30
0
39
0
210
0
220
0
230
1
50
360
0
POINT
5
153
100
AcDbEntity
8
Defpoints
62
0
6
ByLayer
370
-1
48
1
60
0
100
AcDbPoint
10
82.7625
20
-7.5
30
0
39
0
210
0
220
0
230
1
50
360
0
POINT
5
154
100
AcDbEntity
8
Defpoints
62
0
6
ByLayer
370
-1
48
1
60
0
100
AcDbPoint
10
82.7625
20
-20.302503
30
0
39
0
210
0
220
0
230
1
50
360
0
ENDBLK
5
149
100
AcDbEntity
8
0
100
AcDbBlockEnd
0
BLOCK
5
15C
100
AcDbEntity
8
0
100
AcDbBlockBegin
2
_U3
70
0
10
0
20
0
30
0
3
_U3
0
MTEXT
5
156
100
AcDbEntity
8
SK2
62
256
6
ByLayer
370
13
48
1
60
0
100
AcDbMText
10
90.967593
20
-19.26987
30
0
210
0
220
0
230
1
1
\W0.7383;2,24
40
3.5
41
0
44
1.084337
50
0
71
7
72
5
7
iso_b_vert
0
LINE
5
157
100
AcDbEntity
8
SK2
62
256
6
ByLayer
370
13
48
1
60
0
100
AcDbLine
10
85
20
-1.5875
30
0
11
85
21
-22.302503
31
0
39
0
210
0
220
0
230
1
0
LINE
5
158
100
AcDbEntity
8
SK2
62
256
6
ByLayer
370
13
48
1
60
0
100
AcDbLine
10
82.7625
20
-9.0875
30
0
11
82.7625
21
-22.302503
31
0
39
0
210
0
220
0
230
1
0
LINE
5
159
100
AcDbEntity
8
SK2
62
256
6
ByLayer
370
13
48
1
60
0
100
AcDbLine
10
74.0125
20
-20.302503
30
0
11
99.180758
21
-20.302503
31
0
39
0
210
0
220
0
230
1
0
SOLID
5
15A
100
AcDbEntity
8
SK2
62
256
6
ByLayer
370
18
48
1
60
0
100
AcDbTrace
10
85
20
-20.302503
30
0
11
88.499998
21
-19.841719
31
0
12
88.500002
22
-20.763287
32
0
13
88.500002
23
-20.763287
33
0
39
0
210
0
220
0
230
1
0
SOLID
5
15B
100
AcDbEntity
8
SK2
62
256
6
ByLayer
370
18
48
1
60
0
100
AcDbTrace
10
82.7625
20
-20.302503
30
0
11
79.262502
21
-20.763287
31
0
12
79.262498
22
-19.841719
32
0
13
79.262498
23
-19.841719
33
0
39
0
210
0
220
0
230
1
0
ENDBLK
5
15D
100
AcDbEntity
8
0
100
AcDbBlockEnd
0
BLOCK
5
162
100
AcDbEntity
8
0
100
AcDbBlockBegin
2
*D9
70
1
10
0
20
0
30
0
3
*D9
0
LINE
5
164
100
AcDbEntity
8
0
62
256
6
ByLayer
370
-2
48
1
60
0
100
AcDbLine
10
-48
20
-9.5875
30
0
11
-48
21
-28.343428
31
0
39
0
210
0
220
0
230
1
0
LINE
5
165
100
AcDbEntity
8
0
62
256
6
ByLayer
370
-2
48
1
60
0
100
AcDbLine
10
82.7625
20
-9.0875
30
0
11
82.7625
21
-28.343428
31
0
39
0
210
0
220
0
230
1
0
LINE
5
166
100
AcDbEntity
8
0
62
256
6
ByLayer
370
-2
48
1
60
0
100
AcDbLine
10
-44.5
20
-26.343428
30
0
11
79.2625
21
-26.343428
31
0
39
0
210
0
220
0
230
1
0
SOLID
5
167
100
AcDbEntity
8
0
62
256
6
ByLayer
370
-1
48
1
60
0
100
AcDbTrace
10
-44.5
20
-25.760095
30
0
11
-44.5
21
-26.926762
31
0
12
-48
22
-26.343428
32
0
13
-48
23
-26.343428
33
0
39
0
210
0
220
0
230
1
0
SOLID
5
168
100
AcDbEntity
8
0
62
256
6
ByLayer
370
-1
48
1
60
0
100
AcDbTrace
10
79.2625
20
-26.926762
30
0
11
79.2625
21
-25.760095
31
0
12
82.7625
22
-26.343428
32
0
13
82.7625
23
-26.343428
33
0
39
0
210
0
220
0
230
1
0
MTEXT
5
169
100
AcDbEntity
8
0
62
256
6
ByLayer
370
18
48
1
60
0
100
AcDbMText
10
17.38125
20
-19.343428
30
0
210
0
220
0
230
1
1
\A1;130.76
40
3.5
41
0
44
1
50
0
71
5
72
5
7
iso_b_vert
0
POINT
5
16A
100
AcDbEntity
8
Defpoints
62
0
6
ByLayer
370
-1
48
1
60
0
100
AcDbPoint
10
-48
20
-8
30
0
39
0
210
0
220
0
230
1
50
360
0
POINT
5
16B
100
AcDbEntity
8
Defpoints
62
0
6
ByLayer
370
-1
48
1
60
0
100
AcDbPoint
10
82.7625
20
-7.5
30
0
39
0
210
0
220
0
230
1
50
360
0
POINT
5
16C
100
AcDbEntity
8
Defpoints
62
0
6
ByLayer
370
-1
48
1
60
0
100
AcDbPoint
10
82.7625
20
-26.343428
30
0
39
0
210
0
220
0
230
1
50
360
0
ENDBLK
5
163
100
AcDbEntity
8
0
100
AcDbBlockEnd
0
BLOCK
5
174
100
AcDbEntity
8
0
100
AcDbBlockBegin
2
_U4
70
0
10
0
20
0
30
0
3
_U4
0
MTEXT
5
16E
100
AcDbEntity
8
SK2
62
256
6
ByLayer
370
13
48
1
60
0
100
AcDbMText
10
11.373651
20
-25.310795
30
0
210
0
220
0
230
1
1
\W0.6930;130,76
40
3.5
41
0
44
1.084337
50
0
71
7
72
5
7
iso_b_vert
0
LINE
5
16F
100
AcDbEntity
8
SK2
62
256
6
ByLayer
370
13
48
1
60
0
100
AcDbLine
10
-48
20
-9.5875
30
0
11
-48
21
-28.343428
31
0
39
0
210
0
220
0
230
1
0
LINE
5
170
100
AcDbEntity
8
SK2
62
256
6
ByLayer
370
13
48
1
60
0
100
AcDbLine
10
82.7625
20
-9.0875
30
0
11
82.7625
21
-28.343428
31
0
39
0
210
0
220
0
230
1
0
LINE
5
171
100
AcDbEntity
8
SK2
62
256
6
ByLayer
370
13
48
1
60
0
100
AcDbLine
10
-48
20
-26.343428
30
0
11
82.7625
21
-26.343428
31
0
39
0
210
0
220
0
230
1
0
SOLID
5
172
100
AcDbEntity
8
SK2
62
256
6
ByLayer
370
18
48
1
60
0
100
AcDbTrace
10
-48
20
-26.343428
30
0
11
-44.500002
21
-25.882645
31
0
12
-44.499998
22
-26.804212
32
0
13
-44.499998
23
-26.804212
33
0
39
0
210
0
220
0
230
1
0
SOLID
5
173
100
AcDbEntity
8
SK2
62
256
6
ByLayer
370
18
48
1
60
0
100
AcDbTrace
10
82.7625
20
-26.343428
30
0
11
79.262502
21
-26.804212
31
0
12
79.262498
22
-25.882645
32
0
13
79.262498
23
-25.882645
33
0
39
0
210
0
220
0
230
1
0
ENDBLK
5
175
100
AcDbEntity
8
0
100
AcDbBlockEnd
0
ENDSEC
0
SECTION
2
ENTITIES
0
ARC
5
AA
100
AcDbEntity
8
1
62
256
6
ByLayer
370
18
48
1
60
0
100
AcDbCircle
39
0
10
1.208105
20
-8.249038
30
0
40
0.800000000000004
210
0
220
0
230
1
100
AcDbArc
50
89.96419
51
139.031129
0
ARC
5
AB
100
AcDbEntity
8
1
62
256
6
ByLayer
370
18
48
1
60
0
100
AcDbCircle
39
0
10
1.208105
20
8.249038
30
0
40
0.800000000000004
210
0
220
0
230
1
100
AcDbArc
50
220.968871
51
270.03581
0
ARC
5
AC
100
AcDbEntity
8
1
62
256
6
ByLayer
370
18
48
1
60
0
100
AcDbCircle
39
0
10
0
20
-7.2
30
0
40
0.799999999999999
210
0
220
0
230
1
100
AcDbArc
50
270
51
319.031129
0
ARC
5
AD
100
AcDbEntity
8
1
62
256
6
ByLayer
370
18
48
1
60
0
100
AcDbCircle
39
0
10
0
20
7.2
30
0
40
0.799999999999999
210
0
220
0
230
1
100
AcDbArc
50
40.968871
51
90
0
ELLIPSE
5
AE
100
AcDbEntity
8
1
62
256
6
ByLayer
370
18
48
1
60
0
100
AcDbEllipse
10
4.25
20
7.326357
30
0
11
0.25
21
0
31
0
210
0
220
0
230
1
40
0.999995
41
-3.10636496550959
42
-1.5557901999103
0
ELLIPSE
5
AF
100
AcDbEntity
8
1
62
256
6
ByLayer
370
18
48
1
60
0
100
AcDbEllipse
10
4.25
20
-7.326357
30
0
11
0.25
21
0
31
0
210
0
220
0
230
1
40
0.999995
41
1.58133519559498
42
3.10636496550958
0
POINT
5
70
100
AcDbEntity
8
80
62
256
6
ByLayer
370
18
48
1
60
0
100
AcDbPoint
10
0
20
0
30
0
39
0
210
0
220
0
230
1
50
360
0
POINT
5
72
100
AcDbEntity
8
81
62
256
6
ByLayer
370
18
48
1
60
0
100
AcDbPoint
10
85
20
0
30
0
39
0
210
0
220
0
230
1
50
360
0
POINT
5
74
100
AcDbEntity
8
1
62
256
6
ByLayer
370
18
48
1
60
1
100
AcDbPoint
10
82.7625
20
-7.5
30
0
39
0
210
0
220
0
230
1
50
360
0
POINT
5
76
100
AcDbEntity
8
1
62
256
6
ByLayer
370
18
48
1
60
1
100
AcDbPoint
10
-48
20
-8
30
0
39
0
210
0
220
0
230
1
50
360
0
POINT
5
77
100
AcDbEntity
8
1
62
256
6
ByLayer
370
18
48
1
60
1
100
AcDbPoint
10
17
20
7.5
30
0
39
0
210
0
220
0
230
1
50
360
0
POINT
5
78
100
AcDbEntity
8
1
62
256
6
ByLayer
370
18
48
1
60
1
100
AcDbPoint
10
82.7625
20
-7.5
30
0
39
0
210
0
220
0
230
1
50
360
0
POINT
5
79
100
AcDbEntity
8
1
62
256
6
ByLayer
370
18
48
1
60
1
100
AcDbPoint
10
-48
20
-8
30
0
39
0
210
0
220
0
230
1
50
360
0
POINT
5
7A
100
AcDbEntity
8
1
62
256
6
ByLayer
370
18
48
1
60
1
100
AcDbPoint
10
82.7625
20
-7.5
30
0
39
0
210
0
220
0
230
1
50
360
0
SPLINE
5
B0
100
AcDbEntity
8
1
62
256
6
ByLayer
370
18
48
1
60
0
100
AcDbSpline
70
4
71
3
72
8
73
4
40
0
40
0
40
0
40
0
40
1
40
1
40
1
40
1
41
1
10
82.4689946110996
20
-7.21267650275391
30
0
41
1
10
82.4315075113209
20
-7.30556099281389
30
0
41
1
10
82.3939401045575
20
-7.39828034970765
30
0
41
1
10
82.3562987016136
20
-7.49083761535317
30
0
0
SPLINE
5
B1
100
AcDbEntity
8
1
62
256
6
ByLayer
370
18
48
1
60
0
100
AcDbSpline
70
4
71
3
72
100
73
96
40
0
40
0
40
0
40
0
40
0.0154296733379897
40
0.0154296733379897
40
0.0344316836872997
40
0.0344316836872997
40
0.0534336940366098
40
0.0534336940366098
40
0.0724357043859198
40
0.0724357043859198
40
0.0914377147352298
40
0.0914377147352298
40
0.11043972508454
40
0.11043972508454
40
0.14844374578316
40
0.14844374578316
40
0.16744575613247
40
0.16744575613247
40
0.18644776648178
40
0.18644776648178
40
0.20544977683109
40
0.20544977683109
40
0.2244517871804
40
0.2244517871804
40
0.26245580787902
40
0.26245580787902
40
0.28145781822833
40
0.28145781822833
40
0.300459828577641
40
0.300459828577641
40
0.319461838926951
40
0.319461838926951
40
0.338463849276261
40
0.338463849276261
40
0.357465859625572
40
0.357465859625572
40
0.376467869974882
40
0.376467869974882
40
0.395469880324192
40
0.395469880324192
40
0.414471890673503
40
0.414471890673503
40
0.433473901022813
40
0.433473901022813
40
0.452475911372124
40
0.452475911372124
40
0.471477921721434
40
0.471477921721434
40
0.490479932070744
40
0.490479932070744
40
0.528483952769364
40
0.528483952769364
40
0.547485963118674
40
0.547485963118674
40
0.566487973467985
40
0.566487973467985
40
0.585489983817295
40
0.585489983817295
40
0.604491994166605
40
0.604491994166605
40
0.623494004515916
40
0.623494004515916
40
0.642496014865226
40
0.642496014865226
40
0.680500035563847
40
0.680500035563847
40
0.699502045913158
40
0.699502045913158
40
0.718504056262468
40
0.718504056262468
40
0.737506066611778
40
0.737506066611778
40
0.756508076961089
40
0.756508076961089
40
0.775510087310399
40
0.775510087310399
40
0.794512097659709
40
0.794512097659709
40
0.832516118358329
40
0.832516118358329
40
0.851518128707639
40
0.851518128707639
40
0.870520139056949
40
0.870520139056949
40
0.889522149406259
40
0.889522149406259
40
0.908524159755569
40
0.908524159755569
40
0.946528180454188
40
0.946528180454188
40
0.965530190803497
40
0.965530190803497
40
0.984532201152807
40
0.984532201152807
40
1
40
1
40
1
40
1
41
1
10
25.2966974546542
20
5.37498009261242
30
0
41
1
10
25.575634164527
20
5.47972708509801
30
0
41
1
10
25.8548489729417
20
5.58161955174475
30
0
41
1
10
26.4801660768559
20
5.80042003465658
30
0
41
1
10
26.8271252454334
20
5.91599227628998
30
0
41
1
10
27.5185100662049
20
6.13546987558388
30
0
41
1
10
27.8631957860499
20
6.23944127068339
30
0
41
1
10
28.5500702135749
20
6.43631820384826
30
0
41
1
10
28.892828182214
20
6.52859397929518
30
0
41
1
10
29.578250624106
20
6.69995790013041
30
0
41
1
10
29.9206724473276
20
6.77930014583904
30
0
41
1
10
30.6045540715644
20
6.92572594975135
30
0
41
1
10
30.9458699889439
20
6.9928978270637
30
0
41
1
10
31.9687224749753
20
7.17545599472089
30
0
41
1
10
32.6522150636978
20
7.27025221308384
30
0
41
1
10
33.6779279550434
20
7.37345578149424
30
0
41
1
10
34.0195282145454
20
7.40138902468536
30
0
41
1
10
34.7043463336509
20
7.44343987948403
30
0
41
1
10
35.0477396474425
20
7.45757947816597
30
0
41
1
10
35.7360993870108
20
7.47220691870936
30
0
41
1
10
36.0810576686661
20
7.47269580329672
30
0
41
1
10
36.7721943972705
20
7.45968253951293
30
0
41
1
10
37.1178621460098
20
7.44605099431462
30
0
41
1
10
38.1520732309658
20
7.38484241982147
30
0
41
1
10
38.8395895584505
20
7.31727895609166
30
0
41
1
10
39.8653002149472
20
7.17546021416177
30
0
41
1
10
40.2065317759074
20
7.12145663713176
30
0
41
1
10
40.8897016546024
20
7.00134664623087
30
0
41
1
10
41.2313275741357
20
6.93509863949433
30
0
41
1
10
41.9142308372661
20
6.78999600823087
30
0
41
1
10
42.2554790049239
20
6.71111374666324
30
0
41
1
10
42.9374140943551
20
6.54029853829499
30
0
41
1
10
43.2788362071959
20
6.44899752723109
30
0
41
1
10
43.9631043181477
20
6.25526402316339
30
0
41
1
10
44.3057905985203
20
6.15268944034733
30
0
41
1
10
44.9919248293315
20
5.93562742042872
30
0
41
1
10
45.3351026619168
20
5.820793149227
30
0
41
1
10
46.0230878224332
20
5.57985866994781
30
0
41
1
10
46.3684893068308
20
5.45435977460167
30
0
41
1
10
47.0610557575374
20
5.19316521199497
30
0
41
1
10
47.4063973677389
20
5.05810216432207
30
0
41
1
10
48.0948915673381
20
4.7786525466019
30
0
41
1
10
48.437666824765
20
4.63367254612467
30
0
41
1
10
49.1230505457298
20
4.33745604133426
30
0
41
1
10
49.4655719318476
20
4.18611837809308
30
0
41
1
10
50.1498317413286
20
3.87640760120021
30
0
41
1
10
50.4915967781141
20
3.71807725247359
30
0
41
1
10
51.1739214169172
20
3.39363774084833
30
0
41
1
10
51.5144275762243
20
3.22740804408602
30
0
41
1
10
52.5380208599724
20
2.72361213329617
30
0
41
1
10
53.2218781437181
20
2.37890600042817
30
0
41
1
10
54.2472835517672
20
1.84362750034259
30
0
41
1
10
54.5895554018996
20
1.66310740028851
30
0
41
1
10
55.2763739863107
20
1.30041906120226
30
0
41
1
10
55.6206653805924
20
1.11778126837908
30
0
41
1
10
56.3106398540534
20
0.749120950111575
30
0
41
1
10
56.6568703597412
20
0.562439446366199
30
0
41
1
10
57.3467558072911
20
0.188379119380755
30
0
41
1
10
57.6911855878186
20
0.0023869352125132
30
0
41
1
10
58.3789519295043
20
-0.367793392594365
30
0
41
1
10
58.7222173957937
20
-0.552121591530835
30
0
41
1
10
59.4072088779229
20
-0.919867056311915
30
0
41
1
10
59.7485497630397
20
-1.10400396896856
30
0
41
1
10
60.7725623214974
20
-1.65064747706739
30
0
41
1
10
61.4557931061253
20
-2.00645349524476
30
0
41
1
10
62.4790928011054
20
-2.53169603313847
30
0
41
1
10
62.8196573177787
20
-2.70582753713836
30
0
41
1
10
63.5026411837981
20
-3.0469764499606
30
0
41
1
10
63.8448292727903
20
-3.21442249131772
30
0
41
1
10
64.5301190438939
20
-3.54389987924228
30
0
41
1
10
64.8732678527452
20
-3.70585105440881
30
0
41
1
10
65.5600439496416
20
-4.02497094282472
30
0
41
1
10
65.9039019327304
20
-4.18173384622227
30
0
41
1
10
66.5947010368089
20
-4.48609990260832
30
0
41
1
10
66.9413274415685
20
-4.63423458158098
30
0
41
1
10
67.6325173946558
20
-4.92137048570171
30
0
41
1
10
67.9775503935215
20
-5.06065051725611
30
0
41
1
10
69.0107923473935
20
-5.46563108274339
30
0
41
1
10
69.7008107762537
20
-5.71368360326298
30
0
41
1
10
70.7364966249808
20
-6.05469922444425
30
0
41
1
10
71.0814523411437
20
-6.16356628443882
30
0
41
1
10
71.7725503608846
20
-6.36959476171069
30
0
41
1
10
72.1179286451595
20
-6.4660335833531
30
0
41
1
10
72.8068570663813
20
-6.64619337924339
30
0
41
1
10
73.1505724708827
20
-6.7299938795382
30
0
41
1
10
73.8361786544256
20
-6.88538116569785
30
0
41
1
10
74.1777086011675
20
-6.95718353627305
30
0
41
1
10
75.2027701164926
20
-7.1518528695992
30
0
41
1
10
75.886222139037
20
-7.25488256596554
30
0
41
1
10
76.9089473152571
20
-7.37082954477796
30
0
41
1
10
77.2494379737175
20
-7.40292381763129
30
0
41
1
10
77.9321855356675
20
-7.45321059687066
30
0
41
1
10
78.2741145950693
20
-7.4715568193032
30
0
41
1
10
78.8949644362709
20
-7.49258825177216
30
0
41
1
10
79.1737938817632
20
-7.49754994100525
30
0
41
1
10
79.4527394783013
20
-7.49793491252916
30
0
0
SPLINE
5
B2
100
AcDbEntity
8
1
62
256
6
ByLayer
370
18
48
1
60
0
100
AcDbSpline
70
4
71
3
72
108
73
104
40
0
40
0
40
0
40
0
40
0.015591270394802
40
0.015591270394802
40
0.0331699977091799
40
0.0331699977091799
40
0.0507487250235577
40
0.0507487250235577
40
0.0683274523379356
40
0.0683274523379356
40
0.0859061796523134
40
0.0859061796523134
40
0.12106363428107
40
0.12106363428107
40
0.138642361595448
40
0.138642361595448
40
0.156221088909827
40
0.156221088909827
40
0.173799816224205
40
0.173799816224205
40
0.191378543538584
40
0.191378543538584
40
0.208957270852962
40
0.208957270852962
40
0.22653599816734
40
0.22653599816734
40
0.244114725481719
40
0.244114725481719
40
0.261693452796097
40
0.261693452796097
40
0.279272180110476
40
0.279272180110476
40
0.296850907424854
40
0.296850907424854
40
0.314429634739233
40
0.314429634739233
40
0.332008362053611
40
0.332008362053611
40
0.34958708936799
40
0.34958708936799
40
0.367165816682368
40
0.367165816682368
40
0.384744543996747
40
0.384744543996747
40
0.402323271311125
40
0.402323271311125
40
0.419901998625504
40
0.419901998625504
40
0.437480725939882
40
0.437480725939882
40
0.455059453254261
40
0.455059453254261
40
0.472638180568639
40
0.472638180568639
40
0.507795635197395
40
0.507795635197395
40
0.525374362511774
40
0.525374362511774
40
0.542953089826153
40
0.542953089826153
40
0.57811054445491
40
0.57811054445491
40
0.595689271769289
40
0.595689271769289
40
0.613267999083668
40
0.613267999083668
40
0.648425453712424
40
0.648425453712424
40
0.666004181026803
40
0.666004181026803
40
0.683582908341182
40
0.683582908341182
40
0.701161635655561
40
0.701161635655561
40
0.71874036296994
40
0.71874036296994
40
0.736319090284318
40
0.736319090284318
40
0.753897817598697
40
0.753897817598697
40
0.771476544913076
40
0.771476544913076
40
0.789055272227455
40
0.789055272227455
40
0.806633999541833
40
0.806633999541833
40
0.824212726856212
40
0.824212726856212
40
0.841791454170591
40
0.841791454170591
40
0.85937018148497
40
0.85937018148497
40
0.876948908799349
40
0.876948908799349
40
0.894527636113727
40
0.894527636113727
40
0.912106363428106
40
0.912106363428106
40
0.929685090742485
40
0.929685090742485
40
0.964842545371242
40
0.964842545371242
40
1
40
1
40
1
40
1
41
1
10
68.8276559284677
20
-5.40616084157617
30
0
41
1
10
68.5578962560515
20
-5.49636272396387
30
0
41
1
10
68.2880788556453
20
-5.58372777113718
30
0
41
1
10
67.7137890246641
20
-5.76309686144731
30
0
41
1
10
67.4087521049686
20
-5.85408297131221
30
0
41
1
10
66.7991339157927
20
-6.02622704811969
30
0
41
1
10
66.4945849752554
20
-6.10733994995172
30
0
41
1
10
65.8859434603775
20
-6.2596288902545
30
0
41
1
10
65.5819296209422
20
-6.33153817581982
30
0
41
1
10
64.9743305057816
20
-6.46744260956402
30
0
41
1
10
64.6704777354041
20
-6.53103135867289
30
0
41
1
10
63.7583884083867
20
-6.7068373796572
30
0
41
1
10
63.1496091620794
20
-6.80432118116846
30
0
41
1
10
62.2357605682071
20
-6.92291536714788
30
0
41
1
10
61.9309519652921
20
-6.9573040641171
30
0
41
1
10
61.3219900198148
20
-7.01446800383923
30
0
41
1
10
61.0176535415941
20
-7.03773397096845
30
0
41
1
10
60.4093546794109
20
-7.07550616436498
30
0
41
1
10
60.105400207479
20
-7.08966192967495
30
0
41
1
10
59.4978485940745
20
-7.10729693313081
30
0
41
1
10
59.1940981408328
20
-7.11052917844171
30
0
41
1
10
58.5858526470373
20
-7.10643671109298
30
0
41
1
10
58.28152408993
20
-7.09979787994709
30
0
41
1
10
57.6724006180281
20
-7.07666842763444
30
0
41
1
10
57.367340825826
20
-7.06003847769932
30
0
41
1
10
56.7579987966882
20
-7.01564874867913
30
0
41
1
10
56.4538123316045
20
-6.98759699093355
30
0
41
1
10
55.8453998727231
20
-6.92285520169455
30
0
41
1
10
55.5412968806255
20
-6.88606064615715
30
0
41
1
10
54.9332022423798
20
-6.80233204159444
30
0
41
1
10
54.6292174805575
20
-6.75546086466827
30
0
41
1
10
54.0213288949611
20
-6.65101957961087
30
0
41
1
10
53.717516001355
20
-6.59369045941969
30
0
41
1
10
53.1091904434796
20
-6.4709548772145
30
0
41
1
10
52.8047208534126
20
-6.40508941976751
30
0
41
1
10
52.194974454625
20
-6.26363444215315
30
0
41
1
10
51.8898266951769
20
-6.18795705743932
30
0
41
1
10
51.2808249349496
20
-6.02765443377342
30
0
41
1
10
50.9768562639002
20
-5.94334159519889
30
0
41
1
10
50.3688859649621
20
-5.76677569594005
30
0
41
1
10
50.0649052984088
20
-5.67442334797389
30
0
41
1
10
49.4568084081056
20
-5.4813952495108
30
0
41
1
10
49.1526598423394
20
-5.38056667871294
30
0
41
1
10
48.5444175547507
20
-5.17172563632275
30
0
41
1
10
48.2404533391044
20
-5.06346306350721
30
0
41
1
10
47.6317702770577
20
-4.83944220996275
30
0
41
1
10
47.3267642119927
20
-4.7237684528059
30
0
41
1
10
46.7168615051988
20
-4.48571413415101
30
0
41
1
10
46.4121776466992
20
-4.36360146923408
30
0
41
1
10
45.8034588403745
20
-4.11374487955669
30
0
41
1
10
45.4995123149408
20
-3.98561628379756
30
0
41
1
10
44.8917826940699
20
-3.72335539507142
30
0
41
1
10
44.587794719214
20
-3.58948395796091
30
0
41
1
10
43.6754215610707
20
-3.18110716654291
30
0
41
1
10
43.0669647008625
20
-2.90014491919951
30
0
41
1
10
42.1529047463853
20
-2.46315202568266
30
0
41
1
10
41.8477291671463
20
-2.31561548496251
30
0
41
1
10
41.2382911262312
20
-2.01861452822672
30
0
41
1
10
40.9337749837795
20
-1.86890130287225
30
0
41
1
10
40.0207932942673
20
-1.41591826802266
30
0
41
1
10
39.4132886585579
20
-1.10779968445115
30
0
41
1
10
38.50061816094
20
-0.643627665998139
30
0
41
1
10
38.1962071707131
20
-0.488432972006507
30
0
41
1
10
37.586736283442
20
-0.177304864226301
30
0
41
1
10
37.2814943541415
20
-0.0212789671309963
30
0
41
1
10
36.3666968379081
20
0.447653502419286
30
0
41
1
10
35.7581765421108
20
0.759374812829606
30
0
41
1
10
34.8451530324474
20
1.21985850806536
30
0
41
1
10
34.5408995701775
20
1.37262113436495
30
0
41
1
10
33.9327132778897
20
1.67702193769767
30
0
41
1
10
33.6287837402413
20
1.82862480929435
30
0
41
1
10
33.0200189481069
20
2.12803530638661
30
0
41
1
10
32.7152131145205
20
2.27580324470153
30
0
41
1
10
32.1049452446717
20
2.56826750647628
30
0
41
1
10
31.7995428009672
20
2.71313721469514
30
0
41
1
10
31.1900854707425
20
2.99893564943076
30
0
41
1
10
30.8858950859563
20
3.14016044640184
30
0
41
1
10
30.277336129627
20
3.41619955445606
30
0
41
1
10
29.9730228539045
20
3.55112222980745
30
0
41
1
10
29.364427028105
20
3.81642762476136
30
0
41
1
10
29.0601376448618
20
3.94662593609641
30
0
41
1
10
28.4516103967627
20
4.20178989196666
30
0
41
1
10
28.1474807868182
20
4.32683907889199
30
0
41
1
10
27.5381565511932
20
4.56892073079882
30
0
41
1
10
27.2329188242019
20
4.68675268030285
30
0
41
1
10
26.622509627297
20
4.91619217595269
30
0
41
1
10
26.3176186241633
20
5.02751141384181
30
0
41
1
10
25.70849271028
20
5.24242561140079
30
0
41
1
10
25.4043418854021
20
5.34565349909496
30
0
41
1
10
24.7960466138954
20
5.54426009543297
30
0
41
1
10
24.4918640575923
20
5.63998567681878
30
0
41
1
10
23.883303389306
20
5.82327485746541
30
0
41
1
10
23.5789276406857
20
5.91086911711022
30
0
41
1
10
22.9698440382454
20
6.07664235616647
30
0
41
1
10
22.6651935945579
20
6.15481959809981
30
0
41
1
10
22.0554762556392
20
6.30345456505748
30
0
41
1
10
21.7501524665622
20
6.37344372998064
30
0
41
1
10
21.1404194543104
20
6.50336059894479
30
0
41
1
10
20.8357596196066
20
6.56331246913388
30
0
41
1
10
19.9224378316755
20
6.72923461711412
30
0
41
1
10
19.3149352508864
20
6.82199654697382
30
0
41
1
10
18.0978919473311
20
6.96511845843239
30
0
41
1
10
17.4883946218233
20
7.01681772967069
30
0
41
1
10
16.8779909375259
20
7.04860537053691
30
0
0
SPLINE
5
B3
100
AcDbEntity
8
1
62
256
6
ByLayer
370
13
48
1
60
0
100
AcDbSpline
70
4
71
3
72
19
73
15
40
0
40
0
40
0
40
0
40
0.250343676989305
40
0.250343676989305
40
0.333563221033362
40
0.333563221033362
40
0.416782765077419
40
0.416782765077419
40
0.583221853165533
40
0.749660941253646
40
0.749660941253646
40
0.91610002934176
40
0.91610002934176
40
1
40
1
40
1
40
1
41
1
10
4.25031561183837
20
5.71784230990696
30
0
41
1
10
4.25034921048155
20
5.93635305402066
30
0
41
1
10
4.25037685837887
20
6.13013229296888
30
0
41
1
10
4.25040862787336
20
6.35560221371466
30
0
41
1
10
4.25041614541024
20
6.4092154807048
30
0
41
1
10
4.25043035984379
20
6.50997696817731
30
0
41
1
10
4.25043707038628
20
6.55722143196263
30
0
41
1
10
4.25045627355695
20
6.68972072890421
30
0
41
1
10
4.25047941271902
20
6.84181052554092
30
0
41
1
10
4.25050013557356
20
6.94537961712552
30
0
41
1
10
4.25052079569247
20
7.02421191315452
30
0
41
1
10
4.25053114752956
20
7.05122439248686
30
0
41
1
10
4.25054712047685
20
7.07210487902714
30
0
41
1
10
4.25055255806583
20
7.07586484304585
30
0
41
1
10
4.25055812704173
20
7.07639426984787
30
0
0
SPLINE
5
B4
100
AcDbEntity
8
1
62
256
6
ByLayer
370
18
48
1
60
0
100
AcDbSpline
70
4
71
3
72
36
73
32
40
0
40
0
40
0
40
0
40
0.0624999999999967
40
0.0624999999999967
40
0.0937499999999951
40
0.0937499999999951
40
0.124999999999993
40
0.124999999999993
40
0.18749999999999
40
0.18749999999999
40
0.218749999999989
40
0.218749999999989
40
0.249999999999988
40
0.249999999999988
40
0.374999999999986
40
0.374999999999986
40
0.406249999999987
40
0.406249999999987
40
0.437499999999988
40
0.437499999999988
40
0.499999999999991
40
0.499999999999991
40
0.62499999999999
40
0.62499999999999
40
0.68749999999999
40
0.68749999999999
40
0.74999999999999
40
0.74999999999999
40
0.874999999999995
40
0.874999999999995
40
1
40
1
40
1
40
1
41
1
10
75.320519990557
20
2.74013879271303
30
0
41
1
10
75.2983988003833
20
2.51276781399355
30
0
41
1
10
75.2935268797926
20
2.28009813320688
30
0
41
1
10
75.312797083862
20
1.92292924581881
30
0
41
1
10
75.3237537574971
20
1.80187108615093
30
0
41
1
10
75.3542509678844
20
1.56068174314936
30
0
41
1
10
75.3737235395327
20
1.44060555469784
30
0
41
1
10
75.4440924913658
20
1.08184397868007
30
0
41
1
10
75.5068971526013
20
0.844620307710898
30
0
41
1
10
75.6229684900397
20
0.491468603956179
30
0
41
1
10
75.6654389172981
20
0.373887596601009
30
0
41
1
10
75.7569240364817
20
0.141011338272904
30
0
41
1
10
75.8056371490569
20
0.026425145073091
30
0
41
1
10
76.0627542990923
20
-0.538057336157948
30
0
41
1
10
76.3111506576928
20
-0.963021155983
30
0
41
1
10
76.6618466236091
20
-1.46916366630998
30
0
41
1
10
76.7339168030836
20
-1.56892306565649
30
0
41
1
10
76.8804232820116
20
-1.76410012815174
30
0
41
1
10
76.9550319332936
20
-1.85976910423631
30
0
41
1
10
77.1825911714291
20
-2.14148889758479
30
0
41
1
10
77.3392609201328
20
-2.32227258036019
30
0
41
1
10
77.8221479234236
20
-2.84638594995579
30
0
41
1
10
78.1610574495043
20
-3.17174064573982
30
0
41
1
10
78.6916518738175
20
-3.62829002841147
30
0
41
1
10
78.8719177733498
20
-3.77499989841454
30
0
41
1
10
79.2345661018393
20
-4.05571385336475
30
0
41
1
10
79.4175229797146
20
-4.19019323447367
30
0
41
1
10
79.9707765623828
20
-4.57785322486419
30
0
41
1
10
80.345412566786
20
-4.81541281454713
30
0
41
1
10
81.1046094418231
20
-5.2548035253073
30
0
41
1
10
81.489199912421
20
-5.45652808964547
30
0
41
1
10
81.8783858553748
20
-5.64170943959752
30
0
0
SPLINE
5
B5
100
AcDbEntity
8
1
62
256
6
ByLayer
370
18
48
1
60
0
100
AcDbSpline
70
4
71
3
72
8
73
4
40
0
40
0
40
0
40
0
40
1
40
1
40
1
40
1
41
1
10
3.99999970187491
20
-4.27286618805755
30
0
41
1
10
3.99999970187491
20
-4.21445601849024
30
0
41
1
10
3.99999970187497
20
-4.15588293886157
30
0
41
1
10
3.99999970187497
20
-4.09714828716258
30
0
0
SPLINE
5
B6
100
AcDbEntity
8
1
62
256
6
ByLayer
370
18
48
1
60
0
100
AcDbSpline
70
4
71
3
72
14
73
10
40
0
40
0
40
0
40
0
40
0.25
40
0.25
40
0.5
40
0.5
40
0.75
40
0.75
40
1
40
1
40
1
40
1
41
1
10
82.2586341679948
20
1.62330272772115
30
0
41
1
10
82.2575951655798
20
1.64345820544392
30
0
41
1
10
82.2620342364927
20
1.66383975123787
30
0
41
1
10
82.282586542413
20
1.69908207780574
30
0
41
1
10
82.2986410478493
20
1.71373180421332
30
0
41
1
10
82.3346059199737
20
1.73448127220976
30
0
41
1
10
82.3548314077543
20
1.74116579925635
30
0
41
1
10
82.3954853111848
20
1.74897670602246
30
0
41
1
10
82.416336379544
20
1.75023832073259
30
0
41
1
10
82.4371389086325
20
1.74953213957431
30
0
0
SPLINE
5
B7
100
AcDbEntity
8
1
62
256
6
ByLayer
370
13
48
1
60
0
100
AcDbSpline
70
4
71
3
72
25
73
21
40
0
40
0
40
0
40
0
40
0.157532223748381
40
0.157532223748381
40
0.210186459764107
40
0.210186459764107
40
0.262840695779833
40
0.262840695779833
40
0.368149167811285
40
0.368149167811285
40
0.420803403827011
40
0.420803403827011
40
0.473457639842738
40
0.473457639842738
40
0.57876611187419
40
0.684074583905643
40
0.684074583905643
40
0.789383055937095
40
0.789383055937095
40
1
40
1
40
1
40
1
41
1
10
4.25055812703172
20
-7.07639426889807
30
0
41
1
10
4.25057465330519
20
-7.07796538653608
30
0
41
1
10
4.25059233662591
20
-7.05108704788009
30
0
41
1
10
4.25061911508271
20
-6.97752765507963
30
0
41
1
10
4.25062608341636
20
-6.95591175215392
30
0
41
1
10
4.25064060724381
20
-6.9061869415832
30
0
41
1
10
4.25064817741702
20
-6.87801376011768
30
0
41
1
10
4.25067166608989
20
-6.7842867556173
30
0
41
1
10
4.25068840643283
20
-6.70945418734323
30
0
41
1
10
4.25071523858838
20
-6.57866296733249
30
0
41
1
10
4.25072447008893
20
-6.53194925959434
30
0
41
1
10
4.25074333459261
20
-6.43315929701004
30
0
41
1
10
4.25075298637742
20
-6.38099377840428
30
0
41
1
10
4.25078255052875
20
-6.21632524210864
30
0
41
1
10
4.25082360509489
20
-5.97501833815531
30
0
41
1
10
4.2508671107484
20
-5.69062102617602
30
0
41
1
10
4.25091122400801
20
-5.38417968566139
30
0
41
1
10
4.25093363820707
20
-5.21937636964788
30
0
41
1
10
4.25099894475431
20
-4.70301010045813
30
0
41
1
10
4.25104049916035
20
-4.32650700112688
30
0
41
1
10
4.25107567284437
20
-3.91781657478964
30
0
0
SPLINE
5
B8
100
AcDbEntity
8
1
62
256
6
ByLayer
370
18
48
1
60
0
100
AcDbSpline
70
4
71
3
72
8
73
4
40
0
40
0
40
0
40
0
40
1
40
1
40
1
40
1
41
1
10
84.9504548507624
20
-0.0806842414450557
30
0
41
1
10
83.8561534589915
20
-1.87052483708521
30
0
41
1
10
82.8313111413639
20
-3.72345570847628
30
0
41
1
10
81.8783858553747
20
-5.64170943959755
30
0
0
SPLINE
5
B9
100
AcDbEntity
8
1
62
256
6
ByLayer
370
18
48
1
60
0
100
AcDbSpline
70
4
71
3
72
10
73
6
40
0
40
0
40
0
40
0
40
0.5
40
0.5
40
1
40
1
40
1
40
1
41
1
10
82.4371389086325
20
1.74953213957426
30
0
41
1
10
82.8502921741526
20
1.73550687128349
30
0
41
1
10
83.263340661958
20
1.7226045550982
30
0
41
1
10
84.0895210932366
20
1.69590548903702
30
0
41
1
10
84.5025880055659
20
1.68280570855137
30
0
41
1
10
84.9154973621551
20
1.67139452712476
30
0
0
SPLINE
5
BA
100
AcDbEntity
8
1
62
256
6
ByLayer
370
18
48
1
60
0
100
AcDbSpline
70
4
71
3
72
22
73
18
40
0
40
0
40
0
40
0
40
0.21675554420049
40
0.21675554420049
40
0.433511088400981
40
0.433511088400981
40
0.541888860501228
40
0.541888860501228
40
0.650266632601475
40
0.650266632601475
40
0.758644404701722
40
0.758644404701722
40
0.867022176801969
40
0.867022176801969
40
0.975399948902217
40
0.975399948902217
40
1
40
1
40
1
40
1
41
1
10
16.8779909375259
20
-7.04860537053713
30
0
41
1
10
17.4883819115893
20
-7.01681839157439
30
0
41
1
10
18.0978837799568
20
-6.96511972194423
30
0
41
1
10
19.3149702040428
20
-6.82199213349983
30
0
41
1
10
19.922512527585
20
-6.72922369709792
30
0
41
1
10
20.8359193017003
20
-6.56328213448492
30
0
41
1
10
21.1406117520556
20
-6.50332209173186
30
0
41
1
10
21.7504192798195
20
-6.3733844117601
30
0
41
1
10
22.055772579457
20
-6.30338471561854
30
0
41
1
10
22.6653915285235
20
-6.15476895700132
30
0
41
1
10
22.9699975184455
20
-6.07660178254747
30
0
41
1
10
23.5790030801946
20
-5.9108473855942
30
0
41
1
10
23.8833453284738
20
-5.82326234524271
30
0
41
1
10
24.4918485589527
20
-5.63999022555316
30
0
41
1
10
24.7960072130064
20
-5.54427247682671
30
0
41
1
10
25.1691675014064
20
-5.42243734532403
30
0
41
1
10
25.2382001856141
20
-5.39969637304307
30
0
41
1
10
25.3072380690335
20
-5.37674957887691
30
0
0
SPLINE
5
BB
100
AcDbEntity
8
1
62
256
6
ByLayer
370
18
48
1
60
0
100
AcDbSpline
70
4
71
3
72
36
73
32
40
0
40
0
40
0
40
0
40
0.0283472406938669
40
0.0283472406938669
40
0.0855032853589327
40
0.0855032853589327
40
0.142659330023998
40
0.142659330023998
40
0.199815374689064
40
0.199815374689064
40
0.314127464019198
40
0.314127464019198
40
0.371283508684265
40
0.371283508684265
40
0.428439553349332
40
0.428439553349332
40
0.485595598014399
40
0.485595598014399
40
0.542751642679466
40
0.542751642679466
40
0.6570637320096
40
0.6570637320096
40
0.714219776674666
40
0.714219776674666
40
0.771375821339733
40
0.771375821339733
40
0.885687910669867
40
0.885687910669867
40
0.942843955334933
40
0.942843955334933
40
1
40
1
40
1
40
1
41
1
10
59.3488882039173
20
7.10752262425027
30
0
41
1
10
59.4996032701605
20
7.1058639522538
30
0
41
1
10
59.6502730775499
20
7.10286865892414
30
0
41
1
10
60.104744902573
20
7.08968888508238
30
0
41
1
10
60.4087108738624
20
7.07553948723151
30
0
41
1
10
61.0170121612835
20
7.0377804374117
30
0
41
1
10
61.3213403242121
20
7.014520826893
30
0
41
1
10
61.9302624205278
20
6.95737693911846
30
0
41
1
10
62.2349814396853
20
6.92300870225708
30
0
41
1
10
63.1490482709197
20
6.80440949520491
30
0
41
1
10
63.7579372979732
20
6.7069160326906
30
0
41
1
10
64.6701364854091
20
6.53110128049181
30
0
41
1
10
64.9740165397604
20
6.46751005803381
30
0
41
1
10
65.5816533362795
20
6.3316027486851
30
0
41
1
10
65.8856777992439
20
6.2596926884716
30
0
41
1
10
66.4943236736852
20
6.10740800140599
30
0
41
1
10
66.7988649044234
20
6.02629998495723
30
0
41
1
10
67.4084476434643
20
5.85417196898587
30
0
41
1
10
67.7135467415317
20
5.76317084213281
30
0
41
1
10
68.6267868003198
20
5.47794182474547
30
0
41
1
10
69.2349750457803
20
5.27225694141978
30
0
41
1
10
70.1474184973557
20
4.9441740423627
30
0
41
1
10
70.451532270083
20
4.83162731335992
30
0
41
1
10
71.0596473225875
20
4.59914912543442
30
0
41
1
10
71.363667811407
20
4.47902755206746
30
0
41
1
10
72.2771741036859
20
4.10881326737496
30
0
41
1
10
72.8881639713962
20
3.84858136593161
30
0
41
1
10
73.8008500082009
20
3.44285473038076
30
0
41
1
10
74.1046406589714
20
3.30479842811434
30
0
41
1
10
74.7125213973521
20
3.02524227202025
30
0
41
1
10
75.0165133846729
20
2.8836107883549
30
0
41
1
10
75.3205199905572
20
2.74013879271345
30
0
0
SPLINE
5
BC
100
AcDbEntity
8
1
62
256
6
ByLayer
370
18
48
1
60
0
100
AcDbSpline
70
4
71
3
72
10
73
6
40
0
40
0
40
0
40
0
40
0.5
40
0.5
40
1
40
1
40
1
40
1
41
1
10
84.9999708357566
20
0.0481950047827979
30
0
41
1
10
84.9952287834819
20
0.0265993854012834
30
0
41
1
10
84.9884110356666
20
0.0031314907722901
30
0
41
1
10
84.9713396234586
20
-0.041860854847954
30
0
41
1
10
84.9609723389852
20
-0.0634818257970551
30
0
41
1
10
84.9504548507624
20
-0.0806842414450273
30
0
0
SPLINE
5
BD
100
AcDbEntity
8
1
62
256
6
ByLayer
370
18
48
1
60
0
100
AcDbSpline
70
4
71
3
72
38
73
34
40
0
40
0
40
0
40
0
40
0.108113978904007
40
0.108113978904007
40
0.16217096835601
40
0.16217096835601
40
0.216227957808013
40
0.216227957808013
40
0.270284947260017
40
0.270284947260017
40
0.32434193671202
40
0.32434193671202
40
0.432455915616025
40
0.432455915616025
40
0.486512905068028
40
0.486512905068028
40
0.540569894520031
40
0.540569894520031
40
0.594626883972035
40
0.594626883972035
40
0.648683873424038
40
0.648683873424038
40
0.702740862876041
40
0.702740862876041
40
0.756797852328045
40
0.756797852328045
40
0.864911831232051
40
0.864911831232051
40
0.918968820684055
40
0.918968820684055
40
0.973025810136058
40
0.973025810136058
40
1
40
1
40
1
40
1
41
1
10
16.8779909375259
20
-1.45730044935627
30
0
41
1
10
17.5691455080466
20
-1.82576406696114
30
0
41
1
10
18.258932486983
20
-2.1812702240465
30
0
41
1
10
19.2887873719744
20
-2.70165643932708
30
0
41
1
10
19.6309224514969
20
-2.87353958920181
30
0
41
1
10
20.3145177825156
20
-3.21118749159797
30
0
41
1
10
20.6564161341146
20
-3.37621160463274
30
0
41
1
10
21.3400892145711
20
-3.69937843834407
30
0
41
1
10
21.6818306866113
20
-3.85757646882703
30
0
41
1
10
22.3648007908372
20
-4.1676876164577
30
0
41
1
10
22.7056429535407
20
-4.32018120324869
30
0
41
1
10
23.7303704452279
20
-4.76343002197189
30
0
41
1
10
24.4161784704232
20
-5.04065706225401
30
0
41
1
10
25.4463982723557
20
-5.43234003846786
30
0
41
1
10
25.7899714184657
20
-5.55891868499947
30
0
41
1
10
26.4801660768559
20
-5.80042003465661
30
0
41
1
10
26.8271252454334
20
-5.91599227629001
30
0
41
1
10
27.5185100662049
20
-6.13546987558388
30
0
41
1
10
27.8631957860499
20
-6.23944127068341
30
0
41
1
10
28.550070213575
20
-6.43631820384826
30
0
41
1
10
28.892828182214
20
-6.52859397929518
30
0
41
1
10
29.578250624106
20
-6.69995790013041
30
0
41
1
10
29.9206724473276
20
-6.77930014583904
30
0
41
1
10
30.6045540715644
20
-6.92572594975135
30
0
41
1
10
30.9458699889439
20
-6.9928978270637
30
0
41
1
10
31.9687224749753
20
-7.17545599472089
30
0
41
1
10
32.6522150636978
20
-7.27025221308384
30
0
41
1
10
33.6779279550433
20
-7.37345578149424
30
0
41
1
10
34.0195282145454
20
-7.40138902468536
30
0
41
1
10
34.7043463336509
20
-7.44343987948403
30
0
41
1
10
35.0477396474425
20
-7.45757947816597
30
0
41
1
10
35.5636636940486
20
-7.46854271131696
30
0
41
1
10
35.7356016926426
20
-7.47049286451781
30
0
41
1
10
35.9077125984269
20
-7.4707224512803
30
0
0
SPLINE
5
BE
100
AcDbEntity
8
1
62
256
6
ByLayer
370
18
48
1
60
0
100
AcDbSpline
70
4
71
3
72
30
73
26
40
0
40
0
40
0
40
0
40
0.113019679579269
40
0.113019679579269
40
0.186934706280995
40
0.186934706280995
40
0.260849732982722
40
0.260849732982722
40
0.334764759684448
40
0.334764759684448
40
0.408679786386174
40
0.408679786386174
40
0.556509839789629
40
0.556509839789629
40
0.630424866491358
40
0.630424866491358
40
0.704339893193086
40
0.704339893193086
40
0.778254919894814
40
0.778254919894814
40
0.852169946596543
40
0.852169946596543
40
0.926084973298272
40
0.926084973298272
40
1
40
1
40
1
40
1
41
1
10
68.8087591766677
20
5.38273741797764
30
0
41
1
10
69.3357817164236
20
5.58130345005489
30
0
41
1
10
69.863396622765
20
5.76721751367748
30
0
41
1
10
70.7364966249809
20
6.05469922444425
30
0
41
1
10
71.0814523411437
20
6.16356628443882
30
0
41
1
10
71.7725503608846
20
6.36959476171069
30
0
41
1
10
72.1179286451595
20
6.4660335833531
30
0
41
1
10
72.8068570663813
20
6.64619337924336
30
0
41
1
10
73.1505724708827
20
6.7299938795382
30
0
41
1
10
73.8361786544256
20
6.88538116569785
30
0
41
1
10
74.1777086011675
20
6.95718353627305
30
0
41
1
10
75.2027701164924
20
7.15185286959923
30
0
41
1
10
75.886222139037
20
7.25488256596554
30
0
41
1
10
76.9089473152571
20
7.37082954477796
30
0
41
1
10
77.2494379737175
20
7.40292381763129
30
0
41
1
10
77.9321855356676
20
7.45321059687066
30
0
41
1
10
78.2741145950693
20
7.4715568193032
30
0
41
1
10
78.9586205661135
20
7.49474461794509
30
0
41
1
10
79.3012245723603
20
7.49958364715459
30
0
41
1
10
79.9867028680006
20
7.4953779224154
30
0
41
1
10
80.3301781259515
20
7.48630851721305
30
0
41
1
10
81.0197491069566
20
7.45438906974206
30
0
41
1
10
81.3660836314355
20
7.43148902053048
30
0
41
1
10
82.0576131747104
20
7.37186085658419
30
0
41
1
10
82.4026601779794
20
7.33507054178079
30
0
41
1
10
82.7473899389049
20
7.29135789532504
30
0
0
SPLINE
5
BF
100
AcDbEntity
8
1
62
256
6
ByLayer
370
18
48
1
60
0
100
AcDbSpline
70
4
71
3
72
8
73
4
40
0
40
0
40
0
40
0
40
1
40
1
40
1
40
1
41
1
10
84.9999708357565
20
0.0481950047827695
30
0
41
1
10
85.0000097231723
20
0.0160635487355307
30
0
41
1
10
85.0000097196559
20
-0.0160664543215887
30
0
41
1
10
84.9999708357565
20
-0.0481950047827979
30
0
0
SPLINE
5
C0
100
AcDbEntity
8
1
62
256
6
ByLayer
370
18
48
1
60
0
100
AcDbSpline
70
4
71
3
72
8
73
4
40
0
40
0
40
0
40
0
40
1
40
1
40
1
40
1
41
1
10
16.8779909375259
20
7.04860537053691
30
0
41
1
10
16.4452378383975
20
7.07003453627183
30
0
41
1
10
16.0157938749588
20
7.08210277071922
30
0
41
1
10
15.5886587502915
20
7.08418435161875
30
0
0
SPLINE
5
C1
100
AcDbEntity
8
1
62
256
6
ByLayer
370
18
48
1
60
0
100
AcDbSpline
70
4
71
3
72
16
73
12
40
0
40
0
40
0
40
0
40
0.265616254684815
40
0.265616254684815
40
0.697162262142554
40
0.697162262142554
40
0.805048764006988
40
0.805048764006988
40
0.912935265871422
40
0.912935265871422
40
1
40
1
40
1
40
1
41
1
10
59.9346270816462
20
-0.015394598136254
30
0
41
1
10
60.9362746751406
20
-0.53637278845855
30
0
41
1
10
61.9325924972963
20
-1.05465185007276
30
0
41
1
10
64.5466610242271
20
-2.38266470934312
30
0
41
1
10
66.1634035713244
20
-3.17301838020995
30
0
41
1
10
68.2094993684414
20
-4.07018962452457
30
0
41
1
10
68.6208581379772
20
-4.2455167897111
30
0
41
1
10
69.4400935827409
20
-4.58319081317924
30
0
41
1
10
69.8483828312097
20
-4.74574323744082
30
0
41
1
10
70.5843765848516
20
-5.02731126256595
30
0
41
1
10
70.9124365688223
20
-5.14868414075582
30
0
41
1
10
71.2400356774515
20
-5.26549260491376
30
0
0
SPLINE
5
C2
100
AcDbEntity
8
1
62
256
6
ByLayer
370
13
48
1
60
0
100
AcDbSpline
70
4
71
3
72
16
73
12
40
0
40
0
40
0
40
0
40
0.129772292899419
40
0.129772292899419
40
0.564886146449707
40
0.564886146449707
40
0.673664609837278
40
0.673664609837278
40
0.782443073224851
40
0.782443073224851
40
1
40
1
40
1
40
1
41
1
10
71.2400366189248
20
-5.2654929406047
30
0
41
1
10
71.7243278463615
20
-5.43817140311972
30
0
41
1
10
72.2076118845037
20
-5.60087486727298
30
0
41
1
10
74.3093363474609
20
-6.26301905502118
30
0
41
1
10
75.9232124253058
20
-6.65362716897991
30
0
41
1
10
77.9600923296372
20
-6.96611404513646
30
0
41
1
10
78.3684698925669
20
-7.01980476249761
30
0
41
1
10
79.1879444176118
20
-7.10903074466577
30
0
41
1
10
79.5990797584714
20
-7.14453305297323
30
0
41
1
10
80.8295604568351
20
-7.22248344026255
30
0
41
1
10
81.6486306977333
20
-7.23670551968056
30
0
41
1
10
82.4689946110996
20
-7.21267650275391
30
0
0
SPLINE
5
C3
100
AcDbEntity
8
1
62
256
6
ByLayer
370
18
48
1
60
0
100
AcDbSpline
70
4
71
3
72
60
73
56
40
0
40
0
40
0
40
0
40
0.0312499999999923
40
0.0312499999999923
40
0.0624999999999846
40
0.0624999999999846
40
0.0937499999999769
40
0.0937499999999769
40
0.109374999999973
40
0.109374999999973
40
0.124999999999969
40
0.124999999999969
40
0.140624999999964
40
0.140624999999964
40
0.15624999999996
40
0.15624999999996
40
0.187499999999952
40
0.187499999999952
40
0.203124999999948
40
0.203124999999948
40
0.218749999999944
40
0.218749999999944
40
0.234374999999939
40
0.234374999999939
40
0.249999999999935
40
0.249999999999935
40
0.265624999999931
40
0.265624999999931
40
0.281249999999927
40
0.281249999999927
40
0.312499999999919
40
0.312499999999919
40
0.343749999999912
40
0.343749999999912
40
0.347656249999911
40
0.347656249999911
40
0.351562499999911
40
0.351562499999911
40
0.355468749999911
40
0.355468749999911
40
0.359374999999911
40
0.359374999999911
40
0.367187499999911
40
0.367187499999911
40
0.374999999999912
40
0.374999999999912
40
0.499999999999929
40
0.499999999999929
40
0.624999999999947
40
0.624999999999947
40
0.749999999999965
40
0.749999999999965
40
0.874999999999982
40
0.874999999999982
40
1
40
1
40
1
40
1
41
1
10
3.99999970187142
20
-4.27286618805715
30
0
41
1
10
3.83777027838733
20
-4.15678906886203
30
0
41
1
10
3.67867572012608
20
-4.03515878618836
30
0
41
1
10
3.36868841458164
20
-3.77781416098597
30
0
41
1
10
3.21801095704453
20
-3.64221529334816
30
0
41
1
10
2.93184953915403
20
-3.3564913998859
30
0
41
1
10
2.79587119830154
20
-3.20606011954718
30
0
41
1
10
2.60669264394824
20
-2.96498157522666
30
0
41
1
10
2.54594748808623
20
-2.88174647607494
30
0
41
1
10
2.43182340251056
20
-2.71112066556779
30
0
41
1
10
2.37833438002596
20
-2.6236317823782
30
0
41
1
10
2.27966719546987
20
-2.44363538136099
30
0
41
1
10
2.23447916798639
20
-2.35113306491729
30
0
41
1
10
2.15403557896082
20
-2.16018916947024
30
0
41
1
10
2.11859623326205
20
-2.06117116146959
30
0
41
1
10
2.03153310259628
20
-1.75762335363257
30
0
41
1
10
1.99967267815018
20
-1.54965754592251
30
0
41
1
10
2.00013521947693
20
-1.22768460518901
30
0
41
1
10
2.0084787869616
20
-1.12031384325752
30
0
41
1
10
2.04086733380655
20
-0.909202440798282
30
0
41
1
10
2.06489164362469
20
-0.804868717189493
30
0
41
1
10
2.12809640220891
20
-0.598594761558076
30
0
41
1
10
2.16759029229121
20
-0.49624260879088
30
0
41
1
10
2.25814171901911
20
-0.299977597810965
30
0
41
1
10
2.30937437746823
20
-0.205250591782629
30
0
41
1
10
2.42211114546936
20
-0.0216732915363025
30
0
41
1
10
2.48362024176825
20
0.0671741673691031
30
0
41
1
10
2.61567002062188
20
0.239697623662238
30
0
41
1
10
2.68587251886868
20
0.322886723001659
30
0
41
1
10
2.90428629075467
20
0.56146138042493
30
0
41
1
10
3.06131550072408
20
0.707511131928584
30
0
41
1
10
3.39213970898874
20
0.980618880946537
30
0
41
1
10
3.56641064131011
20
1.10786346158022
30
0
41
1
10
3.76886042656287
20
1.24181365234804
30
0
41
1
10
3.79143783277954
20
1.25656436166358
30
0
41
1
10
3.83675366702141
20
1.28580869070879
30
0
41
1
10
3.85890804151509
20
1.30118051525261
30
0
41
1
10
3.90791134258731
20
1.32484913587473
30
0
41
1
10
3.93381769812797
20
1.33242837680035
30
0
41
1
10
3.98617114763851
20
1.34321537009174
30
0
41
1
10
4.01294769714829
20
1.3460760158265
30
0
41
1
10
4.09427791069606
20
1.34910860521512
30
0
41
1
10
4.14851872782864
20
1.34981817448832
30
0
41
1
10
4.25698828934995
20
1.35200345280268
30
0
41
1
10
4.31122590060488
20
1.35291643808696
30
0
41
1
10
5.23331319162838
20
1.36539744007601
30
0
41
1
10
6.10028930606845
20
1.33155229070997
30
0
41
1
10
7.82884377088527
20
1.17722985590831
30
0
41
1
10
8.68218439816053
20
1.05733965044462
30
0
41
1
10
10.3688324727599
20
0.739054101418162
30
0
41
1
10
11.2020592621949
20
0.540341349576551
30
0
41
1
10
12.8507516137945
20
0.0729479058914535
30
0
41
1
10
13.6661588999393
20
-0.195963570788621
30
0
41
1
10
15.2828094123332
20
-0.790065536328939
30
0
41
1
10
16.085319989244
20
-1.11572643848464
30
0
41
1
10
16.8779909375259
20
-1.45730044935627
30
0
0
SPLINE
5
C4
100
AcDbEntity
8
1
62
256
6
ByLayer
370
18
48
1
60
0
100
AcDbSpline
70
4
71
3
72
8
73
4
40
0
40
0
40
0
40
0
40
1
40
1
40
1
40
1
41
1
10
82.7473899389047
20
7.29135789532512
30
0
41
1
10
82.6009734280398
20
7.40134371758879
30
0
41
1
10
82.4711609685722
20
7.46795006289753
30
0
41
1
10
82.3562987016136
20
7.49083761535317
30
0
0
SPLINE
5
C5
100
AcDbEntity
8
1
62
256
6
ByLayer
370
18
48
1
60
0
100
AcDbSpline
70
4
71
3
72
12
73
8
40
0
40
0
40
0
40
0
40
0.249999999999999
40
0.249999999999999
40
0.499999999999998
40
0.499999999999998
40
1
40
1
40
1
40
1
41
1
10
82.7473899388996
20
-7.29135789533976
30
0
41
1
10
82.9155836872131
20
-6.81599926557558
30
0
41
1
10
83.0874060947714
20
-6.34282813257053
30
0
41
1
10
83.4373042458514
20
-5.40003308746441
30
0
41
1
10
83.6154530659719
20
-4.93045140736524
30
0
41
1
10
84.1584655191098
20
-3.52631251643294
30
0
41
1
10
84.5320210719437
20
-2.59641433458006
30
0
41
1
10
84.9154973621555
20
-1.67139452712479
30
0
0
SPLINE
5
C6
100
AcDbEntity
8
1
62
256
6
ByLayer
370
18
48
1
60
0
100
AcDbSpline
70
4
71
3
72
42
73
38
40
0
40
0
40
0
40
0
40
0.125
40
0.125
40
0.1875
40
0.1875
40
0.250000000000001
40
0.250000000000001
40
0.375000000000001
40
0.375000000000001
40
0.500000000000001
40
0.500000000000001
40
0.562500000000001
40
0.562500000000001
40
0.625000000000001
40
0.625000000000001
40
0.750000000000001
40
0.750000000000001
40
0.812499999999997
40
0.812499999999997
40
0.843749999999993
40
0.843749999999993
40
0.859374999999994
40
0.859374999999994
40
0.867187499999994
40
0.867187499999994
40
0.874999999999994
40
0.874999999999994
40
0.882812499999995
40
0.882812499999995
40
0.890624999999995
40
0.890624999999995
40
0.906249999999996
40
0.906249999999996
40
0.937499999999997
40
0.937499999999997
40
1
40
1
40
1
40
1
41
1
10
75.3205199905572
20
2.74013879271337
30
0
41
1
10
75.6174435320296
20
2.47022512755217
30
0
41
1
10
75.9230726396237
20
2.21775950609876
30
0
41
1
10
76.3944843185424
20
1.86505209316437
30
0
41
1
10
76.553794030131
20
1.75183713738804
30
0
41
1
10
76.8769108893148
20
1.53442116690672
30
0
41
1
10
77.0413146904315
20
1.42999694805792
30
0
41
1
10
77.537449217038
20
1.133750725352
30
0
41
1
10
77.8707914897477
20
0.959292648851317
30
0
41
1
10
78.5426469379473
20
0.656446927048592
30
0
41
1
10
78.8811510454181
20
0.52797848975095
30
0
41
1
10
79.3931929118265
20
0.373459550468681
30
0
41
1
10
79.5645893676053
20
0.328330994989159
30
0
41
1
10
79.909018085515
20
0.252648187048777
30
0
41
1
10
80.0825936308246
20
0.222020526997397
30
0
41
1
10
80.602136273667
20
0.154236955222302
30
0
41
1
10
80.9436057792588
20
0.141197888996174
30
0
41
1
10
81.4471481000872
20
0.17856213181949
30
0
41
1
10
81.6137079234545
20
0.20068602239354
30
0
41
1
10
81.8585394270988
20
0.249587771541769
30
0
41
1
10
81.9394458279086
20
0.268523230696303
30
0
41
1
10
82.0593988157968
20
0.301028704822898
30
0
41
1
10
82.0991532864107
20
0.312549032098218
30
0
41
1
10
82.1583801106457
20
0.330868850558488
30
0
41
1
10
82.1782311979306
20
0.338108002323281
30
0
41
1
10
82.2100071473591
20
0.365718050192129
30
0
41
1
10
82.2223683206752
20
0.385891244503682
30
0
41
1
10
82.2300944953297
20
0.434355030994965
30
0
41
1
10
82.2322561127352
20
0.459252077972593
30
0
41
1
10
82.2372400077102
20
0.508787900789514
30
0
41
1
10
82.2398287252073
20
0.533517982006487
30
0
41
1
10
82.2468114057364
20
0.608014507474564
30
0
41
1
10
82.2508465667155
20
0.657887832901565
30
0
41
1
10
82.2611781383597
20
0.807966193704004
30
0
41
1
10
82.2657077051716
20
0.908686448347936
30
0
41
1
10
82.2729254094747
20
1.21265198280094
30
0
41
1
10
82.2692088925803
20
1.41816496990415
30
0
41
1
10
82.258634167995
20
1.62330272772115
30
0
0
SPLINE
5
C7
100
AcDbEntity
8
1
62
256
6
ByLayer
370
18
48
1
60
0
100
AcDbSpline
70
4
71
3
72
8
73
4
40
0
40
0
40
0
40
0
40
1
40
1
40
1
40
1
41
1
10
84.9154973621555
20
1.67139452712473
30
0
41
1
10
84.9496318620031
20
1.15839539707321
30
0
41
1
10
84.9741841314054
20
0.64594722226002
30
0
41
1
10
84.9891460873065
20
0.134050467441483
30
0
0
SPLINE
5
C8
100
AcDbEntity
8
1
62
256
6
ByLayer
370
18
48
1
60
0
100
AcDbSpline
70
4
71
3
72
60
73
56
40
0
40
0
40
0
40
0
40
0.0276281474861602
40
0.0276281474861602
40
0.0552562949723205
40
0.0552562949723205
40
0.110512589944641
40
0.110512589944641
40
0.1381407374308
40
0.1381407374308
40
0.16576888491696
40
0.16576888491696
40
0.22102517988928
40
0.22102517988928
40
0.24865332737544
40
0.24865332737544
40
0.2762814748616
40
0.2762814748616
40
0.331537769833919
40
0.331537769833919
40
0.359165917320079
40
0.359165917320079
40
0.386794064806239
40
0.386794064806239
40
0.442050359778559
40
0.442050359778559
40
0.469678507264718
40
0.469678507264718
40
0.497306654750878
40
0.497306654750878
40
0.552562949723197
40
0.552562949723197
40
0.580191097209356
40
0.580191097209356
40
0.607819244695516
40
0.607819244695516
40
0.663075539667836
40
0.663075539667836
40
0.690703687153995
40
0.690703687153995
40
0.718331834640155
40
0.718331834640155
40
0.773588129612474
40
0.773588129612474
40
0.801216277098633
40
0.801216277098633
40
0.828844424584793
40
0.828844424584793
40
0.884100719557112
40
0.884100719557112
40
0.93935701452943
40
0.93935701452943
40
0.994613309501749
40
0.994613309501749
40
1
40
1
40
1
40
1
41
1
10
82.3562987016136
20
-7.49083761535317
30
0
41
1
10
81.9484462234344
20
-7.50135155152967
30
0
41
1
10
81.5406189721741
20
-7.50211107954539
30
0
41
1
10
80.7243801356067
20
-7.48414255647083
30
0
41
1
10
80.3161292740469
20
-7.46539719603996
30
0
41
1
10
79.0937115363436
20
-7.38038142241226
30
0
41
1
10
78.2805247085129
20
-7.28531101222393
30
0
41
1
10
77.0592498593099
20
-7.08687886271392
30
0
41
1
10
76.6518845888262
20
-7.01144244603174
30
0
41
1
10
75.8358543151579
20
-6.84235650836678
30
0
41
1
10
75.4275250315031
20
-6.7487207231392
30
0
41
1
10
74.2051592764965
20
-6.4425768933352
30
0
41
1
10
73.3919213897678
20
-6.20455573677512
30
0
41
1
10
72.170506321597
20
-5.80083295031633
30
0
41
1
10
71.7631150671798
20
-5.65846485263182
30
0
41
1
10
70.946991284044
20
-5.35904674662768
30
0
41
1
10
70.5386859504767
20
-5.20207819380622
30
0
41
1
10
69.3162857612545
20
-4.71259330887469
30
0
41
1
10
68.5030037027439
20
-4.36094605574525
30
0
41
1
10
67.2812717054954
20
-3.80197068794408
30
0
41
1
10
66.8737526642774
20
-3.61035486038017
30
0
41
1
10
66.0574751476044
20
-3.21757659221404
30
0
41
1
10
65.6492167434724
20
-3.01661153236336
30
0
41
1
10
64.4268342265588
20
-2.40405591896558
30
0
41
1
10
63.6134517414159
20
-1.9822288726607
30
0
41
1
10
62.3916430353563
20
-1.33655582139662
30
0
41
1
10
61.9840825228831
20
-1.1191786277121
30
0
41
1
10
61.1676532837603
20
-0.681423800075237
30
0
41
1
10
60.7593863560322
20
-0.461327087042747
30
0
41
1
10
59.5369169305435
20
0.198672002563455
30
0
41
1
10
58.7234741170796
20
0.638785189409788
30
0
41
1
10
57.5015584587802
20
1.29159581544232
30
0
41
1
10
57.0939637919703
20
1.50797707263942
30
0
41
1
10
56.2773950032361
20
1.93681194747833
30
0
41
1
10
55.8691307465286
20
2.14893521140593
30
0
41
1
10
54.6465539742564
20
2.77506012970335
30
0
41
1
10
53.8330646158149
20
3.17929462710225
30
0
41
1
10
52.6109970688917
20
3.75877817247374
30
0
41
1
10
52.2033343852838
20
3.94745881591121
30
0
41
1
10
51.3866284927279
20
4.31457304924746
30
0
41
1
10
50.9784036231184
20
4.49266776410246
30
0
41
1
10
49.7557697495609
20
5.00793837597965
30
0
41
1
10
48.9422100896156
20
5.32649173018061
30
0
41
1
10
47.7199787534259
20
5.76129886700264
30
0
41
1
10
47.3122482586429
20
5.89905805847795
30
0
41
1
10
46.4954027733142
20
6.15925544275061
30
0
41
1
10
46.0872087383237
20
6.28139967396922
30
0
41
1
10
44.8644906690618
20
6.62240761299492
30
0
41
1
10
44.0508834761707
20
6.81611511264151
30
0
41
1
10
42.4210110039871
20
7.1316386609256
30
0
41
1
10
41.6031530787328
20
7.25351518457077
30
0
41
1
10
39.9728125112204
20
7.42004258030403
30
0
41
1
10
39.159118065371
20
7.46506843984542
30
0
41
1
10
38.2646184119328
20
7.47196697478438
30
0
41
1
10
38.1851358821008
20
7.47220911282662
30
0
41
1
10
38.1056310847917
20
7.47208129097046
30
0
0
SPLINE
5
C9
100
AcDbEntity
8
1
62
256
6
ByLayer
370
18
48
1
60
0
100
AcDbSpline
70
4
71
3
72
38
73
34
40
0
40
0
40
0
40
0
40
0.0373596595740479
40
0.144836757622007
40
0.144836757622007
40
0.198575306645987
40
0.198575306645987
40
0.225444581157977
40
0.238879218413972
40
0.238879218413972
40
0.252313855669967
40
0.252313855669967
40
0.259031174297964
40
0.259031174297964
40
0.265748492925961
40
0.265748492925961
40
0.272465811553959
40
0.272465811553959
40
0.279183130181956
40
0.279183130181956
40
0.306052404693946
40
0.306052404693946
40
0.359790953717926
40
0.359790953717926
40
0.467268051765885
40
0.467268051765885
40
0.682222247861804
40
0.682222247861804
40
0.789699345909763
40
0.789699345909763
40
0.897176443957722
40
0.897176443957722
40
1
40
1
40
1
40
1
41
1
10
16.8779909375259
20
-1.43777637048493
30
0
41
1
10
16.8779909375259
20
-1.45932695991078
30
0
41
1
10
16.8779909375259
20
-1.54676007120202
30
0
41
1
10
16.8779909375259
20
-1.64912724049302
30
0
41
1
10
16.8779909375259
20
-1.77530854800179
30
0
41
1
10
16.8779909375259
20
-1.81943644044995
30
0
41
1
10
16.8779909375259
20
-1.88854216476517
30
0
41
1
10
16.8779909375259
20
-1.92382849947029
30
0
41
1
10
16.8779909375259
20
-1.96021180877199
30
0
41
1
10
16.8779909375259
20
-1.9847108756322
30
0
41
1
10
16.8779909375257
20
-1.99660350610193
30
0
41
1
10
16.8779909375257
20
-2.01608965806488
30
0
41
1
10
16.8779909375259
20
-2.02420386431336
30
0
41
1
10
16.8779909375259
20
-2.04367843389122
30
0
41
1
10
16.8779909375259
20
-2.05529251468138
30
0
41
1
10
16.8779909375259
20
-2.08027309090477
30
0
41
1
10
16.8779909375259
20
-2.0940915410736
30
0
41
1
10
16.8779909375259
20
-2.12219408258784
30
0
41
1
10
16.8779909375259
20
-2.13626482830566
30
0
41
1
10
16.8779909375259
20
-2.20671616508653
30
0
41
1
10
16.8779909375259
20
-2.26334108835391
30
0
41
1
10
16.8779909375259
20
-2.43391034167144
30
0
41
1
10
16.8779909375259
20
-2.54859085084988
30
0
41
1
10
16.8779909375259
20
-2.89556257277636
30
0
41
1
10
16.8779909375259
20
-3.13135318076797
30
0
41
1
10
16.8779909375259
20
-3.84655872880791
30
0
41
1
10
16.8779909375259
20
-4.33155825873141
30
0
41
1
10
16.8779909375259
20
-5.07176249911677
30
0
41
1
10
16.8779909375259
20
-5.3206253154475
30
0
41
1
10
16.8779909375259
20
-5.82282360471604
30
0
41
1
10
16.8779909375259
20
-6.0768029253324
30
0
41
1
10
16.8779909375259
20
-6.56966563012125
30
0
41
1
10
16.8779909375259
20
-6.80964770243125
30
0
41
1
10
16.8779909375259
20
-7.04860537053702
30
0
0
SPLINE
5
CA
100
AcDbEntity
8
1
62
256
6
ByLayer
370
18
48
1
60
0
100
AcDbSpline
70
4
71
3
72
14
73
10
40
0
40
0
40
0
40
0
40
0.594754409789468
40
0.594754409789468
40
0.897968464917688
40
0.897968464917688
40
0.973771978699743
40
0.973771978699743
40
1
40
1
40
1
40
1
41
1
10
38.3818472689387
20
-7.09708005614433
30
0
41
1
10
36.7869357513364
20
-7.09810428822931
30
0
41
1
10
35.2016581357688
20
-6.95804530109805
30
0
41
1
10
32.7937687273167
20
-6.54334490343183
30
0
41
1
10
31.9781802009355
20
-6.36847144470272
30
0
41
1
10
30.9523368607556
20
-6.10771285247279
30
0
41
1
10
30.7468388662073
20
-6.05344816798726
30
0
41
1
10
30.4709405342575
20
-5.97796599041808
30
0
41
1
10
30.4000544899537
20
-5.9583386939141
30
0
41
1
10
30.3292032044912
20
-5.93848913612368
30
0
0
SPLINE
5
CB
100
AcDbEntity
8
1
62
256
6
ByLayer
370
13
48
1
60
0
100
AcDbSpline
70
4
71
3
72
22
73
18
40
0
40
0
40
0
40
0
40
0.0223957230702206
40
0.0223957230702206
40
0.090884180415996
40
0.090884180415996
40
0.364838009799093
40
0.364838009799093
40
0.501814924490641
40
0.501814924490641
40
0.570303381836416
40
0.570303381836416
40
0.638791839182191
40
0.638791839182191
40
0.91274566856529
40
0.91274566856529
40
1
40
1
40
1
40
1
41
1
10
30.3292032047976
20
-5.93848913620951
30
0
41
1
10
30.1952820320088
20
-5.9009700419378
30
0
41
1
10
30.0614850439818
20
-5.86265686293871
30
0
41
1
10
29.5189976111689
20
-5.70400314760843
30
0
41
1
10
29.1112768207126
20
-5.57714103009499
30
0
41
1
10
27.0760706475519
20
-4.90903654176202
30
0
41
1
10
25.4595516580953
20
-4.26572025859713
30
0
41
1
10
23.0213061003221
20
-3.18550075365351
30
0
41
1
10
22.2064009541031
20
-2.80613556436362
30
0
41
1
10
20.9767588672975
20
-2.21476230742184
30
0
41
1
10
20.5654009201844
20
-2.01382741697668
30
0
41
1
10
19.7467952798463
20
-1.60916334974306
30
0
41
1
10
19.3386601390214
20
-1.40501995595045
30
0
41
1
10
17.3019986518473
20
-0.378921482152663
30
0
41
1
10
15.6858111229087
20
0.459779765504294
30
0
41
1
10
13.545268831165
20
1.53523977246505
30
0
41
1
10
13.0274589774986
20
1.79270112889486
30
0
41
1
10
12.5082408967214
20
2.04649272763919
30
0
0
SPLINE
5
CC
100
AcDbEntity
8
1
62
256
6
ByLayer
370
18
48
1
60
0
100
AcDbSpline
70
4
71
3
72
14
73
10
40
0
40
0
40
0
40
0
40
0.25
40
0.25
40
0.5
40
0.5
40
0.75
40
0.75
40
1
40
1
40
1
40
1
41
1
10
82.7473899388995
20
7.29135789534041
30
0
41
1
10
82.9142810434411
20
6.81968087065763
30
0
41
1
10
83.0853128956705
20
6.34856584582943
30
0
41
1
10
83.4344787497328
20
5.40755008622227
30
0
41
1
10
83.6126943697328
20
4.93766271974889
30
0
41
1
10
83.9755647641469
20
3.99918631589321
30
0
41
1
10
84.1602978369932
20
3.53056965078687
30
0
41
1
10
84.5342801862398
20
2.5982286392836
30
0
41
1
10
84.7237279510769
20
2.13397985049318
30
0
41
1
10
84.9154973621554
20
1.67139452712493
30
0
0
SPLINE
5
CD
100
AcDbEntity
8
1
62
256
6
ByLayer
370
18
48
1
60
0
100
AcDbSpline
70
4
71
3
72
16
73
12
40
0
40
0
40
0
40
0
40
0.258562299316834
40
0.258562299316834
40
0.383110561305281
40
0.383110561305281
40
0.507658823293728
40
0.507658823293728
40
0.756755347270626
40
0.756755347270626
40
1
40
1
40
1
40
1
41
1
10
16.3627192501391
20
-0.0039962347277083
30
0
41
1
10
17.2044105642617
20
-0.440141023742598
30
0
41
1
10
18.0468105080389
20
-0.876711134486698
30
0
41
1
10
19.300372733197
20
-1.51565451865631
30
0
41
1
10
19.7087277561282
20
-1.72216814744644
30
0
41
1
10
20.5278289406449
20
-2.13131574850982
30
0
41
1
10
20.9394778790078
20
-2.33437354802194
30
0
41
1
10
22.1698041931187
20
-2.93149663543588
30
0
41
1
10
22.9850489709625
20
-3.31399742608406
30
0
41
1
10
24.5920826140219
20
-4.03039110429449
30
0
41
1
10
25.3838598610757
20
-4.36535900352143
30
0
41
1
10
26.1759151008218
20
-4.67761128547031
30
0
0
SPLINE
5
CE
100
AcDbEntity
8
1
62
256
6
ByLayer
370
13
48
1
60
0
100
AcDbSpline
70
4
71
3
72
20
73
16
40
0
40
0
40
0
40
0
40
0.179387223788208
40
0.179387223788208
40
0.267022083878571
40
0.267022083878571
40
0.310839513923754
40
0.310839513923754
40
0.354656943968936
40
0.354656943968936
40
0.529926664149661
40
0.529926664149661
40
0.880466104511109
40
0.880466104511109
40
1
40
1
40
1
40
1
41
1
10
26.1759151008218
20
-4.67761128547036
30
0
41
1
10
27.006080163184
20
-5.00488761937848
30
0
41
1
10
27.8365506131053
20
-5.30720981919936
30
0
41
1
10
29.0774082780573
20
-5.7136616500398
30
0
41
1
10
29.485345941517
20
-5.84013013083037
30
0
41
1
10
30.0989192378964
20
-6.01860936704486
30
0
41
1
10
30.303723024512
20
-6.07622882831004
30
0
41
1
10
30.7139487721765
20
-6.18763196420744
30
0
41
1
10
30.9195977962889
20
-6.24147198779332
30
0
41
1
10
31.9460230859496
20
-6.49983330036534
30
0
41
1
10
32.7619475313246
20
-6.67206072623753
30
0
41
1
10
35.2020951833628
20
-7.08214927269211
30
0
41
1
10
36.8187221747484
20
-7.21296350945175
30
0
41
1
10
39.0010502252309
20
-7.18852036262453
30
0
41
1
10
39.5572461948143
20
-7.16498614228595
30
0
41
1
10
40.1155474053073
20
-7.12395955087962
30
0
0
SPLINE
5
CF
100
AcDbEntity
8
1
62
256
6
ByLayer
370
18
48
1
60
0
100
AcDbSpline
70
4
71
3
72
8
73
4
40
0
40
0
40
0
40
0
40
1
40
1
40
1
40
1
41
1
10
82.3562987016136
20
7.49083761535317
30
0
41
1
10
82.1303896046317
20
7.49666127453006
30
0
41
1
10
81.9043765357181
20
7.49948059109124
30
0
41
1
10
81.6783395170372
20
7.49930962220461
30
0
0
SPLINE
5
D0
100
AcDbEntity
8
1
62
256
6
ByLayer
370
18
48
1
60
0
100
AcDbSpline
70
4
71
3
72
50
73
46
40
0
40
0
40
0
40
0
40
0.0113880225721073
40
0.0113880225721073
40
0.0432787315213942
40
0.0432787315213942
40
0.107060149419968
40
0.107060149419968
40
0.138950858369254
40
0.138950858369254
40
0.170841567318541
40
0.170841567318541
40
0.234622985217115
40
0.234622985217115
40
0.266513694166402
40
0.266513694166402
40
0.298404403115688
40
0.298404403115688
40
0.362185821014263
40
0.362185821014263
40
0.394076529963549
40
0.394076529963549
40
0.425967238912836
40
0.425967238912836
40
0.489748656811409
40
0.489748656811409
40
0.521639365760696
40
0.521639365760696
40
0.553530074709982
40
0.553530074709982
40
0.617311492608556
40
0.617311492608556
40
0.649202201557843
40
0.649202201557843
40
0.68109291050713
40
0.68109291050713
40
0.744874328405705
40
0.744874328405705
40
0.776765037354991
40
0.776765037354991
40
0.808655746304278
40
0.808655746304278
40
0.872437164202852
40
0.872437164202852
40
1
40
1
40
1
40
1
41
1
10
42.4466002375182
20
-7.11528158818896
30
0
41
1
10
42.3007950712761
20
-7.13928346956746
30
0
41
1
10
42.1549539455534
20
-7.16211076580421
30
0
41
1
10
41.6006891156588
20
-7.24432526971142
30
0
41
1
10
41.1929349631242
20
-7.29545504389449
30
0
41
1
10
39.9705272776651
20
-7.42019749442579
30
0
41
1
10
39.1567598723251
20
-7.46517326229664
30
0
41
1
10
37.9336245133076
20
-7.47447612026292
30
0
41
1
10
37.5251331351052
20
-7.46786955363135
30
0
41
1
10
36.7082828750373
20
-7.43522081518097
30
0
41
1
10
36.3005139327586
20
-7.40921792717572
30
0
41
1
10
35.0780197509482
20
-7.30263217989094
30
0
41
1
10
34.2641979922344
20
-7.19343785135769
30
0
41
1
10
33.0408906936617
20
-6.97435013482962
30
0
41
1
10
32.6322871831956
20
-6.89203198070481
30
0
41
1
10
31.8154310836176
20
-6.70969837876999
30
0
41
1
10
31.4076567110211
20
-6.60980989916791
30
0
41
1
10
30.185099316138
20
-6.28516883618494
30
0
41
1
10
29.3711995313754
20
-6.03532514440235
30
0
41
1
10
28.1476627482865
20
-5.61502094809617
30
0
41
1
10
27.7389795844654
20
-5.46714380513461
30
0
41
1
10
26.9221359153944
20
-5.1576721555717
30
0
41
1
10
26.5143414369535
20
-4.99626659826848
30
0
41
1
10
25.2916488263443
20
-4.49381685332014
30
0
41
1
10
24.4777091785072
20
-4.13414437390043
30
0
41
1
10
23.2540085854925
20
-3.56447563431624
30
0
41
1
10
22.8452375125222
20
-3.36929907082484
30
0
41
1
10
22.0283901624121
20
-2.97093247913429
30
0
41
1
10
21.6205924822829
20
-2.76792480499853
30
0
41
1
10
20.3978959618962
20
-2.14953684224483
30
0
41
1
10
19.5838048323134
20
-1.72459574852218
30
0
41
1
10
18.3599508700656
20
-1.07584298323354
30
0
41
1
10
17.9510884207616
20
-0.857468606748768
30
0
41
1
10
17.1341991558452
20
-0.419453642782201
30
0
41
1
10
16.7263715238811
20
-0.199945614577189
30
0
41
1
10
15.503588699903
20
0.457932198788683
30
0
41
1
10
14.6894209611933
20
0.895818884687458
30
0
41
1
10
13.465388248323
20
1.54356584863845
30
0
41
1
10
13.0562539589673
20
1.75829842616557
30
0
41
1
10
12.2400102438547
20
2.1815767210903
30
0
41
1
10
11.8330722844109
20
2.39002324981522
30
0
41
1
10
10.6146931906157
20
3.00395148232508
30
0
41
1
10
9.8058339986267
20
3.3982756282665
30
0
41
1
10
7.380579466771
20
4.52201124171722
30
0
41
1
10
5.76599959384257
20
5.19297216094927
30
0
41
1
10
4.13160740834513
20
5.75092459066079
30
0
0
SPLINE
5
D1
100
AcDbEntity
8
1
62
256
6
ByLayer
370
18
48
1
60
0
100
AcDbSpline
70
4
71
3
72
14
73
10
40
0
40
0
40
0
40
0
40
0.253485441906276
40
0.253485441906276
40
0.380228162859414
40
0.380228162859414
40
0.506970883812552
40
0.506970883812552
40
1
40
1
40
1
40
1
41
1
10
82.4777922441249
20
-7.11863542948066
30
0
41
1
10
81.6578835537324
20
-7.13598926151647
30
0
41
1
10
80.8392428810661
20
-7.11567511647664
30
0
41
1
10
79.6094496828617
20
-7.02950133986545
30
0
41
1
10
79.1985770139257
20
-6.99141006542081
30
0
41
1
10
78.3797390314237
20
-6.89737771423466
30
0
41
1
10
77.9716312127355
20
-6.84146704386464
30
0
41
1
10
75.9807306837277
20
-6.52583561465619
30
0
41
1
10
74.4112793643033
20
-6.1443874357756
30
0
41
1
10
72.8376049681135
20
-5.65219412634815
30
0
0
SPLINE
5
D2
100
AcDbEntity
8
1
62
256
6
ByLayer
370
13
48
1
60
0
100
AcDbSpline
70
4
71
3
72
24
73
20
40
0
40
0
40
0
40
0
40
0.0079664486373275
40
0.0079664486373275
40
0.15281001754338
40
0.15281001754338
40
0.225231801996407
40
0.225231801996407
40
0.297653586449435
40
0.297653586449435
40
0.587340724261542
40
0.587340724261542
40
0.877027862073649
40
0.877027862073649
40
0.913238754300163
40
0.913238754300163
40
0.949449646526677
40
0.949449646526677
40
1
40
1
40
1
40
1
41
1
10
72.837605191139
20
-5.65219419610318
30
0
41
1
10
72.7931051024503
20
-5.63827604027981
30
0
41
1
10
72.7486016368408
20
-5.62426932873234
30
0
41
1
10
71.894876753586
20
-5.35390666769803
30
0
41
1
10
71.084360704729
20
-5.06864315541486
30
0
41
1
10
69.8628463076659
20
-4.60163190341805
30
0
41
1
10
69.454705956902
20
-4.43942295095621
30
0
41
1
10
68.6358171802094
20
-4.1028319139856
30
0
41
1
10
68.2247800110175
20
-3.92829824789641
30
0
41
1
10
66.1801569149242
20
-3.03595343695955
30
0
41
1
10
64.5639481915993
20
-2.25228975072994
30
0
41
1
10
61.3286932272002
20
-0.626335338567344
30
0
41
1
10
59.7099599573343
20
0.216617246417485
30
0
41
1
10
57.8643385928643
20
1.15272922064992
30
0
41
1
10
57.6589592747818
20
1.25656238608767
30
0
41
1
10
57.2492851160647
20
1.46277144379354
30
0
41
1
10
57.0447582279755
20
1.56526541719515
30
0
41
1
10
56.5553382249902
20
1.80916178263928
30
0
41
1
10
56.2706997855394
20
1.94991385702093
30
0
41
1
10
55.9864843872327
20
2.08915128124338
30
0
0
SPLINE
5
D3
100
AcDbEntity
8
1
62
256
6
ByLayer
370
18
48
1
60
0
100
AcDbSpline
70
4
71
3
72
12
73
8
40
0
40
0
40
0
40
0
40
0.25000000000001
40
0.25000000000001
40
0.500000000000021
40
0.500000000000021
40
1
40
1
40
1
40
1
41
1
10
4.13160740834519
20
5.75092459066076
30
0
41
1
10
4.11165616777907
20
5.75773558942129
30
0
41
1
10
4.09359002584318
20
5.7660683420186
30
0
41
1
10
4.06112476295215
20
5.78563480782245
30
0
41
1
10
4.04692946392447
20
5.7968341392795
30
0
41
1
10
4.01252068914235
20
5.83284006793363
30
0
41
1
10
3.99999970187474
20
5.86058865655454
30
0
41
1
10
3.99999970187474
20
5.888347809246
30
0
0
SPLINE
5
D4
100
AcDbEntity
8
1
62
256
6
ByLayer
370
18
48
1
60
0
100
AcDbSpline
70
4
71
3
72
8
73
4
40
0
40
0
40
0
40
0
40
1
40
1
40
1
40
1
41
1
10
82.7473899389048
20
-7.29135789532512
30
0
41
1
10
82.6009734280398
20
-7.40134371758879
30
0
41
1
10
82.4711609685721
20
-7.46795006289753
30
0
41
1
10
82.3562987016136
20
-7.49083761535317
30
0
0
SPLINE
5
D5
100
AcDbEntity
8
1
62
256
6
ByLayer
370
18
48
1
60
0
100
AcDbSpline
70
4
71
3
72
28
73
24
40
0
40
0
40
0
40
0
40
0.0625000000000006
40
0.0625000000000006
40
0.125000000000001
40
0.125000000000001
40
0.187500000000002
40
0.187500000000002
40
0.250000000000002
40
0.250000000000002
40
0.375000000000002
40
0.375000000000002
40
0.500000000000002
40
0.500000000000002
40
0.625000000000002
40
0.625000000000002
40
0.750000000000002
40
0.750000000000002
40
0.812500000000002
40
0.812500000000002
40
0.875000000000002
40
0.875000000000002
40
1
40
1
40
1
40
1
41
1
10
4.25107567313103
20
-3.91781657403843
30
0
41
1
10
4.47740320973446
20
-4.09635213080054
30
0
41
1
10
4.71155822598303
20
-4.26023855149873
30
0
41
1
10
5.19057362021238
20
-4.56684742400532
30
0
41
1
10
5.43549520845977
20
-4.7094728783469
30
0
41
1
10
5.93335485129199
20
-4.97797404918896
30
0
41
1
10
6.18631744202537
20
-5.10381105495787
30
0
41
1
10
6.6985594252925
20
-5.34152242592174
30
0
41
1
10
6.95777528046267
20
-5.4533181270848
30
0
41
1
10
7.73630427493165
20
-5.76759692670205
30
0
41
1
10
8.25894024907433
20
-5.95010536204711
30
0
41
1
10
9.30876845785986
20
-6.27451852348719
30
0
41
1
10
9.83612708645941
20
-6.41388710091769
30
0
41
1
10
10.8955246882049
20
-6.65259330182226
30
0
41
1
10
11.4275194956686
20
-6.75278772422931
30
0
41
1
10
12.4979569427159
20
-6.91225095681625
30
0
41
1
10
13.0363574776645
20
-6.97246241592467
30
0
41
1
10
13.8508262740881
20
-7.0354379149324
30
0
41
1
10
14.1237223368376
20
-7.05164960890733
30
0
41
1
10
14.6701978901864
20
-7.0744087622862
30
0
41
1
10
14.9439801092717
20
-7.08105243945934
30
0
41
1
10
15.7677619820423
20
-7.08830194499419
30
0
41
1
10
16.3201887510825
20
-7.0762267452302
30
0
41
1
10
16.8779909375259
20
-7.04860537053713
30
0
0
SPLINE
5
D6
100
AcDbEntity
8
1
62
256
6
ByLayer
370
18
48
1
60
0
100
AcDbSpline
70
4
71
3
72
20
73
16
40
0
40
0
40
0
40
0
40
0.250000000000001
40
0.250000000000001
40
0.375000000000002
40
0.375000000000002
40
0.437500000000002
40
0.437500000000002
40
0.500000000000001
40
0.500000000000001
40
0.749999999999999
40
0.749999999999999
40
0.875
40
0.875
40
1
40
1
40
1
40
1
41
1
10
81.8783858553747
20
-5.64170943959755
30
0
41
1
10
81.8784940065875
20
-5.89774733434703
30
0
41
1
10
81.8906478441651
20
-6.12189635661466
30
0
41
1
10
81.9274934461428
20
-6.41120259038394
30
0
41
1
10
81.9429015828006
20
-6.49977355390598
30
0
41
1
10
81.9709978067482
20
-6.62053400159326
30
0
41
1
10
81.9811862121671
20
-6.65869470658379
30
0
41
1
10
82.0030403422437
20
-6.73022021537707
30
0
41
1
10
82.0147285237587
20
-6.76368683078914
30
0
41
1
10
82.0769859760871
20
-6.91976411135062
30
0
41
1
10
82.1389076327657
20
-7.00885259234985
30
0
41
1
10
82.2513649280968
20
-7.09005022687995
30
0
41
1
10
82.2922716640019
20
-7.10834835831014
30
0
41
1
10
82.3804295961403
20
-7.12688865284002
30
0
41
1
10
82.4275418292504
20
-7.12717031640403
30
0
41
1
10
82.4777922439365
20
-7.11863542947879
30
0
0
SPLINE
5
D7
100
AcDbEntity
8
1
62
256
6
ByLayer
370
18
48
1
60
0
100
AcDbSpline
70
4
71
3
72
8
73
4
40
0
40
0
40
0
40
0
40
1
40
1
40
1
40
1
41
1
10
84.9891460873065
20
-0.134050467441341
30
0
41
1
10
84.9898717933444
20
-0.10922172391372
30
0
41
1
10
84.9939222691726
20
-0.0796215494866317
30
0
41
1
10
84.9999708357565
20
-0.0481950047828832
30
0
0
SPLINE
5
D8
100
AcDbEntity
8
1
62
256
6
ByLayer
370
18
48
1
60
0
100
AcDbSpline
70
4
71
3
72
8
73
4
40
0
40
0
40
0
40
0
40
1
40
1
40
1
40
1
41
1
10
84.9154973621555
20
-1.67139452712476
30
0
41
1
10
84.9496275938903
20
-1.15845954150549
30
0
41
1
10
84.9741822595968
20
-0.646011262863141
30
0
41
1
10
84.9891460873064
20
-0.134050467441455
30
0
0
SPLINE
5
D9
100
AcDbEntity
8
1
62
256
6
ByLayer
370
18
48
1
60
0
100
AcDbSpline
70
4
71
3
72
16
73
12
40
0
40
0
40
0
40
0
40
0.250000000000016
40
0.250000000000016
40
0.500000000000032
40
0.500000000000032
40
0.625000000000023
40
0.625000000000023
40
0.750000000000014
40
0.750000000000014
40
1
40
1
40
1
40
1
41
1
10
3.99999970187491
20
-4.09714828716255
30
0
41
1
10
3.99999970187494
20
-4.05894751102951
30
0
41
1
10
4.00386617870237
20
-4.02175322029228
30
0
41
1
10
4.02403654224671
20
-3.95069895129589
30
0
41
1
10
4.04092598138948
20
-3.91698267966922
30
0
41
1
10
4.07897306398428
20
-3.88388250922691
30
0
41
1
10
4.09399734801147
20
-3.87583229674487
30
0
41
1
10
4.1256394505823
20
-3.86802390287633
30
0
41
1
10
4.14249992712277
20
-3.86808600043599
30
0
41
1
10
4.19196388190181
20
-3.87772850890821
30
0
41
1
10
4.22282052236272
20
-3.89552786295144
30
0
41
1
10
4.25107567284448
20
-3.91781657381165
30
0
0
SPLINE
5
DA
100
AcDbEntity
8
1
62
256
6
ByLayer
370
18
48
1
60
0
100
AcDbSpline
70
4
71
3
72
8
73
4
40
0
40
0
40
0
40
0
40
1
40
1
40
1
40
1
41
1
10
84.9891460873064
20
0.134050467441512
30
0
41
1
10
84.9898717933443
20
0.109221723913805
30
0
41
1
10
84.9939222691725
20
0.0796215494866601
30
0
41
1
10
84.9999708357565
20
0.0481950047827979
30
0
0
SPLINE
5
DB
100
AcDbEntity
8
1
62
256
6
ByLayer
370
18
48
1
60
0
100
AcDbSpline
70
4
71
3
72
14
73
10
40
0
40
0
40
0
40
0
40
0.25
40
0.25
40
0.5
40
0.5
40
0.75
40
0.75
40
1
40
1
40
1
40
1
41
1
10
82.4777922438972
20
-7.11863542948547
30
0
41
1
10
82.4812270956579
20
-7.11805202989464
30
0
41
1
10
82.4840218817266
20
-7.11915884616326
30
0
41
1
10
82.4879200882478
20
-7.12582473524932
30
0
41
1
10
82.4889693454652
20
-7.13146693639234
30
0
41
1
10
82.4881325847022
20
-7.14835159880514
30
0
41
1
10
82.4861673189333
20
-7.15963252359441
30
0
41
1
10
82.479247058203
20
-7.18526339847119
30
0
41
1
10
82.4743726264422
20
-7.19935100636766
30
0
41
1
10
82.4689946110996
20
-7.21267650275394
30
0
0
SPLINE
5
DC
100
AcDbEntity
8
1
62
256
6
ByLayer
370
18
48
1
60
0
100
AcDbSpline
70
4
71
1
72
4
73
2
40
0
40
0
40
1
40
1
41
1
10
81.8688499323606
20
-7.12446379016279
30
0
41
1
10
82.380086194338
20
-7.12351133692877
30
0
0
SPLINE
5
DD
100
AcDbEntity
8
1
62
256
6
ByLayer
370
18
48
1
60
0
100
AcDbSpline
70
4
71
3
72
36
73
32
40
0
40
0
40
0
40
0
40
0.0336241826235379
40
0.0662370756586806
40
0.0960045085712208
40
0.124675865806923
40
0.152536371103941
40
0.178701259030875
40
0.214771337185285
40
0.252459295434993
40
0.294593889498113
40
0.332896515044709
40
0.376886804722024
40
0.416150938342829
40
0.446716400500355
40
0.48377160852532
40
0.526338952101515
40
0.568315928777548
40
0.611262212600952
40
0.649321204840089
40
0.686970711978783
40
0.724192164057891
40
0.753486722160717
40
0.777011034219999
40
0.808796187168927
40
0.849577809948659
40
0.895628212732731
40
0.935850763316155
40
0.97533742192556
40
0.99967038039686
40
1
40
1
40
1
40
1
41
1
10
38.3085167523737
20
-7.09680809886297
30
0
41
1
10
38.5345534854904
20
-7.09602009413047
30
0
41
1
10
38.9838931332303
20
-7.09518920746706
30
0
41
1
10
39.6657279125058
20
-7.09371492878319
30
0
41
1
10
40.2883697735525
20
-7.09838295431902
30
0
41
1
10
40.8882033973246
20
-7.09883595731
30
0
41
1
10
41.4678727303598
20
-7.09905018676972
30
0
41
1
10
42.0994248180381
20
-7.0995171069477
30
0
41
1
10
42.7998240857344
20
-7.10043163043957
30
0
41
1
10
43.6122129530368
20
-7.10041322571021
30
0
41
1
10
44.4402146924752
20
-7.10098184597166
30
0
41
1
10
45.3124236196786
20
-7.10219974811216
30
0
41
1
10
46.1644905774691
20
-7.10163053392006
30
0
41
1
10
46.9623230240253
20
-7.10248836878822
30
0
41
1
10
47.7115473063785
20
-7.10314807481993
30
0
41
1
10
48.4839387375984
20
-7.1028416483696
30
0
41
1
10
49.3363051015318
20
-7.10364984734736
30
0
41
1
10
50.2299803860401
20
-7.10471460228558
30
0
41
1
10
51.0920526152124
20
-7.10380976446581
30
0
41
1
10
51.9237816231274
20
-7.10547425784145
30
0
41
1
10
52.7154102799023
20
-7.10595425023266
30
0
41
1
10
53.4452752099272
20
-7.10516046316098
30
0
41
1
10
54.0766234243665
20
-7.10600900291129
30
0
41
1
10
54.6692198315814
20
-7.10715868610703
30
0
41
1
10
55.3428226578928
20
-7.10709245278008
30
0
41
1
10
56.1741977867676
20
-7.10644857650894
30
0
41
1
10
57.0651669152435
20
-7.1091088068959
30
0
41
1
10
57.9454645733512
20
-7.10802351894245
30
0
41
1
10
58.6782907971691
20
-7.10854447956444
30
0
41
1
10
59.1151241072364
20
-7.10837640433741
30
0
41
1
10
59.2875283789852
20
-7.10816480830781
30
0
41
1
10
59.289832795104
20
-7.10816196062609
30
0
0
SPLINE
5
DE
100
AcDbEntity
8
1
62
256
6
ByLayer
370
18
48
1
60
0
100
AcDbSpline
70
4
71
3
72
28
73
24
40
0
40
0
40
0
40
0
40
0.0305170343149136
40
0.0647530583435694
40
0.116293948935239
40
0.163048847106255
40
0.238510275113625
40
0.310805971469487
40
0.357008048878982
40
0.407483985488957
40
0.46127110867312
40
0.508604011158826
40
0.557830049844764
40
0.612135708034593
40
0.654945339121985
40
0.69611563267838
40
0.749382848899275
40
0.801587496872856
40
0.852971125244178
40
0.912320703244497
40
0.960605916238438
40
0.999170399577131
40
1
40
1
40
1
40
1
41
1
10
59.3498030003573
20
7.10747988658704
30
0
41
1
10
59.1803782875529
20
7.10781054206714
30
0
41
1
10
58.8196109918728
20
7.10835914158264
30
0
41
1
10
58.1647031162055
20
7.10783692268262
30
0
41
1
10
57.4171557367196
20
7.10900099261866
30
0
41
1
10
56.4368315466647
20
7.10739009358198
30
0
41
1
10
55.3392434050628
20
7.10711720779383
30
0
41
1
10
54.2448257910226
20
7.1063805687975
30
0
41
1
10
53.2913771308449
20
7.1052150828007
30
0
41
1
10
52.4423702204901
20
7.10618357097104
30
0
41
1
10
51.5869821777062
20
7.1044530836262
30
0
41
1
10
50.7386435329707
20
7.10421405310515
30
0
41
1
10
49.8873780088937
20
7.10462003795294
30
0
41
1
10
49.0616403197956
20
7.10299673095847
30
0
41
1
10
48.2813562900112
20
7.10303799919726
30
0
41
1
10
47.5069322226044
20
7.1031141557423
30
0
41
1
10
46.6794874162482
20
7.10188430642287
30
0
41
1
10
45.7944439428341
20
7.10201070836342
30
0
41
1
10
44.8754320900903
20
7.10169926995189
30
0
41
1
10
43.9778911794892
20
7.10032284875115
30
0
41
1
10
43.1534807740408
20
7.10040877997639
30
0
41
1
10
42.6579351486271
20
7.10022111914756
30
0
41
1
10
42.4363320913455
20
7.09986388677206
30
0
41
1
10
42.4316657796738
20
7.09985625045087
30
0
0
SPLINE
5
DF
100
AcDbEntity
8
1
62
256
6
ByLayer
370
18
48
1
60
0
100
AcDbSpline
70
4
71
3
72
24
73
20
40
0
40
0
40
0
40
0
40
0.0342282204285814
40
0.0817927959430372
40
0.119950615815921
40
0.151059434827953
40
0.192496047424535
40
0.275882674024379
40
0.349733298920593
40
0.43047231398634
40
0.505145028886593
40
0.584366304753913
40
0.651725954293806
40
0.701039517266548
40
0.74869932624145
40
0.812531490335496
40
0.868260115307921
40
0.938051741201682
40
1
40
1
40
1
40
1
41
1
10
15.5944096290339
20
7.0842781835091
30
0
41
1
10
15.4647899286863
20
7.08413996330944
30
0
41
1
10
15.155334157707
20
7.08388990521641
30
0
41
1
10
14.7042854689668
20
7.08424754974732
30
0
41
1
10
14.2628937126637
20
7.08410499407503
30
0
41
1
10
13.8440709026827
20
7.08378932145962
30
0
41
1
10
13.2543341971598
20
7.08298477654924
30
0
41
1
10
12.5028568753117
20
7.08266054793629
30
0
41
1
10
11.6027756178836
20
7.08336420278243
30
0
41
1
10
10.7358109232375
20
7.08176829231616
30
0
41
1
10
9.84829886091282
20
7.08197909175556
30
0
41
1
10
9.01150953727404
20
7.08110313084961
30
0
41
1
10
8.27061090223617
20
7.07950146748206
30
0
41
1
10
7.64904075283454
20
7.07965230149026
30
0
41
1
10
7.04083974376076
20
7.07917673638494
30
0
41
1
10
6.40835822098506
20
7.07873500727933
30
0
41
1
10
5.69216954976395
20
7.07834464890496
30
0
41
1
10
4.98310110535817
20
7.07780303773168
30
0
41
1
10
4.484821409397
20
7.07682036862963
30
0
41
1
10
4.25051489496153
20
7.07626250073645
30
0
0
SPLINE
5
E0
100
AcDbEntity
8
1
62
256
6
ByLayer
370
18
48
1
60
0
100
AcDbSpline
70
4
71
3
72
26
73
22
40
0
40
0
40
0
40
0
40
0.0629124862513128
40
0.133790421962075
40
0.190386465505464
40
0.246965196903971
40
0.291443519767773
40
0.329975050265377
40
0.380781673094004
40
0.444991659517977
40
0.513730383595782
40
0.578393017282934
40
0.631418379610752
40
0.68152001825057
40
0.72884720773017
40
0.778590706774654
40
0.835765086460231
40
0.877738702898711
40
0.915917662451137
40
0.964995780636563
40
1
40
1
40
1
40
1
41
1
10
4.25051489496158
20
-7.07626250073651
30
0
41
1
10
4.48482140939706
20
-7.07682036862971
30
0
41
1
10
4.98310128277222
20
-7.07780286693784
30
0
41
1
10
5.69216890585901
20
-7.0783452687852
30
0
41
1
10
6.37764554160373
20
-7.07871647857192
30
0
41
1
10
6.96479229921263
20
-7.07912833288398
30
0
41
1
10
7.48467121101129
20
-7.07951335913361
30
0
41
1
10
7.98303195216025
20
-7.07966193678246
30
0
41
1
10
8.55490911286859
20
-7.07976951969499
30
0
41
1
10
9.23921099034717
20
-7.08165099785907
30
0
41
1
10
9.97516641354355
20
-7.08185909039847
30
0
41
1
10
10.6695063581366
20
-7.08188120935839
30
0
41
1
10
11.2943360024459
20
-7.08271881865926
30
0
41
1
10
11.8545823487846
20
-7.08318352491492
30
0
41
1
10
12.402702297419
20
-7.08283449953797
30
0
41
1
10
12.9771586264301
20
-7.08271628865762
30
0
41
1
10
13.5317117815279
20
-7.08339488979664
30
0
41
1
10
14.0430842678495
20
-7.08397996353855
30
0
41
1
10
14.5245973190966
20
-7.08423710337104
30
0
41
1
10
14.9774581098078
20
-7.08400797089644
30
0
41
1
10
15.2902973394035
20
-7.08410536166369
30
0
41
1
10
15.4206499361795
20
-7.08416738696863
30
0
0
SPLINE
5
E1
100
AcDbEntity
8
1
62
256
6
ByLayer
370
18
48
1
60
0
100
AcDbSpline
70
4
71
3
72
8
73
4
40
0
40
0
40
0
40
0
40
1
40
1
40
1
40
1
41
1
10
15.4431561138297
20
-7.08417830458529
30
0
41
1
10
15.4922484452062
20
-7.08420256447349
30
0
41
1
10
15.5413560297946
20
-7.08422968517684
30
0
41
1
10
15.5904720919112
20
-7.08425845399006
30
0
0
LINE
5
7B
100
AcDbEntity
8
SK1
62
256
6
ByLayer
370
18
48
1
60
0
100
AcDbLine
10
0
20
-8
30
0
11
0
21
8
31
0
39
0
210
0
220
0
230
1
0
LINE
5
7D
100
AcDbEntity
8
SK1
62
256
6
ByLayer
370
18
48
1
60
0
100
AcDbLine
10
-48
20
5.55
30
0
11
-48
21
-5.55
31
0
39
0
210
0
220
0
230
1
0
LINE
5
7E
100
AcDbEntity
8
SK1
62
256
6
ByLayer
370
18
48
1
60
0
100
AcDbLine
10
-45.55
20
8
30
0
11
-45.55
21
-8
31
0
39
0
210
0
220
0
230
1
0
LINE
5
7F
100
AcDbEntity
8
1
62
256
6
ByLayer
370
18
48
1
60
0
100
AcDbLine
10
4
20
7.450783
30
0
11
4
21
5.888348
31
0
39
0
210
0
220
0
230
1
0
LINE
5
80
100
AcDbEntity
8
1
62
256
6
ByLayer
370
13
48
1
60
0
100
AcDbLine
10
82.437139
20
1.749532
30
0
11
84.989146
21
0.13405
31
0
39
0
210
0
220
0
230
1
0
LINE
5
81
100
AcDbEntity
8
1
62
256
6
ByLayer
370
18
48
1
60
0
100
AcDbLine
10
4
20
-7.450783
30
0
11
4
21
-4.272866
31
0
39
0
210
0
220
0
230
1
0
LINE
5
82
100
AcDbEntity
8
1
62
256
6
ByLayer
370
13
48
1
60
0
100
AcDbLine
10
1.208605
20
7.449038
30
0
11
1.208605
21
-7.449038
31
0
39
0
210
0
220
0
230
1
0
LINE
5
83
100
AcDbEntity
8
1
62
256
6
ByLayer
370
13
48
1
60
0
100
AcDbLine
10
82.258634
20
1.623303
30
0
11
84.950455
21
-0.080684
31
0
39
0
210
0
220
0
230
1
0
LINE
5
84
100
AcDbEntity
8
1
62
256
6
ByLayer
370
13
48
1
60
0
100
AcDbLine
10
0.604053
20
7.724519
30
0
11
0.604053
21
-7.724519
31
0
39
0
210
0
220
0
230
1
0
LINE
5
85
100
AcDbEntity
8
1
62
256
6
ByLayer
370
18
48
1
60
0
100
AcDbLine
10
0
20
-8
30
0
11
0
21
8
31
0
39
0
210
0
220
0
230
1
0
LINE
5
86
100
AcDbEntity
8
80
62
256
6
ByLayer
370
18
48
1
60
0
100
AcDbLine
10
0
20
0
30
0
11
-5
21
0
31
0
39
0
210
0
220
0
230
1
0
LINE
5
87
100
AcDbEntity
8
4
62
256
6
ByLayer
370
18
48
0.05
60
0
100
AcDbLine
10
85
20
0
30
0
11
0
21
0
31
0
39
0
210
0
220
0
230
1
0
LINE
5
89
100
AcDbEntity
8
SK4
62
256
6
ByLayer
370
18
48
0.05
60
0
100
AcDbLine
10
90
20
0
30
0
11
-53
21
0
31
0
39
0
210
0
220
0
230
1
0
LINE
5
8B
100
AcDbEntity
8
SK1
62
256
6
ByLayer
370
18
48
1
60
0
100
AcDbLine
10
-45.55
20
-8
30
0
11
0
21
-8
31
0
39
0
210
0
220
0
230
1
0
LINE
5
8C
100
AcDbEntity
8
SK1
62
256
6
ByLayer
370
18
48
1
60
0
100
AcDbLine
10
0
20
8
30
0
11
-45.55
21
8
31
0
39
0
210
0
220
0
230
1
0
LINE
5
8D
100
AcDbEntity
8
SK1
62
256
6
ByLayer
370
18
48
1
60
0
100
AcDbLine
10
-48
20
-5.55
30
0
11
-45.55
21
-8
31
0
39
0
210
0
220
0
230
1
0
LINE
5
8E
100
AcDbEntity
8
SK1
62
256
6
ByLayer
370
18
48
1
60
0
100
AcDbLine
10
-45.55
20
8
30
0
11
-48
21
5.55
31
0
39
0
210
0
220
0
230
1
0
LINE
5
8F
100
AcDbEntity
8
1
62
256
6
ByLayer
370
18
48
1
60
0
100
AcDbLine
10
1.208605
20
-7.449038
30
0
11
4
21
-7.450783
31
0
39
0
210
0
220
0
230
1
0
LINE
5
90
100
AcDbEntity
8
1
62
256
6
ByLayer
370
18
48
1
60
0
100
AcDbLine
10
35.925797
20
-7.470737
30
0
11
38.129022
21
-7.472114
31
0
39
0
210
0
220
0
230
1
0
LINE
5
91
100
AcDbEntity
8
1
62
256
6
ByLayer
370
18
48
1
60
0
100
AcDbLine
10
79.471229
20
-7.497953
30
0
11
81.680427
21
-7.499333
31
0
39
0
210
0
220
0
230
1
0
LINE
5
92
100
AcDbEntity
8
1
62
256
6
ByLayer
370
18
48
1
60
0
100
AcDbLine
10
81.680438
20
7.499333
30
0
11
79.471229
21
7.497953
31
0
39
0
210
0
220
0
230
1
0
LINE
5
93
100
AcDbEntity
8
1
62
256
6
ByLayer
370
18
48
1
60
0
100
AcDbLine
10
38.129282
20
7.472114
30
0
11
35.925797
21
7.470737
31
0
39
0
210
0
220
0
230
1
0
LINE
5
94
100
AcDbEntity
8
1
62
256
6
ByLayer
370
18
48
1
60
0
100
AcDbLine
10
4
20
7.450783
30
0
11
1.208605
21
7.449038
31
0
39
0
210
0
220
0
230
1
0
LINE
5
95
100
AcDbEntity
8
81
62
256
6
ByLayer
370
18
48
1
60
0
100
AcDbLine
10
85
20
0
30
0
11
90
21
0
31
0
39
0
210
0
220
0
230
1
0
LINE
5
96
100
AcDbEntity
8
SK2
62
256
6
ByLayer
370
13
48
1
60
0
100
AcDbLine
10
-56.625163
20
-8
30
0
11
-56.625163
21
38.857173
31
0
39
0
210
0
220
0
230
1
0
LINE
5
98
100
AcDbEntity
8
SK2
62
256
6
ByLayer
370
13
48
1
60
0
100
AcDbLine
10
-49.5875
20
8
30
0
11
-58.625163
21
8
31
0
39
0
210
0
220
0
230
1
0
LINE
5
99
100
AcDbEntity
8
SK2
62
256
6
ByLayer
370
13
48
1
60
0
100
AcDbLine
10
-49.5875
20
-8
30
0
11
-58.625163
21
-8
31
0
39
0
210
0
220
0
230
1
0
LINE
5
9A
100
AcDbEntity
8
1
62
256
6
ByLayer
370
18
48
1
60
1
100
AcDbLine
10
-56.625163
20
8
30
0
11
-56.164379
21
4.500002
31
0
39
0
210
0
220
0
230
1
0
LINE
5
9B
100
AcDbEntity
8
1
62
256
6
ByLayer
370
18
48
1
60
1
100
AcDbLine
10
-56.164379
20
4.500002
30
0
11
-57.085946
21
4.499998
31
0
39
0
210
0
220
0
230
1
0
LINE
5
9C
100
AcDbEntity
8
1
62
256
6
ByLayer
370
18
48
1
60
1
100
AcDbLine
10
-57.085946
20
4.499998
30
0
11
-56.625163
21
8
31
0
39
0
210
0
220
0
230
1
0
LINE
5
9D
100
AcDbEntity
8
1
62
256
6
ByLayer
370
18
48
1
60
1
100
AcDbLine
10
-56.625163
20
-8
30
0
11
-57.085946
21
-4.500002
31
0
39
0
210
0
220
0
230
1
0
LINE
5
9E
100
AcDbEntity
8
1
62
256
6
ByLayer
370
18
48
1
60
1
100
AcDbLine
10
-57.085946
20
-4.500002
30
0
11
-56.164379
21
-4.499998
31
0
39
0
210
0
220
0
230
1
0
LINE
5
9F
100
AcDbEntity
8
1
62
256
6
ByLayer
370
18
48
1
60
1
100
AcDbLine
10
-56.164379
20
-4.499998
30
0
11
-56.625163
21
-8
31
0
39
0
210
0
220
0
230
1
0
LINE
5
A0
100
AcDbEntity
8
2
62
256
6
ByLayer
370
13
48
1
60
0
100
AcDbLine
10
97.083343
20
-7.5
30
0
11
97.083343
21
36.950259
31
0
39
0
210
0
220
0
230
1
0
LINE
5
A2
100
AcDbEntity
8
2
62
256
6
ByLayer
370
13
48
1
60
0
100
AcDbLine
10
84.35
20
7.5
30
0
11
99.083343
21
7.5
31
0
39
0
210
0
220
0
230
1
0
LINE
5
A3
100
AcDbEntity
8
2
62
256
6
ByLayer
370
13
48
1
60
0
100
AcDbLine
10
84.35
20
-7.5
30
0
11
99.083343
21
-7.5
31
0
39
0
210
0
220
0
230
1
0
LINE
5
A4
100
AcDbEntity
8
1
62
256
6
ByLayer
370
18
48
1
60
1
100
AcDbLine
10
97.083343
20
7.5
30
0
11
97.544126
21
4.000002
31
0
39
0
210
0
220
0
230
1
0
LINE
5
A5
100
AcDbEntity
8
1
62
256
6
ByLayer
370
18
48
1
60
1
100
AcDbLine
10
97.544126
20
4.000002
30
0
11
96.622559
21
3.999998
31
0
39
0
210
0
220
0
230
1
0
LINE
5
A6
100
AcDbEntity
8
1
62
256
6
ByLayer
370
18
48
1
60
1
100
AcDbLine
10
96.622559
20
3.999998
30
0
11
97.083343
21
7.5
31
0
39
0
210
0
220
0
230
1
0
LINE
5
A7
100
AcDbEntity
8
1
62
256
6
ByLayer
370
18
48
1
60
1
100
AcDbLine
10
97.083343
20
-7.5
30
0
11
96.622559
21
-4.000002
31
0
39
0
210
0
220
0
230
1
0
LINE
5
A8
100
AcDbEntity
8
1
62
256
6
ByLayer
370
18
48
1
60
1
100
AcDbLine
10
96.622559
20
-4.000002
30
0
11
97.544126
21
-3.999998
31
0
39
0
210
0
220
0
230
1
0
LINE
5
A9
100
AcDbEntity
8
1
62
256
6
ByLayer
370
18
48
1
60
1
100
AcDbLine
10
97.544126
20
-3.999998
30
0
11
97.083343
21
-7.5
31
0
39
0
210
0
220
0
230
1
0
LINE
5
E8
100
AcDbEntity
8
1
62
256
6
ByLayer
370
18
48
1
60
1
100
AcDbLine
10
-56.625163
20
8
30
0
11
-56.164379
21
4.500002
31
0
39
0
210
0
220
0
230
1
0
LINE
5
E9
100
AcDbEntity
8
1
62
256
6
ByLayer
370
18
48
1
60
1
100
AcDbLine
10
-56.164379
20
4.500002
30
0
11
-57.085946
21
4.499998
31
0
39
0
210
0
220
0
230
1
0
LINE
5
EA
100
AcDbEntity
8
1
62
256
6
ByLayer
370
18
48
1
60
1
100
AcDbLine
10
-57.085946
20
4.499998
30
0
11
-56.625163
21
8
31
0
39
0
210
0
220
0
230
1
0
LINE
5
EC
100
AcDbEntity
8
1
62
256
6
ByLayer
370
18
48
1
60
1
100
AcDbLine
10
-56.625163
20
-8
30
0
11
-57.085946
21
-4.500002
31
0
39
0
210
0
220
0
230
1
0
LINE
5
ED
100
AcDbEntity
8
1
62
256
6
ByLayer
370
18
48
1
60
1
100
AcDbLine
10
-57.085946
20
-4.500002
30
0
11
-56.164379
21
-4.499998
31
0
39
0
210
0
220
0
230
1
0
LINE
5
EE
100
AcDbEntity
8
1
62
256
6
ByLayer
370
18
48
1
60
1
100
AcDbLine
10
-56.164379
20
-4.499998
30
0
11
-56.625163
21
-8
31
0
39
0
210
0
220
0
230
1
0
LINE
5
F2
100
AcDbEntity
8
1
62
256
6
ByLayer
370
18
48
1
60
1
100
AcDbLine
10
97.083343
20
7.5
30
0
11
97.544126
21
4.000002
31
0
39
0
210
0
220
0
230
1
0
LINE
5
F3
100
AcDbEntity
8
1
62
256
6
ByLayer
370
18
48
1
60
1
100
AcDbLine
10
97.544126
20
4.000002
30
0
11
96.622559
21
3.999998
31
0
39
0
210
0
220
0
230
1
0
LINE
5
F4
100
AcDbEntity
8
1
62
256
6
ByLayer
370
18
48
1
60
1
100
AcDbLine
10
96.622559
20
3.999998
30
0
11
97.083343
21
7.5
31
0
39
0
210
0
220
0
230
1
0
LINE
5
F6
100
AcDbEntity
8
1
62
256
6
ByLayer
370
18
48
1
60
1
100
AcDbLine
10
97.083343
20
-7.5
30
0
11
96.622559
21
-4.000002
31
0
39
0
210
0
220
0
230
1
0
LINE
5
F7
100
AcDbEntity
8
1
62
256
6
ByLayer
370
18
48
1
60
1
100
AcDbLine
10
96.622559
20
-4.000002
30
0
11
97.544126
21
-3.999998
31
0
39
0
210
0
220
0
230
1
0
LINE
5
F8
100
AcDbEntity
8
1
62
256
6
ByLayer
370
18
48
1
60
1
100
AcDbLine
10
97.544126
20
-3.999998
30
0
11
97.083343
21
-7.5
31
0
39
0
210
0
220
0
230
1
0
MTEXT
5
E2
100
AcDbEntity
8
SK6
62
256
6
ByLayer
370
13
48
1
60
0
100
AcDbMText
10
-10.645193
20
40.040328
30
0
210
0
220
0
230
1
1
\W0.7670;462.1-1500-068A0-XM X2BM
40
3.5
41
0
44
1.084337
50
0
71
7
72
5
7
iso_b_vert
0
MTEXT
5
E6
100
AcDbEntity
8
SK2
62
256
6
ByLayer
370
18
48
1
60
0
100
AcDbMText
10
-58.189796
20
21.409024
30
0
210
0
220
0
230
1
1
%%c
40
3.5
41
0
44
1.084337
50
90
71
7
72
5
7
iso_b_vert
0
MTEXT
5
E7
100
AcDbEntity
8
SK2
62
256
6
ByLayer
370
18
48
1
60
0
100
AcDbMText
10
-58.189796
20
26.63168
30
0
210
0
220
0
230
1
1
\W0.6930;16,000
40
3.5
41
0
44
1.084337
50
90
71
7
72
5
7
iso_b_vert
0
MTEXT
5
F0
100
AcDbEntity
8
2
62
256
6
ByLayer
370
18
48
1
60
0
100
AcDbMText
10
95.518709
20
19.50211
30
0
210
0
220
0
230
1
1
%%c
40
3.5
41
0
44
1.084337
50
90
71
7
72
5
7
iso_b_vert
0
MTEXT
5
F1
100
AcDbEntity
8
2
62
256
6
ByLayer
370
18
48
1
60
0
100
AcDbMText
10
95.518709
20
24.724766
30
0
210
0
220
0
230
1
1
\W0.6930;15,000
40
3.5
41
0
44
1.084337
50
90
71
7
72
5
7
iso_b_vert
0
HATCH
5
EB
100
AcDbEntity
8
SK2
62
256
6
ByLayer
370
13
48
1
60
0
100
AcDbHatch
10
0
20
0
30
0
210
0
220
0
230
1
2
ANSI31
70
0
71
0
91
1
92
5
93
3
72
1
10
-56.6251625675374
20
8
11
-56.1643788259847
21
4.50000169255318
72
1
10
-56.1643788259847
20
4.50000169255318
11
-57.0859463090902
21
4.49999830744682
72
1
10
-57.0859463090902
20
4.49999830744682
11
-56.6251625675374
21
8
97
0
75
0
76
1
52
0
41
0.0062
77
0
78
1
53
45
43
0
44
0
45
-0.0139193969876572
46
0.0139193969876572
79
0
47
0
98
1
10
0
20
0
0
HATCH
5
EF
100
AcDbEntity
8
SK2
62
256
6
ByLayer
370
13
48
1
60
0
100
AcDbHatch
10
0
20
0
30
0
210
0
220
0
230
1
2
ANSI31
70
0
71
0
91
1
92
5
93
3
72
1
10
-56.6251625675374
20
-8
11
-57.0859463090902
21
-4.50000169255318
72
1
10
-57.0859463090902
20
-4.50000169255318
11
-56.1643788259847
21
-4.49999830744682
72
1
10
-56.1643788259847
20
-4.49999830744682
11
-56.6251625675374
21
-8
97
0
75
0
76
1
52
0
41
0.0062
77
0
78
1
53
45
43
0
44
0
45
-0.0139193969876572
46
0.0139193969876572
79
0
47
0
98
1
10
0
20
0
0
HATCH
5
F5
100
AcDbEntity
8
2
62
256
6
ByLayer
370
13
48
1
60
0
100
AcDbHatch
10
0
20
0
30
0
210
0
220
0
230
1
2
ANSI31
70
0
71
0
91
1
92
5
93
3
72
1
10
97.083342615295
20
7.5
11
97.5441263568478
21
4.00000169255318
72
1
10
97.5441263568478
20
4.00000169255318
11
96.6225588737423
21
3.99999830744682
72
1
10
96.6225588737423
20
3.99999830744682
11
97.083342615295
21
7.5
97
0
75
0
76
1
52
0
41
0.0062
77
0
78
1
53
45
43
0
44
0
45
-0.0139193969876572
46
0.0139193969876572
79
0
47
0
98
1
10
0
20
0
0
HATCH
5
F9
100
AcDbEntity
8
2
62
256
6
ByLayer
370
13
48
1
60
0
100
AcDbHatch
10
0
20
0
30
0
210
0
220
0
230
1
2
ANSI31
70
0
71
0
91
1
92
5
93
3
72
1
10
97.083342615295
20
-7.5
11
96.6225588737423
21
-4.00000169255318
72
1
10
96.6225588737423
20
-4.00000169255318
11
97.5441263568478
21
-3.99999830744682
72
1
10
97.5441263568478
20
-3.99999830744682
11
97.083342615295
21
-7.5
97
0
75
0
76
1
52
0
41
0.0062
77
0
78
1
53
45
43
0
44
0
45
-0.0139193969876572
46
0.0139193969876572
79
0
47
0
98
1
10
0
20
0
0
DIMENSION
5
FB
100
AcDbEntity
8
SK2
62
256
6
ByLayer
370
13
48
1
60
0
100
AcDbDimension
2
_U0
10
82.7625
20
-17.713398
30
0
11
41.38125
21
-17.713398
31
0
70
32
71
1
72
1
41
1
210
0
220
0
230
1
3
Standard
100
AcDbAlignedDimension
13
0
23
0
33
0
14
82.7625
24
-7.5
34
0
50
0
100
AcDbRotatedDimension
1001
ACAD
1000
DSTYLE
1002
{
1070
   371
1070
    13
1070
   372
1070
    13
1070
   170
1070
     0
1070
   144
1040
1.0
1070
   277
1070
     2
1070
   278
1070
    44
1070
   146
1040
1.0
1070
   345
1005
16
1070
   347
1005
16
1070
   346
1005
16
1070
   344
1005
0
1070
   343
1005
0
1070
   172
1070
     1
1070
    76
1070
     0
1070
    75
1070
     0
1070
   282
1070
     0
1070
   281
1070
     0
1070
    71
1070
     0
1070
    74
1070
     0
1070
   279
1070
     0
1070
   173
1070
     1
1070
   340
1005
E3
1070
   271
1070
     2
1070
   272
1070
     2
1070
    77
1070
     1
1070
    73
1070
     1
1070
   171
1070
     3
1070
   274
1070
     4
1070
   177
1070
    35
1070
   176
1070
    35
1070
   178
1070
    35
1070
    48
1040
-0.1
1070
    41
1040
3.5
1070
   147
1040
1.75
1070
    42
1040
1.5875
1070
    44
1040
2.0
1070
   140
1040
3.5
1002
}
1001
ACAD_DSTYLE_DIM_LINETYPE
1070
   380
1005
16
1001
ACAD_DSTYLE_DIM_EXT1_LINETYPE
1070
   381
1005
16
1001
ACAD_DSTYLE_DIM_EXT2_LINETYPE
1070
   382
1005
16
0
DIMENSION
5
114
100
AcDbEntity
8
SK2
62
256
6
ByLayer
370
13
48
1
60
0
100
AcDbDimension
2
_U1
10
85
20
-36.692985
30
0
11
18.5
21
-36.692985
31
0
70
32
71
1
72
1
41
1
210
0
220
0
230
1
3
Standard
100
AcDbAlignedDimension
13
-48
23
-8
33
0
14
85
24
0
34
0
50
0
100
AcDbRotatedDimension
1001
ACAD
1000
DSTYLE
1002
{
1070
   371
1070
    13
1070
   372
1070
    13
1070
   170
1070
     0
1070
   144
1040
1.0
1070
   277
1070
     2
1070
   278
1070
    44
1070
   146
1040
1.0
1070
   345
1005
16
1070
   347
1005
16
1070
   346
1005
16
1070
   344
1005
0
1070
   343
1005
0
1070
   172
1070
     1
1070
    76
1070
     0
1070
    75
1070
     0
1070
   282
1070
     0
1070
   281
1070
     0
1070
    71
1070
     0
1070
    74
1070
     0
1070
   279
1070
     0
1070
   173
1070
     1
1070
   340
1005
E3
1070
   271
1070
     2
1070
   272
1070
     2
1070
    77
1070
     1
1070
    73
1070
     1
1070
   171
1070
     3
1070
   274
1070
     4
1070
   177
1070
    35
1070
   176
1070
    35
1070
   178
1070
    35
1070
    48
1040
-0.1
1070
    41
1040
3.5
1070
   147
1040
1.75
1070
    42
1040
1.5875
1070
    44
1040
2.0
1070
   140
1040
3.5
1002
}
1001
ACAD_DSTYLE_DIM_LINETYPE
1070
   380
1005
16
1001
ACAD_DSTYLE_DIM_EXT1_LINETYPE
1070
   381
1005
16
1001
ACAD_DSTYLE_DIM_EXT2_LINETYPE
1070
   382
1005
16
0
DIMENSION
5
12C
100
AcDbEntity
8
SK2
62
256
6
ByLayer
370
13
48
1
60
0
100
AcDbDimension
2
_U2
10
85
20
19.109119
30
0
11
51
21
19.109119
31
0
70
32
71
1
72
1
41
1
210
0
220
0
230
1
3
Standard
100
AcDbAlignedDimension
13
17
23
7.5
33
0
14
85
24
0
34
0
50
0
100
AcDbRotatedDimension
1001
ACAD
1000
DSTYLE
1002
{
1070
   371
1070
    13
1070
   372
1070
    13
1070
   170
1070
     0
1070
   144
1040
1.0
1070
   277
1070
     2
1070
   278
1070
    44
1070
   146
1040
1.0
1070
   345
1005
16
1070
   347
1005
16
1070
   346
1005
16
1070
   344
1005
0
1070
   343
1005
0
1070
   172
1070
     1
1070
    76
1070
     0
1070
    75
1070
     0
1070
   282
1070
     0
1070
   281
1070
     0
1070
    71
1070
     0
1070
    74
1070
     0
1070
   279
1070
     0
1070
   173
1070
     1
1070
   340
1005
E3
1070
   271
1070
     2
1070
   272
1070
     2
1070
    77
1070
     1
1070
    73
1070
     1
1070
   171
1070
     3
1070
   274
1070
     4
1070
   177
1070
    35
1070
   176
1070
    35
1070
   178
1070
    35
1070
    48
1040
-0.1
1070
    41
1040
3.5
1070
   147
1040
1.75
1070
    42
1040
1.5875
1070
    44
1040
2.0
1070
   140
1040
3.5
1002
}
1001
ACAD_DSTYLE_DIM_LINETYPE
1070
   380
1005
16
1001
ACAD_DSTYLE_DIM_EXT1_LINETYPE
1070
   381
1005
16
1001
ACAD_DSTYLE_DIM_EXT2_LINETYPE
1070
   382
1005
16
0
DIMENSION
5
144
100
AcDbEntity
8
SK2
62
256
6
ByLayer
370
13
48
1
60
0
100
AcDbDimension
2
_U3
10
82.7625
20
-20.302503
30
0
11
102.666667
21
-20.302503
31
0
70
32
71
1
72
1
41
1
210
0
220
0
230
1
3
Standard
100
AcDbAlignedDimension
13
85
23
0
33
0
14
82.7625
24
-7.5
34
0
50
0
100
AcDbRotatedDimension
1001
ACAD
1000
DSTYLE
1002
{
1070
   371
1070
    13
1070
   372
1070
    13
1070
   170
1070
     0
1070
   144
1040
1.0
1070
   277
1070
     2
1070
   278
1070
    44
1070
   146
1040
1.0
1070
   345
1005
16
1070
   347
1005
16
1070
   346
1005
16
1070
   344
1005
0
1070
   343
1005
0
1070
   172
1070
     1
1070
    76
1070
     0
1070
    75
1070
     0
1070
   282
1070
     0
1070
   281
1070
     0
1070
    71
1070
     0
1070
    74
1070
     0
1070
   279
1070
     0
1070
   173
1070
     1
1070
   340
1005
E3
1070
   271
1070
     2
1070
   272
1070
     2
1070
    77
1070
     1
1070
    73
1070
     1
1070
   171
1070
     3
1070
   274
1070
     4
1070
   177
1070
    35
1070
   176
1070
    35
1070
   178
1070
    35
1070
    48
1040
-0.1
1070
    41
1040
3.5
1070
   147
1040
1.75
1070
    42
1040
1.5875
1070
    44
1040
2.0
1070
   140
1040
3.5
1002
}
1001
ACAD_DSTYLE_DIM_LINETYPE
1070
   380
1005
16
1001
ACAD_DSTYLE_DIM_EXT1_LINETYPE
1070
   381
1005
16
1001
ACAD_DSTYLE_DIM_EXT2_LINETYPE
1070
   382
1005
16
0
DIMENSION
5
15E
100
AcDbEntity
8
SK2
62
256
6
ByLayer
370
13
48
1
60
0
100
AcDbDimension
2
_U4
10
82.7625
20
-26.343428
30
0
11
17.38125
21
-26.343428
31
0
70
32
71
1
72
1
41
1
210
0
220
0
230
1
3
Standard
100
AcDbAlignedDimension
13
-48
23
-8
33
0
14
82.7625
24
-7.5
34
0
50
0
100
AcDbRotatedDimension
1001
ACAD
1000
DSTYLE
1002
{
1070
   371
1070
    13
1070
   372
1070
    13
1070
   170
1070
     0
1070
   144
1040
1.0
1070
   277
1070
     2
1070
   278
1070
    44
1070
   146
1040
1.0
1070
   345
1005
16
1070
   347
1005
16
1070
   346
1005
16
1070
   344
1005
0
1070
   343
1005
0
1070
   172
1070
     1
1070
    76
1070
     0
1070
    75
1070
     0
1070
   282
1070
     0
1070
   281
1070
     0
1070
    71
1070
     0
1070
    74
1070
     0
1070
   279
1070
     0
1070
   173
1070
     1
1070
   340
1005
E3
1070
   271
1070
     2
1070
   272
1070
     2
1070
    77
1070
     1
1070
    73
1070
     1
1070
   171
1070
     3
1070
   274
1070
     4
1070
   177
1070
    35
1070
   176
1070
    35
1070
   178
1070
    35
1070
    48
1040
-0.1
1070
    41
1040
3.5
1070
   147
1040
1.75
1070
    42
1040
1.5875
1070
    44
1040
2.0
1070
   140
1040
3.5
1002
}
1001
ACAD_DSTYLE_DIM_LINETYPE
1070
   380
1005
16
1001
ACAD_DSTYLE_DIM_EXT1_LINETYPE
1070
   381
1005
16
1001
ACAD_DSTYLE_DIM_EXT2_LINETYPE
1070
   382
1005
16
0
ENDSEC
0
SECTION
2
OBJECTS
0
DICTIONARY
5
1e6
330
0
100
AcDbDictionary
280
0
281
1
3
ACAD_GROUP
350
1e7
3
ACAD_MLINESTYLE
350
1e8
0
DICTIONARY
5
1e7
330
0
100
AcDbDictionary
280
0
281
1
0
DICTIONARY
5
1e8
330
0
100
AcDbDictionary
280
0
281
1
3
Standard
350
18
0
MLINESTYLE
5
18
330
1e8
100
AcDbMlineStyle
2
Standard
70
0
3

62
256
51
90
52
90
71
2
49
-0.5
62
256
6
ByLayer
49
0.5
62
256
6
ByLayer
0
RASTERVARIABLES
5
1d4
330

100
AcDbRasterVariables
90
0
70
1
71
1
72
1
0
ENDSEC
0
EOF
