0
SECTION
2
HEADER
9
$ACADVER
1
AC1015
9
$DWGCODEPAGE
3
ANSI_1252
9
$HANDSEED
5
1f1
9
$ANGBASE
50
0
9
$ANGDIR
70
0
9
$ATTMODE
70
1
9
$AUNITS
70
0
9
$AUPREC
70
0
9
$CECOLOR
62
256
9
$CELTSCALE
40
1
9
$CELTYPE
6
ByLayer
9
$CELWEIGHT
370
18
9
$CLAYER
8
0
9
$CMLJUST
70
0
9
$CMLSCALE
40
1
9
$CMLSTYLE
2
Standard
9
$DIMSTYLE
2
Standard
9
$TEXTSIZE
40
0.2
9
$TEXTSTYLE
7
Standard
9
$LUNITS
70
2
9
$LUPREC
70
4
9
$EXTNAMES
290
1
9
$INSUNITS
70
4
9
$LTSCALE
40
1
9
$LWDISPLAY
290
1
9
$PDMODE
70
0
9
$PDSIZE
40
0
9
$PLINEGEN
70
0
0
ENDSEC
0
SECTION
2
CLASSES
0
CLASS
1
RASTERVARIABLES
2
AcDbRasterVariables
3
ISM
90
0
280
0
281
0
0
ENDSEC
0
SECTION
2
TABLES
0
TABLE
2
VPORT
5
1e7
100
AcDbSymbolTable
0
VPORT
5
1
100
AcDbSymbolTableRecord
100
AcDbViewportTableRecord
2
*Active
70
0
10
0
20
0
11
1
21
1
12
-1
22
1
13
0
23
0
14
0.5
24
0.5
15
10
25
10
16
0
26
0
36
1
17
0
27
0
37
0
0
ENDTAB
0
TABLE
2
LTYPE
5
1e8
100
AcDbSymbolTable
0
LTYPE
5
14
100
AcDbSymbolTableRecord
100
AcDbLinetypeTableRecord
70
0
2
ByBlock
3

72
65
73
0
40
0
0
LTYPE
5
15
100
AcDbSymbolTableRecord
100
AcDbLinetypeTableRecord
70
0
2
ByLayer
3

72
65
73
0
40
0
0
LTYPE
5
16
100
AcDbSymbolTableRecord
100
AcDbLinetypeTableRecord
70
0
2
Continuous
3
Solid line
72
65
73
0
40
0
0
LTYPE
5
6E
100
AcDbSymbolTableRecord
100
AcDbLinetypeTableRecord
70
0
2
CENTER
3
____ _ ____ _ ____ _ ____
72
65
73
4
40
47.5
49
22
74
0
49
-8.5
74
0
49
8.5
74
0
49
-8.5
74
0
0
LTYPE
5
6F
100
AcDbSymbolTableRecord
100
AcDbLinetypeTableRecord
70
0
2
DASHED
3
__ __ __ __ __ __ __ __ __
72
65
73
2
40
25.72
49
12.86
74
0
49
-12.86
74
0
0
ENDTAB
0
TABLE
2
LAYER
5
1e9
100
AcDbSymbolTable
0
LAYER
5
10
100
AcDbSymbolTableRecord
100
AcDbLayerTableRecord
2
0
70
0
62
7
6
Continuous
290
1
370
-3
390
0
0
LAYER
5
71
100
AcDbSymbolTableRecord
100
AcDbLayerTableRecord
2
80
70
0
62
-6
6
Continuous
290
1
370
-3
390
0
0
LAYER
5
73
100
AcDbSymbolTableRecord
100
AcDbLayerTableRecord
2
81
70
0
62
-3
6
Continuous
290
1
370
-3
390
0
0
LAYER
5
75
100
AcDbSymbolTableRecord
100
AcDbLayerTableRecord
2
1
70
0
62
4
6
Continuous
290
1
370
-3
390
0
0
LAYER
5
87
100
AcDbSymbolTableRecord
100
AcDbLayerTableRecord
2
4
70
0
62
-2
6
CENTER
290
1
370
-3
390
0
0
LAYER
5
A2
100
AcDbSymbolTableRecord
100
AcDbLayerTableRecord
2
2
70
0
62
7
6
Continuous
290
1
370
-3
390
0
0
LAYER
5
FC
100
AcDbSymbolTableRecord
100
AcDbLayerTableRecord
2
Defpoints
70
0
62
7
6
Continuous
290
0
370
-3
390
0
0
LAYER
5
1d3
100
AcDbSymbolTableRecord
100
AcDbLayerTableRecord
2
SK1
70
0
62
4
6
Continuous
290
1
370
-3
390
0
0
LAYER
5
1d4
100
AcDbSymbolTableRecord
100
AcDbLayerTableRecord
2
SK4
70
0
62
2
6
CENTER
290
1
370
-3
390
0
0
LAYER
5
1d5
100
AcDbSymbolTableRecord
100
AcDbLayerTableRecord
2
SK2
70
0
62
7
6
Continuous
290
1
370
-3
390
0
0
LAYER
5
1d6
100
AcDbSymbolTableRecord
100
AcDbLayerTableRecord
2
SK6
70
0
62
5
6
Continuous
290
1
370
-3
390
0
0
ENDTAB
0
TABLE
2
STYLE
5
1ea
100
AcDbSymbolTable
0
STYLE
5
11
100
AcDbSymbolTableRecord
100
AcDbTextStyleTableRecord
2
Standard
3
txt
70
0
71
0
40
0
41
1
42
0
50
0
0
STYLE
5
E1
100
AcDbSymbolTableRecord
100
AcDbTextStyleTableRecord
2
iso_b_vert
3
simplex.shx
70
0
71
0
40
0
41
1
42
0
50
0
0
STYLE
5
E2
100
AcDbSymbolTableRecord
100
AcDbTextStyleTableRecord
2
DWGDirectTextStyle
3
simplex
70
0
71
0
40
0
41
1
42
0
50
0
0
ENDTAB
0
TABLE
2
DIMSTYLE
5
1eb
100
AcDbSymbolTable
100
AcDbDimStyleTable
0
DIMSTYLE
105
27
100
AcDbSymbolTableRecord
100
AcDbDimStyleTableRecord
2
Standard
70
0
3
<>
41
0.18
42
0.0625
44
0.18
140
0.18
147
0.09
73
0
74
0
77
1
271
2
275
0
278
52
280
0
340
11
0
ENDTAB
0
TABLE
2
VIEW
5
1ec
100
AcDbSymbolTable
0
ENDTAB
0
TABLE
2
UCS
5
1ed
100
AcDbSymbolTable
0
ENDTAB
0
TABLE
2
APPID
5
1ee
100
AcDbSymbolTable
0
APPID
5
12
100
AcDbSymbolTableRecord
100
AcDbRegAppTableRecord
2
ACAD
70
0
0
APPID
5
F8
100
AcDbSymbolTableRecord
100
AcDbRegAppTableRecord
2
ACAD_DSTYLE_DIMBREAK
70
0
0
APPID
5
192
100
AcDbSymbolTableRecord
100
AcDbRegAppTableRecord
2
ACAD_DSTYLE_DIM_LINETYPE
70
0
0
APPID
5
193
100
AcDbSymbolTableRecord
100
AcDbRegAppTableRecord
2
ACAD_DSTYLE_DIM_EXT1_LINETYPE
70
0
0
APPID
5
194
100
AcDbSymbolTableRecord
100
AcDbRegAppTableRecord
2
ACAD_DSTYLE_DIM_EXT2_LINETYPE
70
0
0
APPID
5
1CF
100
AcDbSymbolTableRecord
100
AcDbRegAppTableRecord
2
ACAD_MLEADERVER
70
0
0
ENDTAB
0
TABLE
2
BLOCK_RECORD
5
1ef
100
AcDbSymbolTable
0
BLOCK_RECORD
5
1F
100
AcDbSymbolTableRecord
100
AcDbBlockTableRecord
2
*Model_Space
340
0
70
0
0
BLOCK_RECORD
5
1B
100
AcDbSymbolTableRecord
100
AcDbBlockTableRecord
2
*Paper_Space
340
0
70
0
0
BLOCK_RECORD
5
23
100
AcDbSymbolTableRecord
100
AcDbBlockTableRecord
2
*Paper_Space0
340
0
70
0
0
BLOCK_RECORD
5
FD
100
AcDbSymbolTableRecord
100
AcDbBlockTableRecord
2
*D1
340
0
70
0
0
BLOCK_RECORD
5
109
100
AcDbSymbolTableRecord
100
AcDbBlockTableRecord
2
_U0
340
0
70
0
0
BLOCK_RECORD
5
115
100
AcDbSymbolTableRecord
100
AcDbBlockTableRecord
2
*D3
340
0
70
0
0
BLOCK_RECORD
5
121
100
AcDbSymbolTableRecord
100
AcDbBlockTableRecord
2
_U1
340
0
70
0
0
BLOCK_RECORD
5
12D
100
AcDbSymbolTableRecord
100
AcDbBlockTableRecord
2
*D5
340
0
70
0
0
BLOCK_RECORD
5
139
100
AcDbSymbolTableRecord
100
AcDbBlockTableRecord
2
_U2
340
0
70
0
0
BLOCK_RECORD
5
145
100
AcDbSymbolTableRecord
100
AcDbBlockTableRecord
2
*D7
340
0
70
0
0
BLOCK_RECORD
5
153
100
AcDbSymbolTableRecord
100
AcDbBlockTableRecord
2
_U3
340
0
70
0
0
BLOCK_RECORD
5
15F
100
AcDbSymbolTableRecord
100
AcDbBlockTableRecord
2
*D9
340
0
70
0
0
BLOCK_RECORD
5
16B
100
AcDbSymbolTableRecord
100
AcDbBlockTableRecord
2
_U4
340
0
70
0
0
ENDTAB
0
ENDSEC
0
SECTION
2
BLOCKS
0
BLOCK
5
20
100
AcDbEntity
8
0
100
AcDbBlockBegin
2
*Model_Space
70
0
10
0
20
0
30
0
3
*Model_Space
0
ENDBLK
5
21
100
AcDbEntity
8
0
100
AcDbBlockEnd
0
BLOCK
5
1C
100
AcDbEntity
8
0
100
AcDbBlockBegin
2
*Paper_Space
70
0
10
0
20
0
30
0
3
*Paper_Space
0
ENDBLK
5
1D
100
AcDbEntity
8
0
100
AcDbBlockEnd
0
BLOCK
5
24
100
AcDbEntity
8
0
100
AcDbBlockBegin
2
*Paper_Space0
70
0
10
0
20
0
30
0
3
*Paper_Space0
0
ENDBLK
5
25
100
AcDbEntity
8
0
100
AcDbBlockEnd
0
BLOCK
5
FE
100
AcDbEntity
8
0
100
AcDbBlockBegin
2
*D1
70
1
10
0
20
0
30
0
3
*D1
0
LINE
5
100
100
AcDbEntity
8
0
62
256
6
ByLayer
370
-2
48
1
60
0
100
AcDbLine
10
0
20
-1.5875
30
0
11
0
21
-21.113398
31
0
39
0
210
0
220
0
230
1
0
LINE
5
101
100
AcDbEntity
8
0
62
256
6
ByLayer
370
-2
48
1
60
0
100
AcDbLine
10
92.3405
20
-10.4875
30
0
11
92.3405
21
-21.113398
31
0
39
0
210
0
220
0
230
1
0
LINE
5
102
100
AcDbEntity
8
0
62
256
6
ByLayer
370
-2
48
1
60
0
100
AcDbLine
10
3.5
20
-19.113398
30
0
11
88.8405
21
-19.113398
31
0
39
0
210
0
220
0
230
1
0
SOLID
5
103
100
AcDbEntity
8
0
62
256
6
ByLayer
370
-1
48
1
60
0
100
AcDbTrace
10
3.5
20
-18.530065
30
0
11
3.5
21
-19.696732
31
0
12
0
22
-19.113398
32
0
13
0
23
-19.113398
33
0
39
0
210
0
220
0
230
1
0
SOLID
5
104
100
AcDbEntity
8
0
62
256
6
ByLayer
370
-1
48
1
60
0
100
AcDbTrace
10
88.8405
20
-19.696732
30
0
11
88.8405
21
-18.530065
31
0
12
92.3405
22
-19.113398
32
0
13
92.3405
23
-19.113398
33
0
39
0
210
0
220
0
230
1
0
MTEXT
5
105
100
AcDbEntity
8
0
62
256
6
ByLayer
370
18
48
1
60
0
100
AcDbMText
10
46.17025
20
-12.113398
30
0
210
0
220
0
230
1
1
\A1;92.34
40
3.5
41
0
44
1
50
0
71
5
72
5
7
iso_b_vert
0
POINT
5
106
100
AcDbEntity
8
Defpoints
62
0
6
ByLayer
370
-1
48
1
60
0
100
AcDbPoint
10
0
20
0
30
0
39
0
210
0
220
0
230
1
50
360
0
POINT
5
107
100
AcDbEntity
8
Defpoints
62
0
6
ByLayer
370
-1
48
1
60
0
100
AcDbPoint
10
92.3405
20
-8.9
30
0
39
0
210
0
220
0
230
1
50
360
0
POINT
5
108
100
AcDbEntity
8
Defpoints
62
0
6
ByLayer
370
-1
48
1
60
0
100
AcDbPoint
10
92.3405
20
-19.113398
30
0
39
0
210
0
220
0
230
1
50
360
0
ENDBLK
5
FF
100
AcDbEntity
8
0
100
AcDbBlockEnd
0
BLOCK
5
110
100
AcDbEntity
8
0
100
AcDbBlockBegin
2
_U0
70
0
10
0
20
0
30
0
3
_U0
0
MTEXT
5
10A
100
AcDbEntity
8
SK2
62
256
6
ByLayer
370
13
48
1
60
0
100
AcDbMText
10
40.848685
20
-18.080765
30
0
210
0
220
0
230
1
1
\W0.7495;92,34
40
3.5
41
0
44
1.084337
50
0
71
7
72
5
7
iso_b_vert
0
LINE
5
10B
100
AcDbEntity
8
SK2
62
256
6
ByLayer
370
13
48
1
60
0
100
AcDbLine
10
0
20
-1.5875
30
0
11
0
21
-21.113398
31
0
39
0
210
0
220
0
230
1
0
LINE
5
10C
100
AcDbEntity
8
SK2
62
256
6
ByLayer
370
13
48
1
60
0
100
AcDbLine
10
92.3405
20
-10.4875
30
0
11
92.3405
21
-21.113398
31
0
39
0
210
0
220
0
230
1
0
LINE
5
10D
100
AcDbEntity
8
SK2
62
256
6
ByLayer
370
13
48
1
60
0
100
AcDbLine
10
0
20
-19.113398
30
0
11
92.3405
21
-19.113398
31
0
39
0
210
0
220
0
230
1
0
SOLID
5
10E
100
AcDbEntity
8
SK2
62
256
6
ByLayer
370
18
48
1
60
0
100
AcDbTrace
10
0
20
-19.113398
30
0
11
3.499998
21
-18.652615
31
0
12
3.500002
22
-19.574182
32
0
13
3.500002
23
-19.574182
33
0
39
0
210
0
220
0
230
1
0
SOLID
5
10F
100
AcDbEntity
8
SK2
62
256
6
ByLayer
370
18
48
1
60
0
100
AcDbTrace
10
92.3405
20
-19.113398
30
0
11
88.840502
21
-19.574182
31
0
12
88.840498
22
-18.652615
32
0
13
88.840498
23
-18.652615
33
0
39
0
210
0
220
0
230
1
0
ENDBLK
5
111
100
AcDbEntity
8
0
100
AcDbBlockEnd
0
BLOCK
5
116
100
AcDbEntity
8
0
100
AcDbBlockBegin
2
*D3
70
1
10
0
20
0
30
0
3
*D3
0
LINE
5
118
100
AcDbEntity
8
0
62
256
6
ByLayer
370
-2
48
1
60
0
100
AcDbLine
10
-48
20
-10.5875
30
0
11
-48
21
-39.692985
31
0
39
0
210
0
220
0
230
1
0
LINE
5
119
100
AcDbEntity
8
0
62
256
6
ByLayer
370
-2
48
1
60
0
100
AcDbLine
10
95
20
-1.5875
30
0
11
95
21
-39.692985
31
0
39
0
210
0
220
0
230
1
0
LINE
5
11A
100
AcDbEntity
8
0
62
256
6
ByLayer
370
-2
48
1
60
0
100
AcDbLine
10
-44.5
20
-37.692985
30
0
11
91.5
21
-37.692985
31
0
39
0
210
0
220
0
230
1
0
SOLID
5
11B
100
AcDbEntity
8
0
62
256
6
ByLayer
370
-1
48
1
60
0
100
AcDbTrace
10
-44.5
20
-37.109652
30
0
11
-44.5
21
-38.276319
31
0
12
-48
22
-37.692985
32
0
13
-48
23
-37.692985
33
0
39
0
210
0
220
0
230
1
0
SOLID
5
11C
100
AcDbEntity
8
0
62
256
6
ByLayer
370
-1
48
1
60
0
100
AcDbTrace
10
91.5
20
-38.276319
30
0
11
91.5
21
-37.109652
31
0
12
95
22
-37.692985
32
0
13
95
23
-37.692985
33
0
39
0
210
0
220
0
230
1
0
MTEXT
5
11D
100
AcDbEntity
8
0
62
256
6
ByLayer
370
18
48
1
60
0
100
AcDbMText
10
23.5
20
-30.692985
30
0
210
0
220
0
230
1
1
\A1;143.00
40
3.5
41
0
44
1
50
0
71
5
72
5
7
iso_b_vert
0
POINT
5
11E
100
AcDbEntity
8
Defpoints
62
0
6
ByLayer
370
-1
48
1
60
0
100
AcDbPoint
10
-48
20
-9
30
0
39
0
210
0
220
0
230
1
50
360
0
POINT
5
11F
100
AcDbEntity
8
Defpoints
62
0
6
ByLayer
370
-1
48
1
60
0
100
AcDbPoint
10
95
20
0
30
0
39
0
210
0
220
0
230
1
50
360
0
POINT
5
120
100
AcDbEntity
8
Defpoints
62
0
6
ByLayer
370
-1
48
1
60
0
100
AcDbPoint
10
95
20
-37.692985
30
0
39
0
210
0
220
0
230
1
50
360
0
ENDBLK
5
117
100
AcDbEntity
8
0
100
AcDbBlockEnd
0
BLOCK
5
128
100
AcDbEntity
8
0
100
AcDbBlockBegin
2
_U1
70
0
10
0
20
0
30
0
3
_U1
0
MTEXT
5
122
100
AcDbEntity
8
SK2
62
256
6
ByLayer
370
13
48
1
60
0
100
AcDbMText
10
17.308135
20
-36.660352
30
0
210
0
220
0
230
1
1
\W0.7145;143,00
40
3.5
41
0
44
1.084337
50
0
71
7
72
5
7
iso_b_vert
0
LINE
5
123
100
AcDbEntity
8
SK2
62
256
6
ByLayer
370
13
48
1
60
0
100
AcDbLine
10
-48
20
-10.5875
30
0
11
-48
21
-39.692985
31
0
39
0
210
0
220
0
230
1
0
LINE
5
124
100
AcDbEntity
8
SK2
62
256
6
ByLayer
370
13
48
1
60
0
100
AcDbLine
10
95
20
-1.5875
30
0
11
95
21
-39.692985
31
0
39
0
210
0
220
0
230
1
0
LINE
5
125
100
AcDbEntity
8
SK2
62
256
6
ByLayer
370
13
48
1
60
0
100
AcDbLine
10
-48
20
-37.692985
30
0
11
95
21
-37.692985
31
0
39
0
210
0
220
0
230
1
0
SOLID
5
126
100
AcDbEntity
8
SK2
62
256
6
ByLayer
370
18
48
1
60
0
100
AcDbTrace
10
-48
20
-37.692985
30
0
11
-44.500002
21
-37.232202
31
0
12
-44.499998
22
-38.153769
32
0
13
-44.499998
23
-38.153769
33
0
39
0
210
0
220
0
230
1
0
SOLID
5
127
100
AcDbEntity
8
SK2
62
256
6
ByLayer
370
18
48
1
60
0
100
AcDbTrace
10
95
20
-37.692985
30
0
11
91.500002
21
-38.153769
31
0
12
91.499998
22
-37.232202
32
0
13
91.499998
23
-37.232202
33
0
39
0
210
0
220
0
230
1
0
ENDBLK
5
129
100
AcDbEntity
8
0
100
AcDbBlockEnd
0
BLOCK
5
12E
100
AcDbEntity
8
0
100
AcDbBlockBegin
2
*D5
70
1
10
0
20
0
30
0
3
*D5
0
LINE
5
130
100
AcDbEntity
8
0
62
256
6
ByLayer
370
-2
48
1
60
0
100
AcDbLine
10
19.8
20
10.4875
30
0
11
19.8
21
22.509119
31
0
39
0
210
0
220
0
230
1
0
LINE
5
131
100
AcDbEntity
8
0
62
256
6
ByLayer
370
-2
48
1
60
0
100
AcDbLine
10
95
20
1.5875
30
0
11
95
21
22.509119
31
0
39
0
210
0
220
0
230
1
0
LINE
5
132
100
AcDbEntity
8
0
62
256
6
ByLayer
370
-2
48
1
60
0
100
AcDbLine
10
23.3
20
20.509119
30
0
11
91.5
21
20.509119
31
0
39
0
210
0
220
0
230
1
0
SOLID
5
133
100
AcDbEntity
8
0
62
256
6
ByLayer
370
-1
48
1
60
0
100
AcDbTrace
10
23.3
20
21.092453
30
0
11
23.3
21
19.925786
31
0
12
19.8
22
20.509119
32
0
13
19.8
23
20.509119
33
0
39
0
210
0
220
0
230
1
0
SOLID
5
134
100
AcDbEntity
8
0
62
256
6
ByLayer
370
-1
48
1
60
0
100
AcDbTrace
10
91.5
20
19.925786
30
0
11
91.5
21
21.092453
31
0
12
95
22
20.509119
32
0
13
95
23
20.509119
33
0
39
0
210
0
220
0
230
1
0
MTEXT
5
135
100
AcDbEntity
8
0
62
256
6
ByLayer
370
18
48
1
60
0
100
AcDbMText
10
57.4
20
27.509119
30
0
210
0
220
0
230
1
1
\A1;75.20
40
3.5
41
0
44
1
50
0
71
5
72
5
7
iso_b_vert
0
POINT
5
136
100
AcDbEntity
8
Defpoints
62
0
6
ByLayer
370
-1
48
1
60
0
100
AcDbPoint
10
19.8
20
8.9
30
0
39
0
210
0
220
0
230
1
50
360
0
POINT
5
137
100
AcDbEntity
8
Defpoints
62
0
6
ByLayer
370
-1
48
1
60
0
100
AcDbPoint
10
95
20
0
30
0
39
0
210
0
220
0
230
1
50
360
0
POINT
5
138
100
AcDbEntity
8
Defpoints
62
0
6
ByLayer
370
-1
48
1
60
0
100
AcDbPoint
10
95
20
20.509119
30
0
39
0
210
0
220
0
230
1
50
360
0
ENDBLK
5
12F
100
AcDbEntity
8
0
100
AcDbBlockEnd
0
BLOCK
5
140
100
AcDbEntity
8
0
100
AcDbBlockBegin
2
_U2
70
0
10
0
20
0
30
0
3
_U2
0
MTEXT
5
13A
100
AcDbEntity
8
SK2
62
256
6
ByLayer
370
13
48
1
60
0
100
AcDbMText
10
52.262701
20
21.541753
30
0
210
0
220
0
230
1
1
\W0.7317;75,20
40
3.5
41
0
44
1.084337
50
0
71
7
72
5
7
iso_b_vert
0
LINE
5
13B
100
AcDbEntity
8
SK2
62
256
6
ByLayer
370
13
48
1
60
0
100
AcDbLine
10
19.8
20
10.4875
30
0
11
19.8
21
22.509119
31
0
39
0
210
0
220
0
230
1
0
LINE
5
13C
100
AcDbEntity
8
SK2
62
256
6
ByLayer
370
13
48
1
60
0
100
AcDbLine
10
95
20
1.5875
30
0
11
95
21
22.509119
31
0
39
0
210
0
220
0
230
1
0
LINE
5
13D
100
AcDbEntity
8
SK2
62
256
6
ByLayer
370
13
48
1
60
0
100
AcDbLine
10
19.8
20
20.509119
30
0
11
95
21
20.509119
31
0
39
0
210
0
220
0
230
1
0
SOLID
5
13E
100
AcDbEntity
8
SK2
62
256
6
ByLayer
370
18
48
1
60
0
100
AcDbTrace
10
19.8
20
20.509119
30
0
11
23.299998
21
20.969903
31
0
12
23.300002
22
20.048335
32
0
13
23.300002
23
20.048335
33
0
39
0
210
0
220
0
230
1
0
SOLID
5
13F
100
AcDbEntity
8
SK2
62
256
6
ByLayer
370
18
48
1
60
0
100
AcDbTrace
10
95
20
20.509119
30
0
11
91.500002
21
20.048335
31
0
12
91.499998
22
20.969903
32
0
13
91.499998
23
20.969903
33
0
39
0
210
0
220
0
230
1
0
ENDBLK
5
141
100
AcDbEntity
8
0
100
AcDbBlockEnd
0
BLOCK
5
146
100
AcDbEntity
8
0
100
AcDbBlockBegin
2
*D7
70
1
10
0
20
0
30
0
3
*D7
0
LINE
5
148
100
AcDbEntity
8
0
62
256
6
ByLayer
370
-2
48
1
60
0
100
AcDbLine
10
95
20
-1.5875
30
0
11
95
21
-23.702503
31
0
39
0
210
0
220
0
230
1
0
LINE
5
149
100
AcDbEntity
8
0
62
256
6
ByLayer
370
-2
48
1
60
0
100
AcDbLine
10
92.3405
20
-10.4875
30
0
11
92.3405
21
-23.702503
31
0
39
0
210
0
220
0
230
1
0
LINE
5
14A
100
AcDbEntity
8
0
62
256
6
ByLayer
370
-2
48
1
60
0
100
AcDbLine
10
95
20
-21.702503
30
0
11
123.166667
21
-21.702503
31
0
39
0
210
0
220
0
230
1
0
LINE
5
14B
100
AcDbEntity
8
0
62
256
6
ByLayer
370
-2
48
1
60
0
100
AcDbLine
10
98.5
20
-21.702503
30
0
11
102
21
-21.702503
31
0
39
0
210
0
220
0
230
1
0
LINE
5
14C
100
AcDbEntity
8
0
62
256
6
ByLayer
370
-2
48
1
60
0
100
AcDbLine
10
88.8405
20
-21.702503
30
0
11
85.3405
21
-21.702503
31
0
39
0
210
0
220
0
230
1
0
SOLID
5
14D
100
AcDbEntity
8
0
62
256
6
ByLayer
370
-1
48
1
60
0
100
AcDbTrace
10
98.5
20
-21.11917
30
0
11
98.5
21
-22.285837
31
0
12
95
22
-21.702503
32
0
13
95
23
-21.702503
33
0
39
0
210
0
220
0
230
1
0
SOLID
5
14E
100
AcDbEntity
8
0
62
256
6
ByLayer
370
-1
48
1
60
0
100
AcDbTrace
10
88.8405
20
-22.285837
30
0
11
88.8405
21
-21.11917
31
0
12
92.3405
22
-21.702503
32
0
13
92.3405
23
-21.702503
33
0
39
0
210
0
220
0
230
1
0
MTEXT
5
14F
100
AcDbEntity
8
0
62
256
6
ByLayer
370
18
48
1
60
0
100
AcDbMText
10
112.583333
20
-14.702503
30
0
210
0
220
0
230
1
1
\A1;2.66
40
3.5
41
0
44
1
50
0
71
5
72
5
7
iso_b_vert
0
POINT
5
150
100
AcDbEntity
8
Defpoints
62
0
6
ByLayer
370
-1
48
1
60
0
100
AcDbPoint
10
95
20
0
30
0
39
0
210
0
220
0
230
1
50
360
0
POINT
5
151
100
AcDbEntity
8
Defpoints
62
0
6
ByLayer
370
-1
48
1
60
0
100
AcDbPoint
10
92.3405
20
-8.9
30
0
39
0
210
0
220
0
230
1
50
360
0
POINT
5
152
100
AcDbEntity
8
Defpoints
62
0
6
ByLayer
370
-1
48
1
60
0
100
AcDbPoint
10
92.3405
20
-21.702503
30
0
39
0
210
0
220
0
230
1
50
360
0
ENDBLK
5
147
100
AcDbEntity
8
0
100
AcDbBlockEnd
0
BLOCK
5
15A
100
AcDbEntity
8
0
100
AcDbBlockBegin
2
_U3
70
0
10
0
20
0
30
0
3
_U3
0
MTEXT
5
154
100
AcDbEntity
8
SK2
62
256
6
ByLayer
370
13
48
1
60
0
100
AcDbMText
10
101.15186
20
-20.66987
30
0
210
0
220
0
230
1
1
\W0.7150;2,66
40
3.5
41
0
44
1.084337
50
0
71
7
72
5
7
iso_b_vert
0
LINE
5
155
100
AcDbEntity
8
SK2
62
256
6
ByLayer
370
13
48
1
60
0
100
AcDbLine
10
95
20
-1.5875
30
0
11
95
21
-23.702503
31
0
39
0
210
0
220
0
230
1
0
LINE
5
156
100
AcDbEntity
8
SK2
62
256
6
ByLayer
370
13
48
1
60
0
100
AcDbLine
10
92.3405
20
-10.4875
30
0
11
92.3405
21
-23.702503
31
0
39
0
210
0
220
0
230
1
0
LINE
5
157
100
AcDbEntity
8
SK2
62
256
6
ByLayer
370
13
48
1
60
0
100
AcDbLine
10
83.5905
20
-21.702503
30
0
11
108.996491
21
-21.702503
31
0
39
0
210
0
220
0
230
1
0
SOLID
5
158
100
AcDbEntity
8
SK2
62
256
6
ByLayer
370
18
48
1
60
0
100
AcDbTrace
10
95
20
-21.702503
30
0
11
98.499998
21
-21.241719
31
0
12
98.500002
22
-22.163287
32
0
13
98.500002
23
-22.163287
33
0
39
0
210
0
220
0
230
1
0
SOLID
5
159
100
AcDbEntity
8
SK2
62
256
6
ByLayer
370
18
48
1
60
0
100
AcDbTrace
10
92.3405
20
-21.702503
30
0
11
88.840502
21
-22.163287
31
0
12
88.840498
22
-21.241719
32
0
13
88.840498
23
-21.241719
33
0
39
0
210
0
220
0
230
1
0
ENDBLK
5
15B
100
AcDbEntity
8
0
100
AcDbBlockEnd
0
BLOCK
5
160
100
AcDbEntity
8
0
100
AcDbBlockBegin
2
*D9
70
1
10
0
20
0
30
0
3
*D9
0
LINE
5
162
100
AcDbEntity
8
0
62
256
6
ByLayer
370
-2
48
1
60
0
100
AcDbLine
10
-48
20
-10.5875
30
0
11
-48
21
-29.343428
31
0
39
0
210
0
220
0
230
1
0
LINE
5
163
100
AcDbEntity
8
0
62
256
6
ByLayer
370
-2
48
1
60
0
100
AcDbLine
10
92.3405
20
-10.4875
30
0
11
92.3405
21
-29.343428
31
0
39
0
210
0
220
0
230
1
0
LINE
5
164
100
AcDbEntity
8
0
62
256
6
ByLayer
370
-2
48
1
60
0
100
AcDbLine
10
-44.5
20
-27.343428
30
0
11
88.8405
21
-27.343428
31
0
39
0
210
0
220
0
230
1
0
SOLID
5
165
100
AcDbEntity
8
0
62
256
6
ByLayer
370
-1
48
1
60
0
100
AcDbTrace
10
-44.5
20
-26.760095
30
0
11
-44.5
21
-27.926762
31
0
12
-48
22
-27.343428
32
0
13
-48
23
-27.343428
33
0
39
0
210
0
220
0
230
1
0
SOLID
5
166
100
AcDbEntity
8
0
62
256
6
ByLayer
370
-1
48
1
60
0
100
AcDbTrace
10
88.8405
20
-27.926762
30
0
11
88.8405
21
-26.760095
31
0
12
92.3405
22
-27.343428
32
0
13
92.3405
23
-27.343428
33
0
39
0
210
0
220
0
230
1
0
MTEXT
5
167
100
AcDbEntity
8
0
62
256
6
ByLayer
370
18
48
1
60
0
100
AcDbMText
10
22.17025
20
-20.343428
30
0
210
0
220
0
230
1
1
\A1;140.34
40
3.5
41
0
44
1
50
0
71
5
72
5
7
iso_b_vert
0
POINT
5
168
100
AcDbEntity
8
Defpoints
62
0
6
ByLayer
370
-1
48
1
60
0
100
AcDbPoint
10
-48
20
-9
30
0
39
0
210
0
220
0
230
1
50
360
0
POINT
5
169
100
AcDbEntity
8
Defpoints
62
0
6
ByLayer
370
-1
48
1
60
0
100
AcDbPoint
10
92.3405
20
-8.9
30
0
39
0
210
0
220
0
230
1
50
360
0
POINT
5
16A
100
AcDbEntity
8
Defpoints
62
0
6
ByLayer
370
-1
48
1
60
0
100
AcDbPoint
10
92.3405
20
-27.343428
30
0
39
0
210
0
220
0
230
1
50
360
0
ENDBLK
5
161
100
AcDbEntity
8
0
100
AcDbBlockEnd
0
BLOCK
5
172
100
AcDbEntity
8
0
100
AcDbBlockBegin
2
_U4
70
0
10
0
20
0
30
0
3
_U4
0
MTEXT
5
16C
100
AcDbEntity
8
SK2
62
256
6
ByLayer
370
13
48
1
60
0
100
AcDbMText
10
15.794118
20
-26.310795
30
0
210
0
220
0
230
1
1
\W0.7261;140,34
40
3.5
41
0
44
1.084337
50
0
71
7
72
5
7
iso_b_vert
0
LINE
5
16D
100
AcDbEntity
8
SK2
62
256
6
ByLayer
370
13
48
1
60
0
100
AcDbLine
10
-48
20
-10.5875
30
0
11
-48
21
-29.343428
31
0
39
0
210
0
220
0
230
1
0
LINE
5
16E
100
AcDbEntity
8
SK2
62
256
6
ByLayer
370
13
48
1
60
0
100
AcDbLine
10
92.3405
20
-10.4875
30
0
11
92.3405
21
-29.343428
31
0
39
0
210
0
220
0
230
1
0
LINE
5
16F
100
AcDbEntity
8
SK2
62
256
6
ByLayer
370
13
48
1
60
0
100
AcDbLine
10
-48
20
-27.343428
30
0
11
92.3405
21
-27.343428
31
0
39
0
210
0
220
0
230
1
0
SOLID
5
170
100
AcDbEntity
8
SK2
62
256
6
ByLayer
370
18
48
1
60
0
100
AcDbTrace
10
-48
20
-27.343428
30
0
11
-44.500002
21
-26.882645
31
0
12
-44.499998
22
-27.804212
32
0
13
-44.499998
23
-27.804212
33
0
39
0
210
0
220
0
230
1
0
SOLID
5
171
100
AcDbEntity
8
SK2
62
256
6
ByLayer
370
18
48
1
60
0
100
AcDbTrace
10
92.3405
20
-27.343428
30
0
11
88.840502
21
-27.804212
31
0
12
88.840498
22
-26.882645
32
0
13
88.840498
23
-26.882645
33
0
39
0
210
0
220
0
230
1
0
ENDBLK
5
173
100
AcDbEntity
8
0
100
AcDbBlockEnd
0
ENDSEC
0
SECTION
2
ENTITIES
0
ELLIPSE
5
AB
100
AcDbEntity
8
1
62
256
6
ByLayer
370
18
48
1
60
0
100
AcDbEllipse
10
4.25
20
8.650568
30
0
11
0.25
21
0
31
0
210
0
220
0
230
1
40
1
41
-3.10437392883049
42
-1.56667634001798
0
ELLIPSE
5
AC
100
AcDbEntity
8
1
62
256
6
ByLayer
370
18
48
1
60
0
100
AcDbEllipse
10
4.25
20
-8.650568
30
0
11
0.25
21
0
31
0
210
0
220
0
230
1
40
1
41
1.569131363694
42
3.10437392883052
0
POINT
5
70
100
AcDbEntity
8
80
62
256
6
ByLayer
370
18
48
1
60
0
100
AcDbPoint
10
0
20
0
30
0
39
0
210
0
220
0
230
1
50
360
0
POINT
5
72
100
AcDbEntity
8
81
62
256
6
ByLayer
370
18
48
1
60
0
100
AcDbPoint
10
95
20
0
30
0
39
0
210
0
220
0
230
1
50
360
0
POINT
5
74
100
AcDbEntity
8
1
62
256
6
ByLayer
370
18
48
1
60
1
100
AcDbPoint
10
92.3405
20
-8.9
30
0
39
0
210
0
220
0
230
1
50
360
0
POINT
5
76
100
AcDbEntity
8
1
62
256
6
ByLayer
370
18
48
1
60
1
100
AcDbPoint
10
-48
20
-9
30
0
39
0
210
0
220
0
230
1
50
360
0
POINT
5
77
100
AcDbEntity
8
1
62
256
6
ByLayer
370
18
48
1
60
1
100
AcDbPoint
10
19.8
20
8.9
30
0
39
0
210
0
220
0
230
1
50
360
0
POINT
5
78
100
AcDbEntity
8
1
62
256
6
ByLayer
370
18
48
1
60
1
100
AcDbPoint
10
92.3405
20
-8.9
30
0
39
0
210
0
220
0
230
1
50
360
0
POINT
5
79
100
AcDbEntity
8
1
62
256
6
ByLayer
370
18
48
1
60
1
100
AcDbPoint
10
-48
20
-9
30
0
39
0
210
0
220
0
230
1
50
360
0
POINT
5
7A
100
AcDbEntity
8
1
62
256
6
ByLayer
370
18
48
1
60
1
100
AcDbPoint
10
92.3405
20
-8.9
30
0
39
0
210
0
220
0
230
1
50
360
0
SPLINE
5
AD
100
AcDbEntity
8
1
62
256
6
ByLayer
370
18
48
1
60
0
100
AcDbSpline
70
4
71
3
72
14
73
10
40
0
40
0
40
0
40
0
40
0.25
40
0.25
40
0.5
40
0.5
40
0.75
40
0.75
40
1
40
1
40
1
40
1
41
1
10
91.8775139797118
20
1.95077780663371
30
0
41
1
10
91.8764298503364
20
1.97089225083346
30
0
41
1
10
91.8807481801246
20
1.99125644719206
30
0
41
1
10
91.9009901405594
20
2.02657401132251
30
0
41
1
10
91.916883911978
20
2.04133194669313
30
0
41
1
10
91.9526289731187
20
2.06229637821173
30
0
41
1
10
91.9727677394906
20
2.06908270671107
30
0
41
1
10
92.0132863331442
20
2.07706841833288
30
0
41
1
10
92.0340755666596
20
2.07840432091092
30
0
41
1
10
92.0548245537481
20
2.07776315454927
30
0
0
SPLINE
5
AE
100
AcDbEntity
8
1
62
256
6
ByLayer
370
18
48
1
60
0
100
AcDbSpline
70
4
71
3
72
22
73
18
40
0
40
0
40
0
40
0
40
0.217061210862022
40
0.217061210862022
40
0.434122421724045
40
0.434122421724045
40
0.542653027155056
40
0.542653027155056
40
0.651183632586067
40
0.651183632586067
40
0.759714238017078
40
0.759714238017078
40
0.86824484344809
40
0.86824484344809
40
0.976775448879101
40
0.976775448879101
40
1
40
1
40
1
40
1
41
1
10
18.4503970033646
20
-8.36748094930118
30
0
41
1
10
19.1309284819129
20
-8.33042492229669
30
0
41
1
10
19.8104482888407
20
-8.2700953897367
30
0
41
1
10
21.1673856934649
20
-8.10320542207853
30
0
41
1
10
21.8447002259331
20
-7.99506971002444
30
0
41
1
10
22.8632684151439
20
-7.80144640401224
30
0
41
1
10
23.2030730830194
20
-7.73148205083518
30
0
41
1
10
23.8832561498107
20
-7.57990834362508
30
0
41
1
10
24.2237112782753
20
-7.49827837563595
30
0
41
1
10
24.9030860560939
20
-7.32499367780258
30
0
41
1
10
25.2425115261688
20
-7.23377035123457
30
0
41
1
10
25.9213155005199
20
-7.04050522596728
30
0
41
1
10
26.2605692334992
20
-6.93829708531621
30
0
41
1
10
26.93900786508
20
-6.72442879921803
30
0
41
1
10
27.2781826643807
20
-6.61269787577874
30
0
41
1
10
27.6899499159091
20
-6.47191177867026
30
0
41
1
10
27.7625316212992
20
-6.44688748620436
30
0
41
1
10
27.8351184346722
20
-6.42165052528696
30
0
0
SPLINE
5
AF
100
AcDbEntity
8
1
62
256
6
ByLayer
370
18
48
1
60
0
100
AcDbSpline
70
4
71
3
72
36
73
32
40
0
40
0
40
0
40
0
40
0.0163173231474226
40
0.0163173231474226
40
0.0741810100211041
40
0.0741810100211041
40
0.132044696894786
40
0.132044696894786
40
0.189908383768468
40
0.189908383768468
40
0.247772070642149
40
0.247772070642149
40
0.305635757515831
40
0.305635757515831
40
0.363499444389513
40
0.363499444389513
40
0.421363131263195
40
0.421363131263195
40
0.479226818136876
40
0.479226818136876
40
0.537090505010558
40
0.537090505010558
40
0.594954191884239
40
0.594954191884239
40
0.652817878757921
40
0.652817878757921
40
0.768545252505281
40
0.768545252505281
40
0.884272626252641
40
0.884272626252641
40
1
40
1
40
1
40
1
41
1
10
66.0436893459486
20
8.43729676998859
30
0
41
1
10
66.1393906892379
20
8.43683430410979
30
0
41
1
10
66.235093748241
20
8.43586772756967
30
0
41
1
10
66.6701852263525
20
8.42911077284771
30
0
41
1
10
67.0096938567684
20
8.41752892395667
30
0
41
1
10
67.6901160249975
20
8.38321093755206
30
0
41
1
10
68.0306590978124
20
8.36053114698598
30
0
41
1
10
68.7105117690576
20
8.30338129696611
30
0
41
1
10
69.0500225725654
20
8.26851882418921
30
0
41
1
10
69.7283502140562
20
8.18634433444797
30
0
41
1
10
70.0671246920233
20
8.13913640124983
30
0
41
1
10
70.7453952225449
20
8.03413939702406
30
0
41
1
10
71.0847331053043
20
7.97640416348509
30
0
41
1
10
71.763682325294
20
7.84914015031907
30
0
41
1
10
72.1033027275254
20
7.77946459469999
30
0
41
1
10
72.7829508531093
20
7.62926909722759
30
0
41
1
10
73.1230895565562
20
7.5486611575453
30
0
41
1
10
73.8030283503426
20
7.37862617856126
30
0
41
1
10
74.142808678175
20
7.28869368056999
30
0
41
1
10
74.8217121730111
20
7.0969629914444
30
0
41
1
10
75.1608878735599
20
6.99544113037572
30
0
41
1
10
75.8389128938701
20
6.78219119717977
30
0
41
1
10
76.1776291445156
20
6.67035944540697
30
0
41
1
10
76.8556017082244
20
6.43785826247444
30
0
41
1
10
77.1949686941207
20
6.31733754138941
30
0
41
1
10
78.2140545723746
20
5.94349005333953
30
0
41
1
10
78.8954269382111
20
5.67850608663207
30
0
41
1
10
80.252072275519
20
5.11363331642212
30
0
41
1
10
80.9301127875335
20
4.81628298561719
30
0
41
1
10
82.2860954133853
20
4.19549617304
30
0
41
1
10
82.9635334063404
20
3.87069873764909
30
0
41
1
10
83.6434101308847
20
3.53722013920967
30
0
0
SPLINE
5
B0
100
AcDbEntity
8
1
62
256
6
ByLayer
370
18
48
1
60
0
100
AcDbSpline
70
4
71
3
72
16
73
12
40
0
40
0
40
0
40
0
40
0.25
40
0.25
40
0.499999999999999
40
0.499999999999999
40
0.624999999999999
40
0.624999999999999
40
0.749999999999999
40
0.749999999999999
40
1
40
1
40
1
40
1
41
1
10
4.0000004330881
20
-4.7188636982026
30
0
41
1
10
4.00000043308785
20
-4.67954702182112
30
0
41
1
10
4.00366076839515
20
-4.64112413865379
30
0
41
1
10
4.02354800362701
20
-4.56744069567361
30
0
41
1
10
4.0401807780031
20
-4.53240480553308
30
0
41
1
10
4.07961241445264
20
-4.49902599797062
30
0
41
1
10
4.09512397740164
20
-4.49152124332821
30
0
41
1
10
4.12784920820704
20
-4.48577083802533
30
0
41
1
10
4.1448067921495
20
-4.48740030063638
30
0
41
1
10
4.19357346453398
20
-4.50130923786489
30
0
41
1
10
4.22375893773972
20
-4.52177488417203
30
0
41
1
10
4.25115673831067
20
-4.54614778689484
30
0
0
SPLINE
5
B1
100
AcDbEntity
8
1
62
256
6
ByLayer
370
18
48
1
60
0
100
AcDbSpline
70
4
71
3
72
14
73
10
40
0
40
0
40
0
40
0
40
0.25
40
0.25
40
0.5
40
0.5
40
0.75
40
0.75
40
1
40
1
40
1
40
1
41
1
10
92.3269051900638
20
8.65240923655699
30
0
41
1
10
92.5224407473686
20
8.09457744791553
30
0
41
1
10
92.7235680629306
20
7.53740908549366
30
0
41
1
10
93.1348002428673
20
6.42445985927645
30
0
41
1
10
93.3449618172447
20
5.86868500688496
30
0
41
1
10
93.773237383203
20
4.7586210047794
30
0
41
1
10
93.9914918207539
20
4.20399572194356
30
0
41
1
10
94.4334422101315
20
3.10069829466082
30
0
41
1
10
94.6573193436986
20
2.55140711208108
30
0
41
1
10
94.8839137662557
20
2.00412786947413
30
0
0
SPLINE
5
B2
100
AcDbEntity
8
1
62
256
6
ByLayer
370
18
48
1
60
0
100
AcDbSpline
70
4
71
3
72
12
73
8
40
0
40
0
40
0
40
0
40
0.500000000000006
40
0.500000000000006
40
0.750000000000003
40
0.750000000000003
40
1
40
1
40
1
40
1
41
1
10
92.3269051900623
20
-8.65240923655801
30
0
41
1
10
92.2397615288916
20
-8.71787037527585
30
0
41
1
10
92.1565326292952
20
-8.77111195352884
30
0
41
1
10
92.0375617533443
20
-8.83137832485818
30
0
41
1
10
91.9990257336445
20
-8.84810756573546
30
0
41
1
10
91.9247455745777
20
-8.8745838375319
30
0
41
1
10
91.8889046556433
20
-8.88438154253899
30
0
41
1
10
91.8543199541841
20
-8.89075485502048
30
0
0
SPLINE
5
B3
100
AcDbEntity
8
1
62
256
6
ByLayer
370
18
48
1
60
0
100
AcDbSpline
70
4
71
3
72
38
73
34
40
0
40
0
40
0
40
0
40
0.108974584555683
40
0.108974584555683
40
0.163461876833526
40
0.163461876833526
40
0.217949169111368
40
0.217949169111368
40
0.27243646138921
40
0.27243646138921
40
0.326923753667053
40
0.326923753667053
40
0.435898338222738
40
0.435898338222738
40
0.49038563050058
40
0.49038563050058
40
0.517629276639501
40
0.517629276639501
40
0.544872922778422
40
0.544872922778422
40
0.599360215056265
40
0.599360215056265
40
0.653847507334108
40
0.653847507334108
40
0.762822091889793
40
0.762822091889793
40
0.871796676445478
40
0.871796676445478
40
0.926283968723321
40
0.926283968723321
40
0.980771261001164
40
0.980771261001164
40
1
40
1
40
1
40
1
41
1
10
18.4503970033646
20
-1.86138513520152
30
0
41
1
10
19.225391397137
20
-2.29578372496476
30
0
41
1
10
19.9988292208177
20
-2.71465992300918
30
0
41
1
10
21.1534561896126
20
-3.32689263935376
30
0
41
1
10
21.5370275183379
20
-3.52887597565703
30
0
41
1
10
22.3033210025843
20
-3.92563736617717
30
0
41
1
10
22.6866430078674
20
-4.11945778526055
30
0
41
1
10
23.4532285913308
20
-4.4988212742756
30
0
41
1
10
23.8364434049767
20
-4.68443957046816
30
0
41
1
10
24.602396357799
20
-5.04799357545946
30
0
41
1
10
24.9846527840515
20
-5.22661142158711
30
0
41
1
10
26.1340379074001
20
-5.74585579168601
30
0
41
1
10
26.9036835433998
20
-6.07032184969361
30
0
41
1
10
28.0604959630094
20
-6.52777664635576
30
0
41
1
10
28.4462616169637
20
-6.67559813557219
30
0
41
1
10
29.0277577661115
20
-6.88699392049722
30
0
41
1
10
29.2221345577854
20
-6.95590653064363
30
0
41
1
10
29.6101247624363
20
-7.09011340834408
30
0
41
1
10
29.8038721982763
20
-7.15546365610643
30
0
41
1
10
30.3842913639405
20
-7.34639617928639
30
0
41
1
10
30.7701960447151
20
-7.46681880261903
30
0
41
1
10
31.5392991003181
20
-7.69451170404753
30
0
41
1
10
31.922952504136
20
-7.80128910259918
30
0
41
1
10
33.0744809347545
20
-8.09804308331022
30
0
41
1
10
33.8412825210048
20
-8.26621609439354
30
0
41
1
10
35.3702505319733
20
-8.54461952709198
30
0
41
1
10
36.1370947371499
20
-8.65216684348033
30
0
41
1
10
37.2891135679891
20
-8.76717430242743
30
0
41
1
10
37.6730250942752
20
-8.79781808953496
30
0
41
1
10
38.4425460016141
20
-8.84286946490835
30
0
41
1
10
38.828665888953
20
-8.8572319711898
30
0
41
1
10
39.352592459785
20
-8.86568778132926
30
0
41
1
10
39.489484477349
20
-8.86687845521217
30
0
41
1
10
39.6264416323534
20
-8.86705144217743
30
0
0
SPLINE
5
B4
100
AcDbEntity
8
1
62
256
6
ByLayer
370
18
48
1
60
0
100
AcDbSpline
70
4
71
3
72
32
73
28
40
0
40
0
40
0
40
0
40
0.0341061672768954
40
0.0341061672768954
40
0.108405692870984
40
0.108405692870984
40
0.182705218465073
40
0.182705218465073
40
0.257004744059162
40
0.257004744059162
40
0.331304269653251
40
0.331304269653251
40
0.368454032450296
40
0.368454032450296
40
0.40560379524734
40
0.40560379524734
40
0.554202846435506
40
0.554202846435506
40
0.628502372029589
40
0.628502372029589
40
0.702801897623671
40
0.702801897623671
40
0.777101423217755
40
0.777101423217755
40
0.851400948811838
40
0.851400948811838
40
1
40
1
40
1
40
1
41
1
10
76.7526675518627
20
6.43131834561839
30
0
41
1
10
76.9280958743886
20
6.5007369698414
30
0
41
1
10
77.1035353307318
20
6.56886172341623
30
0
41
1
10
77.6616601882916
20
6.78073256899018
30
0
41
1
10
78.0445027200745
20
6.91954923521794
30
0
41
1
10
78.8102747108376
20
7.18504625453522
30
0
41
1
10
79.1932493283131
20
7.31167762887978
30
0
41
1
10
79.9588531916811
20
7.55296069318683
30
0
41
1
10
80.3422728460117
20
7.66679941182892
30
0
41
1
10
81.1115469644281
20
7.87983353137341
30
0
41
1
10
81.497123093213
20
7.97930453253366
30
0
41
1
10
82.0765941864524
20
8.11806865983533
30
0
41
1
10
82.2699476348445
20
8.16257101754476
30
0
41
1
10
82.6569565587671
20
8.24808483321431
30
0
41
1
10
82.8506913784054
20
8.28917539979295
30
0
41
1
10
83.8187853666515
20
8.48459527339082
30
0
41
1
10
84.5933386710202
20
8.60806006606779
30
0
41
1
10
85.7526394047233
20
8.74646062011544
30
0
41
1
10
86.1381792089703
20
8.78482985394513
30
0
41
1
10
86.9105393065119
20
8.84496466973081
30
0
41
1
10
87.2974517844463
20
8.86678624083001
30
0
41
1
10
88.0721834862434
20
8.89417836835179
30
0
41
1
10
88.4603759350827
20
8.89974140631983
30
0
41
1
10
89.2354796571499
20
8.89433311174028
30
0
41
1
10
89.6216585260733
20
8.88328575014151
30
0
41
1
10
90.7815346800875
20
8.82583013246179
30
0
41
1
10
91.5551000851941
20
8.75550656432824
30
0
41
1
10
92.3269051900637
20
8.65240923655699
30
0
0
SPLINE
5
B5
100
AcDbEntity
8
1
62
256
6
ByLayer
370
18
48
1
60
0
100
AcDbSpline
70
4
71
3
72
8
73
4
40
0
40
0
40
0
40
0
40
1
40
1
40
1
40
1
41
1
10
94.8839137662558
20
-2.00412786947388
30
0
41
1
10
94.9232173214882
20
-1.41307205008135
30
0
41
1
10
94.9518066398704
20
-0.822562199906031
30
0
41
1
10
94.9696652784832
20
-0.232599156835647
30
0
0
SPLINE
5
B6
100
AcDbEntity
8
1
62
256
6
ByLayer
370
18
48
1
60
0
100
AcDbSpline
70
4
71
3
72
18
73
14
40
0
40
0
40
0
40
0
40
0.29304271820446
40
0.29304271820446
40
0.35200495679438
40
0.35200495679438
40
0.4109671953843
40
0.4109671953843
40
0.528891672564142
40
0.528891672564142
40
0.764740626923823
40
0.764740626923823
40
1
40
1
40
1
40
1
41
1
10
66.6409343433947
20
0.0073171242113972
30
0
41
1
10
67.7720856180746
20
-0.611949921508966
30
0
41
1
10
68.9065556722205
20
-1.23311466809849
30
0
41
1
10
70.2806205502834
20
-1.96791286791179
30
0
41
1
10
70.5112634618287
20
-2.09064600095158
30
0
41
1
10
70.971346445259
20
-2.33401947053432
30
0
41
1
10
71.2010407575889
20
-2.45479487213217
30
0
41
1
10
71.8891819645454
20
-2.81422635279373
30
0
41
1
10
72.346686142928
20
-3.04999568422306
30
0
41
1
10
73.7168177265253
20
-3.74343223083662
30
0
41
1
10
74.6271599384868
20
-4.18705476063209
30
0
41
1
10
76.445664637397
20
-5.02626985377054
30
0
41
1
10
77.3536742952735
20
-5.42223820237157
30
0
41
1
10
78.264829220711
20
-5.78986785091908
30
0
0
SPLINE
5
B7
100
AcDbEntity
8
1
62
256
6
ByLayer
370
13
48
1
60
0
100
AcDbSpline
70
4
71
3
72
22
73
18
40
0
40
0
40
0
40
0
40
0.0004997829569987
40
0.0004997829569987
40
0.10044980466129
40
0.10044980466129
40
0.150424815513438
40
0.150424815513438
40
0.200399826365587
40
0.200399826365587
40
0.600199913182793
40
0.600199913182793
40
0.800099956591399
40
0.800099956591399
40
0.900049978295699
40
0.900049978295699
40
1
40
1
40
1
40
1
41
1
10
78.2648282928436
20
-5.78986747654633
30
0
41
1
10
78.267112038844
20
-5.79078891456084
30
0
41
1
10
78.2693958046036
20
-5.79171017454621
30
0
41
1
10
78.728406683561
20
-5.97683552350554
30
0
41
1
10
79.1859557959792
20
-6.1538892077273
30
0
41
1
10
79.874082221824
20
-6.4078911895007
30
0
41
1
10
80.1037491637237
20
-6.49063770812722
30
0
41
1
10
80.5637934271351
20
-6.65210288622262
30
0
41
1
10
80.7943935333064
20
-6.73089193062958
30
0
41
1
10
82.8652132441127
20
-7.41834369327284
30
0
41
1
10
84.6830618859451
20
-7.87931076217967
30
0
41
1
10
87.4138011529667
20
-8.32077701371401
30
0
41
1
10
88.3248129486944
20
-8.42629009955897
30
0
41
1
10
89.6971033444648
20
-8.51937754590679
30
0
41
1
10
90.1555181575915
20
-8.53952957634357
30
0
41
1
10
91.0750881215245
20
-8.55755357424565
30
0
41
1
10
91.5362861187215
20
-8.55538415205643
30
0
41
1
10
91.9968883416894
20
-8.54195477453587
30
0
0
SPLINE
5
B8
100
AcDbEntity
8
1
62
256
6
ByLayer
370
18
48
1
60
0
100
AcDbSpline
70
4
71
3
72
10
73
6
40
0
40
0
40
0
40
0
40
0.5
40
0.5
40
1
40
1
40
1
40
1
41
1
10
92.0548245537481
20
2.0777631545493
30
0
41
1
10
92.526580991713
20
2.06318536539638
30
0
41
1
10
92.9980735535631
20
2.05112568771338
30
0
41
1
10
93.9411400193379
20
2.02623010289815
30
0
41
1
10
94.4126386224377
20
2.01411277490325
30
0
41
1
10
94.8839137662552
20
2.00412786947385
30
0
0
SPLINE
5
B9
100
AcDbEntity
8
1
62
256
6
ByLayer
370
18
48
1
60
0
100
AcDbSpline
70
4
71
3
72
10
73
6
40
0
40
0
40
0
40
0
40
0.5
40
0.5
40
1
40
1
40
1
40
1
41
1
10
94.9696652784833
20
-0.232599156835477
30
0
41
1
10
94.9703566181848
20
-0.209760636893208
30
0
41
1
10
94.9738609149906
20
-0.182933329719759
30
0
41
1
10
94.9844169777032
20
-0.125634937515997
30
0
41
1
10
94.9913930547351
20
-0.0955964617745337
30
0
41
1
10
94.9999563001588
20
-0.0642659559291872
30
0
0
SPLINE
5
BA
100
AcDbEntity
8
1
62
256
6
ByLayer
370
18
48
1
60
0
100
AcDbSpline
70
4
71
3
72
8
73
4
40
0
40
0
40
0
40
0
40
1
40
1
40
1
40
1
41
1
10
94.9999563001588
20
0.0642659559289882
30
0
41
1
10
94.9908595260822
20
0.038840591462332
30
0
41
1
10
94.9793059317543
20
0.0140185468490017
30
0
41
1
10
94.9675065004987
20
-0.0052614733781695
30
0
0
SPLINE
5
BB
100
AcDbEntity
8
1
62
256
6
ByLayer
370
18
48
1
60
0
100
AcDbSpline
70
4
71
3
72
8
73
4
40
0
40
0
40
0
40
0
40
1
40
1
40
1
40
1
41
1
10
94.9675065004988
20
-0.0052614733781411
30
0
41
1
10
93.6588543670753
20
-2.14357128308558
30
0
41
1
10
92.4338744558835
20
-4.35777705584132
30
0
41
1
10
91.2955350067095
20
-6.65057117163821
30
0
0
SPLINE
5
BC
100
AcDbEntity
8
1
62
256
6
ByLayer
370
18
48
1
60
0
100
AcDbSpline
70
4
71
3
72
14
73
10
40
0
40
0
40
0
40
0
40
0.145857528821891
40
0.145857528821891
40
0.291715057643783
40
0.291715057643783
40
0.583430115287565
40
0.583430115287565
40
1
40
1
40
1
40
1
41
1
10
92.0055028440851
20
-8.44766838863663
30
0
41
1
10
91.5451456905518
20
-8.45773414732855
30
0
41
1
10
91.0842113584876
20
-8.45667965286941
30
0
41
1
10
90.165280187697
20
-8.43253474140411
30
0
41
1
10
89.7071519088114
20
-8.40948402569032
30
0
41
1
10
88.3356359811352
20
-8.30818696304709
30
0
41
1
10
87.4250246619305
20
-8.19783539149867
30
0
41
1
10
85.2157531309318
20
-7.83044418754338
30
0
41
1
10
83.9176346965878
20
-7.5307725586963
30
0
41
1
10
82.6116468236368
20
-7.15368537240599
30
0
0
SPLINE
5
BD
100
AcDbEntity
8
1
62
256
6
ByLayer
370
13
48
1
60
0
100
AcDbSpline
70
4
71
3
72
28
73
24
40
0
40
0
40
0
40
0
40
0.0795103934008379
40
0.0795103934008379
40
0.114261588771691
40
0.114261588771691
40
0.149012784142545
40
0.149012784142545
40
0.218515174884248
40
0.218515174884248
40
0.357519956367658
40
0.357519956367658
40
0.496524737851068
40
0.496524737851068
40
0.566027128592774
40
0.566027128592774
40
0.600778323963628
40
0.600778323963628
40
0.635529519334482
40
0.635529519334482
40
0.913539082301309
40
0.913539082301309
40
1
40
1
40
1
40
1
41
1
10
82.6116474396856
20
-7.15368555028209
30
0
41
1
10
82.0885238757033
20
-7.00264036483432
30
0
41
1
10
81.5641376879772
20
-6.83917412308497
30
0
41
1
10
80.8079049553228
20
-6.58698335535812
30
0
41
1
10
80.5774578808941
20
-6.50794663944154
30
0
41
1
10
80.1177335444222
20
-6.34609702336237
30
0
41
1
10
79.8882157933695
20
-6.26320689071497
30
0
41
1
10
79.2005092630811
20
-6.00891508542682
30
0
41
1
10
78.7432024055549
20
-5.83186310288775
30
0
41
1
10
77.3736847547118
20
-5.27979641234359
30
0
41
1
10
76.4637631549179
20
-4.8839773879601
30
0
41
1
10
74.6436465864749
20
-4.04727278971413
30
0
41
1
10
73.7335737388652
20
-3.60617922098317
30
0
41
1
10
72.3638961097217
20
-2.91761328601993
30
0
41
1
10
71.9065528471713
20
-2.68364701862308
30
0
41
1
10
71.2186689651681
20
-2.32719682482201
30
0
41
1
10
70.9890636028709
20
-2.20746088749033
30
0
41
1
10
70.5291698078452
20
-1.96625478279643
30
0
41
1
10
70.2986494449951
20
-1.84466279330383
30
0
41
1
10
68.2286493309319
20
-0.747716605168819
30
0
41
1
10
66.4124606030257
20
0.249633593893776
30
0
41
1
10
64.0299512908592
20
1.52505245932008
30
0
41
1
10
63.4645872926449
20
1.82511316130271
30
0
41
1
10
62.8983742710874
20
2.12142455624559
30
0
0
SPLINE
5
BE
100
AcDbEntity
8
1
62
256
6
ByLayer
370
18
48
1
60
0
100
AcDbSpline
70
4
71
3
72
12
73
8
40
0
40
0
40
0
40
0
40
0.500000000000006
40
0.500000000000006
40
0.750000000000003
40
0.750000000000003
40
1
40
1
40
1
40
1
41
1
10
92.3269051900637
20
8.65240923655702
30
0
41
1
10
92.2397615288926
20
8.71787037527514
30
0
41
1
10
92.1565326292961
20
8.77111195352836
30
0
41
1
10
92.0375617533448
20
8.83137832485795
30
0
41
1
10
91.9990257336449
20
8.84810756573529
30
0
41
1
10
91.9247455745779
20
8.87458383753184
30
0
41
1
10
91.8889046556434
20
8.88438154253899
30
0
41
1
10
91.854319954184
20
8.89075485502048
30
0
0
SPLINE
5
BF
100
AcDbEntity
8
1
62
256
6
ByLayer
370
18
48
1
60
0
100
AcDbSpline
70
4
71
3
72
8
73
4
40
0
40
0
40
0
40
0
40
1
40
1
40
1
40
1
41
1
10
94.8839137662558
20
2.00412786947382
30
0
41
1
10
94.9232210235192
20
1.41301637809653
30
0
41
1
10
94.9518083225318
20
0.82250661291252
30
0
41
1
10
94.9696652784833
20
0.232599156835676
30
0
0
SPLINE
5
C0
100
AcDbEntity
8
1
62
256
6
ByLayer
370
18
48
1
60
0
100
AcDbSpline
70
4
71
3
72
56
73
52
40
0
40
0
40
0
40
0
40
0.0551435102281783
40
0.0551435102281783
40
0.110287020456356
40
0.110287020456356
40
0.137858775570445
40
0.137858775570445
40
0.165430530684534
40
0.165430530684534
40
0.22057404091271
40
0.22057404091271
40
0.248145796026799
40
0.248145796026799
40
0.275717551140887
40
0.275717551140887
40
0.330861061369063
40
0.330861061369063
40
0.358432816483151
40
0.358432816483151
40
0.386004571597238
40
0.386004571597238
40
0.413576326711326
40
0.413576326711326
40
0.441148081825413
40
0.441148081825413
40
0.551435102281763
40
0.551435102281763
40
0.606578612509938
40
0.606578612509938
40
0.634150367624026
40
0.634150367624026
40
0.661722122738113
40
0.661722122738113
40
0.716865632966289
40
0.716865632966289
40
0.744437388080377
40
0.744437388080377
40
0.772009143194465
40
0.772009143194465
40
0.827152653422642
40
0.827152653422642
40
0.882296163650819
40
0.882296163650819
40
0.937439673878996
40
0.937439673878996
40
0.965011428993085
40
0.965011428993085
40
0.992583184107174
40
0.992583184107174
40
1
40
1
40
1
40
1
41
1
10
91.854319954184
20
-8.89075485502048
30
0
41
1
10
90.9382262724551
20
-8.91363591365635
30
0
41
1
10
90.0207652412757
20
-8.89024008565124
30
0
41
1
10
88.1910606687584
20
-8.75239463792653
30
0
41
1
10
87.2777945949266
20
-8.6381004902926
30
0
41
1
10
85.905186118393
20
-8.40048555787095
30
0
41
1
10
85.4466945624505
20
-8.31015300375165
30
0
41
1
10
84.5302752772409
20
-8.1083661857019
30
0
41
1
10
84.0727788374744
20
-7.99699746865983
30
0
41
1
10
82.7010713214437
20
-7.63266899365212
30
0
41
1
10
81.787577015053
20
-7.34955432645134
30
0
41
1
10
80.4138239661434
20
-6.86903377511885
30
0
41
1
10
79.9550110302267
20
-6.69940034448337
30
0
41
1
10
79.0393572985627
20
-6.34411430793094
30
0
41
1
10
78.5820970281402
20
-6.15825936437017
30
0
41
1
10
77.210657182332
20
-5.57786979786826
30
0
41
1
10
76.2967940591769
20
-5.16054375340599
30
0
41
1
10
74.9214498123106
20
-4.49598000328723
30
0
41
1
10
74.4630986966886
20
-4.26837452829332
30
0
41
1
10
73.5479709134549
20
-3.80345471314135
30
0
41
1
10
73.0908701633845
20
-3.56594369444392
30
0
41
1
10
72.1766117979597
20
-3.08241668346557
30
0
41
1
10
71.719453675234
20
-2.83640207478862
30
0
41
1
10
70.8041539173504
20
-2.33739649273679
30
0
41
1
10
70.3454075597867
20
-2.08399048733295
30
0
41
1
10
68.0549469330404
20
-0.806850672635449
30
0
41
1
10
66.2465733182183
20
0.23856307509584
30
0
41
1
10
63.5295396032702
20
1.77023945797779
30
0
41
1
10
62.6230282345258
20
2.27457245512795
30
0
41
1
10
61.2572933512904
20
3.01334587452607
30
0
41
1
10
60.8010172521559
20
3.256585184633
30
0
41
1
10
59.8854823835966
20
3.73539810035277
30
0
41
1
10
59.4263384432135
20
3.97103782767061
30
0
41
1
10
58.0529582120187
20
4.65953831870712
30
0
41
1
10
57.1394095417442
20
5.09551103092244
30
0
41
1
10
55.7672237206515
20
5.70779983317448
30
0
41
1
10
55.3095019342883
20
5.90492617973115
30
0
41
1
10
54.3925092438637
20
6.28394725610778
30
0
41
1
10
53.9338945033263
20
6.46556684411291
30
0
41
1
10
52.5607740305286
20
6.98362510553335
30
0
41
1
10
51.6471985166057
20
7.29390025212805
30
0
41
1
10
49.8168769784063
20
7.83717058402053
30
0
41
1
10
48.8984567547875
20
8.07036319159107
30
0
41
1
10
47.0680509891278
20
8.44943037446942
30
0
41
1
10
46.1543884340028
20
8.59592879191391
30
0
41
1
10
44.7810826960537
20
8.74854226490274
30
0
41
1
10
44.322404585384
20
8.78824101775962
30
0
41
1
10
43.4052118761905
20
8.84472421075228
30
0
41
1
10
42.9473919198755
20
8.8614876621391
30
0
41
1
10
42.3667942368167
20
8.86822759612264
30
0
41
1
10
42.2437432496653
20
8.86882774377102
30
0
41
1
10
42.1207068756441
20
8.86860005050019
30
0
0
SPLINE
5
C1
100
AcDbEntity
8
1
62
256
6
ByLayer
370
18
48
1
60
0
100
AcDbSpline
70
4
71
3
72
8
73
4
40
0
40
0
40
0
40
0
40
1
40
1
40
1
40
1
41
1
10
4.00000043308583
20
-5.00444002651369
30
0
41
1
10
4.00000043308583
20
-4.90965542933694
30
0
41
1
10
4.00000043308583
20
-4.81446479952783
30
0
41
1
10
4.00000043308583
20
-4.71886369819023
30
0
0
SPLINE
5
C2
100
AcDbEntity
8
1
62
256
6
ByLayer
370
18
48
1
60
0
100
AcDbSpline
70
4
71
3
72
18
73
14
40
0
40
0
40
0
40
0
40
0.25
40
0.25
40
0.375
40
0.375
40
0.5
40
0.5
40
0.75
40
0.75
40
0.875
40
0.875
40
1
40
1
40
1
40
1
41
1
10
91.2955350067095
20
-6.65057117163818
30
0
41
1
10
91.2942608335627
20
-6.96114907876375
30
0
41
1
10
91.3075924135386
20
-7.23327247800165
30
0
41
1
10
91.3501560191116
20
-7.58483453994751
30
0
41
1
10
91.3681344947059
20
-7.69252942892282
30
0
41
1
10
91.4121583506547
20
-7.88842868261881
30
0
41
1
10
91.4379851329687
20
-7.97551531454985
30
0
41
1
10
91.526413810717
20
-8.20344216520778
30
0
41
1
10
91.600076698754
20
-8.31212871614736
30
0
41
1
10
91.7344206874786
20
-8.41156105610611
30
0
41
1
10
91.7833956048428
20
-8.43406591569371
30
0
41
1
10
91.8888550498951
20
-8.45710811786904
30
0
41
1
10
91.9452701282378
20
-8.45773531602421
30
0
41
1
10
92.0055028440448
20
-8.44766838863623
30
0
0
SPLINE
5
C3
100
AcDbEntity
8
1
62
256
6
ByLayer
370
18
48
1
60
0
100
AcDbSpline
70
4
71
3
72
8
73
4
40
0
40
0
40
0
40
0
40
1
40
1
40
1
40
1
41
1
10
91.854319954184
20
8.89075485502048
30
0
41
1
10
91.6202719529547
20
8.89660061746437
30
0
41
1
10
91.3861434996742
20
8.89942559203558
30
0
41
1
10
91.1520006523118
20
8.89924291358523
30
0
0
SPLINE
5
C4
100
AcDbEntity
8
1
62
256
6
ByLayer
370
18
48
1
60
0
100
AcDbSpline
70
4
71
3
72
46
73
42
40
0
40
0
40
0
40
0
40
0.0425427501516134
40
0.0425427501516134
40
0.0744579918132257
40
0.0744579918132257
40
0.106373233474838
40
0.106373233474838
40
0.170203716798063
40
0.170203716798063
40
0.202118958459675
40
0.202118958459675
40
0.234034200121288
40
0.234034200121288
40
0.361695166767739
40
0.361695166767739
40
0.425525650090964
40
0.425525650090964
40
0.44148327092177
40
0.44148327092177
40
0.457440891752576
40
0.457440891752576
40
0.489356133414189
40
0.489356133414189
40
0.553186616737417
40
0.553186616737417
40
0.58510185839903
40
0.58510185839903
40
0.617017100060644
40
0.617017100060644
40
0.680847583383871
40
0.680847583383871
40
0.744678066707097
40
0.744678066707097
40
0.77659330836871
40
0.77659330836871
40
0.808508550030323
40
0.808508550030323
40
0.872339033353548
40
0.872339033353548
40
1
40
1
40
1
40
1
41
1
10
47.0663451884515
20
-8.43538927194953
30
0
41
1
10
46.4568010231057
20
-8.5424185980693
30
0
41
1
10
45.8472848749088
20
-8.6301018452283
30
0
41
1
10
44.7787927547027
20
-8.74876278988063
30
0
41
1
10
44.3196747904753
20
-8.78845008818092
30
0
41
1
10
43.4029947598537
20
-8.84481956277295
30
0
41
1
10
42.9453454319
20
-8.86154403967322
30
0
41
1
10
41.573032496591
20
-8.87737661775822
30
0
41
1
10
40.659096085715
20
-8.84215072348451
30
0
41
1
10
39.2843683089613
20
-8.72094037694711
30
0
41
1
10
38.8249583321683
20
-8.66904167324131
30
0
41
1
10
37.9104138191229
20
-8.54350982722673
30
0
41
1
10
37.4545689867232
20
-8.46984036008249
30
0
41
1
10
35.1801725804534
20
-8.04899457094706
30
0
41
1
10
33.3763239516428
20
-7.54416635677467
30
0
41
1
10
30.6542032084132
20
-6.57139180960593
30
0
41
1
10
29.74417500488
20
-6.21113406905209
30
0
41
1
10
28.5988800708911
20
-5.72008169673276
30
0
41
1
10
28.3692437163888
20
-5.61975090892142
30
0
41
1
10
27.910575657237
20
-5.4157374780867
30
0
41
1
10
27.6814335756641
20
-5.31201691524768
30
0
41
1
10
26.9944023797893
20
-4.99598684241565
30
0
41
1
10
26.5369057204552
20
-4.77881185725045
30
0
41
1
10
25.1645686370356
20
-4.11000313852151
30
0
41
1
10
24.2501307519044
20
-3.64070045619522
30
0
41
1
10
22.8736987916873
20
-2.91000060527082
30
0
41
1
10
22.4149093366545
20
-2.66241104009518
30
0
41
1
10
21.4990139675127
20
-2.16186769452503
30
0
41
1
10
21.0415265155809
20
-1.9087310228484
30
0
41
1
10
19.6690724302616
20
-1.14311454726411
30
0
41
1
10
18.7540491945229
20
-0.62415639958644
30
0
41
1
10
16.9178702037926
20
0.418031687234361
30
0
41
1
10
16.0030197535616
20
0.937691242264776
30
0
41
1
10
14.6303815335668
20
1.7058979950325
30
0
41
1
10
14.1727869983132
20
1.96010772158087
30
0
41
1
10
13.2566741749901
20
2.46336126492605
30
0
41
1
10
12.7975489335144
20
2.712705036844
30
0
41
1
10
11.4216989590481
20
3.44824401905424
30
0
41
1
10
10.5095046760967
20
3.92051789473021
30
0
41
1
10
7.77728055521675
20
5.26713892239775
30
0
41
1
10
5.96213341181169
20
6.07215497111355
30
0
41
1
10
4.12661921835485
20
6.74503880362656
30
0
0
SPLINE
5
C5
100
AcDbEntity
8
1
62
256
6
ByLayer
370
18
48
1
60
0
100
AcDbSpline
70
4
71
3
72
8
73
4
40
0
40
0
40
0
40
0
40
1
40
1
40
1
40
1
41
1
10
18.4503970033646
20
8.36748094930107
30
0
41
1
10
18.0149428281366
20
8.39027817257028
30
0
41
1
10
17.5828855624116
20
8.40400039078878
30
0
41
1
10
17.1532788108971
20
8.40814981166125
30
0
0
SPLINE
5
C6
100
AcDbEntity
8
1
62
256
6
ByLayer
370
18
48
1
60
0
100
AcDbSpline
70
4
71
3
72
10
73
6
40
0
40
0
40
0
40
0
40
0.5
40
0.5
40
1
40
1
40
1
40
1
41
1
10
94.9696652784833
20
0.232599156835676
30
0
41
1
10
94.9703566181847
20
0.20976063689335
30
0
41
1
10
94.9738609149904
20
0.182933329719845
30
0
41
1
10
94.9844169777031
20
0.125634937515969
30
0
41
1
10
94.991393054735
20
0.09559646177442
30
0
41
1
10
94.9999563001588
20
0.0642659559289882
30
0
0
SPLINE
5
C7
100
AcDbEntity
8
1
62
256
6
ByLayer
370
13
48
1
60
0
100
AcDbSpline
70
4
71
3
72
22
73
18
40
0
40
0
40
0
40
0
40
0.0847904082397931
40
0.0847904082397931
40
0.166911855749795
40
0.166911855749795
40
0.249033303259798
40
0.249033303259798
40
0.413276198279802
40
0.413276198279802
40
0.495397645789804
40
0.495397645789804
40
0.577519093299806
40
0.577519093299806
40
0.906004883339815
40
0.906004883339815
40
1
40
1
40
1
40
1
41
1
10
4.25030942363239
20
6.70522291973319
30
0
41
1
10
4.25032503027839
20
6.79788675119565
30
0
41
1
10
4.25034016274876
20
6.88706010034403
30
0
41
1
10
4.25036912330813
20
7.05577736860391
30
0
41
1
10
4.2503829768811
20
7.13552904886711
30
0
41
1
10
4.25040998582318
20
7.28847771781926
30
0
41
1
10
4.25042316049368
20
7.36177747997405
30
0
41
1
10
4.2504615705904
20
7.57061782203954
30
0
41
1
10
4.25048572882531
20
7.69534164156005
30
0
41
1
10
4.25052040136822
20
7.86073494451767
30
0
41
1
10
4.25053172123194
20
7.91234333166767
30
0
41
1
10
4.25055380336718
20
8.00768524950195
30
0
41
1
10
4.25056455751309
20
8.05139733653544
30
0
41
1
10
4.25061716050544
20
8.2505639893001
30
0
41
1
10
4.25065558379833
20
8.34847834393898
30
0
41
1
10
4.25070376017973
20
8.39519768417583
30
0
41
1
10
4.25071441909498
20
8.40046135679475
30
0
41
1
10
4.2507249967536
20
8.40053978704549
30
0
0
SPLINE
5
C8
100
AcDbEntity
8
1
62
256
6
ByLayer
370
18
48
1
60
0
100
AcDbSpline
70
4
71
3
72
14
73
10
40
0
40
0
40
0
40
0
40
0.526123080317994
40
0.526123080317994
40
0.666198500397821
40
0.666198500397821
40
0.806273920477648
40
0.806273920477648
40
1
40
1
40
1
40
1
41
1
10
42.3133454408983
20
-8.42351588249045
30
0
41
1
10
40.6008573548804
20
-8.41947784378706
30
0
41
1
10
38.8955694096016
20
-8.26310954196973
30
0
41
1
10
36.7193444121538
20
-7.87823515151848
30
0
41
1
10
36.2607658700967
20
-7.78688886892442
30
0
41
1
10
35.340963745032
20
-7.58359545712278
30
0
41
1
10
34.8795685346524
20
-7.47153209998842
30
0
41
1
10
33.7853196633034
20
-7.18296309557687
30
0
41
1
10
33.1526007360946
20
-6.99788778280714
30
0
41
1
10
32.5211961536377
20
-6.79654233934446
30
0
0
SPLINE
5
C9
100
AcDbEntity
8
1
62
256
6
ByLayer
370
13
48
1
60
0
100
AcDbSpline
70
4
71
3
72
21
73
17
40
0
40
0
40
0
40
0
40
0.0447480962984364
40
0.334854833465535
40
0.334854833465535
40
0.407381517757312
40
0.407381517757312
40
0.479908202049087
40
0.479908202049087
40
0.624961570632636
40
0.624961570632636
40
0.915068307799738
40
0.915068307799738
40
0.987594992091512
40
0.987594992091512
40
1
40
1
40
1
40
1
41
1
10
32.5211971050435
20
-6.79654264273347
30
0
41
1
10
32.2395156113068
20
-6.70671865012235
30
0
41
1
10
30.1336200556743
20
-6.01032485854805
30
0
41
1
10
28.037259271008
20
-5.13922105717154
30
0
41
1
10
25.7445055653656
20
-4.07442564224016
30
0
41
1
10
25.2844806295272
20
-3.85525789998101
30
0
41
1
10
24.3628753355565
20
-3.40652649380033
30
0
41
1
10
23.9036589661446
20
-3.17816225182907
30
0
41
1
10
22.5293970075258
20
-2.48362612750256
30
0
41
1
10
21.6178506459167
20
-2.00781284639731
30
0
41
1
10
18.8876562292465
20
-0.559784720559009
30
0
41
1
10
17.0736446428136
20
0.433397077382836
30
0
41
1
10
14.782423825129
20
1.65046298939177
30
0
41
1
10
14.3229880336521
20
1.89264273786989
30
0
41
1
10
13.783150209535
20
2.17399434478028
30
0
41
1
10
13.7043340649959
20
2.21499060375984
30
0
41
1
10
13.6255502041822
20
2.25588414217199
30
0
0
SPLINE
5
CA
100
AcDbEntity
8
1
62
256
6
ByLayer
370
18
48
1
60
0
100
AcDbSpline
70
4
71
3
72
40
73
36
40
0
40
0
40
0
40
0
40
0.0863842684481897
40
0.0863842684481897
40
0.140965796617646
40
0.140965796617646
40
0.168256560702374
40
0.168256560702374
40
0.181901942744739
40
0.181901942744739
40
0.188724633765921
40
0.188724633765921
40
0.195547324787103
40
0.195547324787103
40
0.202370015808286
40
0.202370015808286
40
0.209192706829468
40
0.209192706829468
40
0.222838088871832
40
0.222838088871832
40
0.25012885295656
40
0.25012885295656
40
0.304710381126017
40
0.304710381126017
40
0.41387343746493
40
0.41387343746493
40
0.632199550142758
40
0.632199550142758
40
0.741362606481672
40
0.741362606481672
40
0.795944134651129
40
0.795944134651129
40
0.850525662820585
40
0.850525662820585
40
1
40
1
40
1
40
1
41
1
10
18.4503970033646
20
-1.84711694934936
30
0
41
1
10
18.4503970033646
20
-1.9101360939805
30
0
41
1
10
18.4503970033646
20
-1.97882674785927
30
0
41
1
10
18.4503970033646
20
-2.10003584283305
30
0
41
1
10
18.4503970033646
20
-2.14920051280848
30
0
41
1
10
18.4503970033646
20
-2.22628538451363
30
0
41
1
10
18.4503970033646
20
-2.25252798125894
30
0
41
1
10
18.4503970033646
20
-2.29270070622277
30
0
41
1
10
18.4503970033646
20
-2.30622694960846
30
0
41
1
10
18.4503970033646
20
-2.32671904869488
30
0
41
1
10
18.4503970033646
20
-2.33337885014734
30
0
41
1
10
18.4503970033646
20
-2.35093663327746
30
0
41
1
10
18.4503970033646
20
-2.36132092713291
30
0
41
1
10
18.4503970033646
20
-2.38518714371102
30
0
41
1
10
18.4503970033646
20
-2.39831588093932
30
0
41
1
10
18.4503970033646
20
-2.42701239224533
30
0
41
1
10
18.4503970033646
20
-2.44292124593417
30
0
41
1
10
18.4503970033646
20
-2.48971437153014
30
0
41
1
10
18.4503970033646
20
-2.52098715272354
30
0
41
1
10
18.4503970033646
20
-2.61503824419739
30
0
41
1
10
18.4503970033646
20
-2.67804539727456
30
0
41
1
10
18.4503970033646
20
-2.867951194748
30
0
41
1
10
18.4503970033646
20
-2.99576557236131
30
0
41
1
10
18.4503970033646
20
-3.38241068689771
30
0
41
1
10
18.4503970033646
20
-3.64501800575681
30
0
41
1
10
18.4503970033646
20
-4.43953818468006
30
0
41
1
10
18.4503970033646
20
-4.97986120466172
30
0
41
1
10
18.4503970033646
20
-5.80705410647923
30
0
41
1
10
18.4503970033646
20
-6.08558337744324
30
0
41
1
10
18.4503970033646
20
-6.50781445176531
30
0
41
1
10
18.4503970033646
20
-6.64947111554596
30
0
41
1
10
18.4503970033646
20
-6.9319081361011
30
0
41
1
10
18.4503970033646
20
-7.072959359381
30
0
41
1
10
18.4503970033646
20
-7.59965906688529
30
0
41
1
10
18.4503970033646
20
-7.98422644040792
30
0
41
1
10
18.4503970033646
20
-8.36748094930965
30
0
0
SPLINE
5
CB
100
AcDbEntity
8
1
62
256
6
ByLayer
370
18
48
1
60
0
100
AcDbSpline
70
4
71
3
72
12
73
8
40
0
40
0
40
0
40
0
40
0.25
40
0.25
40
0.499999999999999
40
0.499999999999999
40
1
40
1
40
1
40
1
41
1
10
4.12661921835604
20
6.7450388036261
30
0
41
1
10
4.10733184517898
20
6.75210938996577
30
0
41
1
10
4.08990492484639
20
6.76063962466841
30
0
41
1
10
4.05866411814392
20
6.78048797535024
30
0
41
1
10
4.04500300793183
20
6.79180109136965
30
0
41
1
10
4.01197845761462
20
6.82800069488542
30
0
41
1
10
4.0000004330858
20
6.85574245127529
30
0
41
1
10
4.0000004330858
20
6.8835929362761
30
0
0
SPLINE
5
CC
100
AcDbEntity
8
1
62
256
6
ByLayer
370
18
48
1
60
0
100
AcDbSpline
70
4
71
3
72
100
73
96
40
0
40
0
40
0
40
0
40
0.0168716112840763
40
0.0168716112840763
40
0.0263607279900816
40
0.0263607279900816
40
0.035849844696087
40
0.035849844696087
40
0.0548280781080971
40
0.0548280781080971
40
0.0738063115201071
40
0.0738063115201071
40
0.111762778344127
40
0.111762778344127
40
0.149719245168147
40
0.149719245168147
40
0.168697478580157
40
0.168697478580157
40
0.187675711992168
40
0.187675711992168
40
0.206653945404178
40
0.206653945404178
40
0.225632178816188
40
0.225632178816188
40
0.263588645640208
40
0.263588645640208
40
0.282566879052218
40
0.282566879052218
40
0.301545112464228
40
0.301545112464228
40
0.320523345876238
40
0.320523345876238
40
0.339501579288248
40
0.339501579288248
40
0.358479812700258
40
0.358479812700258
40
0.377458046112269
40
0.377458046112269
40
0.415414512936288
40
0.415414512936288
40
0.434392746348298
40
0.434392746348298
40
0.453370979760308
40
0.453370979760308
40
0.472349213172317
40
0.472349213172317
40
0.491327446584327
40
0.491327446584327
40
0.529283913408347
40
0.529283913408347
40
0.548262146820357
40
0.548262146820357
40
0.567240380232366
40
0.567240380232366
40
0.586218613644376
40
0.586218613644376
40
0.605196847056385
40
0.605196847056385
40
0.624175080468395
40
0.624175080468395
40
0.643153313880405
40
0.643153313880405
40
0.681109780704424
40
0.681109780704424
40
0.700088014116434
40
0.700088014116434
40
0.719066247528444
40
0.719066247528444
40
0.738044480940454
40
0.738044480940454
40
0.757022714352463
40
0.757022714352463
40
0.794979181176483
40
0.794979181176483
40
0.813957414588493
40
0.813957414588493
40
0.832935648000504
40
0.832935648000504
40
0.851913881412514
40
0.851913881412514
40
0.870892114824524
40
0.870892114824524
40
0.889870348236535
40
0.889870348236535
40
0.89935946494254
40
0.89935946494254
40
0.908848581648545
40
0.908848581648545
40
0.946805048472569
40
0.946805048472569
40
0.965783281884581
40
0.965783281884581
40
0.984761515296593
40
0.984761515296593
40
1
40
1
40
1
40
1
41
1
10
27.8033086772281
20
6.42589469011338
30
0
41
1
10
28.1461608835263
20
6.56050870566855
30
0
41
1
10
28.4892931126957
20
6.69124170746869
30
0
41
1
10
29.0277577661115
20
6.88699392049719
30
0
41
1
10
29.2221345577854
20
6.95590653064363
30
0
41
1
10
29.6101247624363
20
7.09011340834405
30
0
41
1
10
29.8038721982763
20
7.15546365610641
30
0
41
1
10
30.3842913639404
20
7.34639617928636
30
0
41
1
10
30.7701960447151
20
7.46681880261903
30
0
41
1
10
31.539299100318
20
7.6945117040475
30
0
41
1
10
31.922952504136
20
7.80128910259918
30
0
41
1
10
33.0744809347545
20
8.09804308331019
30
0
41
1
10
33.8412825210049
20
8.26621609439354
30
0
41
1
10
35.3702505319733
20
8.54461952709198
30
0
41
1
10
36.1370947371498
20
8.65216684348033
30
0
41
1
10
37.2891135679891
20
8.76717430242743
30
0
41
1
10
37.6730250942751
20
8.79781808953496
30
0
41
1
10
38.4425460016141
20
8.84286946490835
30
0
41
1
10
38.828665888953
20
8.8572319711898
30
0
41
1
10
39.6031877860938
20
8.86973221545239
30
0
41
1
10
39.9922665771718
20
8.86783227526348
30
0
41
1
10
40.7667217353554
20
8.84761064366421
30
0
41
1
10
41.1520615747963
20
8.82920215000485
30
0
41
1
10
42.3074805216272
20
8.7501197023615
30
0
41
1
10
43.0764215381444
20
8.66605822126294
30
0
41
1
10
44.2250313156944
20
8.49273963123434
30
0
41
1
10
44.6069720891039
20
8.42689343850162
30
0
41
1
10
45.3723467975232
20
8.28098071662134
30
0
41
1
10
45.7553786046776
20
8.20075232382015
30
0
41
1
10
46.5215566593264
20
8.02545184901822
30
0
41
1
10
46.9047703356408
20
7.93043033976989
30
0
41
1
10
47.6708284644491
20
7.72482027802357
30
0
41
1
10
48.0542302145707
20
7.6146528096267
30
0
41
1
10
48.8236798441564
20
7.38140706087427
30
0
41
1
10
49.209371571692
20
7.25803088528565
30
0
41
1
10
49.9822435343043
20
6.99712945894078
30
0
41
1
10
50.3697675374798
20
6.85934291740739
30
0
41
1
10
51.5318757608599
20
6.42499960268586
30
0
41
1
10
52.3043039125789
20
6.11517009578645
30
0
41
1
10
53.4574857880448
20
5.61852623233378
30
0
41
1
10
53.840534443938
20
5.44699759011584
30
0
41
1
10
54.6063181109202
20
5.09531912672301
30
0
41
1
10
54.9893822884163
20
4.915679028509
30
0
41
1
10
55.7553849890584
20
4.54825850441921
30
0
41
1
10
56.1382959100303
20
4.36043456067625
30
0
41
1
10
56.9035948610704
20
3.97596657276213
30
0
41
1
10
57.2855410417019
20
3.77858102141121
30
0
41
1
10
58.4344915607987
20
3.17932182164
30
0
41
1
10
59.2037858680783
20
2.76929695114754
30
0
41
1
10
60.3599225928484
20
2.13316297847993
30
0
41
1
10
60.7456259108919
20
1.91745059480277
30
0
41
1
10
61.5208858241451
20
1.48444602218729
30
0
41
1
10
61.9093128524001
20
1.26681045516736
30
0
41
1
10
62.6825391071276
20
0.83089748839356
30
0
41
1
10
63.0680744154623
20
0.612337283670598
30
0
41
1
10
63.8364218722191
20
0.172979212139353
30
0
41
1
10
64.219967128562
20
-0.0464702935510104
30
0
41
1
10
64.9872057917803
20
-0.482424079396964
30
0
41
1
10
65.370601590867
20
-0.699472712402667
30
0
41
1
10
66.1365131712041
20
-1.13250607293531
30
0
41
1
10
66.5188887961249
20
-1.34873760895877
30
0
41
1
10
67.6650030949779
20
-1.99521886768801
30
0
41
1
10
68.4316594768586
20
-2.41637814826038
30
0
41
1
10
69.5830589640431
20
-3.03770072940259
30
0
41
1
10
69.9666660031231
20
-3.24378815890512
30
0
41
1
10
70.7360703101239
20
-3.64946542969909
30
0
41
1
10
71.1221236612796
20
-3.8486324018491
30
0
41
1
10
71.8964464785401
20
-4.24044522699225
30
0
41
1
10
72.2853219035038
20
-4.43341421612533
30
0
41
1
10
73.0590173285335
20
-4.81046281597403
30
0
41
1
10
73.4440149364452
20
-4.99540312017641
30
0
41
1
10
74.5987532569549
20
-5.53152451929992
30
0
41
1
10
75.3671694562794
20
-5.86609117628751
30
0
41
1
10
76.5148089403074
20
-6.3381328658964
30
0
41
1
10
76.8966005121672
20
-6.49030680081404
30
0
41
1
10
77.6616601882916
20
-6.78073256899018
30
0
41
1
10
78.0445027200744
20
-6.91954923521794
30
0
41
1
10
78.8102747108375
20
-7.18504625453522
30
0
41
1
10
79.1932493283132
20
-7.31167762887975
30
0
41
1
10
79.9588531916812
20
-7.55296069318686
30
0
41
1
10
80.3422728460118
20
-7.66679941182892
30
0
41
1
10
81.1115469644281
20
-7.87983353137344
30
0
41
1
10
81.497123093213
20
-7.97930453253366
30
0
41
1
10
82.0765941864524
20
-8.11806865983533
30
0
41
1
10
82.2699476348445
20
-8.16257101754479
30
0
41
1
10
82.6569565587672
20
-8.24808483321428
30
0
41
1
10
82.8506913784054
20
-8.28917539979292
30
0
41
1
10
83.8187853666516
20
-8.48459527339082
30
0
41
1
10
84.5933386710201
20
-8.60806006606782
30
0
41
1
10
85.7526394047232
20
-8.74646062011541
30
0
41
1
10
86.1381792089703
20
-8.78482985394513
30
0
41
1
10
86.9105393065119
20
-8.84496466973081
30
0
41
1
10
87.2974517844463
20
-8.86678624083001
30
0
41
1
10
87.9958512529315
20
-8.89147949561422
30
0
41
1
10
88.3074177957936
20
-8.89723315190471
30
0
41
1
10
88.6187577371387
20
-8.89767382233225
30
0
0
SPLINE
5
CD
100
AcDbEntity
8
1
62
256
6
ByLayer
370
18
48
1
60
0
100
AcDbSpline
70
4
71
3
72
45
73
41
40
0
40
0
40
0
40
0
40
0.125000000000005
40
0.125000000000005
40
0.187500000000007
40
0.187500000000007
40
0.25000000000001
40
0.25000000000001
40
0.375000000000009
40
0.375000000000009
40
0.500000000000009
40
0.500000000000009
40
0.562500000000009
40
0.562500000000009
40
0.625000000000008
40
0.625000000000008
40
0.750000000000013
40
0.750000000000013
40
0.812500000000016
40
0.812500000000016
40
0.84375000000002
40
0.84375000000002
40
0.859375000000022
40
0.863281250000023
40
0.863281250000023
40
0.867187500000025
40
0.867187500000025
40
0.875000000000024
40
0.875000000000024
40
0.878906250000023
40
0.878906250000023
40
0.882812500000022
40
0.882812500000022
40
0.890625000000021
40
0.890625000000021
40
0.906250000000018
40
0.906250000000018
40
0.937500000000012
40
0.937500000000012
40
1
40
1
40
1
40
1
41
1
10
83.6434101308964
20
3.53722013920392
30
0
41
1
10
83.9866556346626
20
3.20111501959059
30
0
41
1
10
84.341801532434
20
2.88620035346966
30
0
41
1
10
84.8921384150048
20
2.44519993496823
30
0
41
1
10
85.0785291006493
20
2.30344391739521
30
0
41
1
10
85.4573137460119
20
2.03062162075656
30
0
41
1
10
85.6503895129281
20
1.89914407365418
30
0
41
1
10
86.2322988310501
20
1.52583463882459
30
0
41
1
10
86.6245942151862
20
1.30517810465275
30
0
41
1
10
87.417862737792
20
0.920078132623587
30
0
41
1
10
87.8188149129081
20
0.755498897536313
30
0
41
1
10
88.4274111485352
20
0.55506302036261
30
0
41
1
10
88.6314763987327
20
0.496023420898297
30
0
41
1
10
89.0422706422401
20
0.395199521254369
30
0
41
1
10
89.2493607202457
20
0.353394628959478
30
0
41
1
10
89.8649178662398
20
0.260179348997809
30
0
41
1
10
90.2713707425781
20
0.237611615544722
30
0
41
1
10
90.8721306799086
20
0.274937616817851
30
0
41
1
10
91.0697908684467
20
0.299377466416786
30
0
41
1
10
91.3607418378829
20
0.355763146017779
30
0
41
1
10
91.4567946716448
20
0.37784694781584
30
0
41
1
10
91.5991455514054
20
0.416096631674577
30
0
41
1
10
91.658087884151
20
0.433098078676238
30
0
41
1
10
91.7165557589245
20
0.451462048087421
30
0
41
1
10
91.7399046982392
20
0.458917366944632
30
0
41
1
10
91.7516822587374
20
0.462406360662499
30
0
41
1
10
91.7859133932204
20
0.475320380310336
30
0
41
1
10
91.8071338240868
20
0.488907523460057
30
0
41
1
10
91.8304173499967
20
0.519759780682222
30
0
41
1
10
91.8367807040458
20
0.531773918262843
30
0
41
1
10
91.8447190155552
20
0.55847219543719
30
0
41
1
10
91.8461611552557
20
0.573504221696965
30
0
41
1
10
91.8511302789802
20
0.617778637766719
30
0
41
1
10
91.8542423666039
20
0.647370230813152
30
0
41
1
10
91.8629923802807
20
0.736365050882512
30
0
41
1
10
91.8680439531344
20
0.795992675685994
30
0
41
1
10
91.8809580668461
20
0.97546214555345
30
0
41
1
10
91.8865927828565
20
1.09597332211041
30
0
41
1
10
91.8954941944799
20
1.45983357013876
30
0
41
1
10
91.890733937282
20
1.70550071618626
30
0
41
1
10
91.8775139797118
20
1.95077780663371
30
0
0
SPLINE
5
CE
100
AcDbEntity
8
1
62
256
6
ByLayer
370
18
48
1
60
0
100
AcDbSpline
70
4
71
3
72
38
73
34
40
0
40
0
40
0
40
0
40
0.0624999999999992
40
0.0624999999999992
40
0.0937499999999988
40
0.0937499999999988
40
0.124999999999998
40
0.124999999999998
40
0.187499999999997
40
0.187499999999997
40
0.218749999999997
40
0.218749999999997
40
0.249999999999996
40
0.249999999999996
40
0.312499999999996
40
0.312499999999996
40
0.343749999999996
40
0.343749999999996
40
0.374999999999997
40
0.374999999999997
40
0.499999999999998
40
0.499999999999998
40
0.562499999999998
40
0.562499999999998
40
0.624999999999999
40
0.624999999999999
40
0.749999999999999
40
0.749999999999999
40
0.875
40
0.875
40
0.9375
40
0.9375
40
1
40
1
40
1
40
1
41
1
10
83.6434101308964
20
3.53722013920392
30
0
41
1
10
83.6022251627357
20
3.26976399817443
30
0
41
1
10
83.5815499903317
20
2.99425234774011
30
0
41
1
10
83.5830276825222
20
2.5682237926969
30
0
41
1
10
83.5890378155821
20
2.42350842440345
30
0
41
1
10
83.6117105818158
20
2.13560002788199
30
0
41
1
10
83.628332908874
20
1.99180960717683
30
0
41
1
10
83.6933304885985
20
1.56090714542529
30
0
41
1
10
83.7567913947452
20
1.2742625121831
30
0
41
1
10
83.8802133888406
20
0.84517024892682
30
0
41
1
10
83.9262908993038
20
0.701730278419348
30
0
41
1
10
84.0260699085055
20
0.419480712598101
30
0
41
1
10
84.0798337600643
20
0.280316122631206
30
0
41
1
10
84.2518014962957
20
-0.131776123870338
30
0
41
1
10
84.3806308975847
20
-0.399327890501297
30
0
41
1
10
84.5925429960195
20
-0.79121062614027
30
0
41
1
10
84.6663036690805
20
-0.920257994074433
30
0
41
1
10
84.8197130036979
20
-1.17537375216242
30
0
41
1
10
84.8995697077367
20
-1.30173378795772
30
0
41
1
10
85.3082952239189
20
-1.91986394320256
30
0
41
1
10
85.6672032694279
20
-2.37581833910789
30
0
41
1
10
86.2404117687375
20
-3.01767601952864
30
0
41
1
10
86.4374001576168
20
-3.22448205646523
30
0
41
1
10
86.841978537962
20
-3.62529365418837
30
0
41
1
10
87.0500863903515
20
-3.81964606387027
30
0
41
1
10
87.6811873543869
20
-4.37667661053811
30
0
41
1
10
88.1132647036235
20
-4.71631946637095
30
0
41
1
10
88.9947917171138
20
-5.34704019428924
30
0
41
1
10
89.4444157272799
20
-5.63763067558094
30
0
41
1
10
90.1304074003183
20
-6.04121210576531
30
0
41
1
10
90.3610061387471
20
-6.1703303077947
30
0
41
1
10
90.8258877715394
20
-6.41826751034091
30
0
41
1
10
91.0603709707125
20
-6.53718328275761
30
0
41
1
10
91.2955350067096
20
-6.65057117163818
30
0
0
SPLINE
5
CF
100
AcDbEntity
8
1
62
256
6
ByLayer
370
18
48
1
60
0
100
AcDbSpline
70
4
71
3
72
14
73
10
40
0
40
0
40
0
40
0
40
0.25
40
0.25
40
0.5
40
0.5
40
0.75
40
0.75
40
1
40
1
40
1
40
1
41
1
10
92.3269051900582
20
-8.65240923657282
30
0
41
1
10
92.5226376124805
20
-8.09401582311921
30
0
41
1
10
92.7238211568309
20
-7.53671587034029
30
0
41
1
10
93.13493875891
20
-6.42409323823026
30
0
41
1
10
93.3449287044056
20
-5.86878123506426
30
0
41
1
10
93.7726681551952
20
-4.76008602177234
30
0
41
1
10
93.9904954813784
20
-4.2065057045931
30
0
41
1
10
94.4328808587885
20
-3.10207705485143
30
0
41
1
10
94.6570197409521
20
-2.55213072373209
30
0
41
1
10
94.8839137662558
20
-2.00412786947393
30
0
0
SPLINE
5
D0
100
AcDbEntity
8
1
62
256
6
ByLayer
370
18
48
1
60
0
100
AcDbSpline
70
4
71
3
72
8
73
4
40
0
40
0
40
0
40
0
40
1
40
1
40
1
40
1
41
1
10
94.9999563001588
20
0.0642659559289598
30
0
41
1
10
95.0000145687783
20
0.0214203932688406
30
0
41
1
10
95.000014563732
20
-0.0214241039331569
30
0
41
1
10
94.9999563001588
20
-0.0642659559291872
30
0
0
SPLINE
5
D1
100
AcDbEntity
8
1
62
256
6
ByLayer
370
18
48
1
60
0
100
AcDbSpline
70
4
71
3
72
67
73
63
40
0
40
0
40
0
40
0
40
0.0312500000000006
40
0.0312500000000006
40
0.0468750000000005
40
0.0468750000000005
40
0.0625000000000005
40
0.0625000000000005
40
0.0937500000000011
40
0.0937500000000011
40
0.125000000000002
40
0.125000000000002
40
0.156250000000002
40
0.156250000000002
40
0.187500000000003
40
0.187500000000003
40
0.203125000000003
40
0.203125000000003
40
0.218750000000003
40
0.218750000000003
40
0.234375000000003
40
0.234375000000003
40
0.250000000000004
40
0.250000000000004
40
0.281250000000005
40
0.281250000000005
40
0.296875000000005
40
0.296875000000005
40
0.312500000000006
40
0.312500000000006
40
0.343750000000008
40
0.343750000000008
40
0.347656250000007
40
0.347656250000007
40
0.349609375000007
40
0.349609375000007
40
0.351562500000007
40
0.351562500000007
40
0.355468750000007
40
0.355468750000007
40
0.359375000000007
40
0.359375000000007
40
0.363281250000006
40
0.363281250000006
40
0.367187500000006
40
0.375000000000007
40
0.375000000000007
40
0.437500000000007
40
0.437500000000007
40
0.500000000000007
40
0.500000000000007
40
0.531250000000007
40
0.531250000000007
40
0.562500000000007
40
0.562500000000007
40
0.625000000000007
40
0.625000000000007
40
0.750000000000004
40
0.750000000000004
40
0.875000000000002
40
0.875000000000002
40
1
40
1
40
1
40
1
41
1
10
4.00000043308583
20
-5.00444002651369
30
0
41
1
10
3.82939394932743
20
-4.87002459795045
30
0
41
1
10
3.66234403964876
20
-4.72901391653394
30
0
41
1
10
3.41886478230234
20
-4.50475681236668
30
0
41
1
10
3.33890270669673
20
-4.42785639790992
30
0
41
1
10
3.18324609548324
20
-4.27066924863902
30
0
41
1
10
3.10736931030058
20
-4.19022108483736
30
0
41
1
10
2.88641368550071
20
-3.94260365241749
30
0
41
1
10
2.74790515471284
20
-3.7692533206444
30
0
41
1
10
2.4947738617924
20
-3.4005349251193
30
0
41
1
10
2.37965817741969
20
-3.20377367928228
30
0
41
1
10
2.18966496183498
20
-2.79327674740762
30
0
41
1
10
2.11375090959308
20
-2.57855127425816
30
0
41
1
10
2.0140272198729
20
-2.12440806135413
30
0
41
1
10
1.99233502503466
20
-1.89382103442094
30
0
41
1
10
2.00744602327893
20
-1.54226207279274
30
0
41
1
10
2.02067454796952
20
-1.42341311182477
30
0
41
1
10
2.06256075810825
20
-1.19084411540399
30
0
41
1
10
2.09113348040148
20
-1.07639472413166
30
0
41
1
10
2.16265606281621
20
-0.850979908518013
30
0
41
1
10
2.20561110690903
20
-0.740015852274496
30
0
41
1
10
2.30520109546543
20
-0.521428567337608
30
0
41
1
10
2.3608764083296
20
-0.415883716889766
30
0
41
1
10
2.54270742999196
20
-0.109439231079875
30
0
41
1
10
2.68363878813824
20
0.0816590521323519
30
0
41
1
10
2.91799109194363
20
0.352920468913965
30
0
41
1
10
2.99996159549156
20
0.44068904006096
30
0
41
1
10
3.16885085477492
20
0.60970933559102
30
0
41
1
10
3.25600909626542
20
0.691243349321041
30
0
41
1
10
3.52464848809922
20
0.928004315309209
30
0
41
1
10
3.71333331984141
20
1.07549783858653
30
0
41
1
10
3.93249273318338
20
1.23101770050866
30
0
41
1
10
3.95695008364785
20
1.24815959241812
30
0
41
1
10
3.99375759724083
20
1.27364787522504
30
0
41
1
10
4.00604991998688
20
1.28210401718013
30
0
41
1
10
4.03060111387785
20
1.29906782325429
30
0
41
1
10
4.04299660543691
20
1.30735028208139
30
0
41
1
10
4.08245809260885
20
1.32844728851859
30
0
41
1
10
4.11161543167327
20
1.33860964799669
30
0
41
1
10
4.17024486708493
20
1.3528870309249
30
0
41
1
10
4.19998129214434
20
1.3569464234543
30
0
41
1
10
4.26006814620632
20
1.36058456362957
30
0
41
1
10
4.29026331023408
20
1.36131084871323
30
0
41
1
10
4.3505495848153
20
1.36344671621015
30
0
41
1
10
4.44098215059387
20
1.36648714484446
30
0
41
1
10
4.531424154219
20
1.36903875753671
30
0
41
1
10
5.07411374473253
20
1.38240304785572
30
0
41
1
10
5.55691200464082
20
1.38044857493381
30
0
41
1
10
6.5199508724829
20
1.34983151714394
30
0
41
1
10
7.00057301306106
20
1.32118111117143
30
0
41
1
10
7.7201990451432
20
1.25868009983745
30
0
41
1
10
7.95985583321982
20
1.23458106113193
30
0
41
1
10
8.43873680869268
20
1.17989479692807
30
0
41
1
10
8.67820786195759
20
1.14927026591485
30
0
41
1
10
9.39377437354005
20
1.04807733923829
30
0
41
1
10
9.8670240250205
20
0.96826485183314
30
0
41
1
10
11.275894083109
20
0.693538517820173
30
0
41
1
10
12.2005590679446
20
0.463082268219409
30
0
41
1
10
14.0242199586808
20
-0.0802732438497742
30
0
41
1
10
14.9231683219983
20
-0.393320723409119
30
0
41
1
10
16.7004750912712
20
-1.08445830052969
30
0
41
1
10
17.5788006815749
20
-1.46264811087519
30
0
41
1
10
18.4503970033646
20
-1.86138513520152
30
0
0
SPLINE
5
D2
100
AcDbEntity
8
1
62
256
6
ByLayer
370
18
48
1
60
0
100
AcDbSpline
70
4
71
3
72
16
73
12
40
0
40
0
40
0
40
0
40
0.244354411534105
40
0.244354411534105
40
0.463604791711323
40
0.463604791711323
40
0.573229981799933
40
0.573229981799933
40
0.682855171888543
40
0.682855171888543
40
1
40
1
40
1
40
1
41
1
10
17.6254905173352
20
0.0159954413977346
30
0
41
1
10
18.6406536754086
20
-0.53774368872655
30
0
41
1
10
19.6533391896364
20
-1.0904291268825
30
0
41
1
10
21.5783679340871
20
-2.12136525035868
30
0
41
1
10
22.4902813575715
20
-2.60152770000806
30
0
41
1
10
23.8652449394714
20
-3.30172518966663
30
0
41
1
10
24.3247205036302
20
-3.53183227476009
30
0
41
1
10
25.2469058370351
20
-3.9837610852108
30
0
41
1
10
25.7071205017132
20
-4.20430489649326
30
0
41
1
10
27.4930772894592
20
-5.03798495511106
30
0
41
1
10
28.8106886697937
20
-5.60519152299528
30
0
41
1
10
30.1284454475221
20
-6.10720862731367
30
0
0
SPLINE
5
D3
100
AcDbEntity
8
1
62
256
6
ByLayer
370
13
48
1
60
0
100
AcDbSpline
70
4
71
3
72
18
73
14
40
0
40
0
40
0
40
0
40
0.108116813882632
40
0.108116813882632
40
0.303448447950266
40
0.303448447950266
40
0.401114264984082
40
0.401114264984082
40
0.498780082017897
40
0.498780082017897
40
0.889443350153158
40
0.889443350153158
40
1
40
1
40
1
40
1
41
1
10
30.1284454476182
20
-6.10720862735027
30
0
41
1
10
30.6326870055614
20
-6.29930620641221
30
0
41
1
10
31.1369498529025
20
-6.48185860460941
30
0
41
1
10
32.5538399827157
20
-6.96541008415238
30
0
41
1
10
33.467716092873
20
-7.24320810654814
30
0
41
1
10
34.8460861690726
20
-7.60358005895938
30
0
41
1
10
35.3077908545273
20
-7.71449796164171
30
0
41
1
10
36.2280300398476
20
-7.91511016502776
30
0
41
1
10
36.6868008608547
20
-8.00493478729612
30
0
41
1
10
38.975624656012
20
-8.40108812289273
30
0
41
1
10
40.7912656195131
20
-8.5479852578234
30
0
41
1
10
43.1335447206959
20
-8.51152521402793
30
0
41
1
10
43.651002379714
20
-8.48945947915777
30
0
41
1
10
44.1698503211931
20
-8.45325974554856
30
0
0
SPLINE
5
D4
100
AcDbEntity
8
1
62
256
6
ByLayer
370
18
48
1
60
0
100
AcDbSpline
70
4
71
3
72
8
73
4
40
0
40
0
40
0
40
0
40
1
40
1
40
1
40
1
41
1
10
91.996888341742
20
-8.54195477456284
30
0
41
1
10
91.94946761825
20
-8.65846889507722
30
0
41
1
10
91.9019416637507
20
-8.77473395785856
30
0
41
1
10
91.854319954184
20
-8.89075485502048
30
0
0
SPLINE
5
D5
100
AcDbEntity
8
1
62
256
6
ByLayer
370
18
48
1
60
0
100
AcDbSpline
70
4
71
3
72
108
73
104
40
0
40
0
40
0
40
0
40
0.0048709033647184
40
0.0048709033647184
40
0.0223293085688464
40
0.0223293085688464
40
0.0397877137729743
40
0.0397877137729743
40
0.0572461189771023
40
0.0572461189771023
40
0.0747045241812302
40
0.0747045241812302
40
0.0921629293853581
40
0.0921629293853581
40
0.109621334589486
40
0.109621334589486
40
0.127079739793614
40
0.127079739793614
40
0.161996550201869
40
0.161996550201869
40
0.179454955405997
40
0.179454955405997
40
0.196913360610125
40
0.196913360610125
40
0.214371765814252
40
0.214371765814252
40
0.23183017101838
40
0.23183017101838
40
0.249288576222508
40
0.249288576222508
40
0.266746981426635
40
0.266746981426635
40
0.284205386630763
40
0.284205386630763
40
0.301663791834891
40
0.301663791834891
40
0.319122197039019
40
0.319122197039019
40
0.336580602243146
40
0.336580602243146
40
0.354039007447274
40
0.354039007447274
40
0.371497412651402
40
0.371497412651402
40
0.388955817855529
40
0.388955817855529
40
0.406414223059657
40
0.406414223059657
40
0.441331033467912
40
0.441331033467912
40
0.458789438672039
40
0.458789438672039
40
0.476247843876167
40
0.476247843876167
40
0.493706249080294
40
0.493706249080294
40
0.511164654284422
40
0.511164654284422
40
0.546081464692677
40
0.546081464692677
40
0.563539869896805
40
0.563539869896805
40
0.580998275100933
40
0.580998275100933
40
0.59845668030506
40
0.59845668030506
40
0.615915085509188
40
0.615915085509188
40
0.633373490713316
40
0.633373490713316
40
0.650831895917443
40
0.650831895917443
40
0.668290301121571
40
0.668290301121571
40
0.685748706325698
40
0.685748706325698
40
0.703207111529826
40
0.703207111529826
40
0.720665516733954
40
0.720665516733954
40
0.738123921938081
40
0.738123921938081
40
0.755582327142209
40
0.755582327142209
40
0.773040732346336
40
0.773040732346336
40
0.790499137550464
40
0.790499137550464
40
0.825415947958719
40
0.825415947958719
40
0.842874353162847
40
0.842874353162847
40
0.860332758366975
40
0.860332758366975
40
0.877791163571103
40
0.877791163571103
40
0.895249568775231
40
0.895249568775231
40
0.930166379183487
40
0.930166379183487
40
0.965083189591744
40
0.965083189591744
40
1
40
1
40
1
40
1
41
1
10
76.7946643143857
20
-6.4578311225508
30
0
41
1
10
76.6998832509551
20
-6.49096401312426
30
0
41
1
10
76.605097081597
20
-6.52377904555249
30
0
41
1
10
76.1705558089957
20
-6.67273375186721
30
0
41
1
10
75.8303313490851
20
-6.78498663516052
30
0
41
1
10
75.1501150725386
20
-6.99873016805719
30
0
41
1
10
74.8102786337126
20
-7.1003194012772
30
0
41
1
10
74.130996302069
20
-7.29189776629926
30
0
41
1
10
73.791517024523
20
-7.38159962412868
30
0
41
1
10
73.1130130223944
20
-7.55108320965184
30
0
41
1
10
72.7740981540509
20
-7.63131175803565
30
0
41
1
10
72.0955525309777
20
-7.78108887179141
30
0
41
1
10
71.7560524756076
20
-7.85066298443644
30
0
41
1
10
71.076387520672
20
-7.97787360170898
30
0
41
1
10
70.7362156723136
20
-8.03566925212684
30
0
41
1
10
70.0554851044173
20
-8.14082599045474
30
0
41
1
10
69.7158767710789
20
-8.18800805151429
30
0
41
1
10
68.6971551653999
20
-8.3109520065685
30
0
41
1
10
68.0182395671378
20
-8.36688309661406
30
0
41
1
10
67.000344081339
20
-8.41788720998539
30
0
41
1
10
66.6613242005316
20
-8.42935640464759
30
0
41
1
10
65.9825530724591
20
-8.43967879751386
30
0
41
1
10
65.6427005980549
20
-8.43830539193871
30
0
41
1
10
64.9621073868065
20
-8.42382550814594
30
0
41
1
10
64.6214383941722
20
-8.41089244214916
30
0
41
1
10
63.941506897606
20
-8.37350663039041
30
0
41
1
10
63.6020857274401
20
-8.34890745708049
30
0
41
1
10
62.9236177930909
20
-8.28690264273905
30
0
41
1
10
62.5843176487794
20
-8.2496276071536
30
0
41
1
10
61.905570949659
20
-8.16440196224349
30
0
41
1
10
61.5661350423071
20
-8.11632540444307
30
0
41
1
10
60.8870654629253
20
-8.00856886813614
30
0
41
1
10
60.547428629594
20
-7.94876951864302
30
0
41
1
10
59.8678904148658
20
-7.81688821192398
30
0
41
1
10
59.5273615618097
20
-7.74534760429151
30
0
41
1
10
58.8469446254959
20
-7.59229332888071
30
0
41
1
10
58.5070171611809
20
-7.51068670961271
30
0
41
1
10
57.8276405057988
20
-7.33648758871172
30
0
41
1
10
57.488152612223
20
-7.243644549979
30
0
41
1
10
56.8097889356266
20
-7.04795616342537
30
0
41
1
10
56.4707760426401
20
-6.94552234630791
30
0
41
1
10
55.7919982251221
20
-6.73096492474193
30
0
41
1
10
55.4523633195545
20
-6.61885140891573
30
0
41
1
10
54.7724409502574
20
-6.38460989720301
30
0
41
1
10
54.4320489590442
20
-6.26246099824627
30
0
41
1
10
53.751387188803
20
-6.0098955170067
30
0
41
1
10
53.4117294941578
20
-5.87924022570058
30
0
41
1
10
52.3926456372325
20
-5.47584536984724
30
0
41
1
10
51.713531588315
20
-5.19100160599112
30
0
41
1
10
50.695662213778
20
-4.74313321404048
30
0
41
1
10
50.3566367854521
20
-4.58988558846278
30
0
41
1
10
49.6774912728411
20
-4.27721623916705
30
0
41
1
10
49.3374029473617
20
-4.11757606779929
30
0
41
1
10
48.6565702984188
20
-3.79305850090301
30
0
41
1
10
48.3159290690595
20
-3.62812347221268
30
0
41
1
10
47.63606056174
20
-3.29332314961303
30
0
41
1
10
47.2967574265489
20
-3.12306819705125
30
0
41
1
10
46.2786794027081
20
-2.60662475475087
30
0
41
1
10
45.5998643502467
20
-2.25592652562122
30
0
41
1
10
44.5811556997478
20
-1.72016836770104
30
0
41
1
10
44.2415890676728
20
-1.53968148567961
30
0
41
1
10
43.561742648684
20
-1.17642038704332
30
0
41
1
10
43.22110153131
20
-0.993883302400803
30
0
41
1
10
42.540645820231
20
-0.628442673721906
30
0
41
1
10
42.200726589212
20
-0.445439971202376
30
0
41
1
10
41.5213306461128
20
-0.0793150622430687
30
0
41
1
10
41.1819055236038
20
0.103942885550993
30
0
41
1
10
40.5036575641794
20
0.471042137077859
30
0
41
1
10
40.1644290825223
20
0.654111424799652
30
0
41
1
10
39.4854917870206
20
1.01874302981241
30
0
41
1
10
39.145742749255
20
1.20020582519408
30
0
41
1
10
38.465659511121
20
1.56141467290632
30
0
41
1
10
38.1252752364205
20
1.7414604143639
30
0
41
1
10
37.4448870547209
20
2.10012764767413
30
0
41
1
10
37.1051363349154
20
2.27802346123326
30
0
41
1
10
36.4256774942122
20
2.62879871975915
30
0
41
1
10
36.0860160736737
20
2.80152764430736
30
0
41
1
10
35.4069608078382
20
3.14343038198336
30
0
41
1
10
35.0675799183362
20
3.31258299520476
30
0
41
1
10
34.389126074963
20
3.6468105408064
30
0
41
1
10
34.0500643792161
20
3.81192645078457
30
0
41
1
10
33.3706678790658
20
4.13468275427596
30
0
41
1
10
33.0305155005705
20
4.2928121137555
30
0
41
1
10
32.3496253600347
20
4.60407349414322
30
0
41
1
10
32.0090607586015
20
4.7568535408144
30
0
41
1
10
31.3293757043282
20
5.055301576018
30
0
41
1
10
30.9901277748662
20
5.2010493575747
30
0
41
1
10
29.9718823516038
20
5.6245272297073
30
0
41
1
10
29.2930570360367
20
5.89210605589705
30
0
41
1
10
28.27446811761
20
6.26790486520571
30
0
41
1
10
27.9349300189975
20
6.38833266255585
30
0
41
1
10
27.2548836399665
20
6.62047028697842
30
0
41
1
10
26.9141287177297
20
6.73250545277207
30
0
41
1
10
26.2341711208678
20
6.94636655343021
30
0
41
1
10
25.8947598725359
20
7.04834427357247
30
0
41
1
10
25.2170227771064
20
7.24072687105493
30
0
41
1
10
24.8788229696297
20
7.3314027799087
30
0
41
1
10
23.8650005143317
20
7.5893092628138
30
0
41
1
10
23.1894702621713
20
7.73964056646579
30
0
41
1
10
21.8385407587056
20
7.99603458612918
30
0
41
1
10
21.163847335283
20
8.1036860740351
30
0
41
1
10
19.8101178525183
20
8.27009043135703
30
0
41
1
10
19.1312510122081
20
8.33040736000638
30
0
41
1
10
18.4503970033646
20
8.36748094930107
30
0
0
SPLINE
5
D6
100
AcDbEntity
8
1
62
256
6
ByLayer
370
18
48
1
60
0
100
AcDbSpline
70
4
71
3
72
28
73
24
40
0
40
0
40
0
40
0
40
0.0624999999999998
40
0.0624999999999998
40
0.125
40
0.125
40
0.187499999999999
40
0.187499999999999
40
0.249999999999999
40
0.249999999999999
40
0.374999999999999
40
0.374999999999999
40
0.499999999999998
40
0.499999999999998
40
0.624999999999998
40
0.624999999999998
40
0.687499999999998
40
0.687499999999998
40
0.749999999999999
40
0.749999999999999
40
0.874999999999999
40
0.874999999999999
40
1
40
1
40
1
40
1
41
1
10
4.2511567410755
20
-4.54614778935439
30
0
41
1
10
4.49673906064712
20
-4.76461620122271
30
0
41
1
10
4.75349564001169
20
-4.96471810997471
30
0
41
1
10
5.28215225915562
20
-5.33868918326831
30
0
41
1
10
5.55411435489836
20
-5.51245185076345
30
0
41
1
10
6.10924284016238
20
-5.8393827729509
30
0
41
1
10
6.39250423158293
20
-5.99252775417887
30
0
41
1
10
6.96755435632952
20
-6.28163633568218
30
0
41
1
10
7.25707923960314
20
-6.41647816896378
30
0
41
1
10
8.12998800080538
20
-6.79674990227488
30
0
41
1
10
8.71760285378949
20
-7.01797304897246
30
0
41
1
10
9.89971227413577
20
-7.41183322804156
30
0
41
1
10
10.4944447292597
20
-7.58191419544605
30
0
41
1
10
11.6905172435439
20
-7.87397989232937
30
0
41
1
10
12.2917712736281
20
-7.99717839994935
30
0
41
1
10
13.2001958411481
20
-8.14512420126874
30
0
41
1
10
13.5041085586642
20
-8.18837336808275
30
0
41
1
10
14.1145186060118
20
-8.26351161363345
30
0
41
1
10
14.4211560548256
20
-8.29546059087002
30
0
41
1
10
15.3413012832756
20
-8.3735957892153
30
0
41
1
10
15.9563787484189
20
-8.40131147035686
30
0
41
1
10
17.1952893730446
20
-8.41449383806224
30
0
41
1
10
17.8191800356772
20
-8.40052689296715
30
0
41
1
10
18.4503970033646
20
-8.36748094930118
30
0
0
SPLINE
5
D7
100
AcDbEntity
8
1
62
256
6
ByLayer
370
13
48
1
60
0
100
AcDbSpline
70
4
71
3
72
26
73
22
40
0
40
0
40
0
40
0
40
0.0448506610322964
40
0.0448506610322964
40
0.150978365362041
40
0.150978365362041
40
0.204042217526914
40
0.204042217526914
40
0.257106069691786
40
0.257106069691786
40
0.363233774021531
40
0.363233774021531
40
0.575489182681021
40
0.575489182681021
40
0.681616887010765
40
0.681616887010765
40
0.734680739175638
40
0.734680739175638
40
0.78774459134051
40
0.78774459134051
40
1
40
1
40
1
40
1
41
1
10
4.25072527932053
20
-8.40054064871197
30
0
41
1
10
4.25073308932767
20
-8.40053036609862
30
0
41
1
10
4.2507408549194
20
-8.39769225830858
30
0
41
1
10
4.25076681686812
20
-8.37854528974921
30
0
41
1
10
4.25078482023457
20
-8.34931022294251
30
0
41
1
10
4.25081175019656
20
-8.28170605585001
30
0
41
1
10
4.25082072193624
20
-8.25516303930593
30
0
41
1
10
4.25083856110038
20
-8.19445130502785
30
0
41
1
10
4.25084744108776
20
-8.16025911714627
30
0
41
1
10
4.25087399936572
20
-8.04624117420883
30
0
41
1
10
4.25089161849482
20
-7.95490217355615
30
0
41
1
10
4.25094415850407
20
-7.63523152829006
30
0
41
1
10
4.25097801318245
20
-7.36694374589163
30
0
41
1
10
4.2510260299135
20
-6.88480840261704
30
0
41
1
10
4.25104155302171
20
-6.7107000840013
30
0
41
1
10
4.25106377494637
20
-6.42879482912596
30
0
41
1
10
4.2510709977206
20
-6.33138763864397
30
0
41
1
10
4.25108484750845
20
-6.13197953171175
30
0
41
1
10
4.25109149725017
20
-6.0296999717558
30
0
41
1
10
4.25112321426576
20
-5.50563880140763
30
0
41
1
10
4.25114380358559
20
-5.04628852530706
30
0
41
1
10
4.25115673831053
20
-4.54614779266694
30
0
0
SPLINE
5
D8
100
AcDbEntity
8
1
62
256
6
ByLayer
370
18
48
1
60
0
100
AcDbSpline
70
4
71
3
72
14
73
10
40
0
40
0
40
0
40
0
40
0.25
40
0.25
40
0.5
40
0.5
40
0.75
40
0.75
40
1
40
1
40
1
40
1
41
1
10
92.005502844036
20
-8.44766838863771
30
0
41
1
10
92.0089663025551
20
-8.44708952738344
30
0
41
1
10
92.0118044534651
20
-8.44816795049002
30
0
41
1
10
92.0158116448865
20
-8.45473657604595
30
0
41
1
10
92.0169292949092
20
-8.46030194834282
30
0
41
1
10
92.0162110356969
20
-8.47710371862991
30
0
41
1
10
92.0142869404365
20
-8.48841057421919
30
0
41
1
10
92.0073021619507
20
-8.51430882935446
30
0
41
1
10
92.0023449676752
20
-8.52854768321617
30
0
41
1
10
91.9968883417537
20
-8.54195477453399
30
0
0
SPLINE
5
D9
100
AcDbEntity
8
1
62
256
6
ByLayer
370
18
48
1
60
0
100
AcDbSpline
70
4
71
2
72
6
73
3
40
0
40
0
40
0
40
1
40
1
40
1
41
1
10
66.654088362028
20
0.0003679449184233
30
0
41
1
10
66.654070939059
20
0.0003768895564917
30
0
41
1
10
66.6540535160698
20
0.0003862459703328
30
0
0
SPLINE
5
DA
100
AcDbEntity
8
1
62
256
6
ByLayer
370
18
48
1
60
0
100
AcDbSpline
70
4
71
3
72
40
73
36
40
0
40
0
40
0
40
0
40
0.0333217397543113
40
0.0652156666591742
40
0.0927072364483127
40
0.118363761259862
40
0.142984114479654
40
0.166833560543671
40
0.191260493218666
40
0.211120086773373
40
0.23069435691196
40
0.248810888265972
40
0.265486800837586
40
0.284840143960691
40
0.309928064024841
40
0.339275797212718
40
0.369510051875012
40
0.393692694491673
40
0.425371678747368
40
0.455353953664254
40
0.478591272019294
40
0.499330857022445
40
0.52508712259153
40
0.554912070845355
40
0.621820061764415
40
0.693282359860557
40
0.763204637163546
40
0.845027248744672
40
0.877631197123884
40
0.90235953077712
40
0.92337585965126
40
0.949046035910506
40
0.969031691710603
40
0.997288342628582
40
1
40
1
40
1
40
1
41
1
10
42.3239046830997
20
-8.42333777077715
30
0
41
1
10
42.5767002784019
20
-8.42283413071263
30
0
41
1
10
43.0752266044266
20
-8.42233913179012
30
0
41
1
10
43.8060127835324
20
-8.42007541049625
30
0
41
1
10
44.465274410381
20
-8.42413566447064
30
0
41
1
10
45.0630528887263
20
-8.4255776396314
30
0
41
1
10
45.6428811398985
20
-8.42577286894209
30
0
41
1
10
46.2146432283521
20
-8.42603375300931
30
0
41
1
10
46.7487356642493
20
-8.42651407810422
30
0
41
1
10
47.249390258088
20
-8.42712169827604
30
0
41
1
10
47.7005539731014
20
-8.42733516369404
30
0
41
1
10
48.1267735609366
20
-8.42747574078783
30
0
41
1
10
48.5512718667073
20
-8.42754150482392
30
0
41
1
10
49.0304215555395
20
-8.4277013993877
30
0
41
1
10
49.6089181384076
20
-8.42845833923883
30
0
41
1
10
50.272721777874
20
-8.42925061641219
30
0
41
1
10
50.9294169335972
20
-8.42917577740792
30
0
41
1
10
51.6044018864761
20
-8.42901578900253
30
0
41
1
10
52.2773973796919
20
-8.43011405120029
30
0
41
1
10
52.9429968945919
20
-8.43068462635537
30
0
41
1
10
53.5228231615022
20
-8.43076853215217
30
0
41
1
10
54.0695147610472
20
-8.43046407362456
30
0
41
1
10
54.6678625631391
20
-8.43096669037232
30
0
41
1
10
55.6281615001988
20
-8.43279258542341
30
0
41
1
10
56.946799506067
20
-8.43144222999453
30
0
41
1
10
58.5797620469896
20
-8.43347357049942
30
0
41
1
10
60.3297868449657
20
-8.43446950568165
30
0
41
1
10
61.7745453645634
20
-8.43428116069919
30
0
41
1
10
62.8663966641735
20
-8.43589369962518
30
0
41
1
10
63.476937592007
20
-8.4362335311659
30
0
41
1
10
64.0313634608258
20
-8.43451842543405
30
0
41
1
10
64.5562612655139
20
-8.43512580175883
30
0
41
1
10
65.1305372253782
20
-8.43628669448273
30
0
41
1
10
65.5302923940845
20
-8.43720722961547
30
0
41
1
10
65.772983872864
20
-8.43735208516026
30
0
41
1
10
65.7942389395739
20
-8.43736327840026
30
0
0
SPLINE
5
DB
100
AcDbEntity
8
1
62
256
6
ByLayer
370
18
48
1
60
0
100
AcDbSpline
70
4
71
3
72
28
73
24
40
0
40
0
40
0
40
0
40
0.0012833093225738
40
0.0430374346119562
40
0.0749495363401946
40
0.0976833148836586
40
0.124807321193739
40
0.16433403416937
40
0.205687020078377
40
0.238867156930955
40
0.266008573287952
40
0.303321029980857
40
0.352083270897696
40
0.450924333757788
40
0.537655056221177
40
0.617172553293708
40
0.691623836968669
40
0.727245280686251
40
0.759848831068479
40
0.79690016297151
40
0.85221944238637
40
0.926297907135347
40
1
40
1
40
1
40
1
41
1
10
17.1607634957017
20
8.4082266028978
30
0
41
1
10
17.1553488572986
20
8.40825053777996
30
0
41
1
10
16.9737270027576
20
8.4090425004751
30
0
41
1
10
16.6565001564351
20
8.40909486667607
30
0
41
1
10
16.2414705844299
20
8.40937285098082
30
0
41
1
10
15.8904552964008
20
8.40928460739954
30
0
41
1
10
15.5059219095633
20
8.40914588137073
30
0
41
1
10
15.0405311945283
20
8.40918877032655
30
0
41
1
10
14.5504595887456
20
8.40881778303842
30
0
41
1
10
14.1126644270864
20
8.40847109096049
30
0
41
1
10
13.69196094082
20
8.40836491680702
30
0
41
1
10
13.2043875994652
20
8.40849208045788
30
0
41
1
10
12.4084588172816
20
8.40833713179171
30
0
41
1
10
11.3987059250202
20
8.40599376590515
30
0
41
1
10
10.2570201147117
20
8.40679746601748
30
0
41
1
10
9.22046808831632
20
8.40431578611808
30
0
41
1
10
8.40359932578991
20
8.40395994422255
30
0
41
1
10
7.78893231399877
20
8.40392914690776
30
0
41
1
10
7.33538143706778
20
8.40385362900409
30
0
41
1
10
6.79696717709021
20
8.403757210968
30
0
41
1
10
6.07989362347348
20
8.40359071756126
30
0
41
1
10
5.20490229252121
20
8.40291774580737
30
0
41
1
10
4.56824245638586
20
8.4013689578573
30
0
41
1
10
4.25072259861992
20
8.40038863953959
30
0
0
SPLINE
5
DC
100
AcDbEntity
8
1
62
256
6
ByLayer
370
18
48
1
60
0
100
AcDbSpline
70
4
71
3
72
30
73
26
40
0
40
0
40
0
40
0
40
0.0223782042132596
40
0.048392136549305
40
0.0725912911594238
40
0.0955212209612218
40
0.142356254653632
40
0.19377203600089
40
0.245893859967396
40
0.296103394081199
40
0.35326638130853
40
0.411997459066587
40
0.461756995144207
40
0.517307105382592
40
0.580613385903108
40
0.643101170254193
40
0.694511471375935
40
0.739438179051614
40
0.789684751754522
40
0.822946684584779
40
0.852417288778169
40
0.888468475986869
40
0.929968466775952
40
0.972283312995115
40
1
40
1
40
1
40
1
41
1
10
66.0464496482526
20
8.43716768090118
30
0
41
1
10
65.9067351006476
20
8.43730997181095
30
0
41
1
10
65.6037775265785
20
8.43744416720165
30
0
41
1
10
65.1473492185727
20
8.43651948213764
30
0
41
1
10
64.683242651925
20
8.43609464227154
30
0
41
1
10
64.0887594721102
20
8.43636822600206
30
0
41
1
10
63.3208139177101
20
8.43675051771706
30
0
41
1
10
62.3678879556655
20
8.43487779929504
30
0
41
1
10
61.3935636284655
20
8.43469813432444
30
0
41
1
10
60.3828205764226
20
8.43470080529346
30
0
41
1
10
59.3301947623506
20
8.43289583688187
30
0
41
1
10
58.2804239967325
20
8.4337705918816
30
0
41
1
10
57.2408717525526
20
8.43190998613687
30
0
41
1
10
56.1723241900287
20
8.43245541919248
30
0
41
1
10
55.0231110254218
20
8.4318363975249
30
0
41
1
10
53.9001506103915
20
8.4302877932389
30
0
41
1
10
52.8936426676266
20
8.43092832883815
30
0
41
1
10
51.9647345655947
20
8.42942711495888
30
0
41
1
10
51.1508145870315
20
8.4290687934994
30
0
41
1
10
50.4348498834998
20
8.42921780229332
30
0
41
1
10
49.8088393643533
20
8.42887709166934
30
0
41
1
10
49.1306373579723
20
8.42767935667359
30
0
41
1
10
48.371071818572
20
8.42750749619319
30
0
41
1
10
47.6641353238686
20
8.42736564868713
30
0
41
1
10
47.2207328337948
20
8.42700731008912
30
0
41
1
10
47.0455560937752
20
8.42675441657295
30
0
0
SPLINE
5
DD
100
AcDbEntity
8
1
62
256
6
ByLayer
370
18
48
1
60
0
100
AcDbSpline
70
4
71
2
72
6
73
3
40
0
40
0
40
0
40
1
40
1
40
1
41
1
10
91.3679070694378
20
-8.45452538809434
30
0
41
1
10
91.647542682938
20
-8.4541809933753
30
0
41
1
10
91.9271101792281
20
-8.45479632166931
30
0
0
SPLINE
5
DE
100
AcDbEntity
8
1
62
256
6
ByLayer
370
18
48
1
60
0
100
AcDbSpline
70
4
71
2
72
6
73
3
40
0
40
0
40
0
40
1
40
1
40
1
41
1
10
17.6455348520632
20
0.005025422330533
30
0
41
1
10
17.6455229074482
20
0.0050303752559557
30
0
41
1
10
17.6455109628183
20
0.005035603611276
30
0
0
SPLINE
5
DF
100
AcDbEntity
8
1
62
256
6
ByLayer
370
18
48
1
60
0
100
AcDbSpline
70
4
71
3
72
24
73
20
40
0
40
0
40
0
40
0
40
0.0638269403413685
40
0.133115174308823
40
0.188414349111126
40
0.243601972579321
40
0.28716709463521
40
0.32406721057327
40
0.372379597322351
40
0.433799316089696
40
0.501215082633864
40
0.564666489016497
40
0.657130551314031
40
0.748139265635148
40
0.836566353153862
40
0.87523907201953
40
0.915931784713499
40
0.963490209831617
40
1
40
1
40
1
40
1
41
1
10
4.25072227180382
20
-8.40041400993582
30
0
41
1
10
4.52243354165699
20
-8.40126117388374
30
0
41
1
10
5.08910528517123
20
-8.40268896893159
30
0
41
1
10
5.89119284586062
20
-8.40348807289831
30
0
41
1
10
6.65649407860667
20
-8.40373608721839
30
0
41
1
10
7.31230690815119
20
-8.40383599064694
30
0
41
1
10
7.88972040655182
20
-8.40393174267015
30
0
41
1
10
8.43813576733211
20
-8.40397991914821
30
0
41
1
10
9.0612264066346
20
-8.40400329711605
30
0
41
1
10
9.81073643766814
20
-8.40514783451488
30
0
41
1
10
10.6258376235702
20
-8.40382182442215
30
0
41
1
10
11.579756979925
20
-8.40409154446132
30
0
41
1
10
12.6176145382244
20
-8.40933927683054
30
0
41
1
10
13.776891551443
20
-8.407943959596
30
0
41
1
10
14.7049903374144
20
-8.4090587396517
30
0
41
1
10
15.419295927262
20
-8.40950299025806
30
0
41
1
10
15.9597261464797
20
-8.40945221288197
30
0
41
1
10
16.4888365987275
20
-8.40906904242112
30
0
41
1
10
16.8467154583553
20
-8.40924418249608
30
0
41
1
10
17.0022076702759
20
-8.40935786550503
30
0
0
LINE
5
7B
100
AcDbEntity
8
SK1
62
256
6
ByLayer
370
18
48
1
60
0
100
AcDbLine
10
-45.25
20
9
30
0
11
-45.25
21
-9
31
0
39
0
210
0
220
0
230
1
0
LINE
5
7D
100
AcDbEntity
8
SK1
62
256
6
ByLayer
370
18
48
1
60
0
100
AcDbLine
10
-48
20
6.25
30
0
11
-48
21
-6.25
31
0
39
0
210
0
220
0
230
1
0
LINE
5
7E
100
AcDbEntity
8
SK1
62
256
6
ByLayer
370
18
48
1
60
0
100
AcDbLine
10
0
20
-9
30
0
11
0
21
9
31
0
39
0
210
0
220
0
230
1
0
LINE
5
7F
100
AcDbEntity
8
1
62
256
6
ByLayer
370
13
48
1
60
0
100
AcDbLine
10
91.877514
20
1.950778
30
0
11
94.967507
21
-0.005261
31
0
39
0
210
0
220
0
230
1
0
LINE
5
80
100
AcDbEntity
8
1
62
256
6
ByLayer
370
13
48
1
60
0
100
AcDbLine
10
92.054825
20
2.077763
30
0
11
94.969665
21
0.232599
31
0
39
0
210
0
220
0
230
1
0
LINE
5
81
100
AcDbEntity
8
1
62
256
6
ByLayer
370
18
48
1
60
0
100
AcDbLine
10
1.5
20
8.843233
30
0
11
1.5
21
-8.843233
31
0
39
0
210
0
220
0
230
1
0
LINE
5
82
100
AcDbEntity
8
1
62
256
6
ByLayer
370
18
48
1
60
0
100
AcDbLine
10
4
20
8.844795
30
0
11
4
21
6.883593
31
0
39
0
210
0
220
0
230
1
0
LINE
5
83
100
AcDbEntity
8
1
62
256
6
ByLayer
370
18
48
1
60
0
100
AcDbLine
10
4
20
-8.844795
30
0
11
4
21
-5.00444
31
0
39
0
210
0
220
0
230
1
0
LINE
5
84
100
AcDbEntity
8
1
62
256
6
ByLayer
370
18
48
1
60
0
100
AcDbLine
10
0
20
-9
30
0
11
0
21
9
31
0
39
0
210
0
220
0
230
1
0
LINE
5
85
100
AcDbEntity
8
80
62
256
6
ByLayer
370
18
48
1
60
0
100
AcDbLine
10
0
20
0
30
0
11
-5
21
0
31
0
39
0
210
0
220
0
230
1
0
LINE
5
86
100
AcDbEntity
8
4
62
256
6
ByLayer
370
18
48
0.05
60
0
100
AcDbLine
10
95
20
0
30
0
11
0
21
0
31
0
39
0
210
0
220
0
230
1
0
LINE
5
88
100
AcDbEntity
8
SK4
62
256
6
ByLayer
370
18
48
0.05
60
0
100
AcDbLine
10
100
20
0
30
0
11
-53
21
0
31
0
39
0
210
0
220
0
230
1
0
LINE
5
8A
100
AcDbEntity
8
SK1
62
256
6
ByLayer
370
18
48
1
60
0
100
AcDbLine
10
-45.25
20
-9
30
0
11
0
21
-9
31
0
39
0
210
0
220
0
230
1
0
LINE
5
8B
100
AcDbEntity
8
SK1
62
256
6
ByLayer
370
18
48
1
60
0
100
AcDbLine
10
0
20
9
30
0
11
-45.25
21
9
31
0
39
0
210
0
220
0
230
1
0
LINE
5
8C
100
AcDbEntity
8
SK1
62
256
6
ByLayer
370
18
48
1
60
0
100
AcDbLine
10
-48
20
-6.25
30
0
11
-45.25
21
-9
31
0
39
0
210
0
220
0
230
1
0
LINE
5
8D
100
AcDbEntity
8
SK1
62
256
6
ByLayer
370
18
48
1
60
0
100
AcDbLine
10
-45.25
20
9
30
0
11
-48
21
6.25
31
0
39
0
210
0
220
0
230
1
0
LINE
5
8E
100
AcDbEntity
8
1
62
256
6
ByLayer
370
18
48
1
60
0
100
AcDbLine
10
1.5
20
8.843233
30
0
11
0
21
9
31
0
39
0
210
0
220
0
230
1
0
LINE
5
8F
100
AcDbEntity
8
1
62
256
6
ByLayer
370
18
48
1
60
0
100
AcDbLine
10
0
20
-9
30
0
11
1.5
21
-8.843233
31
0
39
0
210
0
220
0
230
1
0
LINE
5
90
100
AcDbEntity
8
1
62
256
6
ByLayer
370
18
48
1
60
0
100
AcDbLine
10
1.5
20
-8.843233
30
0
11
4
21
-8.844795
31
0
39
0
210
0
220
0
230
1
0
LINE
5
91
100
AcDbEntity
8
1
62
256
6
ByLayer
370
18
48
1
60
0
100
AcDbLine
10
39.645456
20
-8.867074
30
0
11
42.15366
21
-8.868641
31
0
39
0
210
0
220
0
230
1
0
LINE
5
92
100
AcDbEntity
8
1
62
256
6
ByLayer
370
18
48
1
60
0
100
AcDbLine
10
88.640327
20
-8.897696
30
0
11
91.154908
21
-8.899267
31
0
39
0
210
0
220
0
230
1
0
LINE
5
93
100
AcDbEntity
8
1
62
256
6
ByLayer
370
18
48
1
60
0
100
AcDbLine
10
91.154929
20
8.899267
30
0
11
88.640327
21
8.897696
31
0
39
0
210
0
220
0
230
1
0
LINE
5
94
100
AcDbEntity
8
1
62
256
6
ByLayer
370
18
48
1
60
0
100
AcDbLine
10
42.153615
20
8.868641
30
0
11
39.645456
21
8.867074
31
0
39
0
210
0
220
0
230
1
0
LINE
5
95
100
AcDbEntity
8
1
62
256
6
ByLayer
370
18
48
1
60
0
100
AcDbLine
10
4
20
8.844795
30
0
11
1.5
21
8.843233
31
0
39
0
210
0
220
0
230
1
0
LINE
5
96
100
AcDbEntity
8
81
62
256
6
ByLayer
370
18
48
1
60
0
100
AcDbLine
10
95
20
0
30
0
11
100
21
0
31
0
39
0
210
0
220
0
230
1
0
LINE
5
97
100
AcDbEntity
8
SK2
62
256
6
ByLayer
370
13
48
1
60
0
100
AcDbLine
10
-56.625163
20
-9
30
0
11
-56.625163
21
39.857173
31
0
39
0
210
0
220
0
230
1
0
LINE
5
99
100
AcDbEntity
8
SK2
62
256
6
ByLayer
370
13
48
1
60
0
100
AcDbLine
10
-49.5875
20
9
30
0
11
-58.625163
21
9
31
0
39
0
210
0
220
0
230
1
0
LINE
5
9A
100
AcDbEntity
8
SK2
62
256
6
ByLayer
370
13
48
1
60
0
100
AcDbLine
10
-49.5875
20
-9
30
0
11
-58.625163
21
-9
31
0
39
0
210
0
220
0
230
1
0
LINE
5
9B
100
AcDbEntity
8
1
62
256
6
ByLayer
370
18
48
1
60
1
100
AcDbLine
10
-56.625163
20
9
30
0
11
-56.164379
21
5.500002
31
0
39
0
210
0
220
0
230
1
0
LINE
5
9C
100
AcDbEntity
8
1
62
256
6
ByLayer
370
18
48
1
60
1
100
AcDbLine
10
-56.164379
20
5.500002
30
0
11
-57.085946
21
5.499998
31
0
39
0
210
0
220
0
230
1
0
LINE
5
9D
100
AcDbEntity
8
1
62
256
6
ByLayer
370
18
48
1
60
1
100
AcDbLine
10
-57.085946
20
5.499998
30
0
11
-56.625163
21
9
31
0
39
0
210
0
220
0
230
1
0
LINE
5
9E
100
AcDbEntity
8
1
62
256
6
ByLayer
370
18
48
1
60
1
100
AcDbLine
10
-56.625163
20
-9
30
0
11
-57.085946
21
-5.500002
31
0
39
0
210
0
220
0
230
1
0
LINE
5
9F
100
AcDbEntity
8
1
62
256
6
ByLayer
370
18
48
1
60
1
100
AcDbLine
10
-57.085946
20
-5.500002
30
0
11
-56.164379
21
-5.499998
31
0
39
0
210
0
220
0
230
1
0
LINE
5
A0
100
AcDbEntity
8
1
62
256
6
ByLayer
370
18
48
1
60
1
100
AcDbLine
10
-56.164379
20
-5.499998
30
0
11
-56.625163
21
-9
31
0
39
0
210
0
220
0
230
1
0
LINE
5
A1
100
AcDbEntity
8
2
62
256
6
ByLayer
370
13
48
1
60
0
100
AcDbLine
10
107.083343
20
-8.9
30
0
11
107.083343
21
38.350259
31
0
39
0
210
0
220
0
230
1
0
LINE
5
A3
100
AcDbEntity
8
2
62
256
6
ByLayer
370
13
48
1
60
0
100
AcDbLine
10
93.928
20
8.9
30
0
11
109.083343
21
8.9
31
0
39
0
210
0
220
0
230
1
0
LINE
5
A4
100
AcDbEntity
8
2
62
256
6
ByLayer
370
13
48
1
60
0
100
AcDbLine
10
93.928
20
-8.9
30
0
11
109.083343
21
-8.9
31
0
39
0
210
0
220
0
230
1
0
LINE
5
A5
100
AcDbEntity
8
1
62
256
6
ByLayer
370
18
48
1
60
1
100
AcDbLine
10
107.083343
20
8.9
30
0
11
107.544126
21
5.400002
31
0
39
0
210
0
220
0
230
1
0
LINE
5
A6
100
AcDbEntity
8
1
62
256
6
ByLayer
370
18
48
1
60
1
100
AcDbLine
10
107.544126
20
5.400002
30
0
11
106.622559
21
5.399998
31
0
39
0
210
0
220
0
230
1
0
LINE
5
A7
100
AcDbEntity
8
1
62
256
6
ByLayer
370
18
48
1
60
1
100
AcDbLine
10
106.622559
20
5.399998
30
0
11
107.083343
21
8.9
31
0
39
0
210
0
220
0
230
1
0
LINE
5
A8
100
AcDbEntity
8
1
62
256
6
ByLayer
370
18
48
1
60
1
100
AcDbLine
10
107.083343
20
-8.9
30
0
11
106.622559
21
-5.400002
31
0
39
0
210
0
220
0
230
1
0
LINE
5
A9
100
AcDbEntity
8
1
62
256
6
ByLayer
370
18
48
1
60
1
100
AcDbLine
10
106.622559
20
-5.400002
30
0
11
107.544126
21
-5.399998
31
0
39
0
210
0
220
0
230
1
0
LINE
5
AA
100
AcDbEntity
8
1
62
256
6
ByLayer
370
18
48
1
60
1
100
AcDbLine
10
107.544126
20
-5.399998
30
0
11
107.083343
21
-8.9
31
0
39
0
210
0
220
0
230
1
0
LINE
5
E6
100
AcDbEntity
8
1
62
256
6
ByLayer
370
18
48
1
60
1
100
AcDbLine
10
-56.625163
20
9
30
0
11
-56.164379
21
5.500002
31
0
39
0
210
0
220
0
230
1
0
LINE
5
E7
100
AcDbEntity
8
1
62
256
6
ByLayer
370
18
48
1
60
1
100
AcDbLine
10
-56.164379
20
5.500002
30
0
11
-57.085946
21
5.499998
31
0
39
0
210
0
220
0
230
1
0
LINE
5
E8
100
AcDbEntity
8
1
62
256
6
ByLayer
370
18
48
1
60
1
100
AcDbLine
10
-57.085946
20
5.499998
30
0
11
-56.625163
21
9
31
0
39
0
210
0
220
0
230
1
0
LINE
5
EA
100
AcDbEntity
8
1
62
256
6
ByLayer
370
18
48
1
60
1
100
AcDbLine
10
-56.625163
20
-9
30
0
11
-57.085946
21
-5.500002
31
0
39
0
210
0
220
0
230
1
0
LINE
5
EB
100
AcDbEntity
8
1
62
256
6
ByLayer
370
18
48
1
60
1
100
AcDbLine
10
-57.085946
20
-5.500002
30
0
11
-56.164379
21
-5.499998
31
0
39
0
210
0
220
0
230
1
0
LINE
5
EC
100
AcDbEntity
8
1
62
256
6
ByLayer
370
18
48
1
60
1
100
AcDbLine
10
-56.164379
20
-5.499998
30
0
11
-56.625163
21
-9
31
0
39
0
210
0
220
0
230
1
0
LINE
5
F0
100
AcDbEntity
8
1
62
256
6
ByLayer
370
18
48
1
60
1
100
AcDbLine
10
107.083343
20
8.9
30
0
11
107.544126
21
5.400002
31
0
39
0
210
0
220
0
230
1
0
LINE
5
F1
100
AcDbEntity
8
1
62
256
6
ByLayer
370
18
48
1
60
1
100
AcDbLine
10
107.544126
20
5.400002
30
0
11
106.622559
21
5.399998
31
0
39
0
210
0
220
0
230
1
0
LINE
5
F2
100
AcDbEntity
8
1
62
256
6
ByLayer
370
18
48
1
60
1
100
AcDbLine
10
106.622559
20
5.399998
30
0
11
107.083343
21
8.9
31
0
39
0
210
0
220
0
230
1
0
LINE
5
F4
100
AcDbEntity
8
1
62
256
6
ByLayer
370
18
48
1
60
1
100
AcDbLine
10
107.083343
20
-8.9
30
0
11
106.622559
21
-5.400002
31
0
39
0
210
0
220
0
230
1
0
LINE
5
F5
100
AcDbEntity
8
1
62
256
6
ByLayer
370
18
48
1
60
1
100
AcDbLine
10
106.622559
20
-5.400002
30
0
11
107.544126
21
-5.399998
31
0
39
0
210
0
220
0
230
1
0
LINE
5
F6
100
AcDbEntity
8
1
62
256
6
ByLayer
370
18
48
1
60
1
100
AcDbLine
10
107.544126
20
-5.399998
30
0
11
107.083343
21
-8.9
31
0
39
0
210
0
220
0
230
1
0
MTEXT
5
E0
100
AcDbEntity
8
SK6
62
256
6
ByLayer
370
13
48
1
60
0
100
AcDbMText
10
-5.645193
20
41.440328
30
0
210
0
220
0
230
1
1
\W0.7670;462.1-1780-080A0-XM X2BM
40
3.5
41
0
44
1.084337
50
0
71
7
72
5
7
iso_b_vert
0
MTEXT
5
E4
100
AcDbEntity
8
SK2
62
256
6
ByLayer
370
18
48
1
60
0
100
AcDbMText
10
-58.189796
20
22.409024
30
0
210
0
220
0
230
1
1
%%c
40
3.5
41
0
44
1.084337
50
90
71
7
72
5
7
iso_b_vert
0
MTEXT
5
E5
100
AcDbEntity
8
SK2
62
256
6
ByLayer
370
18
48
1
60
0
100
AcDbMText
10
-58.189796
20
27.63168
30
0
210
0
220
0
230
1
1
\W0.6930;18,000
40
3.5
41
0
44
1.084337
50
90
71
7
72
5
7
iso_b_vert
0
MTEXT
5
EE
100
AcDbEntity
8
2
62
256
6
ByLayer
370
18
48
1
60
0
100
AcDbMText
10
105.518709
20
20.90211
30
0
210
0
220
0
230
1
1
%%c
40
3.5
41
0
44
1.084337
50
90
71
7
72
5
7
iso_b_vert
0
MTEXT
5
EF
100
AcDbEntity
8
2
62
256
6
ByLayer
370
18
48
1
60
0
100
AcDbMText
10
105.518709
20
26.124766
30
0
210
0
220
0
230
1
1
\W0.6930;17,800
40
3.5
41
0
44
1.084337
50
90
71
7
72
5
7
iso_b_vert
0
HATCH
5
E9
100
AcDbEntity
8
SK2
62
256
6
ByLayer
370
13
48
1
60
0
100
AcDbHatch
10
0
20
0
30
0
210
0
220
0
230
1
2
ANSI31
70
0
71
0
91
1
92
5
93
3
72
1
10
-56.6251625675374
20
9
11
-56.1643788259847
21
5.50000169255318
72
1
10
-56.1643788259847
20
5.50000169255318
11
-57.0859463090902
21
5.49999830744682
72
1
10
-57.0859463090902
20
5.49999830744682
11
-56.6251625675374
21
9
97
0
75
0
76
1
52
0
41
0.0062
77
0
78
1
53
45
43
0
44
0
45
-0.0139193969876572
46
0.0139193969876572
79
0
47
0
98
1
10
0
20
0
0
HATCH
5
ED
100
AcDbEntity
8
SK2
62
256
6
ByLayer
370
13
48
1
60
0
100
AcDbHatch
10
0
20
0
30
0
210
0
220
0
230
1
2
ANSI31
70
0
71
0
91
1
92
5
93
3
72
1
10
-56.6251625675374
20
-9
11
-57.0859463090902
21
-5.50000169255318
72
1
10
-57.0859463090902
20
-5.50000169255318
11
-56.1643788259847
21
-5.49999830744682
72
1
10
-56.1643788259847
20
-5.49999830744682
11
-56.6251625675374
21
-9
97
0
75
0
76
1
52
0
41
0.0062
77
0
78
1
53
45
43
0
44
0
45
-0.0139193969876572
46
0.0139193969876572
79
0
47
0
98
1
10
0
20
0
0
HATCH
5
F3
100
AcDbEntity
8
2
62
256
6
ByLayer
370
13
48
1
60
0
100
AcDbHatch
10
0
20
0
30
0
210
0
220
0
230
1
2
ANSI31
70
0
71
0
91
1
92
5
93
3
72
1
10
107.083342615295
20
8.90000000000001
11
107.544126356848
21
5.40000169255319
72
1
10
107.544126356848
20
5.40000169255319
11
106.622558873742
21
5.39999830744682
72
1
10
106.622558873742
20
5.39999830744682
11
107.083342615295
21
8.90000000000001
97
0
75
0
76
1
52
0
41
0.0062
77
0
78
1
53
45
43
0
44
0
45
-0.0139193969876572
46
0.0139193969876572
79
0
47
0
98
1
10
0
20
0
0
HATCH
5
F7
100
AcDbEntity
8
2
62
256
6
ByLayer
370
13
48
1
60
0
100
AcDbHatch
10
0
20
0
30
0
210
0
220
0
230
1
2
ANSI31
70
0
71
0
91
1
92
5
93
3
72
1
10
107.083342615295
20
-8.89999999999998
11
106.622558873742
21
-5.40000169255316
72
1
10
106.622558873742
20
-5.40000169255316
11
107.544126356848
21
-5.39999830744679
72
1
10
107.544126356848
20
-5.39999830744679
11
107.083342615295
21
-8.89999999999998
97
0
75
0
76
1
52
0
41
0.0062
77
0
78
1
53
45
43
0
44
0
45
-0.0139193969876572
46
0.0139193969876572
79
0
47
0
98
1
10
0
20
0
0
DIMENSION
5
F9
100
AcDbEntity
8
SK2
62
256
6
ByLayer
370
13
48
1
60
0
100
AcDbDimension
2
_U0
10
92.3405
20
-19.113398
30
0
11
46.17025
21
-19.113398
31
0
70
32
71
1
72
1
41
1
210
0
220
0
230
1
3
Standard
100
AcDbAlignedDimension
13
0
23
0
33
0
14
92.3405
24
-8.9
34
0
50
0
100
AcDbRotatedDimension
1001
ACAD
1000
DSTYLE
1002
{
1070
   371
1070
    13
1070
   372
1070
    13
1070
   170
1070
     0
1070
   144
1040
1.0
1070
   277
1070
     2
1070
   278
1070
    44
1070
   146
1040
1.0
1070
   345
1005
16
1070
   347
1005
16
1070
   346
1005
16
1070
   344
1005
0
1070
   343
1005
0
1070
   172
1070
     1
1070
    76
1070
     0
1070
    75
1070
     0
1070
   282
1070
     0
1070
   281
1070
     0
1070
    71
1070
     0
1070
    74
1070
     0
1070
   279
1070
     0
1070
   173
1070
     1
1070
   340
1005
E1
1070
   271
1070
     2
1070
   272
1070
     2
1070
    77
1070
     1
1070
    73
1070
     1
1070
   171
1070
     3
1070
   274
1070
     4
1070
   177
1070
    35
1070
   176
1070
    35
1070
   178
1070
    35
1070
    48
1040
-0.1
1070
    41
1040
3.5
1070
   147
1040
1.75
1070
    42
1040
1.5875
1070
    44
1040
2.0
1070
   140
1040
3.5
1002
}
1001
ACAD_DSTYLE_DIM_LINETYPE
1070
   380
1005
16
1001
ACAD_DSTYLE_DIM_EXT1_LINETYPE
1070
   381
1005
16
1001
ACAD_DSTYLE_DIM_EXT2_LINETYPE
1070
   382
1005
16
0
DIMENSION
5
112
100
AcDbEntity
8
SK2
62
256
6
ByLayer
370
13
48
1
60
0
100
AcDbDimension
2
_U1
10
95
20
-37.692985
30
0
11
23.5
21
-37.692985
31
0
70
32
71
1
72
1
41
1
210
0
220
0
230
1
3
Standard
100
AcDbAlignedDimension
13
-48
23
-9
33
0
14
95
24
0
34
0
50
0
100
AcDbRotatedDimension
1001
ACAD
1000
DSTYLE
1002
{
1070
   371
1070
    13
1070
   372
1070
    13
1070
   170
1070
     0
1070
   144
1040
1.0
1070
   277
1070
     2
1070
   278
1070
    44
1070
   146
1040
1.0
1070
   345
1005
16
1070
   347
1005
16
1070
   346
1005
16
1070
   344
1005
0
1070
   343
1005
0
1070
   172
1070
     1
1070
    76
1070
     0
1070
    75
1070
     0
1070
   282
1070
     0
1070
   281
1070
     0
1070
    71
1070
     0
1070
    74
1070
     0
1070
   279
1070
     0
1070
   173
1070
     1
1070
   340
1005
E1
1070
   271
1070
     2
1070
   272
1070
     2
1070
    77
1070
     1
1070
    73
1070
     1
1070
   171
1070
     3
1070
   274
1070
     4
1070
   177
1070
    35
1070
   176
1070
    35
1070
   178
1070
    35
1070
    48
1040
-0.1
1070
    41
1040
3.5
1070
   147
1040
1.75
1070
    42
1040
1.5875
1070
    44
1040
2.0
1070
   140
1040
3.5
1002
}
1001
ACAD_DSTYLE_DIM_LINETYPE
1070
   380
1005
16
1001
ACAD_DSTYLE_DIM_EXT1_LINETYPE
1070
   381
1005
16
1001
ACAD_DSTYLE_DIM_EXT2_LINETYPE
1070
   382
1005
16
0
DIMENSION
5
12A
100
AcDbEntity
8
SK2
62
256
6
ByLayer
370
13
48
1
60
0
100
AcDbDimension
2
_U2
10
95
20
20.509119
30
0
11
57.4
21
20.509119
31
0
70
32
71
1
72
1
41
1
210
0
220
0
230
1
3
Standard
100
AcDbAlignedDimension
13
19.8
23
8.9
33
0
14
95
24
0
34
0
50
0
100
AcDbRotatedDimension
1001
ACAD
1000
DSTYLE
1002
{
1070
   371
1070
    13
1070
   372
1070
    13
1070
   170
1070
     0
1070
   144
1040
1.0
1070
   277
1070
     2
1070
   278
1070
    44
1070
   146
1040
1.0
1070
   345
1005
16
1070
   347
1005
16
1070
   346
1005
16
1070
   344
1005
0
1070
   343
1005
0
1070
   172
1070
     1
1070
    76
1070
     0
1070
    75
1070
     0
1070
   282
1070
     0
1070
   281
1070
     0
1070
    71
1070
     0
1070
    74
1070
     0
1070
   279
1070
     0
1070
   173
1070
     1
1070
   340
1005
E1
1070
   271
1070
     2
1070
   272
1070
     2
1070
    77
1070
     1
1070
    73
1070
     1
1070
   171
1070
     3
1070
   274
1070
     4
1070
   177
1070
    35
1070
   176
1070
    35
1070
   178
1070
    35
1070
    48
1040
-0.1
1070
    41
1040
3.5
1070
   147
1040
1.75
1070
    42
1040
1.5875
1070
    44
1040
2.0
1070
   140
1040
3.5
1002
}
1001
ACAD_DSTYLE_DIM_LINETYPE
1070
   380
1005
16
1001
ACAD_DSTYLE_DIM_EXT1_LINETYPE
1070
   381
1005
16
1001
ACAD_DSTYLE_DIM_EXT2_LINETYPE
1070
   382
1005
16
0
DIMENSION
5
142
100
AcDbEntity
8
SK2
62
256
6
ByLayer
370
13
48
1
60
0
100
AcDbDimension
2
_U3
10
92.3405
20
-21.702503
30
0
11
112.583333
21
-21.702503
31
0
70
32
71
1
72
1
41
1
210
0
220
0
230
1
3
Standard
100
AcDbAlignedDimension
13
95
23
0
33
0
14
92.3405
24
-8.9
34
0
50
0
100
AcDbRotatedDimension
1001
ACAD
1000
DSTYLE
1002
{
1070
   371
1070
    13
1070
   372
1070
    13
1070
   170
1070
     0
1070
   144
1040
1.0
1070
   277
1070
     2
1070
   278
1070
    44
1070
   146
1040
1.0
1070
   345
1005
16
1070
   347
1005
16
1070
   346
1005
16
1070
   344
1005
0
1070
   343
1005
0
1070
   172
1070
     1
1070
    76
1070
     0
1070
    75
1070
     0
1070
   282
1070
     0
1070
   281
1070
     0
1070
    71
1070
     0
1070
    74
1070
     0
1070
   279
1070
     0
1070
   173
1070
     1
1070
   340
1005
E1
1070
   271
1070
     2
1070
   272
1070
     2
1070
    77
1070
     1
1070
    73
1070
     1
1070
   171
1070
     3
1070
   274
1070
     4
1070
   177
1070
    35
1070
   176
1070
    35
1070
   178
1070
    35
1070
    48
1040
-0.1
1070
    41
1040
3.5
1070
   147
1040
1.75
1070
    42
1040
1.5875
1070
    44
1040
2.0
1070
   140
1040
3.5
1002
}
1001
ACAD_DSTYLE_DIM_LINETYPE
1070
   380
1005
16
1001
ACAD_DSTYLE_DIM_EXT1_LINETYPE
1070
   381
1005
16
1001
ACAD_DSTYLE_DIM_EXT2_LINETYPE
1070
   382
1005
16
0
DIMENSION
5
15C
100
AcDbEntity
8
SK2
62
256
6
ByLayer
370
13
48
1
60
0
100
AcDbDimension
2
_U4
10
92.3405
20
-27.343428
30
0
11
22.17025
21
-27.343428
31
0
70
32
71
1
72
1
41
1
210
0
220
0
230
1
3
Standard
100
AcDbAlignedDimension
13
-48
23
-9
33
0
14
92.3405
24
-8.9
34
0
50
0
100
AcDbRotatedDimension
1001
ACAD
1000
DSTYLE
1002
{
1070
   371
1070
    13
1070
   372
1070
    13
1070
   170
1070
     0
1070
   144
1040
1.0
1070
   277
1070
     2
1070
   278
1070
    44
1070
   146
1040
1.0
1070
   345
1005
16
1070
   347
1005
16
1070
   346
1005
16
1070
   344
1005
0
1070
   343
1005
0
1070
   172
1070
     1
1070
    76
1070
     0
1070
    75
1070
     0
1070
   282
1070
     0
1070
   281
1070
     0
1070
    71
1070
     0
1070
    74
1070
     0
1070
   279
1070
     0
1070
   173
1070
     1
1070
   340
1005
E1
1070
   271
1070
     2
1070
   272
1070
     2
1070
    77
1070
     1
1070
    73
1070
     1
1070
   171
1070
     3
1070
   274
1070
     4
1070
   177
1070
    35
1070
   176
1070
    35
1070
   178
1070
    35
1070
    48
1040
-0.1
1070
    41
1040
3.5
1070
   147
1040
1.75
1070
    42
1040
1.5875
1070
    44
1040
2.0
1070
   140
1040
3.5
1002
}
1001
ACAD_DSTYLE_DIM_LINETYPE
1070
   380
1005
16
1001
ACAD_DSTYLE_DIM_EXT1_LINETYPE
1070
   381
1005
16
1001
ACAD_DSTYLE_DIM_EXT2_LINETYPE
1070
   382
1005
16
0
ENDSEC
0
SECTION
2
OBJECTS
0
DICTIONARY
5
1e4
330
0
100
AcDbDictionary
280
0
281
1
3
ACAD_GROUP
350
1e5
3
ACAD_MLINESTYLE
350
1e6
0
DICTIONARY
5
1e5
330
0
100
AcDbDictionary
280
0
281
1
0
DICTIONARY
5
1e6
330
0
100
AcDbDictionary
280
0
281
1
3
Standard
350
18
0
MLINESTYLE
5
18
330
1e6
100
AcDbMlineStyle
2
Standard
70
0
3

62
256
51
90
52
90
71
2
49
-0.5
62
256
6
ByLayer
49
0.5
62
256
6
ByLayer
0
RASTERVARIABLES
5
1d2
330

100
AcDbRasterVariables
90
0
70
1
71
1
72
1
0
ENDSEC
0
EOF
