0
SECTION
2
HEADER
9
$ACADVER
1
AC1015
9
$DWGCODEPAGE
3
ANSI_1252
9
$HANDSEED
5
1fe
9
$ANGBASE
50
0
9
$ANGDIR
70
0
9
$ATTMODE
70
1
9
$AUNITS
70
0
9
$AUPREC
70
0
9
$CECOLOR
62
256
9
$CELTSCALE
40
1
9
$CELTYPE
6
ByLayer
9
$CELWEIGHT
370
18
9
$CLAYER
8
0
9
$CMLJUST
70
0
9
$CMLSCALE
40
1
9
$CMLSTYLE
2
Standard
9
$DIMSTYLE
2
Standard
9
$TEXTSIZE
40
0.2
9
$TEXTSTYLE
7
Standard
9
$LUNITS
70
2
9
$LUPREC
70
4
9
$EXTNAMES
290
1
9
$INSUNITS
70
4
9
$LTSCALE
40
1
9
$LWDISPLAY
290
1
9
$PDMODE
70
0
9
$PDSIZE
40
0
9
$PLINEGEN
70
0
0
ENDSEC
0
SECTION
2
CLASSES
0
CLASS
1
RASTERVARIABLES
2
AcDbRasterVariables
3
ISM
90
0
280
0
281
0
0
ENDSEC
0
SECTION
2
TABLES
0
TABLE
2
VPORT
5
1f4
100
AcDbSymbolTable
0
VPORT
5
1
100
AcDbSymbolTableRecord
100
AcDbViewportTableRecord
2
*Active
70
0
10
0
20
0
11
1
21
1
12
-1
22
1
13
0
23
0
14
0.5
24
0.5
15
10
25
10
16
0
26
0
36
1
17
0
27
0
37
0
0
ENDTAB
0
TABLE
2
LTYPE
5
1f5
100
AcDbSymbolTable
0
LTYPE
5
14
100
AcDbSymbolTableRecord
100
AcDbLinetypeTableRecord
70
0
2
ByBlock
3

72
65
73
0
40
0
0
LTYPE
5
15
100
AcDbSymbolTableRecord
100
AcDbLinetypeTableRecord
70
0
2
ByLayer
3

72
65
73
0
40
0
0
LTYPE
5
16
100
AcDbSymbolTableRecord
100
AcDbLinetypeTableRecord
70
0
2
Continuous
3
Solid line
72
65
73
0
40
0
0
LTYPE
5
6E
100
AcDbSymbolTableRecord
100
AcDbLinetypeTableRecord
70
0
2
CENTER
3
____ _ ____ _ ____ _ ____
72
65
73
4
40
47.5
49
22
74
0
49
-8.5
74
0
49
8.5
74
0
49
-8.5
74
0
0
LTYPE
5
6F
100
AcDbSymbolTableRecord
100
AcDbLinetypeTableRecord
70
0
2
DASHED
3
__ __ __ __ __ __ __ __ __
72
65
73
2
40
25.72
49
12.86
74
0
49
-12.86
74
0
0
ENDTAB
0
TABLE
2
LAYER
5
1f6
100
AcDbSymbolTable
0
LAYER
5
10
100
AcDbSymbolTableRecord
100
AcDbLayerTableRecord
2
0
70
0
62
7
6
Continuous
290
1
370
-3
390
0
0
LAYER
5
71
100
AcDbSymbolTableRecord
100
AcDbLayerTableRecord
2
80
70
0
62
-6
6
Continuous
290
1
370
-3
390
0
0
LAYER
5
73
100
AcDbSymbolTableRecord
100
AcDbLayerTableRecord
2
81
70
0
62
-3
6
Continuous
290
1
370
-3
390
0
0
LAYER
5
75
100
AcDbSymbolTableRecord
100
AcDbLayerTableRecord
2
1
70
0
62
4
6
Continuous
290
1
370
-3
390
0
0
LAYER
5
86
100
AcDbSymbolTableRecord
100
AcDbLayerTableRecord
2
4
70
0
62
-2
6
CENTER
290
1
370
-3
390
0
0
LAYER
5
A1
100
AcDbSymbolTableRecord
100
AcDbLayerTableRecord
2
2
70
0
62
7
6
Continuous
290
1
370
-3
390
0
0
LAYER
5
109
100
AcDbSymbolTableRecord
100
AcDbLayerTableRecord
2
Defpoints
70
0
62
7
6
Continuous
290
0
370
-3
390
0
0
LAYER
5
1e0
100
AcDbSymbolTableRecord
100
AcDbLayerTableRecord
2
SK1
70
0
62
4
6
Continuous
290
1
370
-3
390
0
0
LAYER
5
1e1
100
AcDbSymbolTableRecord
100
AcDbLayerTableRecord
2
SK4
70
0
62
2
6
CENTER
290
1
370
-3
390
0
0
LAYER
5
1e2
100
AcDbSymbolTableRecord
100
AcDbLayerTableRecord
2
SK2
70
0
62
7
6
Continuous
290
1
370
-3
390
0
0
LAYER
5
1e3
100
AcDbSymbolTableRecord
100
AcDbLayerTableRecord
2
SK6
70
0
62
5
6
Continuous
290
1
370
-3
390
0
0
ENDTAB
0
TABLE
2
STYLE
5
1f7
100
AcDbSymbolTable
0
STYLE
5
11
100
AcDbSymbolTableRecord
100
AcDbTextStyleTableRecord
2
Standard
3
txt
70
0
71
0
40
0
41
1
42
0
50
0
0
STYLE
5
EE
100
AcDbSymbolTableRecord
100
AcDbTextStyleTableRecord
2
iso_b_vert
3
simplex.shx
70
0
71
0
40
0
41
1
42
0
50
0
0
STYLE
5
EF
100
AcDbSymbolTableRecord
100
AcDbTextStyleTableRecord
2
DWGDirectTextStyle
3
simplex
70
0
71
0
40
0
41
1
42
0
50
0
0
ENDTAB
0
TABLE
2
DIMSTYLE
5
1f8
100
AcDbSymbolTable
100
AcDbDimStyleTable
0
DIMSTYLE
105
27
100
AcDbSymbolTableRecord
100
AcDbDimStyleTableRecord
2
Standard
70
0
3
<>
41
0.18
42
0.0625
44
0.18
140
0.18
147
0.09
73
0
74
0
77
1
271
2
275
0
278
52
280
0
340
11
0
ENDTAB
0
TABLE
2
VIEW
5
1f9
100
AcDbSymbolTable
0
ENDTAB
0
TABLE
2
UCS
5
1fa
100
AcDbSymbolTable
0
ENDTAB
0
TABLE
2
APPID
5
1fb
100
AcDbSymbolTable
0
APPID
5
12
100
AcDbSymbolTableRecord
100
AcDbRegAppTableRecord
2
ACAD
70
0
0
APPID
5
105
100
AcDbSymbolTableRecord
100
AcDbRegAppTableRecord
2
ACAD_DSTYLE_DIMBREAK
70
0
0
APPID
5
19F
100
AcDbSymbolTableRecord
100
AcDbRegAppTableRecord
2
ACAD_DSTYLE_DIM_LINETYPE
70
0
0
APPID
5
1A0
100
AcDbSymbolTableRecord
100
AcDbRegAppTableRecord
2
ACAD_DSTYLE_DIM_EXT1_LINETYPE
70
0
0
APPID
5
1A1
100
AcDbSymbolTableRecord
100
AcDbRegAppTableRecord
2
ACAD_DSTYLE_DIM_EXT2_LINETYPE
70
0
0
APPID
5
1DC
100
AcDbSymbolTableRecord
100
AcDbRegAppTableRecord
2
ACAD_MLEADERVER
70
0
0
ENDTAB
0
TABLE
2
BLOCK_RECORD
5
1fc
100
AcDbSymbolTable
0
BLOCK_RECORD
5
1F
100
AcDbSymbolTableRecord
100
AcDbBlockTableRecord
2
*Model_Space
340
0
70
0
0
BLOCK_RECORD
5
1B
100
AcDbSymbolTableRecord
100
AcDbBlockTableRecord
2
*Paper_Space
340
0
70
0
0
BLOCK_RECORD
5
23
100
AcDbSymbolTableRecord
100
AcDbBlockTableRecord
2
*Paper_Space0
340
0
70
0
0
BLOCK_RECORD
5
10A
100
AcDbSymbolTableRecord
100
AcDbBlockTableRecord
2
*D1
340
0
70
0
0
BLOCK_RECORD
5
116
100
AcDbSymbolTableRecord
100
AcDbBlockTableRecord
2
_U0
340
0
70
0
0
BLOCK_RECORD
5
122
100
AcDbSymbolTableRecord
100
AcDbBlockTableRecord
2
*D3
340
0
70
0
0
BLOCK_RECORD
5
12E
100
AcDbSymbolTableRecord
100
AcDbBlockTableRecord
2
_U1
340
0
70
0
0
BLOCK_RECORD
5
13A
100
AcDbSymbolTableRecord
100
AcDbBlockTableRecord
2
*D5
340
0
70
0
0
BLOCK_RECORD
5
146
100
AcDbSymbolTableRecord
100
AcDbBlockTableRecord
2
_U2
340
0
70
0
0
BLOCK_RECORD
5
152
100
AcDbSymbolTableRecord
100
AcDbBlockTableRecord
2
*D7
340
0
70
0
0
BLOCK_RECORD
5
160
100
AcDbSymbolTableRecord
100
AcDbBlockTableRecord
2
_U3
340
0
70
0
0
BLOCK_RECORD
5
16C
100
AcDbSymbolTableRecord
100
AcDbBlockTableRecord
2
*D9
340
0
70
0
0
BLOCK_RECORD
5
178
100
AcDbSymbolTableRecord
100
AcDbBlockTableRecord
2
_U4
340
0
70
0
0
ENDTAB
0
ENDSEC
0
SECTION
2
BLOCKS
0
BLOCK
5
20
100
AcDbEntity
8
0
100
AcDbBlockBegin
2
*Model_Space
70
0
10
0
20
0
30
0
3
*Model_Space
0
ENDBLK
5
21
100
AcDbEntity
8
0
100
AcDbBlockEnd
0
BLOCK
5
1C
100
AcDbEntity
8
0
100
AcDbBlockBegin
2
*Paper_Space
70
0
10
0
20
0
30
0
3
*Paper_Space
0
ENDBLK
5
1D
100
AcDbEntity
8
0
100
AcDbBlockEnd
0
BLOCK
5
24
100
AcDbEntity
8
0
100
AcDbBlockBegin
2
*Paper_Space0
70
0
10
0
20
0
30
0
3
*Paper_Space0
0
ENDBLK
5
25
100
AcDbEntity
8
0
100
AcDbBlockEnd
0
BLOCK
5
10B
100
AcDbEntity
8
0
100
AcDbBlockBegin
2
*D1
70
1
10
0
20
0
30
0
3
*D1
0
LINE
5
10D
100
AcDbEntity
8
0
62
256
6
ByLayer
370
-2
48
1
60
0
100
AcDbLine
10
0
20
-1.5875
30
0
11
0
21
-14.823398
31
0
39
0
210
0
220
0
230
1
0
LINE
5
10E
100
AcDbEntity
8
0
62
256
6
ByLayer
370
-2
48
1
60
0
100
AcDbLine
10
45.2363
20
-4.1975
30
0
11
45.2363
21
-14.823398
31
0
39
0
210
0
220
0
230
1
0
LINE
5
10F
100
AcDbEntity
8
0
62
256
6
ByLayer
370
-2
48
1
60
0
100
AcDbLine
10
3.5
20
-12.823398
30
0
11
41.7363
21
-12.823398
31
0
39
0
210
0
220
0
230
1
0
SOLID
5
110
100
AcDbEntity
8
0
62
256
6
ByLayer
370
-1
48
1
60
0
100
AcDbTrace
10
3.5
20
-12.240065
30
0
11
3.5
21
-13.406732
31
0
12
0
22
-12.823398
32
0
13
0
23
-12.823398
33
0
39
0
210
0
220
0
230
1
0
SOLID
5
111
100
AcDbEntity
8
0
62
256
6
ByLayer
370
-1
48
1
60
0
100
AcDbTrace
10
41.7363
20
-13.406732
30
0
11
41.7363
21
-12.240065
31
0
12
45.2363
22
-12.823398
32
0
13
45.2363
23
-12.823398
33
0
39
0
210
0
220
0
230
1
0
MTEXT
5
112
100
AcDbEntity
8
0
62
256
6
ByLayer
370
18
48
1
60
0
100
AcDbMText
10
22.61815
20
-5.823398
30
0
210
0
220
0
230
1
1
\A1;45.24
40
3.5
41
0
44
1
50
0
71
5
72
5
7
iso_b_vert
0
POINT
5
113
100
AcDbEntity
8
Defpoints
62
0
6
ByLayer
370
-1
48
1
60
0
100
AcDbPoint
10
0
20
0
30
0
39
0
210
0
220
0
230
1
50
360
0
POINT
5
114
100
AcDbEntity
8
Defpoints
62
0
6
ByLayer
370
-1
48
1
60
0
100
AcDbPoint
10
45.2363
20
-2.61
30
0
39
0
210
0
220
0
230
1
50
360
0
POINT
5
115
100
AcDbEntity
8
Defpoints
62
0
6
ByLayer
370
-1
48
1
60
0
100
AcDbPoint
10
45.2363
20
-12.823398
30
0
39
0
210
0
220
0
230
1
50
360
0
ENDBLK
5
10C
100
AcDbEntity
8
0
100
AcDbBlockEnd
0
BLOCK
5
11D
100
AcDbEntity
8
0
100
AcDbBlockBegin
2
_U0
70
0
10
0
20
0
30
0
3
_U0
0
MTEXT
5
117
100
AcDbEntity
8
SK2
62
256
6
ByLayer
370
13
48
1
60
0
100
AcDbMText
10
17.112318
20
-11.790765
30
0
210
0
220
0
230
1
1
\W0.7756;45,24
40
3.5
41
0
44
1.084337
50
0
71
7
72
5
7
iso_b_vert
0
LINE
5
118
100
AcDbEntity
8
SK2
62
256
6
ByLayer
370
13
48
1
60
0
100
AcDbLine
10
0
20
-1.5875
30
0
11
0
21
-14.823398
31
0
39
0
210
0
220
0
230
1
0
LINE
5
119
100
AcDbEntity
8
SK2
62
256
6
ByLayer
370
13
48
1
60
0
100
AcDbLine
10
45.2363
20
-4.1975
30
0
11
45.2363
21
-14.823398
31
0
39
0
210
0
220
0
230
1
0
LINE
5
11A
100
AcDbEntity
8
SK2
62
256
6
ByLayer
370
13
48
1
60
0
100
AcDbLine
10
0
20
-12.823398
30
0
11
45.2363
21
-12.823398
31
0
39
0
210
0
220
0
230
1
0
SOLID
5
11B
100
AcDbEntity
8
SK2
62
256
6
ByLayer
370
18
48
1
60
0
100
AcDbTrace
10
0
20
-12.823398
30
0
11
3.499998
21
-12.362615
31
0
12
3.500002
22
-13.284182
32
0
13
3.500002
23
-13.284182
33
0
39
0
210
0
220
0
230
1
0
SOLID
5
11C
100
AcDbEntity
8
SK2
62
256
6
ByLayer
370
18
48
1
60
0
100
AcDbTrace
10
45.2363
20
-12.823398
30
0
11
41.736302
21
-13.284182
31
0
12
41.736298
22
-12.362615
32
0
13
41.736298
23
-12.362615
33
0
39
0
210
0
220
0
230
1
0
ENDBLK
5
11E
100
AcDbEntity
8
0
100
AcDbBlockEnd
0
BLOCK
5
123
100
AcDbEntity
8
0
100
AcDbBlockBegin
2
*D3
70
1
10
0
20
0
30
0
3
*D3
0
LINE
5
125
100
AcDbEntity
8
0
62
256
6
ByLayer
370
-2
48
1
60
0
100
AcDbLine
10
-36
20
-4.5875
30
0
11
-36
21
-33.692985
31
0
39
0
210
0
220
0
230
1
0
LINE
5
126
100
AcDbEntity
8
0
62
256
6
ByLayer
370
-2
48
1
60
0
100
AcDbLine
10
46
20
-1.5875
30
0
11
46
21
-33.692985
31
0
39
0
210
0
220
0
230
1
0
LINE
5
127
100
AcDbEntity
8
0
62
256
6
ByLayer
370
-2
48
1
60
0
100
AcDbLine
10
-32.5
20
-31.692985
30
0
11
42.5
21
-31.692985
31
0
39
0
210
0
220
0
230
1
0
SOLID
5
128
100
AcDbEntity
8
0
62
256
6
ByLayer
370
-1
48
1
60
0
100
AcDbTrace
10
-32.5
20
-31.109652
30
0
11
-32.5
21
-32.276319
31
0
12
-36
22
-31.692985
32
0
13
-36
23
-31.692985
33
0
39
0
210
0
220
0
230
1
0
SOLID
5
129
100
AcDbEntity
8
0
62
256
6
ByLayer
370
-1
48
1
60
0
100
AcDbTrace
10
42.5
20
-32.276319
30
0
11
42.5
21
-31.109652
31
0
12
46
22
-31.692985
32
0
13
46
23
-31.692985
33
0
39
0
210
0
220
0
230
1
0
MTEXT
5
12A
100
AcDbEntity
8
0
62
256
6
ByLayer
370
18
48
1
60
0
100
AcDbMText
10
5
20
-24.692985
30
0
210
0
220
0
230
1
1
\A1;82.00
40
3.5
41
0
44
1
50
0
71
5
72
5
7
iso_b_vert
0
POINT
5
12B
100
AcDbEntity
8
Defpoints
62
0
6
ByLayer
370
-1
48
1
60
0
100
AcDbPoint
10
-36
20
-3
30
0
39
0
210
0
220
0
230
1
50
360
0
POINT
5
12C
100
AcDbEntity
8
Defpoints
62
0
6
ByLayer
370
-1
48
1
60
0
100
AcDbPoint
10
46
20
0
30
0
39
0
210
0
220
0
230
1
50
360
0
POINT
5
12D
100
AcDbEntity
8
Defpoints
62
0
6
ByLayer
370
-1
48
1
60
0
100
AcDbPoint
10
46
20
-31.692985
30
0
39
0
210
0
220
0
230
1
50
360
0
ENDBLK
5
124
100
AcDbEntity
8
0
100
AcDbBlockEnd
0
BLOCK
5
135
100
AcDbEntity
8
0
100
AcDbBlockBegin
2
_U1
70
0
10
0
20
0
30
0
3
_U1
0
MTEXT
5
12F
100
AcDbEntity
8
SK2
62
256
6
ByLayer
370
13
48
1
60
0
100
AcDbMText
10
-0.137299
20
-30.660352
30
0
210
0
220
0
230
1
1
\W0.7317;82,00
40
3.5
41
0
44
1.084337
50
0
71
7
72
5
7
iso_b_vert
0
LINE
5
130
100
AcDbEntity
8
SK2
62
256
6
ByLayer
370
13
48
1
60
0
100
AcDbLine
10
-36
20
-4.5875
30
0
11
-36
21
-33.692985
31
0
39
0
210
0
220
0
230
1
0
LINE
5
131
100
AcDbEntity
8
SK2
62
256
6
ByLayer
370
13
48
1
60
0
100
AcDbLine
10
46
20
-1.5875
30
0
11
46
21
-33.692985
31
0
39
0
210
0
220
0
230
1
0
LINE
5
132
100
AcDbEntity
8
SK2
62
256
6
ByLayer
370
13
48
1
60
0
100
AcDbLine
10
-36
20
-31.692985
30
0
11
46
21
-31.692985
31
0
39
0
210
0
220
0
230
1
0
SOLID
5
133
100
AcDbEntity
8
SK2
62
256
6
ByLayer
370
18
48
1
60
0
100
AcDbTrace
10
-36
20
-31.692985
30
0
11
-32.500002
21
-31.232202
31
0
12
-32.499998
22
-32.153769
32
0
13
-32.499998
23
-32.153769
33
0
39
0
210
0
220
0
230
1
0
SOLID
5
134
100
AcDbEntity
8
SK2
62
256
6
ByLayer
370
18
48
1
60
0
100
AcDbTrace
10
46
20
-31.692985
30
0
11
42.500002
21
-32.153769
31
0
12
42.499998
22
-31.232202
32
0
13
42.499998
23
-31.232202
33
0
39
0
210
0
220
0
230
1
0
ENDBLK
5
136
100
AcDbEntity
8
0
100
AcDbBlockEnd
0
BLOCK
5
13B
100
AcDbEntity
8
0
100
AcDbBlockBegin
2
*D5
70
1
10
0
20
0
30
0
3
*D5
0
LINE
5
13D
100
AcDbEntity
8
0
62
256
6
ByLayer
370
-2
48
1
60
0
100
AcDbLine
10
19.14
20
4.1975
30
0
11
19.14
21
16.219119
31
0
39
0
210
0
220
0
230
1
0
LINE
5
13E
100
AcDbEntity
8
0
62
256
6
ByLayer
370
-2
48
1
60
0
100
AcDbLine
10
46
20
1.5875
30
0
11
46
21
16.219119
31
0
39
0
210
0
220
0
230
1
0
LINE
5
13F
100
AcDbEntity
8
0
62
256
6
ByLayer
370
-2
48
1
60
0
100
AcDbLine
10
22.64
20
14.219119
30
0
11
42.5
21
14.219119
31
0
39
0
210
0
220
0
230
1
0
SOLID
5
140
100
AcDbEntity
8
0
62
256
6
ByLayer
370
-1
48
1
60
0
100
AcDbTrace
10
22.64
20
14.802453
30
0
11
22.64
21
13.635786
31
0
12
19.14
22
14.219119
32
0
13
19.14
23
14.219119
33
0
39
0
210
0
220
0
230
1
0
SOLID
5
141
100
AcDbEntity
8
0
62
256
6
ByLayer
370
-1
48
1
60
0
100
AcDbTrace
10
42.5
20
13.635786
30
0
11
42.5
21
14.802453
31
0
12
46
22
14.219119
32
0
13
46
23
14.219119
33
0
39
0
210
0
220
0
230
1
0
MTEXT
5
142
100
AcDbEntity
8
0
62
256
6
ByLayer
370
18
48
1
60
0
100
AcDbMText
10
32.57
20
21.219119
30
0
210
0
220
0
230
1
1
\A1;26.86
40
3.5
41
0
44
1
50
0
71
5
72
5
7
iso_b_vert
0
POINT
5
143
100
AcDbEntity
8
Defpoints
62
0
6
ByLayer
370
-1
48
1
60
0
100
AcDbPoint
10
19.14
20
2.61
30
0
39
0
210
0
220
0
230
1
50
360
0
POINT
5
144
100
AcDbEntity
8
Defpoints
62
0
6
ByLayer
370
-1
48
1
60
0
100
AcDbPoint
10
46
20
0
30
0
39
0
210
0
220
0
230
1
50
360
0
POINT
5
145
100
AcDbEntity
8
Defpoints
62
0
6
ByLayer
370
-1
48
1
60
0
100
AcDbPoint
10
46
20
14.219119
30
0
39
0
210
0
220
0
230
1
50
360
0
ENDBLK
5
13C
100
AcDbEntity
8
0
100
AcDbBlockEnd
0
BLOCK
5
14D
100
AcDbEntity
8
0
100
AcDbBlockBegin
2
_U2
70
0
10
0
20
0
30
0
3
_U2
0
MTEXT
5
147
100
AcDbEntity
8
SK2
62
256
6
ByLayer
370
13
48
1
60
0
100
AcDbMText
10
27.432701
20
15.251753
30
0
210
0
220
0
230
1
1
\W0.7317;26,86
40
3.5
41
0
44
1.084337
50
0
71
7
72
5
7
iso_b_vert
0
LINE
5
148
100
AcDbEntity
8
SK2
62
256
6
ByLayer
370
13
48
1
60
0
100
AcDbLine
10
19.14
20
4.1975
30
0
11
19.14
21
16.219119
31
0
39
0
210
0
220
0
230
1
0
LINE
5
149
100
AcDbEntity
8
SK2
62
256
6
ByLayer
370
13
48
1
60
0
100
AcDbLine
10
46
20
1.5875
30
0
11
46
21
16.219119
31
0
39
0
210
0
220
0
230
1
0
LINE
5
14A
100
AcDbEntity
8
SK2
62
256
6
ByLayer
370
13
48
1
60
0
100
AcDbLine
10
19.14
20
14.219119
30
0
11
46
21
14.219119
31
0
39
0
210
0
220
0
230
1
0
SOLID
5
14B
100
AcDbEntity
8
SK2
62
256
6
ByLayer
370
18
48
1
60
0
100
AcDbTrace
10
19.14
20
14.219119
30
0
11
22.639998
21
14.679903
31
0
12
22.640002
22
13.758335
32
0
13
22.640002
23
13.758335
33
0
39
0
210
0
220
0
230
1
0
SOLID
5
14C
100
AcDbEntity
8
SK2
62
256
6
ByLayer
370
18
48
1
60
0
100
AcDbTrace
10
46
20
14.219119
30
0
11
42.500002
21
13.758335
31
0
12
42.499998
22
14.679903
32
0
13
42.499998
23
14.679903
33
0
39
0
210
0
220
0
230
1
0
ENDBLK
5
14E
100
AcDbEntity
8
0
100
AcDbBlockEnd
0
BLOCK
5
153
100
AcDbEntity
8
0
100
AcDbBlockBegin
2
*D7
70
1
10
0
20
0
30
0
3
*D7
0
LINE
5
155
100
AcDbEntity
8
0
62
256
6
ByLayer
370
-2
48
1
60
0
100
AcDbLine
10
46
20
-1.5875
30
0
11
46
21
-17.412503
31
0
39
0
210
0
220
0
230
1
0
LINE
5
156
100
AcDbEntity
8
0
62
256
6
ByLayer
370
-2
48
1
60
0
100
AcDbLine
10
45.2363
20
-4.1975
30
0
11
45.2363
21
-17.412503
31
0
39
0
210
0
220
0
230
1
0
LINE
5
157
100
AcDbEntity
8
0
62
256
6
ByLayer
370
-2
48
1
60
0
100
AcDbLine
10
46
20
-15.412503
30
0
11
74.166667
21
-15.412503
31
0
39
0
210
0
220
0
230
1
0
LINE
5
158
100
AcDbEntity
8
0
62
256
6
ByLayer
370
-2
48
1
60
0
100
AcDbLine
10
49.5
20
-15.412503
30
0
11
53
21
-15.412503
31
0
39
0
210
0
220
0
230
1
0
LINE
5
159
100
AcDbEntity
8
0
62
256
6
ByLayer
370
-2
48
1
60
0
100
AcDbLine
10
41.7363
20
-15.412503
30
0
11
38.2363
21
-15.412503
31
0
39
0
210
0
220
0
230
1
0
SOLID
5
15A
100
AcDbEntity
8
0
62
256
6
ByLayer
370
-1
48
1
60
0
100
AcDbTrace
10
49.5
20
-14.82917
30
0
11
49.5
21
-15.995837
31
0
12
46
22
-15.412503
32
0
13
46
23
-15.412503
33
0
39
0
210
0
220
0
230
1
0
SOLID
5
15B
100
AcDbEntity
8
0
62
256
6
ByLayer
370
-1
48
1
60
0
100
AcDbTrace
10
41.7363
20
-15.995837
30
0
11
41.7363
21
-14.82917
31
0
12
45.2363
22
-15.412503
32
0
13
45.2363
23
-15.412503
33
0
39
0
210
0
220
0
230
1
0
MTEXT
5
15C
100
AcDbEntity
8
0
62
256
6
ByLayer
370
18
48
1
60
0
100
AcDbMText
10
63.583333
20
-8.412503
30
0
210
0
220
0
230
1
1
\A1;0.76
40
3.5
41
0
44
1
50
0
71
5
72
5
7
iso_b_vert
0
POINT
5
15D
100
AcDbEntity
8
Defpoints
62
0
6
ByLayer
370
-1
48
1
60
0
100
AcDbPoint
10
46
20
0
30
0
39
0
210
0
220
0
230
1
50
360
0
POINT
5
15E
100
AcDbEntity
8
Defpoints
62
0
6
ByLayer
370
-1
48
1
60
0
100
AcDbPoint
10
45.2363
20
-2.61
30
0
39
0
210
0
220
0
230
1
50
360
0
POINT
5
15F
100
AcDbEntity
8
Defpoints
62
0
6
ByLayer
370
-1
48
1
60
0
100
AcDbPoint
10
45.2363
20
-15.412503
30
0
39
0
210
0
220
0
230
1
50
360
0
ENDBLK
5
154
100
AcDbEntity
8
0
100
AcDbBlockEnd
0
BLOCK
5
167
100
AcDbEntity
8
0
100
AcDbBlockBegin
2
_U3
70
0
10
0
20
0
30
0
3
_U3
0
MTEXT
5
161
100
AcDbEntity
8
SK2
62
256
6
ByLayer
370
13
48
1
60
0
100
AcDbMText
10
52.15186
20
-14.37987
30
0
210
0
220
0
230
1
1
\W0.7150;0,76
40
3.5
41
0
44
1.084337
50
0
71
7
72
5
7
iso_b_vert
0
LINE
5
162
100
AcDbEntity
8
SK2
62
256
6
ByLayer
370
13
48
1
60
0
100
AcDbLine
10
46
20
-1.5875
30
0
11
46
21
-17.412503
31
0
39
0
210
0
220
0
230
1
0
LINE
5
163
100
AcDbEntity
8
SK2
62
256
6
ByLayer
370
13
48
1
60
0
100
AcDbLine
10
45.2363
20
-4.1975
30
0
11
45.2363
21
-17.412503
31
0
39
0
210
0
220
0
230
1
0
LINE
5
164
100
AcDbEntity
8
SK2
62
256
6
ByLayer
370
13
48
1
60
0
100
AcDbLine
10
36.4863
20
-15.412503
30
0
11
59.996491
21
-15.412503
31
0
39
0
210
0
220
0
230
1
0
SOLID
5
165
100
AcDbEntity
8
SK2
62
256
6
ByLayer
370
18
48
1
60
0
100
AcDbTrace
10
46
20
-15.412503
30
0
11
49.499998
21
-14.951719
31
0
12
49.500002
22
-15.873287
32
0
13
49.500002
23
-15.873287
33
0
39
0
210
0
220
0
230
1
0
SOLID
5
166
100
AcDbEntity
8
SK2
62
256
6
ByLayer
370
18
48
1
60
0
100
AcDbTrace
10
45.2363
20
-15.412503
30
0
11
41.736302
21
-15.873287
31
0
12
41.736298
22
-14.951719
32
0
13
41.736298
23
-14.951719
33
0
39
0
210
0
220
0
230
1
0
ENDBLK
5
168
100
AcDbEntity
8
0
100
AcDbBlockEnd
0
BLOCK
5
16D
100
AcDbEntity
8
0
100
AcDbBlockBegin
2
*D9
70
1
10
0
20
0
30
0
3
*D9
0
LINE
5
16F
100
AcDbEntity
8
0
62
256
6
ByLayer
370
-2
48
1
60
0
100
AcDbLine
10
-36
20
-4.5875
30
0
11
-36
21
-23.343428
31
0
39
0
210
0
220
0
230
1
0
LINE
5
170
100
AcDbEntity
8
0
62
256
6
ByLayer
370
-2
48
1
60
0
100
AcDbLine
10
45.2363
20
-4.1975
30
0
11
45.2363
21
-23.343428
31
0
39
0
210
0
220
0
230
1
0
LINE
5
171
100
AcDbEntity
8
0
62
256
6
ByLayer
370
-2
48
1
60
0
100
AcDbLine
10
-32.5
20
-21.343428
30
0
11
41.7363
21
-21.343428
31
0
39
0
210
0
220
0
230
1
0
SOLID
5
172
100
AcDbEntity
8
0
62
256
6
ByLayer
370
-1
48
1
60
0
100
AcDbTrace
10
-32.5
20
-20.760095
30
0
11
-32.5
21
-21.926762
31
0
12
-36
22
-21.343428
32
0
13
-36
23
-21.343428
33
0
39
0
210
0
220
0
230
1
0
SOLID
5
173
100
AcDbEntity
8
0
62
256
6
ByLayer
370
-1
48
1
60
0
100
AcDbTrace
10
41.7363
20
-21.926762
30
0
11
41.7363
21
-20.760095
31
0
12
45.2363
22
-21.343428
32
0
13
45.2363
23
-21.343428
33
0
39
0
210
0
220
0
230
1
0
MTEXT
5
174
100
AcDbEntity
8
0
62
256
6
ByLayer
370
18
48
1
60
0
100
AcDbMText
10
4.61815
20
-14.343428
30
0
210
0
220
0
230
1
1
\A1;81.24
40
3.5
41
0
44
1
50
0
71
5
72
5
7
iso_b_vert
0
POINT
5
175
100
AcDbEntity
8
Defpoints
62
0
6
ByLayer
370
-1
48
1
60
0
100
AcDbPoint
10
-36
20
-3
30
0
39
0
210
0
220
0
230
1
50
360
0
POINT
5
176
100
AcDbEntity
8
Defpoints
62
0
6
ByLayer
370
-1
48
1
60
0
100
AcDbPoint
10
45.2363
20
-2.61
30
0
39
0
210
0
220
0
230
1
50
360
0
POINT
5
177
100
AcDbEntity
8
Defpoints
62
0
6
ByLayer
370
-1
48
1
60
0
100
AcDbPoint
10
45.2363
20
-21.343428
30
0
39
0
210
0
220
0
230
1
50
360
0
ENDBLK
5
16E
100
AcDbEntity
8
0
100
AcDbBlockEnd
0
BLOCK
5
17F
100
AcDbEntity
8
0
100
AcDbBlockBegin
2
_U4
70
0
10
0
20
0
30
0
3
_U4
0
MTEXT
5
179
100
AcDbEntity
8
SK2
62
256
6
ByLayer
370
13
48
1
60
0
100
AcDbMText
10
-0.265982
20
-20.310795
30
0
210
0
220
0
230
1
1
\W0.6898;81,24
40
3.5
41
0
44
1.084337
50
0
71
7
72
5
7
iso_b_vert
0
LINE
5
17A
100
AcDbEntity
8
SK2
62
256
6
ByLayer
370
13
48
1
60
0
100
AcDbLine
10
-36
20
-4.5875
30
0
11
-36
21
-23.343428
31
0
39
0
210
0
220
0
230
1
0
LINE
5
17B
100
AcDbEntity
8
SK2
62
256
6
ByLayer
370
13
48
1
60
0
100
AcDbLine
10
45.2363
20
-4.1975
30
0
11
45.2363
21
-23.343428
31
0
39
0
210
0
220
0
230
1
0
LINE
5
17C
100
AcDbEntity
8
SK2
62
256
6
ByLayer
370
13
48
1
60
0
100
AcDbLine
10
-36
20
-21.343428
30
0
11
45.2363
21
-21.343428
31
0
39
0
210
0
220
0
230
1
0
SOLID
5
17D
100
AcDbEntity
8
SK2
62
256
6
ByLayer
370
18
48
1
60
0
100
AcDbTrace
10
-36
20
-21.343428
30
0
11
-32.500002
21
-20.882645
31
0
12
-32.499998
22
-21.804212
32
0
13
-32.499998
23
-21.804212
33
0
39
0
210
0
220
0
230
1
0
SOLID
5
17E
100
AcDbEntity
8
SK2
62
256
6
ByLayer
370
18
48
1
60
0
100
AcDbTrace
10
45.2363
20
-21.343428
30
0
11
41.736302
21
-21.804212
31
0
12
41.736298
22
-20.882645
32
0
13
41.736298
23
-20.882645
33
0
39
0
210
0
220
0
230
1
0
ENDBLK
5
180
100
AcDbEntity
8
0
100
AcDbBlockEnd
0
ENDSEC
0
SECTION
2
ENTITIES
0
ARC
5
AA
100
AcDbEntity
8
1
62
256
6
ByLayer
370
18
48
1
60
0
100
AcDbCircle
39
0
10
1.077934
20
-3.382395
30
0
40
0.800000000000001
210
0
220
0
230
1
100
AcDbArc
50
89.96419
51
132.353967
0
ARC
5
AB
100
AcDbEntity
8
1
62
256
6
ByLayer
370
18
48
1
60
0
100
AcDbCircle
39
0
10
0
20
-2.2
30
0
40
0.800000000000001
210
0
220
0
230
1
100
AcDbArc
50
270
51
312.353967
0
ARC
5
AC
100
AcDbEntity
8
1
62
256
6
ByLayer
370
18
48
1
60
0
100
AcDbCircle
39
0
10
1.077934
20
3.382395
30
0
40
0.800000000000001
210
0
220
0
230
1
100
AcDbArc
50
227.646033
51
270.03581
0
ARC
5
AD
100
AcDbEntity
8
1
62
256
6
ByLayer
370
18
48
1
60
0
100
AcDbCircle
39
0
10
0
20
2.2
30
0
40
0.800000000000001
210
0
220
0
230
1
100
AcDbArc
50
47.646033
51
90
0
ELLIPSE
5
AE
100
AcDbEntity
8
1
62
256
6
ByLayer
370
13
48
1
60
0
100
AcDbEllipse
10
4.18359
20
-0.093807
30
0
11
0.0416554420336682
21
0.0909110782522115
31
0
210
0
220
0
230
1
40
0.421413
41
1.7255307016423
42
3.07045275453387
0
ELLIPSE
5
AF
100
AcDbEntity
8
1
62
256
6
ByLayer
370
13
48
1
60
0
100
AcDbEllipse
10
4.250259
20
-0.125392
30
0
11
0.0440320773817808
21
0.0897840529350556
31
0
210
0
220
0
230
1
40
0.020384
41
1.52533008535893
42
3.06524536885058
0
POINT
5
70
100
AcDbEntity
8
80
62
256
6
ByLayer
370
18
48
1
60
0
100
AcDbPoint
10
0
20
0
30
0
39
0
210
0
220
0
230
1
50
360
0
POINT
5
72
100
AcDbEntity
8
81
62
256
6
ByLayer
370
18
48
1
60
0
100
AcDbPoint
10
46
20
0
30
0
39
0
210
0
220
0
230
1
50
360
0
POINT
5
74
100
AcDbEntity
8
1
62
256
6
ByLayer
370
18
48
1
60
1
100
AcDbPoint
10
45.2363
20
-2.61
30
0
39
0
210
0
220
0
230
1
50
360
0
POINT
5
76
100
AcDbEntity
8
1
62
256
6
ByLayer
370
18
48
1
60
1
100
AcDbPoint
10
-36
20
-3
30
0
39
0
210
0
220
0
230
1
50
360
0
POINT
5
77
100
AcDbEntity
8
1
62
256
6
ByLayer
370
18
48
1
60
1
100
AcDbPoint
10
19.14
20
2.61
30
0
39
0
210
0
220
0
230
1
50
360
0
POINT
5
78
100
AcDbEntity
8
1
62
256
6
ByLayer
370
18
48
1
60
1
100
AcDbPoint
10
45.2363
20
-2.61
30
0
39
0
210
0
220
0
230
1
50
360
0
POINT
5
79
100
AcDbEntity
8
1
62
256
6
ByLayer
370
18
48
1
60
1
100
AcDbPoint
10
-36
20
-3
30
0
39
0
210
0
220
0
230
1
50
360
0
POINT
5
7A
100
AcDbEntity
8
1
62
256
6
ByLayer
370
18
48
1
60
1
100
AcDbPoint
10
45.2363
20
-2.61
30
0
39
0
210
0
220
0
230
1
50
360
0
SPLINE
5
B0
100
AcDbEntity
8
1
62
256
6
ByLayer
370
18
48
1
60
0
100
AcDbSpline
70
4
71
3
72
8
73
4
40
0
40
0
40
0
40
0
40
1
40
1
40
1
40
1
41
1
10
4.03146090059479
20
2.58271786747741
30
0
41
1
10
3.98429678612789
20
2.58363171213023
30
0
41
1
10
3.93719462522912
20
2.58411945855994
30
0
41
1
10
3.89016324628534
20
2.58415436581279
30
0
0
SPLINE
5
B1
100
AcDbEntity
8
1
62
256
6
ByLayer
370
18
48
1
60
0
100
AcDbSpline
70
4
71
3
72
8
73
4
40
0
40
0
40
0
40
0
40
1
40
1
40
1
40
1
41
1
10
7.11653949014396
20
1.92360815718092
30
0
41
1
10
7.40274747320353
20
1.99222531405775
30
0
41
1
10
7.68672503234114
20
2.06042145991344
30
0
41
1
10
7.96917412955622
20
2.12534946270705
30
0
0
SPLINE
5
B2
100
AcDbEntity
8
1
62
256
6
ByLayer
370
18
48
1
60
0
100
AcDbSpline
70
4
71
3
72
8
73
4
40
0
40
0
40
0
40
0
40
1
40
1
40
1
40
1
41
1
10
45.106373308126
20
2.59958335235885
30
0
41
1
10
44.9514936660789
20
2.60640727165565
30
0
41
1
10
44.796682620632
20
2.60975273937572
30
0
41
1
10
44.6418358358165
20
2.60962855497118
30
0
0
SPLINE
5
B3
100
AcDbEntity
8
1
62
256
6
ByLayer
370
18
48
1
60
0
100
AcDbSpline
70
4
71
3
72
36
73
32
40
0
40
0
40
0
40
0
40
0.0098326664111858
40
0.0098326664111858
40
0.152215730482877
40
0.152215730482877
40
0.223407262518724
40
0.223407262518724
40
0.294598794554571
40
0.294598794554571
40
0.436981858626265
40
0.436981858626265
40
0.472577624644189
40
0.472577624644189
40
0.508173390662112
40
0.508173390662112
40
0.579364922697961
40
0.579364922697961
40
0.650556454733809
40
0.650556454733809
40
0.686152220751733
40
0.686152220751733
40
0.721747986769657
40
0.721747986769657
40
0.864131050841354
40
0.864131050841354
40
0.899726816859279
40
0.899726816859279
40
0.935322582877203
40
0.935322582877203
40
1
40
1
40
1
40
1
41
1
10
29.9188780367102
20
-2.47454233456932
30
0
41
1
10
29.859541195463
20
-2.48362179450859
30
0
41
1
10
29.8001918944359
20
-2.49222133402887
30
0
41
1
10
28.88173095241
20
-2.61771848150224
30
0
41
1
10
28.0371475859539
20
-2.63030540790163
30
0
41
1
10
26.7621286661442
20
-2.49524759806476
30
0
41
1
10
26.3357415865608
20
-2.42466748063236
30
0
41
1
10
25.4751600112635
20
-2.23400409561825
30
0
41
1
10
25.0484113336609
20
-2.115519942079
30
0
41
1
10
23.7729309860098
20
-1.70245921570842
30
0
41
1
10
22.9283853213443
20
-1.34935409517766
30
0
41
1
10
21.8545734238632
20
-0.850957632728296
30
0
41
1
10
21.6392638578378
20
-0.748542436910441
30
0
41
1
10
21.2113951667755
20
-0.541722110181411
30
0
41
1
10
20.9981952030768
20
-0.43706627464357
30
0
41
1
10
20.3598160769712
20
-0.121384302519857
30
0
41
1
10
19.9358752886645
20
0.0913927858282761
30
0
41
1
10
19.0865399883642
20
0.511840828169824
30
0
41
1
10
18.6611221426025
20
0.719462304850367
30
0
41
1
10
18.0178988863013
20
1.01885679510502
30
0
41
1
10
17.8022302439802
20
1.11695935634202
30
0
41
1
10
17.3735560175402
20
1.30572969666045
30
0
41
1
10
17.1600029994301
20
1.39659442177256
30
0
41
1
10
16.0946892694879
20
1.83116004399767
30
0
41
1
10
15.2506063036842
20
2.11568668053138
30
0
41
1
10
14.1802299099104
20
2.35679031615936
30
0
41
1
10
13.9647965781245
20
2.39945029243785
30
0
41
1
10
13.5352352579899
20
2.47197985996021
30
0
41
1
10
13.3213200174534
20
2.50184169398952
30
0
41
1
10
12.7203132977845
20
2.56785190697369
30
0
41
1
10
12.3346192524735
20
2.58920373445665
30
0
41
1
10
11.9489049568156
20
2.58918637273416
30
0
0
SPLINE
5
B4
100
AcDbEntity
8
1
62
256
6
ByLayer
370
13
48
1
60
0
100
AcDbSpline
70
4
71
3
72
8
73
4
40
0
40
0
40
0
40
0
40
1
40
1
40
1
40
1
41
1
10
4.03066226728274
20
-0.0350446809347034
30
0
41
1
10
4.05413585019198
20
-0.0583044397777712
30
0
41
1
10
4.09116024622278
20
-0.0780686078575457
30
0
41
1
10
4.13931684634568
20
-0.0904735406359407
30
0
0
SPLINE
5
B5
100
AcDbEntity
8
1
62
256
6
ByLayer
370
18
48
1
60
0
100
AcDbSpline
70
4
71
3
72
12
73
8
40
0
40
0
40
0
40
0
40
0.25
40
0.25
40
0.5
40
0.5
40
1
40
1
40
1
40
1
41
1
10
44.892105944919
20
0.670808431750004
30
0
41
1
10
44.8918391990745
20
0.680797601649829
30
0
41
1
10
44.8943139072077
20
0.690836777834505
30
0
41
1
10
44.9047980938113
20
0.708180172284699
30
0
41
1
10
44.9127891823806
20
0.715430746044802
30
0
41
1
10
44.9396167526401
20
0.731046077618885
30
0
41
1
10
44.9608797483709
20
0.734323204887346
30
0
41
1
10
44.9815740379504
20
0.733785862352164
30
0
0
SPLINE
5
B6
100
AcDbEntity
8
1
62
256
6
ByLayer
370
18
48
1
60
0
100
AcDbSpline
70
4
71
3
72
35
73
31
40
0
40
0
40
0
40
0
40
0.139805916605871
40
0.139805916605871
40
0.29658496747106
40
0.29658496747106
40
0.453364018336249
40
0.453364018336249
40
0.531753543768843
40
0.531753543768843
40
0.570948306485141
40
0.570948306485141
40
0.580746997164215
40
0.585646342503752
40
0.585646342503752
40
0.590545687843289
40
0.590545687843289
40
0.595445033182826
40
0.595445033182826
40
0.600344378522363
40
0.600344378522363
40
0.610143069201438
40
0.610143069201438
40
0.688532594634032
40
0.688532594634032
40
0.766922120066627
40
0.766922120066627
40
0.923701170931815
40
0.923701170931815
40
1
40
1
40
1
40
1
41
1
10
7.96917412955622
20
2.12534946270676
30
0
41
1
10
7.96917412955622
20
1.97298587829039
30
0
41
1
10
7.96917412955619
20
1.82909686265518
30
0
41
1
10
7.96917412955619
20
1.54166085709412
30
0
41
1
10
7.96917412955622
20
1.40466994394197
30
0
41
1
10
7.96917412955622
20
1.15903723340779
30
0
41
1
10
7.96917412955622
20
1.05016118031838
30
0
41
1
10
7.96917412955622
20
0.907426107036429
30
0
41
1
10
7.96917412955622
20
0.863312336969273
30
0
41
1
10
7.96917412955622
20
0.803035015372359
30
0
41
1
10
7.96917412955622
20
0.783888263260053
30
0
41
1
10
7.96917412955622
20
0.761143119013013
30
0
41
1
10
7.96917412955622
20
0.754409926743307
30
0
41
1
10
7.96917412955622
20
0.747811994240692
30
0
41
1
10
7.96917412955622
20
0.743443405369788
30
0
41
1
10
7.96917412955619
20
0.741127377926119
30
0
41
1
10
7.96917412955619
20
0.739091466525252
30
0
41
1
10
7.96917412955622
20
0.739049734800091
30
0
41
1
10
7.96917412955622
20
0.740983669840148
30
0
41
1
10
7.96917412955622
20
0.743210433317643
30
0
41
1
10
7.96917412955622
20
0.75079050650433
30
0
41
1
10
7.96917412955622
20
0.755910352460859
30
0
41
1
10
7.96917412955622
20
0.802570032870619
30
0
41
1
10
7.96917412955622
20
0.848168374542411
30
0
41
1
10
7.96917412955622
20
0.947581583047878
30
0
41
1
10
7.96917412955622
20
1.00157053152907
30
0
41
1
10
7.96917412955622
20
1.17436456969855
30
0
41
1
10
7.96917412955625
20
1.30432110290056
30
0
41
1
10
7.96917412955625
20
1.52085259431539
30
0
41
1
10
7.96917412955622
20
1.59586265663867
30
0
41
1
10
7.96917412955622
20
1.67394126225645
30
0
0
SPLINE
5
B7
100
AcDbEntity
8
1
62
256
6
ByLayer
370
18
48
1
60
0
100
AcDbSpline
70
4
71
3
72
78
73
74
40
0
40
0
40
0
40
0
40
0.0006542300555006
40
0.0006542300555006
40
0.0279141985789263
40
0.0279141985789263
40
0.0824341356257777
40
0.0824341356257777
40
0.136954072672629
40
0.136954072672629
40
0.164214041196055
40
0.164214041196055
40
0.191474009719481
40
0.191474009719481
40
0.218733978242906
40
0.218733978242906
40
0.245993946766332
40
0.245993946766332
40
0.273253915289758
40
0.273253915289758
40
0.300513883813183
40
0.300513883813183
40
0.327773852336609
40
0.327773852336609
40
0.355033820860035
40
0.355033820860035
40
0.38229378938346
40
0.38229378938346
40
0.409553757906886
40
0.409553757906886
40
0.436813726430312
40
0.436813726430312
40
0.464073694953738
40
0.464073694953738
40
0.491333663477163
40
0.491333663477163
40
0.518593632000589
40
0.518593632000589
40
0.545853600524015
40
0.545853600524015
40
0.57311356904744
40
0.57311356904744
40
0.600373537570866
40
0.600373537570866
40
0.627633506094292
40
0.627633506094292
40
0.654893474617718
40
0.654893474617718
40
0.682153443141143
40
0.682153443141143
40
0.709413411664569
40
0.709413411664569
40
0.736673380187995
40
0.736673380187995
40
0.763933348711421
40
0.763933348711421
40
0.791193317234848
40
0.791193317234848
40
0.818453285758274
40
0.818453285758274
40
0.845713254281701
40
0.845713254281701
40
0.872973222805127
40
0.872973222805127
40
0.900233191328554
40
0.900233191328554
40
0.92749315985198
40
0.92749315985198
40
0.954753128375407
40
0.954753128375407
40
0.982013096898833
40
0.982013096898833
40
1
40
1
40
1
40
1
41
1
10
39.9622169620886
20
-1.91823082821409
30
0
41
1
10
39.9579035644295
20
-1.91952737292476
30
0
41
1
10
39.9535904180894
20
-1.92082203955943
30
0
41
1
10
39.7695710698404
20
-1.97598199179063
30
0
41
1
10
39.590388688165
20
-2.02669838809959
30
0
41
1
10
39.0528937763264
20
-2.1660682019415
30
0
41
1
10
38.6945753295348
20
-2.24196416458153
30
0
41
1
10
37.9777656750927
20
-2.36647650131232
30
0
41
1
10
37.6181227780289
20
-2.41292991296842
30
0
41
1
10
37.0761344309726
20
-2.4558887657995
30
0
41
1
10
36.8949858740462
20
-2.46559251972977
30
0
41
1
10
36.5306073541012
20
-2.47439914817147
30
0
41
1
10
36.3485151984295
20
-2.47411023220423
30
0
41
1
10
35.9858141887941
20
-2.46624974196129
30
0
41
1
10
35.8051454583882
20
-2.45824959855696
30
0
41
1
10
35.44428302407
20
-2.43281638687239
30
0
41
1
10
35.2640746001744
20
-2.41516097877701
30
0
41
1
10
34.9039017555053
20
-2.37250122984639
30
0
41
1
10
34.7240788312386
20
-2.34728762413789
30
0
41
1
10
34.3645962779052
20
-2.28780013165519
30
0
41
1
10
34.1847298351902
20
-2.25338741445827
30
0
41
1
10
33.8243351146502
20
-2.17638060670203
30
0
41
1
10
33.6439260506878
20
-2.13465592848823
30
0
41
1
10
33.2827921778466
20
-2.04313597715705
30
0
41
1
10
33.1019647958425
20
-1.99332587508729
30
0
41
1
10
32.7386738325617
20
-1.88574100537207
30
0
41
1
10
32.5558871392257
20
-1.8281954105376
30
0
41
1
10
32.1917638903867
20
-1.70786844686074
30
0
41
1
10
32.0105280702572
20
-1.6444157471941
30
0
41
1
10
31.6488096404163
20
-1.51191957553829
30
0
41
1
10
31.4683143845438
20
-1.44274627511629
30
0
41
1
10
31.1077262722087
20
-1.30061518566364
30
0
41
1
10
30.9277836620726
20
-1.22731946940391
30
0
41
1
10
30.5683223400335
20
-1.07591113955507
30
0
41
1
10
30.3886086239468
20
-0.998166924787427
30
0
41
1
10
30.0287747998126
20
-0.839663891489039
30
0
41
1
10
29.8487348144977
20
-0.759130115423801
30
0
41
1
10
29.4885577368045
20
-0.594573869353837
30
0
41
1
10
29.308326436796
20
-0.510676047225076
30
0
41
1
10
28.946546451496
20
-0.341534016505591
30
0
41
1
10
28.7650350787609
20
-0.256295734042226
30
0
41
1
10
28.4012508143114
20
-0.0843517937791489
30
0
41
1
10
28.2187371044617
20
0.0028159387603068
30
0
41
1
10
27.8555658731322
20
0.175318234345553
30
0
41
1
10
27.6744933956117
20
0.260701924495606
30
0
41
1
10
27.3129792451342
20
0.429928716707792
30
0
41
1
10
27.1326722446397
20
0.514077501118663
30
0
41
1
10
26.7727733718428
20
0.680322553647812
30
0
41
1
10
26.5929886922872
20
0.76201685568202
30
0
41
1
10
26.2332782190795
20
0.921692008651604
30
0
41
1
10
26.0533984159341
20
1.00008398561278
30
0
41
1
10
25.6938055367197
20
1.15400192579889
30
0
41
1
10
25.513992103773
20
1.22915895571828
30
0
41
1
10
25.1533418232244
20
1.37394066917221
30
0
41
1
10
24.9725685222448
20
1.44382629481092
30
0
41
1
10
24.6104043901674
20
1.57954741772517
30
0
41
1
10
24.4291091988778
20
1.64542564086426
30
0
41
1
10
24.0648115695191
20
1.77013457387224
30
0
41
1
10
23.8825622175977
20
1.82847445111568
30
0
41
1
10
23.5195170150806
20
1.93908554528971
30
0
41
1
10
23.3385452278614
20
1.99138277927608
30
0
41
1
10
22.9775865800899
20
2.08806379197358
30
0
41
1
10
22.7974077368941
20
2.13191519301191
30
0
41
1
10
22.4371285598791
20
2.21190583347737
30
0
41
1
10
22.2570581656214
20
2.24840411308364
30
0
41
1
10
21.8973130107414
20
2.31391558373829
30
0
41
1
10
21.717550349662
20
2.3422003889616
30
0
41
1
10
21.3572220596312
20
2.38919195382798
30
0
41
1
10
21.1767696276891
20
2.40884496932679
30
0
41
1
10
20.8153815588481
20
2.44015133728973
30
0
41
1
10
20.6346074024551
20
2.45199458179485
30
0
41
1
10
20.3332856243042
20
2.46249958199087
30
0
41
1
10
20.2130102343248
20
2.46452744680727
30
0
41
1
10
20.0926804973377
20
2.46474541998637
30
0
0
SPLINE
5
B8
100
AcDbEntity
8
1
62
256
6
ByLayer
370
18
48
1
60
0
100
AcDbSpline
70
4
71
3
72
8
73
4
40
0
40
0
40
0
40
0
40
1
40
1
40
1
40
1
41
1
10
44.9815740379504
20
0.733785862352164
30
0
41
1
10
45.3069180148478
20
0.725338065355373
30
0
41
1
10
45.6323624546804
20
0.716297634919641
30
0
41
1
10
45.9569636569675
20
0.712587006444778
30
0
0
SPLINE
5
B9
100
AcDbEntity
8
1
62
256
6
ByLayer
370
18
48
1
60
0
100
AcDbSpline
70
4
71
3
72
22
73
18
40
0
40
0
40
0
40
0
40
0.129123958813562
40
0.129123958813562
40
0.274779891927704
40
0.274779891927704
40
0.347607858484775
40
0.347607858484775
40
0.420435825041846
40
0.420435825041846
40
0.711747691270135
40
0.711747691270135
40
0.784575657827208
40
0.784575657827208
40
0.857403624384281
40
0.857403624384281
40
1
40
1
40
1
40
1
41
1
10
15.8796511514091
20
1.86148528410368
30
0
41
1
10
16.2564111383323
20
1.73451108084799
30
0
41
1
10
16.6320588365019
20
1.59309800132689
30
0
41
1
10
17.4330030496167
20
1.26780721601935
30
0
41
1
10
17.8582743823701
20
1.08033506126998
30
0
41
1
10
18.5012645453206
20
0.783605538287134
30
0
41
1
10
18.7168091650603
20
0.681830283354714
30
0
41
1
10
19.1451413292035
20
0.476438877465171
30
0
41
1
10
19.3585251719335
20
0.372668054005061
30
0
41
1
10
20.4230105063808
20
-0.148482250423115
30
0
41
1
10
21.266890333691
20
-0.572520198113352
30
0
41
1
10
22.3365352917311
20
-1.06088787047045
30
0
41
1
10
22.5516825741602
20
-1.15670991438807
30
0
41
1
10
22.9812924631974
20
-1.34168671837682
30
0
41
1
10
23.195690721495
20
-1.43080332788824
30
0
41
1
10
23.8295280192808
20
-1.68296527980618
30
0
41
1
10
24.2491563285059
20
-1.83510502743067
30
0
41
1
10
24.6699267945637
20
-1.96829460711521
30
0
0
SPLINE
5
BA
100
AcDbEntity
8
1
62
256
6
ByLayer
370
13
48
1
60
0
100
AcDbSpline
70
4
71
3
72
16
73
12
40
0
40
0
40
0
40
0
40
0.0052797154319433
40
0.0052797154319433
40
0.507981083611581
40
0.507981083611581
40
0.759331767701397
40
0.759331767701397
40
0.885007109746306
40
0.885007109746306
40
1
40
1
40
1
40
1
41
1
10
24.6699267942969
20
-1.96829460703077
30
0
41
1
10
24.6789548740196
20
-1.97115233170655
30
0
41
1
10
24.6879834795489
20
-1.97400133242897
30
0
41
1
10
25.556710848449
20
-2.24727096926691
30
0
41
1
10
26.4010333209826
20
-2.43155284610981
30
0
41
1
10
27.6739460350217
20
-2.55733111995823
30
0
41
1
10
28.0993190785919
20
-2.57427403705401
30
0
41
1
10
28.7426309276998
20
-2.56036903000825
30
0
41
1
10
28.9578921720449
20
-2.54914211546165
30
0
41
1
10
29.367390695833
20
-2.51542077321381
30
0
41
1
10
29.5624064710931
20
-2.49398329136483
30
0
41
1
10
29.7570252973706
20
-2.46743531184518
30
0
0
SPLINE
5
BB
100
AcDbEntity
8
1
62
256
6
ByLayer
370
13
48
1
60
0
100
AcDbSpline
70
4
71
3
72
8
73
4
40
0
40
0
40
0
40
0
40
1
40
1
40
1
40
1
41
1
10
4.13874396000222
20
-0.184124973113086
30
0
41
1
10
4.13893456266274
20
-0.183830522896841
30
0
41
1
10
4.13912552480738
20
-0.18353564617999
30
0
41
1
10
4.13931684634565
20
-0.183240339520125
30
0
0
SPLINE
5
BC
100
AcDbEntity
8
1
62
256
6
ByLayer
370
13
48
1
60
0
100
AcDbSpline
70
4
71
3
72
8
73
4
40
0
40
0
40
0
40
0
40
1
40
1
40
1
40
1
41
1
10
4.13931684634568
20
-0.0904735406359407
30
0
41
1
10
4.17421207080065
20
-0.0994624001587283
30
0
41
1
10
4.21186368666932
20
-0.109508720372958
30
0
41
1
10
4.25043250486348
20
-0.120414590217479
30
0
0
SPLINE
5
BD
100
AcDbEntity
8
1
62
256
6
ByLayer
370
18
48
1
60
0
100
AcDbSpline
70
4
71
3
72
26
73
22
40
0
40
0
40
0
40
0
40
0.0624999999999983
40
0.0624999999999983
40
0.124999999999997
40
0.124999999999997
40
0.187499999999995
40
0.187499999999995
40
0.249999999999993
40
0.249999999999993
40
0.37499999999999
40
0.37499999999999
40
0.437499999999988
40
0.437499999999988
40
0.499999999999987
40
0.499999999999987
40
0.62499999999999
40
0.62499999999999
40
0.749999999999993
40
0.749999999999993
40
1
40
1
40
1
40
1
41
1
10
42.6596982146909
20
0.89168172049429
30
0
41
1
10
42.6552601422076
20
0.813665916470995
30
0
41
1
10
42.6565595221449
20
0.734308573524572
30
0
41
1
10
42.6706514632045
20
0.572906536385091
30
0
41
1
10
42.6836606119725
20
0.49025313319558
30
0
41
1
10
42.7198680799812
20
0.328277142921451
30
0
41
1
10
42.7430413266371
20
0.248321814198846
30
0
41
1
10
42.7985194060221
20
0.0902712728824042
30
0
41
1
10
42.8311107496016
20
0.0116270955848847
30
0
41
1
10
42.9392939857137
20
-0.216872515494259
30
0
41
1
10
43.0247520857572
20
-0.359456486420186
30
0
41
1
10
43.1677808610448
20
-0.562482625977964
30
0
41
1
10
43.2182117549382
20
-0.628600449700599
30
0
41
1
10
43.3220187180686
20
-0.755633816448096
30
0
41
1
10
43.3754475136275
20
-0.816673003630086
30
0
41
1
10
43.5396745810537
20
-0.993389901712817
30
0
41
1
10
43.6543785763951
20
-1.10272372861806
30
0
41
1
10
43.8921793289771
20
-1.30775941174645
30
0
41
1
10
44.0159015559435
20
-1.40381837314394
30
0
41
1
10
44.3920268242325
20
-1.67003334291505
30
0
41
1
10
44.6499743878733
20
-1.81981474635501
30
0
41
1
10
44.9136645384021
20
-1.94749890967714
30
0
0
SPLINE
5
BE
100
AcDbEntity
8
1
62
256
6
ByLayer
370
18
48
1
60
0
100
AcDbSpline
70
4
71
3
72
8
73
4
40
0
40
0
40
0
40
0
40
1
40
1
40
1
40
1
41
1
10
4.13874396000261
20
-0.184124973112461
30
0
41
1
10
4.12320184288831
20
-0.176420320307528
30
0
41
1
10
4.10872781868682
20
-0.167251479018631
30
0
41
1
10
4.09527945750574
20
-0.156673759588216
30
0
0
SPLINE
5
BF
100
AcDbEntity
8
1
62
256
6
ByLayer
370
18
48
1
60
0
100
AcDbSpline
70
4
71
3
72
16
73
12
40
0
40
0
40
0
40
0
40
0.249999999999999
40
0.249999999999999
40
0.499999999999998
40
0.499999999999998
40
0.749999999999997
40
0.749999999999997
40
0.874999999999998
40
0.874999999999998
40
1
40
1
40
1
40
1
41
1
10
44.9136645384021
20
-1.94749890967714
30
0
41
1
10
44.9131934067881
20
-2.0401327338675
30
0
41
1
10
44.9171288301251
20
-2.12118198709888
30
0
41
1
10
44.9340935739071
20
-2.26051047503466
30
0
41
1
10
44.9473458780876
20
-2.31900249847476
30
0
41
1
10
44.9827604015458
20
-2.40843257013188
30
0
41
1
10
45.0049146906442
20
-2.44011426763422
30
0
41
1
10
45.0453921623977
20
-2.46841137204814
30
0
41
1
10
45.0601605658214
20
-2.4746193378285
30
0
41
1
10
45.0918988450959
20
-2.48039617740412
30
0
41
1
10
45.1088797946733
20
-2.48000441149838
30
0
41
1
10
45.1270135867562
20
-2.47639148561126
30
0
0
SPLINE
5
C0
100
AcDbEntity
8
1
62
256
6
ByLayer
370
18
48
1
60
0
100
AcDbSpline
70
4
71
3
72
16
73
12
40
0
40
0
40
0
40
0
40
0.369480566501717
40
0.369480566501717
40
0.554220849752573
40
0.554220849752573
40
0.738961133003429
40
0.738961133003429
40
0.923701416254285
40
0.923701416254285
40
1
40
1
40
1
40
1
41
1
10
7.96917412955622
20
-2.12534946270702
30
0
41
1
10
8.35975394892904
20
-2.23788804523241
30
0
41
1
10
8.74978787968288
20
-2.32830505186155
30
0
41
1
10
9.32987806747832
20
-2.43683484307556
30
0
41
1
10
9.52287890424395
20
-2.46792080891697
30
0
41
1
10
9.90946981478123
20
-2.5193431654146
30
0
41
1
10
10.1028428154438
20
-2.53986902753621
30
0
41
1
10
10.4891603505239
20
-2.57067121826461
30
0
41
1
10
10.6820277830904
20
-2.58086077862032
30
0
41
1
10
10.9558344324476
20
-2.58751766426533
30
0
41
1
10
11.0359709776567
20
-2.58855274157912
30
0
41
1
10
11.1161966636017
20
-2.58867143843841
30
0
0
SPLINE
5
C1
100
AcDbEntity
8
1
62
256
6
ByLayer
370
18
48
1
60
0
100
AcDbSpline
70
4
71
3
72
76
73
72
40
0
40
0
40
0
40
0
40
0.0048953733416068
40
0.0048953733416068
40
0.0336897881363698
40
0.0336897881363698
40
0.0624842029311328
40
0.0624842029311328
40
0.0912786177258958
40
0.0912786177258958
40
0.120073032520659
40
0.120073032520659
40
0.148867447315422
40
0.148867447315422
40
0.177661862110185
40
0.177661862110185
40
0.206456276904948
40
0.206456276904948
40
0.235250691699711
40
0.235250691699711
40
0.264045106494474
40
0.264045106494474
40
0.292839521289237
40
0.292839521289237
40
0.321633936084
40
0.321633936084
40
0.350428350878763
40
0.350428350878763
40
0.379222765673526
40
0.379222765673526
40
0.408017180468289
40
0.408017180468289
40
0.436811595263052
40
0.436811595263052
40
0.465606010057815
40
0.465606010057815
40
0.494400424852578
40
0.494400424852578
40
0.523194839647341
40
0.523194839647341
40
0.551989254442104
40
0.551989254442104
40
0.580783669236867
40
0.580783669236867
40
0.60957808403163
40
0.60957808403163
40
0.667166913621156
40
0.667166913621156
40
0.69596132841592
40
0.69596132841592
40
0.724755743210684
40
0.724755743210684
40
0.753550158005448
40
0.753550158005448
40
0.782344572800211
40
0.782344572800211
40
0.811138987594975
40
0.811138987594975
40
0.839933402389739
40
0.839933402389739
40
0.868727817184503
40
0.868727817184503
40
0.897522231979267
40
0.897522231979267
40
0.92631664677403
40
0.92631664677403
40
0.955111061568794
40
0.955111061568794
40
0.983905476363558
40
0.983905476363558
40
1
40
1
40
1
40
1
41
1
10
23.577122519955
20
1.90177536052138
30
0
41
1
10
23.6102873675596
20
1.91304802856806
30
0
41
1
10
23.6434814812076
20
1.92419925300737
30
0
41
1
10
23.872144260402
20
2.00007474477235
30
0
41
1
10
24.0682737238197
20
2.06082192608864
30
0
41
1
10
24.4585261704385
20
2.17396337447676
30
0
41
1
10
24.6530285035148
20
2.22639042725379
30
0
41
1
10
25.0431465021041
20
2.32054123561744
30
0
41
1
10
25.2384580026134
20
2.36265584043926
30
0
41
1
10
25.6290686936419
20
2.43735836436517
30
0
41
1
10
25.8243335469657
20
2.47010559890344
30
0
41
1
10
26.2150602791396
20
2.52417873057829
30
0
41
1
10
26.4104418603659
20
2.54574412749059
30
0
41
1
10
26.8006963002117
20
2.57833485494101
30
0
41
1
10
26.9952377897976
20
2.58937454320548
30
0
41
1
10
27.3851901634025
20
2.60029180931139
30
0
41
1
10
27.5808393700775
20
2.60024652606839
30
0
41
1
10
27.9723592062209
20
2.58926598365255
30
0
41
1
10
28.1673948032212
20
2.57826833681691
30
0
41
1
10
28.5570136040952
20
2.54529856691656
30
0
41
1
10
28.7520858019299
20
2.52354190389283
30
0
41
1
10
29.1424704133325
20
2.46964419882352
30
0
41
1
10
29.3376551346349
20
2.43742269731735
30
0
41
1
10
29.727983082281
20
2.36202490013625
30
0
41
1
10
29.923513429966
20
2.31936602689683
30
0
41
1
10
30.3129290738802
20
2.22541715096779
30
0
41
1
10
30.5071024151582
20
2.17398364033363
30
0
41
1
10
30.8937011108279
20
2.06135013671241
30
0
41
1
10
31.0865901012822
20
2.00065801049286
30
0
41
1
10
31.4728357863596
20
1.87242235827011
30
0
41
1
10
31.6659784592511
20
1.80463443960062
30
0
41
1
10
32.0517150101084
20
1.66078010667246
30
0
41
1
10
32.2442434015108
20
1.58453457705022
30
0
41
1
10
32.6310020674247
20
1.42724386533809
30
0
41
1
10
32.8249442965253
20
1.34578930886633
30
0
41
1
10
33.2134716885679
20
1.1763056547812
30
0
41
1
10
33.4077492864616
20
1.08762208807164
30
0
41
1
10
33.7987685695645
20
0.906875520407255
30
0
41
1
10
33.9938899283976
20
0.815391779429717
30
0
41
1
10
34.3825798396351
20
0.62937847157167
30
0
41
1
10
34.5758973000841
20
0.534210447615095
30
0
41
1
10
34.9621555486937
20
0.342979680913658
30
0
41
1
10
35.1553419092519
20
0.247419899520537
30
0
41
1
10
35.5413968956579
20
0.0555308460586446
30
0
41
1
10
35.7340900728014
20
-0.0411579541438414
30
0
41
1
10
36.3119310719589
20
-0.331896764329798
30
0
41
1
10
36.6993660076798
20
-0.521437266699678
30
0
41
1
10
37.2816239194194
20
-0.803855290792143
30
0
41
1
10
37.4767380510815
20
-0.89666644436403
30
0
41
1
10
37.8679031446347
20
-1.07718364723101
30
0
41
1
10
38.0632593150039
20
-1.16495384211294
30
0
41
1
10
38.452769224205
20
-1.33681320190169
30
0
41
1
10
38.647171050977
20
-1.42041088634269
30
0
41
1
10
39.037182139474
20
-1.57977129329743
30
0
41
1
10
39.2325074745757
20
-1.65605070871194
30
0
41
1
10
39.6232552800795
20
-1.80258571221702
30
0
41
1
10
39.8180743364428
20
-1.87291480433137
30
0
41
1
10
40.2068459378942
20
-2.00321532333859
30
0
41
1
10
40.4008979963467
20
-2.06375702632116
30
0
41
1
10
40.7878431813151
20
-2.17646215405358
30
0
41
1
10
40.9804035647056
20
-2.22893021820079
30
0
41
1
10
41.3659456493418
20
-2.32357815289529
30
0
41
1
10
41.5589483248804
20
-2.36583190825149
30
0
41
1
10
41.9449111608245
20
-2.44080812633112
30
0
41
1
10
42.1376219393563
20
-2.47367107393725
30
0
41
1
10
42.5236972026954
20
-2.52901928705663
30
0
41
1
10
42.7174701977835
20
-2.55131802906755
30
0
41
1
10
43.106143711561
20
-2.5854413721662
30
0
41
1
10
43.3010297596666
20
-2.59730354265375
30
0
41
1
10
43.6052726418451
20
-2.60722372290158
30
0
41
1
10
43.7142726381262
20
-2.60902543911757
30
0
41
1
10
43.8232114301294
20
-2.60911219489512
30
0
0
SPLINE
5
C2
100
AcDbEntity
8
1
62
256
6
ByLayer
370
18
48
1
60
0
100
AcDbSpline
70
4
71
3
72
10
73
6
40
0
40
0
40
0
40
0
40
0.5
40
0.5
40
1
40
1
40
1
40
1
41
1
10
4.09527945750247
20
-0.156673759585658
30
0
41
1
10
4.0764989783703
20
-0.141902098090185
30
0
41
1
10
4.06067776200379
20
-0.123965460910142
30
0
41
1
10
4.03764720929118
20
-0.0824012155630953
30
0
41
1
10
4.03065364308748
20
-0.0590461211132549
30
0
41
1
10
4.03066226729061
20
-0.0350446809106018
30
0
0
SPLINE
5
C3
100
AcDbEntity
8
1
62
256
6
ByLayer
370
18
48
1
60
0
100
AcDbSpline
70
4
71
3
72
62
73
58
40
0
40
0
40
0
40
0
40
0.0693168893671773
40
0.0693168893671773
40
0.103975334050766
40
0.103975334050766
40
0.138633778734356
40
0.138633778734356
40
0.173292223417945
40
0.173292223417945
40
0.207950668101534
40
0.207950668101534
40
0.242609112785123
40
0.242609112785123
40
0.277267557468712
40
0.277267557468712
40
0.311926002152301
40
0.311926002152301
40
0.346584446835891
40
0.346584446835891
40
0.38124289151948
40
0.38124289151948
40
0.415901336203069
40
0.415901336203069
40
0.450559780886658
40
0.450559780886658
40
0.485218225570247
40
0.485218225570247
40
0.519876670253837
40
0.519876670253837
40
0.554535114937426
40
0.554535114937426
40
0.589193559621015
40
0.589193559621015
40
0.623852004304604
40
0.623852004304604
40
0.658510448988193
40
0.658510448988193
40
0.693168893671782
40
0.693168893671782
40
0.727827338355371
40
0.727827338355371
40
0.76248578303896
40
0.76248578303896
40
0.797144227722549
40
0.797144227722549
40
0.831802672406138
40
0.831802672406138
40
0.866461117089728
40
0.866461117089728
40
0.901119561773317
40
0.901119561773317
40
0.935778006456906
40
0.935778006456906
40
0.970436451140495
40
0.970436451140495
40
1
40
1
40
1
40
1
41
1
10
7.96917412955619
20
1.67565921906623
30
0
41
1
10
8.33423569147294
20
1.5495668731653
30
0
41
1
10
8.696834070949
20
1.41219301889998
30
0
41
1
10
9.23836926302229
20
1.19284034190159
30
0
41
1
10
9.41848801693658
20
1.11735095458718
30
0
41
1
10
9.77879451935769
20
0.963303018765771
30
0
41
1
10
9.95886954421758
20
0.884596917247165
30
0
41
1
10
10.3188471951625
20
0.723985016106923
30
0
41
1
10
10.4986989390252
20
0.641915592633239
30
0
41
1
10
10.8590848300292
20
0.475905674506834
30
0
41
1
10
11.0396637581421
20
0.39210196282724
30
0
41
1
10
11.401377026515
20
0.222771212505791
30
0
41
1
10
11.5824840290472
20
0.137197548276447
30
0
41
1
10
11.9457449792937
20
-0.0349767608061313
30
0
41
1
10
12.1285298909419
20
-0.121382037121322
30
0
41
1
10
12.4928451522287
20
-0.292552845626631
30
0
41
1
10
12.6744499286867
20
-0.377648576552787
30
0
41
1
10
13.0364175522374
20
-0.546210923637545
30
0
41
1
10
13.2168482557975
20
-0.629500708052007
30
0
41
1
10
13.5776573632289
20
-0.792524298828056
30
0
41
1
10
13.7579089491996
20
-0.872591552973773
30
0
41
1
10
14.1180045949551
20
-1.03003174294693
30
0
41
1
10
14.2977635462684
20
-1.10714649846378
30
0
41
1
10
14.657774441192
20
-1.25650318197106
30
0
41
1
10
14.8380704282803
20
-1.32873568808807
30
0
41
1
10
15.1989783300042
20
-1.46935266491133
30
0
41
1
10
15.3795538283953
20
-1.53772811025732
30
0
41
1
10
15.7416100946447
20
-1.66802245307076
30
0
41
1
10
15.9232476154644
20
-1.73003177102254
30
0
41
1
10
16.2878023509707
20
-1.84828242462254
30
0
41
1
10
16.4704939703891
20
-1.90499237226612
30
0
41
1
10
16.8334943459731
20
-2.0099114664817
30
0
41
1
10
17.0142429838564
20
-2.05800263494044
30
0
41
1
10
17.3755533559809
20
-2.14667988680543
30
0
41
1
10
17.5559685437439
20
-2.18743893701145
30
0
41
1
10
17.9161844110024
20
-2.2620103576395
30
0
41
1
10
18.0958395095039
20
-2.29458830945714
30
0
41
1
10
18.4553998199971
20
-2.35075809047882
30
0
41
1
10
18.6353682521633
20
-2.37468518223528
30
0
41
1
10
18.9954219240793
20
-2.41543179107438
30
0
41
1
10
19.1754600225117
20
-2.43237080314614
30
0
41
1
10
19.5361376963114
20
-2.45467248147588
30
0
41
1
10
19.7169567436578
20
-2.46110104218511
30
0
41
1
10
20.0796720565775
20
-2.46605031578113
30
0
41
1
10
20.2614302728745
20
-2.46481735275296
30
0
41
1
10
20.6261121030181
20
-2.45246875134521
30
0
41
1
10
20.8075024436783
20
-2.44072025050877
30
0
41
1
10
21.1698664249438
20
-2.4095520780962
30
0
41
1
10
21.3506796833994
20
-2.38994635651227
30
0
41
1
10
21.7114875155917
20
-2.34308647551876
30
0
41
1
10
21.8913431091604
20
-2.31491280969684
30
0
41
1
10
22.2509468192977
20
-2.24960397749578
30
0
41
1
10
22.4308142563714
20
-2.21321423479307
30
0
41
1
10
22.7904557234523
20
-2.13354884401079
30
0
41
1
10
22.970188411999
20
-2.08992375198858
30
0
41
1
10
23.3034745107294
20
-2.00087512263033
30
0
41
1
10
23.4571393444129
20
-1.9570318951443
30
0
41
1
10
23.611110418361
20
-1.91094079444366
30
0
0
SPLINE
5
C4
100
AcDbEntity
8
1
62
256
6
ByLayer
370
18
48
1
60
0
100
AcDbSpline
70
4
71
3
72
24
73
20
40
0
40
0
40
0
40
0
40
0.0378703519020971
40
0.0378703519020971
40
0.125336683547361
40
0.125336683547361
40
0.300269346837891
40
0.300269346837891
40
0.475202010128419
40
0.475202010128419
40
0.562668341773684
40
0.562668341773684
40
0.650134673418948
40
0.650134673418948
40
0.737601005064213
40
0.737601005064213
40
0.825067336709477
40
0.825067336709477
40
1
40
1
40
1
40
1
41
1
10
36.4618863155394
20
2.47319326203169
30
0
41
1
10
36.5402349248297
20
2.47305331560207
30
0
41
1
10
36.6186608688935
20
2.47213392048383
30
0
41
1
10
36.8784643793745
20
2.46626722057079
30
0
41
1
10
37.0606799358011
20
2.45685931294057
30
0
41
1
10
37.6061005442571
20
2.41436274034248
30
0
41
1
10
37.9677016510876
20
2.3679776584934
30
0
41
1
10
38.6878351758684
20
2.24337625829804
30
0
41
1
10
39.0475476810931
20
2.16732062011445
30
0
41
1
10
39.5866833091303
20
2.02772489394673
30
0
41
1
10
39.7663314526644
20
1.97691987933834
30
0
41
1
10
40.1265485294482
20
1.86901037383353
30
0
41
1
10
40.3070322433623
20
1.81181055921445
30
0
41
1
10
40.6686314798973
20
1.69019797541904
30
0
41
1
10
40.8497391058969
20
1.62566708909699
30
0
41
1
10
41.2132863278979
20
1.49087144194044
30
0
41
1
10
41.3958345896471
20
1.42093889882611
30
0
41
1
10
41.9402559028468
20
1.20487770065151
30
0
41
1
10
42.300145551465
20
1.05048504150207
30
0
41
1
10
42.659698214691
20
0.891681720494347
30
0
0
SPLINE
5
C5
100
AcDbEntity
8
1
62
256
6
ByLayer
370
13
48
1
60
0
100
AcDbSpline
70
4
71
3
72
8
73
4
40
0
40
0
40
0
40
0
40
1
40
1
40
1
40
1
41
1
10
4.13931684634568
20
-0.183240339520125
30
0
41
1
10
4.16045855462033
20
-0.192905924275323
30
0
41
1
10
4.18309140311499
20
-0.20353962577849
30
0
41
1
10
4.20621607079693
20
-0.214845991750337
30
0
0
SPLINE
5
C6
100
AcDbEntity
8
1
62
256
6
ByLayer
370
18
48
1
60
0
100
AcDbSpline
70
4
71
3
72
57
73
53
40
0
40
0
40
0
40
0
40
0.062499999999991
40
0.062499999999991
40
0.124999999999982
40
0.124999999999982
40
0.156249999999977
40
0.156249999999977
40
0.187499999999973
40
0.187499999999973
40
0.218749999999968
40
0.218749999999968
40
0.249999999999964
40
0.249999999999964
40
0.281249999999959
40
0.281249999999959
40
0.296874999999957
40
0.296874999999957
40
0.312499999999955
40
0.312499999999955
40
0.328124999999953
40
0.328124999999953
40
0.34374999999995
40
0.34374999999995
40
0.359374999999948
40
0.359374999999948
40
0.374999999999946
40
0.374999999999946
40
0.406249999999943
40
0.406249999999943
40
0.437499999999939
40
0.437499999999939
40
0.445312499999939
40
0.445312499999939
40
0.449218749999939
40
0.449218749999939
40
0.453124999999939
40
0.453124999999939
40
0.457031249999939
40
0.457031249999939
40
0.460937499999938
40
0.460937499999938
40
0.468749999999938
40
0.499999999999941
40
0.499999999999941
40
0.624999999999956
40
0.624999999999956
40
0.749999999999971
40
0.749999999999971
40
0.874999999999985
40
0.874999999999985
40
1
40
1
40
1
40
1
41
1
10
4.03146090059468
20
-2.58271786747741
30
0
41
1
10
3.86479950775137
20
-2.58594707308003
30
0
41
1
10
3.69891170868692
20
-2.58385573065621
30
0
41
1
10
3.36946237679274
20
-2.56667214073912
30
0
41
1
10
3.20523224378823
20
-2.5515196310964
30
0
41
1
10
2.966209521645
20
-2.51612398476581
30
0
41
1
10
2.88766049635069
20
-2.50220089756235
30
0
41
1
10
2.73350935417736
20
-2.46918584717153
30
0
41
1
10
2.65768108282853
20
-2.45003967516141
30
0
41
1
10
2.51124621405174
20
-2.40538729643131
30
0
41
1
10
2.44075173204894
20
-2.37996803048677
30
0
41
1
10
2.30767430529704
20
-2.32075652836468
30
0
41
1
10
2.2449944155772
20
-2.28704910081495
30
0
41
1
10
2.13260684636373
20
-2.20677455917536
30
0
41
1
10
2.08406569014545
20
-2.16102670402694
30
0
41
1
10
2.03241923187244
20
-2.080575315375
30
0
41
1
10
2.01916218271134
20
-2.05232351633757
30
0
41
1
10
2.00217687738882
20
-1.99254066645156
30
0
41
1
10
1.99848668436303
20
-1.96057227158269
30
0
41
1
10
2.00268287527382
20
-1.89488048558141
30
0
41
1
10
2.01040706445781
20
-1.86174286871685
30
0
41
1
10
2.03663496653982
20
-1.79508277910239
30
0
41
1
10
2.05544482036262
20
-1.76126767074314
30
0
41
1
10
2.10088224184409
20
-1.69658148221328
30
0
41
1
10
2.12756912831804
20
-1.66532356306462
30
0
41
1
10
2.1872761554701
20
-1.60464521375073
30
0
41
1
10
2.22026699912314
20
-1.57531531431368
30
0
41
1
10
2.32404088598233
20
-1.49196106889099
30
0
41
1
10
2.40041116412604
20
-1.44147872470575
30
0
41
1
10
2.56226427497654
20
-1.34738898539706
30
0
41
1
10
2.64723567469059
20
-1.30417911072479
30
0
41
1
10
2.75615879199995
20
-1.25401750724708
30
0
41
1
10
2.77807241471143
20
-1.24418444535598
30
0
41
1
10
2.81110435233154
20
-1.22971933785988
30
0
41
1
10
2.82214286395626
20
-1.22494468322074
30
0
41
1
10
2.84427340698721
20
-1.21548618166304
30
0
41
1
10
2.85522509430635
20
-1.21052008263911
30
0
41
1
10
2.8791200456227
20
-1.20456522571081
30
0
41
1
10
2.89206996279546
20
-1.20319186400007
30
0
41
1
10
2.91740390680616
20
-1.20239970974191
30
0
41
1
10
2.92994697722156
20
-1.20328795080658
30
0
41
1
10
2.96761748338145
20
-1.20552389448639
30
0
41
1
10
3.09315479440886
20
-1.21329481215679
30
0
41
1
10
3.21853761176925
20
-1.22264279335585
30
0
41
1
10
3.71958259966755
20
-1.26491846657058
30
0
41
1
10
4.11832202500435
20
-1.31446210413535
30
0
41
1
10
4.90713290694242
20
-1.43823346392446
30
0
41
1
10
5.29789980421805
20
-1.51256228270646
30
0
41
1
10
6.07320262540054
20
-1.67658075774713
30
0
41
1
10
6.45835919694568
20
-1.76646078263815
30
0
41
1
10
7.21940066055478
20
-1.94789345982903
30
0
41
1
10
7.59562411907601
20
-2.03947963213173
30
0
41
1
10
7.96917412955622
20
-2.12534946270702
30
0
0
SPLINE
5
C7
100
AcDbEntity
8
1
62
256
6
ByLayer
370
18
48
1
60
0
100
AcDbSpline
70
4
71
3
72
42
73
38
40
0
40
0
40
0
40
0
40
0.0761006058999427
40
0.0761006058999427
40
0.114150908849914
40
0.114150908849914
40
0.152201211799885
40
0.152201211799885
40
0.190251514749857
40
0.190251514749857
40
0.228301817699828
40
0.228301817699828
40
0.304402423599771
40
0.304402423599771
40
0.342452726549742
40
0.342452726549742
40
0.380503029499713
40
0.380503029499713
40
0.456603635399656
40
0.456603635399656
40
0.532704241299599
40
0.532704241299599
40
0.570754544249571
40
0.570754544249571
40
0.608804847199544
40
0.608804847199544
40
0.761006058999429
40
0.761006058999429
40
0.7990563619494
40
0.7990563619494
40
0.837106664899371
40
0.837106664899371
40
0.913207270799313
40
0.913207270799313
40
0.989307876699254
40
0.989307876699254
40
1
40
1
40
1
40
1
41
1
10
45.1063733081257
20
-2.59958335235885
30
0
41
1
10
44.6776747901412
20
-2.61847159390382
30
0
41
1
10
44.2498852348775
20
-2.61069294858461
30
0
41
1
10
43.6062528728762
20
-2.5595173071639
30
0
41
1
10
43.3910914910862
20
-2.53580708137784
30
0
41
1
10
42.9618137308661
20
-2.47573894702134
30
0
41
1
10
42.7475185321862
20
-2.43937003108937
30
0
41
1
10
42.3190404363381
20
-2.35438204249306
30
0
41
1
10
42.1048217176245
20
-2.3057861553466
30
0
41
1
10
41.67571303165
20
-2.19699494868431
30
0
41
1
10
41.4605300025517
20
-2.13670972358631
30
0
41
1
10
40.8165652979262
20
-1.94047122986845
30
0
41
1
10
40.3886576201468
20
-1.78890685459521
30
0
41
1
10
39.7449017820226
20
-1.53610702781208
30
0
41
1
10
39.529541353621
20
-1.44743528504372
30
0
41
1
10
39.1010290209342
20
-1.26408486440698
30
0
41
1
10
38.8876293712467
20
-1.16928847578114
30
0
41
1
10
38.2489944288256
20
-0.877496936706365
30
0
41
1
10
37.8252256548166
20
-0.673282270914569
30
0
41
1
10
36.9766736588431
20
-0.25542365562788
30
0
41
1
10
36.5519418567488
20
-0.0416781032901099
30
0
41
1
10
35.9104651558953
20
0.27873464176335
30
0
41
1
10
35.6952240142077
20
0.385729717458162
30
0
41
1
10
35.26613275343
20
0.596461003684084
30
0
41
1
10
35.0524898912719
20
0.700147779575587
30
0
41
1
10
33.987113924626
20
1.20707216038767
30
0
41
1
10
33.1437863197968
20
1.57538540678516
30
0
41
1
10
32.0760363054081
20
1.94577538165282
30
0
41
1
10
31.8615376310002
20
2.01541122551978
30
0
41
1
10
31.431563816389
20
2.14427536594866
30
0
41
1
10
31.2175469604926
20
2.20309721994801
30
0
41
1
10
30.5774263559395
20
2.36200680783051
30
0
41
1
10
30.1531699470581
20
2.44445011933559
30
0
41
1
10
29.3048160021812
20
2.55943654991921
30
0
41
1
10
28.880612835819
20
2.59192913736328
30
0
41
1
10
28.3940936599122
20
2.59914893364748
30
0
41
1
10
28.3341106200305
20
2.59952145915656
30
0
41
1
10
28.2740715767051
20
2.59937462835896
30
0
0
SPLINE
5
C8
100
AcDbEntity
8
1
62
256
6
ByLayer
370
18
48
1
60
0
100
AcDbSpline
70
4
71
3
72
22
73
18
40
0
40
0
40
0
40
0
40
0.183453116365118
40
0.183453116365118
40
0.251498690001358
40
0.251498690001358
40
0.319544263637598
40
0.319544263637598
40
0.455635410910078
40
0.455635410910078
40
0.591726558182558
40
0.591726558182558
40
0.659772131818799
40
0.659772131818799
40
0.72781770545504
40
0.72781770545504
40
1
40
1
40
1
40
1
41
1
10
13.5468437231341
20
-2.46804275801526
30
0
41
1
10
12.9745150807811
20
-2.55407793914293
30
0
41
1
10
12.4014222505214
20
-2.59551320024681
30
0
41
1
10
11.6061957539212
20
-2.58576371152418
30
0
41
1
10
11.3914730188142
20
-2.57647355898888
30
0
41
1
10
10.9639122852278
20
-2.54504370567957
30
0
41
1
10
10.7508076206796
20
-2.52290287085555
30
0
41
1
10
10.1126249996687
20
-2.43786796439571
30
0
41
1
10
9.6886317260379
20
-2.35636521626509
30
0
41
1
10
8.83864781224418
20
-2.14780916555736
30
0
41
1
10
8.41265294116715
20
-2.0207574146697
30
0
41
1
10
7.76837167958109
20
-1.79965181645892
30
0
41
1
10
7.55279248567197
20
-1.72084858257469
30
0
41
1
10
7.12429806808342
20
-1.55596033926156
30
0
41
1
10
6.91074532023333
20
-1.46966368392015
30
0
41
1
10
5.84499167475366
20
-1.02163018287774
30
0
41
1
10
4.99864169170178
20
-0.61039981210314
30
0
41
1
10
4.13874396000068
20
-0.184124973111494
30
0
0
SPLINE
5
C9
100
AcDbEntity
8
1
62
256
6
ByLayer
370
18
48
1
60
0
100
AcDbSpline
70
4
71
3
72
12
73
8
40
0
40
0
40
0
40
0
40
0.250000000000001
40
0.250000000000001
40
0.500000000000001
40
0.500000000000001
40
1
40
1
40
1
40
1
41
1
10
4.0314609005946
20
2.58271786747736
30
0
41
1
10
4.04265365571945
20
2.56268058342835
30
0
41
1
10
4.05705721458287
20
2.54361690184877
30
0
41
1
10
4.0898926041304
20
2.51078774677595
30
0
41
1
10
4.10878847614725
20
2.49653811597619
30
0
41
1
10
4.16783425436137
20
2.46302924333878
30
0
41
1
10
4.21095176527692
20
2.45228142152513
30
0
41
1
10
4.25167004401868
20
2.45111412009513
30
0
0
SPLINE
5
CA
100
AcDbEntity
8
1
62
256
6
ByLayer
370
18
48
1
60
0
100
AcDbSpline
70
4
71
3
72
8
73
4
40
0
40
0
40
0
40
0
40
1
40
1
40
1
40
1
41
1
10
45.1192089415658
20
-2.56713315858045
30
0
41
1
10
45.1149340942184
20
-2.57795440685291
30
0
41
1
10
45.1106554981269
20
-2.58877119547708
30
0
41
1
10
45.1063733081257
20
-2.59958335235888
30
0
0
SPLINE
5
CB
100
AcDbEntity
8
1
62
256
6
ByLayer
370
18
48
1
60
0
100
AcDbSpline
70
4
71
3
72
8
73
4
40
0
40
0
40
0
40
0
40
1
40
1
40
1
40
1
41
1
10
45.9999627338691
20
0.0321383401115725
30
0
41
1
10
45.9949149606429
20
0.0145545363881467
30
0
41
1
10
45.9871839897507
20
-0.0039476427898251
30
0
41
1
10
45.9790554709962
20
-0.0172566538755063
30
0
0
SPLINE
5
CC
100
AcDbEntity
8
1
62
256
6
ByLayer
370
18
48
1
60
0
100
AcDbSpline
70
4
71
3
72
28
73
24
40
0
40
0
40
0
40
0
40
0.0625
40
0.0625
40
0.125
40
0.125
40
0.25
40
0.25
40
0.375
40
0.375
40
0.5
40
0.5
40
0.5625
40
0.5625
40
0.625
40
0.625
40
0.75
40
0.75
40
0.875
40
0.875
40
0.9375
40
0.9375
40
1
40
1
40
1
40
1
41
1
10
4.03066226729067
20
-0.0350446809106018
30
0
41
1
10
4.03069240808009
20
0.0488381245325513
30
0
41
1
10
4.03072151303311
20
0.132575834830277
30
0
41
1
10
4.03077794157372
20
0.299761105392548
30
0
41
1
10
4.03080534650249
20
0.383479060149455
30
0
41
1
10
4.03088404012348
20
0.630167876549194
30
0
41
1
10
4.03093223084542
20
0.789817122069223
30
0
41
1
10
4.03102271227613
20
1.09962826501859
30
0
41
1
10
4.03106527517764
20
1.25084623128291
30
0
41
1
10
4.03114324741341
20
1.53131608644
30
0
41
1
10
4.03117909449844
20
1.66203182407196
30
0
41
1
10
4.03122940006517
20
1.84360958614028
30
0
41
1
10
4.03124563260837
20
1.90188072132844
30
0
41
1
10
4.03127637584561
20
2.01107606862885
30
0
41
1
10
4.03129096861281
20
2.06230017391107
30
0
41
1
10
4.03133257434916
20
2.20605325007452
30
0
41
1
10
4.03135749645594
20
2.28884853968057
30
0
41
1
10
4.03140114163915
20
2.42662519249902
30
0
41
1
10
4.03141920538599
20
2.47955536976883
30
0
41
1
10
4.03144004266574
20
2.53594401999163
30
0
41
1
10
4.03144593202086
20
2.55087816055732
30
0
41
1
10
4.03145532389095
20
2.57284725153917
30
0
41
1
10
4.03145881960768
20
2.57985024342133
30
0
41
1
10
4.03146090059479
20
2.58271786747744
30
0
0
SPLINE
5
CD
100
AcDbEntity
8
1
62
256
6
ByLayer
370
18
48
1
60
0
100
AcDbSpline
70
4
71
3
72
34
73
30
40
0
40
0
40
0
40
0
40
0.249999999999992
40
0.249999999999992
40
0.374999999999988
40
0.374999999999988
40
0.499999999999984
40
0.499999999999984
40
0.62499999999998
40
0.62499999999998
40
0.749999999999976
40
0.749999999999976
40
0.81249999999997
40
0.81249999999997
40
0.828124999999968
40
0.828124999999968
40
0.835937499999963
40
0.835937499999963
40
0.843749999999957
40
0.843749999999957
40
0.847656249999958
40
0.847656249999958
40
0.851562499999958
40
0.851562499999958
40
0.85937499999996
40
0.85937499999996
40
0.874999999999964
40
0.874999999999964
40
1
40
1
40
1
40
1
41
1
10
42.6596982146909
20
0.891681720494404
30
0
41
1
10
42.8602954085152
20
0.73235484262068
30
0
41
1
10
43.0688528123663
20
0.594083903854795
30
0
41
1
10
43.3945024482384
20
0.420571188024866
30
0
41
1
10
43.5054775349925
20
0.368514050733921
30
0
41
1
10
43.7268392224905
20
0.279720560748217
30
0
41
1
10
43.8378458199243
20
0.24259277798879
30
0
41
1
10
44.0605531595382
20
0.183826559749633
30
0
41
1
10
44.1722512783805
20
0.162129586342502
30
0
41
1
10
44.3964524326875
20
0.136696782586114
30
0
41
1
10
44.5074961995554
20
0.133185158098229
30
0
41
1
10
44.6707361444638
20
0.144318691580565
30
0
41
1
10
44.7247453959078
20
0.15079126800029
30
0
41
1
10
44.791331493979
20
0.162597276843655
30
0
41
1
10
44.8045965068478
20
0.165142874392103
30
0
41
1
10
44.8244143031213
20
0.169242854830344
30
0
41
1
10
44.8310807420473
20
0.170443027750338
30
0
41
1
10
44.8439327052341
20
0.17419675152405
30
0
41
1
10
44.8501453879769
20
0.177170600793431
30
0
41
1
10
44.857383084821
20
0.184583922884826
30
0
41
1
10
44.8595190489353
20
0.187548023798598
30
0
41
1
10
44.8625229903747
20
0.194337731371178
30
0
41
1
10
44.8633734712447
20
0.198260414837279
30
0
41
1
10
44.8654109580776
20
0.210145123281393
30
0
41
1
10
44.866627882969
20
0.218131149957628
30
0
41
1
10
44.8702775828071
20
0.24208970802124
30
0
41
1
10
44.8725198101549
20
0.258151012952851
30
0
41
1
10
44.8910258023789
20
0.403263999258684
30
0
41
1
10
44.8956806484011
20
0.536941977348135
30
0
41
1
10
44.892105944919
20
0.670808431750004
30
0
0
SPLINE
5
CE
100
AcDbEntity
8
1
62
256
6
ByLayer
370
18
48
1
60
0
100
AcDbSpline
70
4
71
3
72
14
73
10
40
0
40
0
40
0
40
0
40
0.0354100897018915
40
0.0354100897018915
40
0.356940059801261
40
0.356940059801261
40
0.67847002990063
40
0.67847002990063
40
1
40
1
40
1
40
1
41
1
10
7.12391541959178
20
-1.93581669855098
30
0
41
1
10
7.08925435759608
20
-1.94589058261917
30
0
41
1
10
7.05461320752437
20
-1.95586862687077
30
0
41
1
10
6.70560282851793
20
-2.05542931302489
30
0
41
1
10
6.39273991281488
20
-2.13508154259503
30
0
41
1
10
5.77343384110901
20
-2.27292329867083
30
0
41
1
10
5.46631064062362
20
-2.33002964612649
30
0
41
1
10
4.85590342607907
20
-2.41485185594718
30
0
41
1
10
4.55258903247122
20
-2.44248744977296
30
0
41
1
10
4.25167004474309
20
-2.45111412007438
30
0
0
SPLINE
5
CF
100
AcDbEntity
8
1
62
256
6
ByLayer
370
18
48
1
60
0
100
AcDbSpline
70
4
71
3
72
8
73
4
40
0
40
0
40
0
40
0
40
1
40
1
40
1
40
1
41
1
10
45.990097097215
20
-0.0953666087621627
30
0
41
1
10
45.9906648052241
20
-0.0777107196742008
30
0
41
1
10
45.9944731879937
20
-0.0554281638620182
30
0
41
1
10
45.9999627338738
20
-0.0321383400914215
30
0
0
SPLINE
5
D0
100
AcDbEntity
8
1
62
256
6
ByLayer
370
18
48
1
60
0
100
AcDbSpline
70
4
71
3
72
10
73
6
40
0
40
0
40
0
40
0
40
0.5
40
0.5
40
1
40
1
40
1
40
1
41
1
10
45.2465203886563
20
2.51328721872821
30
0
41
1
10
45.3580718958063
20
2.21045784855969
30
0
41
1
10
45.4734615174046
20
1.90892559417432
30
0
41
1
10
45.7108178251597
20
1.30816988761316
30
0
41
1
10
45.8327128544298
20
1.0091834380236
30
0
41
1
10
45.9569636569676
20
0.712587006444835
30
0
0
SPLINE
5
D1
100
AcDbEntity
8
1
62
256
6
ByLayer
370
13
48
1
60
0
100
AcDbSpline
70
4
71
3
72
8
73
4
40
0
40
0
40
0
40
0
40
1
40
1
40
1
40
1
41
1
10
4.09527945750594
20
-0.156673759588358
30
0
41
1
10
4.10869913220284
20
-0.1667824740546
30
0
41
1
10
4.12332118998421
20
-0.175691983565315
30
0
41
1
10
4.13931684634568
20
-0.183240339520125
30
0
0
SPLINE
5
D2
100
AcDbEntity
8
1
62
256
6
ByLayer
370
18
48
1
60
0
100
AcDbSpline
70
4
71
3
72
8
73
4
40
0
40
0
40
0
40
0
40
1
40
1
40
1
40
1
41
1
10
45.9569636569676
20
-0.712587006444778
30
0
41
1
10
45.9724412166566
20
-0.506628905660449
30
0
41
1
10
45.9834887359293
20
-0.300888623666935
30
0
41
1
10
45.9900970972149
20
-0.095366608762248
30
0
0
SPLINE
5
D3
100
AcDbEntity
8
1
62
256
6
ByLayer
370
18
48
1
60
0
100
AcDbSpline
70
4
71
3
72
8
73
4
40
0
40
0
40
0
40
0
40
1
40
1
40
1
40
1
41
1
10
45.2465203886597
20
2.51328721871658
30
0
41
1
10
45.1953122353534
20
2.55581959534749
30
0
41
1
10
45.1486231240205
20
2.58508472824406
30
0
41
1
10
45.1063733081257
20
2.59958335235885
30
0
0
SPLINE
5
D4
100
AcDbEntity
8
1
62
256
6
ByLayer
370
13
48
1
60
0
100
AcDbSpline
70
4
71
3
72
29
73
25
40
0
40
0
40
0
40
0
40
0.0625000000000001
40
0.0625000000000001
40
0.125
40
0.125
40
0.25
40
0.25
40
0.312500000000001
40
0.312500000000001
40
0.375000000000001
40
0.437500000000001
40
0.437500000000001
40
0.500000000000001
40
0.500000000000001
40
0.625000000000001
40
0.625000000000001
40
0.687500000000001
40
0.687500000000001
40
0.750000000000001
40
0.750000000000001
40
0.875
40
0.875
40
1
40
1
40
1
40
1
41
1
10
4.25043250486351
20
-0.120414590217479
30
0
41
1
10
4.25047991335725
20
-0.0400799612197318
30
0
41
1
10
4.25052581381937
20
0.040581097111783
30
0
41
1
10
4.25061397536848
20
0.200523612736731
30
0
41
1
10
4.25065622457368
20
0.279758654737492
30
0
41
1
10
4.250778378305
20
0.515313069360957
30
0
41
1
10
4.25085371858273
20
0.66950215934861
30
0
41
1
10
4.25096044615822
20
0.896374352435572
30
0
41
1
10
4.25099470164872
20
0.970700943026003
30
0
41
1
10
4.25106020613865
20
1.11484259968657
30
0
41
1
10
4.25112299766033
20
1.25509710778775
30
0
41
1
10
4.2511812857276
20
1.38766434337558
30
0
41
1
10
4.25123765994229
20
1.516321619704
30
0
41
1
10
4.25126502953478
20
1.57901421190354
30
0
41
1
10
4.2513432133378
20
1.75777864412848
30
0
41
1
10
4.25139039085065
20
1.86508612777618
30
0
41
1
10
4.25145485364703
20
2.0086052786495
30
0
41
1
10
4.25147527057578
20
2.05351761648356
30
0
41
1
10
4.25151390646551
20
2.13729334161246
30
0
41
1
10
4.25153204824312
20
2.17598190936022
30
0
41
1
10
4.25158188114733
20
2.2804869606386
30
0
41
1
10
4.25160926187851
20
2.33529384670567
30
0
41
1
10
4.25165077000509
20
2.41581297972775
30
0
41
1
10
4.2516648627749
20
2.4414330483331
30
0
41
1
10
4.25167004401121
20
2.45111412009391
30
0
0
SPLINE
5
D5
100
AcDbEntity
8
1
62
256
6
ByLayer
370
18
48
1
60
0
100
AcDbSpline
70
4
71
3
72
22
73
18
40
0
40
0
40
0
40
0
40
0.13989888162735
40
0.13989888162735
40
0.209848322441025
40
0.209848322441025
40
0.2797977632547
40
0.2797977632547
40
0.559595526509401
40
0.559595526509401
40
0.629544967323076
40
0.629544967323076
40
0.699494408136752
40
0.699494408136752
40
0.839393289764105
40
0.839393289764105
40
1
40
1
40
1
40
1
41
1
10
4.20621607079693
20
-0.214845991750366
30
0
41
1
10
4.63606764144382
20
-0.425013732890079
30
0
41
1
10
5.06396862367748
20
-0.631694493331878
30
0
41
1
10
5.70638977772754
20
-0.929802472942896
30
0
41
1
10
5.92062922658323
20
-1.02717580397444
30
0
41
1
10
6.34996443206853
20
-1.21663530928549
30
0
41
1
10
6.56555417942718
20
-1.30886381096903
30
0
41
1
10
7.63790902807307
20
-1.74961793683343
30
0
41
1
10
8.48243726182196
20
-2.03958180587162
30
0
41
1
10
9.5459305959383
20
-2.29116208526264
30
0
41
1
10
9.75902267251567
20
-2.33595784262698
30
0
41
1
10
10.1865880315629
20
-2.41380499186136
30
0
41
1
10
10.4014878146984
20
-2.44690599368371
30
0
41
1
10
11.0463602602811
20
-2.527139749192
30
0
41
1
10
11.4725622352746
20
-2.55484258388231
30
0
41
1
10
12.3853541617342
20
-2.55927081240469
30
0
41
1
10
12.8715354011807
20
-2.52774889721758
30
0
41
1
10
13.3597888994501
20
-2.46352160221596
30
0
0
SPLINE
5
D6
100
AcDbEntity
8
1
62
256
6
ByLayer
370
18
48
1
60
0
100
AcDbSpline
70
4
71
3
72
30
73
26
40
0
40
0
40
0
40
0
40
0.0180678261988324
40
0.0180678261988324
40
0.0671644348888907
40
0.0671644348888907
40
0.116261043578949
40
0.116261043578949
40
0.214454260959066
40
0.214454260959066
40
0.312647478339183
40
0.312647478339183
40
0.361744087029241
40
0.361744087029241
40
0.4108406957193
40
0.4108406957193
40
0.607227130479531
40
0.607227130479531
40
0.705420347859645
40
0.705420347859645
40
0.754516956549703
40
0.754516956549703
40
0.803613565239762
40
0.803613565239762
40
1
40
1
40
1
40
1
41
1
10
32.1250062342357
20
1.90416973121543
30
0
41
1
10
32.2035424410048
20
1.87816850412136
30
0
41
1
10
32.2821678880673
20
1.85148313172678
30
0
41
1
10
32.5748340613461
20
1.74979595195381
30
0
41
1
10
32.7901878069425
20
1.67033685155721
30
0
41
1
10
33.2186715724189
20
1.50404954403478
30
0
41
1
10
33.4320518226904
20
1.41717448382994
30
0
41
1
10
34.0705593930791
20
1.14718895729601
30
0
41
1
10
34.4941537952354
20
0.954848918517143
30
0
41
1
10
35.3417924291474
20
0.554528151931748
30
0
41
1
10
35.7659565044639
20
0.346783510507777
30
0
41
1
10
36.4061864973906
20
0.0306338044622407
30
0
41
1
10
36.6206360244165
20
-0.0755866077506653
30
0
41
1
10
37.0501513259118
20
-0.287319579981187
30
0
41
1
10
37.263821508295
20
-0.392170313428494
30
0
41
1
10
38.3282677076727
20
-0.908529210056003
30
0
41
1
10
39.1673980971885
20
-1.29596544976383
30
0
41
1
10
40.4364845847389
20
-1.78406990690513
30
0
41
1
10
40.8612131704665
20
-1.93147904182302
30
0
41
1
10
41.5046285261436
20
-2.12300642899896
30
0
41
1
10
41.7195047525802
20
-2.181699184606
30
0
41
1
10
42.1465330971333
20
-2.28712437208188
30
0
41
1
10
42.3592934778451
20
-2.33403635133823
30
0
41
1
10
43.4210194271213
20
-2.53843084827886
30
0
41
1
10
44.2641309307657
20
-2.60555874353093
30
0
41
1
10
45.1192089415383
20
-2.567133158568
30
0
0
SPLINE
5
D7
100
AcDbEntity
8
1
62
256
6
ByLayer
370
18
48
1
60
0
100
AcDbSpline
70
4
71
3
72
8
73
4
40
0
40
0
40
0
40
0
40
1
40
1
40
1
40
1
41
1
10
45.9569636569676
20
0.712587006444778
30
0
41
1
10
45.9724480887016
20
0.506537460151208
30
0
41
1
10
45.9834916694509
20
0.300797390263568
30
0
41
1
10
45.9900970972149
20
0.0953666087622764
30
0
0
SPLINE
5
D8
100
AcDbEntity
8
1
62
256
6
ByLayer
370
18
48
1
60
0
100
AcDbSpline
70
4
71
3
72
14
73
10
40
0
40
0
40
0
40
0
40
0.25
40
0.25
40
0.5
40
0.5
40
0.75
40
0.75
40
1
40
1
40
1
40
1
41
1
10
4.25167004401453
20
-2.45111412009743
30
0
41
1
10
4.23129148922428
20
-2.45169832740859
30
0
41
1
10
4.21074712229967
20
-2.45457404774857
30
0
41
1
10
4.16927569530327
20
-2.46572112137107
30
0
41
1
10
4.14840790244025
20
-2.47407979356026
30
0
41
1
10
4.10898168431061
20
-2.49640279699318
30
0
41
1
10
4.09006321995861
20
-2.51064333727922
30
0
41
1
10
4.0571728913956
20
-2.54347529999723
30
0
41
1
10
4.04271009310327
20
-2.56257954915446
30
0
41
1
10
4.03146090059477
20
-2.58271786747741
30
0
0
SPLINE
5
D9
100
AcDbEntity
8
1
62
256
6
ByLayer
370
18
48
1
60
0
100
AcDbSpline
70
4
71
3
72
70
73
66
40
0
40
0
40
0
40
0
40
0.0597444090980365
40
0.0597444090980365
40
0.0896166136470552
40
0.0896166136470552
40
0.119488818196074
40
0.119488818196074
40
0.149361022745092
40
0.149361022745092
40
0.179233227294111
40
0.179233227294111
40
0.20910543184313
40
0.20910543184313
40
0.238977636392149
40
0.238977636392149
40
0.268849840941167
40
0.268849840941167
40
0.298722045490186
40
0.298722045490186
40
0.328594250039205
40
0.328594250039205
40
0.358466454588223
40
0.358466454588223
40
0.388338659137242
40
0.388338659137242
40
0.418210863686261
40
0.418210863686261
40
0.448083068235279
40
0.448083068235279
40
0.477955272784298
40
0.477955272784298
40
0.507827477333317
40
0.507827477333317
40
0.537699681882335
40
0.537699681882335
40
0.567571886431354
40
0.567571886431354
40
0.597444090980373
40
0.597444090980373
40
0.627316295529391
40
0.627316295529391
40
0.65718850007841
40
0.65718850007841
40
0.716932909176448
40
0.716932909176448
40
0.746805113725468
40
0.746805113725468
40
0.776677318274487
40
0.776677318274487
40
0.806549522823507
40
0.806549522823507
40
0.836421727372526
40
0.836421727372526
40
0.866293931921546
40
0.866293931921546
40
0.896166136470565
40
0.896166136470565
40
0.926038341019585
40
0.926038341019585
40
0.955910545568604
40
0.955910545568604
40
0.985782750117626
40
0.985782750117626
40
1
40
1
40
1
40
1
41
1
10
7.96917412955622
20
2.12534946270705
30
0
41
1
10
8.35975394892901
20
2.23788804523244
30
0
41
1
10
8.74978787968286
20
2.32830505186155
30
0
41
1
10
9.32987806747832
20
2.43683484307556
30
0
41
1
10
9.52287890424395
20
2.46792080891697
30
0
41
1
10
9.9094698147812
20
2.5193431654146
30
0
41
1
10
10.1028428154438
20
2.53986902753621
30
0
41
1
10
10.4891603505239
20
2.57067121826461
30
0
41
1
10
10.6820277830903
20
2.58086077862032
30
0
41
1
10
11.0695801697538
20
2.5902830915025
30
0
41
1
10
11.2639783215237
20
2.58965546025425
30
0
41
1
10
11.653537375524
20
2.57755998844104
30
0
41
1
10
11.8488798173003
20
2.56588538764433
30
0
41
1
10
12.2396822857079
20
2.53189226137326
30
0
41
1
10
12.4346645573227
20
2.50972177803402
30
0
41
1
10
12.8233071815612
20
2.4550928932766
30
0
41
1
10
13.0166652217814
20
2.42237423008291
30
0
41
1
10
13.4031423380224
20
2.34724959888967
30
0
41
1
10
13.5965051018218
20
2.3051133087985
30
0
41
1
10
13.9830429790387
20
2.21154094063473
30
0
41
1
10
14.1760406316719
20
2.15989423632089
30
0
41
1
10
14.5620174561555
20
2.04717525563191
30
0
41
1
10
14.7555517112889
20
1.98679160349357
30
0
41
1
10
15.1436552824285
20
1.8580757280148
30
0
41
1
10
15.338131683784
20
1.7896271240466
30
0
41
1
10
15.727547220748
20
1.64351157188486
30
0
41
1
10
15.9235377021933
20
1.56656154659103
30
0
41
1
10
16.3139956623616
20
1.40816775184081
30
0
41
1
10
16.5086646361439
20
1.32639572427263
30
0
41
1
10
16.8961679822536
20
1.15639397300231
30
0
41
1
10
17.0892528302244
20
1.06859990656159
30
0
41
1
10
17.4758929958886
20
0.890905654437233
30
0
41
1
10
17.6691830650487
20
0.800522010518506
30
0
41
1
10
18.0551841619516
20
0.615661323040115
30
0
41
1
10
18.2476696850683
20
0.520705463569925
30
0
41
1
10
18.6341602141923
20
0.330857723887419
30
0
41
1
10
18.8279347412659
20
0.235527735224082
30
0
41
1
10
19.2160314475751
20
0.0429791291795709
30
0
41
1
10
19.4100361905042
20
-0.0549384700200903
30
0
41
1
10
19.8001155271493
20
-0.249538981026006
30
0
41
1
10
19.9963979777661
20
-0.346177645132343
30
0
41
1
10
20.3863500094633
20
-0.53695353360996
30
0
41
1
10
20.5802962939557
20
-0.631866524884373
30
0
41
1
10
21.1608247336219
20
-0.911438034522092
30
0
41
1
10
21.5476546500842
20
-1.08807083582676
30
0
41
1
10
22.1256736109423
20
-1.34221446682775
30
0
41
1
10
22.3186653378373
20
-1.42383658450851
30
0
41
1
10
22.7055369201599
20
-1.58057750513191
30
0
41
1
10
22.8993230071443
20
-1.65587203026828
30
0
41
1
10
23.2869513656927
20
-1.80116620090999
30
0
41
1
10
23.4812714602766
20
-1.87037429229142
30
0
41
1
10
23.872144260402
20
-2.00007474477235
30
0
41
1
10
24.0682737238197
20
-2.06082192608861
30
0
41
1
10
24.4585261704384
20
-2.17396337447676
30
0
41
1
10
24.6530285035147
20
-2.22639042725379
30
0
41
1
10
25.043146502104
20
-2.32054123561744
30
0
41
1
10
25.2384580026133
20
-2.36265584043926
30
0
41
1
10
25.6290686936419
20
-2.43735836436514
30
0
41
1
10
25.8243335469657
20
-2.47010559890344
30
0
41
1
10
26.2150602791395
20
-2.52417873057829
30
0
41
1
10
26.4104418603659
20
-2.54574412749059
30
0
41
1
10
26.8006963002116
20
-2.57833485494101
30
0
41
1
10
26.9952377897976
20
-2.58937454320548
30
0
41
1
10
27.283010113033
20
-2.59743113483904
30
0
41
1
10
27.3759586984492
20
-2.59878237474479
30
0
41
1
10
27.4689991123373
20
-2.59889324883309
30
0
0
SPLINE
5
DA
100
AcDbEntity
8
1
62
256
6
ByLayer
370
18
48
1
60
0
100
AcDbSpline
70
4
71
3
72
26
73
22
40
0
40
0
40
0
40
0
40
0.0089188424005558
40
0.0089188424005558
40
0.119038971022717
40
0.119038971022717
40
0.229159099644877
40
0.229159099644877
40
0.339279228267037
40
0.339279228267037
40
0.449399356889198
40
0.449399356889198
40
0.559519485511358
40
0.559519485511358
40
0.669639614133519
40
0.669639614133519
40
0.779759742755679
40
0.779759742755679
40
0.889879871377839
40
0.889879871377839
40
1
40
1
40
1
40
1
41
1
10
39.9652204995498
20
1.92213440253724
30
0
41
1
10
39.980969930513
20
1.92747780099401
30
0
41
1
10
39.9967164548528
20
1.93278841819227
30
0
41
1
10
40.2068459378941
20
2.00321532333859
30
0
41
1
10
40.4008979963465
20
2.06375702632113
30
0
41
1
10
40.787843181315
20
2.17646215405358
30
0
41
1
10
40.9804035647055
20
2.22893021820079
30
0
41
1
10
41.3659456493417
20
2.32357815289527
30
0
41
1
10
41.5589483248802
20
2.36583190825149
30
0
41
1
10
41.9449111608245
20
2.44080812633109
30
0
41
1
10
42.1376219393563
20
2.47367107393723
30
0
41
1
10
42.5236972026953
20
2.5290192870566
30
0
41
1
10
42.7174701977835
20
2.55131802906755
30
0
41
1
10
43.1061437115609
20
2.5854413721662
30
0
41
1
10
43.3010297596664
20
2.59730354265375
30
0
41
1
10
43.6913484463616
20
2.61003032100396
30
0
41
1
10
43.8862403856559
20
2.61077604432055
30
0
41
1
10
44.2757452970306
20
2.60149159085776
30
0
41
1
10
44.4702603214356
20
2.59148334555073
30
0
41
1
10
44.8581597770889
20
2.56036837025201
30
0
41
1
10
45.0520712659728
20
2.53936557070378
30
0
41
1
10
45.2465203886609
20
2.51328721871562
30
0
0
SPLINE
5
DB
100
AcDbEntity
8
1
62
256
6
ByLayer
370
18
48
1
60
0
100
AcDbSpline
70
4
71
3
72
8
73
4
40
0
40
0
40
0
40
0
40
1
40
1
40
1
40
1
41
1
10
45.9900970972149
20
0.095366608762248
30
0
41
1
10
45.9906648052238
20
0.0777107196793736
30
0
41
1
10
45.9944731879916
20
0.0554281638745806
30
0
41
1
10
45.9999627338691
20
0.0321383401115725
30
0
0
SPLINE
5
DC
100
AcDbEntity
8
1
62
256
6
ByLayer
370
18
48
1
60
0
100
AcDbSpline
70
4
71
3
72
14
73
10
40
0
40
0
40
0
40
0
40
0.25
40
0.25
40
0.5
40
0.5
40
0.75
40
0.75
40
1
40
1
40
1
40
1
41
1
10
4.25167004572782
20
2.45111412004613
30
0
41
1
10
4.55251777398371
20
2.44248949255183
30
0
41
1
10
4.85729444416327
20
2.4147900927702
30
0
41
1
10
5.47318598801823
20
2.32894093709618
30
0
41
1
10
5.78174041852219
20
2.27126075581163
30
0
41
1
10
6.4003384106563
20
2.13319916383631
30
0
41
1
10
6.71058901734472
20
2.05406315173556
30
0
41
1
10
7.33565384645121
20
1.87564058161234
30
0
41
1
10
7.65048050030845
20
1.77795453844058
30
0
41
1
10
7.96917412955622
20
1.67565921906623
30
0
0
SPLINE
5
DD
100
AcDbEntity
8
1
62
256
6
ByLayer
370
18
48
1
60
0
100
AcDbSpline
70
4
71
3
72
14
73
10
40
0
40
0
40
0
40
0
40
0.25
40
0.25
40
0.5
40
0.5
40
0.75
40
0.75
40
1
40
1
40
1
40
1
41
1
10
45.1270135867561
20
-2.47639148561129
30
0
41
1
10
45.1304122357611
20
-2.47571434831338
30
0
41
1
10
45.1331811022704
20
-2.47670326175097
30
0
41
1
10
45.1370681304057
20
-2.483009006054
30
0
41
1
10
45.1381367963695
20
-2.48839857335776
30
0
41
1
10
45.1374375840902
20
-2.50465848788841
30
0
41
1
10
45.1355953780621
20
-2.51551742517898
30
0
41
1
10
45.1290595085382
20
-2.54023986404471
30
0
41
1
10
45.1244041646467
20
-2.55398209277152
30
0
41
1
10
45.1192089415713
20
-2.56713315856649
30
0
0
SPLINE
5
DE
100
AcDbEntity
8
1
62
256
6
ByLayer
370
18
48
1
60
0
100
AcDbSpline
70
4
71
3
72
12
73
8
40
0
40
0
40
0
40
0
40
0.0373204605674638
40
0.0373204605674638
40
0.447407104549396
40
0.447407104549396
40
1
40
1
40
1
40
1
41
1
10
28.6657388577996
20
-2.46830955280538
30
0
41
1
10
28.6267240549588
20
-2.4688056902823
30
0
41
1
10
28.5877258225634
20
-2.4690936632355
30
0
41
1
10
28.1205675515447
20
-2.4700437401693
30
0
41
1
10
27.6955741073896
20
-2.44583141648292
30
0
41
1
10
26.7002446091584
20
-2.33315040491263
30
0
41
1
10
26.1306276052041
20
-2.22507152844196
30
0
41
1
10
25.5571427390477
20
-2.07829751308526
30
0
0
SPLINE
5
DF
100
AcDbEntity
8
1
62
256
6
ByLayer
370
13
48
1
60
0
100
AcDbSpline
70
4
71
3
72
24
73
20
40
0
40
0
40
0
40
0
40
0.097025645893871
40
0.097025645893871
40
0.24572458871418
40
0.24572458871418
40
0.320074060124335
40
0.320074060124335
40
0.39442353153449
40
0.39442353153449
40
0.691821417175109
40
0.691821417175109
40
0.766170888585263
40
0.766170888585263
40
0.840520359995418
40
0.840520359995418
40
0.989219302815726
40
0.989219302815726
40
1
40
1
40
1
40
1
41
1
10
25.5571427394378
20
-2.07829751318513
30
0
41
1
10
25.279445890779
20
-2.00722557401087
30
0
41
1
10
25.0008421221343
20
-1.92708056217074
30
0
41
1
10
24.2913546863205
20
-1.70248156017209
30
0
41
1
10
23.8634149027802
20
-1.54831526931881
30
0
41
1
10
23.2213669887679
20
-1.2958826474644
30
0
41
1
10
23.007227592711
20
-1.20822601059473
30
0
41
1
10
22.5781520623413
20
-1.02692014823984
30
0
41
1
10
22.3633746075531
20
-0.933317944139361
30
0
41
1
10
21.2951571638107
20
-0.457271635344966
30
0
41
1
10
20.4514545005712
20
-0.0478953857854663
30
0
41
1
10
19.3877640728754
20
0.450587909787259
30
0
41
1
10
19.174556863285
20
0.549586376156839
30
0
41
1
10
18.7466430944541
20
0.744965045523088
30
0
41
1
10
18.5314392563892
20
0.841520071679781
30
0
41
1
10
17.8893722536348
20
1.12235042152631
30
0
41
1
10
17.4644247806448
20
1.29881361293013
30
0
41
1
10
17.0094029392671
20
1.47187648689823
30
0
41
1
10
16.978648066433
20
1.48349785679599
30
0
41
1
10
16.9478965229844
20
1.49504017092312
30
0
0
SPLINE
5
E0
100
AcDbEntity
8
1
62
256
6
ByLayer
370
18
48
1
60
0
100
AcDbSpline
70
4
71
3
72
8
73
4
40
0
40
0
40
0
40
0
40
1
40
1
40
1
40
1
41
1
10
45.9999627338691
20
0.0321383401115725
30
0
41
1
10
46.0000124270508
20
0.0107106204651473
30
0
41
1
10
46.0000124168099
20
-0.0107150363368476
30
0
41
1
10
45.9999627338692
20
-0.0321383400766706
30
0
0
SPLINE
5
E1
100
AcDbEntity
8
1
62
256
6
ByLayer
370
18
48
1
60
0
100
AcDbSpline
70
4
71
3
72
12
73
8
40
0
40
0
40
0
40
0
40
0.690500179888681
40
0.690500179888681
40
0.863125224860846
40
0.863125224860846
40
1
40
1
40
1
40
1
41
1
10
45.1270135867567
20
-2.47639148561126
30
0
41
1
10
44.2727705515716
20
-2.49627881327461
30
0
41
1
10
43.4297720921277
20
-2.4148036093271
30
0
41
1
10
42.3684336888902
20
-2.19914151343005
30
0
41
1
10
42.1557757564957
20
-2.15030693170513
30
0
41
1
10
41.7732166672682
20
-2.05299583549848
30
0
41
1
10
41.6031842714776
20
-2.0064205542244
30
0
41
1
10
41.433298019339
20
-1.95676859698617
30
0
0
SPLINE
5
E2
100
AcDbEntity
8
1
62
256
6
ByLayer
370
13
48
1
60
0
100
AcDbSpline
70
4
71
3
72
24
73
20
40
0
40
0
40
0
40
0
40
0.0155302024922722
40
0.0155302024922722
40
0.165510339735563
40
0.165510339735563
40
0.465470614222144
40
0.465470614222144
40
0.540460682843787
40
0.540460682843787
40
0.615450751465429
40
0.615450751465429
40
0.765430888708714
40
0.765430888708714
40
0.915411025951999
40
0.915411025951999
40
0.990401094573641
40
0.990401094573641
40
1
40
1
40
1
40
1
41
1
10
41.43329735972
20
-1.95676840420202
30
0
41
1
10
41.388925054888
20
-1.94379989078419
30
0
41
1
10
41.344562719967
20
-1.93062148860685
30
0
41
1
10
40.8720740567558
20
-1.7880261542096
30
0
41
1
10
40.4478162965069
20
-1.64050983622403
30
0
41
1
10
39.1796069230097
20
-1.1561873647008
30
0
41
1
10
38.3403727570309
20
-0.776719202786865
30
0
41
1
10
37.2765524665218
20
-0.276759441168309
30
0
41
1
10
37.0630436811676
20
-0.175503619529451
30
0
41
1
10
36.6339337808404
20
0.0283476496215087
30
0
41
1
10
36.419981154775
20
0.130165256089356
30
0
41
1
10
35.7805749089982
20
0.432890262182184
30
0
41
1
10
35.3567414193092
20
0.630930038503863
30
0
41
1
10
34.5096323116039
20
1.01063962983085
30
0
41
1
10
34.0862147246204
20
1.19201618493409
30
0
41
1
10
33.4481181311402
20
1.44498180574985
30
0
41
1
10
33.2349029325374
20
1.52610277618706
30
0
41
1
10
32.9934605247037
20
1.61328947073616
30
0
41
1
10
32.9660470736733
20
1.62312012927146
30
0
41
1
10
32.9386231316374
20
1.63288533958431
30
0
0
SPLINE
5
E3
100
AcDbEntity
8
1
62
256
6
ByLayer
370
18
48
1
60
0
100
AcDbSpline
70
4
71
3
72
16
73
12
40
0
40
0
40
0
40
0
40
0.0732237370618793
40
0.0732237370618793
40
0.472266126316429
40
0.472266126316429
40
0.671787320943705
40
0.671787320943705
40
0.871308515570981
40
0.871308515570981
40
1
40
1
40
1
40
1
41
1
10
12.1671657869977
20
-2.45881116398161
30
0
41
1
10
12.0893067152436
20
-2.45875656898403
30
0
41
1
10
12.0114219270968
20
-2.45787396980069
30
0
41
1
10
11.5088364212197
20
-2.44681704173792
30
0
41
1
10
11.0829692318623
20
-2.41284112436065
30
0
41
1
10
10.4389596711894
20
-2.32509675650746
30
0
41
1
10
10.2243939440079
20
-2.28981835150549
30
0
41
1
10
9.7973073645914
20
-2.20828999345252
30
0
41
1
10
9.58441419415888
20
-2.16198699226976
30
0
41
1
10
9.23480245150228
20
-2.07726465473712
30
0
41
1
10
9.09787161630604
20
-2.04187573107512
30
0
41
1
10
8.96101504674968
20
-2.00442854797546
30
0
0
SPLINE
5
E4
100
AcDbEntity
8
1
62
256
6
ByLayer
370
13
48
1
60
0
100
AcDbSpline
70
4
71
3
72
14
73
10
40
0
40
0
40
0
40
0
40
0.456152273106174
40
0.456152273106174
40
0.592114204829631
40
0.592114204829631
40
0.728076136553087
40
0.728076136553087
40
1
40
1
40
1
40
1
41
1
10
8.96101601154044
20
-2.00442881196491
30
0
41
1
10
8.24915141584705
20
-1.8096459309574
30
0
41
1
10
7.53929615571508
20
-1.55917478887142
30
0
41
1
10
6.60641786047364
20
-1.18207805012764
30
0
41
1
10
6.39115329766349
20
-1.09181583519111
30
0
41
1
10
5.9624146635644
20
-0.906834947738105
30
0
41
1
10
5.74845787029707
20
-0.812007663642021
30
0
41
1
10
5.10689310195062
20
-0.522413517548074
30
0
41
1
10
4.67957953215651
20
-0.322557786786632
30
0
41
1
10
4.25043250486351
20
-0.120414590217479
30
0
0
SPLINE
5
E5
100
AcDbEntity
8
1
62
256
6
ByLayer
370
18
48
1
60
0
100
AcDbSpline
70
4
71
3
72
10
73
6
40
0
40
0
40
0
40
0
40
0.5
40
0.5
40
1
40
1
40
1
40
1
41
1
10
45.246520388661
20
-2.51328721871562
30
0
41
1
10
45.3584533128862
20
-2.20942241392535
30
0
41
1
10
45.4739211566774
20
-1.90774541060378
30
0
41
1
10
45.7109841487795
20
-1.30776578541008
30
0
41
1
10
45.8325906472002
20
-1.00947515628599
30
0
41
1
10
45.9569636569676
20
-0.712587006444778
30
0
0
SPLINE
5
E6
100
AcDbEntity
8
1
62
256
6
ByLayer
370
18
48
1
60
0
100
AcDbSpline
70
4
71
3
72
8
73
4
40
0
40
0
40
0
40
0
40
1
40
1
40
1
40
1
41
1
10
45.9790554709962
20
-0.0172566538755348
30
0
41
1
10
45.5996120980368
20
-0.638528033029957
30
0
41
1
10
45.2441962739988
20
-1.28168209205023
30
0
41
1
10
44.9136645384022
20
-1.94749890967717
30
0
0
SPLINE
5
E7
100
AcDbEntity
8
1
62
256
6
ByLayer
370
18
48
1
60
0
100
AcDbSpline
70
4
71
3
72
8
73
4
40
0
40
0
40
0
40
0
40
1
40
1
40
1
40
1
41
1
10
45.2465203886609
20
-2.51328721871562
30
0
41
1
10
45.1953122353541
20
-2.55581959534706
30
0
41
1
10
45.1486231240208
20
-2.58508472824394
30
0
41
1
10
45.1063733081257
20
-2.59958335235885
30
0
0
SPLINE
5
E8
100
AcDbEntity
8
1
62
256
6
ByLayer
370
18
48
1
60
0
100
AcDbSpline
70
4
71
3
72
20
73
16
40
0
40
0
40
0
40
0
40
0.0996022130911258
40
0.190234031299723
40
0.268643541574583
40
0.333969841468012
40
0.410672169921056
40
0.503011803043545
40
0.569182909131273
40
0.614105013730538
40
0.658438349789405
40
0.722629378407334
40
0.806513038822397
40
0.909385327046522
40
1
40
1
40
1
40
1
41
1
10
12.1240501920992
20
-2.45877799927331
30
0
41
1
10
12.3837000086315
20
-2.45665486545613
30
0
41
1
10
12.8814438642154
20
-2.45432665602041
30
0
41
1
10
13.5978769286119
20
-2.45928755373714
30
0
41
1
10
14.2127323439294
20
-2.46138273359725
30
0
41
1
10
14.8011766869812
20
-2.46052331657472
30
0
41
1
10
15.4242776232142
20
-2.46280906492129
30
0
41
1
10
16.0503491887885
20
-2.46105666755068
30
0
41
1
10
16.5917486296951
20
-2.46366158081057
30
0
41
1
10
17.0047779618525
20
-2.46287237135198
30
0
41
1
10
17.4135497852952
20
-2.46215400201311
30
0
41
1
10
17.9236655948828
20
-2.46561342159291
30
0
41
1
10
18.5889495821317
20
-2.46076229041847
30
0
41
1
10
19.3283295074351
20
-2.46521487447842
30
0
41
1
10
19.8419421852717
20
-2.46514336448172
30
0
41
1
10
20.0823926913418
20
-2.4651948916499
30
0
0
SPLINE
5
E9
100
AcDbEntity
8
1
62
256
6
ByLayer
370
18
48
1
60
0
100
AcDbSpline
70
4
71
3
72
23
73
19
40
0
40
0
40
0
40
0
40
0.077119860491714
40
0.178284997348182
40
0.270656783136734
40
0.348562663162633
40
0.406611234121622
40
0.449342425463084
40
0.507234734763493
40
0.575060982002696
40
0.65192377354214
40
0.718057434214002
40
0.772311041741889
40
0.803917401518362
40
0.849878477505674
40
0.914298839495207
40
0.997134013327357
40
1
40
1
40
1
40
1
41
1
10
36.4658124900281
20
2.47315938434863
30
0
41
1
10
36.2993255447787
20
2.47209281463932
30
0
41
1
10
35.9132397925189
20
2.47021564149702
30
0
41
1
10
35.3197585121253
20
2.46733866063147
30
0
41
1
10
34.7259796266843
20
2.47071696672307
30
0
41
1
10
34.2308354786974
20
2.47318794417461
30
0
41
1
10
33.8408189350402
20
2.47134357417875
30
0
41
1
10
33.493145974547
20
2.47191959131104
30
0
41
1
10
33.1242678678514
20
2.47244171288634
30
0
41
1
10
32.6805893789745
20
2.47080343957779
30
0
41
1
10
32.2188840129949
20
2.47128438376257
30
0
41
1
10
31.7868670746139
20
2.47166090987111
30
0
41
1
10
31.4540128445329
20
2.47073905659906
30
0
41
1
10
31.1661196544812
20
2.47042366131268
30
0
41
1
10
30.8553988196488
20
2.4705335309325
30
0
41
1
10
30.4323668030085
20
2.47017667287506
30
0
41
1
10
30.1035511449772
20
2.4696256602393
30
0
41
1
10
29.9158423376822
20
2.46950736106726
30
0
41
1
10
29.9095650568756
20
2.4695036154194
30
0
0
SPLINE
5
EA
100
AcDbEntity
8
1
62
256
6
ByLayer
370
18
48
1
60
0
100
AcDbSpline
70
4
71
3
72
20
73
16
40
0
40
0
40
0
40
0
40
0.093152969342066
40
0.206654729502408
40
0.302338387512107
40
0.380103845109687
40
0.439213469755785
40
0.481406810230047
40
0.533535379310898
40
0.605473883774784
40
0.717947885982606
40
0.811374917995238
40
0.890945413891536
40
0.986451873399174
40
1
40
1
40
1
40
1
41
1
10
20.0830909263051
20
2.46513840855045
30
0
41
1
10
19.880167464702
20
2.46503767231604
30
0
41
1
10
19.4296905862923
20
2.46491262470383
30
0
41
1
10
18.7689787612163
20
2.46112723115297
30
0
41
1
10
18.1421358323611
20
2.46470168323216
30
0
41
1
10
17.6373308426907
20
2.46324289531589
30
0
41
1
10
17.246283524366
20
2.46235993785354
30
0
41
1
10
16.9111191562806
20
2.46314187245577
30
0
41
1
10
16.5481918425361
20
2.46339563128393
30
0
41
1
10
16.0314499574479
20
2.46112169171783
30
0
41
1
10
15.4242705888243
20
2.46280593934586
30
0
41
1
10
14.8011781262671
20
2.46052395608979
30
0
41
1
10
14.2127319050616
20
2.46138253859618
30
0
41
1
10
13.8064659788494
20
2.45999831896972
30
0
41
1
10
13.5695235409605
20
2.45874619238427
30
0
41
1
10
13.5400637442988
20
2.45858697061993
30
0
0
SPLINE
5
EB
100
AcDbEntity
8
1
62
256
6
ByLayer
370
18
48
1
60
0
100
AcDbSpline
70
4
71
3
72
20
73
16
40
0
40
0
40
0
40
0
40
0.125947376653448
40
0.224228450562777
40
0.289897934008048
40
0.345190041165161
40
0.435998697718633
40
0.522498891818728
40
0.569504940122281
40
0.611446325012611
40
0.657854219396343
40
0.712488704788565
40
0.792504253253519
40
0.900780686345167
40
1
40
1
40
1
40
1
41
1
10
28.5192542312168
20
-2.46919230792199
30
0
41
1
10
28.8499104119449
20
-2.46945474598945
30
0
41
1
10
29.4385811056227
20
-2.46994290942362
30
0
41
1
10
30.1995322020768
20
-2.47011911206397
30
0
41
1
10
30.7751427304945
20
-2.47091375183706
30
0
41
1
10
31.3308861230132
20
-2.47016104531892
30
0
41
1
10
31.9416221464727
20
-2.47224328577974
30
0
41
1
10
32.5304327804804
20
-2.4703520806776
30
0
41
1
10
32.9910303621495
20
-2.4721953201047
30
0
41
1
10
33.3463729568636
20
-2.47219116153752
30
0
41
1
10
33.721743249377
20
-2.47125393087452
30
0
41
1
10
34.1970700444095
20
-2.47310380297264
30
0
41
1
10
34.8347810770855
20
-2.47257645199738
30
0
41
1
10
35.5895816202772
20
-2.47274090616827
30
0
41
1
10
36.134288884842
20
-2.47346443646643
30
0
41
1
10
36.3947530328604
20
-2.47395045945845
30
0
0
SPLINE
5
EC
100
AcDbEntity
8
1
62
256
6
ByLayer
370
18
48
1
60
0
100
AcDbSpline
70
4
71
1
72
4
73
2
40
0
40
0
40
1
40
1
41
1
10
44.7767444700162
20
-2.47917143863887
30
0
41
1
10
45.0693470251429
20
-2.47569900198255
30
0
0
LINE
5
7B
100
AcDbEntity
8
SK1
62
256
6
ByLayer
370
18
48
1
60
0
100
AcDbLine
10
-36
20
2.065
30
0
11
-36
21
-2.065
31
0
39
0
210
0
220
0
230
1
0
LINE
5
7D
100
AcDbEntity
8
SK1
62
256
6
ByLayer
370
18
48
1
60
0
100
AcDbLine
10
-35.065
20
3
30
0
11
-35.065
21
-3
31
0
39
0
210
0
220
0
230
1
0
LINE
5
7E
100
AcDbEntity
8
SK1
62
256
6
ByLayer
370
18
48
1
60
0
100
AcDbLine
10
0
20
-3
30
0
11
0
21
3
31
0
39
0
210
0
220
0
230
1
0
LINE
5
7F
100
AcDbEntity
8
1
62
256
6
ByLayer
370
18
48
1
60
0
100
AcDbLine
10
0
20
-3
30
0
11
0
21
3
31
0
39
0
210
0
220
0
230
1
0
LINE
5
80
100
AcDbEntity
8
1
62
256
6
ByLayer
370
13
48
1
60
0
100
AcDbLine
10
0.538967
20
2.791197
30
0
11
0.538967
21
-2.791197
31
0
39
0
210
0
220
0
230
1
0
LINE
5
81
100
AcDbEntity
8
1
62
256
6
ByLayer
370
13
48
1
60
0
100
AcDbLine
10
44.892106
20
0.670808
30
0
11
45.979055
21
-0.017257
31
0
39
0
210
0
220
0
230
1
0
LINE
5
82
100
AcDbEntity
8
1
62
256
6
ByLayer
370
13
48
1
60
0
100
AcDbLine
10
44.981574
20
0.733786
30
0
11
45.990097
21
0.095367
31
0
39
0
210
0
220
0
230
1
0
LINE
5
83
100
AcDbEntity
8
1
62
256
6
ByLayer
370
13
48
1
60
0
100
AcDbLine
10
1.078434
20
2.582395
30
0
11
1.078434
21
-2.582395
31
0
39
0
210
0
220
0
230
1
0
LINE
5
84
100
AcDbEntity
8
80
62
256
6
ByLayer
370
18
48
1
60
0
100
AcDbLine
10
0
20
0
30
0
11
-5
21
0
31
0
39
0
210
0
220
0
230
1
0
LINE
5
85
100
AcDbEntity
8
4
62
256
6
ByLayer
370
18
48
0.05
60
0
100
AcDbLine
10
46
20
0
30
0
11
0
21
0
31
0
39
0
210
0
220
0
230
1
0
LINE
5
87
100
AcDbEntity
8
SK4
62
256
6
ByLayer
370
18
48
0.05
60
0
100
AcDbLine
10
51
20
0
30
0
11
-41
21
0
31
0
39
0
210
0
220
0
230
1
0
LINE
5
89
100
AcDbEntity
8
SK1
62
256
6
ByLayer
370
18
48
1
60
0
100
AcDbLine
10
-35.065
20
-3
30
0
11
0
21
-3
31
0
39
0
210
0
220
0
230
1
0
LINE
5
8A
100
AcDbEntity
8
SK1
62
256
6
ByLayer
370
18
48
1
60
0
100
AcDbLine
10
0
20
3
30
0
11
-35.065
21
3
31
0
39
0
210
0
220
0
230
1
0
LINE
5
8B
100
AcDbEntity
8
SK1
62
256
6
ByLayer
370
18
48
1
60
0
100
AcDbLine
10
-36
20
-2.065
30
0
11
-35.065
21
-3
31
0
39
0
210
0
220
0
230
1
0
LINE
5
8C
100
AcDbEntity
8
SK1
62
256
6
ByLayer
370
18
48
1
60
0
100
AcDbLine
10
-35.065
20
3
30
0
11
-36
21
2.065
31
0
39
0
210
0
220
0
230
1
0
LINE
5
8D
100
AcDbEntity
8
1
62
256
6
ByLayer
370
18
48
1
60
0
100
AcDbLine
10
11.123949
20
-2.588674
30
0
11
11.942671
21
-2.589185
31
0
39
0
210
0
220
0
230
1
0
LINE
5
8E
100
AcDbEntity
8
1
62
256
6
ByLayer
370
18
48
1
60
0
100
AcDbLine
10
11.943083
20
2.589186
30
0
11
11.123949
21
2.588674
31
0
39
0
210
0
220
0
230
1
0
LINE
5
8F
100
AcDbEntity
8
1
62
256
6
ByLayer
370
18
48
1
60
0
100
AcDbLine
10
1.078434
20
-2.582395
30
0
11
3.888234
21
-2.584151
31
0
39
0
210
0
220
0
230
1
0
LINE
5
90
100
AcDbEntity
8
1
62
256
6
ByLayer
370
18
48
1
60
0
100
AcDbLine
10
27.476547
20
-2.598894
30
0
11
28.292805
21
-2.599404
31
0
39
0
210
0
220
0
230
1
0
LINE
5
91
100
AcDbEntity
8
1
62
256
6
ByLayer
370
18
48
1
60
0
100
AcDbLine
10
43.826404
20
-2.609113
30
0
11
44.644293
21
-2.609624
31
0
39
0
210
0
220
0
230
1
0
LINE
5
92
100
AcDbEntity
8
1
62
256
6
ByLayer
370
18
48
1
60
0
100
AcDbLine
10
44.643885
20
2.609624
30
0
11
43.826404
21
2.609113
31
0
39
0
210
0
220
0
230
1
0
LINE
5
93
100
AcDbEntity
8
1
62
256
6
ByLayer
370
18
48
1
60
0
100
AcDbLine
10
28.293
20
2.599404
30
0
11
27.476547
21
2.598894
31
0
39
0
210
0
220
0
230
1
0
LINE
5
94
100
AcDbEntity
8
1
62
256
6
ByLayer
370
18
48
1
60
0
100
AcDbLine
10
3.888234
20
2.584151
30
0
11
1.078434
21
2.582395
31
0
39
0
210
0
220
0
230
1
0
LINE
5
95
100
AcDbEntity
8
81
62
256
6
ByLayer
370
18
48
1
60
0
100
AcDbLine
10
46
20
0
30
0
11
51
21
0
31
0
39
0
210
0
220
0
230
1
0
LINE
5
96
100
AcDbEntity
8
SK2
62
256
6
ByLayer
370
13
48
1
60
0
100
AcDbLine
10
-44.625163
20
32.117107
30
0
11
-44.625163
21
-11.75
31
0
39
0
210
0
220
0
230
1
0
LINE
5
98
100
AcDbEntity
8
SK2
62
256
6
ByLayer
370
13
48
1
60
0
100
AcDbLine
10
-37.5875
20
3
30
0
11
-46.625163
21
3
31
0
39
0
210
0
220
0
230
1
0
LINE
5
99
100
AcDbEntity
8
SK2
62
256
6
ByLayer
370
13
48
1
60
0
100
AcDbLine
10
-37.5875
20
-3
30
0
11
-46.625163
21
-3
31
0
39
0
210
0
220
0
230
1
0
LINE
5
9A
100
AcDbEntity
8
1
62
256
6
ByLayer
370
18
48
1
60
1
100
AcDbLine
10
-44.625163
20
3
30
0
11
-45.085946
21
6.499998
31
0
39
0
210
0
220
0
230
1
0
LINE
5
9B
100
AcDbEntity
8
1
62
256
6
ByLayer
370
18
48
1
60
1
100
AcDbLine
10
-45.085946
20
6.499998
30
0
11
-44.164379
21
6.500002
31
0
39
0
210
0
220
0
230
1
0
LINE
5
9C
100
AcDbEntity
8
1
62
256
6
ByLayer
370
18
48
1
60
1
100
AcDbLine
10
-44.164379
20
6.500002
30
0
11
-44.625163
21
3
31
0
39
0
210
0
220
0
230
1
0
LINE
5
9D
100
AcDbEntity
8
1
62
256
6
ByLayer
370
18
48
1
60
1
100
AcDbLine
10
-44.625163
20
-3
30
0
11
-44.164379
21
-6.499998
31
0
39
0
210
0
220
0
230
1
0
LINE
5
9E
100
AcDbEntity
8
1
62
256
6
ByLayer
370
18
48
1
60
1
100
AcDbLine
10
-44.164379
20
-6.499998
30
0
11
-45.085946
21
-6.500002
31
0
39
0
210
0
220
0
230
1
0
LINE
5
9F
100
AcDbEntity
8
1
62
256
6
ByLayer
370
18
48
1
60
1
100
AcDbLine
10
-45.085946
20
-6.500002
30
0
11
-44.625163
21
-3
31
0
39
0
210
0
220
0
230
1
0
LINE
5
A0
100
AcDbEntity
8
2
62
256
6
ByLayer
370
13
48
1
60
0
100
AcDbLine
10
58.083343
20
30.320193
30
0
11
58.083343
21
-11.36
31
0
39
0
210
0
220
0
230
1
0
LINE
5
A2
100
AcDbEntity
8
2
62
256
6
ByLayer
370
13
48
1
60
0
100
AcDbLine
10
46.8238
20
2.61
30
0
11
60.083343
21
2.61
31
0
39
0
210
0
220
0
230
1
0
LINE
5
A3
100
AcDbEntity
8
2
62
256
6
ByLayer
370
13
48
1
60
0
100
AcDbLine
10
46.8238
20
-2.61
30
0
11
60.083343
21
-2.61
31
0
39
0
210
0
220
0
230
1
0
LINE
5
A4
100
AcDbEntity
8
1
62
256
6
ByLayer
370
18
48
1
60
1
100
AcDbLine
10
58.083343
20
2.61
30
0
11
57.622559
21
6.109998
31
0
39
0
210
0
220
0
230
1
0
LINE
5
A5
100
AcDbEntity
8
1
62
256
6
ByLayer
370
18
48
1
60
1
100
AcDbLine
10
57.622559
20
6.109998
30
0
11
58.544126
21
6.110002
31
0
39
0
210
0
220
0
230
1
0
LINE
5
A6
100
AcDbEntity
8
1
62
256
6
ByLayer
370
18
48
1
60
1
100
AcDbLine
10
58.544126
20
6.110002
30
0
11
58.083343
21
2.61
31
0
39
0
210
0
220
0
230
1
0
LINE
5
A7
100
AcDbEntity
8
1
62
256
6
ByLayer
370
18
48
1
60
1
100
AcDbLine
10
58.083343
20
-2.61
30
0
11
58.544126
21
-6.109998
31
0
39
0
210
0
220
0
230
1
0
LINE
5
A8
100
AcDbEntity
8
1
62
256
6
ByLayer
370
18
48
1
60
1
100
AcDbLine
10
58.544126
20
-6.109998
30
0
11
57.622559
21
-6.110002
31
0
39
0
210
0
220
0
230
1
0
LINE
5
A9
100
AcDbEntity
8
1
62
256
6
ByLayer
370
18
48
1
60
1
100
AcDbLine
10
57.622559
20
-6.110002
30
0
11
58.083343
21
-2.61
31
0
39
0
210
0
220
0
230
1
0
LINE
5
F3
100
AcDbEntity
8
1
62
256
6
ByLayer
370
18
48
1
60
1
100
AcDbLine
10
-44.625163
20
3
30
0
11
-45.085946
21
6.499998
31
0
39
0
210
0
220
0
230
1
0
LINE
5
F4
100
AcDbEntity
8
1
62
256
6
ByLayer
370
18
48
1
60
1
100
AcDbLine
10
-45.085946
20
6.499998
30
0
11
-44.164379
21
6.500002
31
0
39
0
210
0
220
0
230
1
0
LINE
5
F5
100
AcDbEntity
8
1
62
256
6
ByLayer
370
18
48
1
60
1
100
AcDbLine
10
-44.164379
20
6.500002
30
0
11
-44.625163
21
3
31
0
39
0
210
0
220
0
230
1
0
LINE
5
F7
100
AcDbEntity
8
1
62
256
6
ByLayer
370
18
48
1
60
1
100
AcDbLine
10
-44.625163
20
-3
30
0
11
-44.164379
21
-6.499998
31
0
39
0
210
0
220
0
230
1
0
LINE
5
F8
100
AcDbEntity
8
1
62
256
6
ByLayer
370
18
48
1
60
1
100
AcDbLine
10
-44.164379
20
-6.499998
30
0
11
-45.085946
21
-6.500002
31
0
39
0
210
0
220
0
230
1
0
LINE
5
F9
100
AcDbEntity
8
1
62
256
6
ByLayer
370
18
48
1
60
1
100
AcDbLine
10
-45.085946
20
-6.500002
30
0
11
-44.625163
21
-3
31
0
39
0
210
0
220
0
230
1
0
LINE
5
FD
100
AcDbEntity
8
1
62
256
6
ByLayer
370
18
48
1
60
1
100
AcDbLine
10
58.083343
20
2.61
30
0
11
57.622559
21
6.109998
31
0
39
0
210
0
220
0
230
1
0
LINE
5
FE
100
AcDbEntity
8
1
62
256
6
ByLayer
370
18
48
1
60
1
100
AcDbLine
10
57.622559
20
6.109998
30
0
11
58.544126
21
6.110002
31
0
39
0
210
0
220
0
230
1
0
LINE
5
FF
100
AcDbEntity
8
1
62
256
6
ByLayer
370
18
48
1
60
1
100
AcDbLine
10
58.544126
20
6.110002
30
0
11
58.083343
21
2.61
31
0
39
0
210
0
220
0
230
1
0
LINE
5
101
100
AcDbEntity
8
1
62
256
6
ByLayer
370
18
48
1
60
1
100
AcDbLine
10
58.083343
20
-2.61
30
0
11
58.544126
21
-6.109998
31
0
39
0
210
0
220
0
230
1
0
LINE
5
102
100
AcDbEntity
8
1
62
256
6
ByLayer
370
18
48
1
60
1
100
AcDbLine
10
58.544126
20
-6.109998
30
0
11
57.622559
21
-6.110002
31
0
39
0
210
0
220
0
230
1
0
LINE
5
103
100
AcDbEntity
8
1
62
256
6
ByLayer
370
18
48
1
60
1
100
AcDbLine
10
57.622559
20
-6.110002
30
0
11
58.083343
21
-2.61
31
0
39
0
210
0
220
0
230
1
0
MTEXT
5
ED
100
AcDbEntity
8
SK6
62
256
6
ByLayer
370
13
48
1
60
0
100
AcDbMText
10
-24.582626
20
35.150328
30
0
210
0
220
0
230
1
1
\W0.7776;462.1-0522-026A0-XM X2BM
40
3.5
41
0
44
1.084337
50
0
71
7
72
5
7
iso_b_vert
0
MTEXT
5
F1
100
AcDbEntity
8
SK2
62
256
6
ByLayer
370
18
48
1
60
0
100
AcDbMText
10
-46.189796
20
16.409024
30
0
210
0
220
0
230
1
1
%%c
40
3.5
41
0
44
1.084337
50
90
71
7
72
5
7
iso_b_vert
0
MTEXT
5
F2
100
AcDbEntity
8
SK2
62
256
6
ByLayer
370
18
48
1
60
0
100
AcDbMText
10
-46.189796
20
21.63168
30
0
210
0
220
0
230
1
1
\W0.7317;6,000
40
3.5
41
0
44
1.084337
50
90
71
7
72
5
7
iso_b_vert
0
MTEXT
5
FB
100
AcDbEntity
8
2
62
256
6
ByLayer
370
18
48
1
60
0
100
AcDbMText
10
56.518709
20
14.61211
30
0
210
0
220
0
230
1
1
%%c
40
3.5
41
0
44
1.084337
50
90
71
7
72
5
7
iso_b_vert
0
MTEXT
5
FC
100
AcDbEntity
8
2
62
256
6
ByLayer
370
18
48
1
60
0
100
AcDbMText
10
56.518709
20
19.834766
30
0
210
0
220
0
230
1
1
\W0.7317;5,220
40
3.5
41
0
44
1.084337
50
90
71
7
72
5
7
iso_b_vert
0
HATCH
5
F6
100
AcDbEntity
8
SK2
62
256
6
ByLayer
370
13
48
1
60
0
100
AcDbHatch
10
0
20
0
30
0
210
0
220
0
230
1
2
ANSI31
70
0
71
0
91
1
92
5
93
3
72
1
10
-44.6251625675374
20
3
11
-45.0859463090902
21
6.49999830744682
72
1
10
-45.0859463090902
20
6.49999830744682
11
-44.1643788259847
21
6.50000169255318
72
1
10
-44.1643788259847
20
6.50000169255318
11
-44.6251625675374
21
3
97
0
75
0
76
1
52
0
41
0.0062
77
0
78
1
53
45
43
0
44
0
45
-0.0139193969876572
46
0.0139193969876572
79
0
47
0
98
1
10
0
20
0
0
HATCH
5
FA
100
AcDbEntity
8
SK2
62
256
6
ByLayer
370
13
48
1
60
0
100
AcDbHatch
10
0
20
0
30
0
210
0
220
0
230
1
2
ANSI31
70
0
71
0
91
1
92
5
93
3
72
1
10
-44.6251625675374
20
-3
11
-44.1643788259847
21
-6.49999830744682
72
1
10
-44.1643788259847
20
-6.49999830744682
11
-45.0859463090902
21
-6.50000169255318
72
1
10
-45.0859463090902
20
-6.50000169255318
11
-44.6251625675374
21
-3
97
0
75
0
76
1
52
0
41
0.0062
77
0
78
1
53
45
43
0
44
0
45
-0.0139193969876572
46
0.0139193969876572
79
0
47
0
98
1
10
0
20
0
0
HATCH
5
100
100
AcDbEntity
8
2
62
256
6
ByLayer
370
13
48
1
60
0
100
AcDbHatch
10
0
20
0
30
0
210
0
220
0
230
1
2
ANSI31
70
0
71
0
91
1
92
5
93
3
72
1
10
58.083342615295
20
2.61000000000001
11
57.6225588737423
21
6.10999830744683
72
1
10
57.6225588737423
20
6.10999830744683
11
58.5441263568478
21
6.1100016925532
72
1
10
58.5441263568478
20
6.1100016925532
11
58.083342615295
21
2.61000000000001
97
0
75
0
76
1
52
0
41
0.0062
77
0
78
1
53
45
43
0
44
0
45
-0.0139193969876572
46
0.0139193969876572
79
0
47
0
98
1
10
0
20
0
0
HATCH
5
104
100
AcDbEntity
8
2
62
256
6
ByLayer
370
13
48
1
60
0
100
AcDbHatch
10
0
20
0
30
0
210
0
220
0
230
1
2
ANSI31
70
0
71
0
91
1
92
5
93
3
72
1
10
58.083342615295
20
-2.60999999999999
11
58.5441263568478
21
-6.1099983074468
72
1
10
58.5441263568478
20
-6.1099983074468
11
57.6225588737423
21
-6.11000169255317
72
1
10
57.6225588737423
20
-6.11000169255317
11
58.083342615295
21
-2.60999999999999
97
0
75
0
76
1
52
0
41
0.0062
77
0
78
1
53
45
43
0
44
0
45
-0.0139193969876572
46
0.0139193969876572
79
0
47
0
98
1
10
0
20
0
0
DIMENSION
5
106
100
AcDbEntity
8
SK2
62
256
6
ByLayer
370
13
48
1
60
0
100
AcDbDimension
2
_U0
10
45.2363
20
-12.823398
30
0
11
22.61815
21
-12.823398
31
0
70
32
71
1
72
1
41
1
210
0
220
0
230
1
3
Standard
100
AcDbAlignedDimension
13
0
23
0
33
0
14
45.2363
24
-2.61
34
0
50
0
100
AcDbRotatedDimension
1001
ACAD
1000
DSTYLE
1002
{
1070
   371
1070
    13
1070
   372
1070
    13
1070
   170
1070
     0
1070
   144
1040
1.0
1070
   277
1070
     2
1070
   278
1070
    44
1070
   146
1040
1.0
1070
   345
1005
16
1070
   347
1005
16
1070
   346
1005
16
1070
   344
1005
0
1070
   343
1005
0
1070
   172
1070
     1
1070
    76
1070
     0
1070
    75
1070
     0
1070
   282
1070
     0
1070
   281
1070
     0
1070
    71
1070
     0
1070
    74
1070
     0
1070
   279
1070
     0
1070
   173
1070
     1
1070
   340
1005
EE
1070
   271
1070
     2
1070
   272
1070
     2
1070
    77
1070
     1
1070
    73
1070
     1
1070
   171
1070
     3
1070
   274
1070
     4
1070
   177
1070
    35
1070
   176
1070
    35
1070
   178
1070
    35
1070
    48
1040
-0.1
1070
    41
1040
3.5
1070
   147
1040
1.75
1070
    42
1040
1.5875
1070
    44
1040
2.0
1070
   140
1040
3.5
1002
}
1001
ACAD_DSTYLE_DIM_LINETYPE
1070
   380
1005
16
1001
ACAD_DSTYLE_DIM_EXT1_LINETYPE
1070
   381
1005
16
1001
ACAD_DSTYLE_DIM_EXT2_LINETYPE
1070
   382
1005
16
0
DIMENSION
5
11F
100
AcDbEntity
8
SK2
62
256
6
ByLayer
370
13
48
1
60
0
100
AcDbDimension
2
_U1
10
46
20
-31.692985
30
0
11
5
21
-31.692985
31
0
70
32
71
1
72
1
41
1
210
0
220
0
230
1
3
Standard
100
AcDbAlignedDimension
13
-36
23
-3
33
0
14
46
24
0
34
0
50
0
100
AcDbRotatedDimension
1001
ACAD
1000
DSTYLE
1002
{
1070
   371
1070
    13
1070
   372
1070
    13
1070
   170
1070
     0
1070
   144
1040
1.0
1070
   277
1070
     2
1070
   278
1070
    44
1070
   146
1040
1.0
1070
   345
1005
16
1070
   347
1005
16
1070
   346
1005
16
1070
   344
1005
0
1070
   343
1005
0
1070
   172
1070
     1
1070
    76
1070
     0
1070
    75
1070
     0
1070
   282
1070
     0
1070
   281
1070
     0
1070
    71
1070
     0
1070
    74
1070
     0
1070
   279
1070
     0
1070
   173
1070
     1
1070
   340
1005
EE
1070
   271
1070
     2
1070
   272
1070
     2
1070
    77
1070
     1
1070
    73
1070
     1
1070
   171
1070
     3
1070
   274
1070
     4
1070
   177
1070
    35
1070
   176
1070
    35
1070
   178
1070
    35
1070
    48
1040
-0.1
1070
    41
1040
3.5
1070
   147
1040
1.75
1070
    42
1040
1.5875
1070
    44
1040
2.0
1070
   140
1040
3.5
1002
}
1001
ACAD_DSTYLE_DIM_LINETYPE
1070
   380
1005
16
1001
ACAD_DSTYLE_DIM_EXT1_LINETYPE
1070
   381
1005
16
1001
ACAD_DSTYLE_DIM_EXT2_LINETYPE
1070
   382
1005
16
0
DIMENSION
5
137
100
AcDbEntity
8
SK2
62
256
6
ByLayer
370
13
48
1
60
0
100
AcDbDimension
2
_U2
10
46
20
14.219119
30
0
11
32.57
21
14.219119
31
0
70
32
71
1
72
1
41
1
210
0
220
0
230
1
3
Standard
100
AcDbAlignedDimension
13
19.14
23
2.61
33
0
14
46
24
0
34
0
50
0
100
AcDbRotatedDimension
1001
ACAD
1000
DSTYLE
1002
{
1070
   371
1070
    13
1070
   372
1070
    13
1070
   170
1070
     0
1070
   144
1040
1.0
1070
   277
1070
     2
1070
   278
1070
    44
1070
   146
1040
1.0
1070
   345
1005
16
1070
   347
1005
16
1070
   346
1005
16
1070
   344
1005
0
1070
   343
1005
0
1070
   172
1070
     1
1070
    76
1070
     0
1070
    75
1070
     0
1070
   282
1070
     0
1070
   281
1070
     0
1070
    71
1070
     0
1070
    74
1070
     0
1070
   279
1070
     0
1070
   173
1070
     1
1070
   340
1005
EE
1070
   271
1070
     2
1070
   272
1070
     2
1070
    77
1070
     1
1070
    73
1070
     1
1070
   171
1070
     3
1070
   274
1070
     4
1070
   177
1070
    35
1070
   176
1070
    35
1070
   178
1070
    35
1070
    48
1040
-0.1
1070
    41
1040
3.5
1070
   147
1040
1.75
1070
    42
1040
1.5875
1070
    44
1040
2.0
1070
   140
1040
3.5
1002
}
1001
ACAD_DSTYLE_DIM_LINETYPE
1070
   380
1005
16
1001
ACAD_DSTYLE_DIM_EXT1_LINETYPE
1070
   381
1005
16
1001
ACAD_DSTYLE_DIM_EXT2_LINETYPE
1070
   382
1005
16
0
DIMENSION
5
14F
100
AcDbEntity
8
SK2
62
256
6
ByLayer
370
13
48
1
60
0
100
AcDbDimension
2
_U3
10
45.2363
20
-15.412503
30
0
11
63.583333
21
-15.412503
31
0
70
32
71
1
72
1
41
1
210
0
220
0
230
1
3
Standard
100
AcDbAlignedDimension
13
46
23
0
33
0
14
45.2363
24
-2.61
34
0
50
0
100
AcDbRotatedDimension
1001
ACAD
1000
DSTYLE
1002
{
1070
   371
1070
    13
1070
   372
1070
    13
1070
   170
1070
     0
1070
   144
1040
1.0
1070
   277
1070
     2
1070
   278
1070
    44
1070
   146
1040
1.0
1070
   345
1005
16
1070
   347
1005
16
1070
   346
1005
16
1070
   344
1005
0
1070
   343
1005
0
1070
   172
1070
     1
1070
    76
1070
     0
1070
    75
1070
     0
1070
   282
1070
     0
1070
   281
1070
     0
1070
    71
1070
     0
1070
    74
1070
     0
1070
   279
1070
     0
1070
   173
1070
     1
1070
   340
1005
EE
1070
   271
1070
     2
1070
   272
1070
     2
1070
    77
1070
     1
1070
    73
1070
     1
1070
   171
1070
     3
1070
   274
1070
     4
1070
   177
1070
    35
1070
   176
1070
    35
1070
   178
1070
    35
1070
    48
1040
-0.1
1070
    41
1040
3.5
1070
   147
1040
1.75
1070
    42
1040
1.5875
1070
    44
1040
2.0
1070
   140
1040
3.5
1002
}
1001
ACAD_DSTYLE_DIM_LINETYPE
1070
   380
1005
16
1001
ACAD_DSTYLE_DIM_EXT1_LINETYPE
1070
   381
1005
16
1001
ACAD_DSTYLE_DIM_EXT2_LINETYPE
1070
   382
1005
16
0
DIMENSION
5
169
100
AcDbEntity
8
SK2
62
256
6
ByLayer
370
13
48
1
60
0
100
AcDbDimension
2
_U4
10
45.2363
20
-21.343428
30
0
11
4.61815
21
-21.343428
31
0
70
32
71
1
72
1
41
1
210
0
220
0
230
1
3
Standard
100
AcDbAlignedDimension
13
-36
23
-3
33
0
14
45.2363
24
-2.61
34
0
50
0
100
AcDbRotatedDimension
1001
ACAD
1000
DSTYLE
1002
{
1070
   371
1070
    13
1070
   372
1070
    13
1070
   170
1070
     0
1070
   144
1040
1.0
1070
   277
1070
     2
1070
   278
1070
    44
1070
   146
1040
1.0
1070
   345
1005
16
1070
   347
1005
16
1070
   346
1005
16
1070
   344
1005
0
1070
   343
1005
0
1070
   172
1070
     1
1070
    76
1070
     0
1070
    75
1070
     0
1070
   282
1070
     0
1070
   281
1070
     0
1070
    71
1070
     0
1070
    74
1070
     0
1070
   279
1070
     0
1070
   173
1070
     1
1070
   340
1005
EE
1070
   271
1070
     2
1070
   272
1070
     2
1070
    77
1070
     1
1070
    73
1070
     1
1070
   171
1070
     3
1070
   274
1070
     4
1070
   177
1070
    35
1070
   176
1070
    35
1070
   178
1070
    35
1070
    48
1040
-0.1
1070
    41
1040
3.5
1070
   147
1040
1.75
1070
    42
1040
1.5875
1070
    44
1040
2.0
1070
   140
1040
3.5
1002
}
1001
ACAD_DSTYLE_DIM_LINETYPE
1070
   380
1005
16
1001
ACAD_DSTYLE_DIM_EXT1_LINETYPE
1070
   381
1005
16
1001
ACAD_DSTYLE_DIM_EXT2_LINETYPE
1070
   382
1005
16
0
ENDSEC
0
SECTION
2
OBJECTS
0
DICTIONARY
5
1f1
330
0
100
AcDbDictionary
280
0
281
1
3
ACAD_GROUP
350
1f2
3
ACAD_MLINESTYLE
350
1f3
0
DICTIONARY
5
1f2
330
0
100
AcDbDictionary
280
0
281
1
0
DICTIONARY
5
1f3
330
0
100
AcDbDictionary
280
0
281
1
3
Standard
350
18
0
MLINESTYLE
5
18
330
1f3
100
AcDbMlineStyle
2
Standard
70
0
3

62
256
51
90
52
90
71
2
49
-0.5
62
256
6
ByLayer
49
0.5
62
256
6
ByLayer
0
RASTERVARIABLES
5
1df
330

100
AcDbRasterVariables
90
0
70
1
71
1
72
1
0
ENDSEC
0
EOF
