0
SECTION
2
HEADER
9
$ACADVER
1
AC1015
9
$DWGCODEPAGE
3
ANSI_1252
9
$HANDSEED
5
1ff
9
$ANGBASE
50
0
9
$ANGDIR
70
0
9
$ATTMODE
70
1
9
$AUNITS
70
0
9
$AUPREC
70
0
9
$CECOLOR
62
256
9
$CELTSCALE
40
1
9
$CELTYPE
6
ByLayer
9
$CELWEIGHT
370
18
9
$CLAYER
8
0
9
$CMLJUST
70
0
9
$CMLSCALE
40
1
9
$CMLSTYLE
2
Standard
9
$DIMSTYLE
2
Standard
9
$TEXTSIZE
40
0.2
9
$TEXTSTYLE
7
Standard
9
$LUNITS
70
2
9
$LUPREC
70
4
9
$EXTNAMES
290
1
9
$INSUNITS
70
4
9
$LTSCALE
40
1
9
$LWDISPLAY
290
1
9
$PDMODE
70
0
9
$PDSIZE
40
0
9
$PLINEGEN
70
0
0
ENDSEC
0
SECTION
2
CLASSES
0
CLASS
1
RASTERVARIABLES
2
AcDbRasterVariables
3
ISM
90
0
280
0
281
0
0
ENDSEC
0
SECTION
2
TABLES
0
TABLE
2
VPORT
5
1f5
100
AcDbSymbolTable
0
VPORT
5
1
100
AcDbSymbolTableRecord
100
AcDbViewportTableRecord
2
*Active
70
0
10
0
20
0
11
1
21
1
12
-1
22
1
13
0
23
0
14
0.5
24
0.5
15
10
25
10
16
0
26
0
36
1
17
0
27
0
37
0
0
ENDTAB
0
TABLE
2
LTYPE
5
1f6
100
AcDbSymbolTable
0
LTYPE
5
14
100
AcDbSymbolTableRecord
100
AcDbLinetypeTableRecord
70
0
2
ByBlock
3

72
65
73
0
40
0
0
LTYPE
5
15
100
AcDbSymbolTableRecord
100
AcDbLinetypeTableRecord
70
0
2
ByLayer
3

72
65
73
0
40
0
0
LTYPE
5
16
100
AcDbSymbolTableRecord
100
AcDbLinetypeTableRecord
70
0
2
Continuous
3
Solid line
72
65
73
0
40
0
0
LTYPE
5
6E
100
AcDbSymbolTableRecord
100
AcDbLinetypeTableRecord
70
0
2
CENTER
3
____ _ ____ _ ____ _ ____
72
65
73
4
40
47.5
49
22
74
0
49
-8.5
74
0
49
8.5
74
0
49
-8.5
74
0
0
LTYPE
5
6F
100
AcDbSymbolTableRecord
100
AcDbLinetypeTableRecord
70
0
2
DASHED
3
__ __ __ __ __ __ __ __ __
72
65
73
2
40
25.72
49
12.86
74
0
49
-12.86
74
0
0
ENDTAB
0
TABLE
2
LAYER
5
1f7
100
AcDbSymbolTable
0
LAYER
5
10
100
AcDbSymbolTableRecord
100
AcDbLayerTableRecord
2
0
70
0
62
7
6
Continuous
290
1
370
-3
390
0
0
LAYER
5
71
100
AcDbSymbolTableRecord
100
AcDbLayerTableRecord
2
80
70
0
62
-6
6
Continuous
290
1
370
-3
390
0
0
LAYER
5
73
100
AcDbSymbolTableRecord
100
AcDbLayerTableRecord
2
81
70
0
62
-3
6
Continuous
290
1
370
-3
390
0
0
LAYER
5
75
100
AcDbSymbolTableRecord
100
AcDbLayerTableRecord
2
1
70
0
62
4
6
Continuous
290
1
370
-3
390
0
0
LAYER
5
86
100
AcDbSymbolTableRecord
100
AcDbLayerTableRecord
2
4
70
0
62
-2
6
CENTER
290
1
370
-3
390
0
0
LAYER
5
A1
100
AcDbSymbolTableRecord
100
AcDbLayerTableRecord
2
2
70
0
62
7
6
Continuous
290
1
370
-3
390
0
0
LAYER
5
10A
100
AcDbSymbolTableRecord
100
AcDbLayerTableRecord
2
Defpoints
70
0
62
7
6
Continuous
290
0
370
-3
390
0
0
LAYER
5
1e1
100
AcDbSymbolTableRecord
100
AcDbLayerTableRecord
2
SK1
70
0
62
4
6
Continuous
290
1
370
-3
390
0
0
LAYER
5
1e2
100
AcDbSymbolTableRecord
100
AcDbLayerTableRecord
2
SK4
70
0
62
2
6
CENTER
290
1
370
-3
390
0
0
LAYER
5
1e3
100
AcDbSymbolTableRecord
100
AcDbLayerTableRecord
2
SK2
70
0
62
7
6
Continuous
290
1
370
-3
390
0
0
LAYER
5
1e4
100
AcDbSymbolTableRecord
100
AcDbLayerTableRecord
2
SK6
70
0
62
5
6
Continuous
290
1
370
-3
390
0
0
ENDTAB
0
TABLE
2
STYLE
5
1f8
100
AcDbSymbolTable
0
STYLE
5
11
100
AcDbSymbolTableRecord
100
AcDbTextStyleTableRecord
2
Standard
3
txt
70
0
71
0
40
0
41
1
42
0
50
0
0
STYLE
5
EF
100
AcDbSymbolTableRecord
100
AcDbTextStyleTableRecord
2
iso_b_vert
3
simplex.shx
70
0
71
0
40
0
41
1
42
0
50
0
0
STYLE
5
F0
100
AcDbSymbolTableRecord
100
AcDbTextStyleTableRecord
2
DWGDirectTextStyle
3
simplex
70
0
71
0
40
0
41
1
42
0
50
0
0
ENDTAB
0
TABLE
2
DIMSTYLE
5
1f9
100
AcDbSymbolTable
100
AcDbDimStyleTable
0
DIMSTYLE
105
27
100
AcDbSymbolTableRecord
100
AcDbDimStyleTableRecord
2
Standard
70
0
3
<>
41
0.18
42
0.0625
44
0.18
140
0.18
147
0.09
73
0
74
0
77
1
271
2
275
0
278
52
280
0
340
11
0
ENDTAB
0
TABLE
2
VIEW
5
1fa
100
AcDbSymbolTable
0
ENDTAB
0
TABLE
2
UCS
5
1fb
100
AcDbSymbolTable
0
ENDTAB
0
TABLE
2
APPID
5
1fc
100
AcDbSymbolTable
0
APPID
5
12
100
AcDbSymbolTableRecord
100
AcDbRegAppTableRecord
2
ACAD
70
0
0
APPID
5
106
100
AcDbSymbolTableRecord
100
AcDbRegAppTableRecord
2
ACAD_DSTYLE_DIMBREAK
70
0
0
APPID
5
1A0
100
AcDbSymbolTableRecord
100
AcDbRegAppTableRecord
2
ACAD_DSTYLE_DIM_LINETYPE
70
0
0
APPID
5
1A1
100
AcDbSymbolTableRecord
100
AcDbRegAppTableRecord
2
ACAD_DSTYLE_DIM_EXT1_LINETYPE
70
0
0
APPID
5
1A2
100
AcDbSymbolTableRecord
100
AcDbRegAppTableRecord
2
ACAD_DSTYLE_DIM_EXT2_LINETYPE
70
0
0
APPID
5
1DD
100
AcDbSymbolTableRecord
100
AcDbRegAppTableRecord
2
ACAD_MLEADERVER
70
0
0
ENDTAB
0
TABLE
2
BLOCK_RECORD
5
1fd
100
AcDbSymbolTable
0
BLOCK_RECORD
5
1F
100
AcDbSymbolTableRecord
100
AcDbBlockTableRecord
2
*Model_Space
340
0
70
0
0
BLOCK_RECORD
5
1B
100
AcDbSymbolTableRecord
100
AcDbBlockTableRecord
2
*Paper_Space
340
0
70
0
0
BLOCK_RECORD
5
23
100
AcDbSymbolTableRecord
100
AcDbBlockTableRecord
2
*Paper_Space0
340
0
70
0
0
BLOCK_RECORD
5
10B
100
AcDbSymbolTableRecord
100
AcDbBlockTableRecord
2
*D1
340
0
70
0
0
BLOCK_RECORD
5
117
100
AcDbSymbolTableRecord
100
AcDbBlockTableRecord
2
_U0
340
0
70
0
0
BLOCK_RECORD
5
123
100
AcDbSymbolTableRecord
100
AcDbBlockTableRecord
2
*D3
340
0
70
0
0
BLOCK_RECORD
5
12F
100
AcDbSymbolTableRecord
100
AcDbBlockTableRecord
2
_U1
340
0
70
0
0
BLOCK_RECORD
5
13B
100
AcDbSymbolTableRecord
100
AcDbBlockTableRecord
2
*D5
340
0
70
0
0
BLOCK_RECORD
5
147
100
AcDbSymbolTableRecord
100
AcDbBlockTableRecord
2
_U2
340
0
70
0
0
BLOCK_RECORD
5
153
100
AcDbSymbolTableRecord
100
AcDbBlockTableRecord
2
*D7
340
0
70
0
0
BLOCK_RECORD
5
161
100
AcDbSymbolTableRecord
100
AcDbBlockTableRecord
2
_U3
340
0
70
0
0
BLOCK_RECORD
5
16D
100
AcDbSymbolTableRecord
100
AcDbBlockTableRecord
2
*D9
340
0
70
0
0
BLOCK_RECORD
5
179
100
AcDbSymbolTableRecord
100
AcDbBlockTableRecord
2
_U4
340
0
70
0
0
ENDTAB
0
ENDSEC
0
SECTION
2
BLOCKS
0
BLOCK
5
20
100
AcDbEntity
8
0
100
AcDbBlockBegin
2
*Model_Space
70
0
10
0
20
0
30
0
3
*Model_Space
0
ENDBLK
5
21
100
AcDbEntity
8
0
100
AcDbBlockEnd
0
BLOCK
5
1C
100
AcDbEntity
8
0
100
AcDbBlockBegin
2
*Paper_Space
70
0
10
0
20
0
30
0
3
*Paper_Space
0
ENDBLK
5
1D
100
AcDbEntity
8
0
100
AcDbBlockEnd
0
BLOCK
5
24
100
AcDbEntity
8
0
100
AcDbBlockBegin
2
*Paper_Space0
70
0
10
0
20
0
30
0
3
*Paper_Space0
0
ENDBLK
5
25
100
AcDbEntity
8
0
100
AcDbBlockEnd
0
BLOCK
5
10C
100
AcDbEntity
8
0
100
AcDbBlockBegin
2
*D1
70
1
10
0
20
0
30
0
3
*D1
0
LINE
5
10E
100
AcDbEntity
8
0
62
256
6
ByLayer
370
-2
48
1
60
0
100
AcDbLine
10
0
20
-1.5875
30
0
11
0
21
-14.638898
31
0
39
0
210
0
220
0
230
1
0
LINE
5
10F
100
AcDbEntity
8
0
62
256
6
ByLayer
370
-2
48
1
60
0
100
AcDbLine
10
45.2921
20
-4.013
30
0
11
45.2921
21
-14.638898
31
0
39
0
210
0
220
0
230
1
0
LINE
5
110
100
AcDbEntity
8
0
62
256
6
ByLayer
370
-2
48
1
60
0
100
AcDbLine
10
3.5
20
-12.638898
30
0
11
41.7921
21
-12.638898
31
0
39
0
210
0
220
0
230
1
0
SOLID
5
111
100
AcDbEntity
8
0
62
256
6
ByLayer
370
-1
48
1
60
0
100
AcDbTrace
10
3.5
20
-12.055565
30
0
11
3.5
21
-13.222232
31
0
12
0
22
-12.638898
32
0
13
0
23
-12.638898
33
0
39
0
210
0
220
0
230
1
0
SOLID
5
112
100
AcDbEntity
8
0
62
256
6
ByLayer
370
-1
48
1
60
0
100
AcDbTrace
10
41.7921
20
-13.222232
30
0
11
41.7921
21
-12.055565
31
0
12
45.2921
22
-12.638898
32
0
13
45.2921
23
-12.638898
33
0
39
0
210
0
220
0
230
1
0
MTEXT
5
113
100
AcDbEntity
8
0
62
256
6
ByLayer
370
18
48
1
60
0
100
AcDbMText
10
22.64605
20
-5.638898
30
0
210
0
220
0
230
1
1
\A1;45.29
40
3.5
41
0
44
1
50
0
71
5
72
5
7
iso_b_vert
0
POINT
5
114
100
AcDbEntity
8
Defpoints
62
0
6
ByLayer
370
-1
48
1
60
0
100
AcDbPoint
10
0
20
0
30
0
39
0
210
0
220
0
230
1
50
360
0
POINT
5
115
100
AcDbEntity
8
Defpoints
62
0
6
ByLayer
370
-1
48
1
60
0
100
AcDbPoint
10
45.2921
20
-2.4255
30
0
39
0
210
0
220
0
230
1
50
360
0
POINT
5
116
100
AcDbEntity
8
Defpoints
62
0
6
ByLayer
370
-1
48
1
60
0
100
AcDbPoint
10
45.2921
20
-12.638898
30
0
39
0
210
0
220
0
230
1
50
360
0
ENDBLK
5
10D
100
AcDbEntity
8
0
100
AcDbBlockEnd
0
BLOCK
5
11E
100
AcDbEntity
8
0
100
AcDbBlockBegin
2
_U0
70
0
10
0
20
0
30
0
3
_U0
0
MTEXT
5
118
100
AcDbEntity
8
SK2
62
256
6
ByLayer
370
13
48
1
60
0
100
AcDbMText
10
17.324485
20
-11.606265
30
0
210
0
220
0
230
1
1
\W0.7669;45,29
40
3.5
41
0
44
1.084337
50
0
71
7
72
5
7
iso_b_vert
0
LINE
5
119
100
AcDbEntity
8
SK2
62
256
6
ByLayer
370
13
48
1
60
0
100
AcDbLine
10
0
20
-1.5875
30
0
11
0
21
-14.638898
31
0
39
0
210
0
220
0
230
1
0
LINE
5
11A
100
AcDbEntity
8
SK2
62
256
6
ByLayer
370
13
48
1
60
0
100
AcDbLine
10
45.2921
20
-4.013
30
0
11
45.2921
21
-14.638898
31
0
39
0
210
0
220
0
230
1
0
LINE
5
11B
100
AcDbEntity
8
SK2
62
256
6
ByLayer
370
13
48
1
60
0
100
AcDbLine
10
0
20
-12.638898
30
0
11
45.2921
21
-12.638898
31
0
39
0
210
0
220
0
230
1
0
SOLID
5
11C
100
AcDbEntity
8
SK2
62
256
6
ByLayer
370
18
48
1
60
0
100
AcDbTrace
10
0
20
-12.638898
30
0
11
3.499998
21
-12.178115
31
0
12
3.500002
22
-13.099682
32
0
13
3.500002
23
-13.099682
33
0
39
0
210
0
220
0
230
1
0
SOLID
5
11D
100
AcDbEntity
8
SK2
62
256
6
ByLayer
370
18
48
1
60
0
100
AcDbTrace
10
45.2921
20
-12.638898
30
0
11
41.792102
21
-13.099682
31
0
12
41.792098
22
-12.178115
32
0
13
41.792098
23
-12.178115
33
0
39
0
210
0
220
0
230
1
0
ENDBLK
5
11F
100
AcDbEntity
8
0
100
AcDbBlockEnd
0
BLOCK
5
124
100
AcDbEntity
8
0
100
AcDbBlockBegin
2
*D3
70
1
10
0
20
0
30
0
3
*D3
0
LINE
5
126
100
AcDbEntity
8
0
62
256
6
ByLayer
370
-2
48
1
60
0
100
AcDbLine
10
-36
20
-4.5875
30
0
11
-36
21
-33.692985
31
0
39
0
210
0
220
0
230
1
0
LINE
5
127
100
AcDbEntity
8
0
62
256
6
ByLayer
370
-2
48
1
60
0
100
AcDbLine
10
46
20
-1.5875
30
0
11
46
21
-33.692985
31
0
39
0
210
0
220
0
230
1
0
LINE
5
128
100
AcDbEntity
8
0
62
256
6
ByLayer
370
-2
48
1
60
0
100
AcDbLine
10
-32.5
20
-31.692985
30
0
11
42.5
21
-31.692985
31
0
39
0
210
0
220
0
230
1
0
SOLID
5
129
100
AcDbEntity
8
0
62
256
6
ByLayer
370
-1
48
1
60
0
100
AcDbTrace
10
-32.5
20
-31.109652
30
0
11
-32.5
21
-32.276319
31
0
12
-36
22
-31.692985
32
0
13
-36
23
-31.692985
33
0
39
0
210
0
220
0
230
1
0
SOLID
5
12A
100
AcDbEntity
8
0
62
256
6
ByLayer
370
-1
48
1
60
0
100
AcDbTrace
10
42.5
20
-32.276319
30
0
11
42.5
21
-31.109652
31
0
12
46
22
-31.692985
32
0
13
46
23
-31.692985
33
0
39
0
210
0
220
0
230
1
0
MTEXT
5
12B
100
AcDbEntity
8
0
62
256
6
ByLayer
370
18
48
1
60
0
100
AcDbMText
10
5
20
-24.692985
30
0
210
0
220
0
230
1
1
\A1;82.00
40
3.5
41
0
44
1
50
0
71
5
72
5
7
iso_b_vert
0
POINT
5
12C
100
AcDbEntity
8
Defpoints
62
0
6
ByLayer
370
-1
48
1
60
0
100
AcDbPoint
10
-36
20
-3
30
0
39
0
210
0
220
0
230
1
50
360
0
POINT
5
12D
100
AcDbEntity
8
Defpoints
62
0
6
ByLayer
370
-1
48
1
60
0
100
AcDbPoint
10
46
20
0
30
0
39
0
210
0
220
0
230
1
50
360
0
POINT
5
12E
100
AcDbEntity
8
Defpoints
62
0
6
ByLayer
370
-1
48
1
60
0
100
AcDbPoint
10
46
20
-31.692985
30
0
39
0
210
0
220
0
230
1
50
360
0
ENDBLK
5
125
100
AcDbEntity
8
0
100
AcDbBlockEnd
0
BLOCK
5
136
100
AcDbEntity
8
0
100
AcDbBlockBegin
2
_U1
70
0
10
0
20
0
30
0
3
_U1
0
MTEXT
5
130
100
AcDbEntity
8
SK2
62
256
6
ByLayer
370
13
48
1
60
0
100
AcDbMText
10
-0.137299
20
-30.660352
30
0
210
0
220
0
230
1
1
\W0.7317;82,00
40
3.5
41
0
44
1.084337
50
0
71
7
72
5
7
iso_b_vert
0
LINE
5
131
100
AcDbEntity
8
SK2
62
256
6
ByLayer
370
13
48
1
60
0
100
AcDbLine
10
-36
20
-4.5875
30
0
11
-36
21
-33.692985
31
0
39
0
210
0
220
0
230
1
0
LINE
5
132
100
AcDbEntity
8
SK2
62
256
6
ByLayer
370
13
48
1
60
0
100
AcDbLine
10
46
20
-1.5875
30
0
11
46
21
-33.692985
31
0
39
0
210
0
220
0
230
1
0
LINE
5
133
100
AcDbEntity
8
SK2
62
256
6
ByLayer
370
13
48
1
60
0
100
AcDbLine
10
-36
20
-31.692985
30
0
11
46
21
-31.692985
31
0
39
0
210
0
220
0
230
1
0
SOLID
5
134
100
AcDbEntity
8
SK2
62
256
6
ByLayer
370
18
48
1
60
0
100
AcDbTrace
10
-36
20
-31.692985
30
0
11
-32.500002
21
-31.232202
31
0
12
-32.499998
22
-32.153769
32
0
13
-32.499998
23
-32.153769
33
0
39
0
210
0
220
0
230
1
0
SOLID
5
135
100
AcDbEntity
8
SK2
62
256
6
ByLayer
370
18
48
1
60
0
100
AcDbTrace
10
46
20
-31.692985
30
0
11
42.500002
21
-32.153769
31
0
12
42.499998
22
-31.232202
32
0
13
42.499998
23
-31.232202
33
0
39
0
210
0
220
0
230
1
0
ENDBLK
5
137
100
AcDbEntity
8
0
100
AcDbBlockEnd
0
BLOCK
5
13C
100
AcDbEntity
8
0
100
AcDbBlockBegin
2
*D5
70
1
10
0
20
0
30
0
3
*D5
0
LINE
5
13E
100
AcDbEntity
8
0
62
256
6
ByLayer
370
-2
48
1
60
0
100
AcDbLine
10
21.04
20
4.013
30
0
11
21.04
21
16.034619
31
0
39
0
210
0
220
0
230
1
0
LINE
5
13F
100
AcDbEntity
8
0
62
256
6
ByLayer
370
-2
48
1
60
0
100
AcDbLine
10
46
20
1.5875
30
0
11
46
21
16.034619
31
0
39
0
210
0
220
0
230
1
0
LINE
5
140
100
AcDbEntity
8
0
62
256
6
ByLayer
370
-2
48
1
60
0
100
AcDbLine
10
24.54
20
14.034619
30
0
11
42.5
21
14.034619
31
0
39
0
210
0
220
0
230
1
0
SOLID
5
141
100
AcDbEntity
8
0
62
256
6
ByLayer
370
-1
48
1
60
0
100
AcDbTrace
10
24.54
20
14.617953
30
0
11
24.54
21
13.451286
31
0
12
21.04
22
14.034619
32
0
13
21.04
23
14.034619
33
0
39
0
210
0
220
0
230
1
0
SOLID
5
142
100
AcDbEntity
8
0
62
256
6
ByLayer
370
-1
48
1
60
0
100
AcDbTrace
10
42.5
20
13.451286
30
0
11
42.5
21
14.617953
31
0
12
46
22
14.034619
32
0
13
46
23
14.034619
33
0
39
0
210
0
220
0
230
1
0
MTEXT
5
143
100
AcDbEntity
8
0
62
256
6
ByLayer
370
18
48
1
60
0
100
AcDbMText
10
33.52
20
21.034619
30
0
210
0
220
0
230
1
1
\A1;24.96
40
3.5
41
0
44
1
50
0
71
5
72
5
7
iso_b_vert
0
POINT
5
144
100
AcDbEntity
8
Defpoints
62
0
6
ByLayer
370
-1
48
1
60
0
100
AcDbPoint
10
21.04
20
2.4255
30
0
39
0
210
0
220
0
230
1
50
360
0
POINT
5
145
100
AcDbEntity
8
Defpoints
62
0
6
ByLayer
370
-1
48
1
60
0
100
AcDbPoint
10
46
20
0
30
0
39
0
210
0
220
0
230
1
50
360
0
POINT
5
146
100
AcDbEntity
8
Defpoints
62
0
6
ByLayer
370
-1
48
1
60
0
100
AcDbPoint
10
46
20
14.034619
30
0
39
0
210
0
220
0
230
1
50
360
0
ENDBLK
5
13D
100
AcDbEntity
8
0
100
AcDbBlockEnd
0
BLOCK
5
14E
100
AcDbEntity
8
0
100
AcDbBlockBegin
2
_U2
70
0
10
0
20
0
30
0
3
_U2
0
MTEXT
5
148
100
AcDbEntity
8
SK2
62
256
6
ByLayer
370
13
48
1
60
0
100
AcDbMText
10
28.198435
20
15.067253
30
0
210
0
220
0
230
1
1
\W0.7581;24,96
40
3.5
41
0
44
1.084337
50
0
71
7
72
5
7
iso_b_vert
0
LINE
5
149
100
AcDbEntity
8
SK2
62
256
6
ByLayer
370
13
48
1
60
0
100
AcDbLine
10
21.04
20
4.013
30
0
11
21.04
21
16.034619
31
0
39
0
210
0
220
0
230
1
0
LINE
5
14A
100
AcDbEntity
8
SK2
62
256
6
ByLayer
370
13
48
1
60
0
100
AcDbLine
10
46
20
1.5875
30
0
11
46
21
16.034619
31
0
39
0
210
0
220
0
230
1
0
LINE
5
14B
100
AcDbEntity
8
SK2
62
256
6
ByLayer
370
13
48
1
60
0
100
AcDbLine
10
21.04
20
14.034619
30
0
11
46
21
14.034619
31
0
39
0
210
0
220
0
230
1
0
SOLID
5
14C
100
AcDbEntity
8
SK2
62
256
6
ByLayer
370
18
48
1
60
0
100
AcDbTrace
10
21.04
20
14.034619
30
0
11
24.539998
21
14.495403
31
0
12
24.540002
22
13.573835
32
0
13
24.540002
23
13.573835
33
0
39
0
210
0
220
0
230
1
0
SOLID
5
14D
100
AcDbEntity
8
SK2
62
256
6
ByLayer
370
18
48
1
60
0
100
AcDbTrace
10
46
20
14.034619
30
0
11
42.500002
21
13.573835
31
0
12
42.499998
22
14.495403
32
0
13
42.499998
23
14.495403
33
0
39
0
210
0
220
0
230
1
0
ENDBLK
5
14F
100
AcDbEntity
8
0
100
AcDbBlockEnd
0
BLOCK
5
154
100
AcDbEntity
8
0
100
AcDbBlockBegin
2
*D7
70
1
10
0
20
0
30
0
3
*D7
0
LINE
5
156
100
AcDbEntity
8
0
62
256
6
ByLayer
370
-2
48
1
60
0
100
AcDbLine
10
46
20
-1.5875
30
0
11
46
21
-17.228003
31
0
39
0
210
0
220
0
230
1
0
LINE
5
157
100
AcDbEntity
8
0
62
256
6
ByLayer
370
-2
48
1
60
0
100
AcDbLine
10
45.2921
20
-4.013
30
0
11
45.2921
21
-17.228003
31
0
39
0
210
0
220
0
230
1
0
LINE
5
158
100
AcDbEntity
8
0
62
256
6
ByLayer
370
-2
48
1
60
0
100
AcDbLine
10
46
20
-15.228003
30
0
11
73.166667
21
-15.228003
31
0
39
0
210
0
220
0
230
1
0
LINE
5
159
100
AcDbEntity
8
0
62
256
6
ByLayer
370
-2
48
1
60
0
100
AcDbLine
10
49.5
20
-15.228003
30
0
11
53
21
-15.228003
31
0
39
0
210
0
220
0
230
1
0
LINE
5
15A
100
AcDbEntity
8
0
62
256
6
ByLayer
370
-2
48
1
60
0
100
AcDbLine
10
41.7921
20
-15.228003
30
0
11
38.2921
21
-15.228003
31
0
39
0
210
0
220
0
230
1
0
SOLID
5
15B
100
AcDbEntity
8
0
62
256
6
ByLayer
370
-1
48
1
60
0
100
AcDbTrace
10
49.5
20
-14.64467
30
0
11
49.5
21
-15.811337
31
0
12
46
22
-15.228003
32
0
13
46
23
-15.228003
33
0
39
0
210
0
220
0
230
1
0
SOLID
5
15C
100
AcDbEntity
8
0
62
256
6
ByLayer
370
-1
48
1
60
0
100
AcDbTrace
10
41.7921
20
-15.811337
30
0
11
41.7921
21
-14.64467
31
0
12
45.2921
22
-15.228003
32
0
13
45.2921
23
-15.228003
33
0
39
0
210
0
220
0
230
1
0
MTEXT
5
15D
100
AcDbEntity
8
0
62
256
6
ByLayer
370
18
48
1
60
0
100
AcDbMText
10
63.083333
20
-8.228003
30
0
210
0
220
0
230
1
1
\A1;0.71
40
3.5
41
0
44
1
50
0
71
5
72
5
7
iso_b_vert
0
POINT
5
15E
100
AcDbEntity
8
Defpoints
62
0
6
ByLayer
370
-1
48
1
60
0
100
AcDbPoint
10
46
20
0
30
0
39
0
210
0
220
0
230
1
50
360
0
POINT
5
15F
100
AcDbEntity
8
Defpoints
62
0
6
ByLayer
370
-1
48
1
60
0
100
AcDbPoint
10
45.2921
20
-2.4255
30
0
39
0
210
0
220
0
230
1
50
360
0
POINT
5
160
100
AcDbEntity
8
Defpoints
62
0
6
ByLayer
370
-1
48
1
60
0
100
AcDbPoint
10
45.2921
20
-15.228003
30
0
39
0
210
0
220
0
230
1
50
360
0
ENDBLK
5
155
100
AcDbEntity
8
0
100
AcDbBlockEnd
0
BLOCK
5
168
100
AcDbEntity
8
0
100
AcDbBlockBegin
2
_U3
70
0
10
0
20
0
30
0
3
_U3
0
MTEXT
5
162
100
AcDbEntity
8
SK2
62
256
6
ByLayer
370
13
48
1
60
0
100
AcDbMText
10
52.589293
20
-14.19537
30
0
210
0
220
0
230
1
1
\W0.6993;0,71
40
3.5
41
0
44
1.084337
50
0
71
7
72
5
7
iso_b_vert
0
LINE
5
163
100
AcDbEntity
8
SK2
62
256
6
ByLayer
370
13
48
1
60
0
100
AcDbLine
10
46
20
-1.5875
30
0
11
46
21
-17.228003
31
0
39
0
210
0
220
0
230
1
0
LINE
5
164
100
AcDbEntity
8
SK2
62
256
6
ByLayer
370
13
48
1
60
0
100
AcDbLine
10
45.2921
20
-4.013
30
0
11
45.2921
21
-17.228003
31
0
39
0
210
0
220
0
230
1
0
LINE
5
165
100
AcDbEntity
8
SK2
62
256
6
ByLayer
370
13
48
1
60
0
100
AcDbLine
10
36.5421
20
-15.228003
30
0
11
59.559058
21
-15.228003
31
0
39
0
210
0
220
0
230
1
0
SOLID
5
166
100
AcDbEntity
8
SK2
62
256
6
ByLayer
370
18
48
1
60
0
100
AcDbTrace
10
46
20
-15.228003
30
0
11
49.499998
21
-14.767219
31
0
12
49.500002
22
-15.688787
32
0
13
49.500002
23
-15.688787
33
0
39
0
210
0
220
0
230
1
0
SOLID
5
167
100
AcDbEntity
8
SK2
62
256
6
ByLayer
370
18
48
1
60
0
100
AcDbTrace
10
45.2921
20
-15.228003
30
0
11
41.792102
21
-15.688787
31
0
12
41.792098
22
-14.767219
32
0
13
41.792098
23
-14.767219
33
0
39
0
210
0
220
0
230
1
0
ENDBLK
5
169
100
AcDbEntity
8
0
100
AcDbBlockEnd
0
BLOCK
5
16E
100
AcDbEntity
8
0
100
AcDbBlockBegin
2
*D9
70
1
10
0
20
0
30
0
3
*D9
0
LINE
5
170
100
AcDbEntity
8
0
62
256
6
ByLayer
370
-2
48
1
60
0
100
AcDbLine
10
-36
20
-4.5875
30
0
11
-36
21
-23.343428
31
0
39
0
210
0
220
0
230
1
0
LINE
5
171
100
AcDbEntity
8
0
62
256
6
ByLayer
370
-2
48
1
60
0
100
AcDbLine
10
45.2921
20
-4.013
30
0
11
45.2921
21
-23.343428
31
0
39
0
210
0
220
0
230
1
0
LINE
5
172
100
AcDbEntity
8
0
62
256
6
ByLayer
370
-2
48
1
60
0
100
AcDbLine
10
-32.5
20
-21.343428
30
0
11
41.7921
21
-21.343428
31
0
39
0
210
0
220
0
230
1
0
SOLID
5
173
100
AcDbEntity
8
0
62
256
6
ByLayer
370
-1
48
1
60
0
100
AcDbTrace
10
-32.5
20
-20.760095
30
0
11
-32.5
21
-21.926762
31
0
12
-36
22
-21.343428
32
0
13
-36
23
-21.343428
33
0
39
0
210
0
220
0
230
1
0
SOLID
5
174
100
AcDbEntity
8
0
62
256
6
ByLayer
370
-1
48
1
60
0
100
AcDbTrace
10
41.7921
20
-21.926762
30
0
11
41.7921
21
-20.760095
31
0
12
45.2921
22
-21.343428
32
0
13
45.2921
23
-21.343428
33
0
39
0
210
0
220
0
230
1
0
MTEXT
5
175
100
AcDbEntity
8
0
62
256
6
ByLayer
370
18
48
1
60
0
100
AcDbMText
10
4.64605
20
-14.343428
30
0
210
0
220
0
230
1
1
\A1;81.29
40
3.5
41
0
44
1
50
0
71
5
72
5
7
iso_b_vert
0
POINT
5
176
100
AcDbEntity
8
Defpoints
62
0
6
ByLayer
370
-1
48
1
60
0
100
AcDbPoint
10
-36
20
-3
30
0
39
0
210
0
220
0
230
1
50
360
0
POINT
5
177
100
AcDbEntity
8
Defpoints
62
0
6
ByLayer
370
-1
48
1
60
0
100
AcDbPoint
10
45.2921
20
-2.4255
30
0
39
0
210
0
220
0
230
1
50
360
0
POINT
5
178
100
AcDbEntity
8
Defpoints
62
0
6
ByLayer
370
-1
48
1
60
0
100
AcDbPoint
10
45.2921
20
-21.343428
30
0
39
0
210
0
220
0
230
1
50
360
0
ENDBLK
5
16F
100
AcDbEntity
8
0
100
AcDbBlockEnd
0
BLOCK
5
180
100
AcDbEntity
8
0
100
AcDbBlockBegin
2
_U4
70
0
10
0
20
0
30
0
3
_U4
0
MTEXT
5
17A
100
AcDbEntity
8
SK2
62
256
6
ByLayer
370
13
48
1
60
0
100
AcDbMText
10
-0.053815
20
-20.310795
30
0
210
0
220
0
230
1
1
\W0.6791;81,29
40
3.5
41
0
44
1.084337
50
0
71
7
72
5
7
iso_b_vert
0
LINE
5
17B
100
AcDbEntity
8
SK2
62
256
6
ByLayer
370
13
48
1
60
0
100
AcDbLine
10
-36
20
-4.5875
30
0
11
-36
21
-23.343428
31
0
39
0
210
0
220
0
230
1
0
LINE
5
17C
100
AcDbEntity
8
SK2
62
256
6
ByLayer
370
13
48
1
60
0
100
AcDbLine
10
45.2921
20
-4.013
30
0
11
45.2921
21
-23.343428
31
0
39
0
210
0
220
0
230
1
0
LINE
5
17D
100
AcDbEntity
8
SK2
62
256
6
ByLayer
370
13
48
1
60
0
100
AcDbLine
10
-36
20
-21.343428
30
0
11
45.2921
21
-21.343428
31
0
39
0
210
0
220
0
230
1
0
SOLID
5
17E
100
AcDbEntity
8
SK2
62
256
6
ByLayer
370
18
48
1
60
0
100
AcDbTrace
10
-36
20
-21.343428
30
0
11
-32.500002
21
-20.882645
31
0
12
-32.499998
22
-21.804212
32
0
13
-32.499998
23
-21.804212
33
0
39
0
210
0
220
0
230
1
0
SOLID
5
17F
100
AcDbEntity
8
SK2
62
256
6
ByLayer
370
18
48
1
60
0
100
AcDbTrace
10
45.2921
20
-21.343428
30
0
11
41.792102
21
-21.804212
31
0
12
41.792098
22
-20.882645
32
0
13
41.792098
23
-20.882645
33
0
39
0
210
0
220
0
230
1
0
ENDBLK
5
181
100
AcDbEntity
8
0
100
AcDbBlockEnd
0
ENDSEC
0
SECTION
2
ENTITIES
0
ARC
5
AA
100
AcDbEntity
8
1
62
256
6
ByLayer
370
18
48
1
60
0
100
AcDbCircle
39
0
10
1.25062
20
-3.197972
30
0
40
0.800000000000003
210
0
220
0
230
1
100
AcDbArc
50
89.96419
51
141.410763
0
ARC
5
AB
100
AcDbEntity
8
1
62
256
6
ByLayer
370
18
48
1
60
0
100
AcDbCircle
39
0
10
1.25062
20
3.197972
30
0
40
0.800000000000003
210
0
220
0
230
1
100
AcDbArc
50
218.589237
51
270.03581
0
ARC
5
AC
100
AcDbEntity
8
1
62
256
6
ByLayer
370
18
48
1
60
0
100
AcDbCircle
39
0
10
0
20
-2.2
30
0
40
0.799999999999997
210
0
220
0
230
1
100
AcDbArc
50
270
51
321.410763
0
ARC
5
AD
100
AcDbEntity
8
1
62
256
6
ByLayer
370
18
48
1
60
0
100
AcDbCircle
39
0
10
0
20
2.2
30
0
40
0.799999999999997
210
0
220
0
230
1
100
AcDbArc
50
38.589237
51
90
0
ELLIPSE
5
AE
100
AcDbEntity
8
1
62
256
6
ByLayer
370
13
48
1
60
0
100
AcDbEllipse
10
4.187345
20
-0.051781
30
0
11
0.0396769977870892
21
0.0917918070777742
31
0
210
0
220
0
230
1
40
0.395792
41
1.71837982586644
42
3.08200913088998
0
ELLIPSE
5
AF
100
AcDbEntity
8
1
62
256
6
ByLayer
370
13
48
1
60
0
100
AcDbEllipse
10
4.250261
20
-0.079715
30
0
11
0.0415729102035757
21
0.0909488490152868
31
0
210
0
220
0
230
1
40
0.012671
41
1.53889085351474
42
3.07557387877385
0
POINT
5
70
100
AcDbEntity
8
80
62
256
6
ByLayer
370
18
48
1
60
0
100
AcDbPoint
10
0
20
0
30
0
39
0
210
0
220
0
230
1
50
360
0
POINT
5
72
100
AcDbEntity
8
81
62
256
6
ByLayer
370
18
48
1
60
0
100
AcDbPoint
10
46
20
0
30
0
39
0
210
0
220
0
230
1
50
360
0
POINT
5
74
100
AcDbEntity
8
1
62
256
6
ByLayer
370
18
48
1
60
1
100
AcDbPoint
10
45.2921
20
-2.4255
30
0
39
0
210
0
220
0
230
1
50
360
0
POINT
5
76
100
AcDbEntity
8
1
62
256
6
ByLayer
370
18
48
1
60
1
100
AcDbPoint
10
-36
20
-3
30
0
39
0
210
0
220
0
230
1
50
360
0
POINT
5
77
100
AcDbEntity
8
1
62
256
6
ByLayer
370
18
48
1
60
1
100
AcDbPoint
10
21.04
20
2.4255
30
0
39
0
210
0
220
0
230
1
50
360
0
POINT
5
78
100
AcDbEntity
8
1
62
256
6
ByLayer
370
18
48
1
60
1
100
AcDbPoint
10
45.2921
20
-2.4255
30
0
39
0
210
0
220
0
230
1
50
360
0
POINT
5
79
100
AcDbEntity
8
1
62
256
6
ByLayer
370
18
48
1
60
1
100
AcDbPoint
10
-36
20
-3
30
0
39
0
210
0
220
0
230
1
50
360
0
POINT
5
7A
100
AcDbEntity
8
1
62
256
6
ByLayer
370
18
48
1
60
1
100
AcDbPoint
10
45.2921
20
-2.4255
30
0
39
0
210
0
220
0
230
1
50
360
0
SPLINE
5
B0
100
AcDbEntity
8
1
62
256
6
ByLayer
370
18
48
1
60
0
100
AcDbSpline
70
4
71
3
72
8
73
4
40
0
40
0
40
0
40
0
40
1
40
1
40
1
40
1
41
1
10
45.9999598963088
20
0.0321394804794295
30
0
41
1
10
46.0000133736844
20
0.0107108409568184
30
0
41
1
10
46.0000133617141
20
-0.0107156374882891
30
0
41
1
10
45.9999598963089
20
-0.0321394804446697
30
0
0
SPLINE
5
B1
100
AcDbEntity
8
1
62
256
6
ByLayer
370
13
48
1
60
0
100
AcDbSpline
70
4
71
3
72
8
73
4
40
0
40
0
40
0
40
0
40
1
40
1
40
1
40
1
41
1
10
4.03596556611689
20
0.0034952016063983
30
0
41
1
10
4.06063813015445
20
-0.0191315633066154
30
0
41
1
10
4.09805644210394
20
-0.0380971158114392
30
0
41
1
10
4.14557452053941
20
-0.0497458340937271
30
0
0
SPLINE
5
B2
100
AcDbEntity
8
1
62
256
6
ByLayer
370
18
48
1
60
0
100
AcDbSpline
70
4
71
3
72
10
73
6
40
0
40
0
40
0
40
0
40
0.5
40
0.5
40
1
40
1
40
1
40
1
41
1
10
45.2946634306304
20
2.33984377854429
30
0
41
1
10
45.2718046313626
20
2.35851835052517
30
0
41
1
10
45.2498697844662
20
2.3743335503884
30
0
41
1
10
45.2078425531943
20
2.39990860899195
30
0
41
1
10
45.1877182533156
20
2.40964536680758
30
0
41
1
10
45.1689383298892
20
2.41602886993189
30
0
0
SPLINE
5
B3
100
AcDbEntity
8
1
62
256
6
ByLayer
370
18
48
1
60
0
100
AcDbSpline
70
4
71
3
72
8
73
4
40
0
40
0
40
0
40
0
40
1
40
1
40
1
40
1
41
1
10
45.0473651283982
20
0.692138526205468
30
0
41
1
10
45.3514368210006
20
0.682627658707759
30
0
41
1
10
45.6555037772263
20
0.673157550267717
30
0
41
1
10
45.9591611269708
20
0.667212324979715
30
0
0
SPLINE
5
B4
100
AcDbEntity
8
1
62
256
6
ByLayer
370
18
48
1
60
0
100
AcDbSpline
70
4
71
3
72
14
73
10
40
0
40
0
40
0
40
0
40
0.25
40
0.25
40
0.5
40
0.5
40
0.75
40
0.75
40
1
40
1
40
1
40
1
41
1
10
4.2517151816989
20
2.27451415901748
30
0
41
1
10
4.55462021426379
20
2.26478845470183
30
0
41
1
10
4.86134235556082
20
2.23698557775433
30
0
41
1
10
5.48092438202028
20
2.15349726489467
30
0
41
1
10
5.79136586781198
20
2.09824744620332
30
0
41
1
10
6.41400402742366
20
1.9674662249077
30
0
41
1
10
6.72632029377763
20
1.89325271595288
30
0
41
1
10
7.35523110459863
20
1.72702106598905
30
0
41
1
10
7.67180853336265
20
1.63671746612673
30
0
41
1
10
7.991782440674
20
1.54262364843055
30
0
0
SPLINE
5
B5
100
AcDbEntity
8
1
62
256
6
ByLayer
370
18
48
1
60
0
100
AcDbSpline
70
4
71
3
72
14
73
10
40
0
40
0
40
0
40
0
40
0.25
40
0.25
40
0.5
40
0.5
40
0.75
40
0.75
40
1
40
1
40
1
40
1
41
1
10
4.25171518030763
20
-2.27451415906168
30
0
41
1
10
4.23195031891103
20
-2.2751487711547
30
0
41
1
10
4.21203232687009
20
-2.27793023982861
30
0
41
1
10
4.1718468882703
20
-2.28850397184087
30
0
41
1
10
4.15163971449942
20
-2.2963874308733
30
0
41
1
10
4.11363229769654
20
-2.31707899640833
30
0
41
1
10
4.09517476472334
20
-2.33030663841456
30
0
41
1
10
4.06278757258281
20
-2.36074369160997
30
0
41
1
10
4.0484643195484
20
-2.37826421174034
30
0
41
1
10
4.03688836909686
20
-2.39697713978364
30
0
0
SPLINE
5
B6
100
AcDbEntity
8
1
62
256
6
ByLayer
370
18
48
1
60
0
100
AcDbSpline
70
4
71
3
72
44
73
40
40
0
40
0
40
0
40
0
40
0.0762282395029894
40
0.0762282395029894
40
0.114342359254483
40
0.114342359254483
40
0.152456479005977
40
0.152456479005977
40
0.190570598757471
40
0.190570598757471
40
0.228684718508964
40
0.228684718508964
40
0.304912958011952
40
0.304912958011952
40
0.381141197514939
40
0.381141197514939
40
0.457369437017926
40
0.457369437017926
40
0.533597676520914
40
0.533597676520914
40
0.571711796272409
40
0.571711796272409
40
0.609825916023903
40
0.609825916023903
40
0.686054155526895
40
0.686054155526895
40
0.724168275278391
40
0.724168275278391
40
0.762282395029888
40
0.762282395029888
40
0.838510634532882
40
0.838510634532882
40
0.914738874035875
40
0.914738874035875
40
0.952852993787372
40
0.952852993787372
40
0.990967113538869
40
0.990967113538869
40
1
40
1
40
1
40
1
41
1
10
45.1689383298892
20
-2.41602886993186
30
0
41
1
10
44.7405758747381
20
-2.43335898734568
30
0
41
1
10
44.3130772668629
20
-2.42592248718222
30
0
41
1
10
43.6700707440267
20
-2.37817270308028
30
0
41
1
10
43.4551528345869
20
-2.35610573529678
30
0
41
1
10
43.0262786711543
20
-2.30020136887313
30
0
41
1
10
42.8122123366789
20
-2.26635116751984
30
0
41
1
10
42.3842058222253
20
-2.18733325049519
30
0
41
1
10
42.1702282200072
20
-2.14220061987018
30
0
41
1
10
41.7417867381051
20
-2.04120264196513
30
0
41
1
10
41.5270427297324
20
-1.985251967892
30
0
41
1
10
40.8833195871739
20
-1.80285207897245
30
0
41
1
10
40.4557261717078
20
-1.66209404190357
30
0
41
1
10
39.5990311857358
20
-1.34949222168163
30
0
41
1
10
39.1686599707766
20
-1.1771112520351
30
0
41
1
10
38.3159372724441
20
-0.81506821598893
30
0
41
1
10
37.8919618898539
20
-0.625200297202582
30
0
41
1
10
37.0443620775333
20
-0.237362121360718
30
0
41
1
10
36.6207791941827
20
-0.0393029984189184
30
0
41
1
10
35.9825099852702
20
0.256939634089406
30
0
41
1
10
35.7692348473321
20
0.355463591989121
30
0
41
1
10
35.3411123283401
20
0.550876192304287
30
0
41
1
10
35.1259985296088
20
0.647910017212382
30
0
41
1
10
34.4827793101653
20
0.932345756041769
30
0
41
1
10
34.0551493136339
20
1.11368925866535
30
0
41
1
10
33.4121715751612
20
1.36681618098845
30
0
41
1
10
33.1972576436107
20
1.44810807893936
30
0
41
1
10
32.7680525942262
20
1.60262477009169
30
0
41
1
10
32.5538282450468
20
1.67585519958794
30
0
41
1
10
31.9114132265857
20
1.88214494259731
30
0
41
1
10
31.4831008731267
20
2.00180041734325
30
0
41
1
10
30.6239881331144
20
2.19868835646099
30
0
41
1
10
30.1961232212441
20
2.27517244867414
30
0
41
1
10
29.5534982832158
20
2.35446628776137
30
0
41
1
10
29.3391403790677
20
2.37498882997463
30
0
41
1
10
28.9095371204863
20
2.40387136340672
30
0
41
1
10
28.6951276874885
20
2.41216555094843
30
0
41
1
10
28.4310483782857
20
2.41485267565821
30
0
41
1
10
28.380489769941
20
2.41502425099239
30
0
41
1
10
28.3299638535867
20
2.4148542775784
30
0
0
SPLINE
5
B7
100
AcDbEntity
8
1
62
256
6
ByLayer
370
18
48
1
60
0
100
AcDbSpline
70
4
71
3
72
22
73
18
40
0
40
0
40
0
40
0
40
0.187710371937295
40
0.187710371937295
40
0.323091976614412
40
0.323091976614412
40
0.390782778952971
40
0.390782778952971
40
0.45847358129153
40
0.45847358129153
40
0.729236790645765
40
0.729236790645765
40
0.796927592984324
40
0.796927592984324
40
0.864618395322883
40
0.864618395322883
40
1
40
1
40
1
40
1
41
1
10
13.5979757773237
20
-2.29450431227753
30
0
41
1
10
13.0067923083708
20
-2.37615530447309
30
0
41
1
10
12.4199076803606
20
-2.41289401936629
30
0
41
1
10
11.4068474151551
20
-2.39613593871442
30
0
41
1
10
10.9815219265678
20
-2.3650825550539
30
0
41
1
10
10.3389663050393
20
-2.28266259958016
30
0
41
1
10
10.1235184102224
20
-2.2491043300717
30
0
41
1
10
9.69498067814752
20
-2.17110470821757
30
0
41
1
10
9.48148853180044
20
-2.12664083876513
30
0
41
1
10
8.41658163845483
20
-1.87881355321167
30
0
41
1
10
7.57268772460714
20
-1.59865404627814
30
0
41
1
10
6.50598174293333
20
-1.17988667947736
30
0
41
1
10
6.29206654957122
20
-1.09269488962298
30
0
41
1
10
5.86250201233497
20
-0.91244518246728
30
0
41
1
10
5.64736865907833
20
-0.819627027356574
30
0
41
1
10
5.00357682981831
20
-0.536460184760642
30
0
41
1
10
4.57507889323557
20
-0.340892204974978
30
0
41
1
10
4.14524424373792
20
-0.142863860941304
30
0
0
SPLINE
5
B8
100
AcDbEntity
8
1
62
256
6
ByLayer
370
13
48
1
60
0
100
AcDbSpline
70
4
71
3
72
29
73
25
40
0
40
0
40
0
40
0
40
0.125
40
0.125
40
0.25
40
0.25
40
0.3125
40
0.3125
40
0.375
40
0.4375
40
0.4375
40
0.5
40
0.5
40
0.625
40
0.625
40
0.6875
40
0.6875
40
0.75
40
0.75
40
0.875
40
0.875
40
0.9375
40
0.9375
40
1
40
1
40
1
40
1
41
1
10
4.25043545020665
20
-0.0762875616923964
30
0
41
1
10
4.25053331688105
20
0.0705661336980654
30
0
41
1
10
4.25062546986106
20
0.217496168062155
30
0
41
1
10
4.25079697600722
20
0.503862889935078
30
0
41
1
10
4.25087699327509
20
0.644288770833867
30
0
41
1
10
4.25099059119503
20
0.850667119663825
30
0
41
1
10
4.25102720399462
20
0.918437970381603
30
0
41
1
10
4.25109712892896
20
1.04971392914143
30
0
41
1
10
4.25116412689349
20
1.17740197486674
30
0
41
1
10
4.25122603323993
20
1.29800900830469
30
0
41
1
10
4.2512856596268
20
1.4150252498915
30
0
41
1
10
4.2513144732217
20
1.4720172398543
30
0
41
1
10
4.25139662696932
20
1.63517293223376
30
0
41
1
10
4.25144551460565
20
1.73308933076396
30
0
41
1
10
4.25151114022984
20
1.86413119609875
30
0
41
1
10
4.25153171249519
20
1.90515485482089
30
0
41
1
10
4.2515702161985
20
1.98174047173609
30
0
41
1
10
4.25158807839011
20
2.01716333816677
30
0
41
1
10
4.25163645950167
20
2.11289111342188
30
0
41
1
10
4.25166229350319
20
2.16362418932147
30
0
41
1
10
4.25169064286735
20
2.22032170886504
30
0
41
1
10
4.25169834006161
20
2.23596569925337
30
0
41
1
10
4.2517098488845
20
2.26050772852307
30
0
41
1
10
4.25171359641919
20
2.26928022554173
30
0
41
1
10
4.25171518030834
20
2.27451415906083
30
0
0
SPLINE
5
B9
100
AcDbEntity
8
1
62
256
6
ByLayer
370
13
48
1
60
0
100
AcDbSpline
70
4
71
3
72
8
73
4
40
0
40
0
40
0
40
0
40
1
40
1
40
1
40
1
41
1
10
4.14524424373761
20
-0.142863860940906
30
0
41
1
10
4.1453542265595
20
-0.142734359202365
30
0
41
1
10
4.1454643188479
20
-0.142604714541989
30
0
41
1
10
4.14557452053941
20
-0.142474926357807
30
0
0
SPLINE
5
BA
100
AcDbEntity
8
1
62
256
6
ByLayer
370
18
48
1
60
0
100
AcDbSpline
70
4
71
3
72
8
73
4
40
0
40
0
40
0
40
0
40
1
40
1
40
1
40
1
41
1
10
45.1689383298893
20
2.41602886993186
30
0
41
1
10
45.0158908084693
20
2.42222066261633
30
0
41
1
10
44.8629107501284
20
2.42525262437093
30
0
41
1
10
44.7099051462855
20
2.42513639238516
30
0
0
SPLINE
5
BB
100
AcDbEntity
8
1
62
256
6
ByLayer
370
18
48
1
60
0
100
AcDbSpline
70
4
71
3
72
44
73
40
40
0
40
0
40
0
40
0
40
0.0093216750342295
40
0.0093216750342295
40
0.0807527052659739
40
0.0807527052659739
40
0.152183735497718
40
0.152183735497718
40
0.187899250613591
40
0.187899250613591
40
0.223614765729464
40
0.223614765729464
40
0.259330280845337
40
0.259330280845337
40
0.295045795961211
40
0.295045795961211
40
0.366476826192956
40
0.366476826192956
40
0.402192341308829
40
0.402192341308829
40
0.437907856424702
40
0.437907856424702
40
0.580769916888194
40
0.580769916888194
40
0.616485432004067
40
0.616485432004067
40
0.652200947119939
40
0.652200947119939
40
0.723631977351685
40
0.723631977351685
40
0.79506300758343
40
0.79506300758343
40
0.830778522699302
40
0.830778522699302
40
0.866494037815175
40
0.866494037815175
40
0.937925068046921
40
0.937925068046921
40
1
40
1
40
1
40
1
41
1
10
29.9649310767947
20
-2.30203216658413
30
0
41
1
10
29.9090342036579
20
-2.30987243374369
30
0
41
1
10
29.8531310098567
20
-2.31731508801678
30
0
41
1
10
29.3687495808387
20
-2.37831243369877
30
0
41
1
10
28.9385549752704
20
-2.40856847516628
30
0
41
1
10
28.0814718532415
20
-2.41945808867484
30
0
41
1
10
27.6536168535213
20
-2.40029539545
30
0
41
1
10
27.0094680850825
20
-2.33517071706487
30
0
41
1
10
26.7945691520324
20
-2.3074007643491
30
0
41
1
10
26.3657698017042
20
-2.24045043948337
30
0
41
1
10
26.1516065337074
20
-2.20123322533405
30
0
41
1
10
25.7231995646899
20
-2.11181669839365
30
0
41
1
10
25.5089369105168
20
-2.06163646962571
30
0
41
1
10
25.0797546249595
20
-1.95086922094777
30
0
41
1
10
24.864686263306
20
-1.89018362079298
30
0
41
1
10
24.2211414189183
20
-1.69473192775999
30
0
41
1
10
23.7932752336293
20
-1.5462545627816
30
0
41
1
10
23.1498530583224
20
-1.30174533182131
30
0
41
1
10
22.934636059991
20
-1.216447086448
30
0
41
1
10
22.5059172042905
20
-1.04075671621729
30
0
41
1
10
22.2923617355607
20
-0.950398847429028
30
0
41
1
10
21.2271540607418
20
-0.48919512165557
30
0
41
1
10
20.3836192124533
20
-0.0891457878462063
30
0
41
1
10
19.3174758732718
20
0.40018320915047
30
0
41
1
10
19.1037105306005
20
0.4976198061471
30
0
41
1
10
18.6744658782623
20
0.690202330197877
30
0
41
1
10
18.4595204658246
20
0.785009410493927
30
0
41
1
10
17.8183055362924
20
1.06109839845647
30
0
41
1
10
17.3937046470961
20
1.23521967213139
30
0
41
1
10
16.5453908244873
20
1.55465334422547
30
0
41
1
10
16.1218967740207
20
1.70036614037264
30
0
41
1
10
15.4840630809764
20
1.89188164109734
30
0
41
1
10
15.271072133075
20
1.95129722777725
30
0
41
1
10
14.8437296091279
20
2.06031831002071
30
0
41
1
10
14.6290098300315
20
2.10995158024727
30
0
41
1
10
13.9842577274416
20
2.24236735609955
30
0
41
1
10
13.556190218228
20
2.30828119391603
30
0
41
1
10
12.754868049472
20
2.38667358140267
30
0
41
1
10
12.3809833935834
20
2.40497439173779
30
0
41
1
10
12.0079335726201
20
2.40468589326957
30
0
0
SPLINE
5
BC
100
AcDbEntity
8
1
62
256
6
ByLayer
370
18
48
1
60
0
100
AcDbSpline
70
4
71
3
72
14
73
10
40
0
40
0
40
0
40
0
40
0.25
40
0.25
40
0.5
40
0.5
40
0.75
40
0.75
40
1
40
1
40
1
40
1
41
1
10
45.1863702033862
20
-2.30178619503613
30
0
41
1
10
45.1897146986837
20
-2.30117226959834
30
0
41
1
10
45.1924061754076
20
-2.3022727211951
30
0
41
1
10
45.1961022566842
20
-2.30886067806904
30
0
41
1
10
45.1970538350618
20
-2.31443270484547
30
0
41
1
10
45.1961404849196
20
-2.33094761100807
30
0
41
1
10
45.1942260423954
20
-2.34178859864656
30
0
41
1
10
45.1877034153814
20
-2.3662964890348
30
0
41
1
10
45.18315937759
20
-2.37976532809884
30
0
41
1
10
45.1780487323512
20
-2.39280514890095
30
0
0
SPLINE
5
BD
100
AcDbEntity
8
1
62
256
6
ByLayer
370
18
48
1
60
0
100
AcDbSpline
70
4
71
3
72
16
73
12
40
0
40
0
40
0
40
0
40
0.0088422966040517
40
0.0088422966040517
40
0.169612445888408
40
0.169612445888408
40
0.330382595172764
40
0.330382595172764
40
0.973463192310166
40
0.973463192310166
40
1
40
1
40
1
40
1
41
1
10
28.6212022441116
20
-2.29390475102781
30
0
41
1
10
28.6094206345927
20
-2.29391796974286
30
0
41
1
10
28.5976368331937
20
-2.2939134808278
30
0
41
1
10
28.3715577939428
20
-2.29348718902406
30
0
41
1
10
28.1563561599703
20
-2.28720801212626
30
0
41
1
10
27.7280678166373
20
-2.26315270059968
30
0
41
1
10
27.5144681756032
20
-2.24537970289947
30
0
41
1
10
26.4481768989742
20
-2.12868688307333
30
0
41
1
10
25.5999951449958
20
-1.94575044659655
30
0
41
1
10
24.7049885128168
20
-1.67902107092735
30
0
41
1
10
24.6695279728641
20
-1.66833629162446
30
0
41
1
10
24.634075099143
20
-1.65753933175702
30
0
0
SPLINE
5
BE
100
AcDbEntity
8
1
62
256
6
ByLayer
370
13
48
1
60
0
100
AcDbSpline
70
4
71
3
72
22
73
18
40
0
40
0
40
0
40
0
40
0.148362485386774
40
0.148362485386774
40
0.229216643585425
40
0.229216643585425
40
0.310070801784074
40
0.310070801784074
40
0.633487434578677
40
0.633487434578677
40
0.714341592777328
40
0.714341592777328
40
0.795195750975979
40
0.795195750975979
40
0.956904067373281
40
0.956904067373281
40
1
40
1
40
1
40
1
41
1
10
24.6340750992994
20
-1.65753933180466
30
0
41
1
10
24.2399537854988
20
-1.53751205160856
30
0
41
1
10
23.8467798837257
20
-1.40362121744209
30
0
41
1
10
23.2392435184033
20
-1.17994021159342
30
0
41
1
10
23.0248316069955
20
-1.09783327741644
30
0
41
1
10
22.5953057694418
20
-0.928199210258384
30
0
41
1
10
22.3803026532703
20
-0.840701849452387
30
0
41
1
10
21.3106305357558
20
-0.395983893613675
30
0
41
1
10
20.4654166524128
20
-0.0142484930363764
30
0
41
1
10
19.401586962855
20
0.447566562648262
30
0
41
1
10
19.1884737772567
20
0.539204047647274
30
0
41
1
10
18.7610457306609
20
0.719839631307906
30
0
41
1
10
18.5463979480609
20
0.808894779844621
30
0
41
1
10
17.9018115122962
20
1.06932497244273
30
0
41
1
10
17.4754075405171
20
1.23251708223498
30
0
41
1
10
16.9368566838274
20
1.42080951986245
30
0
41
1
10
16.8236215517445
20
1.45941072781869
30
0
41
1
10
16.71043715909
20
1.49693117048554
30
0
0
SPLINE
5
BF
100
AcDbEntity
8
1
62
256
6
ByLayer
370
18
48
1
60
0
100
AcDbSpline
70
4
71
3
72
8
73
4
40
0
40
0
40
0
40
0
40
1
40
1
40
1
40
1
41
1
10
45.959161126962
20
-0.667212324980085
30
0
41
1
10
45.9735609825835
20
-0.476399959385191
30
0
41
1
10
45.9838693683589
20
-0.285788639446281
30
0
41
1
10
45.9900778724369
20
-0.0953787785028624
30
0
0
SPLINE
5
C0
100
AcDbEntity
8
1
62
256
6
ByLayer
370
18
48
1
60
0
100
AcDbSpline
70
4
71
3
72
14
73
10
40
0
40
0
40
0
40
0
40
0.0352744379808578
40
0.0352744379808578
40
0.356849625320572
40
0.356849625320572
40
0.678424812660286
40
0.678424812660286
40
1
40
1
40
1
40
1
41
1
10
7.14199775653475
20
-1.78315954015241
30
0
41
1
10
7.10728675900145
20
-1.79248572020543
30
0
41
1
10
7.07259432214042
20
-1.80173135857964
30
0
41
1
10
6.72180254309649
20
-1.89440230682376
30
0
41
1
10
6.4072233962896
20
-1.9690359753304
30
0
41
1
10
5.78397394832859
20
-2.09965120711712
30
0
41
1
10
5.47475914230378
20
-2.15443364071754
30
0
41
1
10
4.86016419567284
20
-2.23703745150027
30
0
41
1
10
4.5547568234706
20
-2.26478406847156
30
0
41
1
10
4.25171518090758
20
-2.27451415904289
30
0
0
SPLINE
5
C1
100
AcDbEntity
8
1
62
256
6
ByLayer
370
18
48
1
60
0
100
AcDbSpline
70
4
71
3
72
8
73
4
40
0
40
0
40
0
40
0
40
1
40
1
40
1
40
1
41
1
10
45.9790572756741
20
-0.0172577962841842
30
0
41
1
10
45.6270031864112
20
-0.593860948879097
30
0
41
1
10
45.2972175443607
20
-1.19074497607579
30
0
41
1
10
44.9904929399675
20
-1.80863172557542
30
0
0
SPLINE
5
C2
100
AcDbEntity
8
1
62
256
6
ByLayer
370
18
48
1
60
0
100
AcDbSpline
70
4
71
3
72
12
73
8
40
0
40
0
40
0
40
0
40
0.705953309816204
40
0.705953309816204
40
0.882441637270252
40
0.882441637270252
40
1
40
1
40
1
40
1
41
1
10
45.1863702033867
20
-2.3017861950361
30
0
41
1
10
44.3302796495024
20
-2.31867810421326
30
0
41
1
10
43.4829883000042
20
-2.24086735115401
30
0
41
1
10
42.4155075186587
20
-2.03660745145035
30
0
41
1
10
42.2015547852919
20
-1.99042917691071
30
0
41
1
10
41.8438975538522
20
-1.90495369222631
30
0
41
1
10
41.7010497954836
20
-1.86861268203631
30
0
41
1
10
41.5585381154514
20
-1.83031057938507
30
0
0
SPLINE
5
C3
100
AcDbEntity
8
1
62
256
6
ByLayer
370
13
48
1
60
0
100
AcDbSpline
70
4
71
3
72
22
73
18
40
0
40
0
40
0
40
0
40
0.0258041914470935
40
0.0258041914470935
40
0.1803648516667
40
0.1803648516667
40
0.489486172105914
40
0.489486172105914
40
0.566766502215721
40
0.566766502215721
40
0.644046832325528
40
0.644046832325528
40
0.798607492545145
40
0.798607492545145
40
0.953168152764763
40
0.953168152764763
40
1
40
1
40
1
40
1
41
1
10
41.5585386548756
20
-1.83031072436327
30
0
41
1
10
41.4870998455046
20
-1.81111049993686
30
0
41
1
10
41.4157454876968
20
-1.79141748127523
30
0
41
1
10
40.9177577271075
20
-1.65050617417603
30
0
41
1
10
40.4937886095301
20
-1.51271175667139
30
0
41
1
10
39.2240599789565
20
-1.05988643035474
30
0
41
1
10
38.3806023101257
20
-0.704411570375868
30
0
41
1
10
37.3098394360516
20
-0.236217162820793
30
0
41
1
10
37.0946209602018
20
-0.141300892147399
30
0
41
1
10
36.6669186298085
20
0.0475354003913253
30
0
41
1
10
36.4538502614661
20
0.141721638902368
30
0
41
1
10
35.8162322915845
20
0.421944938675011
30
0
41
1
10
35.3931404242865
20
0.6052838261229
30
0
41
1
10
34.5471299794098
20
0.956534141528152
30
0
41
1
10
34.1241024835741
20
1.12419624494223
30
0
41
1
10
33.5704340189134
20
1.32699512231181
30
0
41
1
10
33.4415046269028
20
1.37304654663998
30
0
41
1
10
33.3123354877414
20
1.41785987011553
30
0
0
SPLINE
5
C4
100
AcDbEntity
8
1
62
256
6
ByLayer
370
18
48
1
60
0
100
AcDbSpline
70
4
71
3
72
16
73
12
40
0
40
0
40
0
40
0
40
0.0795303988454469
40
0.0795303988454469
40
0.415102162258655
40
0.415102162258655
40
0.582888043965263
40
0.582888043965263
40
0.750673925671869
40
0.750673925671869
40
1
40
1
40
1
40
1
41
1
10
12.2388802373407
20
-2.28356095182909
30
0
41
1
10
12.1382482119635
20
-2.28339928573649
30
0
41
1
10
12.0376381004799
20
-2.28195751071181
30
0
41
1
10
11.5124893225097
20
-2.26775706684384
30
0
41
1
10
11.0878589283981
20
-2.23346668714387
30
0
41
1
10
10.4477751593967
20
-2.14866239032389
30
0
41
1
10
10.233883530411
20
-2.11481701789859
30
0
41
1
10
9.8045347502669
20
-2.03628485866116
30
0
41
1
10
9.58932062686242
20
-1.99160896015931
30
0
41
1
10
9.05730178156435
20
-1.86889082113217
30
0
41
1
10
8.74073944773178
20
-1.78495736733737
30
0
41
1
10
8.42479691016041
20
-1.69189711996134
30
0
0
SPLINE
5
C5
100
AcDbEntity
8
1
62
256
6
ByLayer
370
13
48
1
60
0
100
AcDbSpline
70
4
71
3
72
12
73
8
40
0
40
0
40
0
40
0
40
0.385940084361232
40
0.385940084361232
40
0.692970042180616
40
0.692970042180616
40
1
40
1
40
1
40
1
41
1
10
8.42479691056786
20
-1.69189712008136
30
0
41
1
10
7.89027569481695
20
-1.53445495688422
30
0
41
1
10
7.35752851594381
20
-1.35088926020677
30
0
41
1
10
6.39693959355913
20
-0.987015024272608
30
0
41
1
10
5.96983578680937
20
-0.813535034602239
30
0
41
1
10
5.109382713748
20
-0.451294094494017
30
0
41
1
10
4.68032396533906
20
-0.264436181913425
30
0
41
1
10
4.25043545020645
20
-0.0762875616922827
30
0
0
SPLINE
5
C6
100
AcDbEntity
8
1
62
256
6
ByLayer
370
13
48
1
60
0
100
AcDbSpline
70
4
71
3
72
8
73
4
40
0
40
0
40
0
40
0
40
1
40
1
40
1
40
1
41
1
10
4.14557452053944
20
-0.0497458340937271
30
0
41
1
10
4.17877734861659
20
-0.0578852707701571
30
0
41
1
10
4.21415931786444
20
-0.0667559112923186
30
0
41
1
10
4.25043545020662
20
-0.0762875616923964
30
0
0
SPLINE
5
C7
100
AcDbEntity
8
1
62
256
6
ByLayer
370
18
48
1
60
0
100
AcDbSpline
70
4
71
3
72
10
73
6
40
0
40
0
40
0
40
0
40
0.5
40
0.5
40
1
40
1
40
1
40
1
41
1
10
4.0368883690968
20
2.39697713978364
30
0
41
1
10
4.0598737011357
20
2.35982054808124
30
0
41
1
10
4.0942403991437
20
2.32768776570421
30
0
41
1
10
4.17055227326739
20
2.28603994162657
30
0
41
1
10
4.21224399351743
20
2.27578150376905
30
0
41
1
10
4.2517151803068
20
2.27451415906219
30
0
0
SPLINE
5
C8
100
AcDbEntity
8
1
62
256
6
ByLayer
370
18
48
1
60
0
100
AcDbSpline
70
4
71
3
72
8
73
4
40
0
40
0
40
0
40
0
40
1
40
1
40
1
40
1
41
1
10
45.959161126962
20
0.667212324980341
30
0
41
1
10
45.9735678493489
20
0.476308967934813
30
0
41
1
10
45.9838723281716
20
0.285697864356138
30
0
41
1
10
45.9900778724369
20
0.0953787785029192
30
0
0
SPLINE
5
C9
100
AcDbEntity
8
1
62
256
6
ByLayer
370
13
48
1
60
0
100
AcDbSpline
70
4
71
3
72
8
73
4
40
0
40
0
40
0
40
0
40
1
40
1
40
1
40
1
41
1
10
4.11701921609
20
-0.127591330658703
30
0
41
1
10
4.12605975782307
20
-0.133063300314689
30
0
41
1
10
4.13556248379217
20
-0.138040630788083
30
0
41
1
10
4.14557452053944
20
-0.142474926357807
30
0
0
SPLINE
5
CA
100
AcDbEntity
8
1
62
256
6
ByLayer
370
18
48
1
60
0
100
AcDbSpline
70
4
71
3
72
8
73
4
40
0
40
0
40
0
40
0
40
1
40
1
40
1
40
1
41
1
10
45.9900778724369
20
0.0953787785029192
30
0
41
1
10
45.9906536897286
20
0.0777189221084882
30
0
41
1
10
45.9944668441904
20
0.0554333119978025
30
0
41
1
10
45.9999598963088
20
0.0321394804794579
30
0
0
SPLINE
5
CB
100
AcDbEntity
8
1
62
256
6
ByLayer
370
18
48
1
60
0
100
AcDbSpline
70
4
71
3
72
10
73
6
40
0
40
0
40
0
40
0
40
0.5
40
0.5
40
1
40
1
40
1
40
1
41
1
10
4.11701921608596
20
-0.127591330655775
30
0
41
1
10
4.09416681775679
20
-0.113255484672806
30
0
41
1
10
4.07437292585968
20
-0.0946232926925461
30
0
41
1
10
4.04521545042238
20
-0.0497664695523099
30
0
41
1
10
4.03595333980414
20
-0.0236424141602924
30
0
41
1
10
4.03596556612436
20
0.0034952016287377
30
0
0
SPLINE
5
CC
100
AcDbEntity
8
1
62
256
6
ByLayer
370
18
48
1
60
0
100
AcDbSpline
70
4
71
3
72
30
73
26
40
0
40
0
40
0
40
0
40
0.249999999999957
40
0.249999999999957
40
0.37499999999994
40
0.37499999999994
40
0.499999999999924
40
0.499999999999924
40
0.624999999999908
40
0.624999999999908
40
0.749999999999891
40
0.749999999999891
40
0.812499999999888
40
0.812499999999888
40
0.820312499999893
40
0.820312499999893
40
0.828124999999898
40
0.828124999999898
40
0.835937499999902
40
0.835937499999902
40
0.843749999999907
40
0.843749999999907
40
0.874999999999926
40
0.874999999999926
40
1
40
1
40
1
40
1
41
1
10
42.8960426633142
20
0.722184952372174
30
0
41
1
10
43.0876819188567
20
0.585074753231794
30
0
41
1
10
43.2850992243587
20
0.466795973231484
30
0
41
1
10
43.5910167584764
20
0.321289827261779
30
0
41
1
10
43.695253149068
20
0.278010479704449
30
0
41
1
10
43.9032207019445
20
0.204857341535245
30
0
41
1
10
44.0071435880769
20
0.174770574737494
30
0
41
1
10
44.2148597238553
20
0.128413939517344
30
0
41
1
10
44.318652900776
20
0.112151822268657
30
0
41
1
10
44.5260871744686
20
0.0958365735249629
30
0
41
1
10
44.629703283927
20
0.0959636991200341
30
0
41
1
10
44.7816346066726
20
0.110702290994993
30
0
41
1
10
44.8316063884458
20
0.118455546440458
30
0
41
1
10
44.8873094068905
20
0.128908349549846
30
0
41
1
10
44.8934807138252
20
0.130128601419955
30
0
41
1
10
44.9056980350005
20
0.132980487823147
30
0
41
1
10
44.9118843017179
20
0.134499511636108
30
0
41
1
10
44.9224654143607
20
0.14087498918235
30
0
41
1
10
44.9271006318456
20
0.14565747035607
30
0
41
1
10
44.9321817351847
20
0.158903370141871
30
0
41
1
10
44.9328691811565
20
0.166494977756741
30
0
41
1
10
44.9382438378864
20
0.203350156818033
30
0
41
1
10
44.9422100379649
20
0.232989239209502
30
0
41
1
10
44.9585427140231
20
0.382559783596804
30
0
41
1
10
44.9616324410938
20
0.505045506177794
30
0
41
1
10
44.9575440222009
20
0.629384561392925
30
0
0
SPLINE
5
CD
100
AcDbEntity
8
1
62
256
6
ByLayer
370
18
48
1
60
0
100
AcDbSpline
70
4
71
3
72
8
73
4
40
0
40
0
40
0
40
0
40
1
40
1
40
1
40
1
41
1
10
45.17804873235
20
-2.39280514890379
30
0
41
1
10
45.1750139036723
20
-2.40054851990175
30
0
41
1
10
45.1719770835412
20
-2.408289780877
30
0
41
1
10
45.1689383298892
20
-2.41602886993186
30
0
0
SPLINE
5
CE
100
AcDbEntity
8
1
62
256
6
ByLayer
370
18
48
1
60
0
100
AcDbSpline
70
4
71
3
72
10
73
6
40
0
40
0
40
0
40
0
40
0.5
40
0.5
40
1
40
1
40
1
40
1
41
1
10
45.294663430627
20
2.3398437785564
30
0
41
1
10
45.3994912798019
20
2.05829319321288
30
0
41
1
10
45.5074878728273
20
1.77812443833778
30
0
41
1
10
45.7292971744225
20
1.22023959323647
30
0
41
1
10
45.8431521232172
20
0.942610517915028
30
0
41
1
10
45.9591611269635
20
0.66721232497656
30
0
0
SPLINE
5
CF
100
AcDbEntity
8
1
62
256
6
ByLayer
370
18
48
1
60
0
100
AcDbSpline
70
4
71
3
72
80
73
76
40
0
40
0
40
0
40
0
40
0.0183879140526051
40
0.0183879140526051
40
0.0457476338672183
40
0.0457476338672183
40
0.0731073536818315
40
0.0731073536818315
40
0.100467073496445
40
0.100467073496445
40
0.127826793311058
40
0.127826793311058
40
0.155186513125671
40
0.155186513125671
40
0.182546232940284
40
0.182546232940284
40
0.209905952754897
40
0.209905952754897
40
0.237265672569511
40
0.237265672569511
40
0.264625392384124
40
0.264625392384124
40
0.291985112198737
40
0.291985112198737
40
0.31934483201335
40
0.31934483201335
40
0.346704551827963
40
0.346704551827963
40
0.374064271642577
40
0.374064271642577
40
0.40142399145719
40
0.40142399145719
40
0.428783711271803
40
0.428783711271803
40
0.456143431086416
40
0.456143431086416
40
0.483503150901029
40
0.483503150901029
40
0.510862870715642
40
0.510862870715642
40
0.538222590530256
40
0.538222590530256
40
0.565582310344869
40
0.565582310344869
40
0.592942030159482
40
0.592942030159482
40
0.620301749974095
40
0.620301749974095
40
0.647661469788708
40
0.647661469788708
40
0.675021189603321
40
0.675021189603321
40
0.702380909417936
40
0.702380909417936
40
0.72974062923255
40
0.72974062923255
40
0.757100349047164
40
0.757100349047164
40
0.784460068861777
40
0.784460068861777
40
0.811819788676391
40
0.811819788676391
40
0.839179508491005
40
0.839179508491005
40
0.866539228305619
40
0.866539228305619
40
0.893898948120234
40
0.893898948120234
40
0.921258667934847
40
0.921258667934847
40
0.948618387749461
40
0.948618387749461
40
0.975978107564075
40
0.975978107564075
40
1
40
1
40
1
40
1
41
1
10
39.9870933121744
20
-1.76988528924454
30
0
41
1
10
39.8653862640255
20
-1.80417939537943
30
0
41
1
10
39.743774638217
20
-1.83701813473027
30
0
41
1
10
39.4414348775275
20
-1.91512778444476
30
0
41
1
10
39.2606833916132
20
-1.95805851655501
30
0
41
1
10
38.8986569564931
20
-2.03597940367513
30
0
41
1
10
38.7174187436138
20
-2.071271520961
30
0
41
1
10
38.3547963706753
20
-2.13555634958166
30
0
41
1
10
38.1734250570652
20
-2.16437570146843
30
0
41
1
10
37.8096155045314
20
-2.21396719798611
30
0
41
1
10
37.6272118918912
20
-2.23480582042904
30
0
41
1
10
37.2613180428173
20
-2.26816169918348
30
0
41
1
10
37.0780828488705
20
-2.28067311670006
30
0
41
1
10
36.7136125903762
20
-2.29576811318685
30
0
41
1
10
36.5318433580398
20
-2.29822997574527
30
0
41
1
10
36.1687953376904
20
-2.29650674788951
30
0
41
1
10
35.9876213066118
20
-2.29209244006071
30
0
41
1
10
35.6260147330975
20
-2.27478615853855
30
0
41
1
10
35.4454269605855
20
-2.26163600164043
30
0
41
1
10
35.0841191636165
20
-2.22742930139836
30
0
41
1
10
34.9034385427586
20
-2.20678359597068
30
0
41
1
10
34.5422079259539
20
-2.15731349165637
30
0
41
1
10
34.3616503026041
20
-2.1283332734869
30
0
41
1
10
33.9995756701086
20
-2.06173413028932
30
0
41
1
10
33.8181601458438
20
-2.02484700970902
30
0
41
1
10
33.4547541815068
20
-1.94460043690333
30
0
41
1
10
33.2728386341049
20
-1.9006825779654
30
0
41
1
10
32.9076391836045
20
-1.80495542146684
30
0
41
1
10
32.724015344126
20
-1.75302851416859
30
0
41
1
10
32.3583993522887
20
-1.64489850274811
30
0
41
1
10
32.176138387005
20
-1.58809352309211
30
0
41
1
10
31.812727532852
20
-1.46816531649074
30
0
41
1
10
31.6314151857086
20
-1.40522265058536
30
0
41
1
10
31.2689897937568
20
-1.27519679957698
30
0
41
1
10
31.0879000492144
20
-1.20843372217189
30
0
41
1
10
30.726214038104
20
-1.06996961119069
30
0
41
1
10
30.5455834841757
20
-0.998339696926621
30
0
41
1
10
30.1837778355369
20
-0.852019734791185
30
0
41
1
10
30.0026645752524
20
-0.77749608501432
30
0
41
1
10
29.6401881559872
20
-0.625718285772592
30
0
41
1
10
29.4588991000338
20
-0.548026051696922
30
0
41
1
10
29.0952986451509
20
-0.390711885499258
30
0
41
1
10
28.9128807555091
20
-0.311220412487728
30
0
41
1
10
28.5471200434312
20
-0.15128929240359
30
0
41
1
10
28.3635074900865
20
-0.0703977555472193
30
0
41
1
10
27.9983465374011
20
0.0911018951539404
30
0
41
1
10
27.8163327289631
20
0.171369507697108
30
0
41
1
10
27.4528868997648
20
0.330098295000994
30
0
41
1
10
27.2714449361185
20
0.40882074534872
30
0
41
1
10
26.9094220079599
20
0.565003915998602
30
0
41
1
10
26.7287803582707
20
0.642323847727113
30
0
41
1
10
26.3673555892545
20
0.793225004720995
30
0
41
1
10
26.186602670172
20
0.867072070179404
30
0
41
1
10
25.8251857092665
20
1.01229496358994
30
0
41
1
10
25.644617142546
20
1.08368950728246
30
0
41
1
10
25.2827777491075
20
1.22147372990517
30
0
41
1
10
25.1014570832553
20
1.28776290310742
30
0
41
1
10
24.7381940359111
20
1.41658085715835
30
0
41
1
10
24.5563309541799
20
1.47913041294393
30
0
41
1
10
24.1916195785985
20
1.59868080987275
30
0
41
1
10
24.0081528667024
20
1.65514635814321
30
0
41
1
10
23.6418573952334
20
1.76187667393285
30
0
41
1
10
23.4591659050373
20
1.81237772236489
30
0
41
1
10
23.0950214304157
20
1.90650092619091
30
0
41
1
10
22.9135008115266
20
1.94968304168395
30
0
41
1
10
22.5506742792589
20
2.0281271792081
30
0
41
1
10
22.36939042452
20
2.06381097447093
30
0
41
1
10
22.0072660514188
20
2.12855867761127
30
0
41
1
10
21.8265221500433
20
2.15731145505868
30
0
41
1
10
21.4646420071124
20
2.20496895847498
30
0
41
1
10
21.2835338651258
20
2.22488523352052
30
0
41
1
10
20.9209784896491
20
2.2576466200438
30
0
41
1
10
20.7396617756105
20
2.2706075878971
30
0
41
1
10
20.3984978390015
20
2.28579593713798
30
0
41
1
10
20.2385329852118
20
2.28877430449717
30
0
41
1
10
20.0782011336466
20
2.28909286742285
30
0
0
SPLINE
5
D0
100
AcDbEntity
8
1
62
256
6
ByLayer
370
13
48
1
60
0
100
AcDbSpline
70
4
71
3
72
8
73
4
40
0
40
0
40
0
40
0
40
1
40
1
40
1
40
1
41
1
10
4.14557452053944
20
-0.142474926357807
30
0
41
1
10
4.16565690789579
20
-0.151137690938953
30
0
41
1
10
4.18693506667387
20
-0.160509368947743
30
0
41
1
10
4.20870271488093
20
-0.170431302487202
30
0
0
SPLINE
5
D1
100
AcDbEntity
8
1
62
256
6
ByLayer
370
18
48
1
60
0
100
AcDbSpline
70
4
71
3
72
10
73
6
40
0
40
0
40
0
40
0
40
0.5
40
0.5
40
1
40
1
40
1
40
1
41
1
10
45.294663430632
20
-2.33984377854301
30
0
41
1
10
45.2718046313639
20
-2.35851835052424
30
0
41
1
10
45.2498697844672
20
-2.37433355038775
30
0
41
1
10
45.2078425531947
20
-2.39990860899172
30
0
41
1
10
45.1877182533158
20
-2.40964536680752
30
0
41
1
10
45.1689383298892
20
-2.41602886993186
30
0
0
SPLINE
5
D2
100
AcDbEntity
8
1
62
256
6
ByLayer
370
18
48
1
60
0
100
AcDbSpline
70
4
71
3
72
16
73
12
40
0
40
0
40
0
40
0
40
0.250000000000001
40
0.250000000000001
40
0.500000000000002
40
0.500000000000002
40
0.750000000000003
40
0.750000000000003
40
0.875000000000002
40
0.875000000000002
40
1
40
1
40
1
40
1
41
1
10
44.9904929399675
20
-1.80863172557539
30
0
41
1
10
44.990019266119
20
-1.89439468658782
30
0
41
1
10
44.9936017663285
20
-1.96950093900972
30
0
41
1
10
45.0091327324441
20
-2.09876885637504
30
0
41
1
10
45.0212863432972
20
-2.15314313204593
30
0
41
1
10
45.0538012701436
20
-2.236538741343
30
0
41
1
10
45.0741511560739
20
-2.26623461059518
30
0
41
1
10
45.1113344752865
20
-2.29308941383249
30
0
41
1
10
45.1249017815434
20
-2.29907734217335
30
0
41
1
10
45.1540806828343
20
-2.30493942134768
30
0
41
1
10
45.1696944742979
20
-2.30484724113441
30
0
41
1
10
45.1863702033863
20
-2.3017861950361
30
0
0
SPLINE
5
D3
100
AcDbEntity
8
1
62
256
6
ByLayer
370
18
48
1
60
0
100
AcDbSpline
70
4
71
3
72
16
73
12
40
0
40
0
40
0
40
0
40
0.363041864144812
40
0.363041864144812
40
0.544562796217215
40
0.544562796217215
40
0.726083728289619
40
0.726083728289619
40
0.907604660362022
40
0.907604660362022
40
1
40
1
40
1
40
1
41
1
10
7.99178244067394
20
-1.95852202341422
30
0
41
1
10
8.38279809160514
20
-2.06480880130945
30
0
41
1
10
8.77314032757823
20
-2.15055765667358
30
0
41
1
10
9.35399557798004
20
-2.25421078023447
30
0
41
1
10
9.54726367411348
20
-2.28402771775953
30
0
41
1
10
9.93422721925208
20
-2.33366201486135
30
0
41
1
10
10.1277286394763
20
-2.3536657417896
30
0
41
1
10
10.5142359159933
20
-2.38418126482867
30
0
41
1
10
10.7072119307217
20
-2.39459813466138
30
0
41
1
10
10.9995661866428
20
-2.40263160283183
30
0
41
1
10
11.0983096607663
20
-2.40405784952955
30
0
41
1
10
11.1971532883738
20
-2.40419223258795
30
0
0
SPLINE
5
D4
100
AcDbEntity
8
1
62
256
6
ByLayer
370
18
48
1
60
0
100
AcDbSpline
70
4
71
3
72
78
73
74
40
0
40
0
40
0
40
0
40
0.0050875523620239
40
0.0050875523620239
40
0.0338296764655186
40
0.0338296764655186
40
0.0625718005690133
40
0.0625718005690133
40
0.0913139246725079
40
0.0913139246725079
40
0.120056048776003
40
0.120056048776003
40
0.148798172879497
40
0.148798172879497
40
0.177540296982991
40
0.177540296982991
40
0.206282421086485
40
0.206282421086485
40
0.235024545189979
40
0.235024545189979
40
0.263766669293472
40
0.263766669293472
40
0.292508793396966
40
0.292508793396966
40
0.32125091750046
40
0.32125091750046
40
0.349993041603954
40
0.349993041603954
40
0.378735165707448
40
0.378735165707448
40
0.407477289810942
40
0.407477289810942
40
0.436219413914436
40
0.436219413914436
40
0.464961538017929
40
0.464961538017929
40
0.493703662121423
40
0.493703662121423
40
0.522445786224917
40
0.522445786224917
40
0.551187910328411
40
0.551187910328411
40
0.579930034431905
40
0.579930034431905
40
0.608672158535398
40
0.608672158535398
40
0.637414282638892
40
0.637414282638892
40
0.666156406742386
40
0.666156406742386
40
0.69489853084588
40
0.69489853084588
40
0.723640654949374
40
0.723640654949374
40
0.752382779052868
40
0.752382779052868
40
0.781124903156362
40
0.781124903156362
40
0.809867027259855
40
0.809867027259855
40
0.838609151363349
40
0.838609151363349
40
0.867351275466843
40
0.867351275466843
40
0.896093399570337
40
0.896093399570337
40
0.924835523673831
40
0.924835523673831
40
0.953577647777325
40
0.953577647777325
40
0.982319771880818
40
0.982319771880818
40
1
40
1
40
1
40
1
41
1
10
23.6291927464709
20
1.75755136553036
30
0
41
1
10
23.6635522260013
20
1.76844027951839
30
0
41
1
10
23.6979042307694
20
1.77920207416727
30
0
41
1
10
23.9262847498705
20
1.84991410299153
30
0
41
1
10
24.1200171933276
20
1.90609739793598
30
0
41
1
10
24.5062591021256
20
2.01138873166428
30
0
41
1
10
24.6991645353751
20
2.0599181811248
30
0
41
1
10
25.0857353133209
20
2.14754420981839
30
0
41
1
10
25.2791963550729
20
2.18692291111705
30
0
41
1
10
25.6659527629547
20
2.25716944664038
30
0
41
1
10
25.8591942867269
20
2.28798834335663
30
0
41
1
10
26.2475204223411
20
2.33937658845289
30
0
41
1
10
26.4423403160884
20
2.3602137934468
30
0
41
1
10
26.8328706849102
20
2.39224409337638
30
0
41
1
10
27.0286201155669
20
2.40342232148839
30
0
41
1
10
27.4186991354074
20
2.41519375100361
30
0
41
1
10
27.6133796111274
20
2.41597214562654
30
0
41
1
10
28.0015639113651
20
2.40759285635431
30
0
41
1
10
28.1947930662801
20
2.39831621025431
30
0
41
1
10
28.5811592450598
20
2.36989069374789
30
0
41
1
10
28.7744676457061
20
2.35088681350166
30
0
41
1
10
29.160901099806
20
2.30332470204863
30
0
41
1
10
29.3538506297179
20
2.27461940177943
30
0
41
1
10
29.7398714583907
20
2.20753333208788
30
0
41
1
10
29.9334066865508
20
2.16957056530384
30
0
41
1
10
30.3213550922259
20
2.08482943348261
30
0
41
1
10
30.5156748532815
20
2.03795436008693
30
0
41
1
10
30.904828247101
20
1.93451316129679
30
0
41
1
10
31.1005728808054
20
1.87852463636142
30
0
41
1
10
31.4921115736167
20
1.75957537878227
30
0
41
1
10
31.6876527715162
20
1.69654054655541
30
0
41
1
10
32.0776156688697
20
1.56221676938691
30
0
41
1
10
32.2724188589824
20
1.49148914988254
30
0
41
1
10
32.662990510341
20
1.3452686319097
30
0
41
1
10
32.8585374041608
20
1.26943397328358
30
0
41
1
10
33.2496120621082
20
1.11119368217422
30
0
41
1
10
33.4449689805404
20
1.02868644890412
30
0
41
1
10
33.8346627027203
20
0.862454676341059
30
0
41
1
10
34.0291155408613
20
0.77805705377861
30
0
41
1
10
34.4168052078165
20
0.605789418887952
30
0
41
1
10
34.6097651808734
20
0.517311059577935
30
0
41
1
10
34.9961350085745
20
0.340492668060705
30
0
41
1
10
35.1894349261226
20
0.251921816891411
30
0
41
1
10
35.5757728158994
20
0.0733875622745188
30
0
41
1
10
35.7685412755027
20
-0.0171771352952703
30
0
41
1
10
36.1548906467722
20
-0.197347264712846
30
0
41
1
10
36.3486544501836
20
-0.28653873202893
30
0
41
1
10
36.736924411356
20
-0.464099968234621
30
0
41
1
10
36.9312599408436
20
-0.552856729533715
30
0
41
1
10
37.3210064607222
20
-0.728840027077325
30
0
41
1
10
37.5171047693917
20
-0.815129117231521
30
0
41
1
10
37.9081991243954
20
-0.983261292387056
30
0
41
1
10
38.1034150746578
20
-1.0654741225766
30
0
41
1
10
38.4930125152402
20
-1.22640093293759
30
0
41
1
10
38.6879734347577
20
-1.30399771687811
30
0
41
1
10
39.0786225785181
20
-1.45285317556414
30
0
41
1
10
39.2741991344124
20
-1.52433282114677
30
0
41
1
10
39.6652314335076
20
-1.66229772422912
30
0
41
1
10
39.8599763642288
20
-1.72765591697959
30
0
41
1
10
40.2490236682212
20
-1.84947133093397
30
0
41
1
10
40.4431493373403
20
-1.90630636672577
30
0
41
1
10
40.8300813192948
20
-2.01257836704519
30
0
41
1
10
41.0228455229991
20
-2.06197141092085
30
0
41
1
10
41.4090783656814
20
-2.1508730457567
30
0
41
1
10
41.602284234386
20
-2.19076274794927
30
0
41
1
10
41.9884275503772
20
-2.26186100925514
30
0
41
1
10
42.1810865150982
20
-2.29321443479648
30
0
41
1
10
42.567786973926
20
-2.34573162215193
30
0
41
1
10
42.7617292299665
20
-2.36706083603116
30
0
41
1
10
43.1503111002559
20
-2.40010782078079
30
0
41
1
10
43.3446929899052
20
-2.41185196896461
30
0
41
1
10
43.6600763234816
20
-2.42242428987328
30
0
41
1
10
43.7804239927402
20
-2.42449113142132
30
0
41
1
10
43.900701499119
20
-2.42462968504381
30
0
0
SPLINE
5
D5
100
AcDbEntity
8
1
62
256
6
ByLayer
370
18
48
1
60
0
100
AcDbSpline
70
4
71
3
72
24
73
20
40
0
40
0
40
0
40
0
40
0.0625000000000038
40
0.0625000000000038
40
0.125000000000008
40
0.125000000000008
40
0.250000000000012
40
0.250000000000012
40
0.375000000000017
40
0.375000000000017
40
0.437500000000019
40
0.437500000000019
40
0.500000000000021
40
0.500000000000021
40
0.750000000000015
40
0.750000000000015
40
0.875000000000008
40
0.875000000000008
40
1
40
1
40
1
40
1
41
1
10
42.8960426633142
20
0.722184952372203
30
0
41
1
10
42.8970638779011
20
0.650635500687258
30
0
41
1
10
42.9030972297909
20
0.578492557899267
30
0
41
1
10
42.9248795754808
20
0.43305623555554
30
0
41
1
10
42.940839156742
20
0.359098636807232
30
0
41
1
10
43.0015372654709
20
0.141219120315327
30
0
41
1
10
43.0583866846171
20
0.0015014847517989
30
0
41
1
10
43.1981352526167
20
-0.269132827115215
30
0
41
1
10
43.2784524987437
20
-0.395157304053697
30
0
41
1
10
43.4100806790498
20
-0.573716539109739
30
0
41
1
10
43.4558669641194
20
-0.631480592383866
30
0
41
1
10
43.5508617007007
20
-0.743863378630863
30
0
41
1
10
43.6001642539858
20
-0.798554094348447
30
0
41
1
10
43.8506637030584
20
-1.06097255514177
30
0
41
1
10
44.0661800336959
20
-1.24018853004139
30
0
41
1
10
44.4047852587698
20
-1.47785891509812
30
0
41
1
10
44.5205383189957
20
-1.55180259341688
30
0
41
1
10
44.7537434925007
20
-1.68821778699362
30
0
41
1
10
44.8715594982123
20
-1.75094718813759
30
0
41
1
10
44.9904929399675
20
-1.80863172557537
30
0
0
SPLINE
5
D6
100
AcDbEntity
8
1
62
256
6
ByLayer
370
18
48
1
60
0
100
AcDbSpline
70
4
71
3
72
8
73
4
40
0
40
0
40
0
40
0
40
1
40
1
40
1
40
1
41
1
10
4.03688836909689
20
2.39697713978364
30
0
41
1
10
3.96891151905618
20
2.398696672261
30
0
41
1
10
3.90095414289931
20
2.39959204396086
30
0
41
1
10
3.83316056016477
20
2.39958935604037
30
0
0
SPLINE
5
D7
100
AcDbEntity
8
1
62
256
6
ByLayer
370
18
48
1
60
0
100
AcDbSpline
70
4
71
3
72
8
73
4
40
0
40
0
40
0
40
0
40
1
40
1
40
1
40
1
41
1
10
7.14224838295357
20
1.77306787371816
30
0
41
1
10
7.4266510998284
20
1.83580138269824
30
0
41
1
10
7.70967433717928
20
1.89845103241584
30
0
41
1
10
7.99178244067394
20
1.95852202341425
30
0
0
SPLINE
5
D8
100
AcDbEntity
8
1
62
256
6
ByLayer
370
18
48
1
60
0
100
AcDbSpline
70
4
71
3
72
12
73
8
40
0
40
0
40
0
40
0
40
0.267988358047862
40
0.267988358047862
40
0.535976716095724
40
0.535976716095724
40
1
40
1
40
1
40
1
41
1
10
4.20870271488093
20
-0.170431302487202
30
0
41
1
10
4.63923630408624
20
-0.366673249157969
30
0
41
1
10
5.06889293731294
20
-0.560461657312516
30
0
41
1
10
5.93063402922249
20
-0.934314715739134
30
0
41
1
10
6.35808767962641
20
-1.11227790230987
30
0
41
1
10
7.52135911716397
20
-1.56110792796986
30
0
41
1
10
8.25420686989412
20
-1.80538005616015
30
0
41
1
10
8.99379484460133
20
-1.99103731388385
30
0
0
SPLINE
5
D9
100
AcDbEntity
8
1
62
256
6
ByLayer
370
13
48
1
60
0
100
AcDbSpline
70
4
71
3
72
18
73
14
40
0
40
0
40
0
40
0
40
0.077487803183204
40
0.077487803183204
40
0.221788153420614
40
0.221788153420614
40
0.366088503658023
40
0.366088503658023
40
0.654689204132839
40
0.654689204132839
40
0.943289904607654
40
0.943289904607654
40
1
40
1
40
1
40
1
41
1
10
8.99379454286586
20
-1.99103723813977
30
0
41
1
10
9.10847831321203
20
-2.01982607316299
30
0
41
1
10
9.22332415195842
20
-2.04720551542795
30
0
41
1
10
9.55262409489748
20
-2.12134177585753
30
0
41
1
10
9.7681823503188
20
-2.16456525498737
30
0
41
1
10
10.198052187798
20
-2.23947908027225
30
0
41
1
10
10.4121413627171
20
-2.27116483700976
30
0
41
1
10
11.0527397841567
20
-2.34858910071927
30
0
41
1
10
11.4775532020893
20
-2.37672169779955
30
0
41
1
10
12.3270290289194
20
-2.38530809566944
30
0
41
1
10
12.7516817614915
20
-2.36579161304974
30
0
41
1
10
13.262248134318
20
-2.31406281243386
30
0
41
1
10
13.346178258324
20
-2.30465437425391
30
0
41
1
10
13.4302047991304
20
-2.29433542764042
30
0
0
SPLINE
5
DA
100
AcDbEntity
8
1
62
256
6
ByLayer
370
18
48
1
60
0
100
AcDbSpline
70
4
71
3
72
28
73
24
40
0
40
0
40
0
40
0
40
0.0050260334580563
40
0.0050260334580563
40
0.0573930843286862
40
0.0573930843286862
40
0.162127186069943
40
0.162127186069943
40
0.2668612878112
40
0.2668612878112
40
0.319228338681827
40
0.319228338681827
40
0.371595389552454
40
0.371595389552454
40
0.581063593034967
40
0.581063593034967
40
0.685797694776224
40
0.685797694776224
40
0.738164745646854
40
0.738164745646854
40
0.790531796517484
40
0.790531796517484
40
1
40
1
40
1
40
1
41
1
10
32.9822865921589
20
1.51108925877997
30
0
41
1
10
33.0028363660575
20
1.50376182792593
30
0
41
1
10
33.0233749455424
20
1.49640264254626
30
0
41
1
10
33.2577611073138
20
1.41201654275696
30
0
41
1
10
33.4708258656144
20
1.33151092013242
30
0
41
1
10
34.1084591323589
20
1.08117694437024
30
0
41
1
10
34.5315444178091
20
0.902637994151121
30
0
41
1
10
35.3778010114137
20
0.530955609215141
30
0
41
1
10
35.8010615218575
20
0.338009183952181
30
0
41
1
10
36.4392078770894
20
0.0444991152273246
30
0
41
1
10
36.6524923007903
20
-0.0539563192147909
30
0
41
1
10
37.0807980236157
20
-0.250796721024443
30
0
41
1
10
37.2963915992644
20
-0.34946737261896
30
0
41
1
10
38.3680607349518
20
-0.834466798619928
30
0
41
1
10
39.21139785
20
-1.19812808621401
30
0
41
1
10
40.4816355880043
20
-1.65497504638853
30
0
41
1
10
40.9058913262256
20
-1.79273779057317
30
0
41
1
10
41.5467968331407
20
-1.97171528444451
30
0
41
1
10
41.7616019489074
20
-2.02686523704548
30
0
41
1
10
42.1913644031101
20
-2.1265285168767
30
0
41
1
10
42.40548493044
20
-2.17087401996073
30
0
41
1
10
43.4736210305745
20
-2.3642884057285
30
0
41
1
10
44.3211371520324
20
-2.42800942996706
30
0
41
1
10
45.1780487323439
20
-2.39280514890123
30
0
0
SPLINE
5
DB
100
AcDbEntity
8
1
62
256
6
ByLayer
370
18
48
1
60
0
100
AcDbSpline
70
4
71
3
72
30
73
26
40
0
40
0
40
0
40
0
40
0.0624999999999998
40
0.0624999999999998
40
0.125
40
0.125
40
0.249999999999999
40
0.249999999999999
40
0.312499999999999
40
0.312499999999999
40
0.374999999999999
40
0.374999999999999
40
0.499999999999999
40
0.499999999999999
40
0.562499999999999
40
0.562499999999999
40
0.624999999999999
40
0.624999999999999
40
0.749999999999999
40
0.749999999999999
40
0.812499999999999
40
0.812499999999999
40
0.875
40
0.875
40
1
40
1
40
1
40
1
41
1
10
4.03596556612459
20
0.0034952016288514
30
0
41
1
10
4.03600001109322
20
0.0799494663179132
30
0
41
1
10
4.03603346591842
20
0.156189281640337
30
0
41
1
10
4.03609864305599
20
0.308241189103001
30
0
41
1
10
4.03613049734616
20
0.384380134222397
30
0
41
1
10
4.03622267081332
20
0.609361959452542
30
0
41
1
10
4.03627957579141
20
0.754583402842314
30
0
41
1
10
4.03635988680543
20
0.965447119625708
30
0
41
1
10
4.03638580836247
20
1.03456577669991
30
0
41
1
10
4.03643617027197
20
1.17039844358712
30
0
41
1
10
4.03646052178561
20
1.23687828798685
30
0
41
1
10
4.0365301871889
20
1.42852371810014
30
0
41
1
10
4.03657267454776
20
1.54735591453911
30
0
41
1
10
4.03663162842946
20
1.7122235885347
30
0
41
1
10
4.03665055479962
20
1.76516252488011
30
0
41
1
10
4.03668646295645
20
1.86525345062125
30
0
41
1
10
4.03670336324959
20
1.91217829858692
30
0
41
1
10
4.03675111268603
20
2.0438600220447
30
0
41
1
10
4.03677906259281
20
2.11960498317743
30
0
41
1
10
4.0368150303481
20
2.21473431344168
30
0
41
1
10
4.03682600247623
20
2.24330744064912
30
0
41
1
10
4.03684537696998
20
2.29300400559427
30
0
41
1
10
4.03685384905225
20
2.31431345417727
30
0
41
1
10
4.03687548811192
20
2.36780218675361
30
0
41
1
10
4.03688495031008
20
2.38966031563177
30
0
41
1
10
4.03688836909686
20
2.39697713978364
30
0
0
SPLINE
5
DC
100
AcDbEntity
8
1
62
256
6
ByLayer
370
18
48
1
60
0
100
AcDbSpline
70
4
71
3
72
34
73
30
40
0
40
0
40
0
40
0
40
0.113738896417831
40
0.113738896417831
40
0.197871563728836
40
0.197871563728836
40
0.282004231039841
40
0.282004231039841
40
0.45026956566185
40
0.45026956566185
40
0.534402232972855
40
0.534402232972855
40
0.576468566628357
40
0.576468566628357
40
0.586985150042233
40
0.586985150042233
40
0.597501733456108
40
0.597501733456108
40
0.608018316869984
40
0.608018316869984
40
0.618534900283859
40
0.618534900283859
40
0.702667567594864
40
0.702667567594864
40
0.786800234905869
40
0.786800234905869
40
0.955065569527879
40
0.955065569527879
40
1
40
1
40
1
40
1
41
1
10
7.99178244067394
20
1.95852202341464
30
0
41
1
10
7.99178244067394
20
1.84667282247412
30
0
41
1
10
7.99178244067394
20
1.73986749283776
30
0
41
1
10
7.99178244067394
20
1.56270494976042
30
0
41
1
10
7.99178244067394
20
1.4901167997055
30
0
41
1
10
7.99178244067394
20
1.35321550641245
30
0
41
1
10
7.991782440674
20
1.28849741576386
30
0
41
1
10
7.991782440674
20
1.10506555824261
30
0
41
1
10
7.99178244067397
20
0.99700041384429
30
0
41
1
10
7.99178244067397
20
0.855829952852844
30
0
41
1
10
7.99178244067397
20
0.812218694901418
30
0
41
1
10
7.99178244067397
20
0.75274979064065
30
0
41
1
10
7.99178244067397
20
0.733890449817835
30
0
41
1
10
7.99178244067397
20
0.711516250455617
30
0
41
1
10
7.99178244067397
20
0.7071024566728
30
0
41
1
10
7.99178244067397
20
0.698396745014065
30
0
41
1
10
7.99178244067394
20
0.693761550922147
30
0
41
1
10
7.99178244067394
20
0.686032328040113
30
0
41
1
10
7.99178244067488
20
0.686390431460751
30
0
41
1
10
7.99178244067488
20
0.695932855906278
30
0
41
1
10
7.991782440674
20
0.701640581481854
30
0
41
1
10
7.991782440674
20
0.749854594087026
30
0
41
1
10
7.99178244067397
20
0.797049393617584
30
0
41
1
10
7.99178244067397
20
0.899133431148414
30
0
41
1
10
7.99178244067394
20
0.95402443924263
30
0
41
1
10
7.99178244067394
20
1.13033066566601
30
0
41
1
10
7.99178244067397
20
1.26325490074581
30
0
41
1
10
7.99178244067397
20
1.45312885747467
30
0
41
1
10
7.99178244067397
20
1.49402955573217
30
0
41
1
10
7.99178244067397
20
1.5358104741396
30
0
0
SPLINE
5
DD
100
AcDbEntity
8
1
62
256
6
ByLayer
370
18
48
1
60
0
100
AcDbSpline
70
4
71
3
72
8
73
4
40
0
40
0
40
0
40
0
40
1
40
1
40
1
40
1
41
1
10
4.14524424373749
20
-0.142863860941105
30
0
41
1
10
4.13544180501106
20
-0.138347797122719
30
0
41
1
10
4.12603871777344
20
-0.133249475816967
30
0
41
1
10
4.11701921609128
20
-0.127591330659129
30
0
0
SPLINE
5
DE
100
AcDbEntity
8
1
62
256
6
ByLayer
370
18
48
1
60
0
100
AcDbSpline
70
4
71
3
72
8
73
4
40
0
40
0
40
0
40
0
40
1
40
1
40
1
40
1
41
1
10
45.9999598963088
20
0.0321394804794579
30
0
41
1
10
45.9949140272689
20
0.014555179096277
30
0
41
1
10
45.987184195475
20
-0.0039473200787938
30
0
41
1
10
45.979057275674
20
-0.0172577962841558
30
0
0
SPLINE
5
DF
100
AcDbEntity
8
1
62
256
6
ByLayer
370
18
48
1
60
0
100
AcDbSpline
70
4
71
3
72
22
73
18
40
0
40
0
40
0
40
0
40
0.153516730616331
40
0.153516730616331
40
0.232812568035058
40
0.232812568035058
40
0.312108405453784
40
0.312108405453784
40
0.62929175512869
40
0.62929175512869
40
0.708587592547416
40
0.708587592547416
40
0.787883429966141
40
0.787883429966141
40
0.946475104803593
40
0.946475104803593
40
1
40
1
40
1
40
1
41
1
10
17.060129675542
20
1.34753737978156
30
0
41
1
10
17.4721139978969
20
1.19200307486406
30
0
41
1
10
17.8853298759239
20
1.02301352898118
30
0
41
1
10
18.5171591844354
20
0.752462622090519
30
0
41
1
10
18.7320136819285
20
0.658252256885817
30
0
41
1
10
19.1597900941705
20
0.467614218802737
30
0
41
1
10
19.373050497076
20
0.371202810654523
30
0
41
1
10
20.4375495362241
20
-0.113311875962182
30
0
41
1
10
21.2828592553821
20
-0.509908954458325
30
0
41
1
10
22.3538851141452
20
-0.967176852362172
30
0
41
1
10
22.5692417217529
20
-1.05693810190183
30
0
41
1
10
22.9992997860097
20
-1.23035595222947
30
0
41
1
10
23.2139671657692
20
-1.31398306073427
30
0
41
1
10
23.8576526905556
20
-1.55418145336887
30
0
41
1
10
24.2868271760651
20
-1.70006110555781
30
0
41
1
10
24.862345962042
20
-1.87064178917848
30
0
41
1
10
25.0072249435514
20
-1.91143154028393
30
0
41
1
10
25.1518425483206
20
-1.94989331787539
30
0
0
SPLINE
5
E0
100
AcDbEntity
8
1
62
256
6
ByLayer
370
13
48
1
60
0
100
AcDbSpline
70
4
71
3
72
14
73
10
40
0
40
0
40
0
40
0
40
0.459317301301205
40
0.459317301301205
40
0.597457950409229
40
0.597457950409229
40
0.735598599517253
40
0.735598599517253
40
1
40
1
40
1
40
1
41
1
10
25.1518425481381
20
-1.94989331782688
30
0
41
1
10
25.8642148755797
20
-2.13935231257003
30
0
41
1
10
26.5702450211714
20
-2.27232414114101
30
0
41
1
10
27.493491192435
20
-2.36032584608679
30
0
41
1
10
27.7073190967056
20
-2.37480142271031
30
0
41
1
10
28.1361754217039
20
-2.39166567064805
30
0
41
1
10
28.3517330810327
20
-2.3940390635035
30
0
41
1
10
28.9767867955401
20
-2.38311409009029
30
0
41
1
10
29.3844429072263
20
-2.35359144282106
30
0
41
1
10
29.7910649278774
20
-2.30310066408734
30
0
0
SPLINE
5
E1
100
AcDbEntity
8
1
62
256
6
ByLayer
370
18
48
1
60
0
100
AcDbSpline
70
4
71
3
72
12
73
8
40
0
40
0
40
0
40
0
40
0.25
40
0.25
40
0.5
40
0.5
40
1
40
1
40
1
40
1
41
1
10
44.9575440222009
20
0.629384561392925
30
0
41
1
10
44.9572141250936
20
0.639417558430154
30
0
41
1
10
44.9596504275884
20
0.649512063332651
30
0
41
1
10
44.9701714708194
20
0.666921448370744
30
0
41
1
10
44.9782279011431
20
0.674164146629977
30
0
41
1
10
45.005214989553
20
0.689656372222288
30
0
41
1
10
45.0265949339928
20
0.692788184071361
30
0
41
1
10
45.0473651283982
20
0.692138526205468
30
0
0
SPLINE
5
E2
100
AcDbEntity
8
1
62
256
6
ByLayer
370
18
48
1
60
0
100
AcDbSpline
70
4
71
3
72
52
73
48
40
0
40
0
40
0
40
0
40
0.062500000000015
40
0.062500000000015
40
0.12500000000003
40
0.12500000000003
40
0.187500000000045
40
0.187500000000045
40
0.218750000000052
40
0.218750000000052
40
0.250000000000059
40
0.250000000000059
40
0.281250000000065
40
0.281250000000065
40
0.296875000000069
40
0.296875000000069
40
0.312500000000072
40
0.312500000000072
40
0.328125000000075
40
0.328125000000075
40
0.343750000000078
40
0.343750000000078
40
0.375000000000085
40
0.375000000000085
40
0.406250000000092
40
0.406250000000092
40
0.437500000000098
40
0.437500000000098
40
0.441406250000097
40
0.441406250000097
40
0.445312500000096
40
0.445312500000096
40
0.449218750000095
40
0.449218750000095
40
0.453125000000094
40
0.453125000000094
40
0.468750000000091
40
0.468750000000091
40
0.500000000000085
40
0.500000000000085
40
0.625000000000064
40
0.625000000000064
40
0.750000000000043
40
0.750000000000043
40
0.875000000000021
40
0.875000000000021
40
1
40
1
40
1
40
1
41
1
10
4.03688836909447
20
-2.3969771397837
30
0
41
1
10
3.86683001124084
20
-2.4012789111838
30
0
41
1
10
3.69689353170881
20
-2.40042262920468
30
0
41
1
10
3.36178357507856
20
-2.38607987795578
30
0
41
1
10
3.19692896247631
20
-2.37270764769261
30
0
41
1
10
2.87535792022231
20
-2.32950067706352
30
0
41
1
10
2.71844481741331
20
-2.29995164664396
30
0
41
1
10
2.4944247872215
20
-2.23560725006112
30
0
41
1
10
2.42233937366979
20
-2.2108958248013
30
0
41
1
10
2.28748573668503
20
-2.15301778858475
30
0
41
1
10
2.22438662723081
20
-2.119891636636
30
0
41
1
10
2.11304890752174
20
-2.04020138432679
30
0
41
1
10
2.06431300910199
20
-1.99284108553241
30
0
41
1
10
2.01839081080343
20
-1.90984631950323
30
0
41
1
10
2.0075648039626
20
-1.87977826405924
30
0
41
1
10
1.99808359257184
20
-1.81765105772666
30
0
41
1
10
1.99919277199811
20
-1.78526720992312
30
0
41
1
10
2.01465854600252
20
-1.7178786117245
30
0
41
1
10
2.02861976054444
20
-1.68453287871205
30
0
41
1
10
2.06723711487769
20
-1.61860911247916
30
0
41
1
10
2.09199352341608
20
-1.58609327089272
30
0
41
1
10
2.17584102791514
20
-1.49376699456079
30
0
41
1
10
2.24607511338652
20
-1.43683447574347
30
0
41
1
10
2.39665654747429
20
-1.33399230359575
30
0
41
1
10
2.47752072210716
20
-1.28750712384149
30
0
41
1
10
2.6461941456912
20
-1.20103275350306
30
0
41
1
10
2.73393749997541
20
-1.16083330014507
30
0
41
1
10
2.83435112199669
20
-1.11934336322088
30
0
41
1
10
2.84554046008074
20
-1.11481270671587
30
0
41
1
10
2.869356652291
20
-1.10971870817369
30
0
41
1
10
2.88189452492958
20
-1.10854888828737
30
0
41
1
10
2.90666125401316
20
-1.10806008261477
30
0
41
1
10
2.91898154855147
20
-1.1088240131258
30
0
41
1
10
2.94363911501591
20
-1.11008007852786
30
0
41
1
10
2.95596192846975
20
-1.11080337018291
30
0
41
1
10
3.01757580923191
20
-1.11442179167838
30
0
41
1
10
3.06687215848268
20
-1.11723005613794
30
0
41
1
10
3.21469387703036
20
-1.12671830621184
30
0
41
1
10
3.3131488193207
20
-1.13392864090963
30
0
41
1
10
3.80482736537709
20
-1.17425133774228
30
0
41
1
10
4.19715092184148
20
-1.22036833011248
30
0
41
1
10
4.97397232088895
20
-1.33429065342037
30
0
41
1
10
5.35850742317592
20
-1.40207281249886
30
0
41
1
10
6.12075091930484
20
-1.55079187058675
30
0
41
1
10
6.49844669332694
20
-1.63172431368002
30
0
41
1
10
7.24854113372726
20
-1.79614018249302
30
0
41
1
10
7.62095241718669
20
-1.87955893541039
30
0
41
1
10
7.99178244067394
20
-1.95852202341425
30
0
0
SPLINE
5
E3
100
AcDbEntity
8
1
62
256
6
ByLayer
370
18
48
1
60
0
100
AcDbSpline
70
4
71
3
72
8
73
4
40
0
40
0
40
0
40
0
40
1
40
1
40
1
40
1
41
1
10
45.9900778724369
20
-0.0953787785027771
30
0
41
1
10
45.9906536897288
20
-0.0777189221033439
30
0
41
1
10
45.9944668441925
20
-0.0554333119853254
30
0
41
1
10
45.9999598963136
20
-0.032139480459449
30
0
0
SPLINE
5
E4
100
AcDbEntity
8
1
62
256
6
ByLayer
370
18
48
1
60
0
100
AcDbSpline
70
4
71
3
72
62
73
58
40
0
40
0
40
0
40
0
40
0.0348735891134555
40
0.0348735891134555
40
0.0697471782269111
40
0.0697471782269111
40
0.104620767340367
40
0.104620767340367
40
0.139494356453822
40
0.139494356453822
40
0.174367945567278
40
0.174367945567278
40
0.209241534680733
40
0.209241534680733
40
0.244115123794189
40
0.244115123794189
40
0.278988712907644
40
0.278988712907644
40
0.348735891134555
40
0.348735891134555
40
0.383609480248012
40
0.383609480248012
40
0.418483069361468
40
0.418483069361468
40
0.453356658474924
40
0.453356658474924
40
0.48823024758838
40
0.48823024758838
40
0.523103836701836
40
0.523103836701836
40
0.557977425815292
40
0.557977425815292
40
0.592851014928748
40
0.592851014928748
40
0.627724604042204
40
0.627724604042204
40
0.66259819315566
40
0.66259819315566
40
0.697471782269116
40
0.697471782269116
40
0.732345371382572
40
0.732345371382572
40
0.767218960496028
40
0.767218960496028
40
0.802092549609485
40
0.802092549609485
40
0.83696613872294
40
0.83696613872294
40
0.871839727836397
40
0.871839727836397
40
0.906713316949853
40
0.906713316949853
40
0.941586906063309
40
0.941586906063309
40
0.976460495176765
40
0.976460495176765
40
1
40
1
40
1
40
1
41
1
10
7.99178244067397
20
1.54262364843058
30
0
41
1
10
8.17484636158963
20
1.48341697822141
30
0
41
1
10
8.35739621942267
20
1.42162971875428
30
0
41
1
10
8.72151252902728
20
1.29336294299716
30
0
41
1
10
8.90308037769256
20
1.22692872403925
30
0
41
1
10
9.26552361806037
20
1.08982936537345
30
0
41
1
10
9.44638411531571
20
1.01906452424993
30
0
41
1
10
9.80814808290808
20
0.874802722652134
30
0
41
1
10
9.9889476882999
20
0.801155433487764
30
0
41
1
10
10.3503581315314
20
0.650896771666396
30
0
41
1
10
10.5309210759031
20
0.574116077274681
30
0
41
1
10
10.8926657569213
20
0.419013329814959
30
0
41
1
10
11.0738666331887
20
0.340785503631139
30
0
41
1
10
11.4367190588864
20
0.182816011446818
30
0
41
1
10
11.6183402499475
20
0.102990454212431
30
0
41
1
10
11.9825438104189
20
-0.0573542977953423
30
0
41
1
10
12.1655476290171
20
-0.137613153465509
30
0
41
1
10
12.7146610784122
20
-0.376996332072025
30
0
41
1
10
13.0791688368334
20
-0.535806360333737
30
0
41
1
10
13.6268876524482
20
-0.764682765798227
30
0
41
1
10
13.8095465814603
20
-0.839750132506026
30
0
41
1
10
14.1750160047056
20
-0.987338580858363
30
0
41
1
10
14.3580265013013
20
-1.05970331535411
30
0
41
1
10
14.7237827966151
20
-1.19925860234218
30
0
41
1
10
14.9065720598791
20
-1.26657287663917
30
0
41
1
10
15.2718128301705
20
-1.39738674385387
30
0
41
1
10
15.4541857142217
20
-1.46059523138308
30
0
41
1
10
15.819130441636
20
-1.58047530926501
30
0
41
1
10
16.001856313077
20
-1.63727273648377
30
0
41
1
10
16.3677349688884
20
-1.74546077456236
30
0
41
1
10
16.5509514632102
20
-1.79727974590429
30
0
41
1
10
16.9161912739386
20
-1.89260198117708
30
0
41
1
10
17.0986071946478
20
-1.9362676432888
30
0
41
1
10
17.4636462851676
20
-2.0167498734379
30
0
41
1
10
17.6461384190156
20
-2.05393075554815
30
0
41
1
10
18.0110472741751
20
-2.12089536846736
30
0
41
1
10
18.1934672759156
20
-2.14958105972178
30
0
41
1
10
18.5592602775674
20
-2.19915074811257
30
0
41
1
10
18.7423971772412
20
-2.22003907225684
30
0
41
1
10
19.107110189349
20
-2.25507472477068
30
0
41
1
10
19.2887854050468
20
-2.26840940883198
30
0
41
1
10
19.6513880685391
20
-2.28468072555435
30
0
41
1
10
19.8325444676981
20
-2.28866696482217
30
0
41
1
10
20.1944913793683
20
-2.2894943626859
30
0
41
1
10
20.375258408835
20
-2.28678957993907
30
0
41
1
10
20.7364318447038
20
-2.27079185480199
30
0
41
1
10
20.9170604849858
20
-2.25794087279795
30
0
41
1
10
21.2788126308461
20
-2.22537023255325
30
0
41
1
10
21.4598095907101
20
-2.20553068298472
30
0
41
1
10
21.8221077975375
20
-2.15796559261332
30
0
41
1
10
22.0034606452575
20
-2.12920167505837
30
0
41
1
10
22.3674569561119
20
-2.06419350064112
30
0
41
1
10
22.5499735862618
20
-2.0282901383886
30
0
41
1
10
22.9158944578442
20
-1.94915400796282
30
0
41
1
10
23.0985253041319
20
-1.90564281504774
30
0
41
1
10
23.4040826282392
20
-1.82658256254234
30
0
41
1
10
23.5272175109874
20
-1.79322752050979
30
0
41
1
10
23.6503367647863
20
-1.75855963800112
30
0
0
SPLINE
5
E5
100
AcDbEntity
8
1
62
256
6
ByLayer
370
18
48
1
60
0
100
AcDbSpline
70
4
71
3
72
30
73
26
40
0
40
0
40
0
40
0
40
0.0708674832898287
40
0.0708674832898287
40
0.155334075718026
40
0.155334075718026
40
0.239800668146223
40
0.239800668146223
40
0.324267260574421
40
0.324267260574421
40
0.408733853002618
40
0.408733853002618
40
0.493200445430816
40
0.493200445430816
40
0.577667037859013
40
0.577667037859013
40
0.66213363028721
40
0.66213363028721
40
0.746600222715408
40
0.746600222715408
40
0.831066815143605
40
0.831066815143605
40
0.915533407571803
40
0.915533407571803
40
1
40
1
40
1
40
1
41
1
10
36.445826553623
20
2.29750154879218
30
0
41
1
10
36.598490798017
20
2.29719461975728
30
0
41
1
10
36.7508191206674
20
2.29432746548099
30
0
41
1
10
37.083803338485
20
2.28031153801641
30
0
41
1
10
37.2644388774597
20
2.26788898398652
30
0
41
1
10
37.6256566491872
20
2.23493576080008
30
0
41
1
10
37.8061143721034
20
2.21436946879973
30
0
41
1
10
38.1667749805166
20
2.16535507836699
30
0
41
1
10
38.3469441773506
20
2.13683894573143
30
0
41
1
10
38.707844340404
20
2.0730731133539
30
0
41
1
10
38.8885520025704
20
2.03800815138109
30
0
41
1
10
39.2502567969246
20
1.96044080964882
30
0
41
1
10
39.431244358963
20
1.9176339574116
30
0
41
1
10
39.7941628129742
20
1.82412039239989
30
0
41
1
10
39.9762198820478
20
1.77385706406946
30
0
41
1
10
40.3414971048504
20
1.66700885232908
30
0
41
1
10
40.5245202404388
20
1.61023052078218
30
0
41
1
10
40.8892885199082
20
1.49052953095807
30
0
41
1
10
41.0714821479252
20
1.42779827357177
30
0
41
1
10
41.4361224778672
20
1.29834645208874
30
0
41
1
10
41.6184323791687
20
1.23141178389818
30
0
41
1
10
41.9830333056294
20
1.09255963850461
30
0
41
1
10
42.1653057266748
20
1.02049693014408
30
0
41
1
10
42.5307648985289
20
0.8734491287521
30
0
41
1
10
42.7137862827989
20
0.79858240591247
30
0
41
1
10
42.8960426633142
20
0.722184952372061
30
0
0
SPLINE
5
E6
100
AcDbEntity
8
1
62
256
6
ByLayer
370
18
48
1
60
0
100
AcDbSpline
70
4
71
3
72
10
73
6
40
0
40
0
40
0
40
0
40
0.5
40
0.5
40
1
40
1
40
1
40
1
41
1
10
45.294663430632
20
-2.33984377854301
30
0
41
1
10
45.3999692349251
20
-2.0570094833424
30
0
41
1
10
45.5081124450288
20
-1.77652693364314
30
0
41
1
10
45.7297052459025
20
-1.21923996297417
30
0
41
1
10
45.8432068928709
20
-0.942480498148001
30
0
41
1
10
45.9591611269628
20
-0.667212324977868
30
0
0
SPLINE
5
E7
100
AcDbEntity
8
1
62
256
6
ByLayer
370
18
48
1
60
0
100
AcDbSpline
70
4
71
3
72
72
73
68
40
0
40
0
40
0
40
0
40
0.0596036294451408
40
0.0596036294451408
40
0.0894054441677112
40
0.0894054441677112
40
0.119207258890282
40
0.119207258890282
40
0.149009073612852
40
0.149009073612852
40
0.178810888335422
40
0.178810888335422
40
0.208612703057993
40
0.208612703057993
40
0.238414517780563
40
0.238414517780563
40
0.268216332503134
40
0.268216332503134
40
0.298018147225704
40
0.298018147225704
40
0.327819961948274
40
0.327819961948274
40
0.357621776670845
40
0.357621776670845
40
0.387423591393415
40
0.387423591393415
40
0.417225406115986
40
0.417225406115986
40
0.447027220838556
40
0.447027220838556
40
0.476829035561126
40
0.476829035561126
40
0.506630850283697
40
0.506630850283697
40
0.536432665006267
40
0.536432665006267
40
0.566234479728838
40
0.566234479728838
40
0.596036294451408
40
0.596036294451408
40
0.625838109173978
40
0.625838109173978
40
0.655639923896549
40
0.655639923896549
40
0.685441738619119
40
0.685441738619119
40
0.71524355334169
40
0.71524355334169
40
0.74504536806426
40
0.74504536806426
40
0.77484718278683
40
0.77484718278683
40
0.804648997509401
40
0.804648997509401
40
0.834450812231971
40
0.834450812231971
40
0.864252626954542
40
0.864252626954542
40
0.894054441677112
40
0.894054441677112
40
0.923856256399682
40
0.923856256399682
40
0.953658071122253
40
0.953658071122253
40
0.983459885844824
40
0.983459885844824
40
1
40
1
40
1
40
1
41
1
10
7.99178244067394
20
1.95852202341422
30
0
41
1
10
8.38279809160514
20
2.06480880130945
30
0
41
1
10
8.77314032757826
20
2.15055765667358
30
0
41
1
10
9.35399557798004
20
2.25421078023447
30
0
41
1
10
9.54726367411348
20
2.28402771775953
30
0
41
1
10
9.93422721925205
20
2.33366201486132
30
0
41
1
10
10.1277286394762
20
2.3536657417896
30
0
41
1
10
10.5142359159934
20
2.38418126482867
30
0
41
1
10
10.7072119307217
20
2.39459813466138
30
0
41
1
10
11.0946910439468
20
2.40524549504616
30
0
41
1
10
11.2889276324188
20
2.40561509388567
30
0
41
1
10
11.6779608130879
20
2.39631991519337
30
0
41
1
10
11.8724977881552
20
2.38650857215029
30
0
41
1
10
12.2638003794407
20
2.35685786471467
30
0
41
1
10
12.4599153685561
20
2.3371089777074
30
0
41
1
10
12.8498618509189
20
2.28800554093442
30
0
41
1
10
13.0438238649874
20
2.25836226283405
30
0
41
1
10
13.4314028778162
20
2.19013135030221
30
0
41
1
10
13.6251682752416
20
2.15174902064524
30
0
41
1
10
14.0122175696967
20
2.06626581410148
30
0
41
1
10
14.2053147721717
20
2.01892307887959
30
0
41
1
10
14.591395870924
20
1.91569601481092
30
0
41
1
10
14.7848245203589
20
1.86041419271453
30
0
41
1
10
15.1722438961006
20
1.74241133658538
30
0
41
1
10
15.3661380813317
20
1.6795456102503
30
0
41
1
10
15.7541631558648
20
1.5455167913087
30
0
41
1
10
15.9488420876217
20
1.47526644200272
30
0
41
1
10
16.3399090578927
20
1.32908627931494
30
0
41
1
10
16.5363154535464
20
1.25291735445731
30
0
41
1
10
16.9260228216582
20
1.09475490095832
30
0
41
1
10
17.1201935806626
20
1.01333467584144
30
0
41
1
10
17.5083855329811
20
0.848416369942271
30
0
41
1
10
17.702208128971
20
0.764513354199948
30
0
41
1
10
18.0887840204084
20
0.59270339013753
30
0
41
1
10
18.2814836767102
20
0.504662542714215
30
0
41
1
10
18.6678217374909
20
0.328912268130324
30
0
41
1
10
18.8611991876253
20
0.240649805723251
30
0
41
1
10
19.2479239810533
20
0.0623575925521891
30
0
41
1
10
19.4409950697425
20
-0.0283072180536124
30
0
41
1
10
19.828734488456
20
-0.207793865754979
30
0
41
1
10
20.0233088889321
20
-0.29680975750361
30
0
41
1
10
20.4133891924583
20
-0.474492671115172
30
0
41
1
10
20.6090235041714
20
-0.563932518412031
30
0
41
1
10
21.0000897010654
20
-0.739047827875396
30
0
41
1
10
21.1956682603874
20
-0.824315304624747
30
0
41
1
10
21.5864703851718
20
-0.991310781883868
30
0
41
1
10
21.781500762988
20
-1.07340748153985
30
0
41
1
10
22.171568993614
20
-1.23320806237962
30
0
41
1
10
22.3670757839439
20
-1.31003179409686
30
0
41
1
10
22.7588073220464
20
-1.45804013010232
30
0
41
1
10
22.9547177532021
20
-1.52933657275133
30
0
41
1
10
23.3439727996263
20
-1.66560778912384
30
0
41
1
10
23.5382147528362
20
-1.72975842191968
30
0
41
1
10
23.9262847498705
20
-1.84991410299153
30
0
41
1
10
24.1200171933276
20
-1.90609739793598
30
0
41
1
10
24.5062591021256
20
-2.01138873166431
30
0
41
1
10
24.699164535375
20
-2.0599181811248
30
0
41
1
10
25.0857353133209
20
-2.14754420981839
30
0
41
1
10
25.2791963550729
20
-2.18692291111705
30
0
41
1
10
25.6659527629546
20
-2.25716944664038
30
0
41
1
10
25.8591942867268
20
-2.28798834335663
30
0
41
1
10
26.2475204223411
20
-2.33937658845289
30
0
41
1
10
26.4423403160884
20
-2.3602137934468
30
0
41
1
10
26.8328706849102
20
-2.39224409337638
30
0
41
1
10
27.0286201155669
20
-2.40342232148839
30
0
41
1
10
27.3319072536561
20
-2.41257462906532
30
0
41
1
10
27.4400442888849
20
-2.41426801924877
30
0
41
1
10
27.5480315321594
20
-2.41441201786378
30
0
0
SPLINE
5
E8
100
AcDbEntity
8
1
62
256
6
ByLayer
370
18
48
1
60
0
100
AcDbSpline
70
4
71
3
72
26
73
22
40
0
40
0
40
0
40
0
40
0.0113153124673218
40
0.0113153124673218
40
0.121169166637619
40
0.121169166637619
40
0.231023020807917
40
0.231023020807917
40
0.340876874978215
40
0.340876874978215
40
0.450730729148512
40
0.450730729148512
40
0.56058458331881
40
0.56058458331881
40
0.670438437489107
40
0.670438437489107
40
0.780292291659405
40
0.780292291659405
40
0.890146145829702
40
0.890146145829702
40
1
40
1
40
1
40
1
41
1
10
39.9943826221107
20
1.76960178274084
30
0
41
1
10
40.0144245018415
20
1.7759690127813
30
0
41
1
10
40.034463432882
20
1.78228992749595
30
0
41
1
10
40.2490236682211
20
1.84947133093397
30
0
41
1
10
40.4431493373403
20
1.90630636672577
30
0
41
1
10
40.8300813192949
20
2.01257836704519
30
0
41
1
10
41.022845522999
20
2.06197141092085
30
0
41
1
10
41.4090783656812
20
2.1508730457567
30
0
41
1
10
41.6022842343859
20
2.19076274794927
30
0
41
1
10
41.9884275503772
20
2.26186100925514
30
0
41
1
10
42.1810865150981
20
2.29321443479648
30
0
41
1
10
42.567786973926
20
2.3457316221519
30
0
41
1
10
42.7617292299664
20
2.36706083603116
30
0
41
1
10
43.1503111002559
20
2.40010782078079
30
0
41
1
10
43.3446929899052
20
2.41185196896461
30
0
41
1
10
43.7352284315539
20
2.42494354856237
30
0
41
1
10
43.9311094280572
20
2.42631029828712
30
0
41
1
10
44.3215011317585
20
2.41895553828641
30
0
41
1
10
44.5161449795647
20
2.41018160108689
30
0
41
1
10
44.9050370244849
20
2.38237154812825
30
0
41
1
10
45.0997616234062
20
2.36353137355195
30
0
41
1
10
45.2946634306319
20
2.33984377854301
30
0
0
SPLINE
5
E9
100
AcDbEntity
8
1
62
256
6
ByLayer
370
18
48
1
60
0
100
AcDbSpline
70
4
71
3
72
21
73
17
40
0
40
0
40
0
40
0
40
0.0889902661017387
40
0.198477242670012
40
0.300476318020307
40
0.387036882799351
40
0.457170854483554
40
0.532889926414143
40
0.628259619781767
40
0.728495280264577
40
0.798843522381697
40
0.822729727141517
40
0.858385713184858
40
0.916155955176743
40
0.995989684535198
40
1
40
1
40
1
40
1
41
1
10
36.4425393098735
20
2.29747265403805
30
0
41
1
10
36.2538565488153
20
2.29612633844863
30
0
41
1
10
35.8318188935816
20
2.29417228363496
30
0
41
1
10
35.1795057680905
20
2.29197421918588
30
0
41
1
10
34.5459330751717
20
2.2988640012847
30
0
41
1
10
33.9907088099471
20
2.29589439140645
30
0
41
1
10
33.4891983932685
20
2.29662173170064
30
0
41
1
10
32.9702523949798
20
2.29671000171513
30
0
41
1
10
32.3852435266803
20
2.29521095407574
30
0
41
1
10
31.8121929306425
20
2.29644463408019
30
0
41
1
10
31.3929380123695
20
2.2950880766623
30
0
41
1
10
31.1132599052115
20
2.29508288038414
30
0
41
1
10
30.860585896838
20
2.2950617750237
30
0
41
1
10
30.4872212055304
20
2.29484039470813
30
0
41
1
10
30.1820093442024
20
2.29432693718903
30
0
41
1
10
30.001308948188
20
2.29421244411816
30
0
41
1
10
29.992665942674
20
2.29420737686271
30
0
0
SPLINE
5
EA
100
AcDbEntity
8
1
62
256
6
ByLayer
370
18
48
1
60
0
100
AcDbSpline
70
4
71
3
72
22
73
18
40
0
40
0
40
0
40
0
40
0.113352157636391
40
0.208369627489849
40
0.279808359447939
40
0.332455691412167
40
0.37564895010906
40
0.411046378668824
40
0.450434648048146
40
0.496444832829452
40
0.556511666664433
40
0.615139989899883
40
0.669121464214456
40
0.722247679912135
40
0.798473729861043
40
0.901862924706459
40
1
40
1
40
1
40
1
41
1
10
28.5997869843215
20
-2.29390913022948
30
0
41
1
10
28.8937365668653
20
-2.29416016857147
30
0
41
1
10
29.4340929506669
20
-2.29463113350266
30
0
41
1
10
30.1596047649488
20
-2.29460642741319
30
0
41
1
10
30.727875261931
20
-2.29553534090661
30
0
41
1
10
31.1614670969941
20
-2.29510650229753
30
0
41
1
10
31.5018081395517
20
-2.29540279869957
30
0
41
1
10
31.8077409566692
20
-2.29613068026416
30
0
41
1
10
32.1209854900794
20
-2.29615359192908
30
0
41
1
10
32.4982064373801
20
-2.2954063577771
30
0
41
1
10
32.9253204206516
20
-2.29645590459748
30
0
41
1
10
33.3731076878281
20
-2.29690751641749
30
0
41
1
10
33.8028924772209
20
-2.29581470372233
30
0
41
1
10
34.2782771289701
20
-2.29780965134131
30
0
41
1
10
34.8818345176664
20
-2.297089751042
30
0
41
1
10
35.6020501880558
20
-2.2973252869736
30
0
41
1
10
36.1246544096379
20
-2.29782827011405
30
0
41
1
10
36.3791490640408
20
-2.29819690983044
30
0
0
SPLINE
5
EB
100
AcDbEntity
8
1
62
256
6
ByLayer
370
18
48
1
60
0
100
AcDbSpline
70
4
71
3
72
19
73
15
40
0
40
0
40
0
40
0
40
0.0936886193399746
40
0.205263052349165
40
0.301626793362839
40
0.381387529706767
40
0.442084285825908
40
0.485485706291503
40
0.539138732009528
40
0.613172512799374
40
0.72821384213635
40
0.823362891885845
40
0.904509380506243
40
1
40
1
40
1
40
1
41
1
10
20.0614040877317
20
2.28955165214126
30
0
41
1
10
19.8610651022979
20
2.28950730879822
30
0
41
1
10
19.4217910515178
20
2.28946342216818
30
0
41
1
10
18.7743927953761
20
2.28580783287666
30
0
41
1
10
18.1571757156169
20
2.28917517372696
30
0
41
1
10
17.6523186072063
20
2.28796708252375
30
0
41
1
10
17.2580099011454
20
2.2870796402448
30
0
41
1
10
16.9195749318571
20
2.28779567550825
30
0
41
1
10
16.5527997072402
20
2.28796340527904
30
0
41
1
10
16.0320374807173
20
2.28591995806101
30
0
41
1
10
15.4220492658391
20
2.28728539748153
30
0
41
1
10
14.797467964927
20
2.28526505860421
30
0
41
1
10
14.2126421735487
20
2.28598444029197
30
0
41
1
10
13.8388917625409
20
2.28463778504673
30
0
41
1
10
13.6352519239432
20
2.28353938011983
30
0
0
SPLINE
5
EC
100
AcDbEntity
8
1
62
256
6
ByLayer
370
18
48
1
60
0
100
AcDbSpline
70
4
71
3
72
20
73
16
40
0
40
0
40
0
40
0
40
0.0921389149980985
40
0.181774396514618
40
0.261343407241094
40
0.327621255770712
40
0.405335946994558
40
0.499298013993009
40
0.567046794116089
40
0.613047356577263
40
0.658382640764358
40
0.723920458681346
40
0.808720845781732
40
0.909786929057294
40
1
40
1
40
1
40
1
41
1
10
12.2054910583618
20
-2.28352794801572
30
0
41
1
10
12.4415679434933
20
-2.28127513041997
30
0
41
1
10
12.9095941856481
20
-2.27861474810291
30
0
41
1
10
13.5985631549443
20
-2.28375909241825
30
0
41
1
10
14.2084923543003
20
-2.2859898082088
30
0
41
1
10
14.7974665693128
20
-2.28526419826775
30
0
41
1
10
15.4220560898922
20
-2.28728960421702
30
0
41
1
10
16.0511399457329
20
-2.28586016595546
30
0
41
1
10
16.5968292124963
20
-2.28821464723961
30
0
41
1
10
17.0141546150669
20
-2.28755248847844
30
0
41
1
10
17.426692461731
20
-2.28690784201999
30
0
41
1
10
17.9387945622105
20
-2.29014196170476
30
0
41
1
10
18.5967611618065
20
-2.28544563436088
30
0
41
1
10
19.3232840649019
20
-2.28974196158862
30
0
41
1
10
19.8243629068741
20
-2.28959829346491
30
0
41
1
10
20.0605723271366
20
-2.28959474312333
30
0
0
SPLINE
5
ED
100
AcDbEntity
8
1
62
256
6
ByLayer
370
18
48
1
60
0
100
AcDbSpline
70
4
71
1
72
4
73
2
40
0
40
0
40
1
40
1
41
1
10
44.8501878828372
20
-2.30385849866673
30
0
41
1
10
45.1347660287238
20
-2.30059435523543
30
0
0
LINE
5
7B
100
AcDbEntity
8
SK1
62
256
6
ByLayer
370
18
48
1
60
0
100
AcDbLine
10
-36
20
2.065
30
0
11
-36
21
-2.065
31
0
39
0
210
0
220
0
230
1
0
LINE
5
7D
100
AcDbEntity
8
SK1
62
256
6
ByLayer
370
18
48
1
60
0
100
AcDbLine
10
0
20
-3
30
0
11
0
21
3
31
0
39
0
210
0
220
0
230
1
0
LINE
5
7E
100
AcDbEntity
8
SK1
62
256
6
ByLayer
370
18
48
1
60
0
100
AcDbLine
10
-35.065
20
3
30
0
11
-35.065
21
-3
31
0
39
0
210
0
220
0
230
1
0
LINE
5
7F
100
AcDbEntity
8
1
62
256
6
ByLayer
370
13
48
1
60
0
100
AcDbLine
10
45.047365
20
0.692139
30
0
11
45.990078
21
0.095379
31
0
39
0
210
0
220
0
230
1
0
LINE
5
80
100
AcDbEntity
8
1
62
256
6
ByLayer
370
13
48
1
60
0
100
AcDbLine
10
0.62531
20
2.698986
30
0
11
0.62531
21
-2.698986
31
0
39
0
210
0
220
0
230
1
0
LINE
5
81
100
AcDbEntity
8
1
62
256
6
ByLayer
370
13
48
1
60
0
100
AcDbLine
10
44.957544
20
0.629385
30
0
11
45.979057
21
-0.017258
31
0
39
0
210
0
220
0
230
1
0
LINE
5
82
100
AcDbEntity
8
1
62
256
6
ByLayer
370
13
48
1
60
0
100
AcDbLine
10
1.25112
20
2.397973
30
0
11
1.25112
21
-2.397973
31
0
39
0
210
0
220
0
230
1
0
LINE
5
83
100
AcDbEntity
8
1
62
256
6
ByLayer
370
18
48
1
60
0
100
AcDbLine
10
0
20
-3
30
0
11
0
21
3
31
0
39
0
210
0
220
0
230
1
0
LINE
5
84
100
AcDbEntity
8
80
62
256
6
ByLayer
370
18
48
1
60
0
100
AcDbLine
10
0
20
0
30
0
11
-5
21
0
31
0
39
0
210
0
220
0
230
1
0
LINE
5
85
100
AcDbEntity
8
4
62
256
6
ByLayer
370
18
48
0.05
60
0
100
AcDbLine
10
46
20
0
30
0
11
0
21
0
31
0
39
0
210
0
220
0
230
1
0
LINE
5
87
100
AcDbEntity
8
SK4
62
256
6
ByLayer
370
18
48
0.05
60
0
100
AcDbLine
10
51
20
0
30
0
11
-41
21
0
31
0
39
0
210
0
220
0
230
1
0
LINE
5
89
100
AcDbEntity
8
SK1
62
256
6
ByLayer
370
18
48
1
60
0
100
AcDbLine
10
-35.065
20
-3
30
0
11
0
21
-3
31
0
39
0
210
0
220
0
230
1
0
LINE
5
8A
100
AcDbEntity
8
SK1
62
256
6
ByLayer
370
18
48
1
60
0
100
AcDbLine
10
0
20
3
30
0
11
-35.065
21
3
31
0
39
0
210
0
220
0
230
1
0
LINE
5
8B
100
AcDbEntity
8
SK1
62
256
6
ByLayer
370
18
48
1
60
0
100
AcDbLine
10
-36
20
-2.065
30
0
11
-35.065
21
-3
31
0
39
0
210
0
220
0
230
1
0
LINE
5
8C
100
AcDbEntity
8
SK1
62
256
6
ByLayer
370
18
48
1
60
0
100
AcDbLine
10
-35.065
20
3
30
0
11
-36
21
2.065
31
0
39
0
210
0
220
0
230
1
0
LINE
5
8D
100
AcDbEntity
8
1
62
256
6
ByLayer
370
18
48
1
60
0
100
AcDbLine
10
27.557484
20
-2.414414
30
0
11
28.360275
21
-2.414916
31
0
39
0
210
0
220
0
230
1
0
LINE
5
8E
100
AcDbEntity
8
1
62
256
6
ByLayer
370
18
48
1
60
0
100
AcDbLine
10
28.360323
20
2.414916
30
0
11
27.557484
21
2.414414
31
0
39
0
210
0
220
0
230
1
0
LINE
5
8F
100
AcDbEntity
8
1
62
256
6
ByLayer
370
18
48
1
60
0
100
AcDbLine
10
1.25112
20
-2.397973
30
0
11
3.83159
21
-2.399585
31
0
39
0
210
0
220
0
230
1
0
LINE
5
90
100
AcDbEntity
8
1
62
256
6
ByLayer
370
18
48
1
60
0
100
AcDbLine
10
11.204758
20
-2.404194
30
0
11
12.01094
21
-2.404697
31
0
39
0
210
0
220
0
230
1
0
LINE
5
91
100
AcDbEntity
8
1
62
256
6
ByLayer
370
18
48
1
60
0
100
AcDbLine
10
43.904952
20
-2.424631
30
0
11
44.711909
21
-2.425136
31
0
39
0
210
0
220
0
230
1
0
LINE
5
92
100
AcDbEntity
8
1
62
256
6
ByLayer
370
18
48
1
60
0
100
AcDbLine
10
44.711516
20
2.425135
30
0
11
43.904952
21
2.424631
31
0
39
0
210
0
220
0
230
1
0
LINE
5
93
100
AcDbEntity
8
1
62
256
6
ByLayer
370
18
48
1
60
0
100
AcDbLine
10
12.010803
20
2.404697
30
0
11
11.204758
21
2.404194
31
0
39
0
210
0
220
0
230
1
0
LINE
5
94
100
AcDbEntity
8
1
62
256
6
ByLayer
370
18
48
1
60
0
100
AcDbLine
10
3.83159
20
2.399585
30
0
11
1.25112
21
2.397973
31
0
39
0
210
0
220
0
230
1
0
LINE
5
95
100
AcDbEntity
8
81
62
256
6
ByLayer
370
18
48
1
60
0
100
AcDbLine
10
46
20
0
30
0
11
51
21
0
31
0
39
0
210
0
220
0
230
1
0
LINE
5
96
100
AcDbEntity
8
SK2
62
256
6
ByLayer
370
13
48
1
60
0
100
AcDbLine
10
-44.625163
20
32.117107
30
0
11
-44.625163
21
-11.75
31
0
39
0
210
0
220
0
230
1
0
LINE
5
98
100
AcDbEntity
8
SK2
62
256
6
ByLayer
370
13
48
1
60
0
100
AcDbLine
10
-37.5875
20
3
30
0
11
-46.625163
21
3
31
0
39
0
210
0
220
0
230
1
0
LINE
5
99
100
AcDbEntity
8
SK2
62
256
6
ByLayer
370
13
48
1
60
0
100
AcDbLine
10
-37.5875
20
-3
30
0
11
-46.625163
21
-3
31
0
39
0
210
0
220
0
230
1
0
LINE
5
9A
100
AcDbEntity
8
1
62
256
6
ByLayer
370
18
48
1
60
1
100
AcDbLine
10
-44.625163
20
3
30
0
11
-45.085946
21
6.499998
31
0
39
0
210
0
220
0
230
1
0
LINE
5
9B
100
AcDbEntity
8
1
62
256
6
ByLayer
370
18
48
1
60
1
100
AcDbLine
10
-45.085946
20
6.499998
30
0
11
-44.164379
21
6.500002
31
0
39
0
210
0
220
0
230
1
0
LINE
5
9C
100
AcDbEntity
8
1
62
256
6
ByLayer
370
18
48
1
60
1
100
AcDbLine
10
-44.164379
20
6.500002
30
0
11
-44.625163
21
3
31
0
39
0
210
0
220
0
230
1
0
LINE
5
9D
100
AcDbEntity
8
1
62
256
6
ByLayer
370
18
48
1
60
1
100
AcDbLine
10
-44.625163
20
-3
30
0
11
-44.164379
21
-6.499998
31
0
39
0
210
0
220
0
230
1
0
LINE
5
9E
100
AcDbEntity
8
1
62
256
6
ByLayer
370
18
48
1
60
1
100
AcDbLine
10
-44.164379
20
-6.499998
30
0
11
-45.085946
21
-6.500002
31
0
39
0
210
0
220
0
230
1
0
LINE
5
9F
100
AcDbEntity
8
1
62
256
6
ByLayer
370
18
48
1
60
1
100
AcDbLine
10
-45.085946
20
-6.500002
30
0
11
-44.625163
21
-3
31
0
39
0
210
0
220
0
230
1
0
LINE
5
A0
100
AcDbEntity
8
2
62
256
6
ByLayer
370
13
48
1
60
0
100
AcDbLine
10
58.083343
20
29.62936
30
0
11
58.083343
21
-11.1755
31
0
39
0
210
0
220
0
230
1
0
LINE
5
A2
100
AcDbEntity
8
2
62
256
6
ByLayer
370
13
48
1
60
0
100
AcDbLine
10
46.8796
20
2.4255
30
0
11
60.083343
21
2.4255
31
0
39
0
210
0
220
0
230
1
0
LINE
5
A3
100
AcDbEntity
8
2
62
256
6
ByLayer
370
13
48
1
60
0
100
AcDbLine
10
46.8796
20
-2.4255
30
0
11
60.083343
21
-2.4255
31
0
39
0
210
0
220
0
230
1
0
LINE
5
A4
100
AcDbEntity
8
1
62
256
6
ByLayer
370
18
48
1
60
1
100
AcDbLine
10
58.083343
20
2.4255
30
0
11
57.622559
21
5.925498
31
0
39
0
210
0
220
0
230
1
0
LINE
5
A5
100
AcDbEntity
8
1
62
256
6
ByLayer
370
18
48
1
60
1
100
AcDbLine
10
57.622559
20
5.925498
30
0
11
58.544126
21
5.925502
31
0
39
0
210
0
220
0
230
1
0
LINE
5
A6
100
AcDbEntity
8
1
62
256
6
ByLayer
370
18
48
1
60
1
100
AcDbLine
10
58.544126
20
5.925502
30
0
11
58.083343
21
2.4255
31
0
39
0
210
0
220
0
230
1
0
LINE
5
A7
100
AcDbEntity
8
1
62
256
6
ByLayer
370
18
48
1
60
1
100
AcDbLine
10
58.083343
20
-2.4255
30
0
11
58.544126
21
-5.925498
31
0
39
0
210
0
220
0
230
1
0
LINE
5
A8
100
AcDbEntity
8
1
62
256
6
ByLayer
370
18
48
1
60
1
100
AcDbLine
10
58.544126
20
-5.925498
30
0
11
57.622559
21
-5.925502
31
0
39
0
210
0
220
0
230
1
0
LINE
5
A9
100
AcDbEntity
8
1
62
256
6
ByLayer
370
18
48
1
60
1
100
AcDbLine
10
57.622559
20
-5.925502
30
0
11
58.083343
21
-2.4255
31
0
39
0
210
0
220
0
230
1
0
LINE
5
F4
100
AcDbEntity
8
1
62
256
6
ByLayer
370
18
48
1
60
1
100
AcDbLine
10
-44.625163
20
3
30
0
11
-45.085946
21
6.499998
31
0
39
0
210
0
220
0
230
1
0
LINE
5
F5
100
AcDbEntity
8
1
62
256
6
ByLayer
370
18
48
1
60
1
100
AcDbLine
10
-45.085946
20
6.499998
30
0
11
-44.164379
21
6.500002
31
0
39
0
210
0
220
0
230
1
0
LINE
5
F6
100
AcDbEntity
8
1
62
256
6
ByLayer
370
18
48
1
60
1
100
AcDbLine
10
-44.164379
20
6.500002
30
0
11
-44.625163
21
3
31
0
39
0
210
0
220
0
230
1
0
LINE
5
F8
100
AcDbEntity
8
1
62
256
6
ByLayer
370
18
48
1
60
1
100
AcDbLine
10
-44.625163
20
-3
30
0
11
-44.164379
21
-6.499998
31
0
39
0
210
0
220
0
230
1
0
LINE
5
F9
100
AcDbEntity
8
1
62
256
6
ByLayer
370
18
48
1
60
1
100
AcDbLine
10
-44.164379
20
-6.499998
30
0
11
-45.085946
21
-6.500002
31
0
39
0
210
0
220
0
230
1
0
LINE
5
FA
100
AcDbEntity
8
1
62
256
6
ByLayer
370
18
48
1
60
1
100
AcDbLine
10
-45.085946
20
-6.500002
30
0
11
-44.625163
21
-3
31
0
39
0
210
0
220
0
230
1
0
LINE
5
FE
100
AcDbEntity
8
1
62
256
6
ByLayer
370
18
48
1
60
1
100
AcDbLine
10
58.083343
20
2.4255
30
0
11
57.622559
21
5.925498
31
0
39
0
210
0
220
0
230
1
0
LINE
5
FF
100
AcDbEntity
8
1
62
256
6
ByLayer
370
18
48
1
60
1
100
AcDbLine
10
57.622559
20
5.925498
30
0
11
58.544126
21
5.925502
31
0
39
0
210
0
220
0
230
1
0
LINE
5
100
100
AcDbEntity
8
1
62
256
6
ByLayer
370
18
48
1
60
1
100
AcDbLine
10
58.544126
20
5.925502
30
0
11
58.083343
21
2.4255
31
0
39
0
210
0
220
0
230
1
0
LINE
5
102
100
AcDbEntity
8
1
62
256
6
ByLayer
370
18
48
1
60
1
100
AcDbLine
10
58.083343
20
-2.4255
30
0
11
58.544126
21
-5.925498
31
0
39
0
210
0
220
0
230
1
0
LINE
5
103
100
AcDbEntity
8
1
62
256
6
ByLayer
370
18
48
1
60
1
100
AcDbLine
10
58.544126
20
-5.925498
30
0
11
57.622559
21
-5.925502
31
0
39
0
210
0
220
0
230
1
0
LINE
5
104
100
AcDbEntity
8
1
62
256
6
ByLayer
370
18
48
1
60
1
100
AcDbLine
10
57.622559
20
-5.925502
30
0
11
58.083343
21
-2.4255
31
0
39
0
210
0
220
0
230
1
0
MTEXT
5
EE
100
AcDbEntity
8
SK6
62
256
6
ByLayer
370
13
48
1
60
0
100
AcDbMText
10
-24.95116
20
34.965828
30
0
210
0
220
0
230
1
1
\W0.7870;462.1-0485-024A0-XM X2BM
40
3.5
41
0
44
1.084337
50
0
71
7
72
5
7
iso_b_vert
0
MTEXT
5
F2
100
AcDbEntity
8
SK2
62
256
6
ByLayer
370
18
48
1
60
0
100
AcDbMText
10
-46.189796
20
16.409024
30
0
210
0
220
0
230
1
1
%%c
40
3.5
41
0
44
1.084337
50
90
71
7
72
5
7
iso_b_vert
0
MTEXT
5
F3
100
AcDbEntity
8
SK2
62
256
6
ByLayer
370
18
48
1
60
0
100
AcDbMText
10
-46.189796
20
21.63168
30
0
210
0
220
0
230
1
1
\W0.7317;6,000
40
3.5
41
0
44
1.084337
50
90
71
7
72
5
7
iso_b_vert
0
MTEXT
5
FC
100
AcDbEntity
8
2
62
256
6
ByLayer
370
18
48
1
60
0
100
AcDbMText
10
56.518709
20
14.42761
30
0
210
0
220
0
230
1
1
%%c
40
3.5
41
0
44
1.084337
50
90
71
7
72
5
7
iso_b_vert
0
MTEXT
5
FD
100
AcDbEntity
8
2
62
256
6
ByLayer
370
18
48
1
60
0
100
AcDbMText
10
56.518709
20
19.650266
30
0
210
0
220
0
230
1
1
\W0.7494;4,851
40
3.5
41
0
44
1.084337
50
90
71
7
72
5
7
iso_b_vert
0
HATCH
5
F7
100
AcDbEntity
8
SK2
62
256
6
ByLayer
370
13
48
1
60
0
100
AcDbHatch
10
0
20
0
30
0
210
0
220
0
230
1
2
ANSI31
70
0
71
0
91
1
92
5
93
3
72
1
10
-44.6251625675374
20
3
11
-45.0859463090902
21
6.49999830744682
72
1
10
-45.0859463090902
20
6.49999830744682
11
-44.1643788259847
21
6.50000169255318
72
1
10
-44.1643788259847
20
6.50000169255318
11
-44.6251625675374
21
3
97
0
75
0
76
1
52
0
41
0.0062
77
0
78
1
53
45
43
0
44
0
45
-0.0139193969876572
46
0.0139193969876572
79
0
47
0
98
1
10
0
20
0
0
HATCH
5
FB
100
AcDbEntity
8
SK2
62
256
6
ByLayer
370
13
48
1
60
0
100
AcDbHatch
10
0
20
0
30
0
210
0
220
0
230
1
2
ANSI31
70
0
71
0
91
1
92
5
93
3
72
1
10
-44.6251625675374
20
-3
11
-44.1643788259847
21
-6.49999830744682
72
1
10
-44.1643788259847
20
-6.49999830744682
11
-45.0859463090902
21
-6.50000169255318
72
1
10
-45.0859463090902
20
-6.50000169255318
11
-44.6251625675374
21
-3
97
0
75
0
76
1
52
0
41
0.0062
77
0
78
1
53
45
43
0
44
0
45
-0.0139193969876572
46
0.0139193969876572
79
0
47
0
98
1
10
0
20
0
0
HATCH
5
101
100
AcDbEntity
8
2
62
256
6
ByLayer
370
13
48
1
60
0
100
AcDbHatch
10
0
20
0
30
0
210
0
220
0
230
1
2
ANSI31
70
0
71
0
91
1
92
5
93
3
72
1
10
58.083342615295
20
2.4255
11
57.6225588737423
21
5.92549830744682
72
1
10
57.6225588737423
20
5.92549830744682
11
58.5441263568478
21
5.92550169255318
72
1
10
58.5441263568478
20
5.92550169255318
11
58.083342615295
21
2.4255
97
0
75
0
76
1
52
0
41
0.0062
77
0
78
1
53
45
43
0
44
0
45
-0.0139193969876572
46
0.0139193969876572
79
0
47
0
98
1
10
0
20
0
0
HATCH
5
105
100
AcDbEntity
8
2
62
256
6
ByLayer
370
13
48
1
60
0
100
AcDbHatch
10
0
20
0
30
0
210
0
220
0
230
1
2
ANSI31
70
0
71
0
91
1
92
5
93
3
72
1
10
58.083342615295
20
-2.4255
11
58.5441263568478
21
-5.92549830744682
72
1
10
58.5441263568478
20
-5.92549830744682
11
57.6225588737423
21
-5.92550169255318
72
1
10
57.6225588737423
20
-5.92550169255318
11
58.083342615295
21
-2.4255
97
0
75
0
76
1
52
0
41
0.0062
77
0
78
1
53
45
43
0
44
0
45
-0.0139193969876572
46
0.0139193969876572
79
0
47
0
98
1
10
0
20
0
0
DIMENSION
5
107
100
AcDbEntity
8
SK2
62
256
6
ByLayer
370
13
48
1
60
0
100
AcDbDimension
2
_U0
10
45.2921
20
-12.638898
30
0
11
22.64605
21
-12.638898
31
0
70
32
71
1
72
1
41
1
210
0
220
0
230
1
3
Standard
100
AcDbAlignedDimension
13
0
23
0
33
0
14
45.2921
24
-2.4255
34
0
50
0
100
AcDbRotatedDimension
1001
ACAD
1000
DSTYLE
1002
{
1070
   371
1070
    13
1070
   372
1070
    13
1070
   170
1070
     0
1070
   144
1040
1.0
1070
   277
1070
     2
1070
   278
1070
    44
1070
   146
1040
1.0
1070
   345
1005
16
1070
   347
1005
16
1070
   346
1005
16
1070
   344
1005
0
1070
   343
1005
0
1070
   172
1070
     1
1070
    76
1070
     0
1070
    75
1070
     0
1070
   282
1070
     0
1070
   281
1070
     0
1070
    71
1070
     0
1070
    74
1070
     0
1070
   279
1070
     0
1070
   173
1070
     1
1070
   340
1005
EF
1070
   271
1070
     2
1070
   272
1070
     2
1070
    77
1070
     1
1070
    73
1070
     1
1070
   171
1070
     3
1070
   274
1070
     4
1070
   177
1070
    35
1070
   176
1070
    35
1070
   178
1070
    35
1070
    48
1040
-0.1
1070
    41
1040
3.5
1070
   147
1040
1.75
1070
    42
1040
1.5875
1070
    44
1040
2.0
1070
   140
1040
3.5
1002
}
1001
ACAD_DSTYLE_DIM_LINETYPE
1070
   380
1005
16
1001
ACAD_DSTYLE_DIM_EXT1_LINETYPE
1070
   381
1005
16
1001
ACAD_DSTYLE_DIM_EXT2_LINETYPE
1070
   382
1005
16
0
DIMENSION
5
120
100
AcDbEntity
8
SK2
62
256
6
ByLayer
370
13
48
1
60
0
100
AcDbDimension
2
_U1
10
46
20
-31.692985
30
0
11
5
21
-31.692985
31
0
70
32
71
1
72
1
41
1
210
0
220
0
230
1
3
Standard
100
AcDbAlignedDimension
13
-36
23
-3
33
0
14
46
24
0
34
0
50
0
100
AcDbRotatedDimension
1001
ACAD
1000
DSTYLE
1002
{
1070
   371
1070
    13
1070
   372
1070
    13
1070
   170
1070
     0
1070
   144
1040
1.0
1070
   277
1070
     2
1070
   278
1070
    44
1070
   146
1040
1.0
1070
   345
1005
16
1070
   347
1005
16
1070
   346
1005
16
1070
   344
1005
0
1070
   343
1005
0
1070
   172
1070
     1
1070
    76
1070
     0
1070
    75
1070
     0
1070
   282
1070
     0
1070
   281
1070
     0
1070
    71
1070
     0
1070
    74
1070
     0
1070
   279
1070
     0
1070
   173
1070
     1
1070
   340
1005
EF
1070
   271
1070
     2
1070
   272
1070
     2
1070
    77
1070
     1
1070
    73
1070
     1
1070
   171
1070
     3
1070
   274
1070
     4
1070
   177
1070
    35
1070
   176
1070
    35
1070
   178
1070
    35
1070
    48
1040
-0.1
1070
    41
1040
3.5
1070
   147
1040
1.75
1070
    42
1040
1.5875
1070
    44
1040
2.0
1070
   140
1040
3.5
1002
}
1001
ACAD_DSTYLE_DIM_LINETYPE
1070
   380
1005
16
1001
ACAD_DSTYLE_DIM_EXT1_LINETYPE
1070
   381
1005
16
1001
ACAD_DSTYLE_DIM_EXT2_LINETYPE
1070
   382
1005
16
0
DIMENSION
5
138
100
AcDbEntity
8
SK2
62
256
6
ByLayer
370
13
48
1
60
0
100
AcDbDimension
2
_U2
10
46
20
14.034619
30
0
11
33.52
21
14.034619
31
0
70
32
71
1
72
1
41
1
210
0
220
0
230
1
3
Standard
100
AcDbAlignedDimension
13
21.04
23
2.4255
33
0
14
46
24
0
34
0
50
0
100
AcDbRotatedDimension
1001
ACAD
1000
DSTYLE
1002
{
1070
   371
1070
    13
1070
   372
1070
    13
1070
   170
1070
     0
1070
   144
1040
1.0
1070
   277
1070
     2
1070
   278
1070
    44
1070
   146
1040
1.0
1070
   345
1005
16
1070
   347
1005
16
1070
   346
1005
16
1070
   344
1005
0
1070
   343
1005
0
1070
   172
1070
     1
1070
    76
1070
     0
1070
    75
1070
     0
1070
   282
1070
     0
1070
   281
1070
     0
1070
    71
1070
     0
1070
    74
1070
     0
1070
   279
1070
     0
1070
   173
1070
     1
1070
   340
1005
EF
1070
   271
1070
     2
1070
   272
1070
     2
1070
    77
1070
     1
1070
    73
1070
     1
1070
   171
1070
     3
1070
   274
1070
     4
1070
   177
1070
    35
1070
   176
1070
    35
1070
   178
1070
    35
1070
    48
1040
-0.1
1070
    41
1040
3.5
1070
   147
1040
1.75
1070
    42
1040
1.5875
1070
    44
1040
2.0
1070
   140
1040
3.5
1002
}
1001
ACAD_DSTYLE_DIM_LINETYPE
1070
   380
1005
16
1001
ACAD_DSTYLE_DIM_EXT1_LINETYPE
1070
   381
1005
16
1001
ACAD_DSTYLE_DIM_EXT2_LINETYPE
1070
   382
1005
16
0
DIMENSION
5
150
100
AcDbEntity
8
SK2
62
256
6
ByLayer
370
13
48
1
60
0
100
AcDbDimension
2
_U3
10
45.2921
20
-15.228003
30
0
11
63.083333
21
-15.228003
31
0
70
32
71
1
72
1
41
1
210
0
220
0
230
1
3
Standard
100
AcDbAlignedDimension
13
46
23
0
33
0
14
45.2921
24
-2.4255
34
0
50
0
100
AcDbRotatedDimension
1001
ACAD
1000
DSTYLE
1002
{
1070
   371
1070
    13
1070
   372
1070
    13
1070
   170
1070
     0
1070
   144
1040
1.0
1070
   277
1070
     2
1070
   278
1070
    44
1070
   146
1040
1.0
1070
   345
1005
16
1070
   347
1005
16
1070
   346
1005
16
1070
   344
1005
0
1070
   343
1005
0
1070
   172
1070
     1
1070
    76
1070
     0
1070
    75
1070
     0
1070
   282
1070
     0
1070
   281
1070
     0
1070
    71
1070
     0
1070
    74
1070
     0
1070
   279
1070
     0
1070
   173
1070
     1
1070
   340
1005
EF
1070
   271
1070
     2
1070
   272
1070
     2
1070
    77
1070
     1
1070
    73
1070
     1
1070
   171
1070
     3
1070
   274
1070
     4
1070
   177
1070
    35
1070
   176
1070
    35
1070
   178
1070
    35
1070
    48
1040
-0.1
1070
    41
1040
3.5
1070
   147
1040
1.75
1070
    42
1040
1.5875
1070
    44
1040
2.0
1070
   140
1040
3.5
1002
}
1001
ACAD_DSTYLE_DIM_LINETYPE
1070
   380
1005
16
1001
ACAD_DSTYLE_DIM_EXT1_LINETYPE
1070
   381
1005
16
1001
ACAD_DSTYLE_DIM_EXT2_LINETYPE
1070
   382
1005
16
0
DIMENSION
5
16A
100
AcDbEntity
8
SK2
62
256
6
ByLayer
370
13
48
1
60
0
100
AcDbDimension
2
_U4
10
45.2921
20
-21.343428
30
0
11
4.64605
21
-21.343428
31
0
70
32
71
1
72
1
41
1
210
0
220
0
230
1
3
Standard
100
AcDbAlignedDimension
13
-36
23
-3
33
0
14
45.2921
24
-2.4255
34
0
50
0
100
AcDbRotatedDimension
1001
ACAD
1000
DSTYLE
1002
{
1070
   371
1070
    13
1070
   372
1070
    13
1070
   170
1070
     0
1070
   144
1040
1.0
1070
   277
1070
     2
1070
   278
1070
    44
1070
   146
1040
1.0
1070
   345
1005
16
1070
   347
1005
16
1070
   346
1005
16
1070
   344
1005
0
1070
   343
1005
0
1070
   172
1070
     1
1070
    76
1070
     0
1070
    75
1070
     0
1070
   282
1070
     0
1070
   281
1070
     0
1070
    71
1070
     0
1070
    74
1070
     0
1070
   279
1070
     0
1070
   173
1070
     1
1070
   340
1005
EF
1070
   271
1070
     2
1070
   272
1070
     2
1070
    77
1070
     1
1070
    73
1070
     1
1070
   171
1070
     3
1070
   274
1070
     4
1070
   177
1070
    35
1070
   176
1070
    35
1070
   178
1070
    35
1070
    48
1040
-0.1
1070
    41
1040
3.5
1070
   147
1040
1.75
1070
    42
1040
1.5875
1070
    44
1040
2.0
1070
   140
1040
3.5
1002
}
1001
ACAD_DSTYLE_DIM_LINETYPE
1070
   380
1005
16
1001
ACAD_DSTYLE_DIM_EXT1_LINETYPE
1070
   381
1005
16
1001
ACAD_DSTYLE_DIM_EXT2_LINETYPE
1070
   382
1005
16
0
ENDSEC
0
SECTION
2
OBJECTS
0
DICTIONARY
5
1f2
330
0
100
AcDbDictionary
280
0
281
1
3
ACAD_GROUP
350
1f3
3
ACAD_MLINESTYLE
350
1f4
0
DICTIONARY
5
1f3
330
0
100
AcDbDictionary
280
0
281
1
0
DICTIONARY
5
1f4
330
0
100
AcDbDictionary
280
0
281
1
3
Standard
350
18
0
MLINESTYLE
5
18
330
1f4
100
AcDbMlineStyle
2
Standard
70
0
3

62
256
51
90
52
90
71
2
49
-0.5
62
256
6
ByLayer
49
0.5
62
256
6
ByLayer
0
RASTERVARIABLES
5
1e0
330

100
AcDbRasterVariables
90
0
70
1
71
1
72
1
0
ENDSEC
0
EOF
