0
SECTION
2
HEADER
9
$ACADVER
1
AC1015
9
$DWGCODEPAGE
3
ANSI_1252
9
$HANDSEED
5
203
9
$ANGBASE
50
0
9
$ANGDIR
70
0
9
$ATTMODE
70
1
9
$AUNITS
70
0
9
$AUPREC
70
0
9
$CECOLOR
62
256
9
$CELTSCALE
40
1
9
$CELTYPE
6
ByLayer
9
$CELWEIGHT
370
18
9
$CLAYER
8
0
9
$CMLJUST
70
0
9
$CMLSCALE
40
1
9
$CMLSTYLE
2
Standard
9
$DIMSTYLE
2
Standard
9
$TEXTSIZE
40
0.2
9
$TEXTSTYLE
7
Standard
9
$LUNITS
70
2
9
$LUPREC
70
4
9
$EXTNAMES
290
1
9
$INSUNITS
70
4
9
$LTSCALE
40
1
9
$LWDISPLAY
290
1
9
$PDMODE
70
0
9
$PDSIZE
40
0
9
$PLINEGEN
70
0
0
ENDSEC
0
SECTION
2
CLASSES
0
CLASS
1
RASTERVARIABLES
2
AcDbRasterVariables
3
ISM
90
0
280
0
281
0
0
ENDSEC
0
SECTION
2
TABLES
0
TABLE
2
VPORT
5
1f9
100
AcDbSymbolTable
0
VPORT
5
1
100
AcDbSymbolTableRecord
100
AcDbViewportTableRecord
2
*Active
70
0
10
0
20
0
11
1
21
1
12
-1
22
1
13
0
23
0
14
0.5
24
0.5
15
10
25
10
16
0
26
0
36
1
17
0
27
0
37
0
0
ENDTAB
0
TABLE
2
LTYPE
5
1fa
100
AcDbSymbolTable
0
LTYPE
5
14
100
AcDbSymbolTableRecord
100
AcDbLinetypeTableRecord
70
0
2
ByBlock
3

72
65
73
0
40
0
0
LTYPE
5
15
100
AcDbSymbolTableRecord
100
AcDbLinetypeTableRecord
70
0
2
ByLayer
3

72
65
73
0
40
0
0
LTYPE
5
16
100
AcDbSymbolTableRecord
100
AcDbLinetypeTableRecord
70
0
2
Continuous
3
Solid line
72
65
73
0
40
0
0
LTYPE
5
6E
100
AcDbSymbolTableRecord
100
AcDbLinetypeTableRecord
70
0
2
CENTER
3
____ _ ____ _ ____ _ ____
72
65
73
4
40
47.5
49
22
74
0
49
-8.5
74
0
49
8.5
74
0
49
-8.5
74
0
0
LTYPE
5
6F
100
AcDbSymbolTableRecord
100
AcDbLinetypeTableRecord
70
0
2
DASHED
3
__ __ __ __ __ __ __ __ __
72
65
73
2
40
25.72
49
12.86
74
0
49
-12.86
74
0
0
ENDTAB
0
TABLE
2
LAYER
5
1fb
100
AcDbSymbolTable
0
LAYER
5
10
100
AcDbSymbolTableRecord
100
AcDbLayerTableRecord
2
0
70
0
62
7
6
Continuous
290
1
370
-3
390
0
0
LAYER
5
71
100
AcDbSymbolTableRecord
100
AcDbLayerTableRecord
2
80
70
0
62
-6
6
Continuous
290
1
370
-3
390
0
0
LAYER
5
73
100
AcDbSymbolTableRecord
100
AcDbLayerTableRecord
2
81
70
0
62
-3
6
Continuous
290
1
370
-3
390
0
0
LAYER
5
75
100
AcDbSymbolTableRecord
100
AcDbLayerTableRecord
2
1
70
0
62
4
6
Continuous
290
1
370
-3
390
0
0
LAYER
5
8D
100
AcDbSymbolTableRecord
100
AcDbLayerTableRecord
2
4
70
0
62
-2
6
CENTER
290
1
370
-3
390
0
0
LAYER
5
A6
100
AcDbSymbolTableRecord
100
AcDbLayerTableRecord
2
2
70
0
62
7
6
Continuous
290
1
370
-3
390
0
0
LAYER
5
10E
100
AcDbSymbolTableRecord
100
AcDbLayerTableRecord
2
Defpoints
70
0
62
7
6
Continuous
290
0
370
-3
390
0
0
LAYER
5
1e5
100
AcDbSymbolTableRecord
100
AcDbLayerTableRecord
2
SK1
70
0
62
4
6
Continuous
290
1
370
-3
390
0
0
LAYER
5
1e6
100
AcDbSymbolTableRecord
100
AcDbLayerTableRecord
2
SK4
70
0
62
2
6
CENTER
290
1
370
-3
390
0
0
LAYER
5
1e7
100
AcDbSymbolTableRecord
100
AcDbLayerTableRecord
2
SK2
70
0
62
7
6
Continuous
290
1
370
-3
390
0
0
LAYER
5
1e8
100
AcDbSymbolTableRecord
100
AcDbLayerTableRecord
2
SK6
70
0
62
5
6
Continuous
290
1
370
-3
390
0
0
ENDTAB
0
TABLE
2
STYLE
5
1fc
100
AcDbSymbolTable
0
STYLE
5
11
100
AcDbSymbolTableRecord
100
AcDbTextStyleTableRecord
2
Standard
3
txt
70
0
71
0
40
0
41
1
42
0
50
0
0
STYLE
5
F3
100
AcDbSymbolTableRecord
100
AcDbTextStyleTableRecord
2
iso_b_vert
3
simplex.shx
70
0
71
0
40
0
41
1
42
0
50
0
0
STYLE
5
F4
100
AcDbSymbolTableRecord
100
AcDbTextStyleTableRecord
2
DWGDirectTextStyle
3
simplex
70
0
71
0
40
0
41
1
42
0
50
0
0
ENDTAB
0
TABLE
2
DIMSTYLE
5
1fd
100
AcDbSymbolTable
100
AcDbDimStyleTable
0
DIMSTYLE
105
27
100
AcDbSymbolTableRecord
100
AcDbDimStyleTableRecord
2
Standard
70
0
3
<>
41
0.18
42
0.0625
44
0.18
140
0.18
147
0.09
73
0
74
0
77
1
271
2
275
0
278
52
280
0
340
11
0
ENDTAB
0
TABLE
2
VIEW
5
1fe
100
AcDbSymbolTable
0
ENDTAB
0
TABLE
2
UCS
5
1ff
100
AcDbSymbolTable
0
ENDTAB
0
TABLE
2
APPID
5
200
100
AcDbSymbolTable
0
APPID
5
12
100
AcDbSymbolTableRecord
100
AcDbRegAppTableRecord
2
ACAD
70
0
0
APPID
5
10A
100
AcDbSymbolTableRecord
100
AcDbRegAppTableRecord
2
ACAD_DSTYLE_DIMBREAK
70
0
0
APPID
5
1A4
100
AcDbSymbolTableRecord
100
AcDbRegAppTableRecord
2
ACAD_DSTYLE_DIM_LINETYPE
70
0
0
APPID
5
1A5
100
AcDbSymbolTableRecord
100
AcDbRegAppTableRecord
2
ACAD_DSTYLE_DIM_EXT1_LINETYPE
70
0
0
APPID
5
1A6
100
AcDbSymbolTableRecord
100
AcDbRegAppTableRecord
2
ACAD_DSTYLE_DIM_EXT2_LINETYPE
70
0
0
APPID
5
1E1
100
AcDbSymbolTableRecord
100
AcDbRegAppTableRecord
2
ACAD_MLEADERVER
70
0
0
ENDTAB
0
TABLE
2
BLOCK_RECORD
5
201
100
AcDbSymbolTable
0
BLOCK_RECORD
5
1F
100
AcDbSymbolTableRecord
100
AcDbBlockTableRecord
2
*Model_Space
340
0
70
0
0
BLOCK_RECORD
5
1B
100
AcDbSymbolTableRecord
100
AcDbBlockTableRecord
2
*Paper_Space
340
0
70
0
0
BLOCK_RECORD
5
23
100
AcDbSymbolTableRecord
100
AcDbBlockTableRecord
2
*Paper_Space0
340
0
70
0
0
BLOCK_RECORD
5
10F
100
AcDbSymbolTableRecord
100
AcDbBlockTableRecord
2
*D1
340
0
70
0
0
BLOCK_RECORD
5
11B
100
AcDbSymbolTableRecord
100
AcDbBlockTableRecord
2
_U0
340
0
70
0
0
BLOCK_RECORD
5
127
100
AcDbSymbolTableRecord
100
AcDbBlockTableRecord
2
*D3
340
0
70
0
0
BLOCK_RECORD
5
133
100
AcDbSymbolTableRecord
100
AcDbBlockTableRecord
2
_U1
340
0
70
0
0
BLOCK_RECORD
5
13F
100
AcDbSymbolTableRecord
100
AcDbBlockTableRecord
2
*D5
340
0
70
0
0
BLOCK_RECORD
5
14B
100
AcDbSymbolTableRecord
100
AcDbBlockTableRecord
2
_U2
340
0
70
0
0
BLOCK_RECORD
5
157
100
AcDbSymbolTableRecord
100
AcDbBlockTableRecord
2
*D7
340
0
70
0
0
BLOCK_RECORD
5
165
100
AcDbSymbolTableRecord
100
AcDbBlockTableRecord
2
_U3
340
0
70
0
0
BLOCK_RECORD
5
171
100
AcDbSymbolTableRecord
100
AcDbBlockTableRecord
2
*D9
340
0
70
0
0
BLOCK_RECORD
5
17D
100
AcDbSymbolTableRecord
100
AcDbBlockTableRecord
2
_U4
340
0
70
0
0
ENDTAB
0
ENDSEC
0
SECTION
2
BLOCKS
0
BLOCK
5
20
100
AcDbEntity
8
0
100
AcDbBlockBegin
2
*Model_Space
70
0
10
0
20
0
30
0
3
*Model_Space
0
ENDBLK
5
21
100
AcDbEntity
8
0
100
AcDbBlockEnd
0
BLOCK
5
1C
100
AcDbEntity
8
0
100
AcDbBlockBegin
2
*Paper_Space
70
0
10
0
20
0
30
0
3
*Paper_Space
0
ENDBLK
5
1D
100
AcDbEntity
8
0
100
AcDbBlockEnd
0
BLOCK
5
24
100
AcDbEntity
8
0
100
AcDbBlockBegin
2
*Paper_Space0
70
0
10
0
20
0
30
0
3
*Paper_Space0
0
ENDBLK
5
25
100
AcDbEntity
8
0
100
AcDbBlockEnd
0
BLOCK
5
110
100
AcDbEntity
8
0
100
AcDbBlockBegin
2
*D1
70
1
10
0
20
0
30
0
3
*D1
0
LINE
5
112
100
AcDbEntity
8
0
62
256
6
ByLayer
370
-2
48
1
60
0
100
AcDbLine
10
0
20
-1.5875
30
0
11
0
21
-21.613398
31
0
39
0
210
0
220
0
230
1
0
LINE
5
113
100
AcDbEntity
8
0
62
256
6
ByLayer
370
-2
48
1
60
0
100
AcDbLine
10
100.1898
20
-10.9875
30
0
11
100.1898
21
-21.613398
31
0
39
0
210
0
220
0
230
1
0
LINE
5
114
100
AcDbEntity
8
0
62
256
6
ByLayer
370
-2
48
1
60
0
100
AcDbLine
10
3.5
20
-19.613398
30
0
11
96.6898
21
-19.613398
31
0
39
0
210
0
220
0
230
1
0
SOLID
5
115
100
AcDbEntity
8
0
62
256
6
ByLayer
370
-1
48
1
60
0
100
AcDbTrace
10
3.5
20
-19.030065
30
0
11
3.5
21
-20.196732
31
0
12
0
22
-19.613398
32
0
13
0
23
-19.613398
33
0
39
0
210
0
220
0
230
1
0
SOLID
5
116
100
AcDbEntity
8
0
62
256
6
ByLayer
370
-1
48
1
60
0
100
AcDbTrace
10
96.6898
20
-20.196732
30
0
11
96.6898
21
-19.030065
31
0
12
100.1898
22
-19.613398
32
0
13
100.1898
23
-19.613398
33
0
39
0
210
0
220
0
230
1
0
MTEXT
5
117
100
AcDbEntity
8
0
62
256
6
ByLayer
370
18
48
1
60
0
100
AcDbMText
10
50.0949
20
-12.613398
30
0
210
0
220
0
230
1
1
\A1;100.19
40
3.5
41
0
44
1
50
0
71
5
72
5
7
iso_b_vert
0
POINT
5
118
100
AcDbEntity
8
Defpoints
62
0
6
ByLayer
370
-1
48
1
60
0
100
AcDbPoint
10
0
20
0
30
0
39
0
210
0
220
0
230
1
50
360
0
POINT
5
119
100
AcDbEntity
8
Defpoints
62
0
6
ByLayer
370
-1
48
1
60
0
100
AcDbPoint
10
100.1898
20
-9.4
30
0
39
0
210
0
220
0
230
1
50
360
0
POINT
5
11A
100
AcDbEntity
8
Defpoints
62
0
6
ByLayer
370
-1
48
1
60
0
100
AcDbPoint
10
100.1898
20
-19.613398
30
0
39
0
210
0
220
0
230
1
50
360
0
ENDBLK
5
111
100
AcDbEntity
8
0
100
AcDbBlockEnd
0
BLOCK
5
122
100
AcDbEntity
8
0
100
AcDbBlockBegin
2
_U0
70
0
10
0
20
0
30
0
3
_U0
0
MTEXT
5
11C
100
AcDbEntity
8
SK2
62
256
6
ByLayer
370
13
48
1
60
0
100
AcDbMText
10
44.524735
20
-18.580765
30
0
210
0
220
0
230
1
1
\W0.6501;100,19
40
3.5
41
0
44
1.084337
50
0
71
7
72
5
7
iso_b_vert
0
LINE
5
11D
100
AcDbEntity
8
SK2
62
256
6
ByLayer
370
13
48
1
60
0
100
AcDbLine
10
0
20
-1.5875
30
0
11
0
21
-21.613398
31
0
39
0
210
0
220
0
230
1
0
LINE
5
11E
100
AcDbEntity
8
SK2
62
256
6
ByLayer
370
13
48
1
60
0
100
AcDbLine
10
100.1898
20
-10.9875
30
0
11
100.1898
21
-21.613398
31
0
39
0
210
0
220
0
230
1
0
LINE
5
11F
100
AcDbEntity
8
SK2
62
256
6
ByLayer
370
13
48
1
60
0
100
AcDbLine
10
0
20
-19.613398
30
0
11
100.1898
21
-19.613398
31
0
39
0
210
0
220
0
230
1
0
SOLID
5
120
100
AcDbEntity
8
SK2
62
256
6
ByLayer
370
18
48
1
60
0
100
AcDbTrace
10
0
20
-19.613398
30
0
11
3.499998
21
-19.152615
31
0
12
3.500002
22
-20.074182
32
0
13
3.500002
23
-20.074182
33
0
39
0
210
0
220
0
230
1
0
SOLID
5
121
100
AcDbEntity
8
SK2
62
256
6
ByLayer
370
18
48
1
60
0
100
AcDbTrace
10
100.1898
20
-19.613398
30
0
11
96.689802
21
-20.074182
31
0
12
96.689798
22
-19.152615
32
0
13
96.689798
23
-19.152615
33
0
39
0
210
0
220
0
230
1
0
ENDBLK
5
123
100
AcDbEntity
8
0
100
AcDbBlockEnd
0
BLOCK
5
128
100
AcDbEntity
8
0
100
AcDbBlockBegin
2
*D3
70
1
10
0
20
0
30
0
3
*D3
0
LINE
5
12A
100
AcDbEntity
8
0
62
256
6
ByLayer
370
-2
48
1
60
0
100
AcDbLine
10
-50
20
-11.5875
30
0
11
-50
21
-40.692985
31
0
39
0
210
0
220
0
230
1
0
LINE
5
12B
100
AcDbEntity
8
0
62
256
6
ByLayer
370
-2
48
1
60
0
100
AcDbLine
10
103
20
-1.5875
30
0
11
103
21
-40.692985
31
0
39
0
210
0
220
0
230
1
0
LINE
5
12C
100
AcDbEntity
8
0
62
256
6
ByLayer
370
-2
48
1
60
0
100
AcDbLine
10
-46.5
20
-38.692985
30
0
11
99.5
21
-38.692985
31
0
39
0
210
0
220
0
230
1
0
SOLID
5
12D
100
AcDbEntity
8
0
62
256
6
ByLayer
370
-1
48
1
60
0
100
AcDbTrace
10
-46.5
20
-38.109652
30
0
11
-46.5
21
-39.276319
31
0
12
-50
22
-38.692985
32
0
13
-50
23
-38.692985
33
0
39
0
210
0
220
0
230
1
0
SOLID
5
12E
100
AcDbEntity
8
0
62
256
6
ByLayer
370
-1
48
1
60
0
100
AcDbTrace
10
99.5
20
-39.276319
30
0
11
99.5
21
-38.109652
31
0
12
103
22
-38.692985
32
0
13
103
23
-38.692985
33
0
39
0
210
0
220
0
230
1
0
MTEXT
5
12F
100
AcDbEntity
8
0
62
256
6
ByLayer
370
18
48
1
60
0
100
AcDbMText
10
26.5
20
-31.692985
30
0
210
0
220
0
230
1
1
\A1;153.00
40
3.5
41
0
44
1
50
0
71
5
72
5
7
iso_b_vert
0
POINT
5
130
100
AcDbEntity
8
Defpoints
62
0
6
ByLayer
370
-1
48
1
60
0
100
AcDbPoint
10
-50
20
-10
30
0
39
0
210
0
220
0
230
1
50
360
0
POINT
5
131
100
AcDbEntity
8
Defpoints
62
0
6
ByLayer
370
-1
48
1
60
0
100
AcDbPoint
10
103
20
0
30
0
39
0
210
0
220
0
230
1
50
360
0
POINT
5
132
100
AcDbEntity
8
Defpoints
62
0
6
ByLayer
370
-1
48
1
60
0
100
AcDbPoint
10
103
20
-38.692985
30
0
39
0
210
0
220
0
230
1
50
360
0
ENDBLK
5
129
100
AcDbEntity
8
0
100
AcDbBlockEnd
0
BLOCK
5
13A
100
AcDbEntity
8
0
100
AcDbBlockBegin
2
_U1
70
0
10
0
20
0
30
0
3
_U1
0
MTEXT
5
134
100
AcDbEntity
8
SK2
62
256
6
ByLayer
370
13
48
1
60
0
100
AcDbMText
10
20.492401
20
-37.660352
30
0
210
0
220
0
230
1
1
\W0.6930;153,00
40
3.5
41
0
44
1.084337
50
0
71
7
72
5
7
iso_b_vert
0
LINE
5
135
100
AcDbEntity
8
SK2
62
256
6
ByLayer
370
13
48
1
60
0
100
AcDbLine
10
-50
20
-11.5875
30
0
11
-50
21
-40.692985
31
0
39
0
210
0
220
0
230
1
0
LINE
5
136
100
AcDbEntity
8
SK2
62
256
6
ByLayer
370
13
48
1
60
0
100
AcDbLine
10
103
20
-1.5875
30
0
11
103
21
-40.692985
31
0
39
0
210
0
220
0
230
1
0
LINE
5
137
100
AcDbEntity
8
SK2
62
256
6
ByLayer
370
13
48
1
60
0
100
AcDbLine
10
-50
20
-38.692985
30
0
11
103
21
-38.692985
31
0
39
0
210
0
220
0
230
1
0
SOLID
5
138
100
AcDbEntity
8
SK2
62
256
6
ByLayer
370
18
48
1
60
0
100
AcDbTrace
10
-50
20
-38.692985
30
0
11
-46.500002
21
-38.232202
31
0
12
-46.499998
22
-39.153769
32
0
13
-46.499998
23
-39.153769
33
0
39
0
210
0
220
0
230
1
0
SOLID
5
139
100
AcDbEntity
8
SK2
62
256
6
ByLayer
370
18
48
1
60
0
100
AcDbTrace
10
103
20
-38.692985
30
0
11
99.500002
21
-39.153769
31
0
12
99.499998
22
-38.232202
32
0
13
99.499998
23
-38.232202
33
0
39
0
210
0
220
0
230
1
0
ENDBLK
5
13B
100
AcDbEntity
8
0
100
AcDbBlockEnd
0
BLOCK
5
140
100
AcDbEntity
8
0
100
AcDbBlockBegin
2
*D5
70
1
10
0
20
0
30
0
3
*D5
0
LINE
5
142
100
AcDbEntity
8
0
62
256
6
ByLayer
370
-2
48
1
60
0
100
AcDbLine
10
17.04
20
10.9875
30
0
11
17.04
21
23.009119
31
0
39
0
210
0
220
0
230
1
0
LINE
5
143
100
AcDbEntity
8
0
62
256
6
ByLayer
370
-2
48
1
60
0
100
AcDbLine
10
103
20
1.5875
30
0
11
103
21
23.009119
31
0
39
0
210
0
220
0
230
1
0
LINE
5
144
100
AcDbEntity
8
0
62
256
6
ByLayer
370
-2
48
1
60
0
100
AcDbLine
10
20.54
20
21.009119
30
0
11
99.5
21
21.009119
31
0
39
0
210
0
220
0
230
1
0
SOLID
5
145
100
AcDbEntity
8
0
62
256
6
ByLayer
370
-1
48
1
60
0
100
AcDbTrace
10
20.54
20
21.592453
30
0
11
20.54
21
20.425786
31
0
12
17.04
22
21.009119
32
0
13
17.04
23
21.009119
33
0
39
0
210
0
220
0
230
1
0
SOLID
5
146
100
AcDbEntity
8
0
62
256
6
ByLayer
370
-1
48
1
60
0
100
AcDbTrace
10
99.5
20
20.425786
30
0
11
99.5
21
21.592453
31
0
12
103
22
21.009119
32
0
13
103
23
21.009119
33
0
39
0
210
0
220
0
230
1
0
MTEXT
5
147
100
AcDbEntity
8
0
62
256
6
ByLayer
370
18
48
1
60
0
100
AcDbMText
10
60.02
20
28.009119
30
0
210
0
220
0
230
1
1
\A1;85.96
40
3.5
41
0
44
1
50
0
71
5
72
5
7
iso_b_vert
0
POINT
5
148
100
AcDbEntity
8
Defpoints
62
0
6
ByLayer
370
-1
48
1
60
0
100
AcDbPoint
10
17.04
20
9.4
30
0
39
0
210
0
220
0
230
1
50
360
0
POINT
5
149
100
AcDbEntity
8
Defpoints
62
0
6
ByLayer
370
-1
48
1
60
0
100
AcDbPoint
10
103
20
0
30
0
39
0
210
0
220
0
230
1
50
360
0
POINT
5
14A
100
AcDbEntity
8
Defpoints
62
0
6
ByLayer
370
-1
48
1
60
0
100
AcDbPoint
10
103
20
21.009119
30
0
39
0
210
0
220
0
230
1
50
360
0
ENDBLK
5
141
100
AcDbEntity
8
0
100
AcDbBlockEnd
0
BLOCK
5
152
100
AcDbEntity
8
0
100
AcDbBlockBegin
2
_U2
70
0
10
0
20
0
30
0
3
_U2
0
MTEXT
5
14C
100
AcDbEntity
8
SK2
62
256
6
ByLayer
370
13
48
1
60
0
100
AcDbMText
10
54.882701
20
22.041753
30
0
210
0
220
0
230
1
1
\W0.7317;85,96
40
3.5
41
0
44
1.084337
50
0
71
7
72
5
7
iso_b_vert
0
LINE
5
14D
100
AcDbEntity
8
SK2
62
256
6
ByLayer
370
13
48
1
60
0
100
AcDbLine
10
17.04
20
10.9875
30
0
11
17.04
21
23.009119
31
0
39
0
210
0
220
0
230
1
0
LINE
5
14E
100
AcDbEntity
8
SK2
62
256
6
ByLayer
370
13
48
1
60
0
100
AcDbLine
10
103
20
1.5875
30
0
11
103
21
23.009119
31
0
39
0
210
0
220
0
230
1
0
LINE
5
14F
100
AcDbEntity
8
SK2
62
256
6
ByLayer
370
13
48
1
60
0
100
AcDbLine
10
17.04
20
21.009119
30
0
11
103
21
21.009119
31
0
39
0
210
0
220
0
230
1
0
SOLID
5
150
100
AcDbEntity
8
SK2
62
256
6
ByLayer
370
18
48
1
60
0
100
AcDbTrace
10
17.04
20
21.009119
30
0
11
20.539998
21
21.469903
31
0
12
20.540002
22
20.548335
32
0
13
20.540002
23
20.548335
33
0
39
0
210
0
220
0
230
1
0
SOLID
5
151
100
AcDbEntity
8
SK2
62
256
6
ByLayer
370
18
48
1
60
0
100
AcDbTrace
10
103
20
21.009119
30
0
11
99.500002
21
20.548335
31
0
12
99.499998
22
21.469903
32
0
13
99.499998
23
21.469903
33
0
39
0
210
0
220
0
230
1
0
ENDBLK
5
153
100
AcDbEntity
8
0
100
AcDbBlockEnd
0
BLOCK
5
158
100
AcDbEntity
8
0
100
AcDbBlockBegin
2
*D7
70
1
10
0
20
0
30
0
3
*D7
0
LINE
5
15A
100
AcDbEntity
8
0
62
256
6
ByLayer
370
-2
48
1
60
0
100
AcDbLine
10
103
20
-1.5875
30
0
11
103
21
-24.202503
31
0
39
0
210
0
220
0
230
1
0
LINE
5
15B
100
AcDbEntity
8
0
62
256
6
ByLayer
370
-2
48
1
60
0
100
AcDbLine
10
100.1898
20
-10.9875
30
0
11
100.1898
21
-24.202503
31
0
39
0
210
0
220
0
230
1
0
LINE
5
15C
100
AcDbEntity
8
0
62
256
6
ByLayer
370
-2
48
1
60
0
100
AcDbLine
10
103
20
-22.202503
30
0
11
130.166667
21
-22.202503
31
0
39
0
210
0
220
0
230
1
0
LINE
5
15D
100
AcDbEntity
8
0
62
256
6
ByLayer
370
-2
48
1
60
0
100
AcDbLine
10
106.5
20
-22.202503
30
0
11
110
21
-22.202503
31
0
39
0
210
0
220
0
230
1
0
LINE
5
15E
100
AcDbEntity
8
0
62
256
6
ByLayer
370
-2
48
1
60
0
100
AcDbLine
10
96.6898
20
-22.202503
30
0
11
93.1898
21
-22.202503
31
0
39
0
210
0
220
0
230
1
0
SOLID
5
15F
100
AcDbEntity
8
0
62
256
6
ByLayer
370
-1
48
1
60
0
100
AcDbTrace
10
106.5
20
-21.61917
30
0
11
106.5
21
-22.785837
31
0
12
103
22
-22.202503
32
0
13
103
23
-22.202503
33
0
39
0
210
0
220
0
230
1
0
SOLID
5
160
100
AcDbEntity
8
0
62
256
6
ByLayer
370
-1
48
1
60
0
100
AcDbTrace
10
96.6898
20
-22.785837
30
0
11
96.6898
21
-21.61917
31
0
12
100.1898
22
-22.202503
32
0
13
100.1898
23
-22.202503
33
0
39
0
210
0
220
0
230
1
0
MTEXT
5
161
100
AcDbEntity
8
0
62
256
6
ByLayer
370
18
48
1
60
0
100
AcDbMText
10
120.083333
20
-15.202503
30
0
210
0
220
0
230
1
1
\A1;2.81
40
3.5
41
0
44
1
50
0
71
5
72
5
7
iso_b_vert
0
POINT
5
162
100
AcDbEntity
8
Defpoints
62
0
6
ByLayer
370
-1
48
1
60
0
100
AcDbPoint
10
103
20
0
30
0
39
0
210
0
220
0
230
1
50
360
0
POINT
5
163
100
AcDbEntity
8
Defpoints
62
0
6
ByLayer
370
-1
48
1
60
0
100
AcDbPoint
10
100.1898
20
-9.4
30
0
39
0
210
0
220
0
230
1
50
360
0
POINT
5
164
100
AcDbEntity
8
Defpoints
62
0
6
ByLayer
370
-1
48
1
60
0
100
AcDbPoint
10
100.1898
20
-22.202503
30
0
39
0
210
0
220
0
230
1
50
360
0
ENDBLK
5
159
100
AcDbEntity
8
0
100
AcDbBlockEnd
0
BLOCK
5
16C
100
AcDbEntity
8
0
100
AcDbBlockBegin
2
_U3
70
0
10
0
20
0
30
0
3
_U3
0
MTEXT
5
166
100
AcDbEntity
8
SK2
62
256
6
ByLayer
370
13
48
1
60
0
100
AcDbMText
10
109.589293
20
-21.16987
30
0
210
0
220
0
230
1
1
\W0.6993;2,81
40
3.5
41
0
44
1.084337
50
0
71
7
72
5
7
iso_b_vert
0
LINE
5
167
100
AcDbEntity
8
SK2
62
256
6
ByLayer
370
13
48
1
60
0
100
AcDbLine
10
103
20
-1.5875
30
0
11
103
21
-24.202503
31
0
39
0
210
0
220
0
230
1
0
LINE
5
168
100
AcDbEntity
8
SK2
62
256
6
ByLayer
370
13
48
1
60
0
100
AcDbLine
10
100.1898
20
-10.9875
30
0
11
100.1898
21
-24.202503
31
0
39
0
210
0
220
0
230
1
0
LINE
5
169
100
AcDbEntity
8
SK2
62
256
6
ByLayer
370
13
48
1
60
0
100
AcDbLine
10
91.4398
20
-22.202503
30
0
11
116.559058
21
-22.202503
31
0
39
0
210
0
220
0
230
1
0
SOLID
5
16A
100
AcDbEntity
8
SK2
62
256
6
ByLayer
370
18
48
1
60
0
100
AcDbTrace
10
103
20
-22.202503
30
0
11
106.499998
21
-21.741719
31
0
12
106.500002
22
-22.663287
32
0
13
106.500002
23
-22.663287
33
0
39
0
210
0
220
0
230
1
0
SOLID
5
16B
100
AcDbEntity
8
SK2
62
256
6
ByLayer
370
18
48
1
60
0
100
AcDbTrace
10
100.1898
20
-22.202503
30
0
11
96.689802
21
-22.663287
31
0
12
96.689798
22
-21.741719
32
0
13
96.689798
23
-21.741719
33
0
39
0
210
0
220
0
230
1
0
ENDBLK
5
16D
100
AcDbEntity
8
0
100
AcDbBlockEnd
0
BLOCK
5
172
100
AcDbEntity
8
0
100
AcDbBlockBegin
2
*D9
70
1
10
0
20
0
30
0
3
*D9
0
LINE
5
174
100
AcDbEntity
8
0
62
256
6
ByLayer
370
-2
48
1
60
0
100
AcDbLine
10
-50
20
-11.5875
30
0
11
-50
21
-30.343428
31
0
39
0
210
0
220
0
230
1
0
LINE
5
175
100
AcDbEntity
8
0
62
256
6
ByLayer
370
-2
48
1
60
0
100
AcDbLine
10
100.1898
20
-10.9875
30
0
11
100.1898
21
-30.343428
31
0
39
0
210
0
220
0
230
1
0
LINE
5
176
100
AcDbEntity
8
0
62
256
6
ByLayer
370
-2
48
1
60
0
100
AcDbLine
10
-46.5
20
-28.343428
30
0
11
96.6898
21
-28.343428
31
0
39
0
210
0
220
0
230
1
0
SOLID
5
177
100
AcDbEntity
8
0
62
256
6
ByLayer
370
-1
48
1
60
0
100
AcDbTrace
10
-46.5
20
-27.760095
30
0
11
-46.5
21
-28.926762
31
0
12
-50
22
-28.343428
32
0
13
-50
23
-28.343428
33
0
39
0
210
0
220
0
230
1
0
SOLID
5
178
100
AcDbEntity
8
0
62
256
6
ByLayer
370
-1
48
1
60
0
100
AcDbTrace
10
96.6898
20
-28.926762
30
0
11
96.6898
21
-27.760095
31
0
12
100.1898
22
-28.343428
32
0
13
100.1898
23
-28.343428
33
0
39
0
210
0
220
0
230
1
0
MTEXT
5
179
100
AcDbEntity
8
0
62
256
6
ByLayer
370
18
48
1
60
0
100
AcDbMText
10
25.0949
20
-21.343428
30
0
210
0
220
0
230
1
1
\A1;150.19
40
3.5
41
0
44
1
50
0
71
5
72
5
7
iso_b_vert
0
POINT
5
17A
100
AcDbEntity
8
Defpoints
62
0
6
ByLayer
370
-1
48
1
60
0
100
AcDbPoint
10
-50
20
-10
30
0
39
0
210
0
220
0
230
1
50
360
0
POINT
5
17B
100
AcDbEntity
8
Defpoints
62
0
6
ByLayer
370
-1
48
1
60
0
100
AcDbPoint
10
100.1898
20
-9.4
30
0
39
0
210
0
220
0
230
1
50
360
0
POINT
5
17C
100
AcDbEntity
8
Defpoints
62
0
6
ByLayer
370
-1
48
1
60
0
100
AcDbPoint
10
100.1898
20
-28.343428
30
0
39
0
210
0
220
0
230
1
50
360
0
ENDBLK
5
173
100
AcDbEntity
8
0
100
AcDbBlockEnd
0
BLOCK
5
184
100
AcDbEntity
8
0
100
AcDbBlockBegin
2
_U4
70
0
10
0
20
0
30
0
3
_U4
0
MTEXT
5
17E
100
AcDbEntity
8
SK2
62
256
6
ByLayer
370
13
48
1
60
0
100
AcDbMText
10
19.524735
20
-27.310795
30
0
210
0
220
0
230
1
1
\W0.6501;150,19
40
3.5
41
0
44
1.084337
50
0
71
7
72
5
7
iso_b_vert
0
LINE
5
17F
100
AcDbEntity
8
SK2
62
256
6
ByLayer
370
13
48
1
60
0
100
AcDbLine
10
-50
20
-11.5875
30
0
11
-50
21
-30.343428
31
0
39
0
210
0
220
0
230
1
0
LINE
5
180
100
AcDbEntity
8
SK2
62
256
6
ByLayer
370
13
48
1
60
0
100
AcDbLine
10
100.1898
20
-10.9875
30
0
11
100.1898
21
-30.343428
31
0
39
0
210
0
220
0
230
1
0
LINE
5
181
100
AcDbEntity
8
SK2
62
256
6
ByLayer
370
13
48
1
60
0
100
AcDbLine
10
-50
20
-28.343428
30
0
11
100.1898
21
-28.343428
31
0
39
0
210
0
220
0
230
1
0
SOLID
5
182
100
AcDbEntity
8
SK2
62
256
6
ByLayer
370
18
48
1
60
0
100
AcDbTrace
10
-50
20
-28.343428
30
0
11
-46.500002
21
-27.882645
31
0
12
-46.499998
22
-28.804212
32
0
13
-46.499998
23
-28.804212
33
0
39
0
210
0
220
0
230
1
0
SOLID
5
183
100
AcDbEntity
8
SK2
62
256
6
ByLayer
370
18
48
1
60
0
100
AcDbTrace
10
100.1898
20
-28.343428
30
0
11
96.689802
21
-28.804212
31
0
12
96.689798
22
-27.882645
32
0
13
96.689798
23
-27.882645
33
0
39
0
210
0
220
0
230
1
0
ENDBLK
5
185
100
AcDbEntity
8
0
100
AcDbBlockEnd
0
ENDSEC
0
SECTION
2
ENTITIES
0
ARC
5
AF
100
AcDbEntity
8
1
62
256
6
ByLayer
370
18
48
1
60
0
100
AcDbCircle
39
0
10
1.296065
20
-10.138198
30
0
40
0.799999999999998
210
0
220
0
230
1
100
AcDbArc
50
89.96419
51
144.099887
0
ARC
5
B0
100
AcDbEntity
8
1
62
256
6
ByLayer
370
18
48
1
60
0
100
AcDbCircle
39
0
10
1.296065
20
10.138198
30
0
40
0.799999999999998
210
0
220
0
230
1
100
AcDbArc
50
215.900113
51
270.03581
0
ARC
5
B1
100
AcDbEntity
8
1
62
256
6
ByLayer
370
18
48
1
60
0
100
AcDbCircle
39
0
10
0
20
-9.2
30
0
40
0.799999999999999
210
0
220
0
230
1
100
AcDbArc
50
270
51
324.099887
0
ARC
5
B2
100
AcDbEntity
8
1
62
256
6
ByLayer
370
18
48
1
60
0
100
AcDbCircle
39
0
10
0
20
9.2
30
0
40
0.799999999999999
210
0
220
0
230
1
100
AcDbArc
50
35.900113
51
90
0
ELLIPSE
5
B3
100
AcDbEntity
8
1
62
256
6
ByLayer
370
18
48
1
60
0
100
AcDbEllipse
10
4.25
20
9.120706
30
0
11
-0.25
21
3.06151588455594E-17
31
0
210
0
220
0
230
1
40
0.999991
41
0.0177901380855216
42
1.59408945413837
0
ELLIPSE
5
B4
100
AcDbEntity
8
1
62
256
6
ByLayer
370
18
48
1
60
0
100
AcDbEllipse
10
4.25
20
-9.120706
30
0
11
-0.25
21
3.06151588455594E-17
31
0
210
0
220
0
230
1
40
0.999991
41
-1.55427931027008
42
-0.0177901380891175
0
POINT
5
70
100
AcDbEntity
8
80
62
256
6
ByLayer
370
18
48
1
60
0
100
AcDbPoint
10
0
20
0
30
0
39
0
210
0
220
0
230
1
50
360
0
POINT
5
72
100
AcDbEntity
8
81
62
256
6
ByLayer
370
18
48
1
60
0
100
AcDbPoint
10
103
20
0
30
0
39
0
210
0
220
0
230
1
50
360
0
POINT
5
74
100
AcDbEntity
8
1
62
256
6
ByLayer
370
18
48
1
60
1
100
AcDbPoint
10
100.1898
20
-9.4
30
0
39
0
210
0
220
0
230
1
50
360
0
POINT
5
76
100
AcDbEntity
8
1
62
256
6
ByLayer
370
18
48
1
60
1
100
AcDbPoint
10
-50
20
-10
30
0
39
0
210
0
220
0
230
1
50
360
0
POINT
5
77
100
AcDbEntity
8
1
62
256
6
ByLayer
370
18
48
1
60
1
100
AcDbPoint
10
17.04
20
9.4
30
0
39
0
210
0
220
0
230
1
50
360
0
POINT
5
78
100
AcDbEntity
8
1
62
256
6
ByLayer
370
18
48
1
60
1
100
AcDbPoint
10
100.1898
20
-9.4
30
0
39
0
210
0
220
0
230
1
50
360
0
POINT
5
79
100
AcDbEntity
8
1
62
256
6
ByLayer
370
18
48
1
60
1
100
AcDbPoint
10
-50
20
-10
30
0
39
0
210
0
220
0
230
1
50
360
0
POINT
5
7A
100
AcDbEntity
8
1
62
256
6
ByLayer
370
18
48
1
60
1
100
AcDbPoint
10
100.1898
20
-9.4
30
0
39
0
210
0
220
0
230
1
50
360
0
SPLINE
5
B5
100
AcDbEntity
8
SK1
62
256
6
ByLayer
370
18
48
1
60
0
100
AcDbSpline
70
4
71
3
72
12
73
8
40
0
40
0
40
0
40
0
40
0.5
40
0.5
40
0.75
40
0.75
40
1
40
1
40
1
40
1
41
1
10
-47.7
20
8.73882481955386
30
0
41
1
10
-47.676740996265
20
8.76230556446046
30
0
41
1
10
-47.6540472870877
20
8.78725003671784
30
0
41
1
10
-47.6255893048134
20
8.82221989879369
30
0
41
1
10
-47.6170511066435
20
8.83346831362059
30
0
41
1
10
-47.6041481930831
20
8.85300813493768
30
0
41
1
10
-47.6
20
8.86107399213054
30
0
41
1
10
-47.6
20
8.86516880711281
30
0
0
SPLINE
5
B6
100
AcDbEntity
8
SK1
62
256
6
ByLayer
370
18
48
1
60
0
100
AcDbSpline
70
4
71
3
72
12
73
8
40
0
40
0
40
0
40
0
40
0.250000000000001
40
0.250000000000001
40
0.500000000000002
40
0.500000000000002
40
1
40
1
40
1
40
1
41
1
10
-47.6
20
9.12888868047045
30
0
41
1
10
-47.6
20
9.12789710811904
30
0
41
1
10
-47.6041467577045
20
9.12274491162492
30
0
41
1
10
-47.6170570469017
20
9.10804648612717
30
0
41
1
10
-47.625554553204
20
9.09877894409834
30
0
41
1
10
-47.6540551531448
20
9.06833870451212
30
0
41
1
10
-47.6767307684396
20
9.04487289696235
30
0
41
1
10
-47.7
20
9.02138182672275
30
0
0
SPLINE
5
B7
100
AcDbEntity
8
SK1
62
256
6
ByLayer
370
18
48
1
60
0
100
AcDbSpline
70
4
71
3
72
8
73
4
40
0
40
0
40
0
40
0
40
1
40
1
40
1
40
1
41
1
10
-47.7
20
9.02138182672275
30
0
41
1
10
-48.4685744949031
20
8.24548007864513
30
0
41
1
10
-49.235906008334
20
7.46837603050074
30
0
41
1
10
-50
20
6.6881404210892
30
0
0
SPLINE
5
B8
100
AcDbEntity
8
SK1
62
256
6
ByLayer
370
18
48
1
60
0
100
AcDbSpline
70
4
71
3
72
8
73
4
40
0
40
0
40
0
40
0
40
1
40
1
40
1
40
1
41
1
10
-50
20
6.40558341392028
30
0
41
1
10
-49.2358851278216
20
7.18584034494867
30
0
41
1
10
-48.4685589204067
20
7.96293879445307
30
0
41
1
10
-47.7
20
8.73882481955386
30
0
0
SPLINE
5
B9
100
AcDbEntity
8
SK1
62
256
6
ByLayer
370
18
48
1
60
0
100
AcDbSpline
70
4
71
3
72
12
73
8
40
0
40
0
40
0
40
0
40
0.249999999999996
40
0.249999999999996
40
0.499999999999993
40
0.499999999999993
40
1
40
1
40
1
40
1
41
1
10
-47.6
20
-9.12888868047045
30
0
41
1
10
-47.6
20
-9.12789710811904
30
0
41
1
10
-47.6041467577045
20
-9.12274491162492
30
0
41
1
10
-47.6170570469017
20
-9.10804648612717
30
0
41
1
10
-47.625554553204
20
-9.09877894409834
30
0
41
1
10
-47.6540551531448
20
-9.06833870451212
30
0
41
1
10
-47.6767307684396
20
-9.04487289696235
30
0
41
1
10
-47.7
20
-9.02138182672275
30
0
0
SPLINE
5
BA
100
AcDbEntity
8
SK1
62
256
6
ByLayer
370
18
48
1
60
0
100
AcDbSpline
70
4
71
3
72
8
73
4
40
0
40
0
40
0
40
0
40
1
40
1
40
1
40
1
41
1
10
-47.7
20
-9.02138182672275
30
0
41
1
10
-48.4685744949031
20
-8.24548007864513
30
0
41
1
10
-49.235906008334
20
-7.46837603050076
30
0
41
1
10
-50
20
-6.6881404210892
30
0
0
SPLINE
5
BB
100
AcDbEntity
8
1
62
256
6
ByLayer
370
18
48
1
60
0
100
AcDbSpline
70
4
71
3
72
14
73
10
40
0
40
0
40
0
40
0
40
0.25
40
0.25
40
0.5
40
0.5
40
0.75
40
0.75
40
1
40
1
40
1
40
1
41
1
10
100.17872506233
20
-9.13699958880292
30
0
41
1
10
100.387776544202
20
-8.54402958540865
30
0
41
1
10
100.601439238948
20
-7.9537915667741
30
0
41
1
10
101.036913435445
20
-6.77786572624075
30
0
41
1
10
101.258799660512
20
-6.19221986746652
30
0
41
1
10
101.70965751996
20
-5.02468627328426
30
0
41
1
10
101.938681679323
20
-4.44282856760213
30
0
41
1
10
102.403399177338
20
-3.28250092365042
30
0
41
1
10
102.639083307905
20
-2.70402686325889
30
0
41
1
10
102.877957713908
20
-2.12711556188231
30
0
0
SPLINE
5
BC
100
AcDbEntity
8
1
62
256
6
ByLayer
370
18
48
1
60
0
100
AcDbSpline
70
4
71
3
72
8
73
4
40
0
40
0
40
0
40
0
40
1
40
1
40
1
40
1
41
1
10
3.99999996541567
20
-6.10709223622453
30
0
41
1
10
3.99999996541567
20
-5.99384723851713
30
0
41
1
10
3.99999996541567
20
-5.88038741772081
30
0
41
1
10
3.99999996541567
20
-5.76670971889831
30
0
0
SPLINE
5
BD
100
AcDbEntity
8
1
62
256
6
ByLayer
370
18
48
1
60
0
100
AcDbSpline
70
4
71
3
72
18
73
14
40
0
40
0
40
0
40
0
40
0.0989776340851938
40
0.0989776340851938
40
0.316510865689244
40
0.316510865689244
40
0.42527748149127
40
0.42527748149127
40
0.534044097293296
40
0.534044097293296
40
0.751577328897352
40
0.751577328897352
40
1
40
1
40
1
40
1
41
1
10
71.5699648125949
20
0.0330161379115452
30
0
41
1
10
72.0255597651772
20
-0.204047615640917
30
0
41
1
10
72.4805259731365
20
-0.440956474386297
30
0
41
1
10
73.9345080587258
20
-1.19591900061502
30
0
41
1
10
74.9326099995657
20
-1.71050077055341
30
0
41
1
10
76.4323817953258
20
-2.46750557656017
30
0
41
1
10
76.9330487317562
20
-2.71740598398145
30
0
41
1
10
77.9349464863394
20
-3.21021973588029
30
0
41
1
10
78.4344726031031
20
-3.45234660495277
30
0
41
1
10
79.930132733909
20
-4.16356905163261
30
0
41
1
10
80.9234382576844
20
-4.61733055936648
30
0
41
1
10
83.0493938705021
20
-5.53554980927862
30
0
41
1
10
84.1817834675758
20
-5.99239996306454
30
0
41
1
10
85.3177598340801
20
-6.40932045715476
30
0
0
SPLINE
5
BE
100
AcDbEntity
8
1
62
256
6
ByLayer
370
13
48
1
60
0
100
AcDbSpline
70
4
71
3
72
20
73
16
40
0
40
0
40
0
40
0
40
0.176616055636032
40
0.176616055636032
40
0.279539048681529
40
0.279539048681529
40
0.382462041727025
40
0.382462041727025
40
0.588308027818017
40
0.588308027818017
40
0.794154013909009
40
0.794154013909009
40
0.897077006954505
40
0.897077006954505
40
1
40
1
40
1
40
1
41
1
10
85.3177607736211
20
-6.4093208019805
30
0
41
1
10
86.1712370622927
20
-6.72255948110205
30
0
41
1
10
87.0267379915614
20
-7.01325888447548
30
0
41
1
10
88.3871028058271
20
-7.43283313797681
30
0
41
1
10
88.8871585914368
20
-7.57789546594191
30
0
41
1
10
89.8846404843575
20
-7.84813389853286
30
0
41
1
10
90.3823513755163
20
-7.9734001695407
30
0
41
1
10
91.8735903832569
20
-8.31876015360163
30
0
41
1
10
92.8653115433419
20
-8.5084770602414
30
0
41
1
10
94.8497145021952
20
-8.80279957498408
30
0
41
1
10
95.8425789528991
20
-8.90741286578381
30
0
41
1
10
97.3373318346098
20
-8.99797069718173
30
0
41
1
10
97.836515064291
20
-9.01708338488606
30
0
41
1
10
98.8374961185777
20
-9.03268150571495
30
0
41
1
10
99.3386495531186
20
-9.02913217596702
30
0
41
1
10
99.8394117118367
20
-9.01419395416448
30
0
0
SPLINE
5
BF
100
AcDbEntity
8
1
62
256
6
ByLayer
370
18
48
1
60
0
100
AcDbSpline
70
4
71
3
72
14
73
10
40
0
40
0
40
0
40
0
40
0.25
40
0.25
40
0.5
40
0.5
40
0.75
40
0.75
40
1
40
1
40
1
40
1
41
1
10
100.178725062336
20
9.13699958878482
30
0
41
1
10
100.386045390228
20
8.54893996618355
30
0
41
1
10
100.598656380334
20
7.9614398173666
30
0
41
1
10
101.033188745348
20
6.78779201727386
30
0
41
1
10
101.255194393363
20
6.2016567791276
30
0
41
1
10
101.707247256622
20
5.03082840573239
30
0
41
1
10
101.937290312384
20
4.44632771498266
30
0
41
1
10
102.403054155865
20
3.28333736277219
30
0
41
1
10
102.63901808998
20
2.70418437262995
30
0
41
1
10
102.877957713909
20
2.12711556187972
30
0
0
SPLINE
5
C0
100
AcDbEntity
8
1
62
256
6
ByLayer
370
18
48
1
60
0
100
AcDbSpline
70
4
71
3
72
8
73
4
40
0
40
0
40
0
40
0
40
1
40
1
40
1
40
1
41
1
10
99.8394117120747
20
-9.01419395428283
30
0
41
1
10
99.7890141734684
20
-9.13911778129844
30
0
41
1
10
99.7384989445382
20
-9.26380205887867
30
0
41
1
10
99.6878759016271
20
-9.38825159495138
30
0
0
SPLINE
5
C1
100
AcDbEntity
8
1
62
256
6
ByLayer
370
18
48
1
60
0
100
AcDbSpline
70
4
71
3
72
24
73
20
40
0
40
0
40
0
40
0
40
0.117899455767421
40
0.117899455767421
40
0.209223598954418
40
0.209223598954418
40
0.254885670547915
40
0.254885670547915
40
0.300547742141412
40
0.300547742141412
40
0.665844314889399
40
0.665844314889399
40
0.848492601263393
40
0.848492601263393
40
0.93981674445039
40
0.93981674445039
40
0.985478816043889
40
0.985478816043889
40
1
40
1
40
1
40
1
41
1
10
17.2071106399633
20
0.0135481605146026
30
0
41
1
10
17.8472461884035
20
-0.318305004952663
30
0
41
1
10
18.4885650370261
20
-0.650860807527494
30
0
41
1
10
19.6302237627828
20
-1.23936262941737
30
0
41
1
10
20.1297415267486
20
-1.49571332559705
30
0
41
1
10
20.8814561670501
20
-1.878165474312
30
0
41
1
10
21.1322575482856
20
-2.00520818076683
30
0
41
1
10
21.632597543354
20
-2.25732651686306
30
0
41
1
10
21.8823907322706
20
-2.38253249360338
30
0
41
1
10
24.1275368925418
20
-3.50100552131448
30
0
41
1
10
26.1021916039773
20
-4.43503302822168
30
0
41
1
10
29.0698041712782
20
-5.68331925473734
30
0
41
1
10
30.0597750245017
20
-6.07421679954714
30
0
41
1
10
31.5507926171387
20
-6.61490848165178
30
0
41
1
10
32.0487294634765
20
-6.78761260043404
30
0
41
1
10
32.7977339645871
20
-7.03433225830076
30
0
41
1
10
33.0477552923992
20
-7.1145103648667
30
0
41
1
10
33.3778061879516
20
-7.21738495036865
30
0
41
1
10
33.4574895010169
20
-7.24199397264783
30
0
41
1
10
33.5371869373571
20
-7.26637760140994
30
0
0
SPLINE
5
C2
100
AcDbEntity
8
1
62
256
6
ByLayer
370
13
48
1
60
0
100
AcDbSpline
70
4
71
3
72
18
73
14
40
0
40
0
40
0
40
0
40
0.0381125528513386
40
0.0381125528513386
40
0.485190717985466
40
0.485190717985466
40
0.70872980055253
40
0.70872980055253
40
0.820499341836062
40
0.820499341836062
40
0.932268883119593
40
0.932268883119593
40
1
40
1
40
1
40
1
41
1
10
33.5371878937958
20
-7.26637789403469
30
0
41
1
10
33.7080998725669
20
-7.31866883485554
30
0
41
1
10
33.8790768025983
20
-7.36992320762846
30
0
41
1
10
36.0523032734226
20
-8.00764396074712
30
0
41
1
10
38.0344871122258
20
-8.44021480574338
30
0
41
1
10
41.014596120193
20
-8.83212121900661
30
0
41
1
10
42.0090972217305
20
-8.91989727968871
30
0
41
1
10
43.5072067552241
20
-8.98483738416067
30
0
41
1
10
44.0082011277543
20
-8.99531678474477
30
0
41
1
10
45.0104274690367
20
-8.99361782841956
30
0
41
1
10
45.5109133321231
20
-8.981482708085
30
0
41
1
10
46.3143181185399
20
-8.94401110687713
30
0
41
1
10
46.6173846826161
20
-8.92575851855565
30
0
41
1
10
46.9204556111769
20
-8.90341472734841
30
0
0
SPLINE
5
C3
100
AcDbEntity
8
1
62
256
6
ByLayer
370
18
48
1
60
0
100
AcDbSpline
70
4
71
3
72
8
73
4
40
0
40
0
40
0
40
0
40
1
40
1
40
1
40
1
41
1
10
99.6878759016271
20
9.38825159495138
30
0
41
1
10
99.4026754032752
20
9.39571525563395
30
0
41
1
10
99.1173562874836
20
9.3993493289108
30
0
41
1
10
98.8320210578215
20
9.39915576399915
30
0
0
SPLINE
5
C4
100
AcDbEntity
8
1
62
256
6
ByLayer
370
18
48
1
60
0
100
AcDbSpline
70
4
71
3
72
50
73
46
40
0
40
0
40
0
40
0
40
0.0193514024265804
40
0.0193514024265804
40
0.0520396890123605
40
0.0520396890123605
40
0.0847279755981408
40
0.0847279755981408
40
0.150104548769701
40
0.150104548769701
40
0.182792835355482
40
0.182792835355482
40
0.215481121941262
40
0.215481121941262
40
0.280857695112823
40
0.280857695112823
40
0.313545981698604
40
0.313545981698604
40
0.346234268284384
40
0.346234268284384
40
0.411610841455945
40
0.411610841455945
40
0.476987414627506
40
0.476987414627506
40
0.509675701213287
40
0.509675701213287
40
0.542363987799068
40
0.542363987799068
40
0.607740560970629
40
0.607740560970629
40
0.67311713414219
40
0.67311713414219
40
0.738493707313751
40
0.738493707313751
40
0.771181993899532
40
0.771181993899532
40
0.803870280485313
40
0.803870280485313
40
0.869246853656875
40
0.869246853656875
40
0.901935140242657
40
0.901935140242657
40
0.934623426828438
40
0.934623426828438
40
1
40
1
40
1
40
1
41
1
10
49.821263950402
20
-8.91858813196833
30
0
41
1
10
49.5268128493467
20
-8.9671926775784
30
0
41
1
10
49.2324334100022
20
-9.01191677791925
30
0
41
1
10
48.4407203895621
20
-9.12162025407773
30
0
41
1
10
47.9433423868169
20
-9.17932191432541
30
0
41
1
10
46.9476731640438
20
-9.27193929389261
30
0
41
1
10
46.4489138726819
20
-9.30686795007534
30
0
41
1
10
44.9545953870298
20
-9.37669925666205
30
0
41
1
10
43.9606560133942
20
-9.3768033962028
30
0
41
1
10
42.4681067665597
20
-9.30756191452898
30
0
41
1
10
41.9703063022174
20
-9.27292148652793
30
0
41
1
10
40.9733654562881
20
-9.18057547751712
30
0
41
1
10
40.4750977172924
20
-9.12293581476305
30
0
41
1
10
38.982086388294
20
-8.91661297722493
30
0
41
1
10
37.9881367520728
20
-8.73440065154514
30
0
41
1
10
36.4942938939839
20
-8.39714599406389
30
0
41
1
10
35.9953796116496
20
-8.27396037277029
30
0
41
1
10
34.9991006742638
20
-8.00770491842826
30
0
41
1
10
34.5015284959182
20
-7.86461202379459
30
0
41
1
10
33.0091340813267
20
-7.40692652258136
30
0
41
1
10
32.0147757861243
20
-7.06376752728823
30
0
41
1
10
30.0202781269512
20
-6.30911252466854
30
0
41
1
10
29.0253558170182
20
-5.89928053355499
30
0
41
1
10
27.5328887102026
20
-5.24425344421672
30
0
41
1
10
27.0353188181518
20
-5.01912671141602
30
0
41
1
10
26.0392256510389
20
-4.55648259799167
30
0
41
1
10
25.5402630450569
20
-4.31877654361475
30
0
41
1
10
24.0457423242627
20
-3.5918232818392
30
0
41
1
10
23.051516327423
20
-3.08807889865099
30
0
41
1
10
21.0606259782335
20
-2.05408191505785
30
0
41
1
10
20.0624695773178
20
-1.52290998190796
30
0
41
1
10
18.0713644320427
20
-0.453782673470528
30
0
41
1
10
17.0770597996363
20
0.0848869514935302
30
0
41
1
10
15.5824604988879
20
0.889731779405935
30
0
41
1
10
15.0833649901232
20
1.15772178167845
30
0
41
1
10
14.0870679040929
20
1.68915390997819
30
0
41
1
10
13.589489175551
20
1.95277364337923
30
0
41
1
10
12.0971417135952
20
2.73497336667182
30
0
41
1
10
11.1029606469214
20
3.24524579024597
30
0
41
1
10
9.60740932402172
20
3.98430298623077
30
0
41
1
10
9.10850354257533
20
4.22617738383681
30
0
41
1
10
8.11270792464128
20
4.69796336615875
30
0
41
1
10
7.61529361421856
20
4.92807373580158
30
0
41
1
10
6.12320175389522
20
5.59905405698248
30
0
41
1
10
5.12864183273308
20
6.02053889652515
30
0
41
1
10
4.13125711681437
20
6.41156303988473
30
0
0
SPLINE
5
C5
100
AcDbEntity
8
1
62
256
6
ByLayer
370
18
48
1
60
0
100
AcDbSpline
70
4
71
3
72
34
73
30
40
0
40
0
40
0
40
0
40
0.0624999999999992
40
0.0624999999999992
40
0.124999999999999
40
0.124999999999999
40
0.187499999999998
40
0.187499999999998
40
0.249999999999997
40
0.249999999999997
40
0.312499999999996
40
0.312499999999996
40
0.374999999999995
40
0.374999999999995
40
0.437499999999995
40
0.437499999999995
40
0.499999999999995
40
0.499999999999995
40
0.624999999999994
40
0.624999999999994
40
0.687499999999994
40
0.687499999999994
40
0.749999999999994
40
0.749999999999994
40
0.874999999999993
40
0.874999999999993
40
0.937499999999997
40
0.937499999999997
40
1
40
1
40
1
40
1
41
1
10
101.269784707977
20
-2.91146556511086
30
0
41
1
10
101.264137127098
20
-2.96282650800745
30
0
41
1
10
101.255805853025
20
-3.01852235743257
30
0
41
1
10
101.234521270443
20
-3.13323142876217
30
0
41
1
10
101.221523572714
20
-3.19283621340301
30
0
41
1
10
101.19074871975
20
-3.31665847363459
30
0
41
1
10
101.173018883405
20
-3.38050835453794
30
0
41
1
10
101.134397699828
20
-3.50733630752964
30
0
41
1
10
101.113346412045
20
-3.5709761650956
30
0
41
1
10
101.0678598923
20
-3.69868729076131
30
0
41
1
10
101.044071503186
20
-3.76094947131023
30
0
41
1
10
100.994643136334
20
-3.88260109484088
30
0
41
1
10
100.968823931826
20
-3.94236993279341
30
0
41
1
10
100.916259190251
20
-4.05724490662038
30
0
41
1
10
100.889725049175
20
-4.11194180253193
30
0
41
1
10
100.836219061743
20
-4.21630438186386
30
0
41
1
10
100.809114446471
20
-4.26619261587845
30
0
41
1
10
100.728144686413
20
-4.40672989198868
30
0
41
1
10
100.674648992603
20
-4.48816075199153
30
0
41
1
10
100.598999848809
20
-4.58785288424147
30
0
41
1
10
100.57444494936
20
-4.61752411280131
30
0
41
1
10
100.526620981414
20
-4.66986337631482
30
0
41
1
10
100.503237059027
20
-4.6926256207062
30
0
41
1
10
100.435861331709
20
-4.74926499116881
30
0
41
1
10
100.39541173001
20
-4.77117838870993
30
0
41
1
10
100.341384325086
20
-4.77974524623821
30
0
41
1
10
100.324423025324
20
-4.77840562922219
30
0
41
1
10
100.293841507325
20
-4.76713555823389
30
0
41
1
10
100.280094251883
20
-4.75727215205546
30
0
41
1
10
100.267917967215
20
-4.74305241295619
30
0
0
SPLINE
5
C6
100
AcDbEntity
8
1
62
256
6
ByLayer
370
18
48
1
60
0
100
AcDbSpline
70
4
71
3
72
8
73
4
40
0
40
0
40
0
40
0
40
1
40
1
40
1
40
1
41
1
10
102.877957713908
20
-2.12711556188231
30
0
41
1
10
102.91979242663
20
-1.50024806395649
30
0
41
1
10
102.950216717606
20
-0.873961123160456
30
0
41
1
10
102.969212904165
20
-0.248255639180457
30
0
0
SPLINE
5
C7
100
AcDbEntity
8
1
62
256
6
ByLayer
370
18
48
1
60
0
100
AcDbSpline
70
4
71
3
72
10
73
6
40
0
40
0
40
0
40
0
40
0.5
40
0.5
40
1
40
1
40
1
40
1
41
1
10
102.969212904165
20
0.248255639180513
30
0
41
1
10
102.969981789336
20
0.222929731452979
30
0
41
1
10
102.973482931207
20
0.193862078735748
30
0
41
1
10
102.984223713224
20
0.131106882895409
30
0
41
1
10
102.991332408367
20
0.098304681748715
30
0
41
1
10
102.999958626917
20
0.0642641715686523
30
0
0
SPLINE
5
C8
100
AcDbEntity
8
1
62
256
6
ByLayer
370
18
48
1
60
0
100
AcDbSpline
70
4
71
3
72
70
73
66
40
0
40
0
40
0
40
0
40
0.0312500000000032
40
0.0312500000000032
40
0.0625000000000065
40
0.0625000000000065
40
0.0781250000000081
40
0.0781250000000081
40
0.0937500000000097
40
0.0937500000000097
40
0.125000000000013
40
0.125000000000013
40
0.140625000000014
40
0.140625000000014
40
0.156250000000016
40
0.156250000000016
40
0.171875000000017
40
0.171875000000017
40
0.187500000000019
40
0.187500000000019
40
0.218750000000022
40
0.218750000000022
40
0.234375000000024
40
0.234375000000024
40
0.250000000000025
40
0.250000000000025
40
0.265625000000027
40
0.265625000000027
40
0.281250000000028
40
0.281250000000028
40
0.312500000000032
40
0.312500000000032
40
0.328125000000033
40
0.328125000000033
40
0.332031250000034
40
0.332031250000034
40
0.333984375000034
40
0.333984375000034
40
0.335937500000034
40
0.335937500000034
40
0.339843750000033
40
0.339843750000033
40
0.343750000000033
40
0.343750000000033
40
0.347656250000033
40
0.347656250000033
40
0.351562500000032
40
0.359375000000033
40
0.375000000000032
40
0.375000000000032
40
0.43750000000003
40
0.43750000000003
40
0.500000000000027
40
0.500000000000027
40
0.562500000000025
40
0.562500000000025
40
0.593750000000023
40
0.593750000000023
40
0.625000000000021
40
0.625000000000021
40
0.750000000000014
40
0.750000000000014
40
0.875000000000007
40
0.875000000000007
40
1
40
1
40
1
40
1
41
1
10
3.99999996541143
20
-6.10709223622447
30
0
41
1
10
3.81872991754386
20
-5.97456585636809
30
0
41
1
10
3.64133554782347
20
-5.83414911016587
30
0
41
1
10
3.30197228316751
20
-5.53760274301044
30
0
41
1
10
3.13979955360901
20
-5.38144788703121
30
0
41
1
10
2.91130812655564
20
-5.13206791898719
30
0
41
1
10
2.8376204242868
20
-5.04640229097743
30
0
41
1
10
2.69603660359712
20
-4.86919193638334
30
0
41
1
10
2.62793364554352
20
-4.77734056444987
30
0
41
1
10
2.43553965107611
20
-4.49376387170358
30
0
41
1
10
2.32347385749441
20
-4.29506220883985
30
0
41
1
10
2.18753187491899
20
-3.97825394718052
30
0
41
1
10
2.147616577176
20
-3.86950413262147
30
0
41
1
10
2.08051171259251
20
-3.64465418908313
30
0
41
1
10
2.05386429743862
20
-3.53017606286113
30
0
41
1
10
2.01581469507775
20
-3.29843663044781
30
0
41
1
10
2.00433772805917
20
-3.18093704475532
30
0
41
1
10
1.99768562591203
20
-2.94248370289529
30
0
41
1
10
2.00267812912753
20
-2.82055067421484
30
0
41
1
10
2.04283910481715
20
-2.45883225655189
30
0
41
1
10
2.10241385740272
20
-2.22224723410889
30
0
41
1
10
2.23693655625334
20
-1.87396270388066
30
0
41
1
10
2.28907745716319
20
-1.75982194446561
30
0
41
1
10
2.40426073593167
20
-1.53923488266545
30
0
41
1
10
2.46756725776811
20
-1.4320885152853
30
0
41
1
10
2.60415854955733
20
-1.22331582468334
30
0
41
1
10
2.677440812801
20
-1.1216876504341
30
0
41
1
10
2.83293951333758
20
-0.92340076982569
30
0
41
1
10
2.91525283269885
20
-0.826666236406169
30
0
41
1
10
3.1710489601889
20
-0.546490978481074
30
0
41
1
10
3.35457570379538
20
-0.371466032306898
30
0
41
1
10
3.64362366181209
20
-0.123839488506178
30
0
41
1
10
3.7421417632348
20
-0.0439132606427677
30
0
41
1
10
3.86769361393661
20
0.0530935083859845
30
0
41
1
10
3.89291771143292
20
0.0723440780909357
30
0
41
1
10
3.93088929553065
20
0.1009780604723
30
0
41
1
10
3.94357054323149
20
0.110483547575711
30
0
41
1
10
3.96898040277822
20
0.129417385799883
30
0
41
1
10
3.98148727388735
20
0.139205176094549
30
0
41
1
10
4.01998029028698
20
0.16699176131155
30
0
41
1
10
4.04784759171167
20
0.181940767975533
30
0
41
1
10
4.10832724660128
20
0.204147178809649
30
0
41
1
10
4.14081263949916
20
0.212046700431785
30
0
41
1
10
4.20496542283266
20
0.221400697824976
30
0
41
1
10
4.2372092700175
20
0.222916540693234
30
0
41
1
10
4.3016487238132
20
0.22685888808013
30
0
41
1
10
4.39831702053471
20
0.232600298509027
30
0
41
1
10
4.62394001159862
20
0.244795579175303
30
0
41
1
10
4.81743964386928
20
0.253200398415999
30
0
41
1
10
5.46267720207723
20
0.276708871767994
30
0
41
1
10
5.97928898484585
20
0.281060567688854
30
0
41
1
10
7.00986311714868
20
0.261979861920338
30
0
41
1
10
7.52432517985829
20
0.238565262576373
30
0
41
1
10
8.55164782805787
20
0.164788901642566
30
0
41
1
10
9.06450591504674
20
0.114385069115997
30
0
41
1
10
9.83262078968602
20
0.0190307812933384
30
0
41
1
10
10.0887025513542
20
-0.0160767378568494
30
0
41
1
10
10.5988937053653
20
-0.0925296336329211
30
0
41
1
10
10.8530686961869
20
-0.133881708682168
30
0
41
1
10
12.1194503158622
20
-0.355798740700806
30
0
41
1
10
13.1181462474154
20
-0.581966437950825
30
0
41
1
10
15.0900590344101
20
-1.11714299739219
30
0
41
1
10
16.0631963158734
20
-1.42639715460817
30
0
41
1
10
17.9887171294196
20
-2.10821450393701
30
0
41
1
10
18.9410894535728
20
-2.48079221300094
30
0
41
1
10
19.8863378862739
20
-2.87242785744519
30
0
0
SPLINE
5
C9
100
AcDbEntity
8
1
62
256
6
ByLayer
370
18
48
1
60
0
100
AcDbSpline
70
4
71
3
72
14
73
10
40
0
40
0
40
0
40
0
40
0.25
40
0.25
40
0.5
40
0.5
40
0.75
40
0.75
40
1
40
1
40
1
40
1
41
1
10
99.637466386285
20
2.05590533555102
30
0
41
1
10
99.6359585782135
20
2.08130232018129
30
0
41
1
10
99.6412592895114
20
2.10704726374709
30
0
41
1
10
99.6666431096529
20
2.15171928415177
30
0
41
1
10
99.6866848218989
20
2.17036974819098
30
0
41
1
10
99.7317886906793
20
2.19678151025192
30
0
41
1
10
99.757221441362
20
2.20528892978939
30
0
41
1
10
99.8083631994365
20
2.21522812869591
30
0
41
1
10
99.8346253248266
20
2.21683547714701
30
0
41
1
10
99.8608087236449
20
2.21594994081681
30
0
0
SPLINE
5
CA
100
AcDbEntity
8
1
62
256
6
ByLayer
370
13
48
1
60
0
100
AcDbSpline
70
4
71
3
72
25
73
21
40
0
40
0
40
0
40
0
40
0.0804311801383356
40
0.0804311801383356
40
0.205077532130673
40
0.32972388412301
40
0.32972388412301
40
0.392047060119178
40
0.392047060119178
40
0.454370236115347
40
0.454370236115347
40
0.579016588107685
40
0.579016588107685
40
0.641339764103853
40
0.641339764103853
40
0.703662940100022
40
0.703662940100022
40
0.952955644084698
40
0.952955644084698
40
1
40
1
40
1
40
1
41
1
10
4.25029670128208
20
6.36525205717336
30
0
41
1
10
4.25031858306508
20
6.50769675674417
30
0
41
1
10
4.25033978770895
20
6.64484300526442
30
0
41
1
10
4.25039201167061
20
6.97892507567883
30
0
41
1
10
4.25045224794113
20
7.35711815942696
30
0
41
1
10
4.25050739988257
20
7.6805131621108
30
0
41
1
10
4.25054733419006
20
7.90220042643648
30
0
41
1
10
4.25056040691078
20
7.97261248598588
30
0
41
1
10
4.25058615050202
20
8.10632591993252
30
0
41
1
10
4.25059881167829
20
8.16956169423773
30
0
41
1
10
4.25063597345374
20
8.34683044791518
30
0
41
1
10
4.25065977132562
20
8.4490709380805
30
0
41
1
10
4.25069447399102
20
8.57845863196923
30
0
41
1
10
4.25070588256534
20
8.6175895262341
30
0
41
1
10
4.25072823746092
20
8.68718352537306
30
0
41
1
10
4.25073920962541
20
8.71775017547921
30
0
41
1
10
4.25079322560964
20
8.84980050124756
30
0
41
1
10
4.25083382423597
20
8.88963193295351
30
0
41
1
10
4.25088081375387
20
8.8576050735939
30
0
41
1
10
4.25088824416821
20
8.85009698924119
30
0
41
1
10
4.25089561880108
20
8.84017452638705
30
0
0
SPLINE
5
CB
100
AcDbEntity
8
1
62
256
6
ByLayer
370
18
48
1
60
0
100
AcDbSpline
70
4
71
3
72
62
73
58
40
0
40
0
40
0
40
0
40
0.0540263124539299
40
0.0540263124539299
40
0.10805262490786
40
0.10805262490786
40
0.135065781134824
40
0.135065781134824
40
0.162078937361788
40
0.162078937361788
40
0.216105249815717
40
0.216105249815717
40
0.270131562269646
40
0.270131562269646
40
0.297144718496611
40
0.297144718496611
40
0.324157874723576
40
0.324157874723576
40
0.378184187177506
40
0.378184187177506
40
0.405197343404471
40
0.405197343404471
40
0.432210499631436
40
0.432210499631436
40
0.486236812085366
40
0.486236812085366
40
0.513249968312331
40
0.513249968312331
40
0.540263124539296
40
0.540263124539296
40
0.567276280766261
40
0.567276280766261
40
0.594289436993226
40
0.594289436993226
40
0.648315749447156
40
0.648315749447156
40
0.675328905674122
40
0.675328905674122
40
0.702342061901087
40
0.702342061901087
40
0.756368374355017
40
0.756368374355017
40
0.783381530581982
40
0.783381530581982
40
0.810394686808947
40
0.810394686808947
40
0.864420999262877
40
0.864420999262877
40
0.891434155489842
40
0.891434155489842
40
0.918447311716808
40
0.918447311716808
40
0.945460467943773
40
0.945460467943773
40
0.972473624170738
40
0.972473624170738
40
1
40
1
40
1
40
1
41
1
10
99.687875901627
20
-9.38825159495138
30
0
41
1
10
98.6922956673129
20
-9.41430580276
30
0
41
1
10
97.6955741813679
20
-9.39355487384756
30
0
41
1
10
95.7068443286673
20
-9.25975881381427
30
0
41
1
10
94.7136868982439
20
-9.14683965779977
30
0
41
1
10
93.2208833702999
20
-8.91012120620155
30
0
41
1
10
92.7224022466419
20
-8.81991557755802
30
0
41
1
10
91.7271795447024
20
-8.61825212270651
30
0
41
1
10
91.2300923467959
20
-8.50672311503479
30
0
41
1
10
89.7391013368346
20
-8.14114741735648
30
0
41
1
10
88.745245013453
20
-7.85608736444547
30
0
41
1
10
86.7524360039806
20
-7.20935359677679
30
0
41
1
10
85.7587977861642
20
-6.84963470079663
30
0
41
1
10
84.2676205520146
20
-6.26191601092162
30
0
41
1
10
83.7704335509824
20
-6.05799609699611
30
0
41
1
10
82.7749426361245
20
-5.63527672969286
30
0
41
1
10
82.2763650894168
20
-5.4163383672101
30
0
41
1
10
80.7833938467614
20
-4.74149255657687
30
0
41
1
10
79.7900984076222
20
-4.26676466643153
30
0
41
1
10
78.2981646570306
20
-3.5256211169544
30
0
41
1
10
77.8003080703705
20
-3.27367502036373
30
0
41
1
10
76.8037889559872
20
-2.76209742643238
30
0
41
1
10
76.3062091265375
20
-2.50296641250702
30
0
41
1
10
74.8143359627907
20
-1.71768111603512
30
0
41
1
10
73.8208262811745
20
-1.18378342924729
30
0
41
1
10
72.3273526478238
20
-0.376146626271407
30
0
41
1
10
71.8287609394009
20
-0.105775065359694
30
0
41
1
10
70.8333580749415
20
0.433323442885751
30
0
41
1
10
70.3361460716529
20
0.702415819481899
30
0
41
1
10
69.3418797653101
20
1.23817285764824
30
0
41
1
10
68.8448017716715
20
1.50479357198432
30
0
41
1
10
67.8498457655513
20
2.03384794200684
30
0
41
1
10
67.3517572729854
20
2.29654039314659
30
0
41
1
10
65.8570050611969
20
3.07537058617749
30
0
41
1
10
64.8631118433021
20
3.58020995877507
30
0
41
1
10
63.3714296029281
20
4.30783582526496
30
0
41
1
10
62.8740302140242
20
4.54538497100134
30
0
41
1
10
61.8780386396303
20
5.00907259810205
30
0
41
1
10
61.3793683737709
20
5.23526093924008
30
0
41
1
10
59.886228568352
20
5.89228113793359
30
0
41
1
10
58.8926030399234
20
6.30232288800752
30
0
41
1
10
57.3999295096195
20
6.86853695795304
30
0
41
1
10
56.9016491739799
20
7.04924382071692
30
0
41
1
10
55.9050585676174
20
7.39264560780674
30
0
41
1
10
55.4074211962524
20
7.55513317661291
30
0
41
1
10
53.9152298700672
20
8.01371452369062
30
0
41
1
10
52.9213945263617
20
8.28091810517492
30
0
41
1
10
51.4270860355287
20
8.61912091347665
30
0
41
1
10
50.9283889581758
20
8.7213745346823
30
0
41
1
10
49.9328529503442
20
8.90363314735762
30
0
41
1
10
49.435555338631
20
8.98376779046711
30
0
41
1
10
48.4409608348486
20
9.12159039385642
30
0
41
1
10
47.9436673055458
20
9.17928428190154
30
0
41
1
10
46.9483156604527
20
9.27188692994139
30
0
41
1
10
46.4498685545363
20
9.30681176471774
30
0
41
1
10
45.443770375045
20
9.35385129331488
30
0
41
1
10
44.936654942483
20
9.3655207299168
30
0
41
1
10
44.4297613322402
20
9.36515392106926
30
0
0
SPLINE
5
CC
100
AcDbEntity
8
1
62
256
6
ByLayer
370
18
48
1
60
0
100
AcDbSpline
70
4
71
3
72
14
73
10
40
0
40
0
40
0
40
0
40
0.25
40
0.25
40
0.500000000000001
40
0.500000000000001
40
0.75
40
0.75
40
1
40
1
40
1
40
1
41
1
10
99.8480233987021
20
-8.92035088600466
30
0
41
1
10
99.8514864300743
20
-8.91970774961206
30
0
41
1
10
99.8543091694515
20
-8.92075915734145
30
0
41
1
10
99.8582626649778
20
-8.92732844695541
30
0
41
1
10
99.8593386843368
20
-8.93292991080264
30
0
41
1
10
99.8585459301008
20
-8.94976379587013
30
0
41
1
10
99.8565970165173
20
-8.96104003152718
30
0
41
1
10
99.8496825804896
20
-8.98671363491582
30
0
41
1
10
99.8448013361637
20
-9.00083432430901
30
0
41
1
10
99.839411712126
20
-9.0141939541559
30
0
0
SPLINE
5
CD
100
AcDbEntity
8
1
62
256
6
ByLayer
370
18
48
1
60
0
100
AcDbSpline
70
4
71
3
72
18
73
14
40
0
40
0
40
0
40
0
40
0.259436990761624
40
0.259436990761624
40
0.518873981523248
40
0.518873981523248
40
0.648592476904058
40
0.648592476904058
40
0.778310972284868
40
0.778310972284868
40
0.908029467665678
40
0.908029467665678
40
1
40
1
40
1
40
1
41
1
10
19.8863378862739
20
-8.68098416687204
30
0
41
1
10
20.6284376930051
20
-8.6004856340561
30
0
41
1
10
21.3695415470659
20
-8.49733726286942
30
0
41
1
10
22.8493874515471
20
-8.24434650843727
30
0
41
1
10
23.588059802135
20
-8.093496691821
30
0
41
1
10
24.6984846724219
20
-7.83706670187391
30
0
41
1
10
25.0688800211802
20
-7.74626146344661
30
0
41
1
10
25.8101835151927
20
-7.55336932082363
30
0
41
1
10
26.1813753199159
20
-7.45129621246895
30
0
41
1
10
26.922800209476
20
-7.2375001938878
30
0
41
1
10
27.2931285439164
20
-7.12609964956221
30
0
41
1
10
27.9258480367136
20
-6.92682101709238
30
0
41
1
10
28.1882449071452
20
-6.84161047248011
30
0
41
1
10
28.450577637166
20
-6.75410513972221
30
0
0
SPLINE
5
CE
100
AcDbEntity
8
1
62
256
6
ByLayer
370
18
48
1
60
0
100
AcDbSpline
70
4
71
3
72
36
73
32
40
0
40
0
40
0
40
0
40
0.0056892883187247
40
0.0056892883187247
40
0.060928772301019
40
0.060928772301019
40
0.116168256283313
40
0.116168256283313
40
0.226647224247902
40
0.226647224247902
40
0.281886708230195
40
0.281886708230195
40
0.337126192212487
40
0.337126192212487
40
0.447605160177073
40
0.447605160177073
40
0.558084128141658
40
0.558084128141658
40
0.613323612123951
40
0.613323612123951
40
0.668563096106244
40
0.668563096106244
40
0.779042064070829
40
0.779042064070829
40
0.834281548053122
40
0.834281548053122
40
0.889521032035415
40
0.889521032035415
40
0.944760516017707
40
0.944760516017707
40
1
40
1
40
1
40
1
41
1
10
70.84489850774
20
8.90946871378364
30
0
41
1
10
70.8830640972459
20
8.90924748872027
30
0
41
1
10
70.9212241938404
20
8.90896382072657
30
0
41
1
10
71.3298227557767
20
8.90525603837327
30
0
41
1
10
71.69987052105
20
8.89565700470018
30
0
41
1
10
72.439200700184
20
8.86353322730875
30
0
41
1
10
72.8084064265943
20
8.84119038639355
30
0
41
1
10
73.9169588418986
20
8.7576711523273
30
0
41
1
10
74.65657449599
20
8.67923620734948
30
0
41
1
10
75.7667324668587
20
8.52283201324829
30
0
41
1
10
76.1368647818409
20
8.4645542584386
30
0
41
1
10
76.8781467847143
20
8.33710619484191
30
0
41
1
10
77.2485991530842
20
8.26812614873029
30
0
41
1
10
78.3590362735097
20
8.04348904805164
30
0
41
1
10
79.0981079209404
20
7.87112058852105
30
0
41
1
10
80.5756958693437
20
7.48822492733103
30
0
41
1
10
81.3153755216908
20
7.27435023274668
30
0
41
1
10
82.4264446605455
20
6.92243785077392
30
0
41
1
10
82.7973381989382
20
6.79986556640475
30
0
41
1
10
83.5377974264264
20
6.5456456036718
30
0
41
1
10
83.9078375128065
20
6.41442836374003
30
0
41
1
10
85.0178852321802
20
6.00976593369671
30
0
41
1
10
85.7575157185244
20
5.72549282580792
30
0
41
1
10
86.8659547855697
20
5.27177015853761
30
0
41
1
10
87.2354389548113
20
5.11642661540765
30
0
41
1
10
87.9754773564982
20
4.79959747659893
30
0
41
1
10
88.3458741902896
20
4.63790765102709
30
0
41
1
10
89.0874055955787
20
4.30792589654385
30
0
41
1
10
89.4582990958054
20
4.13969553728509
30
0
41
1
10
90.1986346565927
20
3.79770177678162
30
0
41
1
10
90.5682980084237
20
3.62377843700534
30
0
41
1
10
90.9381783185048
20
3.44837166129753
30
0
0
SPLINE
5
CF
100
AcDbEntity
8
1
62
256
6
ByLayer
370
18
48
1
60
0
100
AcDbSpline
70
4
71
3
72
8
73
4
40
0
40
0
40
0
40
0
40
1
40
1
40
1
40
1
41
1
10
102.952545248801
20
-0.042618990251583
30
0
41
1
10
102.3761790072
20
-0.984883370794421
30
0
41
1
10
101.81517783604
20
-1.94109206050888
30
0
41
1
10
101.269784707977
20
-2.91146556511086
30
0
0
SPLINE
5
D0
100
AcDbEntity
8
1
62
256
6
ByLayer
370
18
48
1
60
0
100
AcDbSpline
70
4
71
3
72
8
73
4
40
0
40
0
40
0
40
0
40
1
40
1
40
1
40
1
41
1
10
100.267917967215
20
-4.74305241295599
30
0
41
1
10
99.8651342135172
20
-5.49992410110553
30
0
41
1
10
99.4715901239053
20
-6.26518108974273
30
0
41
1
10
99.0873798958582
20
-7.03890886619223
30
0
0
SPLINE
5
D1
100
AcDbEntity
8
1
62
256
6
ByLayer
370
13
48
1
60
0
100
AcDbSpline
70
4
71
3
72
24
73
20
40
0
40
0
40
0
40
0
40
0.0428557785326948
40
0.0428557785326948
40
0.102677292374401
40
0.102677292374401
40
0.162498806216108
40
0.162498806216108
40
0.282141833899521
40
0.282141833899521
40
0.521427889266347
40
0.521427889266347
40
0.641070916949761
40
0.641070916949761
40
0.700892430791467
40
0.700892430791467
40
0.760713944633174
40
0.760713944633174
40
1
40
1
40
1
40
1
41
1
10
4.25085200311861
20
-8.87074548286273
30
0
41
1
10
4.25085916029261
20
-8.87019829490418
30
0
41
1
10
4.25086627430491
20
-8.86751479184713
30
0
41
1
10
4.25088323648254
20
-8.855953803467
30
0
41
1
10
4.25089306749896
20
-8.84496446517548
30
0
41
1
10
4.25091250355445
20
-8.81452184302628
30
0
41
1
10
4.25092209736704
20
-8.79510863518379
30
0
41
1
10
4.25095054095738
20
-8.72437944665822
30
0
41
1
10
4.25096909048744
20
-8.6604639790942
30
0
41
1
10
4.25102327832636
20
-8.41919144043331
30
0
41
1
10
4.25105684298106
20
-8.19625097539054
30
0
41
1
10
4.25110258524177
20
-7.77198248296563
30
0
41
1
10
4.25111704339608
20
-7.61545591409921
30
0
41
1
10
4.25113723754811
20
-7.35724876457363
30
0
41
1
10
4.25114370524057
20
-7.26738358057693
30
0
41
1
10
4.25115592780009
20
-7.08204424881532
30
0
41
1
10
4.25116170294265
20
-6.98631935024039
30
0
41
1
10
4.25118877464701
20
-6.49268444749546
30
0
41
1
10
4.25120477545826
20
-6.05024499649366
30
0
41
1
10
4.25121266036862
20
-5.55957956385819
30
0
0
SPLINE
5
D2
100
AcDbEntity
8
1
62
256
6
ByLayer
370
18
48
1
60
0
100
AcDbSpline
70
4
71
3
72
18
73
14
40
0
40
0
40
0
40
0
40
0.0030859918768662
40
0.0030859918768662
40
0.131670278467126
40
0.131670278467126
40
0.388838851647644
40
0.388838851647644
40
0.903175998008681
40
0.903175998008681
40
0.96746814130381
40
0.96746814130381
40
1
40
1
40
1
40
1
41
1
10
44.5765113390887
20
-8.89494370684102
30
0
41
1
10
44.5644910335224
20
-8.89491037885207
30
0
41
1
10
44.5524703782608
20
-8.8948706276698
30
0
41
1
10
44.0395689123197
20
-8.89290045491313
30
0
41
1
10
43.5388659721837
20
-8.87978529555338
30
0
41
1
10
42.0414728852507
20
-8.80739035040594
30
0
41
1
10
41.0473386790102
20
-8.71524544007625
30
0
41
1
10
38.0682855251768
20
-8.31207518159331
30
0
41
1
10
36.0866298072201
20
-7.87450222399519
30
0
41
1
10
33.834800161186
20
-7.21101003227992
30
0
41
1
10
33.5840370783313
20
-7.13484241687704
30
0
41
1
10
33.2071073200781
20
-7.01704017311386
30
0
41
1
10
33.0805613795761
20
-6.97692697811243
30
0
41
1
10
32.9541091308094
20
-6.93628879414922
30
0
0
SPLINE
5
D3
100
AcDbEntity
8
1
62
256
6
ByLayer
370
13
48
1
60
0
100
AcDbSpline
70
4
71
3
72
24
73
20
40
0
40
0
40
0
40
0
40
0.0185240483133573
40
0.0185240483133573
40
0.0935202762129443
40
0.0935202762129443
40
0.243512732012116
40
0.243512732012116
40
0.54349764361046
40
0.54349764361046
40
0.580995757560254
40
0.580995757560254
40
0.618493871510047
40
0.618493871510047
40
0.693490099409636
40
0.693490099409636
40
0.843482555208815
40
0.843482555208815
40
1
40
1
40
1
40
1
41
1
10
32.9541091300628
20
-6.93628879390928
30
0
41
1
10
32.8306560117395
20
-6.89661444582566
30
0
41
1
10
32.7072921935885
20
-6.85643971630873
30
0
41
1
10
32.0849072339763
20
-6.65112486554784
30
0
41
1
10
31.587176758968
20
-6.47841901415046
30
0
41
1
10
30.0967205541639
20
-5.93820319241408
30
0
41
1
10
29.1070227034864
20
-5.54832779136882
30
0
41
1
10
26.1402145848717
20
-4.30494838103655
30
0
41
1
10
24.1659632415981
20
-3.37687025597055
30
0
41
1
10
21.9216886357398
20
-2.26796645635278
30
0
41
1
10
21.671997114603
20
-2.14386560288432
30
0
41
1
10
21.1718735433009
20
-1.89403914050283
30
0
41
1
10
20.9211880960353
20
-1.76818492456744
30
0
41
1
10
20.1698612177367
20
-1.38941538011582
30
0
41
1
10
19.6705718843704
20
-1.13563019813626
30
0
41
1
10
18.1762126830423
20
-0.373034844745376
30
0
41
1
10
17.1847210361524
20
0.137166803516124
30
0
41
1
10
15.1620850797543
20
1.17113456626137
30
0
41
1
10
14.1312071863687
20
1.69475256074514
30
0
41
1
10
13.0988329685989
20
2.20720305611834
30
0
0
SPLINE
5
D4
100
AcDbEntity
8
1
62
256
6
ByLayer
370
18
48
1
60
0
100
AcDbSpline
70
4
71
3
72
12
73
8
40
0
40
0
40
0
40
0
40
0.249999999999999
40
0.249999999999999
40
0.499999999999997
40
0.499999999999997
40
1
40
1
40
1
40
1
41
1
10
4.13125711681508
20
6.41156303988441
30
0
41
1
10
4.11135304330313
20
6.41936642123784
30
0
41
1
10
4.09333233616695
20
6.42890995445586
30
0
41
1
10
4.06095407502704
20
6.45133972280377
30
0
41
1
10
4.04679634459035
20
6.46418991837507
30
0
41
1
10
4.0124848210331
20
6.50556798641921
30
0
41
1
10
3.99999996541561
20
6.53755037412208
30
0
41
1
10
3.99999996541561
20
6.56970403659184
30
0
0
SPLINE
5
D5
100
AcDbEntity
8
1
62
256
6
ByLayer
370
18
48
1
60
0
100
AcDbSpline
70
4
71
3
72
18
73
14
40
0
40
0
40
0
40
0
40
0.249999999999999
40
0.249999999999999
40
0.499999999999998
40
0.499999999999998
40
0.624999999999999
40
0.624999999999999
40
0.749999999999999
40
0.749999999999999
40
0.875
40
0.875
40
1
40
1
40
1
40
1
41
1
10
3.99999996541567
20
-5.76670971889837
30
0
41
1
10
3.9999999654157
20
-5.7261622135226
30
0
41
1
10
4.00347123846822
20
-5.68609795454773
30
0
41
1
10
4.02230367403237
20
-5.6076440674417
30
0
41
1
10
4.03772577001487
20
-5.56937966235418
30
0
41
1
10
4.07648872828935
20
-5.52834969875477
30
0
41
1
10
4.09210333656929
20
-5.51798914551622
30
0
41
1
10
4.12539808357218
20
-5.5074894566564
30
0
41
1
10
4.14296920974758
20
-5.50722557533823
30
0
41
1
10
4.17641873099862
20
-5.51375581914644
30
0
41
1
10
4.19271711574521
20
-5.52047865847345
30
0
41
1
10
4.22309787492563
20
-5.53751204531198
30
0
41
1
10
4.23744271128334
20
-5.54790043715195
30
0
41
1
10
4.25121266036879
20
-5.55957955639079
30
0
0
SPLINE
5
D6
100
AcDbEntity
8
1
62
256
6
ByLayer
370
18
48
1
60
0
100
AcDbSpline
70
4
71
3
72
36
73
32
40
0
40
0
40
0
40
0
40
0.115200801790362
40
0.115200801790362
40
0.172801202685543
40
0.172801202685543
40
0.230401603580724
40
0.230401603580724
40
0.288002004475905
40
0.288002004475905
40
0.345602405371086
40
0.345602405371086
40
0.460803207161446
40
0.460803207161446
40
0.518403608056626
40
0.518403608056626
40
0.576004008951806
40
0.576004008951806
40
0.633604409846987
40
0.633604409846987
40
0.691204810742167
40
0.691204810742167
40
0.806405612532526
40
0.806405612532526
40
0.864006013427705
40
0.864006013427705
40
0.921606414322883
40
0.921606414322883
40
0.979206815218062
40
0.979206815218062
40
1
40
1
40
1
40
1
41
1
10
19.8863378862739
20
-2.87242785744519
30
0
41
1
10
20.7291641698296
20
-3.30986149891896
30
0
41
1
10
21.5702786932757
20
-3.72850447180906
30
0
41
1
10
22.8262522656743
20
-4.33576833586079
30
0
41
1
10
23.2436067411725
20
-4.5352741001831
30
0
41
1
10
24.0772022412556
20
-4.92583745588973
30
0
41
1
10
24.4941170058231
20
-5.11581369947203
30
0
41
1
10
25.3278053091877
20
-5.48599239896046
30
0
41
1
10
25.744521821753
20
-5.66628257584026
30
0
41
1
10
26.5773823703239
20
-6.01770533603852
30
0
41
1
10
26.9930522914051
20
-6.18949258728705
30
0
41
1
10
28.2421332410747
20
-6.68667480847975
30
0
41
1
10
29.0779775669015
20
-6.99373425480695
30
0
41
1
10
30.3337170396025
20
-7.42097801482257
30
0
41
1
10
30.7522879491576
20
-7.55814746520826
30
0
41
1
10
31.5928932854686
20
-7.81776987659475
30
0
41
1
10
32.0152954543989
20
-7.94077022954406
30
0
41
1
10
32.8593762279706
20
-8.1725196167987
30
0
41
1
10
33.2802250647048
20
-8.28099359557558
30
0
41
1
10
34.1189895876743
20
-8.48365991283544
30
0
41
1
10
34.5370327535195
20
-8.57766021347285
30
0
41
1
10
35.7914219892184
20
-8.83474598999501
30
0
41
1
10
36.6263465597293
20
-8.97470333408722
30
0
41
1
10
37.8739341067945
20
-9.13903957538002
30
0
41
1
10
38.2897712763693
20
-9.18576576509102
30
0
41
1
10
39.1225674074515
20
-9.26293717806286
30
0
41
1
10
39.5392545564308
20
-9.29350547959564
30
0
41
1
10
40.3727752275012
20
-9.33867905012889
30
0
41
1
10
40.7894713535837
20
-9.35329052322103
30
0
41
1
10
41.3568271856277
20
-9.36201226001589
30
0
41
1
10
41.5074585043096
20
-9.36325237311101
30
0
41
1
10
41.6582293420149
20
-9.36342307964009
30
0
0
SPLINE
5
D7
100
AcDbEntity
8
1
62
256
6
ByLayer
370
18
48
1
60
0
100
AcDbSpline
70
4
71
3
72
32
73
28
40
0
40
0
40
0
40
0
40
0.0591292379852726
40
0.0591292379852726
40
0.131503911986404
40
0.131503911986404
40
0.203878585987536
40
0.203878585987536
40
0.276253259988668
40
0.276253259988668
40
0.421002607990935
40
0.421002607990935
40
0.493377281992071
40
0.493377281992071
40
0.565751955993206
40
0.565751955993206
40
0.638126629994341
40
0.638126629994341
40
0.674313966994907
40
0.674313966994907
40
0.710501303995474
40
0.710501303995474
40
0.782875977996605
40
0.782875977996605
40
0.855250651997737
40
0.855250651997737
40
1
40
1
40
1
40
1
41
1
10
82.837935805349
20
6.77698539786647
30
0
41
1
10
83.1809741504458
20
6.90611867062833
30
0
41
1
10
83.5229663480984
20
7.03149319223499
30
0
41
1
10
84.2830009914893
20
7.29967731660469
30
0
41
1
10
84.7010154186403
20
7.44005410643126
30
0
41
1
10
85.5359876957032
20
7.70731620612042
30
0
41
1
10
85.9529412285284
20
7.83420274027432
30
0
41
1
10
86.7853998561081
20
8.07484573380134
30
0
41
1
10
87.2005422141676
20
8.18888759898064
30
0
41
1
10
88.4479682930757
20
8.50725565123997
30
0
41
1
10
89.2810525010802
20
8.68943663590426
30
0
41
1
10
90.5299664045556
20
8.91942709178713
30
0
41
1
10
90.9462013733175
20
8.98871530019386
30
0
41
1
10
91.7815370369925
20
9.11080180691883
30
0
41
1
10
92.2002184692705
20
9.16389042480924
30
0
41
1
10
93.0390734820403
20
9.25431081897818
30
0
41
1
10
93.459299619233
20
9.29162404253648
30
0
41
1
10
94.0904553560796
20
9.33547962795313
30
0
41
1
10
94.301185818056
20
9.34804817664241
30
0
41
1
10
94.7223926057019
20
9.36889048825952
30
0
41
1
10
94.9329320814825
20
9.37719611441563
30
0
41
1
10
95.5642941019555
20
9.39586835487407
30
0
41
1
10
95.9848156387404
20
9.40001102748823
30
0
41
1
10
96.82464564768
20
9.39182064688583
30
0
41
1
10
97.2437978717999
20
9.37945890805554
30
0
41
1
10
98.4998093929984
20
9.31729947385654
30
0
41
1
10
99.3391321863919
20
9.24343148430057
30
0
41
1
10
100.178725062336
20
9.13699958878487
30
0
0
SPLINE
5
D8
100
AcDbEntity
8
1
62
256
6
ByLayer
370
18
48
1
60
0
100
AcDbSpline
70
4
71
3
72
30
73
26
40
0
40
0
40
0
40
0
40
0.0624999999999995
40
0.0624999999999995
40
0.124999999999999
40
0.124999999999999
40
0.156249999999999
40
0.156249999999999
40
0.187499999999999
40
0.187499999999999
40
0.249999999999999
40
0.249999999999999
40
0.374999999999998
40
0.374999999999998
40
0.499999999999997
40
0.499999999999997
40
0.624999999999997
40
0.624999999999997
40
0.687499999999997
40
0.687499999999997
40
0.749999999999998
40
0.749999999999998
40
0.874999999999999
40
0.874999999999999
40
1
40
1
40
1
40
1
41
1
10
4.25121266332422
20
-5.55957955889747
30
0
41
1
10
4.51518444801286
20
-5.78346985263363
30
0
41
1
10
4.79335544564259
20
-5.9851317998646
30
0
41
1
10
5.36847825170304
20
-6.35744618542881
30
0
41
1
10
5.6655504056713
20
-6.52792328001161
30
0
41
1
10
6.1215657303849
20
-6.7654963064011
30
0
41
1
10
6.27532644733694
20
-6.84163329526586
30
0
41
1
10
6.58591585157626
20
-6.98841153480939
30
0
41
1
10
6.74287227194876
20
-7.05909587442844
30
0
41
1
10
7.21503816987823
20
-7.26248612668772
30
0
41
1
10
7.53241826907399
20
-7.38703191025107
30
0
41
1
10
8.4902980970075
20
-7.73345563419386
30
0
41
1
10
9.13637550442746
20
-7.92864291258775
30
0
41
1
10
10.4382068766969
20
-8.26344366082802
30
0
41
1
10
11.0942033747135
20
-8.40106053610759
30
0
41
1
10
12.4151489310765
20
-8.62396864367983
30
0
41
1
10
13.0800226313299
20
-8.71014446986905
30
0
41
1
10
14.0855618264908
20
-8.80027274642222
30
0
41
1
10
14.4224953527839
20
-8.82389392393205
30
0
41
1
10
15.0975936249666
20
-8.85905404463395
30
0
41
1
10
15.4355020666575
20
-8.87063145515179
30
0
41
1
10
16.4510707123259
20
-8.8878282110224
30
0
41
1
10
17.1304626794716
20
-8.87421293332474
30
0
41
1
10
18.4993827526634
20
-8.80645834279142
30
0
41
1
10
19.1888875740026
20
-8.7524195149478
30
0
41
1
10
19.8863378862739
20
-8.68098416687204
30
0
0
SPLINE
5
D9
100
AcDbEntity
8
1
62
256
6
ByLayer
370
18
48
1
60
0
100
AcDbSpline
70
4
71
3
72
12
73
8
40
0
40
0
40
0
40
0
40
0.25
40
0.25
40
0.5
40
0.5
40
1
40
1
40
1
40
1
41
1
10
99.8608087236449
20
2.21594994081681
30
0
41
1
10
100.112349376963
20
2.20744270351821
30
0
41
1
10
100.363881252171
20
2.1990223554543
30
0
41
1
10
100.866864394529
20
2.18297955017465
30
0
41
1
10
101.118285450952
20
2.17565613080541
30
0
41
1
10
101.8724779053
20
2.15438583730139
30
0
41
1
10
102.375284529693
20
2.1400902774746
30
0
41
1
10
102.877957713915
20
2.12711556188211
30
0
0
SPLINE
5
DA
100
AcDbEntity
8
1
62
256
6
ByLayer
370
18
48
1
60
0
100
AcDbSpline
70
4
71
3
72
10
73
6
40
0
40
0
40
0
40
0
40
0.5
40
0.5
40
1
40
1
40
1
40
1
41
1
10
100.178725062336
20
9.13699958878487
30
0
41
1
10
100.088547330244
20
9.20487877051892
30
0
41
1
10
100.002474449555
20
9.26028049716817
30
0
41
1
10
99.8384736331154
20
9.34471304115363
30
0
41
1
10
99.7603122355314
20
9.37366040608688
30
0
41
1
10
99.6878759016271
20
9.38825159495138
30
0
0
SPLINE
5
DB
100
AcDbEntity
8
1
62
256
6
ByLayer
370
18
48
1
60
0
100
AcDbSpline
70
4
71
3
72
20
73
16
40
0
40
0
40
0
40
0
40
0.124564030351287
40
0.124564030351287
40
0.249128060702574
40
0.249128060702574
40
0.498256121405142
40
0.498256121405142
40
0.74738418210771
40
0.74738418210771
40
0.871948212458997
40
0.871948212458997
40
0.996512242810284
40
0.996512242810284
40
1
40
1
40
1
40
1
41
1
10
99.8480233989742
20
-8.92035088599832
30
0
41
1
10
99.347491401052
20
-8.932008964869
30
0
41
1
10
98.8465408841708
20
-8.93241333059652
30
0
41
1
10
97.8461632196979
20
-8.91082552665353
30
0
41
1
10
97.3472522225604
20
-8.88887157005277
30
0
41
1
10
95.8532406501059
20
-8.79025231253257
30
0
41
1
10
94.8607673405211
20
-8.68086693185481
30
0
41
1
10
92.8770316522382
20
-8.37830058844651
30
0
41
1
10
91.8856055077497
20
-8.18508711499544
30
0
41
1
10
90.3948135758378
20
-7.83555717175963
30
0
41
1
10
89.8972583808671
20
-7.70907471123354
30
0
41
1
10
88.9001068681042
20
-7.43676053587285
30
0
41
1
10
88.4001348871249
20
-7.29080973087761
30
0
41
1
10
87.8855577658273
20
-7.13134682387241
30
0
41
1
10
87.8715432213495
20
-7.12699684479659
30
0
41
1
10
87.8575297038861
20
-7.12264020438784
30
0
0
SPLINE
5
DC
100
AcDbEntity
8
1
62
256
6
ByLayer
370
13
48
1
60
0
100
AcDbSpline
70
4
71
3
72
24
73
20
40
0
40
0
40
0
40
0
40
0.291929979490133
40
0.291929979490133
40
0.438923937057238
40
0.438923937057238
40
0.51242091584079
40
0.51242091584079
40
0.585917894624341
40
0.585917894624341
40
0.732911852191444
40
0.732911852191444
40
0.806408830974996
40
0.806408830974996
40
0.843157320366772
40
0.843157320366772
40
0.879905809758549
40
0.879905809758549
40
1
40
1
40
1
40
1
41
1
10
87.8575288606046
20
-7.12263994222138
30
0
41
1
10
85.8695911303247
20
-6.50461306744052
30
0
41
1
10
83.9023208879721
20
-5.75253448154402
30
0
41
1
10
80.9396402085949
20
-4.47721254703868
30
0
41
1
10
79.9466171362731
20
-4.02574171976019
30
0
41
1
10
78.4514554770983
20
-3.31902182935707
30
0
41
1
10
77.9521097106716
20
-3.07857238574465
30
0
41
1
10
76.9506021493129
20
-2.58947703873022
30
0
41
1
10
76.4502715199395
20
-2.34167069603481
30
0
41
1
10
74.9512445805162
20
-1.59126113394783
30
0
41
1
10
73.9535690157774
20
-1.0816772381437
30
0
41
1
10
72.4552584706684
20
-0.311677476645315
30
0
41
1
10
71.9554786522448
20
-0.0541554180944104
30
0
41
1
10
71.2046129991227
20
0.332079465124849
30
0
41
1
10
70.9539949847298
20
0.460892773905613
30
0
41
1
10
70.4538866082228
20
0.717660152880484
30
0
41
1
10
70.2042247067145
20
0.845693161131891
30
0
41
1
10
69.1400827511159
20
1.39010167895381
30
0
41
1
10
68.328727020134
20
1.80169959446266
30
0
41
1
10
67.5192188918027
20
2.20508709550165
30
0
0
SPLINE
5
DD
100
AcDbEntity
8
1
62
256
6
ByLayer
370
18
48
1
60
0
100
AcDbSpline
70
4
71
3
72
50
73
46
40
0
40
0
40
0
40
0
40
0.0624999999999948
40
0.0624999999999948
40
0.124999999999989
40
0.124999999999989
40
0.187499999999984
40
0.187499999999984
40
0.249999999999979
40
0.249999999999979
40
0.312499999999974
40
0.312499999999974
40
0.343749999999968
40
0.343749999999968
40
0.374999999999963
40
0.374999999999963
40
0.406249999999957
40
0.406249999999957
40
0.421874999999954
40
0.421874999999954
40
0.437499999999951
40
0.437499999999951
40
0.453124999999949
40
0.453124999999949
40
0.468749999999946
40
0.468749999999946
40
0.484374999999943
40
0.484374999999943
40
0.49999999999994
40
0.49999999999994
40
0.53124999999994
40
0.53124999999994
40
0.56249999999994
40
0.56249999999994
40
0.624999999999947
40
0.624999999999947
40
0.687499999999953
40
0.687499999999953
40
0.74999999999996
40
0.74999999999996
40
0.87499999999998
40
0.87499999999998
40
0.93749999999999
40
0.93749999999999
40
1
40
1
40
1
40
1
41
1
10
100.267917967215
20
-4.74305241295605
30
0
41
1
10
100.109250810223
20
-4.69617715910806
30
0
41
1
10
99.9507919838901
20
-4.64228163281555
30
0
41
1
10
99.6342858464896
20
-4.52062344565544
30
0
41
1
10
99.4757547145593
20
-4.45262886665492
30
0
41
1
10
99.161580886771
20
-4.30279056379763
30
0
41
1
10
99.006313752599
20
-4.22119534877407
30
0
41
1
10
98.699903305805
20
-4.04287622233022
30
0
41
1
10
98.5487404843776
20
-3.94622388112515
30
0
41
1
10
98.2517183375024
20
-3.73346273593245
30
0
41
1
10
98.1059843133422
20
-3.61756699812093
30
0
41
1
10
97.8980337343015
20
-3.42531100864204
30
0
41
1
10
97.8301460442636
20
-3.35774043048775
30
0
41
1
10
97.700957179799
20
-3.21586906037163
30
0
41
1
10
97.6394342669844
20
-3.14150748411382
30
0
41
1
10
97.525688459509
20
-2.98241133829382
30
0
41
1
10
97.4727761306547
20
-2.89666517871757
30
0
41
1
10
97.4095833311591
20
-2.76042943580265
30
0
41
1
10
97.3910620193773
20
-2.71319392200962
30
0
41
1
10
97.3625326260778
20
-2.61814901907186
30
0
41
1
10
97.3523633480597
20
-2.57018466891478
30
0
41
1
10
97.3430094201787
20
-2.47307071912937
30
0
41
1
10
97.3441274839772
20
-2.42577682599403
30
0
41
1
10
97.3589366864811
20
-2.33574626482672
30
0
41
1
10
97.3726212227219
20
-2.293693843108
30
0
41
1
10
97.4098543302011
20
-2.21828331217645
30
0
41
1
10
97.4335288037569
20
-2.18456509033891
30
0
41
1
10
97.4864057605628
20
-2.12603284957808
30
0
41
1
10
97.5160400283653
20
-2.1005674644974
30
0
41
1
10
97.6108356044454
20
-2.03381289375591
30
0
41
1
10
97.6799995598654
20
-2.00270234136894
30
0
41
1
10
97.8249170970037
20
-1.95527140674017
30
0
41
1
10
97.900629957326
20
-1.93939712498454
30
0
41
1
10
98.1286595898865
20
-1.90784453578618
30
0
41
1
10
98.2843065640974
20
-1.90708062359681
30
0
41
1
10
98.5995912912274
20
-1.92785574236794
30
0
41
1
10
98.7598414857308
20
-1.950072587454
30
0
41
1
10
99.0780740538637
20
-2.01022421308986
30
0
41
1
10
99.236733327588
20
-2.04826888061083
30
0
41
1
10
99.7116209659901
20
-2.18141231752281
30
0
41
1
10
100.026788240427
20
-2.29501323703454
30
0
41
1
10
100.497596869994
20
-2.4992820418731
30
0
41
1
10
100.654501908392
20
-2.57334557317739
30
0
41
1
10
100.964647663503
20
-2.73298901545113
30
0
41
1
10
101.118172939806
20
-2.81862982710524
30
0
41
1
10
101.269784707977
20
-2.91146556511083
30
0
0
SPLINE
5
DE
100
AcDbEntity
8
1
62
256
6
ByLayer
370
18
48
1
60
0
100
AcDbSpline
70
4
71
3
72
8
73
4
40
0
40
0
40
0
40
0
40
1
40
1
40
1
40
1
41
1
10
102.877957713908
20
2.1271155618825
30
0
41
1
10
102.919796128404
20
1.5001925951525
30
0
41
1
10
102.950218399067
20
0.873905738396729
30
0
41
1
10
102.969212904165
20
0.248255639180513
30
0
0
SPLINE
5
DF
100
AcDbEntity
8
1
62
256
6
ByLayer
370
18
48
1
60
0
100
AcDbSpline
70
4
71
3
72
8
73
4
40
0
40
0
40
0
40
0
40
1
40
1
40
1
40
1
41
1
10
102.999958626916
20
0.0642641715710681
30
0
41
1
10
103.000013793126
20
0.0214197606857169
30
0
41
1
10
103.000013788448
20
-0.0214233936172548
30
0
41
1
10
102.999958626916
20
-0.0642641715755587
30
0
0
SPLINE
5
E0
100
AcDbEntity
8
1
62
256
6
ByLayer
370
18
48
1
60
0
100
AcDbSpline
70
4
71
3
72
38
73
34
40
0
40
0
40
0
40
0
40
0.062499999999999
40
0.062499999999999
40
0.0937499999999986
40
0.0937499999999986
40
0.124999999999998
40
0.124999999999998
40
0.187499999999998
40
0.187499999999998
40
0.218749999999998
40
0.218749999999998
40
0.249999999999998
40
0.249999999999998
40
0.375000000000001
40
0.375000000000001
40
0.406250000000001
40
0.406250000000001
40
0.437500000000001
40
0.437500000000001
40
0.5
40
0.5
40
0.625
40
0.625
40
0.656249999999999
40
0.656249999999999
40
0.687499999999998
40
0.687499999999998
40
0.75
40
0.75
40
0.875
40
0.875
40
1
40
1
40
1
40
1
41
1
10
90.9381783185047
20
3.44837166129702
30
0
41
1
10
90.9098784608954
20
3.16504135609236
30
0
41
1
10
90.9029779156501
20
2.87504874099423
30
0
41
1
10
90.9256408219263
20
2.42978155999725
30
0
41
1
10
90.9388226345037
20
2.27885025723683
30
0
41
1
10
90.975871460757
20
1.97805566251534
30
0
41
1
10
90.9996525322475
20
1.82828033457545
30
0
41
1
10
91.0858715637656
20
1.38071446196659
30
0
41
1
10
91.1631326695376
20
1.08467779642339
30
0
41
1
10
91.3062290055489
20
0.643841663830756
30
0
41
1
10
91.3586095803365
20
0.497094100048486
30
0
41
1
10
91.4716180482551
20
0.206149431767301
30
0
41
1
10
91.5318258622704
20
0.0629630206069294
30
0
41
1
10
91.8497980786782
20
-0.642517561825287
30
0
41
1
10
92.1577158615678
20
-1.17385607309188
30
0
41
1
10
92.5930803675598
20
-1.80687980879526
30
0
41
1
10
92.6826181756181
20
-1.9317231354533
30
0
41
1
10
92.8646545631984
20
-2.17596565934417
30
0
41
1
10
92.9573761173924
20
-2.29569339155896
30
0
41
1
10
93.2402327888817
20
-2.64828346628266
30
0
41
1
10
93.4350421990447
20
-2.8745775811141
30
0
41
1
10
94.0356572563469
20
-3.53071450359647
30
0
41
1
10
94.4572845727859
20
-3.93832500164672
30
0
41
1
10
95.0074776696448
20
-4.41529560509849
30
0
41
1
10
95.1188365917503
20
-4.50919264722162
30
0
41
1
10
95.3424610204032
20
-4.69287074574248
30
0
41
1
10
95.4548258722601
20
-4.78274721337669
30
0
41
1
10
95.7934565088545
20
-5.04692153184129
30
0
41
1
10
96.0212602249369
20
-5.21575772718711
30
0
41
1
10
96.7102240577229
20
-5.70254706498497
30
0
41
1
10
97.1769081143971
20
-6.00088303978097
30
0
41
1
10
98.1229305357917
20
-6.55261574603642
30
0
41
1
10
98.6022653726055
20
-6.80602500615041
30
0
41
1
10
99.0873798958583
20
-7.03890886619226
30
0
0
SPLINE
5
E1
100
AcDbEntity
8
1
62
256
6
ByLayer
370
18
48
1
60
0
100
AcDbSpline
70
4
71
3
72
10
73
6
40
0
40
0
40
0
40
0
40
0.5
40
0.5
40
1
40
1
40
1
40
1
41
1
10
102.969212904165
20
-0.248255639180314
30
0
41
1
10
102.969981789336
20
-0.222929731453775
30
0
41
1
10
102.973482931207
20
-0.19386207873788
30
0
41
1
10
102.984223713223
20
-0.131106882900269
30
0
41
1
10
102.991332408366
20
-0.0983046817550246
30
0
41
1
10
102.999958626915
20
-0.0642641715765535
30
0
0
SPLINE
5
E2
100
AcDbEntity
8
1
62
256
6
ByLayer
370
18
48
1
60
0
100
AcDbSpline
70
4
71
3
72
22
73
18
40
0
40
0
40
0
40
0
40
0.0144265033978803
40
0.0144265033978803
40
0.0893652018629384
40
0.0893652018629384
40
0.239242598793054
40
0.239242598793054
40
0.538997392653287
40
0.538997392653287
40
0.688874789583402
40
0.688874789583402
40
0.76381348804846
40
0.76381348804846
40
0.838752186513519
40
0.838752186513519
40
1
40
1
40
1
40
1
41
1
10
19.8863378862739
20
-2.89386716685903
30
0
41
1
10
19.8863378862739
20
-2.91891873884822
30
0
41
1
10
19.8863378862739
20
-2.94402760141685
30
0
41
1
10
19.8863378862739
20
-3.09992041136493
30
0
41
1
10
19.8863378862739
20
-3.23219705858028
30
0
41
1
10
19.8863378862739
20
-3.63328348698437
30
0
41
1
10
19.8863378862739
20
-3.90669514645339
30
0
41
1
10
19.8863378862739
20
-4.73726230743188
30
0
41
1
10
19.8863378862739
20
-5.30697825391547
30
0
41
1
10
19.8863378862739
20
-6.18659274923667
30
0
41
1
10
19.8863378862739
20
-6.48399102273467
30
0
41
1
10
19.8863378862739
20
-6.93672211536611
30
0
41
1
10
19.8863378862739
20
-7.08880476224078
30
0
41
1
10
19.8863378862739
20
-7.39259793122486
30
0
41
1
10
19.8863378862739
20
-7.54463069621735
30
0
41
1
10
19.8863378862739
20
-8.02422690478167
30
0
41
1
10
19.8863378862739
20
-8.35228084542885
30
0
41
1
10
19.8863378862739
20
-8.68098416687226
30
0
0
SPLINE
5
E3
100
AcDbEntity
8
1
62
256
6
ByLayer
370
18
48
1
60
0
100
AcDbSpline
70
4
71
3
72
10
73
6
40
0
40
0
40
0
40
0
40
0.5
40
0.5
40
1
40
1
40
1
40
1
41
1
10
100.178725062335
20
-9.13699958878593
30
0
41
1
10
100.088547330243
20
-9.20487877051963
30
0
41
1
10
100.002474449554
20
-9.26028049716865
30
0
41
1
10
99.838473633115
20
-9.3447130411538
30
0
41
1
10
99.7603122355312
20
-9.37366040608691
30
0
41
1
10
99.687875901627
20
-9.38825159495138
30
0
0
SPLINE
5
E4
100
AcDbEntity
8
1
62
256
6
ByLayer
370
18
48
1
60
0
100
AcDbSpline
70
4
71
3
72
10
73
6
40
0
40
0
40
0
40
0
40
0.5
40
0.5
40
1
40
1
40
1
40
1
41
1
10
102.999958626913
20
0.0642641715673733
30
0
41
1
10
102.993720182683
20
0.0447839749117804
30
0
41
1
10
102.986484754438
20
0.0255357892061738
30
0
41
1
10
102.970155730998
20
-0.0113354797383067
30
0
41
1
10
102.961456219186
20
-0.0280510135322913
30
0
41
1
10
102.952545248801
20
-0.0426189902515262
30
0
0
SPLINE
5
E5
100
AcDbEntity
8
1
62
256
6
ByLayer
370
18
48
1
60
0
100
AcDbSpline
70
4
71
3
72
108
73
104
40
0
40
0
40
0
40
0
40
0.0125724024989468
40
0.0125724024989468
40
0.0302050381686077
40
0.0302050381686077
40
0.0478376738382686
40
0.0478376738382686
40
0.0831029451775914
40
0.0831029451775914
40
0.100735580847253
40
0.100735580847253
40
0.118368216516914
40
0.118368216516914
40
0.136000852186576
40
0.136000852186576
40
0.153633487856237
40
0.153633487856237
40
0.171266123525899
40
0.171266123525899
40
0.18889875919556
40
0.18889875919556
40
0.206531394865222
40
0.206531394865222
40
0.224164030534883
40
0.224164030534883
40
0.241796666204544
40
0.241796666204544
40
0.259429301874206
40
0.259429301874206
40
0.277061937543867
40
0.277061937543867
40
0.294694573213528
40
0.294694573213528
40
0.31232720888319
40
0.31232720888319
40
0.329959844552851
40
0.329959844552851
40
0.365225115892174
40
0.365225115892174
40
0.382857751561836
40
0.382857751561836
40
0.400490387231498
40
0.400490387231498
40
0.418123022901159
40
0.418123022901159
40
0.435755658570821
40
0.435755658570821
40
0.453388294240483
40
0.453388294240483
40
0.471020929910144
40
0.471020929910144
40
0.488653565579806
40
0.488653565579806
40
0.506286201249468
40
0.506286201249468
40
0.523918836919129
40
0.523918836919129
40
0.541551472588791
40
0.541551472588791
40
0.559184108258453
40
0.559184108258453
40
0.576816743928115
40
0.576816743928115
40
0.594449379597776
40
0.594449379597776
40
0.612082015267438
40
0.612082015267438
40
0.647347286606761
40
0.647347286606761
40
0.664979922276423
40
0.664979922276423
40
0.682612557946085
40
0.682612557946085
40
0.700245193615747
40
0.700245193615747
40
0.717877829285409
40
0.717877829285409
40
0.735510464955071
40
0.735510464955071
40
0.753143100624733
40
0.753143100624733
40
0.770775736294395
40
0.770775736294395
40
0.788408371964057
40
0.788408371964057
40
0.806041007633718
40
0.806041007633718
40
0.82367364330338
40
0.82367364330338
40
0.841306278973042
40
0.841306278973042
40
0.858938914642704
40
0.858938914642704
40
0.876571550312366
40
0.876571550312366
40
0.894204185982028
40
0.894204185982028
40
0.929469457321352
40
0.929469457321352
40
0.964734728660676
40
0.964734728660676
40
1
40
1
40
1
40
1
41
1
10
82.8536231137631
20
-6.77930947246412
30
0
41
1
10
82.5901018028134
20
-6.86784924982945
30
0
41
1
10
82.326454866333
20
-6.95406546641212
30
0
41
1
10
81.6924050573386
20
-7.1549908172135
30
0
41
1
10
81.3216084573732
20
-7.26743637875009
30
0
41
1
10
80.5802088196644
20
-7.48160285968916
30
0
41
1
10
80.2099700937918
20
-7.58296808117575
30
0
41
1
10
79.1007269852883
20
-7.87050034072206
30
0
41
1
10
78.3617744866448
20
-8.04285555216637
30
0
41
1
10
77.2528982578598
20
-8.26729593533597
30
0
41
1
10
76.8832083476607
20
-8.33617720421412
30
0
41
1
10
76.1438869476356
20
-8.46340474999272
30
0
41
1
10
75.7742468382531
20
-8.52169302903704
30
0
41
1
10
75.0336543087154
20
-8.62619022054577
30
0
41
1
10
74.6625893657476
20
-8.67241450573772
30
0
41
1
10
73.9216112352331
20
-8.75173157753969
30
0
41
1
10
73.5514673530886
20
-8.7851689777246
30
0
41
1
10
72.8119679150595
20
-8.84096026545981
30
0
41
1
10
72.4427483269642
20
-8.86333619623497
30
0
41
1
10
71.7038752704183
20
-8.89552545007945
30
0
41
1
10
71.3343052006466
20
-8.90515864030962
30
0
41
1
10
70.5948496197417
20
-8.91198140115756
30
0
41
1
10
70.2249937594104
20
-8.90952158584605
30
0
41
1
10
69.4851187611657
20
-8.89304597879951
30
0
41
1
10
69.1152622999488
20
-8.8788814328837
30
0
41
1
10
68.3742720899825
20
-8.83756896448944
30
0
41
1
10
68.0034753362438
20
-8.81026983103592
30
0
41
1
10
67.2628867820352
20
-8.74446687309711
30
0
41
1
10
66.8928559486354
20
-8.70593208093098
30
0
41
1
10
66.1533393037084
20
-8.61714311235622
30
0
41
1
10
65.7839793322429
20
-8.56673895283512
30
0
41
1
10
65.0452271794034
20
-8.45347617203677
30
0
41
1
10
64.6756403125275
20
-8.3909866565551
30
0
41
1
10
63.9360493693666
20
-8.25546046783859
30
0
41
1
10
63.5660551517225
20
-8.18234039679561
30
0
41
1
10
62.8255481697463
20
-8.0244437618471
30
0
41
1
10
62.4547970579121
20
-7.93936762379479
30
0
41
1
10
61.3432461582907
20
-7.66707755924924
30
0
41
1
10
60.6031638868255
20
-7.46695684379873
30
0
41
1
10
59.4937012444491
20
-7.13511458973474
30
0
41
1
10
59.1239626800287
20
-7.0190757242429
30
0
41
1
10
58.3849721018174
20
-6.77806102731626
30
0
41
1
10
58.0155548939444
20
-6.65312251317985
30
0
41
1
10
57.2757424312059
20
-6.39432677601448
30
0
41
1
10
56.9054780842744
20
-6.26041753356179
30
0
41
1
10
56.1641180037365
20
-5.98348903030833
30
0
41
1
10
55.792849905154
20
-5.84061858512524
30
0
41
1
10
55.0519298402817
20
-5.54764096189052
30
0
41
1
10
54.6820996562311
20
-5.39706969426805
30
0
41
1
10
53.9422543349079
20
-5.08949751194436
30
0
41
1
10
53.5723361307641
20
-4.93203316368729
30
0
41
1
10
52.8326081520797
20
-4.61123323481223
30
0
41
1
10
52.4628164904305
20
-4.44789640640016
30
0
41
1
10
51.7233715483183
20
-4.11471644889312
30
0
41
1
10
51.3538807993408
20
-3.94462346976277
30
0
41
1
10
50.6137208061376
20
-3.59941718498601
30
0
41
1
10
50.2431238141008
20
-3.42429253091967
30
0
41
1
10
49.5012096494363
20
-3.06980127208982
30
0
41
1
10
49.130196450394
20
-2.89044822167071
30
0
41
1
10
48.3894821764599
20
-2.52804096935481
30
0
41
1
10
48.0197259177487
20
-2.34454342036193
30
0
41
1
10
47.2802572118254
20
-1.97514633952267
30
0
41
1
10
46.9104932629215
20
-1.78944826508857
30
0
41
1
10
46.1708912737837
20
-1.4161639047189
30
0
41
1
10
45.8010716589053
20
-1.22854486544244
30
0
41
1
10
45.0611372099102
20
-0.851396525164205
30
0
41
1
10
44.6910858787463
20
-0.661740328589559
30
0
41
1
10
43.5805657969826
20
-0.09064470172396
30
0
41
1
10
42.8378607121508
20
0.2909629430888
30
0
41
1
10
41.7271419373521
20
0.858550634646548
30
0
41
1
10
41.3572047940789
20
1.04726569832727
30
0
41
1
10
40.6181440044955
20
1.42425733102704
30
0
41
1
10
40.2486441449451
20
1.61176402465634
30
0
41
1
10
39.5091773199778
20
1.98358791949642
30
0
41
1
10
39.1391982243617
20
2.16776931161357
30
0
41
1
10
38.3988535014801
20
2.53323097107923
30
0
41
1
10
38.028562367896
20
2.71475782414527
30
0
41
1
10
37.2877440063063
20
3.0751881134938
30
0
41
1
10
36.9169246233625
20
3.25409426710433
30
0
41
1
10
36.1759163086427
20
3.60488216088143
30
0
41
1
10
35.8056086490852
20
3.77697258901952
30
0
41
1
10
35.065445234243
20
4.11652324008492
30
0
41
1
10
34.6955924654714
20
4.28381054733808
30
0
41
1
10
33.9563658157325
20
4.61283087114268
30
0
41
1
10
33.5870888664151
20
4.77469522207971
30
0
41
1
10
32.847607002481
20
5.08986706993264
30
0
41
1
10
32.4775755190091
20
5.24380960789105
30
0
41
1
10
31.7370761828623
20
5.54531869645675
30
0
41
1
10
31.3665816083161
20
5.69270101854983
30
0
41
1
10
30.6250132302115
20
5.98001028725727
30
0
41
1
10
30.2544886557824
20
6.11951709711312
30
0
41
1
10
29.5138897574496
20
6.38864621303478
30
0
41
1
10
29.1436755902807
20
6.51913537695907
30
0
41
1
10
28.4033881465234
20
6.77131593834301
30
0
41
1
10
28.0333154277562
20
6.89297452703914
30
0
41
1
10
27.2931853706904
20
7.12608077035571
30
0
41
1
10
26.9232270410785
20
7.2373685778249
30
0
41
1
10
25.8126942110067
20
7.55762550724569
30
0
41
1
10
25.0699350457469
20
7.75127397270575
30
0
41
1
10
23.5882134038344
20
8.09347504373051
30
0
41
1
10
22.8491848350075
20
8.24438814934547
30
0
41
1
10
21.3691002294913
20
8.4974057042796
30
0
41
1
10
20.6281049957789
20
8.6005217230543
30
0
41
1
10
19.8863378862739
20
8.68098416687198
30
0
0
SPLINE
5
E6
100
AcDbEntity
8
1
62
256
6
ByLayer
370
18
48
1
60
0
100
AcDbSpline
70
4
71
3
72
48
73
44
40
0
40
0
40
0
40
0
40
0.124999999999985
40
0.124999999999985
40
0.18749999999998
40
0.218749999999977
40
0.218749999999977
40
0.249999999999974
40
0.249999999999974
40
0.374999999999974
40
0.374999999999974
40
0.499999999999973
40
0.499999999999973
40
0.56249999999997
40
0.56249999999997
40
0.593749999999968
40
0.593749999999968
40
0.624999999999967
40
0.624999999999967
40
0.74999999999997
40
0.74999999999997
40
0.812499999999972
40
0.812499999999972
40
0.843749999999973
40
0.843749999999973
40
0.859374999999974
40
0.859374999999974
40
0.867187499999972
40
0.867187499999972
40
0.871093749999973
40
0.871093749999973
40
0.874999999999974
40
0.874999999999974
40
0.878906249999974
40
0.878906249999974
40
0.882812499999975
40
0.890624999999977
40
0.890624999999977
40
0.90624999999998
40
0.90624999999998
40
0.937499999999987
40
0.937499999999987
40
1
40
1
40
1
40
1
41
1
10
90.9381783185049
20
3.44837166129739
30
0
41
1
10
91.3105540256206
20
3.10816003293826
30
0
41
1
10
91.6941061774106
20
2.790310703389
30
0
41
1
10
92.2859661700952
20
2.34661415717497
30
0
41
1
10
92.5860423604693
20
2.13306176281696
30
0
41
1
10
92.8924869359236
20
1.93225150016977
30
0
41
1
10
93.0982247047486
20
1.80126197561984
30
0
41
1
10
93.2019772840588
20
1.73711371904636
30
0
41
1
10
93.721294045175
20
1.42558885726194
30
0
41
1
10
94.1399176889739
20
1.2049013707711
30
0
41
1
10
94.9838492533993
20
0.823685498126196
30
0
41
1
10
95.4090769337727
20
0.662434942383783
30
0
41
1
10
96.0522838795313
20
0.46884842430606
30
0
41
1
10
96.2675872764196
20
0.41242940174655
30
0
41
1
10
96.5920144765423
20
0.341049945118982
30
0
41
1
10
96.7004024496169
20
0.319466972582632
30
0
41
1
10
96.9176990579595
20
0.280987034678162
30
0
41
1
10
97.0268310990768
20
0.264064413169933
30
0
41
1
10
97.5707550774298
20
0.192416852309265
30
0
41
1
10
97.9993680488894
20
0.17722298021539
30
0
41
1
10
98.6311008317583
20
0.226637840648209
30
0
41
1
10
98.8400560877745
20
0.255377317785445
30
0
41
1
10
99.1470650843997
20
0.318386723690338
30
0
41
1
10
99.2484970105809
20
0.342732083453768
30
0
41
1
10
99.3988497207923
20
0.384432050182085
30
0
41
1
10
99.4486259715861
20
0.399339653541915
30
0
41
1
10
99.5230979538271
20
0.422215943097768
30
0
41
1
10
99.5472636321039
20
0.431349349540994
30
0
41
1
10
99.5772906137991
20
0.457027965589702
30
0
41
1
10
99.5862580870286
20
0.467450253693528
30
0
41
1
10
99.6003597208806
20
0.491684922063854
30
0
41
1
10
99.605263771327
20
0.505905726835266
30
0
41
1
10
99.6104561690969
20
0.536161572912931
30
0
41
1
10
99.6117773978767
20
0.551960965070265
30
0
41
1
10
99.6150915389723
20
0.583177040875938
30
0
41
1
10
99.6199093026729
20
0.630057040753428
30
0
41
1
10
99.6242726109602
20
0.677102554560861
30
0
41
1
10
99.6324083609087
20
0.771408777450176
30
0
41
1
10
99.6370431634165
20
0.83455867851589
30
0
41
1
10
99.6486862856058
20
1.02454851678832
30
0
41
1
10
99.6534446777223
20
1.15202121411519
30
0
41
1
10
99.6596103438947
20
1.53663375793312
30
0
41
1
10
99.6528642156221
20
1.79654975681649
30
0
41
1
10
99.637466386285
20
2.05590533555102
30
0
0
SPLINE
5
E7
100
AcDbEntity
8
1
62
256
6
ByLayer
370
18
48
1
60
0
100
AcDbSpline
70
4
71
3
72
12
73
8
40
0
40
0
40
0
40
0
40
0.556036554322345
40
0.556036554322345
40
0.834054831483522
40
0.834054831483522
40
1
40
1
40
1
40
1
41
1
10
19.8863378862739
20
8.68098416687198
30
0
41
1
10
19.1882365492349
20
8.75248619522597
30
0
41
1
10
18.4976404145012
20
8.8066067795142
30
0
41
1
10
17.4686603558529
20
8.85744254338897
30
0
41
1
10
17.126835989179
20
8.86943948092522
30
0
41
1
10
16.5822623796013
20
8.87932203214294
30
0
41
1
10
16.3788742993682
20
8.88089781845912
30
0
41
1
10
16.1758234491536
20
8.88032360451433
30
0
0
SPLINE
5
E8
100
AcDbEntity
8
1
62
256
6
ByLayer
370
18
48
1
60
0
100
AcDbSpline
70
4
71
3
72
18
73
14
40
0
40
0
40
0
40
0
40
0.249999999999999
40
0.249999999999999
40
0.374999999999999
40
0.374999999999999
40
0.499999999999998
40
0.499999999999998
40
0.749999999999999
40
0.749999999999999
40
0.875
40
0.875
40
1
40
1
40
1
40
1
41
1
10
99.0873798958582
20
-7.03890886619226
30
0
41
1
10
99.0865000290379
20
-7.36689698839206
30
0
41
1
10
99.1011503996956
20
-7.65392314134732
30
0
41
1
10
99.147134725803
20
-8.0241573811486
30
0
41
1
10
99.1664959044486
20
-8.13745869224692
30
0
41
1
10
99.2138055612003
20
-8.34329960419237
30
0
41
1
10
99.2415048925109
20
-8.43461594112443
30
0
41
1
10
99.3362537569491
20
-8.67320054782357
30
0
41
1
10
99.4150575579122
20
-8.78626314157214
30
0
41
1
10
99.5586416802984
20
-8.88822016177235
30
0
41
1
10
99.6109703660115
20
-8.91088329077834
30
0
41
1
10
99.723555353281
20
-8.93286292252233
30
0
41
1
10
99.7837616904216
20
-8.93228524028032
30
0
41
1
10
99.8480233987494
20
-8.92035088599587
30
0
0
SPLINE
5
E9
100
AcDbEntity
8
1
62
256
6
ByLayer
370
18
48
1
60
0
100
AcDbSpline
70
4
71
3
72
106
73
102
40
0
40
0
40
0
40
0
40
0.021908982530461
40
0.021908982530461
40
0.0404601353042836
40
0.0404601353042836
40
0.0590112880781062
40
0.0590112880781062
40
0.0775624408519289
40
0.0775624408519289
40
0.0961135936257515
40
0.0961135936257515
40
0.133215899173397
40
0.133215899173397
40
0.15176705194722
40
0.15176705194722
40
0.170318204721043
40
0.170318204721043
40
0.188869357494866
40
0.188869357494866
40
0.207420510268689
40
0.207420510268689
40
0.225971663042513
40
0.225971663042513
40
0.235247239429424
40
0.235247239429424
40
0.244522815816336
40
0.244522815816336
40
0.281625121363982
40
0.281625121363982
40
0.300176274137806
40
0.300176274137806
40
0.318727426911629
40
0.318727426911629
40
0.337278579685453
40
0.337278579685453
40
0.355829732459277
40
0.355829732459277
40
0.392932038006924
40
0.392932038006924
40
0.411483190780747
40
0.411483190780747
40
0.43003434355457
40
0.43003434355457
40
0.448585496328394
40
0.448585496328394
40
0.467136649102217
40
0.467136649102217
40
0.48568780187604
40
0.48568780187604
40
0.504238954649863
40
0.504238954649863
40
0.54134126019751
40
0.54134126019751
40
0.559892412971333
40
0.559892412971333
40
0.578443565745156
40
0.578443565745156
40
0.596994718518979
40
0.596994718518979
40
0.615545871292802
40
0.615545871292802
40
0.652648176840448
40
0.652648176840448
40
0.67119932961427
40
0.67119932961427
40
0.689750482388093
40
0.689750482388093
40
0.708301635161916
40
0.708301635161916
40
0.72685278793574
40
0.72685278793574
40
0.745403940709563
40
0.745403940709563
40
0.763955093483386
40
0.763955093483386
40
0.78250624625721
40
0.78250624625721
40
0.801057399031033
40
0.801057399031033
40
0.819608551804856
40
0.819608551804856
40
0.838159704578679
40
0.838159704578679
40
0.856710857352503
40
0.856710857352503
40
0.875262010126326
40
0.875262010126326
40
0.912364315673973
40
0.912364315673973
40
0.930915468447796
40
0.930915468447796
40
0.94946662122162
40
0.94946662122162
40
0.968017773995444
40
0.968017773995444
40
0.977293350382356
40
0.977293350382356
40
0.986568926769267
40
0.986568926769267
40
1
40
1
40
1
40
1
41
1
10
28.4338523643699
20
6.7502865199055
30
0
41
1
10
28.9269071049432
20
6.93442755295354
30
0
41
1
10
29.4207928385774
20
7.11037125543137
30
0
41
1
10
30.3337170396025
20
7.42097801482254
30
0
41
1
10
30.7522879491576
20
7.55814746520826
30
0
41
1
10
31.5928932854685
20
7.81776987659475
30
0
41
1
10
32.0152954543988
20
7.94077022954403
30
0
41
1
10
32.8593762279706
20
8.1725196167987
30
0
41
1
10
33.2802250647049
20
8.28099359557558
30
0
41
1
10
34.1189895876743
20
8.48365991283544
30
0
41
1
10
34.5370327535195
20
8.57766021347283
30
0
41
1
10
35.7914219892184
20
8.83474598999501
30
0
41
1
10
36.6263465597293
20
8.97470333408725
30
0
41
1
10
37.8739341067945
20
9.13903957538
30
0
41
1
10
38.2897712763693
20
9.18576576509099
30
0
41
1
10
39.1225674074515
20
9.26293717806286
30
0
41
1
10
39.5392545564308
20
9.29350547959564
30
0
41
1
10
40.3727752275012
20
9.33867905012889
30
0
41
1
10
40.7894713535836
20
9.35329052322106
30
0
41
1
10
41.6232110809781
20
9.36610727427401
30
0
41
1
10
42.0411963302499
20
9.3642797862237
30
0
41
1
10
42.8791496809899
20
9.34431640938587
30
0
41
1
10
43.2990378808873
20
9.32617627853389
30
0
41
1
10
43.9300100065568
20
9.28647881849915
30
0
41
1
10
44.1405252214228
20
9.27116271578555
30
0
41
1
10
44.5618320172523
20
9.23624984041598
30
0
41
1
10
44.7726723895621
20
9.21662257622094
30
0
41
1
10
45.8253883160733
20
9.10874990272001
30
0
41
1
10
46.665109319419
20
8.99119746775071
30
0
41
1
10
47.9184842281572
20
8.76813970707047
30
0
41
1
10
48.3348317667627
20
8.68560196771017
30
0
41
1
10
49.1680955720097
20
8.50662706208578
30
0
41
1
10
49.5848136843563
20
8.41012102887581
30
0
41
1
10
50.417838704591
20
8.20280554837356
30
0
41
1
10
50.8341863679189
20
8.0920297692154
30
0
41
1
10
51.66605468438
20
7.85560604635737
30
0
41
1
10
52.0814866999177
20
7.72979652575583
30
0
41
1
10
53.3311390494512
20
7.33473392505229
30
0
41
1
10
54.1670534313284
20
7.04652954264142
30
0
41
1
10
55.4222348162763
20
6.57220839336864
30
0
41
1
10
55.8413779210071
20
6.40770792553454
30
0
41
1
10
56.6830316677547
20
6.06857806012025
30
0
41
1
10
57.1059663900049
20
5.89313834578491
30
0
41
1
10
57.948571141453
20
5.53269584506916
30
0
41
1
10
58.3684936794335
20
5.347479397705
30
0
41
1
10
59.2056191014892
20
4.96709027649746
30
0
41
1
10
59.6238172584597
20
4.77353852395785
30
0
41
1
10
60.4595202557544
20
4.37994447355228
30
0
41
1
10
60.8769102491575
20
4.17971229717014
30
0
41
1
10
61.710415376957
20
3.77180265757968
30
0
41
1
10
62.1261601059075
20
3.56347141777951
30
0
41
1
10
63.3732899224588
20
2.9303525720546
30
0
41
1
10
64.2064521600456
20
2.50090710529258
30
0
41
1
10
65.4561613198181
20
1.84101823411052
30
0
41
1
10
65.872278579585
20
1.61756133176365
30
0
41
1
10
66.7068165527676
20
1.16959951508679
30
0
41
1
10
67.125196013483
20
0.945044616320047
30
0
41
1
10
67.9636209737616
20
0.493735859262415
30
0
41
1
10
68.383682361401
20
0.267012211015924
30
0
41
1
10
69.2251173944171
20
-0.18947091631486
30
0
41
1
10
69.6468216511677
20
-0.420023010398751
30
0
41
1
10
70.9089926398169
20
-1.10253373228807
30
0
41
1
10
71.7477300839945
20
-1.54980471764591
30
0
41
1
10
72.9988670279068
20
-2.21499431415637
30
0
41
1
10
73.4150820505432
20
-2.43510142048177
30
0
41
1
10
74.2482168518142
20
-2.8678224924887
30
0
41
1
10
74.664747651744
20
-3.08116805905127
30
0
41
1
10
75.4972350350106
20
-3.50276524531716
30
0
41
1
10
75.9132045616356
20
-3.71099303371838
30
0
41
1
10
76.744210908886
20
-4.12285433480602
30
0
41
1
10
77.1601767863465
20
-4.32488613300029
30
0
41
1
10
77.9936809743359
20
-4.72014941469769
30
0
41
1
10
78.4110134501118
20
-4.91373227912243
30
0
41
1
10
79.2464457712614
20
-5.29339316250565
30
0
41
1
10
79.6643096629452
20
-5.47983813256505
30
0
41
1
10
80.5014400104315
20
-5.84402889670733
30
0
41
1
10
80.921465728299
20
-6.02060670902
30
0
41
1
10
81.7640644126205
20
-6.36332855328624
30
0
41
1
10
82.1867348836391
20
-6.52959224229372
30
0
41
1
10
83.0277434073708
20
-6.84970853147072
30
0
41
1
10
83.4464135666123
20
-7.00448094897814
30
0
41
1
10
84.2830009914893
20
-7.29967731660469
30
0
41
1
10
84.7010154186403
20
-7.44005410643126
30
0
41
1
10
85.5359876957033
20
-7.7073162061204
30
0
41
1
10
85.9529412285283
20
-7.83420274027432
30
0
41
1
10
86.7853998561081
20
-8.07484573380134
30
0
41
1
10
87.2005422141676
20
-8.18888759898064
30
0
41
1
10
88.4479682930757
20
-8.50725565123994
30
0
41
1
10
89.2810525010802
20
-8.68943663590426
30
0
41
1
10
90.5299664045556
20
-8.91942709178713
30
0
41
1
10
90.9462013733175
20
-8.98871530019386
30
0
41
1
10
91.7815370369925
20
-9.1108018069188
30
0
41
1
10
92.2002184692706
20
-9.16389042480924
30
0
41
1
10
93.0390734820404
20
-9.25431081897818
30
0
41
1
10
93.459299619233
20
-9.29162404253648
30
0
41
1
10
94.0904553560797
20
-9.33547962795313
30
0
41
1
10
94.301185818056
20
-9.34804817664238
30
0
41
1
10
94.7223926057019
20
-9.36889048825952
30
0
41
1
10
94.9329320814825
20
-9.37719611441563
30
0
41
1
10
95.448124366496
20
-9.39243268854611
30
0
41
1
10
95.7526600616234
20
-9.39709162016936
30
0
41
1
10
96.0569096611716
20
-9.39742265349375
30
0
0
SPLINE
5
EA
100
AcDbEntity
8
1
62
256
6
ByLayer
370
18
48
1
60
0
100
AcDbSpline
70
4
71
1
72
4
73
2
40
0
40
0
40
1
40
1
41
1
10
17.2239644033083
20
0.0047922881036015
30
0
41
1
10
17.2239539199366
20
0.0047973437866915
30
0
0
SPLINE
5
EB
100
AcDbEntity
8
1
62
256
6
ByLayer
370
18
48
1
60
0
100
AcDbSpline
70
4
71
2
72
6
73
3
40
0
40
0
40
0
40
1
40
1
40
1
41
1
10
71.6330199687138
20
0.0002053316715092
30
0
41
1
10
71.6330081123499
20
0.0002115104622646
30
0
41
1
10
71.6329962560116
20
0.0002179497047905
30
0
0
SPLINE
5
EC
100
AcDbEntity
8
1
62
256
6
ByLayer
370
18
48
1
60
0
100
AcDbSpline
70
4
71
3
72
38
73
34
40
0
40
0
40
0
40
0
40
0.0402455223898545
40
0.0771434678339602
40
0.105926252914464
40
0.128352566662105
40
0.14902569764979
40
0.168353791080473
40
0.189390925016131
40
0.212932999015947
40
0.23941580108117
40
0.26632358639985
40
0.287522951551714
40
0.301037319348381
40
0.319587642760827
40
0.342621770972144
40
0.360652594516354
40
0.373504791941686
40
0.39375383627654
40
0.416921032941172
40
0.443367203925689
40
0.474954343594604
40
0.511946322073124
40
0.551028112402755
40
0.628614829580367
40
0.727838619001733
40
0.80527911744277
40
0.899483406234881
40
0.928373379823849
40
0.951931061789116
40
0.972593645062089
40
0.993371741236845
40
1
40
1
40
1
40
1
41
1
10
44.6319895788818
20
-8.89502627003171
30
0
41
1
10
44.9814204585901
20
-8.89517877016658
30
0
41
1
10
45.6519697524828
20
-8.89550821021643
30
0
41
1
10
46.5736202335794
20
-8.89543510392832
30
0
41
1
10
47.3432110495584
20
-8.89636617697064
30
0
41
1
10
47.9603730845005
20
-8.89747847504452
30
0
41
1
10
48.5023789837074
20
-8.89753940100036
30
0
41
1
10
49.0344666993805
20
-8.89772996010967
30
0
41
1
10
49.5902123513926
20
-8.89824292391503
30
0
41
1
10
50.2089299321416
20
-8.8985568508979
30
0
41
1
10
50.8789591375609
20
-8.89948150734895
30
0
41
1
10
51.528654952455
20
-8.8998667522095
30
0
41
1
10
52.065407850988
20
-8.89998555202953
30
0
41
1
10
52.5293518549211
20
-8.90003059872845
30
0
41
1
10
53.0092790115387
20
-8.90018526133207
30
0
41
1
10
53.5285590972875
20
-8.90077525146839
30
0
41
1
10
53.9982010573789
20
-8.90157553708761
30
0
41
1
10
54.4435853522697
20
-8.90177893423203
30
0
41
1
10
54.9337103522681
20
-8.90186091140879
30
0
41
1
10
55.5422382821716
20
-8.90164078536606
30
0
41
1
10
56.2495242225886
20
-8.90218531308528
30
0
41
1
10
57.0772410316274
20
-8.90348050683934
30
0
41
1
10
58.0150187519434
20
-8.90343075127228
30
0
41
1
10
59.3534496917719
20
-8.90358890353474
30
0
41
1
10
61.2339893864697
20
-8.90557240999925
30
0
41
1
10
63.448622536483
20
-8.90591401827101
30
0
41
1
10
65.8080257660685
20
-8.90811548199449
30
0
41
1
10
67.5547571424406
20
-8.90831602544955
30
0
41
1
10
68.8321565335833
20
-8.9099148414378
30
0
41
1
10
69.4689992390892
20
-8.90967230880253
30
0
41
1
10
70.0351093538208
20
-8.90957868335016
30
0
41
1
10
70.4531288768815
20
-8.90990566743676
30
0
41
1
10
70.6893989150184
20
-8.90986243329965
30
0
41
1
10
70.7464663753872
20
-8.90984810470863
30
0
0
SPLINE
5
ED
100
AcDbEntity
8
1
62
256
6
ByLayer
370
18
48
1
60
0
100
AcDbSpline
70
4
71
3
72
26
73
22
40
0
40
0
40
0
40
0
40
0.007182737175373
40
0.0558470202724408
40
0.110230498019033
40
0.179138851611507
40
0.237030523811845
40
0.297069864866645
40
0.362483570837003
40
0.443401352047761
40
0.515130172585101
40
0.590106667424948
40
0.673378030778301
40
0.704210858634481
40
0.732690418995466
40
0.7588060436912
40
0.782593497674127
40
0.815357985141833
40
0.865908767049537
40
0.934373551974114
40
1
40
1
40
1
40
1
41
1
10
16.2337704111643
20
8.88043443520436
30
0
41
1
10
16.2050800069924
20
8.88042183141511
30
0
41
1
10
15.9820072755832
20
8.88031289485258
30
0
41
1
10
15.5417087526666
20
8.87961298263997
30
0
41
1
10
14.8548638096181
20
8.87908502954548
30
0
41
1
10
14.131145310954
20
8.87909325011839
30
0
41
1
10
13.384851436002
20
8.87904329743182
30
0
41
1
10
12.6525041524199
20
8.87799915108496
30
0
41
1
10
11.8281890485853
20
8.877399409915
30
0
41
1
10
10.9571666821661
20
8.87730631110279
30
0
41
1
10
10.0479927686107
20
8.87648037846154
30
0
41
1
10
9.12939065134498
20
8.87496403331437
30
0
41
1
10
8.37413154132395
20
8.87474666262005
30
0
41
1
10
7.80460143836928
20
8.87474456889817
30
0
41
1
10
7.46337108454748
20
8.8747664073922
30
0
41
1
10
7.15028251043819
20
8.87477793911845
30
0
41
1
10
6.82007786304641
20
8.87476135831369
30
0
41
1
10
6.39227318185047
20
8.87466531479294
30
0
41
1
10
5.78601299431739
20
8.87427193943512
30
0
41
1
10
5.04848240201892
20
8.87319974507841
30
0
41
1
10
4.51288238496258
20
8.87159084729538
30
0
41
1
10
4.25075219460166
20
8.87063245130571
30
0
0
SPLINE
5
EE
100
AcDbEntity
8
1
62
256
6
ByLayer
370
18
48
1
60
0
100
AcDbSpline
70
4
71
2
72
6
73
3
40
0
40
0
40
0
40
1
40
1
40
1
41
1
10
71.6329962570169
20
-0.0002179491588095
30
0
41
1
10
71.6330081128497
20
-0.0002115102018934
30
0
41
1
10
71.6330199687081
20
-0.0002053316745219
30
0
0
SPLINE
5
EF
100
AcDbEntity
8
1
62
256
6
ByLayer
370
18
48
1
60
0
100
AcDbSpline
70
4
71
2
72
6
73
3
40
0
40
0
40
0
40
1
40
1
40
1
41
1
10
99.0582997845762
20
-8.92942904813501
30
0
41
1
10
99.4072622375472
20
-8.92903564444106
30
0
41
1
10
99.756199249104
20
-8.92984490852595
30
0
0
SPLINE
5
F0
100
AcDbEntity
8
1
62
256
6
ByLayer
370
18
48
1
60
0
100
AcDbSpline
70
4
71
3
72
35
73
31
40
0
40
0
40
0
40
0
40
0.0046581742864619
40
0.0514969652705514
40
0.0962504750150854
40
0.144832782970081
40
0.191450209996423
40
0.241401249847853
40
0.276805027287013
40
0.305344592147282
40
0.332868852479233
40
0.367577083050736
40
0.406503473477771
40
0.441996455632516
40
0.474570203082396
40
0.517900314639614
40
0.564729770885753
40
0.609471214852981
40
0.654217309059802
40
0.694952124808256
40
0.740964610033123
40
0.783401606272695
40
0.813291893533325
40
0.832634503468882
40
0.863464045295802
40
0.894722238076361
40
0.92088138149424
40
0.948990248216899
40
0.980337236605863
40
1
40
1
40
1
40
1
41
1
10
70.8478419651636
20
8.90938708069135
30
0
41
1
10
70.8155390056302
20
8.90943390787285
30
0
41
1
10
70.4582548721321
20
8.90992756285613
30
0
41
1
10
69.7838157106669
20
8.90940024754642
30
0
41
1
10
68.8015586986421
20
8.9100617007922
30
0
41
1
10
67.8188827099807
20
8.90844777206951
30
0
41
1
10
66.8008673198704
20
8.90774892224303
30
0
41
1
10
65.8745824753054
20
8.90805557321042
30
0
41
1
10
65.0753271339871
20
8.90714158888943
30
0
41
1
10
64.4334310189207
20
8.9064417697644
30
0
41
1
10
63.7964299194923
20
8.90624375670765
30
0
41
1
10
63.086522043864
20
8.90649402456725
30
0
41
1
10
62.320694336598
20
8.90572486215527
30
0
41
1
10
61.5698450958265
20
8.90472092251386
30
0
41
1
10
60.7880915605327
20
8.90528188625328
30
0
41
1
10
59.9267813300135
20
8.90523124664611
30
0
41
1
10
58.9800827445762
20
8.90320909641278
30
0
41
1
10
58.023447189257
20
8.9035058163042
30
0
41
1
10
57.1095978580515
20
8.90349843465663
30
0
41
1
10
56.1868138594937
20
8.9020452511036
30
0
41
1
10
55.2802348422167
20
8.90165173957021
30
0
41
1
10
54.4497523872153
20
8.90194044604951
30
0
41
1
10
53.8065000353396
20
8.90127310695783
30
0
41
1
10
53.2445187596703
20
8.90039876176598
30
0
41
1
10
52.6743473108733
20
8.89992612099707
30
0
41
1
10
52.0545105158912
20
8.89979170240585
30
0
41
1
10
51.4553976887536
20
8.89982978265405
30
0
41
1
10
50.854579860263
20
8.89943557169227
30
0
41
1
10
50.2993516080629
20
8.89867737603589
30
0
41
1
10
49.9413801456898
20
8.89845724024576
30
0
41
1
10
49.803391953075
20
8.89838540343928
30
0
0
SPLINE
5
F1
100
AcDbEntity
8
1
62
256
6
ByLayer
370
18
48
1
60
0
100
AcDbSpline
70
4
71
3
72
24
73
20
40
0
40
0
40
0
40
0
40
0.06169156037537
40
0.127961254487553
40
0.178056298700735
40
0.212090784271529
40
0.234835167195065
40
0.259012852766634
40
0.324435932966673
40
0.398004261092756
40
0.477653249525911
40
0.552424583252038
40
0.636872763190903
40
0.703358896966628
40
0.764279437541602
40
0.82346713116787
40
0.894360461991388
40
0.968270618428117
40
1
40
1
40
1
40
1
41
1
10
4.25075097648181
20
-8.87064158355886
30
0
41
1
10
4.49741297766474
20
-8.87154435204624
30
0
41
1
10
5.00904437647804
20
-8.87309857742076
30
0
41
1
10
5.72098790581549
20
-8.87419679744951
30
0
41
1
10
6.32234065051449
20
-8.87463493779887
30
0
41
1
10
6.74966215351969
20
-8.87475093876066
30
0
41
1
10
7.07335922676617
20
-8.87477690513549
30
0
41
1
10
7.52256007600033
20
-8.87476830689752
30
0
41
1
10
8.1749746147562
20
-8.87471160587134
30
0
41
1
10
9.04918648571015
20
-8.87491324838047
30
0
41
1
10
9.96077429332433
20
-8.87632952062756
30
0
41
1
10
10.9158254954888
20
-8.87731756524025
30
0
41
1
10
11.8182986626884
20
-8.87738385733658
30
0
41
1
10
12.665374249628
20
-8.87801924123593
30
0
41
1
10
13.4114549372274
20
-8.87906403192386
30
0
41
1
10
14.1751457631229
20
-8.87909484633235
30
0
41
1
10
14.9907900596502
20
-8.87905510877729
30
0
41
1
10
15.6966271305876
20
-8.87994412484787
30
0
41
1
10
16.1190160028988
20
-8.88032094900177
30
0
41
1
10
16.2458827737861
20
-8.8804408640693
30
0
0
LINE
5
7B
100
AcDbEntity
8
SK1
62
256
6
ByLayer
370
18
48
1
60
0
100
AcDbLine
10
-46.745
20
10
30
0
11
-46.745
21
-10
31
0
39
0
210
0
220
0
230
1
0
LINE
5
7D
100
AcDbEntity
8
SK1
62
256
6
ByLayer
370
18
48
1
60
0
100
AcDbLine
10
0
20
-10
30
0
11
0
21
10
31
0
39
0
210
0
220
0
230
1
0
LINE
5
7E
100
AcDbEntity
8
SK1
62
256
6
ByLayer
370
18
48
1
60
0
100
AcDbLine
10
-50
20
6.405583
30
0
11
-50
21
-6.68814
31
0
39
0
210
0
220
0
230
1
0
LINE
5
7F
100
AcDbEntity
8
SK1
62
256
6
ByLayer
370
13
48
1
60
0
100
AcDbLine
10
-47.7
20
9.021382
30
0
11
-47.7
21
8.738606
31
0
39
0
210
0
220
0
230
1
0
LINE
5
80
100
AcDbEntity
8
SK1
62
256
6
ByLayer
370
18
48
1
60
0
100
AcDbLine
10
-47.6
20
-9.128889
30
0
11
-47.6
21
-9.145
31
0
39
0
210
0
220
0
230
1
0
LINE
5
81
100
AcDbEntity
8
SK1
62
256
6
ByLayer
370
18
48
1
60
0
100
AcDbLine
10
-50
20
6.68814
30
0
11
-50
21
6.405577
31
0
39
0
210
0
220
0
230
1
0
LINE
5
82
100
AcDbEntity
8
SK1
62
256
6
ByLayer
370
18
48
1
60
0
100
AcDbLine
10
-47.6
20
9.145
30
0
11
-47.6
21
8.865169
31
0
39
0
210
0
220
0
230
1
0
LINE
5
83
100
AcDbEntity
8
1
62
256
6
ByLayer
370
13
48
1
60
0
100
AcDbLine
10
99.637466
20
2.055905
30
0
11
102.952545
21
-0.042619
31
0
39
0
210
0
220
0
230
1
0
LINE
5
84
100
AcDbEntity
8
1
62
256
6
ByLayer
370
18
48
1
60
0
100
AcDbLine
10
4
20
-9.339888
30
0
11
4
21
-6.107092
31
0
39
0
210
0
220
0
230
1
0
LINE
5
85
100
AcDbEntity
8
1
62
256
6
ByLayer
370
13
48
1
60
0
100
AcDbLine
10
0.648032
20
9.669099
30
0
11
0.648032
21
-9.669099
31
0
39
0
210
0
220
0
230
1
0
LINE
5
86
100
AcDbEntity
8
1
62
256
6
ByLayer
370
18
48
1
60
0
100
AcDbLine
10
4.250849
20
-8.87085
30
0
11
4.250852
21
-8.870746
31
0
39
0
210
0
220
0
230
1
0
LINE
5
87
100
AcDbEntity
8
1
62
256
6
ByLayer
370
18
48
1
60
0
100
AcDbLine
10
4
20
9.339888
30
0
11
4
21
6.569704
31
0
39
0
210
0
220
0
230
1
0
LINE
5
88
100
AcDbEntity
8
1
62
256
6
ByLayer
370
18
48
1
60
0
100
AcDbLine
10
0
20
-10
30
0
11
0
21
10
31
0
39
0
210
0
220
0
230
1
0
LINE
5
89
100
AcDbEntity
8
1
62
256
6
ByLayer
370
13
48
1
60
0
100
AcDbLine
10
1.296565
20
9.338198
30
0
11
1.296565
21
-9.338198
31
0
39
0
210
0
220
0
230
1
0
LINE
5
8A
100
AcDbEntity
8
1
62
256
6
ByLayer
370
13
48
1
60
0
100
AcDbLine
10
99.860809
20
2.21595
30
0
11
102.969213
21
0.248256
31
0
39
0
210
0
220
0
230
1
0
LINE
5
8B
100
AcDbEntity
8
80
62
256
6
ByLayer
370
18
48
1
60
0
100
AcDbLine
10
0
20
0
30
0
11
-5
21
0
31
0
39
0
210
0
220
0
230
1
0
LINE
5
8C
100
AcDbEntity
8
4
62
256
6
ByLayer
370
18
48
0.05
60
0
100
AcDbLine
10
103
20
0
30
0
11
0
21
0
31
0
39
0
210
0
220
0
230
1
0
LINE
5
8E
100
AcDbEntity
8
SK4
62
256
6
ByLayer
370
18
48
0.05
60
0
100
AcDbLine
10
108
20
0
30
0
11
-55
21
0
31
0
39
0
210
0
220
0
230
1
0
LINE
5
90
100
AcDbEntity
8
SK1
62
256
6
ByLayer
370
18
48
1
60
0
100
AcDbLine
10
-46.745
20
-10
30
0
11
0
21
-10
31
0
39
0
210
0
220
0
230
1
0
LINE
5
91
100
AcDbEntity
8
SK1
62
256
6
ByLayer
370
18
48
1
60
0
100
AcDbLine
10
0
20
10
30
0
11
-46.745
21
10
31
0
39
0
210
0
220
0
230
1
0
LINE
5
92
100
AcDbEntity
8
SK1
62
256
6
ByLayer
370
18
48
1
60
0
100
AcDbLine
10
-47.6
20
-9.145
30
0
11
-46.745
21
-10
31
0
39
0
210
0
220
0
230
1
0
LINE
5
93
100
AcDbEntity
8
SK1
62
256
6
ByLayer
370
18
48
1
60
0
100
AcDbLine
10
-46.745
20
10
30
0
11
-47.6
21
9.145
31
0
39
0
210
0
220
0
230
1
0
LINE
5
94
100
AcDbEntity
8
1
62
256
6
ByLayer
370
18
48
1
60
0
100
AcDbLine
10
1.296565
20
-9.338198
30
0
11
4
21
-9.339888
31
0
39
0
210
0
220
0
230
1
0
LINE
5
95
100
AcDbEntity
8
1
62
256
6
ByLayer
370
18
48
1
60
0
100
AcDbLine
10
41.674953
20
-9.363435
30
0
11
44.432379
21
-9.365158
31
0
39
0
210
0
220
0
230
1
0
LINE
5
96
100
AcDbEntity
8
1
62
256
6
ByLayer
370
18
48
1
60
0
100
AcDbLine
10
96.071278
20
-9.397433
30
0
11
98.833571
21
-9.399159
31
0
39
0
210
0
220
0
230
1
0
LINE
5
97
100
AcDbEntity
8
1
62
256
6
ByLayer
370
18
48
1
60
0
100
AcDbLine
10
98.833628
20
9.399159
30
0
11
96.071278
21
9.397433
31
0
39
0
210
0
220
0
230
1
0
LINE
5
98
100
AcDbEntity
8
1
62
256
6
ByLayer
370
18
48
1
60
0
100
AcDbLine
10
44.432412
20
9.365158
30
0
11
41.674953
21
9.363435
31
0
39
0
210
0
220
0
230
1
0
LINE
5
99
100
AcDbEntity
8
1
62
256
6
ByLayer
370
18
48
1
60
0
100
AcDbLine
10
4
20
9.339888
30
0
11
1.296565
21
9.338198
31
0
39
0
210
0
220
0
230
1
0
LINE
5
9A
100
AcDbEntity
8
81
62
256
6
ByLayer
370
18
48
1
60
0
100
AcDbLine
10
103
20
0
30
0
11
108
21
0
31
0
39
0
210
0
220
0
230
1
0
LINE
5
9B
100
AcDbEntity
8
SK2
62
256
6
ByLayer
370
13
48
1
60
0
100
AcDbLine
10
-58.625163
20
-10
30
0
11
-58.625163
21
41.732039
31
0
39
0
210
0
220
0
230
1
0
LINE
5
9D
100
AcDbEntity
8
SK2
62
256
6
ByLayer
370
13
48
1
60
0
100
AcDbLine
10
-51.5875
20
10
30
0
11
-60.625163
21
10
31
0
39
0
210
0
220
0
230
1
0
LINE
5
9E
100
AcDbEntity
8
SK2
62
256
6
ByLayer
370
13
48
1
60
0
100
AcDbLine
10
-51.5875
20
-10
30
0
11
-60.625163
21
-10
31
0
39
0
210
0
220
0
230
1
0
LINE
5
9F
100
AcDbEntity
8
1
62
256
6
ByLayer
370
18
48
1
60
1
100
AcDbLine
10
-58.625163
20
10
30
0
11
-58.164379
21
6.500002
31
0
39
0
210
0
220
0
230
1
0
LINE
5
A0
100
AcDbEntity
8
1
62
256
6
ByLayer
370
18
48
1
60
1
100
AcDbLine
10
-58.164379
20
6.500002
30
0
11
-59.085946
21
6.499998
31
0
39
0
210
0
220
0
230
1
0
LINE
5
A1
100
AcDbEntity
8
1
62
256
6
ByLayer
370
18
48
1
60
1
100
AcDbLine
10
-59.085946
20
6.499998
30
0
11
-58.625163
21
10
31
0
39
0
210
0
220
0
230
1
0
LINE
5
A2
100
AcDbEntity
8
1
62
256
6
ByLayer
370
18
48
1
60
1
100
AcDbLine
10
-58.625163
20
-10
30
0
11
-59.085946
21
-6.500002
31
0
39
0
210
0
220
0
230
1
0
LINE
5
A3
100
AcDbEntity
8
1
62
256
6
ByLayer
370
18
48
1
60
1
100
AcDbLine
10
-59.085946
20
-6.500002
30
0
11
-58.164379
21
-6.499998
31
0
39
0
210
0
220
0
230
1
0
LINE
5
A4
100
AcDbEntity
8
1
62
256
6
ByLayer
370
18
48
1
60
1
100
AcDbLine
10
-58.164379
20
-6.499998
30
0
11
-58.625163
21
-10
31
0
39
0
210
0
220
0
230
1
0
LINE
5
A5
100
AcDbEntity
8
2
62
256
6
ByLayer
370
13
48
1
60
0
100
AcDbLine
10
115.083343
20
-9.4
30
0
11
115.083343
21
38.850259
31
0
39
0
210
0
220
0
230
1
0
LINE
5
A7
100
AcDbEntity
8
2
62
256
6
ByLayer
370
13
48
1
60
0
100
AcDbLine
10
101.7773
20
9.4
30
0
11
117.083343
21
9.4
31
0
39
0
210
0
220
0
230
1
0
LINE
5
A8
100
AcDbEntity
8
2
62
256
6
ByLayer
370
13
48
1
60
0
100
AcDbLine
10
101.7773
20
-9.4
30
0
11
117.083343
21
-9.4
31
0
39
0
210
0
220
0
230
1
0
LINE
5
A9
100
AcDbEntity
8
1
62
256
6
ByLayer
370
18
48
1
60
1
100
AcDbLine
10
115.083343
20
9.4
30
0
11
115.544126
21
5.900002
31
0
39
0
210
0
220
0
230
1
0
LINE
5
AA
100
AcDbEntity
8
1
62
256
6
ByLayer
370
18
48
1
60
1
100
AcDbLine
10
115.544126
20
5.900002
30
0
11
114.622559
21
5.899998
31
0
39
0
210
0
220
0
230
1
0
LINE
5
AB
100
AcDbEntity
8
1
62
256
6
ByLayer
370
18
48
1
60
1
100
AcDbLine
10
114.622559
20
5.899998
30
0
11
115.083343
21
9.4
31
0
39
0
210
0
220
0
230
1
0
LINE
5
AC
100
AcDbEntity
8
1
62
256
6
ByLayer
370
18
48
1
60
1
100
AcDbLine
10
115.083343
20
-9.4
30
0
11
114.622559
21
-5.900002
31
0
39
0
210
0
220
0
230
1
0
LINE
5
AD
100
AcDbEntity
8
1
62
256
6
ByLayer
370
18
48
1
60
1
100
AcDbLine
10
114.622559
20
-5.900002
30
0
11
115.544126
21
-5.899998
31
0
39
0
210
0
220
0
230
1
0
LINE
5
AE
100
AcDbEntity
8
1
62
256
6
ByLayer
370
18
48
1
60
1
100
AcDbLine
10
115.544126
20
-5.899998
30
0
11
115.083343
21
-9.4
31
0
39
0
210
0
220
0
230
1
0
LINE
5
F8
100
AcDbEntity
8
1
62
256
6
ByLayer
370
18
48
1
60
1
100
AcDbLine
10
-58.625163
20
10
30
0
11
-58.164379
21
6.500002
31
0
39
0
210
0
220
0
230
1
0
LINE
5
F9
100
AcDbEntity
8
1
62
256
6
ByLayer
370
18
48
1
60
1
100
AcDbLine
10
-58.164379
20
6.500002
30
0
11
-59.085946
21
6.499998
31
0
39
0
210
0
220
0
230
1
0
LINE
5
FA
100
AcDbEntity
8
1
62
256
6
ByLayer
370
18
48
1
60
1
100
AcDbLine
10
-59.085946
20
6.499998
30
0
11
-58.625163
21
10
31
0
39
0
210
0
220
0
230
1
0
LINE
5
FC
100
AcDbEntity
8
1
62
256
6
ByLayer
370
18
48
1
60
1
100
AcDbLine
10
-58.625163
20
-10
30
0
11
-59.085946
21
-6.500002
31
0
39
0
210
0
220
0
230
1
0
LINE
5
FD
100
AcDbEntity
8
1
62
256
6
ByLayer
370
18
48
1
60
1
100
AcDbLine
10
-59.085946
20
-6.500002
30
0
11
-58.164379
21
-6.499998
31
0
39
0
210
0
220
0
230
1
0
LINE
5
FE
100
AcDbEntity
8
1
62
256
6
ByLayer
370
18
48
1
60
1
100
AcDbLine
10
-58.164379
20
-6.499998
30
0
11
-58.625163
21
-10
31
0
39
0
210
0
220
0
230
1
0
LINE
5
102
100
AcDbEntity
8
1
62
256
6
ByLayer
370
18
48
1
60
1
100
AcDbLine
10
115.083343
20
9.4
30
0
11
115.544126
21
5.900002
31
0
39
0
210
0
220
0
230
1
0
LINE
5
103
100
AcDbEntity
8
1
62
256
6
ByLayer
370
18
48
1
60
1
100
AcDbLine
10
115.544126
20
5.900002
30
0
11
114.622559
21
5.899998
31
0
39
0
210
0
220
0
230
1
0
LINE
5
104
100
AcDbEntity
8
1
62
256
6
ByLayer
370
18
48
1
60
1
100
AcDbLine
10
114.622559
20
5.899998
30
0
11
115.083343
21
9.4
31
0
39
0
210
0
220
0
230
1
0
LINE
5
106
100
AcDbEntity
8
1
62
256
6
ByLayer
370
18
48
1
60
1
100
AcDbLine
10
115.083343
20
-9.4
30
0
11
114.622559
21
-5.900002
31
0
39
0
210
0
220
0
230
1
0
LINE
5
107
100
AcDbEntity
8
1
62
256
6
ByLayer
370
18
48
1
60
1
100
AcDbLine
10
114.622559
20
-5.900002
30
0
11
115.544126
21
-5.899998
31
0
39
0
210
0
220
0
230
1
0
LINE
5
108
100
AcDbEntity
8
1
62
256
6
ByLayer
370
18
48
1
60
1
100
AcDbLine
10
115.544126
20
-5.899998
30
0
11
115.083343
21
-9.4
31
0
39
0
210
0
220
0
230
1
0
MTEXT
5
F2
100
AcDbEntity
8
SK6
62
256
6
ByLayer
370
13
48
1
60
0
100
AcDbMText
10
-2.392027
20
41.940328
30
0
210
0
220
0
230
1
1
\W0.7610;462.1-1880-084A1-XM X2BM
40
3.5
41
0
44
1.084337
50
0
71
7
72
5
7
iso_b_vert
0
MTEXT
5
F6
100
AcDbEntity
8
SK2
62
256
6
ByLayer
370
18
48
1
60
0
100
AcDbMText
10
-60.189796
20
23.409024
30
0
210
0
220
0
230
1
1
%%c
40
3.5
41
0
44
1.084337
50
90
71
7
72
5
7
iso_b_vert
0
MTEXT
5
F7
100
AcDbEntity
8
SK2
62
256
6
ByLayer
370
18
48
1
60
0
100
AcDbMText
10
-60.189796
20
28.63168
30
0
210
0
220
0
230
1
1
\W0.7421;20,000
40
3.5
41
0
44
1.084337
50
90
71
7
72
5
7
iso_b_vert
0
MTEXT
5
100
100
AcDbEntity
8
2
62
256
6
ByLayer
370
18
48
1
60
0
100
AcDbMText
10
113.518709
20
21.40211
30
0
210
0
220
0
230
1
1
%%c
40
3.5
41
0
44
1.084337
50
90
71
7
72
5
7
iso_b_vert
0
MTEXT
5
101
100
AcDbEntity
8
2
62
256
6
ByLayer
370
18
48
1
60
0
100
AcDbMText
10
113.518709
20
26.624766
30
0
210
0
220
0
230
1
1
\W0.6930;18,800
40
3.5
41
0
44
1.084337
50
90
71
7
72
5
7
iso_b_vert
0
HATCH
5
FB
100
AcDbEntity
8
SK2
62
256
6
ByLayer
370
13
48
1
60
0
100
AcDbHatch
10
0
20
0
30
0
210
0
220
0
230
1
2
ANSI31
70
0
71
0
91
1
92
5
93
3
72
1
10
-58.6251625675374
20
10
11
-58.1643788259847
21
6.50000169255318
72
1
10
-58.1643788259847
20
6.50000169255318
11
-59.0859463090902
21
6.49999830744682
72
1
10
-59.0859463090902
20
6.49999830744682
11
-58.6251625675374
21
10
97
0
75
0
76
1
52
0
41
0.0062
77
0
78
1
53
45
43
0
44
0
45
-0.0139193969876572
46
0.0139193969876572
79
0
47
0
98
1
10
0
20
0
0
HATCH
5
FF
100
AcDbEntity
8
SK2
62
256
6
ByLayer
370
13
48
1
60
0
100
AcDbHatch
10
0
20
0
30
0
210
0
220
0
230
1
2
ANSI31
70
0
71
0
91
1
92
5
93
3
72
1
10
-58.6251625675374
20
-10
11
-59.0859463090902
21
-6.50000169255318
72
1
10
-59.0859463090902
20
-6.50000169255318
11
-58.1643788259847
21
-6.49999830744682
72
1
10
-58.1643788259847
20
-6.49999830744682
11
-58.6251625675374
21
-10
97
0
75
0
76
1
52
0
41
0.0062
77
0
78
1
53
45
43
0
44
0
45
-0.0139193969876572
46
0.0139193969876572
79
0
47
0
98
1
10
0
20
0
0
HATCH
5
105
100
AcDbEntity
8
2
62
256
6
ByLayer
370
13
48
1
60
0
100
AcDbHatch
10
0
20
0
30
0
210
0
220
0
230
1
2
ANSI31
70
0
71
0
91
1
92
5
93
3
72
1
10
115.083342615295
20
9.40000000000001
11
115.544126356848
21
5.90000169255319
72
1
10
115.544126356848
20
5.90000169255319
11
114.622558873742
21
5.89999830744682
72
1
10
114.622558873742
20
5.89999830744682
11
115.083342615295
21
9.40000000000001
97
0
75
0
76
1
52
0
41
0.0062
77
0
78
1
53
45
43
0
44
0
45
-0.0139193969876572
46
0.0139193969876572
79
0
47
0
98
1
10
0
20
0
0
HATCH
5
109
100
AcDbEntity
8
2
62
256
6
ByLayer
370
13
48
1
60
0
100
AcDbHatch
10
0
20
0
30
0
210
0
220
0
230
1
2
ANSI31
70
0
71
0
91
1
92
5
93
3
72
1
10
115.083342615295
20
-9.39999999999998
11
114.622558873742
21
-5.90000169255316
72
1
10
114.622558873742
20
-5.90000169255316
11
115.544126356848
21
-5.89999830744679
72
1
10
115.544126356848
20
-5.89999830744679
11
115.083342615295
21
-9.39999999999998
97
0
75
0
76
1
52
0
41
0.0062
77
0
78
1
53
45
43
0
44
0
45
-0.0139193969876572
46
0.0139193969876572
79
0
47
0
98
1
10
0
20
0
0
DIMENSION
5
10B
100
AcDbEntity
8
SK2
62
256
6
ByLayer
370
13
48
1
60
0
100
AcDbDimension
2
_U0
10
100.1898
20
-19.613398
30
0
11
50.0949
21
-19.613398
31
0
70
32
71
1
72
1
41
1
210
0
220
0
230
1
3
Standard
100
AcDbAlignedDimension
13
0
23
0
33
0
14
100.1898
24
-9.4
34
0
50
0
100
AcDbRotatedDimension
1001
ACAD
1000
DSTYLE
1002
{
1070
   371
1070
    13
1070
   372
1070
    13
1070
   170
1070
     0
1070
   144
1040
1.0
1070
   277
1070
     2
1070
   278
1070
    44
1070
   146
1040
1.0
1070
   345
1005
16
1070
   347
1005
16
1070
   346
1005
16
1070
   344
1005
0
1070
   343
1005
0
1070
   172
1070
     1
1070
    76
1070
     0
1070
    75
1070
     0
1070
   282
1070
     0
1070
   281
1070
     0
1070
    71
1070
     0
1070
    74
1070
     0
1070
   279
1070
     0
1070
   173
1070
     1
1070
   340
1005
F3
1070
   271
1070
     2
1070
   272
1070
     2
1070
    77
1070
     1
1070
    73
1070
     1
1070
   171
1070
     3
1070
   274
1070
     4
1070
   177
1070
    35
1070
   176
1070
    35
1070
   178
1070
    35
1070
    48
1040
-0.1
1070
    41
1040
3.5
1070
   147
1040
1.75
1070
    42
1040
1.5875
1070
    44
1040
2.0
1070
   140
1040
3.5
1002
}
1001
ACAD_DSTYLE_DIM_LINETYPE
1070
   380
1005
16
1001
ACAD_DSTYLE_DIM_EXT1_LINETYPE
1070
   381
1005
16
1001
ACAD_DSTYLE_DIM_EXT2_LINETYPE
1070
   382
1005
16
0
DIMENSION
5
124
100
AcDbEntity
8
SK2
62
256
6
ByLayer
370
13
48
1
60
0
100
AcDbDimension
2
_U1
10
103
20
-38.692985
30
0
11
26.5
21
-38.692985
31
0
70
32
71
1
72
1
41
1
210
0
220
0
230
1
3
Standard
100
AcDbAlignedDimension
13
-50
23
-10
33
0
14
103
24
0
34
0
50
0
100
AcDbRotatedDimension
1001
ACAD
1000
DSTYLE
1002
{
1070
   371
1070
    13
1070
   372
1070
    13
1070
   170
1070
     0
1070
   144
1040
1.0
1070
   277
1070
     2
1070
   278
1070
    44
1070
   146
1040
1.0
1070
   345
1005
16
1070
   347
1005
16
1070
   346
1005
16
1070
   344
1005
0
1070
   343
1005
0
1070
   172
1070
     1
1070
    76
1070
     0
1070
    75
1070
     0
1070
   282
1070
     0
1070
   281
1070
     0
1070
    71
1070
     0
1070
    74
1070
     0
1070
   279
1070
     0
1070
   173
1070
     1
1070
   340
1005
F3
1070
   271
1070
     2
1070
   272
1070
     2
1070
    77
1070
     1
1070
    73
1070
     1
1070
   171
1070
     3
1070
   274
1070
     4
1070
   177
1070
    35
1070
   176
1070
    35
1070
   178
1070
    35
1070
    48
1040
-0.1
1070
    41
1040
3.5
1070
   147
1040
1.75
1070
    42
1040
1.5875
1070
    44
1040
2.0
1070
   140
1040
3.5
1002
}
1001
ACAD_DSTYLE_DIM_LINETYPE
1070
   380
1005
16
1001
ACAD_DSTYLE_DIM_EXT1_LINETYPE
1070
   381
1005
16
1001
ACAD_DSTYLE_DIM_EXT2_LINETYPE
1070
   382
1005
16
0
DIMENSION
5
13C
100
AcDbEntity
8
SK2
62
256
6
ByLayer
370
13
48
1
60
0
100
AcDbDimension
2
_U2
10
103
20
21.009119
30
0
11
60.02
21
21.009119
31
0
70
32
71
1
72
1
41
1
210
0
220
0
230
1
3
Standard
100
AcDbAlignedDimension
13
17.04
23
9.4
33
0
14
103
24
0
34
0
50
0
100
AcDbRotatedDimension
1001
ACAD
1000
DSTYLE
1002
{
1070
   371
1070
    13
1070
   372
1070
    13
1070
   170
1070
     0
1070
   144
1040
1.0
1070
   277
1070
     2
1070
   278
1070
    44
1070
   146
1040
1.0
1070
   345
1005
16
1070
   347
1005
16
1070
   346
1005
16
1070
   344
1005
0
1070
   343
1005
0
1070
   172
1070
     1
1070
    76
1070
     0
1070
    75
1070
     0
1070
   282
1070
     0
1070
   281
1070
     0
1070
    71
1070
     0
1070
    74
1070
     0
1070
   279
1070
     0
1070
   173
1070
     1
1070
   340
1005
F3
1070
   271
1070
     2
1070
   272
1070
     2
1070
    77
1070
     1
1070
    73
1070
     1
1070
   171
1070
     3
1070
   274
1070
     4
1070
   177
1070
    35
1070
   176
1070
    35
1070
   178
1070
    35
1070
    48
1040
-0.1
1070
    41
1040
3.5
1070
   147
1040
1.75
1070
    42
1040
1.5875
1070
    44
1040
2.0
1070
   140
1040
3.5
1002
}
1001
ACAD_DSTYLE_DIM_LINETYPE
1070
   380
1005
16
1001
ACAD_DSTYLE_DIM_EXT1_LINETYPE
1070
   381
1005
16
1001
ACAD_DSTYLE_DIM_EXT2_LINETYPE
1070
   382
1005
16
0
DIMENSION
5
154
100
AcDbEntity
8
SK2
62
256
6
ByLayer
370
13
48
1
60
0
100
AcDbDimension
2
_U3
10
100.1898
20
-22.202503
30
0
11
120.083333
21
-22.202503
31
0
70
32
71
1
72
1
41
1
210
0
220
0
230
1
3
Standard
100
AcDbAlignedDimension
13
103
23
0
33
0
14
100.1898
24
-9.4
34
0
50
0
100
AcDbRotatedDimension
1001
ACAD
1000
DSTYLE
1002
{
1070
   371
1070
    13
1070
   372
1070
    13
1070
   170
1070
     0
1070
   144
1040
1.0
1070
   277
1070
     2
1070
   278
1070
    44
1070
   146
1040
1.0
1070
   345
1005
16
1070
   347
1005
16
1070
   346
1005
16
1070
   344
1005
0
1070
   343
1005
0
1070
   172
1070
     1
1070
    76
1070
     0
1070
    75
1070
     0
1070
   282
1070
     0
1070
   281
1070
     0
1070
    71
1070
     0
1070
    74
1070
     0
1070
   279
1070
     0
1070
   173
1070
     1
1070
   340
1005
F3
1070
   271
1070
     2
1070
   272
1070
     2
1070
    77
1070
     1
1070
    73
1070
     1
1070
   171
1070
     3
1070
   274
1070
     4
1070
   177
1070
    35
1070
   176
1070
    35
1070
   178
1070
    35
1070
    48
1040
-0.1
1070
    41
1040
3.5
1070
   147
1040
1.75
1070
    42
1040
1.5875
1070
    44
1040
2.0
1070
   140
1040
3.5
1002
}
1001
ACAD_DSTYLE_DIM_LINETYPE
1070
   380
1005
16
1001
ACAD_DSTYLE_DIM_EXT1_LINETYPE
1070
   381
1005
16
1001
ACAD_DSTYLE_DIM_EXT2_LINETYPE
1070
   382
1005
16
0
DIMENSION
5
16E
100
AcDbEntity
8
SK2
62
256
6
ByLayer
370
13
48
1
60
0
100
AcDbDimension
2
_U4
10
100.1898
20
-28.343428
30
0
11
25.0949
21
-28.343428
31
0
70
32
71
1
72
1
41
1
210
0
220
0
230
1
3
Standard
100
AcDbAlignedDimension
13
-50
23
-10
33
0
14
100.1898
24
-9.4
34
0
50
0
100
AcDbRotatedDimension
1001
ACAD
1000
DSTYLE
1002
{
1070
   371
1070
    13
1070
   372
1070
    13
1070
   170
1070
     0
1070
   144
1040
1.0
1070
   277
1070
     2
1070
   278
1070
    44
1070
   146
1040
1.0
1070
   345
1005
16
1070
   347
1005
16
1070
   346
1005
16
1070
   344
1005
0
1070
   343
1005
0
1070
   172
1070
     1
1070
    76
1070
     0
1070
    75
1070
     0
1070
   282
1070
     0
1070
   281
1070
     0
1070
    71
1070
     0
1070
    74
1070
     0
1070
   279
1070
     0
1070
   173
1070
     1
1070
   340
1005
F3
1070
   271
1070
     2
1070
   272
1070
     2
1070
    77
1070
     1
1070
    73
1070
     1
1070
   171
1070
     3
1070
   274
1070
     4
1070
   177
1070
    35
1070
   176
1070
    35
1070
   178
1070
    35
1070
    48
1040
-0.1
1070
    41
1040
3.5
1070
   147
1040
1.75
1070
    42
1040
1.5875
1070
    44
1040
2.0
1070
   140
1040
3.5
1002
}
1001
ACAD_DSTYLE_DIM_LINETYPE
1070
   380
1005
16
1001
ACAD_DSTYLE_DIM_EXT1_LINETYPE
1070
   381
1005
16
1001
ACAD_DSTYLE_DIM_EXT2_LINETYPE
1070
   382
1005
16
0
ENDSEC
0
SECTION
2
OBJECTS
0
DICTIONARY
5
1f6
330
0
100
AcDbDictionary
280
0
281
1
3
ACAD_GROUP
350
1f7
3
ACAD_MLINESTYLE
350
1f8
0
DICTIONARY
5
1f7
330
0
100
AcDbDictionary
280
0
281
1
0
DICTIONARY
5
1f8
330
0
100
AcDbDictionary
280
0
281
1
3
Standard
350
18
0
MLINESTYLE
5
18
330
1f8
100
AcDbMlineStyle
2
Standard
70
0
3

62
256
51
90
52
90
71
2
49
-0.5
62
256
6
ByLayer
49
0.5
62
256
6
ByLayer
0
RASTERVARIABLES
5
1e4
330

100
AcDbRasterVariables
90
0
70
1
71
1
72
1
0
ENDSEC
0
EOF
