0
SECTION
2
HEADER
9
$ACADVER
1
AC1015
9
$DWGCODEPAGE
3
ANSI_1252
9
$HANDSEED
5
1fe
9
$ANGBASE
50
0
9
$ANGDIR
70
0
9
$ATTMODE
70
1
9
$AUNITS
70
0
9
$AUPREC
70
0
9
$CECOLOR
62
256
9
$CELTSCALE
40
1
9
$CELTYPE
6
ByLayer
9
$CELWEIGHT
370
18
9
$CLAYER
8
0
9
$CMLJUST
70
0
9
$CMLSCALE
40
1
9
$CMLSTYLE
2
Standard
9
$DIMSTYLE
2
Standard
9
$TEXTSIZE
40
0.2
9
$TEXTSTYLE
7
Standard
9
$LUNITS
70
2
9
$LUPREC
70
4
9
$EXTNAMES
290
1
9
$INSUNITS
70
4
9
$LTSCALE
40
1
9
$LWDISPLAY
290
1
9
$PDMODE
70
0
9
$PDSIZE
40
0
9
$PLINEGEN
70
0
0
ENDSEC
0
SECTION
2
CLASSES
0
CLASS
1
RASTERVARIABLES
2
AcDbRasterVariables
3
ISM
90
0
280
0
281
0
0
ENDSEC
0
SECTION
2
TABLES
0
TABLE
2
VPORT
5
1f4
100
AcDbSymbolTable
0
VPORT
5
1
100
AcDbSymbolTableRecord
100
AcDbViewportTableRecord
2
*Active
70
0
10
0
20
0
11
1
21
1
12
-1
22
1
13
0
23
0
14
0.5
24
0.5
15
10
25
10
16
0
26
0
36
1
17
0
27
0
37
0
0
ENDTAB
0
TABLE
2
LTYPE
5
1f5
100
AcDbSymbolTable
0
LTYPE
5
14
100
AcDbSymbolTableRecord
100
AcDbLinetypeTableRecord
70
0
2
ByBlock
3

72
65
73
0
40
0
0
LTYPE
5
15
100
AcDbSymbolTableRecord
100
AcDbLinetypeTableRecord
70
0
2
ByLayer
3

72
65
73
0
40
0
0
LTYPE
5
16
100
AcDbSymbolTableRecord
100
AcDbLinetypeTableRecord
70
0
2
Continuous
3
Solid line
72
65
73
0
40
0
0
LTYPE
5
6E
100
AcDbSymbolTableRecord
100
AcDbLinetypeTableRecord
70
0
2
CENTER
3
____ _ ____ _ ____ _ ____
72
65
73
4
40
47.5
49
22
74
0
49
-8.5
74
0
49
8.5
74
0
49
-8.5
74
0
0
LTYPE
5
6F
100
AcDbSymbolTableRecord
100
AcDbLinetypeTableRecord
70
0
2
DASHED
3
__ __ __ __ __ __ __ __ __
72
65
73
2
40
25.72
49
12.86
74
0
49
-12.86
74
0
0
ENDTAB
0
TABLE
2
LAYER
5
1f6
100
AcDbSymbolTable
0
LAYER
5
10
100
AcDbSymbolTableRecord
100
AcDbLayerTableRecord
2
0
70
0
62
7
6
Continuous
290
1
370
-3
390
0
0
LAYER
5
71
100
AcDbSymbolTableRecord
100
AcDbLayerTableRecord
2
80
70
0
62
-6
6
Continuous
290
1
370
-3
390
0
0
LAYER
5
73
100
AcDbSymbolTableRecord
100
AcDbLayerTableRecord
2
81
70
0
62
-3
6
Continuous
290
1
370
-3
390
0
0
LAYER
5
75
100
AcDbSymbolTableRecord
100
AcDbLayerTableRecord
2
1
70
0
62
4
6
Continuous
290
1
370
-3
390
0
0
LAYER
5
8B
100
AcDbSymbolTableRecord
100
AcDbLayerTableRecord
2
4
70
0
62
-2
6
CENTER
290
1
370
-3
390
0
0
LAYER
5
A6
100
AcDbSymbolTableRecord
100
AcDbLayerTableRecord
2
2
70
0
62
7
6
Continuous
290
1
370
-3
390
0
0
LAYER
5
109
100
AcDbSymbolTableRecord
100
AcDbLayerTableRecord
2
Defpoints
70
0
62
7
6
Continuous
290
0
370
-3
390
0
0
LAYER
5
1e0
100
AcDbSymbolTableRecord
100
AcDbLayerTableRecord
2
SK1
70
0
62
4
6
Continuous
290
1
370
-3
390
0
0
LAYER
5
1e1
100
AcDbSymbolTableRecord
100
AcDbLayerTableRecord
2
SK4
70
0
62
2
6
CENTER
290
1
370
-3
390
0
0
LAYER
5
1e2
100
AcDbSymbolTableRecord
100
AcDbLayerTableRecord
2
SK2
70
0
62
7
6
Continuous
290
1
370
-3
390
0
0
LAYER
5
1e3
100
AcDbSymbolTableRecord
100
AcDbLayerTableRecord
2
SK6
70
0
62
5
6
Continuous
290
1
370
-3
390
0
0
ENDTAB
0
TABLE
2
STYLE
5
1f7
100
AcDbSymbolTable
0
STYLE
5
11
100
AcDbSymbolTableRecord
100
AcDbTextStyleTableRecord
2
Standard
3
txt
70
0
71
0
40
0
41
1
42
0
50
0
0
STYLE
5
EE
100
AcDbSymbolTableRecord
100
AcDbTextStyleTableRecord
2
iso_b_vert
3
simplex.shx
70
0
71
0
40
0
41
1
42
0
50
0
0
STYLE
5
EF
100
AcDbSymbolTableRecord
100
AcDbTextStyleTableRecord
2
DWGDirectTextStyle
3
simplex
70
0
71
0
40
0
41
1
42
0
50
0
0
ENDTAB
0
TABLE
2
DIMSTYLE
5
1f8
100
AcDbSymbolTable
100
AcDbDimStyleTable
0
DIMSTYLE
105
27
100
AcDbSymbolTableRecord
100
AcDbDimStyleTableRecord
2
Standard
70
0
3
<>
41
0.18
42
0.0625
44
0.18
140
0.18
147
0.09
73
0
74
0
77
1
271
2
275
0
278
52
280
0
340
11
0
ENDTAB
0
TABLE
2
VIEW
5
1f9
100
AcDbSymbolTable
0
ENDTAB
0
TABLE
2
UCS
5
1fa
100
AcDbSymbolTable
0
ENDTAB
0
TABLE
2
APPID
5
1fb
100
AcDbSymbolTable
0
APPID
5
12
100
AcDbSymbolTableRecord
100
AcDbRegAppTableRecord
2
ACAD
70
0
0
APPID
5
105
100
AcDbSymbolTableRecord
100
AcDbRegAppTableRecord
2
ACAD_DSTYLE_DIMBREAK
70
0
0
APPID
5
19F
100
AcDbSymbolTableRecord
100
AcDbRegAppTableRecord
2
ACAD_DSTYLE_DIM_LINETYPE
70
0
0
APPID
5
1A0
100
AcDbSymbolTableRecord
100
AcDbRegAppTableRecord
2
ACAD_DSTYLE_DIM_EXT1_LINETYPE
70
0
0
APPID
5
1A1
100
AcDbSymbolTableRecord
100
AcDbRegAppTableRecord
2
ACAD_DSTYLE_DIM_EXT2_LINETYPE
70
0
0
APPID
5
1DC
100
AcDbSymbolTableRecord
100
AcDbRegAppTableRecord
2
ACAD_MLEADERVER
70
0
0
ENDTAB
0
TABLE
2
BLOCK_RECORD
5
1fc
100
AcDbSymbolTable
0
BLOCK_RECORD
5
1F
100
AcDbSymbolTableRecord
100
AcDbBlockTableRecord
2
*Model_Space
340
0
70
0
0
BLOCK_RECORD
5
1B
100
AcDbSymbolTableRecord
100
AcDbBlockTableRecord
2
*Paper_Space
340
0
70
0
0
BLOCK_RECORD
5
23
100
AcDbSymbolTableRecord
100
AcDbBlockTableRecord
2
*Paper_Space0
340
0
70
0
0
BLOCK_RECORD
5
10A
100
AcDbSymbolTableRecord
100
AcDbBlockTableRecord
2
*D1
340
0
70
0
0
BLOCK_RECORD
5
116
100
AcDbSymbolTableRecord
100
AcDbBlockTableRecord
2
_U0
340
0
70
0
0
BLOCK_RECORD
5
122
100
AcDbSymbolTableRecord
100
AcDbBlockTableRecord
2
*D3
340
0
70
0
0
BLOCK_RECORD
5
12E
100
AcDbSymbolTableRecord
100
AcDbBlockTableRecord
2
_U1
340
0
70
0
0
BLOCK_RECORD
5
13A
100
AcDbSymbolTableRecord
100
AcDbBlockTableRecord
2
*D5
340
0
70
0
0
BLOCK_RECORD
5
146
100
AcDbSymbolTableRecord
100
AcDbBlockTableRecord
2
_U2
340
0
70
0
0
BLOCK_RECORD
5
152
100
AcDbSymbolTableRecord
100
AcDbBlockTableRecord
2
*D7
340
0
70
0
0
BLOCK_RECORD
5
160
100
AcDbSymbolTableRecord
100
AcDbBlockTableRecord
2
_U3
340
0
70
0
0
BLOCK_RECORD
5
16C
100
AcDbSymbolTableRecord
100
AcDbBlockTableRecord
2
*D9
340
0
70
0
0
BLOCK_RECORD
5
178
100
AcDbSymbolTableRecord
100
AcDbBlockTableRecord
2
_U4
340
0
70
0
0
ENDTAB
0
ENDSEC
0
SECTION
2
BLOCKS
0
BLOCK
5
20
100
AcDbEntity
8
0
100
AcDbBlockBegin
2
*Model_Space
70
0
10
0
20
0
30
0
3
*Model_Space
0
ENDBLK
5
21
100
AcDbEntity
8
0
100
AcDbBlockEnd
0
BLOCK
5
1C
100
AcDbEntity
8
0
100
AcDbBlockBegin
2
*Paper_Space
70
0
10
0
20
0
30
0
3
*Paper_Space
0
ENDBLK
5
1D
100
AcDbEntity
8
0
100
AcDbBlockEnd
0
BLOCK
5
24
100
AcDbEntity
8
0
100
AcDbBlockBegin
2
*Paper_Space0
70
0
10
0
20
0
30
0
3
*Paper_Space0
0
ENDBLK
5
25
100
AcDbEntity
8
0
100
AcDbBlockEnd
0
BLOCK
5
10B
100
AcDbEntity
8
0
100
AcDbBlockBegin
2
*D1
70
1
10
0
20
0
30
0
3
*D1
0
LINE
5
10D
100
AcDbEntity
8
0
62
256
6
ByLayer
370
-2
48
1
60
0
100
AcDbLine
10
0
20
-1.5875
30
0
11
0
21
-22.113398
31
0
39
0
210
0
220
0
230
1
0
LINE
5
10E
100
AcDbEntity
8
0
62
256
6
ByLayer
370
-2
48
1
60
0
100
AcDbLine
10
100.0391
20
-11.4875
30
0
11
100.0391
21
-22.113398
31
0
39
0
210
0
220
0
230
1
0
LINE
5
10F
100
AcDbEntity
8
0
62
256
6
ByLayer
370
-2
48
1
60
0
100
AcDbLine
10
3.5
20
-20.113398
30
0
11
96.5391
21
-20.113398
31
0
39
0
210
0
220
0
230
1
0
SOLID
5
110
100
AcDbEntity
8
0
62
256
6
ByLayer
370
-1
48
1
60
0
100
AcDbTrace
10
3.5
20
-19.530065
30
0
11
3.5
21
-20.696732
31
0
12
0
22
-20.113398
32
0
13
0
23
-20.113398
33
0
39
0
210
0
220
0
230
1
0
SOLID
5
111
100
AcDbEntity
8
0
62
256
6
ByLayer
370
-1
48
1
60
0
100
AcDbTrace
10
96.5391
20
-20.696732
30
0
11
96.5391
21
-19.530065
31
0
12
100.0391
22
-20.113398
32
0
13
100.0391
23
-20.113398
33
0
39
0
210
0
220
0
230
1
0
MTEXT
5
112
100
AcDbEntity
8
0
62
256
6
ByLayer
370
18
48
1
60
0
100
AcDbMText
10
50.01955
20
-13.113398
30
0
210
0
220
0
230
1
1
\A1;100.04
40
3.5
41
0
44
1
50
0
71
5
72
5
7
iso_b_vert
0
POINT
5
113
100
AcDbEntity
8
Defpoints
62
0
6
ByLayer
370
-1
48
1
60
0
100
AcDbPoint
10
0
20
0
30
0
39
0
210
0
220
0
230
1
50
360
0
POINT
5
114
100
AcDbEntity
8
Defpoints
62
0
6
ByLayer
370
-1
48
1
60
0
100
AcDbPoint
10
100.0391
20
-9.9
30
0
39
0
210
0
220
0
230
1
50
360
0
POINT
5
115
100
AcDbEntity
8
Defpoints
62
0
6
ByLayer
370
-1
48
1
60
0
100
AcDbPoint
10
100.0391
20
-20.113398
30
0
39
0
210
0
220
0
230
1
50
360
0
ENDBLK
5
10C
100
AcDbEntity
8
0
100
AcDbBlockEnd
0
BLOCK
5
11D
100
AcDbEntity
8
0
100
AcDbBlockBegin
2
_U0
70
0
10
0
20
0
30
0
3
_U0
0
MTEXT
5
117
100
AcDbEntity
8
SK2
62
256
6
ByLayer
370
13
48
1
60
0
100
AcDbMText
10
43.827685
20
-19.080765
30
0
210
0
220
0
230
1
1
\W0.7079;100,04
40
3.5
41
0
44
1.084337
50
0
71
7
72
5
7
iso_b_vert
0
LINE
5
118
100
AcDbEntity
8
SK2
62
256
6
ByLayer
370
13
48
1
60
0
100
AcDbLine
10
0
20
-1.5875
30
0
11
0
21
-22.113398
31
0
39
0
210
0
220
0
230
1
0
LINE
5
119
100
AcDbEntity
8
SK2
62
256
6
ByLayer
370
13
48
1
60
0
100
AcDbLine
10
100.0391
20
-11.4875
30
0
11
100.0391
21
-22.113398
31
0
39
0
210
0
220
0
230
1
0
LINE
5
11A
100
AcDbEntity
8
SK2
62
256
6
ByLayer
370
13
48
1
60
0
100
AcDbLine
10
0
20
-20.113398
30
0
11
100.0391
21
-20.113398
31
0
39
0
210
0
220
0
230
1
0
SOLID
5
11B
100
AcDbEntity
8
SK2
62
256
6
ByLayer
370
18
48
1
60
0
100
AcDbTrace
10
0
20
-20.113398
30
0
11
3.499998
21
-19.652615
31
0
12
3.500002
22
-20.574182
32
0
13
3.500002
23
-20.574182
33
0
39
0
210
0
220
0
230
1
0
SOLID
5
11C
100
AcDbEntity
8
SK2
62
256
6
ByLayer
370
18
48
1
60
0
100
AcDbTrace
10
100.0391
20
-20.113398
30
0
11
96.539102
21
-20.574182
31
0
12
96.539098
22
-19.652615
32
0
13
96.539098
23
-19.652615
33
0
39
0
210
0
220
0
230
1
0
ENDBLK
5
11E
100
AcDbEntity
8
0
100
AcDbBlockEnd
0
BLOCK
5
123
100
AcDbEntity
8
0
100
AcDbBlockBegin
2
*D3
70
1
10
0
20
0
30
0
3
*D3
0
LINE
5
125
100
AcDbEntity
8
0
62
256
6
ByLayer
370
-2
48
1
60
0
100
AcDbLine
10
-50
20
-11.5875
30
0
11
-50
21
-40.692985
31
0
39
0
210
0
220
0
230
1
0
LINE
5
126
100
AcDbEntity
8
0
62
256
6
ByLayer
370
-2
48
1
60
0
100
AcDbLine
10
103
20
-1.5875
30
0
11
103
21
-40.692985
31
0
39
0
210
0
220
0
230
1
0
LINE
5
127
100
AcDbEntity
8
0
62
256
6
ByLayer
370
-2
48
1
60
0
100
AcDbLine
10
-46.5
20
-38.692985
30
0
11
99.5
21
-38.692985
31
0
39
0
210
0
220
0
230
1
0
SOLID
5
128
100
AcDbEntity
8
0
62
256
6
ByLayer
370
-1
48
1
60
0
100
AcDbTrace
10
-46.5
20
-38.109652
30
0
11
-46.5
21
-39.276319
31
0
12
-50
22
-38.692985
32
0
13
-50
23
-38.692985
33
0
39
0
210
0
220
0
230
1
0
SOLID
5
129
100
AcDbEntity
8
0
62
256
6
ByLayer
370
-1
48
1
60
0
100
AcDbTrace
10
99.5
20
-39.276319
30
0
11
99.5
21
-38.109652
31
0
12
103
22
-38.692985
32
0
13
103
23
-38.692985
33
0
39
0
210
0
220
0
230
1
0
MTEXT
5
12A
100
AcDbEntity
8
0
62
256
6
ByLayer
370
18
48
1
60
0
100
AcDbMText
10
26.5
20
-31.692985
30
0
210
0
220
0
230
1
1
\A1;153.00
40
3.5
41
0
44
1
50
0
71
5
72
5
7
iso_b_vert
0
POINT
5
12B
100
AcDbEntity
8
Defpoints
62
0
6
ByLayer
370
-1
48
1
60
0
100
AcDbPoint
10
-50
20
-10
30
0
39
0
210
0
220
0
230
1
50
360
0
POINT
5
12C
100
AcDbEntity
8
Defpoints
62
0
6
ByLayer
370
-1
48
1
60
0
100
AcDbPoint
10
103
20
0
30
0
39
0
210
0
220
0
230
1
50
360
0
POINT
5
12D
100
AcDbEntity
8
Defpoints
62
0
6
ByLayer
370
-1
48
1
60
0
100
AcDbPoint
10
103
20
-38.692985
30
0
39
0
210
0
220
0
230
1
50
360
0
ENDBLK
5
124
100
AcDbEntity
8
0
100
AcDbBlockEnd
0
BLOCK
5
135
100
AcDbEntity
8
0
100
AcDbBlockBegin
2
_U1
70
0
10
0
20
0
30
0
3
_U1
0
MTEXT
5
12F
100
AcDbEntity
8
SK2
62
256
6
ByLayer
370
13
48
1
60
0
100
AcDbMText
10
20.492401
20
-37.660352
30
0
210
0
220
0
230
1
1
\W0.6930;153,00
40
3.5
41
0
44
1.084337
50
0
71
7
72
5
7
iso_b_vert
0
LINE
5
130
100
AcDbEntity
8
SK2
62
256
6
ByLayer
370
13
48
1
60
0
100
AcDbLine
10
-50
20
-11.5875
30
0
11
-50
21
-40.692985
31
0
39
0
210
0
220
0
230
1
0
LINE
5
131
100
AcDbEntity
8
SK2
62
256
6
ByLayer
370
13
48
1
60
0
100
AcDbLine
10
103
20
-1.5875
30
0
11
103
21
-40.692985
31
0
39
0
210
0
220
0
230
1
0
LINE
5
132
100
AcDbEntity
8
SK2
62
256
6
ByLayer
370
13
48
1
60
0
100
AcDbLine
10
-50
20
-38.692985
30
0
11
103
21
-38.692985
31
0
39
0
210
0
220
0
230
1
0
SOLID
5
133
100
AcDbEntity
8
SK2
62
256
6
ByLayer
370
18
48
1
60
0
100
AcDbTrace
10
-50
20
-38.692985
30
0
11
-46.500002
21
-38.232202
31
0
12
-46.499998
22
-39.153769
32
0
13
-46.499998
23
-39.153769
33
0
39
0
210
0
220
0
230
1
0
SOLID
5
134
100
AcDbEntity
8
SK2
62
256
6
ByLayer
370
18
48
1
60
0
100
AcDbTrace
10
103
20
-38.692985
30
0
11
99.500002
21
-39.153769
31
0
12
99.499998
22
-38.232202
32
0
13
99.499998
23
-38.232202
33
0
39
0
210
0
220
0
230
1
0
ENDBLK
5
136
100
AcDbEntity
8
0
100
AcDbBlockEnd
0
BLOCK
5
13B
100
AcDbEntity
8
0
100
AcDbBlockBegin
2
*D5
70
1
10
0
20
0
30
0
3
*D5
0
LINE
5
13D
100
AcDbEntity
8
0
62
256
6
ByLayer
370
-2
48
1
60
0
100
AcDbLine
10
17.84
20
11.4875
30
0
11
17.84
21
23.509119
31
0
39
0
210
0
220
0
230
1
0
LINE
5
13E
100
AcDbEntity
8
0
62
256
6
ByLayer
370
-2
48
1
60
0
100
AcDbLine
10
103
20
1.5875
30
0
11
103
21
23.509119
31
0
39
0
210
0
220
0
230
1
0
LINE
5
13F
100
AcDbEntity
8
0
62
256
6
ByLayer
370
-2
48
1
60
0
100
AcDbLine
10
21.34
20
21.509119
30
0
11
99.5
21
21.509119
31
0
39
0
210
0
220
0
230
1
0
SOLID
5
140
100
AcDbEntity
8
0
62
256
6
ByLayer
370
-1
48
1
60
0
100
AcDbTrace
10
21.34
20
22.092453
30
0
11
21.34
21
20.925786
31
0
12
17.84
22
21.509119
32
0
13
17.84
23
21.509119
33
0
39
0
210
0
220
0
230
1
0
SOLID
5
141
100
AcDbEntity
8
0
62
256
6
ByLayer
370
-1
48
1
60
0
100
AcDbTrace
10
99.5
20
20.925786
30
0
11
99.5
21
22.092453
31
0
12
103
22
21.509119
32
0
13
103
23
21.509119
33
0
39
0
210
0
220
0
230
1
0
MTEXT
5
142
100
AcDbEntity
8
0
62
256
6
ByLayer
370
18
48
1
60
0
100
AcDbMText
10
60.42
20
28.509119
30
0
210
0
220
0
230
1
1
\A1;85.16
40
3.5
41
0
44
1
50
0
71
5
72
5
7
iso_b_vert
0
POINT
5
143
100
AcDbEntity
8
Defpoints
62
0
6
ByLayer
370
-1
48
1
60
0
100
AcDbPoint
10
17.84
20
9.9
30
0
39
0
210
0
220
0
230
1
50
360
0
POINT
5
144
100
AcDbEntity
8
Defpoints
62
0
6
ByLayer
370
-1
48
1
60
0
100
AcDbPoint
10
103
20
0
30
0
39
0
210
0
220
0
230
1
50
360
0
POINT
5
145
100
AcDbEntity
8
Defpoints
62
0
6
ByLayer
370
-1
48
1
60
0
100
AcDbPoint
10
103
20
21.509119
30
0
39
0
210
0
220
0
230
1
50
360
0
ENDBLK
5
13C
100
AcDbEntity
8
0
100
AcDbBlockEnd
0
BLOCK
5
14D
100
AcDbEntity
8
0
100
AcDbBlockBegin
2
_U2
70
0
10
0
20
0
30
0
3
_U2
0
MTEXT
5
147
100
AcDbEntity
8
SK2
62
256
6
ByLayer
370
13
48
1
60
0
100
AcDbMText
10
55.720135
20
22.541753
30
0
210
0
220
0
230
1
1
\W0.6713;85,16
40
3.5
41
0
44
1.084337
50
0
71
7
72
5
7
iso_b_vert
0
LINE
5
148
100
AcDbEntity
8
SK2
62
256
6
ByLayer
370
13
48
1
60
0
100
AcDbLine
10
17.84
20
11.4875
30
0
11
17.84
21
23.509119
31
0
39
0
210
0
220
0
230
1
0
LINE
5
149
100
AcDbEntity
8
SK2
62
256
6
ByLayer
370
13
48
1
60
0
100
AcDbLine
10
103
20
1.5875
30
0
11
103
21
23.509119
31
0
39
0
210
0
220
0
230
1
0
LINE
5
14A
100
AcDbEntity
8
SK2
62
256
6
ByLayer
370
13
48
1
60
0
100
AcDbLine
10
17.84
20
21.509119
30
0
11
103
21
21.509119
31
0
39
0
210
0
220
0
230
1
0
SOLID
5
14B
100
AcDbEntity
8
SK2
62
256
6
ByLayer
370
18
48
1
60
0
100
AcDbTrace
10
17.84
20
21.509119
30
0
11
21.339998
21
21.969903
31
0
12
21.340002
22
21.048335
32
0
13
21.340002
23
21.048335
33
0
39
0
210
0
220
0
230
1
0
SOLID
5
14C
100
AcDbEntity
8
SK2
62
256
6
ByLayer
370
18
48
1
60
0
100
AcDbTrace
10
103
20
21.509119
30
0
11
99.500002
21
21.048335
31
0
12
99.499998
22
21.969903
32
0
13
99.499998
23
21.969903
33
0
39
0
210
0
220
0
230
1
0
ENDBLK
5
14E
100
AcDbEntity
8
0
100
AcDbBlockEnd
0
BLOCK
5
153
100
AcDbEntity
8
0
100
AcDbBlockBegin
2
*D7
70
1
10
0
20
0
30
0
3
*D7
0
LINE
5
155
100
AcDbEntity
8
0
62
256
6
ByLayer
370
-2
48
1
60
0
100
AcDbLine
10
103
20
-1.5875
30
0
11
103
21
-24.702503
31
0
39
0
210
0
220
0
230
1
0
LINE
5
156
100
AcDbEntity
8
0
62
256
6
ByLayer
370
-2
48
1
60
0
100
AcDbLine
10
100.0391
20
-11.4875
30
0
11
100.0391
21
-24.702503
31
0
39
0
210
0
220
0
230
1
0
LINE
5
157
100
AcDbEntity
8
0
62
256
6
ByLayer
370
-2
48
1
60
0
100
AcDbLine
10
103
20
-22.702503
30
0
11
131.166667
21
-22.702503
31
0
39
0
210
0
220
0
230
1
0
LINE
5
158
100
AcDbEntity
8
0
62
256
6
ByLayer
370
-2
48
1
60
0
100
AcDbLine
10
106.5
20
-22.702503
30
0
11
110
21
-22.702503
31
0
39
0
210
0
220
0
230
1
0
LINE
5
159
100
AcDbEntity
8
0
62
256
6
ByLayer
370
-2
48
1
60
0
100
AcDbLine
10
96.5391
20
-22.702503
30
0
11
93.0391
21
-22.702503
31
0
39
0
210
0
220
0
230
1
0
SOLID
5
15A
100
AcDbEntity
8
0
62
256
6
ByLayer
370
-1
48
1
60
0
100
AcDbTrace
10
106.5
20
-22.11917
30
0
11
106.5
21
-23.285837
31
0
12
103
22
-22.702503
32
0
13
103
23
-22.702503
33
0
39
0
210
0
220
0
230
1
0
SOLID
5
15B
100
AcDbEntity
8
0
62
256
6
ByLayer
370
-1
48
1
60
0
100
AcDbTrace
10
96.5391
20
-23.285837
30
0
11
96.5391
21
-22.11917
31
0
12
100.0391
22
-22.702503
32
0
13
100.0391
23
-22.702503
33
0
39
0
210
0
220
0
230
1
0
MTEXT
5
15C
100
AcDbEntity
8
0
62
256
6
ByLayer
370
18
48
1
60
0
100
AcDbMText
10
120.583333
20
-15.702503
30
0
210
0
220
0
230
1
1
\A1;2.96
40
3.5
41
0
44
1
50
0
71
5
72
5
7
iso_b_vert
0
POINT
5
15D
100
AcDbEntity
8
Defpoints
62
0
6
ByLayer
370
-1
48
1
60
0
100
AcDbPoint
10
103
20
0
30
0
39
0
210
0
220
0
230
1
50
360
0
POINT
5
15E
100
AcDbEntity
8
Defpoints
62
0
6
ByLayer
370
-1
48
1
60
0
100
AcDbPoint
10
100.0391
20
-9.9
30
0
39
0
210
0
220
0
230
1
50
360
0
POINT
5
15F
100
AcDbEntity
8
Defpoints
62
0
6
ByLayer
370
-1
48
1
60
0
100
AcDbPoint
10
100.0391
20
-22.702503
30
0
39
0
210
0
220
0
230
1
50
360
0
ENDBLK
5
154
100
AcDbEntity
8
0
100
AcDbBlockEnd
0
BLOCK
5
167
100
AcDbEntity
8
0
100
AcDbBlockBegin
2
_U3
70
0
10
0
20
0
30
0
3
_U3
0
MTEXT
5
161
100
AcDbEntity
8
SK2
62
256
6
ByLayer
370
13
48
1
60
0
100
AcDbMText
10
109.15186
20
-21.66987
30
0
210
0
220
0
230
1
1
\W0.7150;2,96
40
3.5
41
0
44
1.084337
50
0
71
7
72
5
7
iso_b_vert
0
LINE
5
162
100
AcDbEntity
8
SK2
62
256
6
ByLayer
370
13
48
1
60
0
100
AcDbLine
10
103
20
-1.5875
30
0
11
103
21
-24.702503
31
0
39
0
210
0
220
0
230
1
0
LINE
5
163
100
AcDbEntity
8
SK2
62
256
6
ByLayer
370
13
48
1
60
0
100
AcDbLine
10
100.0391
20
-11.4875
30
0
11
100.0391
21
-24.702503
31
0
39
0
210
0
220
0
230
1
0
LINE
5
164
100
AcDbEntity
8
SK2
62
256
6
ByLayer
370
13
48
1
60
0
100
AcDbLine
10
91.2891
20
-22.702503
30
0
11
116.996491
21
-22.702503
31
0
39
0
210
0
220
0
230
1
0
SOLID
5
165
100
AcDbEntity
8
SK2
62
256
6
ByLayer
370
18
48
1
60
0
100
AcDbTrace
10
103
20
-22.702503
30
0
11
106.499998
21
-22.241719
31
0
12
106.500002
22
-23.163287
32
0
13
106.500002
23
-23.163287
33
0
39
0
210
0
220
0
230
1
0
SOLID
5
166
100
AcDbEntity
8
SK2
62
256
6
ByLayer
370
18
48
1
60
0
100
AcDbTrace
10
100.0391
20
-22.702503
30
0
11
96.539102
21
-23.163287
31
0
12
96.539098
22
-22.241719
32
0
13
96.539098
23
-22.241719
33
0
39
0
210
0
220
0
230
1
0
ENDBLK
5
168
100
AcDbEntity
8
0
100
AcDbBlockEnd
0
BLOCK
5
16D
100
AcDbEntity
8
0
100
AcDbBlockBegin
2
*D9
70
1
10
0
20
0
30
0
3
*D9
0
LINE
5
16F
100
AcDbEntity
8
0
62
256
6
ByLayer
370
-2
48
1
60
0
100
AcDbLine
10
-50
20
-11.5875
30
0
11
-50
21
-30.343428
31
0
39
0
210
0
220
0
230
1
0
LINE
5
170
100
AcDbEntity
8
0
62
256
6
ByLayer
370
-2
48
1
60
0
100
AcDbLine
10
100.0391
20
-11.4875
30
0
11
100.0391
21
-30.343428
31
0
39
0
210
0
220
0
230
1
0
LINE
5
171
100
AcDbEntity
8
0
62
256
6
ByLayer
370
-2
48
1
60
0
100
AcDbLine
10
-46.5
20
-28.343428
30
0
11
96.5391
21
-28.343428
31
0
39
0
210
0
220
0
230
1
0
SOLID
5
172
100
AcDbEntity
8
0
62
256
6
ByLayer
370
-1
48
1
60
0
100
AcDbTrace
10
-46.5
20
-27.760095
30
0
11
-46.5
21
-28.926762
31
0
12
-50
22
-28.343428
32
0
13
-50
23
-28.343428
33
0
39
0
210
0
220
0
230
1
0
SOLID
5
173
100
AcDbEntity
8
0
62
256
6
ByLayer
370
-1
48
1
60
0
100
AcDbTrace
10
96.5391
20
-28.926762
30
0
11
96.5391
21
-27.760095
31
0
12
100.0391
22
-28.343428
32
0
13
100.0391
23
-28.343428
33
0
39
0
210
0
220
0
230
1
0
MTEXT
5
174
100
AcDbEntity
8
0
62
256
6
ByLayer
370
18
48
1
60
0
100
AcDbMText
10
25.01955
20
-21.343428
30
0
210
0
220
0
230
1
1
\A1;150.04
40
3.5
41
0
44
1
50
0
71
5
72
5
7
iso_b_vert
0
POINT
5
175
100
AcDbEntity
8
Defpoints
62
0
6
ByLayer
370
-1
48
1
60
0
100
AcDbPoint
10
-50
20
-10
30
0
39
0
210
0
220
0
230
1
50
360
0
POINT
5
176
100
AcDbEntity
8
Defpoints
62
0
6
ByLayer
370
-1
48
1
60
0
100
AcDbPoint
10
100.0391
20
-9.9
30
0
39
0
210
0
220
0
230
1
50
360
0
POINT
5
177
100
AcDbEntity
8
Defpoints
62
0
6
ByLayer
370
-1
48
1
60
0
100
AcDbPoint
10
100.0391
20
-28.343428
30
0
39
0
210
0
220
0
230
1
50
360
0
ENDBLK
5
16E
100
AcDbEntity
8
0
100
AcDbBlockEnd
0
BLOCK
5
17F
100
AcDbEntity
8
0
100
AcDbBlockBegin
2
_U4
70
0
10
0
20
0
30
0
3
_U4
0
MTEXT
5
179
100
AcDbEntity
8
SK2
62
256
6
ByLayer
370
13
48
1
60
0
100
AcDbMText
10
18.827685
20
-27.310795
30
0
210
0
220
0
230
1
1
\W0.7079;150,04
40
3.5
41
0
44
1.084337
50
0
71
7
72
5
7
iso_b_vert
0
LINE
5
17A
100
AcDbEntity
8
SK2
62
256
6
ByLayer
370
13
48
1
60
0
100
AcDbLine
10
-50
20
-11.5875
30
0
11
-50
21
-30.343428
31
0
39
0
210
0
220
0
230
1
0
LINE
5
17B
100
AcDbEntity
8
SK2
62
256
6
ByLayer
370
13
48
1
60
0
100
AcDbLine
10
100.0391
20
-11.4875
30
0
11
100.0391
21
-30.343428
31
0
39
0
210
0
220
0
230
1
0
LINE
5
17C
100
AcDbEntity
8
SK2
62
256
6
ByLayer
370
13
48
1
60
0
100
AcDbLine
10
-50
20
-28.343428
30
0
11
100.0391
21
-28.343428
31
0
39
0
210
0
220
0
230
1
0
SOLID
5
17D
100
AcDbEntity
8
SK2
62
256
6
ByLayer
370
18
48
1
60
0
100
AcDbTrace
10
-50
20
-28.343428
30
0
11
-46.500002
21
-27.882645
31
0
12
-46.499998
22
-28.804212
32
0
13
-46.499998
23
-28.804212
33
0
39
0
210
0
220
0
230
1
0
SOLID
5
17E
100
AcDbEntity
8
SK2
62
256
6
ByLayer
370
18
48
1
60
0
100
AcDbTrace
10
100.0391
20
-28.343428
30
0
11
96.539102
21
-28.804212
31
0
12
96.539098
22
-27.882645
32
0
13
96.539098
23
-27.882645
33
0
39
0
210
0
220
0
230
1
0
ENDBLK
5
180
100
AcDbEntity
8
0
100
AcDbBlockEnd
0
ENDSEC
0
SECTION
2
ENTITIES
0
ELLIPSE
5
AF
100
AcDbEntity
8
1
62
256
6
ByLayer
370
18
48
1
60
0
100
AcDbEllipse
10
4.25
20
9.595781
30
0
11
-0.25
21
3.06151588455594E-17
31
0
210
0
220
0
230
1
40
0.999997
41
0.00434142564269956
42
1.59627747299881
0
ELLIPSE
5
B0
100
AcDbEntity
8
1
62
256
6
ByLayer
370
18
48
1
60
0
100
AcDbEllipse
10
4.25
20
-9.595781
30
0
11
-0.25
21
3.06151588455594E-17
31
0
210
0
220
0
230
1
40
0.999997
41
-1.55147194314703
42
-0.00434142564269956
0
POINT
5
70
100
AcDbEntity
8
80
62
256
6
ByLayer
370
18
48
1
60
0
100
AcDbPoint
10
0
20
0
30
0
39
0
210
0
220
0
230
1
50
360
0
POINT
5
72
100
AcDbEntity
8
81
62
256
6
ByLayer
370
18
48
1
60
0
100
AcDbPoint
10
103
20
0
30
0
39
0
210
0
220
0
230
1
50
360
0
POINT
5
74
100
AcDbEntity
8
1
62
256
6
ByLayer
370
18
48
1
60
1
100
AcDbPoint
10
100.0391
20
-9.9
30
0
39
0
210
0
220
0
230
1
50
360
0
POINT
5
76
100
AcDbEntity
8
1
62
256
6
ByLayer
370
18
48
1
60
1
100
AcDbPoint
10
-50
20
-10
30
0
39
0
210
0
220
0
230
1
50
360
0
POINT
5
77
100
AcDbEntity
8
1
62
256
6
ByLayer
370
18
48
1
60
1
100
AcDbPoint
10
17.84
20
9.9
30
0
39
0
210
0
220
0
230
1
50
360
0
POINT
5
78
100
AcDbEntity
8
1
62
256
6
ByLayer
370
18
48
1
60
1
100
AcDbPoint
10
100.0391
20
-9.9
30
0
39
0
210
0
220
0
230
1
50
360
0
POINT
5
79
100
AcDbEntity
8
1
62
256
6
ByLayer
370
18
48
1
60
1
100
AcDbPoint
10
-50
20
-10
30
0
39
0
210
0
220
0
230
1
50
360
0
POINT
5
7A
100
AcDbEntity
8
1
62
256
6
ByLayer
370
18
48
1
60
1
100
AcDbPoint
10
100.0391
20
-9.9
30
0
39
0
210
0
220
0
230
1
50
360
0
SPLINE
5
B1
100
AcDbEntity
8
1
62
256
6
ByLayer
370
18
48
1
60
0
100
AcDbSpline
70
4
71
3
72
10
73
6
40
0
40
0
40
0
40
0
40
0.5
40
0.5
40
1
40
1
40
1
40
1
41
1
10
102.969234968919
20
0.248241671667728
30
0
41
1
10
102.96999848283
20
0.222918167399598
30
0
41
1
10
102.973495562285
20
0.193852700592998
30
0
41
1
10
102.984230010106
20
0.131101332640753
30
0
41
1
10
102.991336436317
20
0.0983013050509953
30
0
41
1
10
102.999960717546
20
0.064263290107391
30
0
0
SPLINE
5
B2
100
AcDbEntity
8
1
62
256
6
ByLayer
370
18
48
1
60
0
100
AcDbSpline
70
4
71
3
72
34
73
30
40
0
40
0
40
0
40
0
40
0.0624999999999951
40
0.0624999999999951
40
0.12499999999999
40
0.12499999999999
40
0.187499999999985
40
0.187499999999985
40
0.24999999999998
40
0.24999999999998
40
0.312499999999975
40
0.312499999999975
40
0.37499999999997
40
0.37499999999997
40
0.437499999999965
40
0.437499999999965
40
0.49999999999996
40
0.49999999999996
40
0.624999999999961
40
0.624999999999961
40
0.687499999999966
40
0.687499999999966
40
0.749999999999972
40
0.749999999999972
40
0.874999999999983
40
0.874999999999983
40
0.937499999999991
40
0.937499999999991
40
1
40
1
40
1
40
1
41
1
10
101.267075897059
20
-2.90957630061499
30
0
41
1
10
101.261489983604
20
-2.96097743734347
30
0
41
1
10
101.253192391798
20
-3.01679747502294
30
0
41
1
10
101.231920219902
20
-3.13179343738139
30
0
41
1
10
101.218905955261
20
-3.19155000731402
30
0
41
1
10
101.188056407577
20
-3.31568606854299
30
0
41
1
10
101.170250161916
20
-3.37976256089678
30
0
41
1
10
101.131446894002
20
-3.5069947546142
30
0
41
1
10
101.110288501246
20
-3.57082376112723
30
0
41
1
10
101.064545962162
20
-3.69891813152609
30
0
41
1
10
101.04060645947
20
-3.76138244487106
30
0
41
1
10
100.990864883472
20
-3.88337312449329
30
0
41
1
10
100.964875908062
20
-3.94329702247447
30
0
41
1
10
100.911960770038
20
-4.05843245127082
30
0
41
1
10
100.885246067412
20
-4.11323742026713
30
0
41
1
10
100.83136807623
20
-4.21777674972526
30
0
41
1
10
100.804068358158
20
-4.26773815322449
30
0
41
1
10
100.722532554918
20
-4.4083851659
30
0
41
1
10
100.668656166324
20
-4.48979507411838
30
0
41
1
10
100.5924733321
20
-4.58932082772824
30
0
41
1
10
100.567741753156
20
-4.61892011876614
30
0
41
1
10
100.51956830153
20
-4.67107802356026
30
0
41
1
10
100.496002125094
20
-4.69373655983185
30
0
41
1
10
100.42817166954
20
-4.74994070268559
30
0
41
1
10
100.387441804064
20
-4.77150678423178
30
0
41
1
10
100.333055748311
20
-4.77939991948884
30
0
41
1
10
100.315995076039
20
-4.7778061220402
30
0
41
1
10
100.285261314813
20
-4.76599546044778
30
0
41
1
10
100.271452967125
20
-4.75584180618296
30
0
41
1
10
100.25923516571
20
-4.7413024758967
30
0
0
SPLINE
5
B3
100
AcDbEntity
8
1
62
256
6
ByLayer
370
13
48
1
60
0
100
AcDbSpline
70
4
71
3
72
23
73
19
40
0
40
0
40
0
40
0
40
0.089190874500713
40
0.089190874500713
40
0.22634962414488
40
0.363508373789046
40
0.363508373789046
40
0.432087748611129
40
0.432087748611129
40
0.500667123433212
40
0.500667123433212
40
0.637825873077378
40
0.637825873077378
40
0.706405247899461
40
0.706405247899461
40
0.774984622721544
40
0.774984622721544
40
1
40
1
40
1
40
1
41
1
10
4.25028984675811
20
6.6590263420554
30
0
41
1
10
4.25030983225224
20
6.81251191160882
30
0
41
1
10
4.25032905428341
20
6.96028388278597
30
0
41
1
10
4.2503758560232
20
7.31850465956734
30
0
41
1
10
4.25042909282217
20
7.72293171627189
30
0
41
1
10
4.25047701695763
20
8.06903783821338
30
0
41
1
10
4.2505115289527
20
8.30640172396761
30
0
41
1
10
4.25052279417304
20
8.3818126519173
30
0
41
1
10
4.25054493724997
20
8.52505696833887
30
0
41
1
10
4.25055579744912
20
8.5927617190913
30
0
41
1
10
4.25058765159687
20
8.78264422301831
30
0
41
1
10
4.25060801587125
20
8.89223869712472
30
0
41
1
10
4.25063780394333
20
9.03104152976863
30
0
41
1
10
4.25064760353456
20
9.07300061393198
30
0
41
1
10
4.25066685682319
20
9.14766928512731
30
0
41
1
10
4.25067633341493
20
9.18049082005948
30
0
41
1
10
4.25071643411181
20
9.30200885372349
30
0
41
1
10
4.25074604884
20
9.34788694562167
30
0
41
1
10
4.25077552802793
20
9.34580102063248
30
0
0
SPLINE
5
B4
100
AcDbEntity
8
1
62
256
6
ByLayer
370
18
48
1
60
0
100
AcDbSpline
70
4
71
3
72
102
73
98
40
0
40
0
40
0
40
0
40
0.022344271346888
40
0.022344271346888
40
0.0408871687191002
40
0.0408871687191002
40
0.0594300660913124
40
0.0594300660913124
40
0.0779729634635245
40
0.0779729634635245
40
0.0965158608357367
40
0.0965158608357367
40
0.133601655580161
40
0.133601655580161
40
0.152144552952373
40
0.152144552952373
40
0.170687450324585
40
0.170687450324585
40
0.189230347696797
40
0.189230347696797
40
0.207773245069009
40
0.207773245069009
40
0.226316142441221
40
0.226316142441221
40
0.244859039813433
40
0.244859039813433
40
0.281944834557857
40
0.281944834557857
40
0.300487731930069
40
0.300487731930069
40
0.31903062930228
40
0.31903062930228
40
0.337573526674492
40
0.337573526674492
40
0.356116424046705
40
0.356116424046705
40
0.393202218791128
40
0.393202218791128
40
0.411745116163339
40
0.411745116163339
40
0.430288013535551
40
0.430288013535551
40
0.448830910907762
40
0.448830910907762
40
0.467373808279974
40
0.467373808279974
40
0.504459603024396
40
0.504459603024396
40
0.523002500396607
40
0.523002500396607
40
0.541545397768819
40
0.541545397768819
40
0.56008829514103
40
0.56008829514103
40
0.578631192513241
40
0.578631192513241
40
0.597174089885452
40
0.597174089885452
40
0.615716987257664
40
0.615716987257664
40
0.652802782002086
40
0.652802782002086
40
0.671345679374297
40
0.671345679374297
40
0.689888576746509
40
0.689888576746509
40
0.70843147411872
40
0.70843147411872
40
0.726974371490931
40
0.726974371490931
40
0.745517268863142
40
0.745517268863142
40
0.764060166235354
40
0.764060166235354
40
0.782603063607565
40
0.782603063607565
40
0.801145960979776
40
0.801145960979776
40
0.819688858351987
40
0.819688858351987
40
0.838231755724199
40
0.838231755724199
40
0.85677465309641
40
0.85677465309641
40
0.875317550468621
40
0.875317550468621
40
0.912403345213044
40
0.912403345213044
40
0.930946242585255
40
0.930946242585255
40
0.949489139957466
40
0.949489139957466
40
0.968032037329677
40
0.968032037329677
40
0.986574934701889
40
0.986574934701889
40
1
40
1
40
1
40
1
41
1
10
28.4271718625348
20
7.16410909351669
30
0
41
1
10
28.9290190456044
20
7.35998985161535
30
0
41
1
10
29.4318984340495
20
7.54685064778738
30
0
41
1
10
30.3532566000319
20
7.87309155469134
30
0
41
1
10
30.7711201983164
20
8.01552193177812
30
0
41
1
10
31.6105315478828
20
8.28511704523385
30
0
41
1
10
32.0324142223698
20
8.41269140884236
30
0
41
1
10
32.872446030063
20
8.65190194175275
30
0
41
1
10
33.2913390811843
20
8.76374529623413
30
0
41
1
10
34.1263811261362
20
8.97236815396886
30
0
41
1
10
34.542432209033
20
9.06913920850843
30
0
41
1
10
35.7913656935893
20
9.33339854949784
30
0
41
1
10
36.6233048302877
20
9.47659427573404
30
0
41
1
10
37.8670991191574
20
9.64355759143379
30
0
41
1
10
38.2814834244813
20
9.69092068810693
30
0
41
1
10
39.1120528624925
20
9.76846129126881
30
0
41
1
10
39.5278481906296
20
9.79881001310937
30
0
41
1
10
40.3599551277727
20
9.84274204539051
30
0
41
1
10
40.7762664389412
20
9.85632243765696
30
0
41
1
10
41.6090984493582
20
9.86627681962813
30
0
41
1
10
42.0266264191106
20
9.8625947033492
30
0
41
1
10
42.8644626955931
20
9.8380284191488
30
0
41
1
10
43.2846754849094
20
9.81714032029637
30
0
41
1
10
44.1267074340688
20
9.75782673658884
30
0
41
1
10
44.5459263842786
20
9.71946374886042
30
0
41
1
10
45.8002058081713
20
9.57887756117705
30
0
41
1
10
46.634924055052
20
9.45265756172094
30
0
41
1
10
47.8822157972967
20
9.2148914714102
30
0
41
1
10
48.2967055239056
20
9.12714969644881
30
0
41
1
10
49.1261382057583
20
8.93662177386545
30
0
41
1
10
49.5412327023504
20
8.83401317488904
30
0
41
1
10
50.3716525734955
20
8.61392599829315
30
0
41
1
10
50.7869626402875
20
8.49643161833828
30
0
41
1
10
51.6174158881119
20
8.24604269321162
30
0
41
1
10
52.0321208800741
20
8.11265239106351
30
0
41
1
10
53.2802013274927
20
7.69327186958054
30
0
41
1
10
54.1165202791778
20
7.38754986317676
30
0
41
1
10
55.3745714008743
20
6.8851435472757
30
0
41
1
10
55.7951356393227
20
6.70982256990612
30
0
41
1
10
56.6345040992954
20
6.35131010606273
30
0
41
1
10
57.053460968073
20
6.16736204438146
30
0
41
1
10
57.8893735184825
20
5.78944484472132
30
0
41
1
10
58.3063977827181
20
5.59557632553708
30
0
41
1
10
59.1379276171822
20
5.19699805528015
30
0
41
1
10
59.5530044006682
20
4.99313171754116
30
0
41
1
10
60.7992403511268
20
4.37275053772302
30
0
41
1
10
61.6298190510195
20
3.94514041476936
30
0
41
1
10
62.8729443577083
20
3.2785342715438
30
0
41
1
10
63.2879347380116
20
3.05389893744814
30
0
41
1
10
64.1195569570591
20
2.60055500572906
30
0
41
1
10
64.5360127068366
20
2.37154958937688
30
0
41
1
10
65.3698182113228
20
1.90811134435779
30
0
41
1
10
65.7868944751414
20
1.67317650836057
30
0
41
1
10
66.6227309189866
20
1.19909277310009
30
0
41
1
10
67.0422515101668
20
0.961355121985349
30
0
41
1
10
67.884096119826
20
0.483755451877556
30
0
41
1
10
68.3042603255022
20
0.244981643939212
30
0
41
1
10
69.1415339208431
20
-0.232436732303768
30
0
41
1
10
69.5583461049197
20
-0.47209928379965
30
0
41
1
10
70.8079226044794
20
-1.18549875421951
30
0
41
1
10
71.6402429642888
20
-1.6530470632238
30
0
41
1
10
72.8848504498202
20
-2.34750348229676
30
0
41
1
10
73.298672260154
20
-2.57850582299423
30
0
41
1
10
74.127933767953
20
-3.03311416244944
30
0
41
1
10
74.5431185080775
20
-3.25718199646906
30
0
41
1
10
75.3739874076247
20
-3.69991129412966
30
0
41
1
10
75.7897141972591
20
-3.91850075122918
30
0
41
1
10
76.6212520564122
20
-4.35087357997142
30
0
41
1
10
77.0369827386094
20
-4.56476555197776
30
0
41
1
10
77.8718033905556
20
-4.98235008312187
30
0
41
1
10
78.2904620846844
20
-5.18676047914758
30
0
41
1
10
79.1297102782066
20
-5.58767994679164
30
0
41
1
10
79.5511331808437
20
-5.78442487307112
30
0
41
1
10
80.3894628352529
20
-6.16780224013053
30
0
41
1
10
80.8073938712276
20
-6.35375980625162
30
0
41
1
10
81.6428218203455
20
-6.71170799212541
30
0
41
1
10
82.0599541609358
20
-6.88424697851926
30
0
41
1
10
82.8925843554966
20
-7.21725600135159
30
0
41
1
10
83.3080512874735
20
-7.37775912627012
30
0
41
1
10
84.137114717514
20
-7.68680472307508
30
0
41
1
10
84.5517654837334
20
-7.8341150725347
30
0
41
1
10
85.3815998484383
20
-8.1142862098915
30
0
41
1
10
85.796625738115
20
-8.24732527067212
30
0
41
1
10
86.6264955693011
20
-8.49967941827489
30
0
41
1
10
87.0410528152416
20
-8.61923623772577
30
0
41
1
10
88.2856621811943
20
-8.95577036477798
30
0
41
1
10
89.1196443026353
20
-9.14842099331261
30
0
41
1
10
90.374321810298
20
-9.3914756788148
30
0
41
1
10
90.7927062513579
20
-9.46500844564881
30
0
41
1
10
91.6328353223525
20
-9.59500488160685
30
0
41
1
10
92.0535091514146
20
-9.65127389255147
30
0
41
1
10
92.8936933027568
20
-9.74665066021345
30
0
41
1
10
93.3134856588627
20
-9.78580348778723
30
0
41
1
10
94.1520631686055
20
-9.84704665090126
30
0
41
1
10
94.5704396453144
20
-9.8691374789677
30
0
41
1
10
95.2934720880069
20
-9.89195734048587
30
0
41
1
10
95.5974884968675
20
-9.89696415422144
30
0
41
1
10
95.9017602980738
20
-9.89741276852295
30
0
0
SPLINE
5
B5
100
AcDbEntity
8
1
62
256
6
ByLayer
370
18
48
1
60
0
100
AcDbSpline
70
4
71
3
72
40
73
36
40
0
40
0
40
0
40
0
40
0.062499999999998
40
0.062499999999998
40
0.093749999999997
40
0.093749999999997
40
0.124999999999996
40
0.124999999999996
40
0.187499999999994
40
0.187499999999994
40
0.218749999999994
40
0.218749999999994
40
0.249999999999994
40
0.249999999999994
40
0.312499999999993
40
0.312499999999993
40
0.343749999999994
40
0.343749999999994
40
0.374999999999995
40
0.374999999999995
40
0.437499999999997
40
0.437499999999997
40
0.499999999999999
40
0.499999999999999
40
0.562500000000001
40
0.562500000000001
40
0.59375
40
0.59375
40
0.624999999999999
40
0.624999999999999
40
0.75
40
0.75
40
0.875
40
0.875
40
1
40
1
40
1
40
1
41
1
10
90.3416698362793
20
3.99899460597948
30
0
41
1
10
90.2922016621678
20
3.70080665406914
30
0
41
1
10
90.2657433438136
20
3.39318367889942
30
0
41
1
10
90.2627181355601
20
2.91671612045644
30
0
41
1
10
90.2679311468298
20
2.75487061545042
30
0
41
1
10
90.2904260262615
20
2.43287108081495
30
0
41
1
10
90.3076631460866
20
2.27194935392987
30
0
41
1
10
90.3765636926263
20
1.78940813374817
30
0
41
1
10
90.4453666407342
20
1.46801195382389
30
0
41
1
10
90.5808096995416
20
0.986337725927058
30
0
41
1
10
90.63154864578
20
0.825368789654249
30
0
41
1
10
90.741585605154
20
0.508920005848466
30
0
41
1
10
90.8010195257247
20
0.352832835232306
30
0
41
1
10
90.9914767343507
20
-0.109545033153012
30
0
41
1
10
91.1346004050005
20
-0.409978740433786
30
0
41
1
10
91.3705561416866
20
-0.85033379722617
30
0
41
1
10
91.4527695462658
20
-0.995394934564075
30
0
41
1
10
91.6239919148355
20
-1.28222793086184
30
0
41
1
10
91.7130655383482
20
-1.4240513282316
30
0
41
1
10
91.9865392858182
20
-1.83989959281124
30
0
41
1
10
92.1782073487202
20
-2.10617967426938
30
0
41
1
10
92.57710728432
20
-2.62051356393815
30
0
41
1
10
92.7843662732326
20
-2.86853561722853
30
0
41
1
10
93.2124991710863
20
-3.34863573220753
30
0
41
1
10
93.4333812964658
20
-3.58070417189131
30
0
41
1
10
93.7738689463743
20
-3.91807462716642
30
0
41
1
10
93.8890798632642
20
-4.02891675439352
30
0
41
1
10
94.1209990413709
20
-4.24577886263546
30
0
41
1
10
94.2378168078438
20
-4.35190808985246
30
0
41
1
10
94.8260269809048
20
-4.87149985340656
30
0
41
1
10
95.3098413952625
20
-5.25164374137361
30
0
41
1
10
96.2977742860002
20
-5.95747140783439
30
0
41
1
10
96.8020638952437
20
-6.28269616909012
30
0
41
1
10
97.8286660969375
20
-6.88480395400228
30
0
41
1
10
98.3522311955089
20
-7.16224037467609
30
0
41
1
10
98.8792455467994
20
-7.4150925960576
30
0
0
SPLINE
5
B6
100
AcDbEntity
8
1
62
256
6
ByLayer
370
18
48
1
60
0
100
AcDbSpline
70
4
71
3
72
14
73
10
40
0
40
0
40
0
40
0
40
0.25
40
0.25
40
0.5
40
0.5
40
0.75
40
0.75
40
1
40
1
40
1
40
1
41
1
10
100.027275200863
20
9.6240501985562
30
0
41
1
10
100.244614878921
20
9.00302714386777
30
0
41
1
10
100.468096184959
20
8.38270846976047
30
0
41
1
10
100.925452014696
20
7.14365325970891
30
0
41
1
10
101.159346956847
20
6.52491708613846
30
0
41
1
10
101.636445051243
20
5.2891661622364
30
0
41
1
10
101.879665752925
20
4.6717484775269
30
0
41
1
10
102.372036780293
20
3.4434151012232
30
0
41
1
10
102.621429409434
20
2.83183676565599
30
0
41
1
10
102.873841352877
20
2.22248196959075
30
0
0
SPLINE
5
B7
100
AcDbEntity
8
1
62
256
6
ByLayer
370
18
48
1
60
0
100
AcDbSpline
70
4
71
3
72
20
73
16
40
0
40
0
40
0
40
0
40
0.314693954055702
40
0.314693954055702
40
0.423059595775457
40
0.423059595775457
40
0.531425237495213
40
0.531425237495213
40
0.639790879214968
40
0.639790879214968
40
0.748156520934724
40
0.748156520934724
40
0.964887804374234
40
0.964887804374234
40
1
40
1
40
1
40
1
41
1
10
71.4580364973707
20
0.034535954646401
30
0
41
1
10
72.8955269024654
20
-0.753069724116187
30
0
41
1
10
74.3346708648556
20
-1.54201433017715
30
0
41
1
10
76.2853235089321
20
-2.57901561423131
30
0
41
1
10
76.7859189777224
20
-2.84220368030273
30
0
41
1
10
77.7857014691384
20
-3.36024638796204
30
0
41
1
10
78.2854365156895
20
-3.61545939680676
30
0
41
1
10
79.2855764572253
20
-4.11655789239694
30
0
41
1
10
79.7856750947338
20
-4.36226070049162
30
0
41
1
10
80.7840977135344
20
-4.84119370535134
30
0
41
1
10
81.282798828698
20
-5.0746425205844
30
0
41
1
10
82.7785981384957
20
-5.75517707596964
30
0
41
1
10
83.7752706279544
20
-6.18262788102658
30
0
41
1
10
84.9368851125078
20
-6.64251588962756
30
0
41
1
10
85.0989760743843
20
-6.70582332772452
30
0
41
1
10
85.2609620676384
20
-6.76819926373233
30
0
0
SPLINE
5
B8
100
AcDbEntity
8
1
62
256
6
ByLayer
370
13
48
1
60
0
100
AcDbSpline
70
4
71
3
72
20
73
16
40
0
40
0
40
0
40
0
40
0.0181876534994214
40
0.0181876534994214
40
0.069861987525767
40
0.069861987525767
40
0.173210655578458
40
0.173210655578458
40
0.586605327789225
40
0.586605327789225
40
0.79330266389461
40
0.79330266389461
40
0.896651331947305
40
0.896651331947305
40
1
40
1
40
1
40
1
41
1
10
85.2609630015807
20
-6.7681996233654
30
0
41
1
10
85.3489427811659
20
-6.80207798957352
30
0
41
1
10
85.4368915956685
20
-6.83568156968394
30
0
41
1
10
85.7744501355285
20
-6.96362886515982
30
0
41
1
10
86.0237440392915
20
-7.05596329701592
30
0
41
1
10
86.7705458134562
20
-7.32599847468919
30
0
41
1
10
87.2669770371517
20
-7.49673503457677
30
0
41
1
10
89.7443659432358
20
-8.30174001686513
30
0
41
1
10
91.7109900960578
20
-8.79014394285176
30
0
41
1
10
94.6770656784352
20
-9.25827824364671
30
0
41
1
10
95.6685648057814
20
-9.37025045759341
30
0
41
1
10
97.164914826434
20
-9.46849713337471
30
0
41
1
10
97.6655763002462
20
-9.4895845745454
30
0
41
1
10
98.6651641541552
20
-9.50783869640196
30
0
41
1
10
99.1647494975289
20
-9.50506396954998
30
0
41
1
10
99.6645275644931
20
-9.49035668886091
30
0
0
SPLINE
5
B9
100
AcDbEntity
8
1
62
256
6
ByLayer
370
18
48
1
60
0
100
AcDbSpline
70
4
71
3
72
12
73
8
40
0
40
0
40
0
40
0
40
0.60314672938295
40
0.60314672938295
40
0.904720094074421
40
0.904720094074421
40
1
40
1
40
1
40
1
41
1
10
19.9352977609732
20
9.1556085491622
30
0
41
1
10
19.2348355737094
20
9.23072675578334
30
0
41
1
10
18.5425984749822
20
9.28647557870039
30
0
41
1
10
17.5114774144884
20
9.3364833415078
30
0
41
1
10
17.1689867466977
20
9.34770052618578
30
0
41
1
10
16.7193287376699
20
9.35417816299099
30
0
41
1
10
16.6114200419169
20
9.35509294283673
30
0
41
1
10
16.5035793216516
20
9.35536013475067
30
0
0
SPLINE
5
BA
100
AcDbEntity
8
1
62
256
6
ByLayer
370
18
48
1
60
0
100
AcDbSpline
70
4
71
3
72
50
73
46
40
0
40
0
40
0
40
0
40
0.0624999999999906
40
0.0624999999999906
40
0.124999999999981
40
0.124999999999981
40
0.187499999999972
40
0.187499999999972
40
0.249999999999962
40
0.249999999999962
40
0.312499999999953
40
0.312499999999953
40
0.343749999999945
40
0.343749999999945
40
0.374999999999937
40
0.374999999999937
40
0.40624999999993
40
0.40624999999993
40
0.421874999999928
40
0.421874999999928
40
0.437499999999926
40
0.437499999999926
40
0.453124999999924
40
0.453124999999924
40
0.468749999999921
40
0.468749999999921
40
0.484374999999919
40
0.484374999999919
40
0.499999999999917
40
0.499999999999917
40
0.531249999999919
40
0.531249999999919
40
0.56249999999992
40
0.56249999999992
40
0.624999999999929
40
0.624999999999929
40
0.687499999999939
40
0.687499999999939
40
0.749999999999948
40
0.749999999999948
40
0.874999999999974
40
0.874999999999974
40
0.937499999999987
40
0.937499999999987
40
1
40
1
40
1
40
1
41
1
10
100.25923516571
20
-4.74130247589659
30
0
41
1
10
100.100900936351
20
-4.69419663676135
30
0
41
1
10
99.9427695754488
20
-4.64010894887949
30
0
41
1
10
99.6269085260903
20
-4.51810975688872
30
0
41
1
10
99.468670348233
20
-4.44995183473543
30
0
41
1
10
99.1553123901901
20
-4.29993224904436
30
0
41
1
10
99.0004453786349
20
-4.21826593971488
30
0
41
1
10
98.6948253704338
20
-4.03981991059311
30
0
41
1
10
98.5440526327017
20
-3.94311271244942
30
0
41
1
10
98.2478096620458
20
-3.73021882145557
30
0
41
1
10
98.102515255971
20
-3.61428884008805
30
0
41
1
10
97.8952221429893
20
-3.42189711460762
30
0
41
1
10
97.8276006192841
20
-3.35430874734828
30
0
41
1
10
97.6989791037428
20
-3.21239074940124
30
0
41
1
10
97.6377241641328
20
-3.13796773675722
30
0
41
1
10
97.524532081974
20
-2.97855924514195
30
0
41
1
10
97.4720621418367
20
-2.89278636346
30
0
41
1
10
97.4096754376892
20
-2.7564740267581
30
0
41
1
10
97.3915006583943
20
-2.70930869102818
30
0
41
1
10
97.3637229169195
20
-2.61453862369245
30
0
41
1
10
97.3538883439007
20
-2.56641089629218
30
0
41
1
10
97.3454071589917
20
-2.46953406070526
30
0
41
1
10
97.3469490056797
20
-2.42279436887282
30
0
41
1
10
97.3626405974799
20
-2.3330188485499
30
0
41
1
10
97.3765799982486
20
-2.29167348247671
30
0
41
1
10
97.4144133201764
20
-2.21682410735963
30
0
41
1
10
97.438173913778
20
-2.18360207589319
30
0
41
1
10
97.491270314314
20
-2.12566788095984
30
0
41
1
10
97.5211085100891
20
-2.10035118951973
30
0
41
1
10
97.6157239353049
20
-2.03445462716755
30
0
41
1
10
97.6848041540296
20
-2.00359231555788
30
0
41
1
10
97.8297055897717
20
-1.95654241247706
30
0
41
1
10
97.9050178165685
20
-1.94088243502028
30
0
41
1
10
98.1322653313148
20
-1.90965699237304
30
0
41
1
10
98.2875856261895
20
-1.90889849337901
30
0
41
1
10
98.602473764294
20
-1.92967358514088
30
0
41
1
10
98.762231066093
20
-1.95182046850087
30
0
41
1
10
99.0793177628964
20
-2.01166924316055
30
0
41
1
10
99.237517036323
20
-2.04952992278976
30
0
41
1
10
99.7112907657005
20
-2.18212010449034
30
0
41
1
10
100.026063226616
20
-2.2953480952099
30
0
41
1
10
100.496746545728
20
-2.49922041288667
30
0
41
1
10
100.65304262257
20
-2.57288020907086
30
0
41
1
10
100.962294701272
20
-2.73174129454603
30
0
41
1
10
101.115541792491
20
-2.81702393693851
30
0
41
1
10
101.26707589706
20
-2.90957630061504
30
0
0
SPLINE
5
BB
100
AcDbEntity
8
1
62
256
6
ByLayer
370
18
48
1
60
0
100
AcDbSpline
70
4
71
3
72
8
73
4
40
0
40
0
40
0
40
0
40
1
40
1
40
1
40
1
41
1
10
102.952543460436
20
-0.0426178581686543
30
0
41
1
10
102.376055655904
20
-0.984961550718197
30
0
41
1
10
101.814159926394
20
-1.94054792637661
30
0
41
1
10
101.267075897059
20
-2.90957630061502
30
0
0
SPLINE
5
BC
100
AcDbEntity
8
1
62
256
6
ByLayer
370
18
48
1
60
0
100
AcDbSpline
70
4
71
3
72
12
73
8
40
0
40
0
40
0
40
0
40
0.249999999999989
40
0.249999999999989
40
0.499999999999977
40
0.499999999999977
40
1
40
1
40
1
40
1
41
1
10
4.12642484800008
20
6.71047549631803
30
0
41
1
10
4.10716366573206
20
6.71847778055394
30
0
41
1
10
4.08976184792721
20
6.7281310566384
30
0
41
1
10
4.05856888398563
20
6.75060610157524
30
0
41
1
10
4.04492856494232
20
6.76342400536731
30
0
41
1
10
4.01195738508952
20
6.80447875196629
30
0
41
1
10
3.99999971746246
20
6.8359976326675
30
0
41
1
10
3.99999971746246
20
6.86773374734949
30
0
0
SPLINE
5
BD
100
AcDbEntity
8
1
62
256
6
ByLayer
370
18
48
1
60
0
100
AcDbSpline
70
4
71
3
72
36
73
32
40
0
40
0
40
0
40
0
40
0.11592883953733
40
0.11592883953733
40
0.173893259305995
40
0.173893259305995
40
0.231857679074659
40
0.231857679074659
40
0.289822098843323
40
0.289822098843323
40
0.347786518611988
40
0.347786518611988
40
0.463715358149318
40
0.463715358149318
40
0.521679777917983
40
0.521679777917983
40
0.579644197686648
40
0.579644197686648
40
0.637608617455313
40
0.637608617455313
40
0.695573037223978
40
0.695573037223978
40
0.81150187676131
40
0.81150187676131
40
0.869466296529976
40
0.869466296529976
40
0.927430716298643
40
0.927430716298643
40
0.98539513606731
40
0.98539513606731
40
1
40
1
40
1
40
1
41
1
10
19.9352977609731
20
-3.12891182757755
30
0
41
1
10
20.7755554029323
20
-3.58660964250589
30
0
41
1
10
21.6141163128542
20
-4.02443659304635
30
0
41
1
10
22.8661446437595
20
-4.65881315738955
30
0
41
1
10
23.2821759436112
20
-4.86702755029671
30
0
41
1
10
24.1129980191138
20
-5.27467393676986
30
0
41
1
10
24.5285815054974
20
-5.47290368144604
30
0
41
1
10
25.359706630027
20
-5.85899865295349
30
0
41
1
10
25.7751896638305
20
-6.04694879015733
30
0
41
1
10
26.6056608089365
20
-6.41309408570413
30
0
41
1
10
27.0201678540371
20
-6.59191507932627
30
0
41
1
10
28.2657488807866
20
-7.10969662749795
30
0
41
1
10
29.0997105279939
20
-7.42922724384374
30
0
41
1
10
30.3532566000318
20
-7.87309155469134
30
0
41
1
10
30.7711201983163
20
-8.01552193177815
30
0
41
1
10
31.6105315478828
20
-8.28511704523385
30
0
41
1
10
32.0324142223698
20
-8.41269140884236
30
0
41
1
10
32.872446030063
20
-8.65190194175275
30
0
41
1
10
33.2913390811842
20
-8.76374529623413
30
0
41
1
10
34.1263811261361
20
-8.97236815396889
30
0
41
1
10
34.542432209033
20
-9.06913920850843
30
0
41
1
10
35.7913656935893
20
-9.33339854949784
30
0
41
1
10
36.6233048302877
20
-9.47659427573407
30
0
41
1
10
37.8670991191575
20
-9.64355759143382
30
0
41
1
10
38.2814834244813
20
-9.69092068810693
30
0
41
1
10
39.1120528624925
20
-9.76846129126881
30
0
41
1
10
39.5278481906295
20
-9.79881001310939
30
0
41
1
10
40.3599551277726
20
-9.84274204539052
30
0
41
1
10
40.7762664389411
20
-9.85632243765694
30
0
41
1
10
41.2976036892813
20
-9.86255369445396
30
0
41
1
10
41.4025955276318
20
-9.86325802297827
30
0
41
1
10
41.5076624093171
20
-9.86341354647828
30
0
0
SPLINE
5
BE
100
AcDbEntity
8
1
62
256
6
ByLayer
370
18
48
1
60
0
100
AcDbSpline
70
4
71
3
72
32
73
28
40
0
40
0
40
0
40
0
40
0.0540636639319657
40
0.0540636639319657
40
0.126827997475661
40
0.126827997475661
40
0.199592331019356
40
0.199592331019356
40
0.272356664563051
40
0.272356664563051
40
0.417885331650441
40
0.417885331650441
40
0.490649665194135
40
0.490649665194135
40
0.563413998737831
40
0.563413998737831
40
0.636178332281526
40
0.636178332281526
40
0.70894266582522
40
0.70894266582522
40
0.781706999368916
40
0.781706999368916
40
0.85447133291261
40
0.85447133291261
40
0.927235666456306
40
0.927235666456306
40
1
40
1
40
1
40
1
41
1
10
82.7970827037391
20
7.17793925835198
30
0
41
1
10
83.1060752805918
20
7.2993606436624
30
0
41
1
10
83.4145872820829
20
7.41747198639919
30
0
41
1
10
84.137114717514
20
7.68680472307511
30
0
41
1
10
84.5517654837334
20
7.8341150725347
30
0
41
1
10
85.3815998484383
20
8.11428620989153
30
0
41
1
10
85.796625738115
20
8.24732527067215
30
0
41
1
10
86.6264955693012
20
8.49967941827489
30
0
41
1
10
87.0410528152416
20
8.61923623772577
30
0
41
1
10
88.2856621811943
20
8.95577036477803
30
0
41
1
10
89.1196443026353
20
9.14842099331261
30
0
41
1
10
90.374321810298
20
9.3914756788148
30
0
41
1
10
90.7927062513579
20
9.46500844564883
30
0
41
1
10
91.6328353223525
20
9.59500488160685
30
0
41
1
10
92.0535091514147
20
9.65127389255147
30
0
41
1
10
92.8936933027569
20
9.74665066021345
30
0
41
1
10
93.3134856588626
20
9.78580348778723
30
0
41
1
10
94.1520631686055
20
9.84704665090126
30
0
41
1
10
94.5704396453144
20
9.8691374789677
30
0
41
1
10
95.409224182189
20
9.89561062988716
30
0
41
1
10
95.829334213705
20
9.90011642190601
30
0
41
1
10
96.6703529598671
20
9.89176273783875
30
0
41
1
10
97.0913712591642
20
9.87888104581714
30
0
41
1
10
97.9306073118076
20
9.83554774534591
30
0
41
1
10
98.3492879398125
20
9.8050290666383
30
0
41
1
10
99.1880606180358
20
9.7272236532753
30
0
41
1
10
99.6076915727385
20
9.67988485762169
30
0
41
1
10
100.027275200863
20
9.62405019855626
30
0
0
SPLINE
5
BF
100
AcDbEntity
8
1
62
256
6
ByLayer
370
18
48
1
60
0
100
AcDbSpline
70
4
71
3
72
56
73
52
40
0
40
0
40
0
40
0
40
0.0539970182072028
40
0.0539970182072028
40
0.107994036414406
40
0.107994036414406
40
0.134992545518007
40
0.134992545518007
40
0.161991054621609
40
0.161991054621609
40
0.215988072828811
40
0.215988072828811
40
0.269985091036014
40
0.269985091036014
40
0.296983600139616
40
0.296983600139616
40
0.323982109243217
40
0.323982109243217
40
0.377979127450421
40
0.377979127450421
40
0.431976145657625
40
0.431976145657625
40
0.485973163864829
40
0.485973163864829
40
0.512971672968431
40
0.512971672968431
40
0.539970182072032
40
0.539970182072032
40
0.593967200279236
40
0.593967200279236
40
0.647964218486439
40
0.647964218486439
40
0.674962727590041
40
0.674962727590041
40
0.701961236693643
40
0.701961236693643
40
0.755958254900846
40
0.755958254900846
40
0.782956764004448
40
0.782956764004448
40
0.809955273108049
40
0.809955273108049
40
0.863952291315253
40
0.863952291315253
40
0.890950800418855
40
0.890950800418855
40
0.917949309522457
40
0.917949309522457
40
0.97194632772966
40
0.97194632772966
40
1
40
1
40
1
40
1
41
1
10
99.5013151297679
20
-9.88963375611119
30
0
41
1
10
98.507579919192
20
-9.91460671584645
30
0
41
1
10
97.5126047490847
20
-9.89045548322443
30
0
41
1
10
95.5278216059726
20
-9.74540319734973
30
0
41
1
10
94.5367504287898
20
-9.62463638292164
30
0
41
1
10
93.0468288529241
20
-9.37288532341981
30
0
41
1
10
92.5492115711137
20
-9.27710757227922
30
0
41
1
10
91.5558402675601
20
-9.06330573563568
30
0
41
1
10
91.0597333133816
20
-8.94520784676422
30
0
41
1
10
89.5717397146145
20
-8.55848037158623
30
0
41
1
10
88.5801502439048
20
-8.25745137178399
30
0
41
1
10
86.5907631451499
20
-7.57481753798729
30
0
41
1
10
85.5990796891025
20
-7.19545651998899
30
0
41
1
10
84.1109838262339
20
-6.57615356528859
30
0
41
1
10
83.6148228329155
20
-6.36136250676583
30
0
41
1
10
82.6213503981078
20
-5.91619959483154
30
0
41
1
10
82.1236182348193
20
-5.68562013597557
30
0
41
1
10
80.6331894869426
20
-4.97511090673484
30
0
41
1
10
79.6419501253192
20
-4.47553397954439
30
0
41
1
10
77.6568719279617
20
-3.43602360520217
30
0
41
1
10
76.6612106699132
20
-2.89541830965484
30
0
41
1
10
74.6757271749079
20
-1.79419133425327
30
0
41
1
10
73.684333042362
20
-1.23292262328465
30
0
41
1
10
72.1940770084163
20
-0.384014682428983
30
0
41
1
10
71.6963163427483
20
-0.0997086338473423
30
0
41
1
10
70.7025390510583
20
0.4671808883474
30
0
41
1
10
70.2062416803041
20
0.750083047990358
30
0
41
1
10
68.7177749143505
20
1.59480566154889
30
0
41
1
10
67.7258475748121
20
2.15232383279294
30
0
41
1
10
65.7359614849006
20
3.24423904956763
30
0
41
1
10
64.7436923515371
20
3.77501963426465
30
0
41
1
10
63.2551392886393
20
4.53975839703472
30
0
41
1
10
62.7588420625926
20
4.78940198923974
30
0
41
1
10
61.7650829350989
20
5.27666189524211
30
0
41
1
10
61.2672382551957
20
5.51458225808838
30
0
41
1
10
59.776409239709
20
6.20566553397163
30
0
41
1
10
58.7847405902615
20
6.63672018926408
30
0
41
1
10
57.2953969809184
20
7.23206485291124
30
0
41
1
10
56.7986254267939
20
7.42195014782283
30
0
41
1
10
55.8035166201734
20
7.7834034471482
30
0
41
1
10
55.3064869795892
20
7.95450342991273
30
0
41
1
10
53.8168664277565
20
8.437239949862
30
0
41
1
10
52.8252015347809
20
8.71851103244461
30
0
41
1
10
51.3344489520951
20
9.07476292695227
30
0
41
1
10
50.8365019378059
20
9.18263175754123
30
0
41
1
10
49.8423825900774
20
9.37501564845218
30
0
41
1
10
49.3459375123434
20
9.45963643113657
30
0
41
1
10
47.8569237645988
20
9.67813505675767
30
0
41
1
10
46.8647623152993
20
9.77670019936312
30
0
41
1
10
45.3524877934826
20
9.85271374756806
30
0
41
1
10
44.8361130427749
20
9.86551308600346
30
0
41
1
10
44.3200613174683
20
9.86517480427199
30
0
0
SPLINE
5
C0
100
AcDbEntity
8
1
62
256
6
ByLayer
370
18
48
1
60
0
100
AcDbSpline
70
4
71
3
72
12
73
8
40
0
40
0
40
0
40
0
40
0.5
40
0.5
40
0.75
40
0.75
40
1
40
1
40
1
40
1
41
1
10
99.7196684904195
20
2.30529508917445
30
0
41
1
10
100.2456701848
20
2.28870182338542
30
0
41
1
10
100.771660420274
20
2.27221300210613
30
0
41
1
10
101.560163628137
20
2.25187438090129
30
0
41
1
10
101.822902645849
20
2.24596424543796
30
0
41
1
10
102.348403427746
20
2.23393664719512
30
0
41
1
10
102.611143283653
20
2.2280188718334
30
0
41
1
10
102.873841352877
20
2.22248196959049
30
0
0
SPLINE
5
C1
100
AcDbEntity
8
1
62
256
6
ByLayer
370
18
48
1
60
0
100
AcDbSpline
70
4
71
3
72
8
73
4
40
0
40
0
40
0
40
0
40
1
40
1
40
1
40
1
41
1
10
99.6645275650376
20
-9.49035668914129
30
0
41
1
10
99.6102443150533
20
-9.62374108208414
30
0
41
1
10
99.555836329223
20
-9.75683145311686
30
0
41
1
10
99.5013151297679
20
-9.88963375611122
30
0
0
SPLINE
5
C2
100
AcDbEntity
8
1
62
256
6
ByLayer
370
18
48
1
60
0
100
AcDbSpline
70
4
71
3
72
14
73
10
40
0
40
0
40
0
40
0
40
0.25
40
0.25
40
0.5
40
0.5
40
0.75
40
0.75
40
1
40
1
40
1
40
1
41
1
10
99.4952074073837
20
2.14595867671864
30
0
41
1
10
99.4939951691181
20
2.17129628742219
30
0
41
1
10
99.4996501774166
20
2.19690145062509
30
0
41
1
10
99.5254946952584
20
2.24121750049145
30
0
41
1
10
99.545631007138
20
2.259696397721
30
0
41
1
10
99.5907976619495
20
2.28595909631798
30
0
41
1
10
99.6162013671844
20
2.29446207216617
30
0
41
1
10
99.6673085441381
20
2.30445860812588
30
0
41
1
10
99.6935064186449
20
2.30612039870326
30
0
41
1
10
99.7196684904194
20
2.30529508917445
30
0
0
SPLINE
5
C3
100
AcDbEntity
8
1
62
256
6
ByLayer
370
18
48
1
60
0
100
AcDbSpline
70
4
71
3
72
20
73
16
40
0
40
0
40
0
40
0
40
0.141775622214921
40
0.141775622214921
40
0.284551267397978
40
0.284551267397978
40
0.427326912581036
40
0.427326912581036
40
0.712878202947149
40
0.712878202947149
40
0.855653848130205
40
0.855653848130205
40
0.998429493313262
40
0.998429493313262
40
1
40
1
40
1
40
1
41
1
10
44.5057078626275
20
-9.37014117987601
30
0
41
1
10
44.0142900358775
20
-9.36948129766799
30
0
41
1
10
43.5223607772885
20
-9.35749933607337
30
0
41
1
10
42.5332038292061
20
-9.31054603243578
30
0
41
1
10
42.0359339134267
20
-9.27544187205299
30
0
41
1
10
41.0387655750931
20
-9.18207556693625
30
0
41
1
10
40.538095161174
20
-9.12367648968174
30
0
41
1
10
39.0390208115903
20
-8.91472608629525
30
0
41
1
10
38.0422939486908
20
-8.73067574491103
30
0
41
1
10
36.5462672463665
20
-8.39083471623789
30
0
41
1
10
36.0473814522823
20
-8.26696691487274
30
0
41
1
10
35.0485093069978
20
-7.99864374316914
30
0
41
1
10
34.5476755623753
20
-7.85390203866788
30
0
41
1
10
34.0429643415823
20
-7.69834167930327
30
0
41
1
10
34.0374731961851
20
-7.69664805866023
30
0
41
1
10
34.0319822347954
20
-7.69495333704691
30
0
0
SPLINE
5
C4
100
AcDbEntity
8
1
62
256
6
ByLayer
370
13
48
1
60
0
100
AcDbSpline
70
4
71
3
72
24
73
20
40
0
40
0
40
0
40
0
40
0.284501827743911
40
0.284501827743911
40
0.427145004014734
40
0.427145004014734
40
0.498466592150145
40
0.498466592150145
40
0.569788180285555
40
0.569788180285555
40
0.855074532827201
40
0.855074532827201
40
0.890735326894906
40
0.890735326894906
40
0.926396120962612
40
0.926396120962612
40
0.997717709098023
40
0.997717709098023
40
1
40
1
40
1
40
1
41
1
10
34.0319822343419
20
-7.69495333690693
30
0
41
1
10
32.0407276571024
20
-7.08037568277666
30
0
41
1
10
30.0736717928279
20
-6.32101008718564
30
0
41
1
10
27.1175638046783
20
-5.02164587753924
30
0
41
1
10
26.1300636575028
20
-4.56091975107
30
0
41
1
10
24.643256935283
20
-3.83730275054808
30
0
41
1
10
24.1467097597044
20
-3.5906984713333
30
0
41
1
10
23.1510100538979
20
-3.08783649862178
30
0
41
1
10
22.6512705954499
20
-2.83128611663494
30
0
41
1
10
20.1502528876412
20
-1.53156005253624
30
0
41
1
10
18.1633214950466
20
-0.447816006611447
30
0
41
1
10
15.9131949206265
20
0.764431537097749
30
0
41
1
10
15.662781873361
20
0.899130461854043
30
0
41
1
10
15.1629590072003
20
1.16738141022714
30
0
41
1
10
14.9134359010368
20
1.30098882695828
30
0
41
1
10
14.1658586301618
20
1.69994389939103
30
0
41
1
10
13.6687930153271
20
1.96342040342253
30
0
41
1
10
13.1567195276447
20
2.23192401025074
30
0
41
1
10
13.1408422219634
20
2.24024644053631
30
0
41
1
10
13.1249658443948
20
2.2485655823177
30
0
0
SPLINE
5
C5
100
AcDbEntity
8
1
62
256
6
ByLayer
370
18
48
1
60
0
100
AcDbSpline
70
4
71
3
72
8
73
4
40
0
40
0
40
0
40
0
40
1
40
1
40
1
40
1
41
1
10
102.999960717543
20
0.0642632901118247
30
0
41
1
10
103.000013096188
20
0.0214194305826823
30
0
41
1
10
103.000013091831
20
-0.0214229947088143
30
0
41
1
10
102.999960717543
20
-0.064263290108272
30
0
0
SPLINE
5
C6
100
AcDbEntity
8
1
62
256
6
ByLayer
370
18
48
1
60
0
100
AcDbSpline
70
4
71
3
72
30
73
26
40
0
40
0
40
0
40
0
40
0.0625000000000005
40
0.0625000000000005
40
0.125000000000001
40
0.125000000000001
40
0.156250000000001
40
0.156250000000001
40
0.187500000000001
40
0.187500000000001
40
0.250000000000001
40
0.250000000000001
40
0.375
40
0.375
40
0.499999999999999
40
0.499999999999999
40
0.624999999999997
40
0.624999999999997
40
0.687499999999998
40
0.687499999999998
40
0.749999999999998
40
0.749999999999998
40
0.874999999999999
40
0.874999999999999
40
1
40
1
40
1
40
1
41
1
10
4.25114458620038
20
-5.79745508957592
30
0
41
1
10
4.51440142402015
20
-6.03070652292683
30
0
41
1
10
4.7922818863378
20
-6.24169302114862
30
0
41
1
10
5.36759501256006
20
-6.63224331735535
30
0
41
1
10
5.66512518975571
20
-6.81165860176216
30
0
41
1
10
6.12218640284948
20
-7.06236455210174
30
0
41
1
10
6.27635889871186
20
-7.14283175680967
30
0
41
1
10
6.58788595617173
20
-7.29816851254554
30
0
41
1
10
6.74536850590101
20
-7.37308373423397
30
0
41
1
10
7.21920795653443
20
-7.58893591024289
30
0
41
1
10
7.53784624961318
20
-7.72150981556942
30
0
41
1
10
8.49972229198951
20
-8.09124551514952
30
0
41
1
10
9.14874394349405
20
-8.3009820781688
30
0
41
1
10
10.456429480793
20
-8.66264223390348
30
0
41
1
10
11.1153217087925
20
-8.81265674291993
30
0
41
1
10
12.4417955842564
20
-9.05802679736291
30
0
41
1
10
13.1093249840461
20
-9.15405211645026
30
0
41
1
10
14.1188334351145
20
-9.2565488282126
30
0
41
1
10
14.4571468059675
20
-9.28391054815157
30
0
41
1
10
15.1340215836808
20
-9.32565192007354
30
0
41
1
10
15.4727397611612
20
-9.34008293378369
30
0
41
1
10
16.4906049689204
20
-9.36413530484859
30
0
41
1
10
17.1713555338007
20
-9.35302664318274
30
0
41
1
10
18.5435773347695
20
-9.2863800247967
30
0
41
1
10
19.2350511152724
20
-9.23070364090879
30
0
41
1
10
19.9352977609732
20
-9.15560854916234
30
0
0
SPLINE
5
C7
100
AcDbEntity
8
1
62
256
6
ByLayer
370
18
48
1
60
0
100
AcDbSpline
70
4
71
3
72
12
73
8
40
0
40
0
40
0
40
0
40
0.5
40
0.5
40
0.75
40
0.75
40
1
40
1
40
1
40
1
41
1
10
100.027275200863
20
9.62405019855626
30
0
41
1
10
99.9303486267863
20
9.69691119188963
30
0
41
1
10
99.8380686117063
20
9.75596453200114
30
0
41
1
10
99.7065145919516
20
9.82282061901847
30
0
41
1
10
99.6638088499851
20
9.8414792317281
30
0
41
1
10
99.580687641235
20
9.87129195063196
30
0
41
1
10
99.5402010027736
20
9.88244030955707
30
0
41
1
10
99.5013151297679
20
9.88963375611121
30
0
0
SPLINE
5
C8
100
AcDbEntity
8
1
62
256
6
ByLayer
370
18
48
1
60
0
100
AcDbSpline
70
4
71
3
72
10
73
6
40
0
40
0
40
0
40
0
40
0.5
40
0.5
40
1
40
1
40
1
40
1
41
1
10
102.999960717539
20
0.0642632901049183
30
0
41
1
10
102.99372147909
20
0.0447830833428213
30
0
41
1
10
102.986485602818
20
0.0255353824754252
30
0
41
1
10
102.97015523667
20
-0.0113355804264188
30
0
41
1
10
102.961455163113
20
-0.028050530391539
30
0
41
1
10
102.952543460436
20
-0.0426178581685974
30
0
0
SPLINE
5
C9
100
AcDbEntity
8
1
62
256
6
ByLayer
370
18
48
1
60
0
100
AcDbSpline
70
4
71
3
72
18
73
14
40
0
40
0
40
0
40
0
40
0.25
40
0.25
40
0.5
40
0.5
40
0.625
40
0.625
40
0.75
40
0.75
40
0.875
40
0.875
40
1
40
1
40
1
40
1
41
1
10
3.99999971746246
20
-5.99184695042106
30
0
41
1
10
3.99999971746246
20
-5.9512615603451
30
0
41
1
10
4.00348664639605
20
-5.91121490572507
30
0
41
1
10
4.02282211631706
20
-5.83306185855361
30
0
41
1
10
4.03876489248651
20
-5.79516779510087
30
0
41
1
10
4.07894364276231
20
-5.75660957837451
30
0
41
1
10
4.09482901744119
20
-5.74767241498597
30
0
41
1
10
4.12803891140592
20
-5.73991031057591
30
0
41
1
10
4.14531898437752
20
-5.74090790336229
30
0
41
1
10
4.17806983141872
20
-5.74932159707868
30
0
41
1
10
4.19394545235318
20
-5.75671381676548
30
0
41
1
10
4.22360768916499
20
-5.77474955591404
30
0
41
1
10
4.23764847512709
20
-5.78549723397316
30
0
41
1
10
4.25114458580728
20
-5.79745508922761
30
0
0
SPLINE
5
CA
100
AcDbEntity
8
1
62
256
6
ByLayer
370
18
48
1
60
0
100
AcDbSpline
70
4
71
3
72
12
73
8
40
0
40
0
40
0
40
0
40
0.5
40
0.5
40
0.75
40
0.75
40
1
40
1
40
1
40
1
41
1
10
100.027275200862
20
-9.624050198557
30
0
41
1
10
99.9303486267855
20
-9.69691119189014
30
0
41
1
10
99.8380686117057
20
-9.75596453200151
30
0
41
1
10
99.7065145919512
20
-9.82282061901866
30
0
41
1
10
99.6638088499848
20
-9.8414792317282
30
0
41
1
10
99.580687641235
20
-9.871291950632
30
0
41
1
10
99.5402010027735
20
-9.88244030955708
30
0
41
1
10
99.5013151297678
20
-9.88963375611121
30
0
0
SPLINE
5
CB
100
AcDbEntity
8
1
62
256
6
ByLayer
370
18
48
1
60
0
100
AcDbSpline
70
4
71
3
72
43
73
39
40
0
40
0
40
0
40
0
40
0.125000000000002
40
0.125000000000002
40
0.187500000000002
40
0.187500000000002
40
0.250000000000003
40
0.250000000000003
40
0.375000000000005
40
0.375000000000005
40
0.500000000000006
40
0.500000000000006
40
0.562500000000005
40
0.562500000000005
40
0.625000000000003
40
0.625000000000003
40
0.750000000000004
40
0.750000000000004
40
0.812500000000003
40
0.812500000000003
40
0.843750000000002
40
0.843750000000002
40
0.859375000000004
40
0.867187500000005
40
0.867187500000005
40
0.875000000000006
40
0.875000000000006
40
0.882812500000007
40
0.882812500000007
40
0.886718750000007
40
0.886718750000007
40
0.890625000000006
40
0.890625000000006
40
0.906250000000005
40
0.906250000000005
40
0.937500000000003
40
0.937500000000003
40
1
40
1
40
1
40
1
41
1
10
90.3416698362792
20
3.99899460597945
30
0
41
1
10
90.719278511363
20
3.62413896918156
30
0
41
1
10
91.1101132260034
20
3.27237360606077
30
0
41
1
10
91.7166889649701
20
2.78020700926831
30
0
41
1
10
91.922235016867
20
2.62200719707863
30
0
41
1
10
92.3401229291896
20
2.31747182564652
30
0
41
1
10
92.5532033703944
20
2.17069031687427
30
0
41
1
10
93.1954091744384
20
1.75368764428461
30
0
41
1
10
93.6284083188011
20
1.50555046817155
30
0
41
1
10
94.5043770163666
20
1.07051961663564
30
0
41
1
10
94.9475487220561
20
0.884867668223393
30
0
41
1
10
95.620589903541
20
0.657272119239678
30
0
41
1
10
95.8463316057286
20
0.589973559823932
30
0
41
1
10
96.3008750698294
20
0.474172939002216
30
0
41
1
10
96.5299466811871
20
0.425715571625688
30
0
41
1
10
97.2114728145867
20
0.313395076428378
30
0
41
1
10
97.6621229262793
20
0.280699715669129
30
0
41
1
10
98.3287275322131
20
0.313031126204351
30
0
41
1
10
98.5481866028952
20
0.337020025493217
30
0
41
1
10
98.8715654714752
20
0.394480569448945
30
0
41
1
10
98.9783929194701
20
0.417218536713762
30
0
41
1
10
99.136758311256
20
0.456897679882985
30
0
41
1
10
99.215447521905
20
0.478122916773799
30
0
41
1
10
99.293379622213
20
0.501474056202824
30
0
41
1
10
99.3451640134558
20
0.517519789414138
30
0
41
1
10
99.3714473784993
20
0.524707097685592
30
0
41
1
10
99.4173616653731
20
0.556696388927747
30
0
41
1
10
99.436174249399
20
0.579983028578852
30
0
41
1
10
99.4498105841458
20
0.625331767563608
30
0
41
1
10
99.451641459056
20
0.642307865577948
30
0
41
1
10
99.4551769873731
20
0.67576265627747
30
0
41
1
10
99.4571504072387
20
0.692409670268091
30
0
41
1
10
99.4664726423779
20
0.775853482965886
30
0
41
1
10
99.4730096251234
20
0.842975696957865
30
0
41
1
10
99.4899835635737
20
1.04517615008763
30
0
41
1
10
99.497782480378
20
1.18100655929811
30
0
41
1
10
99.5117561015804
20
1.59125772897195
30
0
41
1
10
99.5084680750234
20
1.86879069428616
30
0
41
1
10
99.4952074073836
20
2.14595867671864
30
0
0
SPLINE
5
CC
100
AcDbEntity
8
1
62
256
6
ByLayer
370
18
48
1
60
0
100
AcDbSpline
70
4
71
3
72
10
73
6
40
0
40
0
40
0
40
0
40
0.5
40
0.5
40
1
40
1
40
1
40
1
41
1
10
102.969234968919
20
-0.248241671667472
30
0
41
1
10
102.96999848283
20
-0.222918167398717
30
0
41
1
10
102.973495562285
20
-0.193852700591265
30
0
41
1
10
102.984230010107
20
-0.131101332637371
30
0
41
1
10
102.991336436318
20
-0.0983013050467321
30
0
41
1
10
102.999960717547
20
-0.0642632901021614
30
0
0
SPLINE
5
CD
100
AcDbEntity
8
1
62
256
6
ByLayer
370
18
48
1
60
0
100
AcDbSpline
70
4
71
3
72
53
73
49
40
0
40
0
40
0
40
0
40
0.0528480671979613
40
0.0528480671979613
40
0.081507524912915
40
0.081507524912915
40
0.110166982627868
40
0.110166982627868
40
0.224804813487681
40
0.224804813487681
40
0.339442644347495
40
0.339442644347495
40
0.396761559777402
40
0.396761559777402
40
0.454080475207309
40
0.511399390637215
40
0.511399390637215
40
0.540058848352169
40
0.540058848352169
40
0.554388577209645
40
0.561553441638384
40
0.565135873852753
40
0.565135873852753
40
0.568718306067122
40
0.568718306067122
40
0.572300738281491
40
0.572300738281491
40
0.57588317049586
40
0.57588317049586
40
0.579465602710229
40
0.579465602710229
40
0.583048034924599
40
0.583048034924599
40
0.597377763782075
40
0.597377763782075
40
0.626037221497029
40
0.626037221497029
40
0.683356136926936
40
0.683356136926936
40
0.797993967786749
40
0.797993967786749
40
0.855312883216656
40
0.855312883216656
40
0.883972340931609
40
0.883972340931609
40
0.912631798646562
40
0.912631798646562
40
1
40
1
40
1
40
1
41
1
10
19.9352977609731
20
-3.1157231788105
30
0
41
1
10
19.9352977609731
20
-3.00056179449859
30
0
41
1
10
19.9352977609731
20
-2.89464973616754
30
0
41
1
10
19.9352977609731
20
-2.74549276179542
30
0
41
1
10
19.9352977609731
20
-2.69575583182041
30
0
41
1
10
19.9352977609731
20
-2.60172417428339
30
0
41
1
10
19.9352977609731
20
-2.55755352145681
30
0
41
1
10
19.9352977609731
20
-2.35205275615786
30
0
41
1
10
19.9352977609731
20
-2.23494189458987
30
0
41
1
10
19.9352977609731
20
-2.08758930558841
30
0
41
1
10
19.9352977609731
20
-2.05740513709682
30
0
41
1
10
19.9352977609731
20
-2.07645162727215
30
0
41
1
10
19.9352977609731
20
-2.09366353924057
30
0
41
1
10
19.9352977609731
20
-2.14902092978258
30
0
41
1
10
19.9352977609731
20
-2.2252965921636
30
0
41
1
10
19.9352977609731
20
-2.34254643647336
30
0
41
1
10
19.9352977609731
20
-2.44577253400399
30
0
41
1
10
19.9352977609731
20
-2.48274363034019
30
0
41
1
10
19.9352977609731
20
-2.54187624451654
30
0
41
1
10
19.9352977609731
20
-2.57236927333216
30
0
41
1
10
19.9352977609732
20
-2.60956179755064
30
0
41
1
10
19.9352977609732
20
-2.6258476774795
30
0
41
1
10
19.9352977609732
20
-2.63677808092299
30
0
41
1
10
19.9352977609731
20
-2.64176149110341
30
0
41
1
10
19.9352977609731
20
-2.6542813429912
30
0
41
1
10
19.9352977609731
20
-2.66246619234337
30
0
41
1
10
19.9352977609731
20
-2.68273441389226
30
0
41
1
10
19.9352977609732
20
-2.69506572626238
30
0
41
1
10
19.9352977609732
20
-2.72222048670415
30
0
41
1
10
19.9352977609731
20
-2.73741590532094
30
0
41
1
10
19.9352977609731
20
-2.76954687478118
30
0
41
1
10
19.9352977609731
20
-2.78564065526561
30
0
41
1
10
19.9352977609731
20
-2.86625137683538
30
0
41
1
10
19.9352977609731
20
-2.93116544264623
30
0
41
1
10
19.9352977609731
20
-3.12707433307534
30
0
41
1
10
19.9352977609731
20
-3.25927652059855
30
0
41
1
10
19.9352977609731
20
-3.66034198664329
30
0
41
1
10
19.9352977609731
20
-3.93396680254139
30
0
41
1
10
19.9352977609731
20
-4.76604295036472
30
0
41
1
10
19.9352977609731
20
-5.33790762223691
30
0
41
1
10
19.9352977609731
20
-6.22267089014079
30
0
41
1
10
19.9352977609731
20
-6.52210813082391
30
0
41
1
10
19.9352977609731
20
-6.97843032314779
30
0
41
1
10
19.9352977609731
20
-7.13164870771317
30
0
41
1
10
19.9352977609731
20
-7.4378922611053
30
0
41
1
10
19.9352977609731
20
-7.59123763550892
30
0
41
1
10
19.9352977609731
20
-8.21296441310767
30
0
41
1
10
19.9352977609732
20
-8.68319106150179
30
0
41
1
10
19.9352977609732
20
-9.15560854916234
30
0
0
SPLINE
5
CE
100
AcDbEntity
8
1
62
256
6
ByLayer
370
18
48
1
60
0
100
AcDbSpline
70
4
71
3
72
16
73
12
40
0
40
0
40
0
40
0
40
0.123472035314683
40
0.123472035314683
40
0.246944070629366
40
0.246944070629366
40
0.493888141258733
40
0.493888141258733
40
0.987776282517466
40
0.987776282517466
40
1
40
1
40
1
40
1
41
1
10
99.6730598622404
20
-9.39615560734856
30
0
41
1
10
99.1735085206419
20
-9.40756847550136
30
0
41
1
10
98.6741451164763
20
-9.40718775551511
30
0
41
1
10
97.6750085447779
20
-9.3829044220094
30
0
41
1
10
97.1746230506128
20
-9.35894226470543
30
0
41
1
10
95.6791954879594
20
-9.25257624922216
30
0
41
1
10
94.6881642763516
20
-9.13582047775603
30
0
41
1
10
91.7231998277498
20
-8.65530065267779
30
0
41
1
10
89.7569803055475
20
-8.16122911896838
30
0
41
1
10
87.7265518867501
20
-7.49839616374391
30
0
41
1
10
87.6775032691539
20
-7.48229365339327
30
0
41
1
10
87.6284448923257
20
-7.46609795245794
30
0
0
SPLINE
5
CF
100
AcDbEntity
8
1
62
256
6
ByLayer
370
13
48
1
60
0
100
AcDbSpline
70
4
71
3
72
26
73
22
40
0
40
0
40
0
40
0
40
0.0671786498153449
40
0.0671786498153449
40
0.104458698416498
40
0.104458698416498
40
0.14173874701765
40
0.14173874701765
40
0.290858941422254
40
0.290858941422254
40
0.365419038624555
40
0.365419038624555
40
0.439979135826856
40
0.439979135826856
40
0.514539233029156
40
0.514539233029156
40
0.589099330231457
40
0.589099330231457
40
0.887339719040656
40
0.887339719040656
40
1
40
1
40
1
40
1
41
1
10
87.6284447681839
20
-7.46609791147483
30
0
41
1
10
87.1819634582615
20
-7.31870049835206
30
0
41
1
10
86.7346738049744
20
-7.16358424143243
30
0
41
1
10
86.0373631279019
20
-6.91090392456061
30
0
41
1
10
85.7881447602559
20
-6.81844901030905
30
0
41
1
10
85.2889446557336
20
-6.62903777963277
30
0
41
1
10
85.038814666234
20
-6.53202215123099
30
0
41
1
10
83.7899227946587
20
-6.03756340018083
30
0
41
1
10
82.7937284128584
20
-5.61102759005348
30
0
41
1
10
81.2986081465079
20
-4.93290677785112
30
0
41
1
10
80.8001263687418
20
-4.70044079713185
30
0
41
1
10
79.8021246383204
20
-4.22385048596678
30
0
41
1
10
79.3022193461746
20
-3.97951095105177
30
0
41
1
10
78.3026025650053
20
-3.48152289261896
30
0
41
1
10
77.8031172087985
20
-3.22802978110647
30
0
41
1
10
76.8038154706735
20
-2.713758763529
30
0
41
1
10
76.30344100323
20
-2.45261468477801
30
0
41
1
10
73.806662703775
20
-1.13565396477648
30
0
41
1
10
71.8311883797749
20
-0.0509483600709473
30
0
41
1
10
69.1037086669464
20
1.41897787496163
30
0
41
1
10
68.3551909960729
20
1.81926661539328
30
0
41
1
10
67.6046854265001
20
2.21441632530283
30
0
0
SPLINE
5
D0
100
AcDbEntity
8
1
62
256
6
ByLayer
370
18
48
1
60
0
100
AcDbSpline
70
4
71
3
72
18
73
14
40
0
40
0
40
0
40
0
40
0.258899642830209
40
0.258899642830209
40
0.517799285660418
40
0.517799285660418
40
0.647249107075522
40
0.647249107075522
40
0.776698928490626
40
0.776698928490626
40
0.906148749905731
40
0.906148749905731
40
1
40
1
40
1
40
1
41
1
10
19.9352977609732
20
-9.15560854916234
30
0
41
1
10
20.6706707645746
20
-9.07365496500717
30
0
41
1
10
21.4050542027294
20
-8.96827522149013
30
0
41
1
10
22.8714598985861
20
-8.70897836719351
30
0
41
1
10
23.6033936486628
20
-8.55419961049827
30
0
41
1
10
24.7039233050099
20
-8.29050610234592
30
0
41
1
10
25.0710566865653
20
-8.19705235156437
30
0
41
1
10
25.8059160817504
20
-7.99844084598377
30
0
41
1
10
26.1738778470485
20
-7.89331366083053
30
0
41
1
10
26.908341986015
20
-7.67322962662246
30
0
41
1
10
27.2751291051458
20
-7.55840643577477
30
0
41
1
10
27.9077914348702
20
-7.35096348948443
30
0
41
1
10
28.1736223173612
20
-7.26101606528144
30
0
41
1
10
28.4394165045573
20
-7.16858026994183
30
0
0
SPLINE
5
D1
100
AcDbEntity
8
1
62
256
6
ByLayer
370
18
48
1
60
0
100
AcDbSpline
70
4
71
3
72
38
73
34
40
0
40
0
40
0
40
0
40
0.0341456446754079
40
0.0341456446754079
40
0.0909606067533271
40
0.0909606067533271
40
0.147775568831246
40
0.147775568831246
40
0.204590530909165
40
0.204590530909165
40
0.261405492987084
40
0.261405492987084
40
0.318220455065003
40
0.318220455065003
40
0.431850379220838
40
0.431850379220838
40
0.488665341298754
40
0.488665341298754
40
0.54548030337667
40
0.54548030337667
40
0.602295265454586
40
0.602295265454586
40
0.659110227532501
40
0.659110227532501
40
0.715925189610417
40
0.715925189610417
40
0.772740151688333
40
0.772740151688333
40
0.829555113766249
40
0.829555113766249
40
0.886370075844165
40
0.886370075844165
40
1
40
1
40
1
40
1
41
1
10
70.991941834216
20
9.38478200038008
30
0
41
1
10
71.2121024704652
20
9.38340809609858
30
0
41
1
10
71.4322364080043
20
9.37974328275709
30
0
41
1
10
72.0185513141901
20
9.36340199603879
30
0
41
1
10
72.3846866399771
20
9.34657524534569
30
0
41
1
10
73.117023232049
20
9.30090781885491
30
0
41
1
10
73.4834704119592
20
9.27223239152957
30
0
41
1
10
74.2175218302438
20
9.20272710099928
30
0
41
1
10
74.5852656037464
20
9.16149223627403
30
0
41
1
10
75.3193552120471
20
9.06591917151508
30
0
41
1
10
75.6859310243883
20
9.01177402315054
30
0
41
1
10
76.418370198846
20
8.89186121100371
30
0
41
1
10
76.7842364472602
20
8.82614307942515
30
0
41
1
10
77.8826366087237
20
8.61180175549109
30
0
41
1
10
78.6151937914451
20
8.44437033475324
30
0
41
1
10
79.7148875173971
20
8.16290421120291
30
0
41
1
10
80.0814320314714
20
8.0637419602709
30
0
41
1
10
80.8159352488055
20
7.85287648283344
30
0
41
1
10
81.1828853820263
20
7.74170487261182
30
0
41
1
10
81.9160806026363
20
7.5088762167633
30
0
41
1
10
82.2823911367826
20
7.38733307350503
30
0
41
1
10
83.0145542206429
20
7.13457555071631
30
0
41
1
10
83.3802738987852
20
7.00317489673932
30
0
41
1
10
84.1120420323665
20
6.73200452807097
30
0
41
1
10
84.4782561442942
20
6.59246835757966
30
0
41
1
10
85.2111977198219
20
6.30582160894022
30
0
41
1
10
85.5778982631529
20
6.15841714473646
30
0
41
1
10
86.3117392531791
20
5.85349051784098
30
0
41
1
10
86.679133610793
20
5.69614478375468
30
0
41
1
10
87.4122890425177
20
5.37372645315659
30
0
41
1
10
87.7786915039433
20
5.20918774035286
30
0
41
1
10
88.8776930729641
20
4.70654231132934
30
0
41
1
10
89.6098167729233
20
4.35870635001947
30
0
41
1
10
90.3416698362788
20
3.99899460597914
30
0
0
SPLINE
5
D2
100
AcDbEntity
8
1
62
256
6
ByLayer
370
18
48
1
60
0
100
AcDbSpline
70
4
71
3
72
14
73
10
40
0
40
0
40
0
40
0
40
0.25
40
0.25
40
0.5
40
0.5
40
0.75
40
0.75
40
1
40
1
40
1
40
1
41
1
10
100.027275200858
20
-9.6240501985715
30
0
41
1
10
100.244978451625
20
-9.00198827681263
30
0
41
1
10
100.468610975502
20
-8.38129243610001
30
0
41
1
10
100.925909980026
20
-7.14243397676725
30
0
41
1
10
101.159596498977
20
-6.52427478487357
30
0
41
1
10
101.63596749203
20
-5.29039906163737
30
0
41
1
10
101.878515646157
20
-4.67464550969518
30
0
41
1
10
102.371253606908
20
-3.44534119237093
30
0
41
1
10
102.621084241321
20
-2.83267004574026
30
0
41
1
10
102.873841352879
20
-2.22248196958782
30
0
0
SPLINE
5
D3
100
AcDbEntity
8
1
62
256
6
ByLayer
370
18
48
1
60
0
100
AcDbSpline
70
4
71
3
72
14
73
10
40
0
40
0
40
0
40
0
40
0.25
40
0.25
40
0.5
40
0.5
40
0.75
40
0.75
40
1
40
1
40
1
40
1
41
1
10
99.6730598617602
20
-9.39615560735953
30
0
41
1
10
99.676535493884
20
-9.39555164599398
30
0
41
1
10
99.6793859456794
20
-9.39660622886089
30
0
41
1
10
99.6834178931041
20
-9.4031321851503
30
0
41
1
10
99.6845478201687
20
-9.40867872675022
30
0
41
1
10
99.6838501073591
20
-9.42545667090533
30
0
41
1
10
99.6819338544559
20
-9.43676086256647
30
0
41
1
10
99.6749510039036
20
-9.46268015329869
30
0
41
1
10
99.6699900281381
20
-9.47693436595966
30
0
41
1
10
99.6645275651596
20
-9.4903566888413
30
0
0
SPLINE
5
D4
100
AcDbEntity
8
1
62
256
6
ByLayer
370
18
48
1
60
0
100
AcDbSpline
70
4
71
3
72
8
73
4
40
0
40
0
40
0
40
0
40
1
40
1
40
1
40
1
41
1
10
100.25923516571
20
-4.74130247589659
30
0
41
1
10
99.7872799179239
20
-5.62171301429075
30
0
41
1
10
99.3272383017402
20
-6.51293547955316
30
0
41
1
10
98.8792455467994
20
-7.41509259605769
30
0
0
SPLINE
5
D5
100
AcDbEntity
8
1
62
256
6
ByLayer
370
18
48
1
60
0
100
AcDbSpline
70
4
71
3
72
8
73
4
40
0
40
0
40
0
40
0
40
1
40
1
40
1
40
1
41
1
10
102.873841352878
20
2.22248196959043
30
0
41
1
10
102.917611612416
20
1.56373734360099
30
0
41
1
10
102.949413630058
20
0.905657014190552
30
0
41
1
10
102.969234968919
20
0.248241671667756
30
0
0
SPLINE
5
D6
100
AcDbEntity
8
1
62
256
6
ByLayer
370
18
48
1
60
0
100
AcDbSpline
70
4
71
3
72
8
73
4
40
0
40
0
40
0
40
0
40
1
40
1
40
1
40
1
41
1
10
3.99999971746246
20
-6.36814519584721
30
0
41
1
10
3.99999971746246
20
-6.24306430616755
30
0
41
1
10
3.99999971746246
20
-6.11763135725056
30
0
41
1
10
3.99999971746246
20
-5.99184695042109
30
0
0
SPLINE
5
D7
100
AcDbEntity
8
1
62
256
6
ByLayer
370
18
48
1
60
0
100
AcDbSpline
70
4
71
3
72
8
73
4
40
0
40
0
40
0
40
0
40
1
40
1
40
1
40
1
41
1
10
99.5013151297678
20
9.88963375611121
30
0
41
1
10
99.2409912932139
20
9.89617579731012
30
0
41
1
10
98.9805532979547
20
9.89935697793595
30
0
41
1
10
98.7200961274092
20
9.89917958448547
30
0
0
SPLINE
5
D8
100
AcDbEntity
8
1
62
256
6
ByLayer
370
18
48
1
60
0
100
AcDbSpline
70
4
71
3
72
54
73
50
40
0
40
0
40
0
40
0
40
0.0183566698255081
40
0.0183566698255081
40
0.051078114164658
40
0.051078114164658
40
0.0837995585038079
40
0.0837995585038079
40
0.149242447182108
40
0.149242447182108
40
0.181963891521258
40
0.181963891521258
40
0.214685335860408
40
0.214685335860408
40
0.280128224538708
40
0.280128224538708
40
0.312849668877858
40
0.312849668877858
40
0.345571113217008
40
0.345571113217008
40
0.411014001895307
40
0.411014001895307
40
0.443735446234456
40
0.443735446234456
40
0.476456890573605
40
0.476456890573605
40
0.509178334912755
40
0.509178334912755
40
0.541899779251904
40
0.541899779251904
40
0.607342667930203
40
0.607342667930203
40
0.640064112269352
40
0.640064112269352
40
0.672785556608502
40
0.672785556608502
40
0.738228445286801
40
0.738228445286801
40
0.770949889625951
40
0.770949889625951
40
0.8036713339651
40
0.8036713339651
40
0.8691142226434
40
0.8691142226434
40
0.90183566698255
40
0.90183566698255
40
0.9345571113217
40
0.9345571113217
40
1
40
1
40
1
40
1
41
1
10
49.6848429227376
20
-9.39884934591996
30
0
41
1
10
49.4063079505269
20
-9.44707593323093
30
0
41
1
10
49.1278707113181
20
-9.49163706246046
30
0
41
1
10
48.3531316977464
20
-9.60531875977924
30
0
41
1
10
47.8568525564303
20
-9.66637689500436
30
0
41
1
10
46.8635232159122
20
-9.76459808565255
30
0
41
1
10
46.3661709068518
20
-9.80177615959113
30
0
41
1
10
44.8736092334763
20
-9.87675510456295
30
0
41
1
10
43.8814901494277
20
-9.8779069313296
30
0
41
1
10
42.3922471899315
20
-9.80688616801591
30
0
41
1
10
41.8956469773456
20
-9.77109222240603
30
0
41
1
10
40.9012431038639
20
-9.67533559575833
30
0
41
1
10
40.4032867148946
20
-9.61532084329832
30
0
41
1
10
38.9124267095835
20
-9.40027612424697
30
0
41
1
10
37.9205403811781
20
-9.21006592471733
30
0
41
1
10
36.4303459929399
20
-8.85778988044703
30
0
41
1
10
35.9329093020295
20
-8.7291406902275
30
0
41
1
10
34.9376708093022
20
-8.45040266495744
30
0
41
1
10
34.4408029177964
20
-8.30059472206781
30
0
41
1
10
32.9509731140275
20
-7.8214285096127
30
0
41
1
10
31.958936600587
20
-7.46217101536442
30
0
41
1
10
30.4670676380446
20
-6.86962021624504
30
0
41
1
10
29.9689909076993
20
-6.66303045125463
30
0
41
1
10
28.9749243511758
20
-6.23470808168949
30
0
41
1
10
28.4784068562411
20
-6.01280724212577
30
0
41
1
10
27.4854276921395
20
-5.5549362407244
30
0
41
1
10
26.9890076922139
20
-5.31890820933455
30
0
41
1
10
25.9954444279472
20
-4.83390361769813
30
0
41
1
10
25.4980217591487
20
-4.58481474007351
30
0
41
1
10
24.0048681852534
20
-3.82121925720202
30
0
41
1
10
23.0123830753055
20
-3.29230846008787
30
0
41
1
10
21.5226728843805
20
-2.47825706856904
30
0
41
1
10
21.0259348712692
20
-2.20346685951273
30
0
41
1
10
20.0312755051598
20
-1.64842899230533
30
0
41
1
10
19.5331350207848
20
-1.36807263077455
30
0
41
1
10
18.0417081879002
20
-0.52484589541217
30
0
41
1
10
17.0494754212821
20
0.0413904260159654
30
0
41
1
10
15.5588042334439
20
0.887342002679105
30
0
41
1
10
15.0613127141187
20
1.16893130212711
30
0
41
1
10
14.0657044988873
20
1.72887441594926
30
0
41
1
10
13.5686543181648
20
2.00660096908209
30
0
41
1
10
12.0783571133048
20
2.83066414337534
30
0
41
1
10
11.0861183850962
20
3.36814409297582
30
0
41
1
10
9.59395301214633
20
4.1468365907206
30
0
41
1
10
9.09565549316829
20
4.40205564943957
30
0
41
1
10
8.10117904939386
20
4.89998093504104
30
0
41
1
10
7.6045102263673
20
5.14289098484247
30
0
41
1
10
6.11481502297625
20
5.85142880052501
30
0
41
1
10
5.12206123982241
20
6.2968266718517
30
0
41
1
10
4.12642484800006
20
6.71047549631803
30
0
0
SPLINE
5
D9
100
AcDbEntity
8
1
62
256
6
ByLayer
370
18
48
1
60
0
100
AcDbSpline
70
4
71
3
72
104
73
100
40
0
40
0
40
0
40
0
40
0.0030957185711578
40
0.0030957185711578
40
0.0205852673681555
40
0.0205852673681555
40
0.0380748161651531
40
0.0380748161651531
40
0.0555643649621508
40
0.0555643649621508
40
0.0905434625561471
40
0.0905434625561471
40
0.108033011353145
40
0.108033011353145
40
0.125522560150142
40
0.125522560150142
40
0.160501657744138
40
0.160501657744138
40
0.177991206541136
40
0.177991206541136
40
0.195480755338133
40
0.195480755338133
40
0.212970304135131
40
0.212970304135131
40
0.230459852932129
40
0.230459852932129
40
0.247949401729126
40
0.247949401729126
40
0.265438950526124
40
0.265438950526124
40
0.282928499323122
40
0.282928499323122
40
0.300418048120119
40
0.300418048120119
40
0.317907596917117
40
0.317907596917117
40
0.335397145714114
40
0.335397145714114
40
0.37037624330811
40
0.37037624330811
40
0.387865792105107
40
0.387865792105107
40
0.405355340902105
40
0.405355340902105
40
0.4403344384961
40
0.4403344384961
40
0.457823987293097
40
0.457823987293097
40
0.475313536090094
40
0.475313536090094
40
0.492803084887091
40
0.492803084887091
40
0.510292633684088
40
0.510292633684088
40
0.527782182481085
40
0.527782182481085
40
0.545271731278082
40
0.545271731278082
40
0.56276128007508
40
0.56276128007508
40
0.580250828872077
40
0.580250828872077
40
0.597740377669074
40
0.597740377669074
40
0.615229926466071
40
0.615229926466071
40
0.650209024060065
40
0.650209024060065
40
0.685188121654058
40
0.685188121654058
40
0.702677670451055
40
0.702677670451055
40
0.720167219248052
40
0.720167219248052
40
0.737656768045049
40
0.737656768045049
40
0.755146316842046
40
0.755146316842046
40
0.772635865639042
40
0.772635865639042
40
0.790125414436039
40
0.790125414436039
40
0.807614963233036
40
0.807614963233036
40
0.825104512030033
40
0.825104512030033
40
0.84259406082703
40
0.84259406082703
40
0.860083609624027
40
0.860083609624027
40
0.877573158421024
40
0.877573158421024
40
0.895062707218021
40
0.895062707218021
40
0.930041804812014
40
0.930041804812014
40
0.965020902406007
40
0.965020902406007
40
1
40
1
40
1
40
1
41
1
10
82.8342036027309
20
-7.1963985690974
30
0
41
1
10
82.7692845876455
20
-7.21911362804468
30
0
41
1
10
82.7043511447025
20
-7.2416773967249
30
0
41
1
10
82.2724549902003
20
-7.39068045314761
30
0
41
1
10
81.9048397900326
20
-7.51256125311872
30
0
41
1
10
81.1697972881418
20
-7.7457416784456
30
0
41
1
10
80.8027275052231
20
-7.8567979877655
30
0
41
1
10
80.0694278606669
20
-8.06705390055885
30
0
41
1
10
79.7032508654131
20
-8.16598918983439
30
0
41
1
10
78.6041281688182
20
-8.44698433648537
30
0
41
1
10
77.8712693566391
20
-8.61428799017281
30
0
41
1
10
76.7711865507557
20
-8.82855215966063
30
0
41
1
10
76.4045654246364
20
-8.89427767488914
30
0
41
1
10
75.6702233506711
20
-9.01418283782044
30
0
41
1
10
75.3025689929982
20
-9.06829670234052
30
0
41
1
10
74.2013283996922
20
-9.21108034702797
30
0
41
1
10
73.4683969444429
20
-9.27931320388339
30
0
41
1
10
72.3701293015151
20
-9.34731996214521
30
0
41
1
10
72.0038847834632
20
-9.36398773793672
30
0
41
1
10
71.2708166097175
20
-9.38405789111312
30
0
41
1
10
70.9039655011582
20
-9.38724880563743
30
0
41
1
10
70.1697861414655
20
-9.38158712661513
30
0
41
1
10
69.8022012746684
20
-9.37278203832096
30
0
41
1
10
69.0680373346293
20
-9.34271527074947
30
0
41
1
10
68.7012747596325
20
-9.32140190461871
30
0
41
1
10
67.9678606649865
20
-9.26538419825732
30
0
41
1
10
67.6012588548114
20
-9.23089367282731
30
0
41
1
10
66.8683246622442
20
-9.1504684793567
30
0
41
1
10
66.501992078923
20
-9.10442353956611
30
0
41
1
10
65.7696085759042
20
-8.99978189317901
30
0
41
1
10
65.4035067242314
20
-8.94103684546684
30
0
41
1
10
64.6701224811119
20
-8.81141044552288
30
0
41
1
10
64.3030413490781
20
-8.74082655084285
30
0
41
1
10
63.5681210285896
20
-8.58831369602828
30
0
41
1
10
63.2004463059456
20
-8.50633791210754
30
0
41
1
10
62.4666550806268
20
-8.330621681834
30
0
41
1
10
62.1003887713735
20
-8.23652587301029
30
0
41
1
10
61.0012596624227
20
-7.93910726159351
30
0
41
1
10
60.268549468186
20
-7.72109579017598
30
0
41
1
10
59.1689618396664
20
-7.36119583099256
30
0
41
1
10
58.8025036605504
20
-7.23556039861643
30
0
41
1
10
58.0689088236073
20
-6.9758113983489
30
0
41
1
10
57.7013177502864
20
-6.84129093712406
30
0
41
1
10
56.5991900916619
20
-6.42415432122567
30
0
41
1
10
55.8657661048998
20
-6.12798893312137
30
0
41
1
10
54.7676067619492
20
-5.66045974205551
30
0
41
1
10
54.4014547288527
20
-5.5010416649684
30
0
41
1
10
53.6686400398626
20
-5.17483878864905
30
0
41
1
10
53.3019344941119
20
-5.00791619431698
30
0
41
1
10
52.5682677372932
20
-4.6679153909713
30
0
41
1
10
52.2012942842424
20
-4.4947317210962
30
0
41
1
10
51.4670120104787
20
-4.14110371178125
30
0
41
1
10
51.0997950289984
20
-3.9612385358607
30
0
41
1
10
50.365965772388
20
-3.59745457658968
30
0
41
1
10
49.999225924755
20
-3.41345386531341
30
0
41
1
10
49.266138078339
20
-3.0414457944498
30
0
41
1
10
48.8997813245306
20
-2.85338862905789
30
0
41
1
10
48.1674304860703
20
-2.47290235224355
30
0
41
1
10
47.8014716112
20
-2.28033076849951
30
0
41
1
10
47.0685168271329
20
-1.89332786901539
30
0
41
1
10
46.7017448987332
20
-1.69869118262585
30
0
41
1
10
45.9675564423337
20
-1.30709722706555
30
0
41
1
10
45.5998125409796
20
-1.1099476751258
30
0
41
1
10
44.8653398607204
20
-0.714442695936526
30
0
41
1
10
44.4988005700416
20
-0.51577171347958
30
0
41
1
10
43.3993161801862
20
0.0795525807592981
30
0
41
1
10
42.6666438675949
20
0.475695761208442
30
0
41
1
10
41.2007958829243
20
1.26392444227409
30
0
41
1
10
40.4685643276771
20
1.65803697928212
30
0
41
1
10
39.3661579809286
20
2.23949994345122
30
0
41
1
10
38.9985570726234
20
2.43132033241338
30
0
41
1
10
38.2645445447321
20
2.81141372884994
30
0
41
1
10
37.8979478133846
20
3.00000275728138
30
0
41
1
10
37.1656244821034
20
3.37382237765718
30
0
41
1
10
36.7994959618208
20
3.55838596660769
30
0
41
1
10
36.066770472143
20
3.92116869567039
30
0
41
1
10
35.7001801167698
20
4.0993760902459
30
0
41
1
10
34.9668617745405
20
4.45132980551006
30
0
41
1
10
34.6001037588377
20
4.62486306837027
30
0
41
1
10
33.8663490421592
20
4.96647910320985
30
0
41
1
10
33.4989293919936
20
5.13453385641253
30
0
41
1
10
32.7645116663093
20
5.46110080375678
30
0
41
1
10
32.3975850452254
20
5.62040694977321
30
0
41
1
10
31.6643242005833
20
5.93190283717712
30
0
41
1
10
31.2979849071076
20
6.08392008807431
30
0
41
1
10
30.5658895338844
20
6.37977627901154
30
0
41
1
10
30.2002077700165
20
6.52324682395704
30
0
41
1
10
29.4681028866218
20
6.80026406667687
30
0
41
1
10
29.101876775503
20
6.9346695085473
30
0
41
1
10
28.3690016363219
20
7.19455485869324
30
0
41
1
10
28.0023502457465
20
7.32002163889447
30
0
41
1
10
27.2683925242355
20
7.56055122562793
30
0
41
1
10
26.9008674689944
20
7.6755380891878
30
0
41
1
10
25.7991356325077
20
8.0054665803589
30
0
41
1
10
25.0657583934736
20
8.20388435558914
30
0
41
1
10
23.6006949486842
20
8.55476972253197
30
0
41
1
10
22.8696639245849
20
8.70932223895571
30
0
41
1
10
21.4045350124707
20
8.96834068653169
30
0
41
1
10
20.6705357568168
20
9.0736700109355
30
0
41
1
10
19.9352977609731
20
9.1556085491622
30
0
0
SPLINE
5
DA
100
AcDbEntity
8
1
62
256
6
ByLayer
370
13
48
1
60
0
100
AcDbSpline
70
4
71
3
72
27
73
23
40
0
40
0
40
0
40
0
40
0.0429995811638448
40
0.0429995811638448
40
0.102812107341105
40
0.102812107341105
40
0.162624633518364
40
0.162624633518364
40
0.282249685872884
40
0.282249685872884
40
0.342062212050143
40
0.342062212050143
40
0.401874738227403
40
0.401874738227403
40
0.521499790581922
40
0.641124842936442
40
0.641124842936442
40
0.760749895290961
40
0.760749895290961
40
0.880374947645481
40
0.880374947645481
40
1
40
1
40
1
40
1
41
1
10
4.25077552802841
20
-9.34580102060019
30
0
41
1
10
4.25078198708246
20
-9.34534398272328
30
0
41
1
10
4.25078843962962
20
-9.34258432441189
30
0
41
1
10
4.25080387686333
20
-9.33046257461166
30
0
41
1
10
4.2508128798485
20
-9.31884780157532
30
0
41
1
10
4.25083079126335
20
-9.28661495472909
30
0
41
1
10
4.25083970455108
20
-9.26601733168116
30
0
41
1
10
4.25086635230349
20
-9.19085891053274
30
0
41
1
10
4.25088402331792
20
-9.12285457885875
30
0
41
1
10
4.25091031357425
20
-8.99418413436038
30
0
41
1
10
4.25091904161457
20
-8.94681985734888
30
0
41
1
10
4.25093628707435
20
-8.84393855911341
30
0
41
1
10
4.25094481058315
20
-8.78840878744597
30
0
41
1
10
4.25097005904013
20
-8.60978816446558
30
0
41
1
10
4.25100287542625
20
-8.33961022372705
30
0
41
1
10
4.25103346289629
20
-8.00621637596188
30
0
41
1
10
4.2510624749269
20
-7.64052946903172
30
0
41
1
10
4.25107621886718
20
-7.44084218414687
30
0
41
1
10
4.25110103353447
20
-7.01544543283757
30
0
41
1
10
4.25111217039935
20
-6.78903877221001
30
0
41
1
10
4.25113117574651
20
-6.30881963166112
30
0
41
1
10
4.25113891537626
20
-6.05820116423703
30
0
41
1
10
4.25114458580344
20
-5.79745508923486
30
0
0
SPLINE
5
DB
100
AcDbEntity
8
1
62
256
6
ByLayer
370
18
48
1
60
0
100
AcDbSpline
70
4
71
3
72
67
73
63
40
0
40
0
40
0
40
0
40
0.0312500000000027
40
0.0312500000000027
40
0.0625000000000055
40
0.0625000000000055
40
0.0937500000000083
40
0.0937500000000083
40
0.10937500000001
40
0.10937500000001
40
0.125000000000011
40
0.125000000000011
40
0.140625000000012
40
0.140625000000012
40
0.156250000000013
40
0.156250000000013
40
0.187500000000016
40
0.187500000000016
40
0.203125000000017
40
0.203125000000017
40
0.218750000000018
40
0.218750000000018
40
0.23437500000002
40
0.23437500000002
40
0.250000000000021
40
0.250000000000021
40
0.281250000000023
40
0.281250000000023
40
0.312500000000026
40
0.312500000000026
40
0.328125000000027
40
0.328125000000027
40
0.332031250000028
40
0.333984375000027
40
0.333984375000027
40
0.335937500000027
40
0.335937500000027
40
0.339843750000028
40
0.339843750000028
40
0.343750000000028
40
0.343750000000028
40
0.347656250000028
40
0.347656250000028
40
0.351562500000029
40
0.351562500000029
40
0.359375000000028
40
0.359375000000028
40
0.375000000000027
40
0.375000000000027
40
0.437500000000025
40
0.437500000000025
40
0.500000000000022
40
0.500000000000022
40
0.625000000000017
40
0.625000000000017
40
0.750000000000011
40
0.750000000000011
40
0.812500000000008
40
0.812500000000008
40
0.875000000000006
40
0.875000000000006
40
1
40
1
40
1
40
1
41
1
10
3.99999971746246
20
-6.36814519584718
30
0
41
1
10
3.81659845114012
20
-6.22812564093727
30
0
41
1
10
3.63724580375728
20
-6.07994574512324
30
0
41
1
10
3.29158714979246
20
-5.76433872957031
30
0
41
1
10
3.12708185892041
20
-5.59858969288521
30
0
41
1
10
2.8196415343657
20
-5.2470190167607
30
0
41
1
10
2.67663891596783
20
-5.06125603244288
30
0
41
1
10
2.48417628048196
20
-4.76252972525012
30
0
41
1
10
2.42365883860236
20
-4.65935193453336
30
0
41
1
10
2.31324177038795
20
-4.44861234253986
30
0
41
1
10
2.26308056290461
20
-4.34070206488747
30
0
41
1
10
2.17422665513783
20
-4.11917566246558
30
0
41
1
10
2.13553773337927
20
-4.00555887297284
30
0
41
1
10
2.07139067415636
20
-3.77181740376949
30
0
41
1
10
2.04591849070937
20
-3.65102418349275
30
0
41
1
10
1.9936723676845
20
-3.28696906507108
30
0
41
1
10
1.99011875157152
20
-3.03985705812036
30
0
41
1
10
2.03690301599684
20
-2.66225697716464
30
0
41
1
10
2.0609939643596
20
-2.53731891932063
30
0
41
1
10
2.12465035971576
20
-2.29159695125304
30
0
41
1
10
2.16427905735182
20
-2.17041648466125
30
0
41
1
10
2.25823368515503
20
-1.9312734736082
30
0
41
1
10
2.31296842177707
20
-1.81260265456351
30
0
41
1
10
2.43393144145938
20
-1.58276623753312
30
0
41
1
10
2.50008611838365
20
-1.47145948269238
30
0
41
1
10
2.71323350889745
20
-1.1469215620863
30
0
41
1
10
2.87477120530119
20
-0.942984541698507
30
0
41
1
10
3.22863284610608
20
-0.55495469742695
30
0
41
1
10
3.41879356672735
20
-0.373303689585981
30
0
41
1
10
3.71790354726949
20
-0.116684543180895
30
0
41
1
10
3.82010727691085
20
-0.0336571726973034
30
0
41
1
10
3.95020457479512
20
0.0669551920803428
30
0
41
1
10
3.98941414365862
20
0.0969048078686399
30
0
41
1
10
4.0288869025311
20
0.126512870524493
30
0
41
1
10
4.05525977372088
20
0.146176702103787
30
0
41
1
10
4.06832110344382
20
0.156278876451722
30
0
41
1
10
4.1089715843095
20
0.18393418640747
30
0
41
1
10
4.13815538174902
20
0.197583986711947
30
0
41
1
10
4.1995296446008
20
0.217976685287113
30
0
41
1
10
4.23178937278513
20
0.224908053323958
30
0
41
1
10
4.2959724451951
20
0.233064659428351
30
0
41
1
10
4.32825973390038
20
0.234254679887471
30
0
41
1
10
4.39277622560019
20
0.237491760631201
30
0
41
1
10
4.42502098799056
20
0.239309236169475
30
0
41
1
10
4.52178954803907
20
0.244255965722772
30
0
41
1
10
4.58631801216063
20
0.247316351595345
30
0
41
1
10
4.779951458829
20
0.25578845292037
30
0
41
1
10
4.90907039881057
20
0.260489664165021
30
0
41
1
10
5.55463981669831
20
0.279300501780199
30
0
41
1
10
6.07118885250574
20
0.279366293482383
30
0
41
1
10
7.10446862826618
20
0.250380827668835
30
0
41
1
10
7.61890868073485
20
0.221394476486836
30
0
41
1
10
9.1551036368038
20
0.0928251350909193
30
0
41
1
10
10.1700975287548
20
-0.0483772136677203
30
0
41
1
10
12.183107979026
20
-0.433441574090494
30
0
41
1
10
13.1810718586542
20
-0.677619593637871
30
0
41
1
10
14.6666053121689
20
-1.11232458357142
30
0
41
1
10
15.1580172348075
20
-1.26810951550041
30
0
41
1
10
16.1323059515075
20
-1.59822759407189
30
0
41
1
10
16.6154839971309
20
-1.77261355728848
30
0
41
1
10
18.0544866995165
20
-2.31928446657298
30
0
41
1
10
18.999706471773
20
-2.71523211191678
30
0
41
1
10
19.9352977609731
20
-3.12891182757755
30
0
0
SPLINE
5
DC
100
AcDbEntity
8
1
62
256
6
ByLayer
370
18
48
1
60
0
100
AcDbSpline
70
4
71
3
72
8
73
4
40
0
40
0
40
0
40
0
40
1
40
1
40
1
40
1
41
1
10
102.873841352878
20
-2.22248196959069
30
0
41
1
10
102.917607956749
20
-1.56379236156764
30
0
41
1
10
102.949411973742
20
-0.905711949326388
30
0
41
1
10
102.969234968919
20
-0.248241671667642
30
0
0
SPLINE
5
DD
100
AcDbEntity
8
1
62
256
6
ByLayer
370
18
48
1
60
0
100
AcDbSpline
70
4
71
3
72
16
73
12
40
0
40
0
40
0
40
0
40
0.345502888607088
40
0.345502888607088
40
0.448638085417511
40
0.448638085417511
40
0.551773282227935
40
0.551773282227935
40
0.758043675848786
40
0.758043675848786
40
1
40
1
40
1
40
1
41
1
10
17.0954463101902
20
0.0141328064832464
30
0
41
1
10
18.7683190378345
20
-0.898976738149656
30
0
41
1
10
20.4349458542006
20
-1.80936979447242
30
0
41
1
10
22.6119707535022
20
-2.9495074577583
30
0
41
1
10
23.1119205995615
20
-3.20803178456185
30
0
41
1
10
24.1080107218193
20
-3.71451220869184
30
0
41
1
10
24.6047299619146
20
-3.96275865631048
30
0
41
1
10
26.0920204751386
20
-4.69079011948364
30
0
41
1
10
27.0797789399971
20
-5.15381190834682
30
0
41
1
10
29.2255385909973
20
-6.10017319803535
30
0
41
1
10
30.3831799197374
20
-6.57344929710706
30
0
41
1
10
31.545578593339
20
-7.00123262798772
30
0
0
SPLINE
5
DE
100
AcDbEntity
8
1
62
256
6
ByLayer
370
13
48
1
60
0
100
AcDbSpline
70
4
71
3
72
22
73
18
40
0
40
0
40
0
40
0
40
0.163810173058278
40
0.163810173058278
40
0.262849640850767
40
0.262849640850767
40
0.361889108643255
40
0.361889108643255
40
0.559968044228232
40
0.559968044228232
40
0.65900751202072
40
0.65900751202072
40
0.758046979813209
40
0.758046979813209
40
0.956125915398185
40
0.956125915398185
40
1
40
1
40
1
40
1
41
1
10
31.5455785933731
20
-7.00123262800025
30
0
41
1
10
32.3650949020552
20
-7.30282916643404
30
0
41
1
10
33.1869758757438
20
-7.58181326870456
30
0
41
1
10
34.5126039596893
20
-7.9887360064624
30
0
41
1
10
35.0136927455748
20
-8.13275437720915
30
0
41
1
10
36.0130168616757
20
-8.39927415944877
30
0
41
1
10
36.5121186034056
20
-8.52206336567642
30
0
41
1
10
38.0088274704146
20
-8.85814198632877
30
0
41
1
10
39.005989132625
20
-9.03902084377805
30
0
41
1
10
40.5058499303
20
-9.2422179735438
30
0
41
1
10
41.0067623501937
20
-9.29853425698582
30
0
41
1
10
42.0043161425593
20
-9.38743801965083
30
0
41
1
10
42.5017558192416
20
-9.42016208437349
30
0
41
1
10
43.9912100428022
20
-9.48329310690573
30
0
41
1
10
44.9804193214893
20
-9.47855283958319
30
0
41
1
10
46.1882480406905
20
-9.41653834836427
30
0
41
1
10
46.4072462194085
20
-9.40302938547711
30
0
41
1
10
46.6262595438244
20
-9.38726553268884
30
0
0
SPLINE
5
DF
100
AcDbEntity
8
1
62
256
6
ByLayer
370
18
48
1
60
0
100
AcDbSpline
70
4
71
3
72
22
73
18
40
0
40
0
40
0
40
0
40
0.250000000000002
40
0.250000000000002
40
0.375000000000003
40
0.375000000000003
40
0.437500000000004
40
0.437500000000004
40
0.500000000000004
40
0.500000000000004
40
0.750000000000002
40
0.750000000000002
40
0.812500000000001
40
0.812500000000001
40
0.875
40
0.875
40
1
40
1
40
1
40
1
41
1
10
98.8792455467994
20
-7.4150925960576
30
0
41
1
10
98.8783785456931
20
-7.75868972854633
30
0
41
1
10
98.8937087948635
20
-8.05955795319909
30
0
41
1
10
98.9417334484205
20
-8.44796407436851
30
0
41
1
10
98.9619458607537
20
-8.56688883193786
30
0
41
1
10
98.9989736874969
20
-8.72904363833715
30
0
41
1
10
99.0124063732168
20
-8.78021505292296
30
0
41
1
10
99.0412679476254
20
-8.87616204424322
30
0
41
1
10
99.0567227733624
20
-8.92105509558874
30
0
41
1
10
99.1391339227158
20
-9.13041525305178
30
0
41
1
10
99.2213672558362
20
-9.24990200768428
30
0
41
1
10
99.3461738666308
20
-9.34049805881497
30
0
41
1
10
99.37224434685
20
-9.35565852889573
30
0
41
1
10
99.4266791227192
20
-9.38001054548928
30
0
41
1
10
99.4550711377954
20
-9.38919630904198
30
0
41
1
10
99.543183749285
20
-9.40760775763647
30
0
41
1
10
99.6060078810316
20
-9.40780724494238
30
0
41
1
10
99.6730598618464
20
-9.39615560734455
30
0
0
SPLINE
5
E0
100
AcDbEntity
8
SK1
62
256
6
ByLayer
370
18
48
1
60
0
100
AcDbSpline
70
4
71
3
72
12
73
8
40
0
40
0
40
0
40
0
40
0.249999999999999
40
0.249999999999999
40
0.499999999999998
40
0.499999999999998
40
1
40
1
40
1
40
1
41
1
10
-47.6
20
-9.12905425297663
30
0
41
1
10
-47.6
20
-9.12806778440026
30
0
41
1
10
-47.6041467577045
20
-9.12292047500659
30
0
41
1
10
-47.6170570469017
20
-9.10823039052124
30
0
41
1
10
-47.625554553204
20
-9.09896626313608
30
0
41
1
10
-47.6540551531448
20
-9.06853438631458
30
0
41
1
10
-47.6767307684396
20
-9.04507163498636
30
0
41
1
10
-47.7
20
-9.021581245752
30
0
0
SPLINE
5
E1
100
AcDbEntity
8
SK1
62
256
6
ByLayer
370
18
48
1
60
0
100
AcDbSpline
70
4
71
3
72
12
73
8
40
0
40
0
40
0
40
0
40
0.250000000000001
40
0.250000000000001
40
0.500000000000002
40
0.500000000000002
40
1
40
1
40
1
40
1
41
1
10
-47.6
20
9.12905425297663
30
0
41
1
10
-47.6
20
9.12806778440026
30
0
41
1
10
-47.6041467577045
20
9.12292047500659
30
0
41
1
10
-47.6170570469017
20
9.10823039052124
30
0
41
1
10
-47.625554553204
20
9.09896626313608
30
0
41
1
10
-47.6540551531448
20
9.06853438631458
30
0
41
1
10
-47.6767307684396
20
9.04507163498636
30
0
41
1
10
-47.7
20
9.021581245752
30
0
0
SPLINE
5
E2
100
AcDbEntity
8
SK1
62
256
6
ByLayer
370
18
48
1
60
0
100
AcDbSpline
70
4
71
3
72
8
73
4
40
0
40
0
40
0
40
0
40
1
40
1
40
1
40
1
41
1
10
-47.7
20
9.021581245752
30
0
41
1
10
-48.4685744951211
20
8.24570199081694
30
0
41
1
10
-49.2359060086263
20
7.46862047081152
30
0
41
1
10
-50
20
6.68840748069959
30
0
0
SPLINE
5
E3
100
AcDbEntity
8
SK1
62
256
6
ByLayer
370
18
48
1
60
0
100
AcDbSpline
70
4
71
3
72
12
73
8
40
0
40
0
40
0
40
0
40
0.500000000000009
40
0.500000000000009
40
0.750000000000005
40
0.750000000000005
40
1
40
1
40
1
40
1
41
1
10
-47.7
20
8.73811053279755
30
0
41
1
10
-47.676740996265
20
8.76159059699825
30
0
41
1
10
-47.6540472870877
20
8.78653672685439
30
0
41
1
10
-47.6255893048134
20
8.82151304018797
30
0
41
1
10
-47.6170511066435
20
8.83276428852838
30
0
41
1
10
-47.6041481930831
20
8.85231145476334
30
0
41
1
10
-47.6
20
8.8603818257763
30
0
41
1
10
-47.6
20
8.86448158755246
30
0
0
SPLINE
5
E4
100
AcDbEntity
8
SK1
62
256
6
ByLayer
370
18
48
1
60
0
100
AcDbSpline
70
4
71
3
72
8
73
4
40
0
40
0
40
0
40
0
40
1
40
1
40
1
40
1
41
1
10
-47.7
20
-9.021581245752
30
0
41
1
10
-48.4685744951211
20
-8.24570199081694
30
0
41
1
10
-49.2359060086263
20
-7.46862047081152
30
0
41
1
10
-50
20
-6.68840748069962
30
0
0
SPLINE
5
E5
100
AcDbEntity
8
SK1
62
256
6
ByLayer
370
18
48
1
60
0
100
AcDbSpline
70
4
71
3
72
8
73
4
40
0
40
0
40
0
40
0
40
1
40
1
40
1
40
1
41
1
10
-50
20
6.40493676774517
30
0
41
1
10
-49.2358850969554
20
7.18517111067155
30
0
41
1
10
-48.4685588973851
20
7.96224702384401
30
0
41
1
10
-47.7
20
8.73811053279755
30
0
0
SPLINE
5
E6
100
AcDbEntity
8
1
62
256
6
ByLayer
370
18
48
1
60
0
100
AcDbSpline
70
4
71
3
72
45
73
41
40
0
40
0
40
0
40
0
40
0.0419675439823354
40
0.0798018085327703
40
0.108724132106894
40
0.131179038765737
40
0.15194532387128
40
0.171304700845242
40
0.192777723747338
40
0.217088072091966
40
0.244440901448012
40
0.270588559448191
40
0.290566898902204
40
0.305447650213389
40
0.327697713314615
40
0.351281793862467
40
0.368649708927392
40
0.383559733199451
40
0.414485718639608
40
0.44955387973963
40
0.486958278692877
40
0.526373132726868
40
0.56191641126125
40
0.582982439454579
40
0.602707407242703
40
0.627015742779504
40
0.656778554468744
40
0.689814655388438
40
0.721912093665197
40
0.751944530606833
40
0.773656756851689
40
0.789461929617739
40
0.805183069584593
40
0.823845370839646
40
0.845451284419643
40
0.869740527510359
40
0.915742046984157
40
0.955830597167531
40
0.99476221838883
40
1
40
1
40
1
40
1
41
1
10
44.5127820955062
20
-9.37011741223913
30
0
41
1
10
44.8806440813754
20
-9.37027425908741
30
0
41
1
10
45.5809069163633
20
-9.37063056364477
30
0
41
1
10
46.5360804706966
20
-9.37053007434551
30
0
41
1
10
47.3224631312976
20
-9.3716169195892
30
0
41
1
10
47.9468332542865
20
-9.37261400102358
30
0
41
1
10
48.495875547481
20
-9.37262342146178
30
0
41
1
10
49.0380503692745
20
-9.37287063226313
30
0
41
1
10
49.6096268376239
20
-9.37339274320715
30
0
41
1
10
50.2525930097142
20
-9.37375292933208
30
0
41
1
10
50.9367110933186
20
-9.37475240159944
30
0
41
1
10
51.5828193818493
20
-9.37499332571636
30
0
41
1
10
52.1192811588017
20
-9.37509588169453
30
0
41
1
10
52.6214400178494
20
-9.37515267403546
30
0
41
1
10
53.1553229236187
20
-9.37545235407867
30
0
41
1
10
53.7110966956515
20
-9.37643352426286
30
0
41
1
10
54.2022659058562
20
-9.37686583068154
30
0
41
1
10
54.7582090214739
20
-9.37698327954934
30
0
41
1
10
55.4656129480071
20
-9.37639035363765
30
0
41
1
10
56.370291590138
20
-9.37586909027607
30
0
41
1
10
57.3565234044201
20
-9.37726068015496
30
0
41
1
10
58.3400266589042
20
-9.37794005702509
30
0
41
1
10
59.1824914566546
20
-9.37892951921251
30
0
41
1
10
59.8534068641749
20
-9.37962276008184
30
0
41
1
10
60.4259014609931
20
-9.37966598210807
30
0
41
1
10
61.074799113542
20
-9.37970180221171
30
0
41
1
10
61.8407686725076
20
-9.38032699463989
30
0
41
1
10
62.6752216253373
20
-9.38131935926029
30
0
41
1
10
63.5120470562073
20
-9.3812302487498
30
0
41
1
10
64.2492975103989
20
-9.38140316455474
30
0
41
1
10
64.8432886981838
20
-9.38200834804823
30
0
41
1
10
65.3114294229428
20
-9.38260590161883
30
0
41
1
10
65.7527561900253
20
-9.3828875511831
30
0
41
1
10
66.2450880068873
20
-9.38292072537371
30
0
41
1
10
66.8127724165895
20
-9.38290592613467
30
0
41
1
10
67.6207963440317
20
-9.38339300649042
30
0
41
1
10
68.5917756424735
20
-9.3853093645229
30
0
41
1
10
69.6896308618592
20
-9.3841706800028
30
0
41
1
10
70.4335586584833
20
-9.38533351994346
30
0
41
1
10
70.8162528842
20
-9.38526920746725
30
0
41
1
10
70.8615876052604
20
-9.3852602703243
30
0
0
SPLINE
5
E7
100
AcDbEntity
8
1
62
256
6
ByLayer
370
18
48
1
60
0
100
AcDbSpline
70
4
71
3
72
28
73
24
40
0
40
0
40
0
40
0
40
0.0107555062103818
40
0.0529286880708807
40
0.0996101982480205
40
0.145701026761809
40
0.198818100160951
40
0.241798524885684
40
0.270332304469648
40
0.300179399516593
40
0.336642821432846
40
0.379268398627508
40
0.451231209870355
40
0.51268199069912
40
0.57130338286868
40
0.636615943749191
40
0.703668592393309
40
0.740803678665055
40
0.772080237674748
40
0.80444288059495
40
0.856021141670407
40
0.927905015852925
40
1
40
1
40
1
40
1
41
1
10
16.5821206010039
20
9.355014324867
30
0
41
1
10
16.5385072066856
20
9.35511145877589
30
0
41
1
10
16.323587965928
20
9.3555156423937
30
0
41
1
10
15.9141837885112
20
9.3550322199257
30
0
41
1
10
15.3596493079549
20
9.35442203751953
30
0
41
1
10
14.7597624993362
20
9.35395691262451
30
0
41
1
10
14.1751249334615
20
9.3539738685939
30
0
41
1
10
13.6626725151293
20
9.35397176478409
30
0
41
1
10
13.2458994033466
20
9.35377567731763
30
0
41
1
10
12.855922913189
20
9.3533560648994
30
0
41
1
10
12.408004427203
20
9.35283501696199
30
0
41
1
10
11.7869159699109
20
9.35243763555692
30
0
41
1
10
11.0630858107117
20
9.35221976183735
30
0
41
1
10
10.2734926241839
20
9.35167779927664
30
0
41
1
10
9.51124079851684
20
9.35042227991948
30
0
41
1
10
8.72594867818319
20
9.34961089502806
30
0
41
1
10
8.02900664903277
20
9.34945107429778
30
0
41
1
10
7.47201095389681
20
9.34943617674759
30
0
41
1
10
7.05765120708168
20
9.3494249831505
30
0
41
1
10
6.58390586870999
20
9.34936668229867
30
0
41
1
10
5.94319872348888
20
9.34909293178339
30
0
41
1
10
5.13911065640661
20
9.34819865987743
30
0
41
1
10
4.54711447135603
20
9.34662205451176
30
0
41
1
10
4.2506836838711
20
9.34563955787925
30
0
0
SPLINE
5
E8
100
AcDbEntity
8
1
62
256
6
ByLayer
370
18
48
1
60
0
100
AcDbSpline
70
4
71
3
72
27
73
23
40
0
40
0
40
0
40
0
40
0.0600035862880115
40
0.12528249673753
40
0.175664415979842
40
0.211265505956095
40
0.236001537837811
40
0.273246278942013
40
0.317822592800735
40
0.368313930607424
40
0.451854156636894
40
0.528677912575004
40
0.620798938641615
40
0.667907778633941
40
0.70726028564011
40
0.73842767486286
40
0.775903717802852
40
0.831911414201045
40
0.886722095230215
40
0.931231003952015
40
0.967804716382019
40
1
40
1
40
1
40
1
41
1
10
4.25067981374087
20
-9.3456666631196
30
0
41
1
10
4.49736723300822
20
-9.34648852988744
30
0
41
1
10
5.0124329999382
20
-9.34791131370167
30
0
41
1
10
5.7346484478704
20
-9.3488996025188
30
0
41
1
10
6.35652999301371
20
-9.34929446331958
30
0
41
1
10
6.81172677531649
20
-9.34939982276899
30
0
41
1
10
7.21291690702341
20
-9.34943241439845
30
0
41
1
10
7.6510063050612
20
-9.3494363872444
30
0
41
1
10
8.19498325546752
20
-9.34947748656498
30
0
41
1
10
8.92929438799172
20
-9.34972996881481
30
0
41
1
10
9.79618945904588
20
-9.35093320497137
30
0
41
1
10
10.8342205215833
20
-9.3522370088518
30
0
41
1
10
11.7224843393204
20
-9.35237911313371
30
0
41
1
10
12.4566925208132
20
-9.35287214312743
30
0
41
1
10
12.9403008517502
20
-9.35346585634548
30
0
41
1
10
13.3843054645113
20
-9.35388077003239
30
0
41
1
10
13.8967874305153
20
-9.35400502809998
30
0
41
1
10
14.5064531259529
20
-9.35391154266128
30
0
41
1
10
15.1451171439399
20
-9.35420486376017
30
0
41
1
10
15.7035570139189
20
-9.35479602660706
30
0
41
1
10
16.1693511868087
20
-9.35539488213874
30
0
41
1
10
16.4497180035452
20
-9.35516779075738
30
0
41
1
10
16.5806428692825
20
-9.35498111921171
30
0
0
SPLINE
5
E9
100
AcDbEntity
8
1
62
256
6
ByLayer
370
18
48
1
60
0
100
AcDbSpline
70
4
71
2
72
6
73
3
40
0
40
0
40
0
40
1
40
1
40
1
41
1
10
98.9352884410179
20
-9.40445011479173
30
0
41
1
10
99.2585726397049
20
-9.40411163359906
30
0
41
1
10
99.5817758277246
20
-9.40478957462906
30
0
0
SPLINE
5
EA
100
AcDbEntity
8
1
62
256
6
ByLayer
370
18
48
1
60
0
100
AcDbSpline
70
4
71
3
72
35
73
31
40
0
40
0
40
0
40
0
40
0.0450069038144463
40
0.098259650518882
40
0.144009210898836
40
0.186836063702471
40
0.228736818154462
40
0.269246798097547
40
0.300720196502842
40
0.328394410141397
40
0.362431038055845
40
0.403562950010605
40
0.442295356729993
40
0.477078859091713
40
0.554477965347506
40
0.633897418729972
40
0.653007686214689
40
0.67542273713389
40
0.701205836151952
40
0.730373925871093
40
0.762833960922178
40
0.791574606064108
40
0.812319756622207
40
0.837011107274811
40
0.868597102323713
40
0.897768142330282
40
0.923210502938032
40
0.950993526515209
40
0.981595472833799
40
1
40
1
40
1
40
1
41
1
10
70.9863884436261
20
9.38476115027891
30
0
41
1
10
70.6687534027948
20
9.3847013406783
30
0
41
1
10
69.9741546698646
20
9.38455452740916
30
0
41
1
10
68.9499189220032
20
9.38509729234312
30
0
41
1
10
67.9423576823948
20
9.38409742260683
30
0
41
1
10
67.0151216937343
20
9.38281373696628
30
0
41
1
10
66.1251912412749
20
9.38299120221055
30
0
41
1
10
65.315918857183
20
9.38269278675213
30
0
41
1
10
64.6077429633797
20
9.38169472585346
30
0
41
1
10
63.9455812175113
20
9.38128317584184
30
0
41
1
10
63.2147735112825
20
9.38128341467279
30
0
41
1
10
62.4053864745451
20
9.38113301806669
30
0
41
1
10
61.5906843147849
20
9.37999377863545
30
0
41
1
10
60.5183003073398
20
9.37964145844774
30
0
41
1
10
59.1565097553779
20
9.37869324323762
30
0
41
1
10
57.9071596819301
20
9.37870853251837
30
0
41
1
10
57.0490746429842
20
9.37798379652349
30
0
41
1
10
56.5706040322184
20
9.37752349086747
30
0
41
1
10
56.0209160335867
20
9.37668562698812
30
0
41
1
10
55.4000942795699
20
9.37652218151788
30
0
41
1
10
54.7587490373678
20
9.3769258414321
30
0
41
1
10
54.1769561604299
20
9.37692450253857
30
0
41
1
10
53.649890404435
20
9.37628401599628
30
0
41
1
10
53.1024942125734
20
9.37541312666312
30
0
41
1
10
52.4962911527653
20
9.37501275745731
30
0
41
1
10
51.8832607180184
20
9.37494198781084
30
0
41
1
10
51.2986621563294
20
9.37491118804255
30
0
41
1
10
50.7028425686845
20
9.37442378386982
30
0
41
1
10
50.15722878701
20
9.37371905334987
30
0
41
1
10
49.8089832260984
20
9.37351495755422
30
0
41
1
10
49.6781976055561
20
9.37344972511289
30
0
0
SPLINE
5
EB
100
AcDbEntity
8
1
62
256
6
ByLayer
370
18
48
1
60
0
100
AcDbSpline
70
4
71
2
72
6
73
3
40
0
40
0
40
0
40
1
40
1
40
1
41
1
10
71.520690609752
20
0.0004385073047217
30
0
41
1
10
71.5206717031876
20
0.0004488819199366
30
0
41
1
10
71.5206527966756
20
0.0004596953596376
30
0
0
SPLINE
5
EC
100
AcDbEntity
8
1
62
256
6
ByLayer
370
18
48
1
60
0
100
AcDbSpline
70
4
71
1
72
4
73
2
40
0
40
0
40
1
40
1
41
1
10
17.1123793171785
20
0.0048701714401602
30
0
41
1
10
17.1123634377124
20
0.0048789674684713
30
0
0
LINE
5
7B
100
AcDbEntity
8
1
62
256
6
ByLayer
370
18
48
1
60
0
100
AcDbLine
10
4
20
9.839982
30
0
11
4
21
6.867734
31
0
39
0
210
0
220
0
230
1
0
LINE
5
7C
100
AcDbEntity
8
1
62
256
6
ByLayer
370
13
48
1
60
0
100
AcDbLine
10
99.495207
20
2.145959
30
0
11
102.952543
21
-0.042618
31
0
39
0
210
0
220
0
230
1
0
LINE
5
7D
100
AcDbEntity
8
1
62
256
6
ByLayer
370
13
48
1
60
0
100
AcDbLine
10
99.719668
20
2.305295
30
0
11
102.969235
21
0.248242
31
0
39
0
210
0
220
0
230
1
0
LINE
5
7E
100
AcDbEntity
8
1
62
256
6
ByLayer
370
18
48
1
60
0
100
AcDbLine
10
4
20
-9.839982
30
0
11
4
21
-6.368145
31
0
39
0
210
0
220
0
230
1
0
LINE
5
7F
100
AcDbEntity
8
1
62
256
6
ByLayer
370
18
48
1
60
0
100
AcDbLine
10
0
20
-10
30
0
11
0
21
10
31
0
39
0
210
0
220
0
230
1
0
LINE
5
80
100
AcDbEntity
8
1
62
256
6
ByLayer
370
18
48
1
60
0
100
AcDbLine
10
1.5
20
9.83842
30
0
11
1.5
21
-9.83842
31
0
39
0
210
0
220
0
230
1
0
LINE
5
81
100
AcDbEntity
8
SK1
62
256
6
ByLayer
370
18
48
1
60
0
100
AcDbLine
10
-50
20
6.404937
30
0
11
-50
21
-6.688407
31
0
39
0
210
0
220
0
230
1
0
LINE
5
83
100
AcDbEntity
8
SK1
62
256
6
ByLayer
370
18
48
1
60
0
100
AcDbLine
10
-46.745
20
10
30
0
11
-46.745
21
-10
31
0
39
0
210
0
220
0
230
1
0
LINE
5
84
100
AcDbEntity
8
SK1
62
256
6
ByLayer
370
18
48
1
60
0
100
AcDbLine
10
-47.6
20
-9.129054
30
0
11
-47.6
21
-9.145
31
0
39
0
210
0
220
0
230
1
0
LINE
5
85
100
AcDbEntity
8
SK1
62
256
6
ByLayer
370
18
48
1
60
0
100
AcDbLine
10
0
20
-10
30
0
11
0
21
10
31
0
39
0
210
0
220
0
230
1
0
LINE
5
86
100
AcDbEntity
8
SK1
62
256
6
ByLayer
370
18
48
1
60
0
100
AcDbLine
10
-50
20
6.688407
30
0
11
-50
21
6.404933
31
0
39
0
210
0
220
0
230
1
0
LINE
5
87
100
AcDbEntity
8
SK1
62
256
6
ByLayer
370
18
48
1
60
0
100
AcDbLine
10
-47.6
20
9.145
30
0
11
-47.6
21
8.864482
31
0
39
0
210
0
220
0
230
1
0
LINE
5
88
100
AcDbEntity
8
SK1
62
256
6
ByLayer
370
13
48
1
60
0
100
AcDbLine
10
-47.7
20
9.021581
30
0
11
-47.7
21
8.737981
31
0
39
0
210
0
220
0
230
1
0
LINE
5
89
100
AcDbEntity
8
80
62
256
6
ByLayer
370
18
48
1
60
0
100
AcDbLine
10
0
20
0
30
0
11
-5
21
0
31
0
39
0
210
0
220
0
230
1
0
LINE
5
8A
100
AcDbEntity
8
4
62
256
6
ByLayer
370
18
48
0.05
60
0
100
AcDbLine
10
103
20
0
30
0
11
0
21
0
31
0
39
0
210
0
220
0
230
1
0
LINE
5
8C
100
AcDbEntity
8
SK4
62
256
6
ByLayer
370
18
48
0.05
60
0
100
AcDbLine
10
108
20
0
30
0
11
-55
21
0
31
0
39
0
210
0
220
0
230
1
0
LINE
5
8E
100
AcDbEntity
8
1
62
256
6
ByLayer
370
18
48
1
60
0
100
AcDbLine
10
41.534296
20
-9.863441
30
0
11
44.320539
21
-9.865183
31
0
39
0
210
0
220
0
230
1
0
LINE
5
8F
100
AcDbEntity
8
1
62
256
6
ByLayer
370
18
48
1
60
0
100
AcDbLine
10
44.320733
20
9.865183
30
0
11
41.534296
21
9.863441
31
0
39
0
210
0
220
0
230
1
0
LINE
5
90
100
AcDbEntity
8
SK1
62
256
6
ByLayer
370
18
48
1
60
0
100
AcDbLine
10
-47.6
20
-9.145
30
0
11
-46.745
21
-10
31
0
39
0
210
0
220
0
230
1
0
LINE
5
91
100
AcDbEntity
8
SK1
62
256
6
ByLayer
370
18
48
1
60
0
100
AcDbLine
10
-46.745
20
10
30
0
11
-47.6
21
9.145
31
0
39
0
210
0
220
0
230
1
0
LINE
5
92
100
AcDbEntity
8
SK1
62
256
6
ByLayer
370
18
48
1
60
0
100
AcDbLine
10
-46.745
20
-10
30
0
11
0
21
-10
31
0
39
0
210
0
220
0
230
1
0
LINE
5
93
100
AcDbEntity
8
SK1
62
256
6
ByLayer
370
18
48
1
60
0
100
AcDbLine
10
0
20
10
30
0
11
-46.745
21
10
31
0
39
0
210
0
220
0
230
1
0
LINE
5
94
100
AcDbEntity
8
1
62
256
6
ByLayer
370
18
48
1
60
0
100
AcDbLine
10
1.5
20
9.83842
30
0
11
0
21
10
31
0
39
0
210
0
220
0
230
1
0
LINE
5
95
100
AcDbEntity
8
1
62
256
6
ByLayer
370
18
48
1
60
0
100
AcDbLine
10
0
20
-10
30
0
11
1.5
21
-9.83842
31
0
39
0
210
0
220
0
230
1
0
LINE
5
96
100
AcDbEntity
8
1
62
256
6
ByLayer
370
18
48
1
60
0
100
AcDbLine
10
1.5
20
-9.83842
30
0
11
4
21
-9.839982
31
0
39
0
210
0
220
0
230
1
0
LINE
5
97
100
AcDbEntity
8
1
62
256
6
ByLayer
370
18
48
1
60
0
100
AcDbLine
10
95.930679
20
-9.897439
30
0
11
98.721629
21
-9.899183
31
0
39
0
210
0
220
0
230
1
0
LINE
5
98
100
AcDbEntity
8
1
62
256
6
ByLayer
370
18
48
1
60
0
100
AcDbLine
10
98.72167
20
9.899183
30
0
11
95.930679
21
9.897439
31
0
39
0
210
0
220
0
230
1
0
LINE
5
99
100
AcDbEntity
8
1
62
256
6
ByLayer
370
18
48
1
60
0
100
AcDbLine
10
4
20
9.839982
30
0
11
1.5
21
9.83842
31
0
39
0
210
0
220
0
230
1
0
LINE
5
9A
100
AcDbEntity
8
81
62
256
6
ByLayer
370
18
48
1
60
0
100
AcDbLine
10
103
20
0
30
0
11
108
21
0
31
0
39
0
210
0
220
0
230
1
0
LINE
5
9B
100
AcDbEntity
8
SK2
62
256
6
ByLayer
370
13
48
1
60
0
100
AcDbLine
10
-58.625163
20
-10
30
0
11
-58.625163
21
41.732039
31
0
39
0
210
0
220
0
230
1
0
LINE
5
9D
100
AcDbEntity
8
SK2
62
256
6
ByLayer
370
13
48
1
60
0
100
AcDbLine
10
-51.5875
20
10
30
0
11
-60.625163
21
10
31
0
39
0
210
0
220
0
230
1
0
LINE
5
9E
100
AcDbEntity
8
SK2
62
256
6
ByLayer
370
13
48
1
60
0
100
AcDbLine
10
-51.5875
20
-10
30
0
11
-60.625163
21
-10
31
0
39
0
210
0
220
0
230
1
0
LINE
5
9F
100
AcDbEntity
8
1
62
256
6
ByLayer
370
18
48
1
60
1
100
AcDbLine
10
-58.625163
20
10
30
0
11
-58.164379
21
6.500002
31
0
39
0
210
0
220
0
230
1
0
LINE
5
A0
100
AcDbEntity
8
1
62
256
6
ByLayer
370
18
48
1
60
1
100
AcDbLine
10
-58.164379
20
6.500002
30
0
11
-59.085946
21
6.499998
31
0
39
0
210
0
220
0
230
1
0
LINE
5
A1
100
AcDbEntity
8
1
62
256
6
ByLayer
370
18
48
1
60
1
100
AcDbLine
10
-59.085946
20
6.499998
30
0
11
-58.625163
21
10
31
0
39
0
210
0
220
0
230
1
0
LINE
5
A2
100
AcDbEntity
8
1
62
256
6
ByLayer
370
18
48
1
60
1
100
AcDbLine
10
-58.625163
20
-10
30
0
11
-59.085946
21
-6.500002
31
0
39
0
210
0
220
0
230
1
0
LINE
5
A3
100
AcDbEntity
8
1
62
256
6
ByLayer
370
18
48
1
60
1
100
AcDbLine
10
-59.085946
20
-6.500002
30
0
11
-58.164379
21
-6.499998
31
0
39
0
210
0
220
0
230
1
0
LINE
5
A4
100
AcDbEntity
8
1
62
256
6
ByLayer
370
18
48
1
60
1
100
AcDbLine
10
-58.164379
20
-6.499998
30
0
11
-58.625163
21
-10
31
0
39
0
210
0
220
0
230
1
0
LINE
5
A5
100
AcDbEntity
8
2
62
256
6
ByLayer
370
13
48
1
60
0
100
AcDbLine
10
115.083343
20
-9.9
30
0
11
115.083343
21
39.350259
31
0
39
0
210
0
220
0
230
1
0
LINE
5
A7
100
AcDbEntity
8
2
62
256
6
ByLayer
370
13
48
1
60
0
100
AcDbLine
10
101.6266
20
9.9
30
0
11
117.083343
21
9.9
31
0
39
0
210
0
220
0
230
1
0
LINE
5
A8
100
AcDbEntity
8
2
62
256
6
ByLayer
370
13
48
1
60
0
100
AcDbLine
10
101.6266
20
-9.9
30
0
11
117.083343
21
-9.9
31
0
39
0
210
0
220
0
230
1
0
LINE
5
A9
100
AcDbEntity
8
1
62
256
6
ByLayer
370
18
48
1
60
1
100
AcDbLine
10
115.083343
20
9.9
30
0
11
115.544126
21
6.400002
31
0
39
0
210
0
220
0
230
1
0
LINE
5
AA
100
AcDbEntity
8
1
62
256
6
ByLayer
370
18
48
1
60
1
100
AcDbLine
10
115.544126
20
6.400002
30
0
11
114.622559
21
6.399998
31
0
39
0
210
0
220
0
230
1
0
LINE
5
AB
100
AcDbEntity
8
1
62
256
6
ByLayer
370
18
48
1
60
1
100
AcDbLine
10
114.622559
20
6.399998
30
0
11
115.083343
21
9.9
31
0
39
0
210
0
220
0
230
1
0
LINE
5
AC
100
AcDbEntity
8
1
62
256
6
ByLayer
370
18
48
1
60
1
100
AcDbLine
10
115.083343
20
-9.9
30
0
11
114.622559
21
-6.400002
31
0
39
0
210
0
220
0
230
1
0
LINE
5
AD
100
AcDbEntity
8
1
62
256
6
ByLayer
370
18
48
1
60
1
100
AcDbLine
10
114.622559
20
-6.400002
30
0
11
115.544126
21
-6.399998
31
0
39
0
210
0
220
0
230
1
0
LINE
5
AE
100
AcDbEntity
8
1
62
256
6
ByLayer
370
18
48
1
60
1
100
AcDbLine
10
115.544126
20
-6.399998
30
0
11
115.083343
21
-9.9
31
0
39
0
210
0
220
0
230
1
0
LINE
5
F3
100
AcDbEntity
8
1
62
256
6
ByLayer
370
18
48
1
60
1
100
AcDbLine
10
-58.625163
20
10
30
0
11
-58.164379
21
6.500002
31
0
39
0
210
0
220
0
230
1
0
LINE
5
F4
100
AcDbEntity
8
1
62
256
6
ByLayer
370
18
48
1
60
1
100
AcDbLine
10
-58.164379
20
6.500002
30
0
11
-59.085946
21
6.499998
31
0
39
0
210
0
220
0
230
1
0
LINE
5
F5
100
AcDbEntity
8
1
62
256
6
ByLayer
370
18
48
1
60
1
100
AcDbLine
10
-59.085946
20
6.499998
30
0
11
-58.625163
21
10
31
0
39
0
210
0
220
0
230
1
0
LINE
5
F7
100
AcDbEntity
8
1
62
256
6
ByLayer
370
18
48
1
60
1
100
AcDbLine
10
-58.625163
20
-10
30
0
11
-59.085946
21
-6.500002
31
0
39
0
210
0
220
0
230
1
0
LINE
5
F8
100
AcDbEntity
8
1
62
256
6
ByLayer
370
18
48
1
60
1
100
AcDbLine
10
-59.085946
20
-6.500002
30
0
11
-58.164379
21
-6.499998
31
0
39
0
210
0
220
0
230
1
0
LINE
5
F9
100
AcDbEntity
8
1
62
256
6
ByLayer
370
18
48
1
60
1
100
AcDbLine
10
-58.164379
20
-6.499998
30
0
11
-58.625163
21
-10
31
0
39
0
210
0
220
0
230
1
0
LINE
5
FD
100
AcDbEntity
8
1
62
256
6
ByLayer
370
18
48
1
60
1
100
AcDbLine
10
115.083343
20
9.9
30
0
11
115.544126
21
6.400002
31
0
39
0
210
0
220
0
230
1
0
LINE
5
FE
100
AcDbEntity
8
1
62
256
6
ByLayer
370
18
48
1
60
1
100
AcDbLine
10
115.544126
20
6.400002
30
0
11
114.622559
21
6.399998
31
0
39
0
210
0
220
0
230
1
0
LINE
5
FF
100
AcDbEntity
8
1
62
256
6
ByLayer
370
18
48
1
60
1
100
AcDbLine
10
114.622559
20
6.399998
30
0
11
115.083343
21
9.9
31
0
39
0
210
0
220
0
230
1
0
LINE
5
101
100
AcDbEntity
8
1
62
256
6
ByLayer
370
18
48
1
60
1
100
AcDbLine
10
115.083343
20
-9.9
30
0
11
114.622559
21
-6.400002
31
0
39
0
210
0
220
0
230
1
0
LINE
5
102
100
AcDbEntity
8
1
62
256
6
ByLayer
370
18
48
1
60
1
100
AcDbLine
10
114.622559
20
-6.400002
30
0
11
115.544126
21
-6.399998
31
0
39
0
210
0
220
0
230
1
0
LINE
5
103
100
AcDbEntity
8
1
62
256
6
ByLayer
370
18
48
1
60
1
100
AcDbLine
10
115.544126
20
-6.399998
30
0
11
115.083343
21
-9.9
31
0
39
0
210
0
220
0
230
1
0
MTEXT
5
ED
100
AcDbEntity
8
SK6
62
256
6
ByLayer
370
13
48
1
60
0
100
AcDbMText
10
-2.20776
20
42.440328
30
0
210
0
220
0
230
1
1
\W0.7563;462.1-1980-089A1-XM X2BM
40
3.5
41
0
44
1.084337
50
0
71
7
72
5
7
iso_b_vert
0
MTEXT
5
F1
100
AcDbEntity
8
SK2
62
256
6
ByLayer
370
18
48
1
60
0
100
AcDbMText
10
-60.189796
20
23.409024
30
0
210
0
220
0
230
1
1
%%c
40
3.5
41
0
44
1.084337
50
90
71
7
72
5
7
iso_b_vert
0
MTEXT
5
F2
100
AcDbEntity
8
SK2
62
256
6
ByLayer
370
18
48
1
60
0
100
AcDbMText
10
-60.189796
20
28.63168
30
0
210
0
220
0
230
1
1
\W0.7421;20,000
40
3.5
41
0
44
1.084337
50
90
71
7
72
5
7
iso_b_vert
0
MTEXT
5
FB
100
AcDbEntity
8
2
62
256
6
ByLayer
370
18
48
1
60
0
100
AcDbMText
10
113.518709
20
21.90211
30
0
210
0
220
0
230
1
1
%%c
40
3.5
41
0
44
1.084337
50
90
71
7
72
5
7
iso_b_vert
0
MTEXT
5
FC
100
AcDbEntity
8
2
62
256
6
ByLayer
370
18
48
1
60
0
100
AcDbMText
10
113.518709
20
27.124766
30
0
210
0
220
0
230
1
1
\W0.6930;19,800
40
3.5
41
0
44
1.084337
50
90
71
7
72
5
7
iso_b_vert
0
HATCH
5
F6
100
AcDbEntity
8
SK2
62
256
6
ByLayer
370
13
48
1
60
0
100
AcDbHatch
10
0
20
0
30
0
210
0
220
0
230
1
2
ANSI31
70
0
71
0
91
1
92
5
93
3
72
1
10
-58.6251625675374
20
10
11
-58.1643788259847
21
6.50000169255318
72
1
10
-58.1643788259847
20
6.50000169255318
11
-59.0859463090902
21
6.49999830744682
72
1
10
-59.0859463090902
20
6.49999830744682
11
-58.6251625675374
21
10
97
0
75
0
76
1
52
0
41
0.0062
77
0
78
1
53
45
43
0
44
0
45
-0.0139193969876572
46
0.0139193969876572
79
0
47
0
98
1
10
0
20
0
0
HATCH
5
FA
100
AcDbEntity
8
SK2
62
256
6
ByLayer
370
13
48
1
60
0
100
AcDbHatch
10
0
20
0
30
0
210
0
220
0
230
1
2
ANSI31
70
0
71
0
91
1
92
5
93
3
72
1
10
-58.6251625675374
20
-9.99999999999999
11
-59.0859463090902
21
-6.50000169255316
72
1
10
-59.0859463090902
20
-6.50000169255316
11
-58.1643788259847
21
-6.49999830744679
72
1
10
-58.1643788259847
20
-6.49999830744679
11
-58.6251625675374
21
-9.99999999999999
97
0
75
0
76
1
52
0
41
0.0062
77
0
78
1
53
45
43
0
44
0
45
-0.0139193969876572
46
0.0139193969876572
79
0
47
0
98
1
10
0
20
0
0
HATCH
5
100
100
AcDbEntity
8
2
62
256
6
ByLayer
370
13
48
1
60
0
100
AcDbHatch
10
0
20
0
30
0
210
0
220
0
230
1
2
ANSI31
70
0
71
0
91
1
92
5
93
3
72
1
10
115.083342615295
20
9.90000000000001
11
115.544126356848
21
6.40000169255319
72
1
10
115.544126356848
20
6.40000169255319
11
114.622558873742
21
6.39999830744682
72
1
10
114.622558873742
20
6.39999830744682
11
115.083342615295
21
9.90000000000001
97
0
75
0
76
1
52
0
41
0.0062
77
0
78
1
53
45
43
0
44
0
45
-0.0139193969876572
46
0.0139193969876572
79
0
47
0
98
1
10
0
20
0
0
HATCH
5
104
100
AcDbEntity
8
2
62
256
6
ByLayer
370
13
48
1
60
0
100
AcDbHatch
10
0
20
0
30
0
210
0
220
0
230
1
2
ANSI31
70
0
71
0
91
1
92
5
93
3
72
1
10
115.083342615295
20
-9.89999999999999
11
114.622558873742
21
-6.40000169255319
72
1
10
114.622558873742
20
-6.40000169255319
11
115.544126356848
21
-6.39999830744682
72
1
10
115.544126356848
20
-6.39999830744682
11
115.083342615295
21
-9.89999999999999
97
0
75
0
76
1
52
0
41
0.0062
77
0
78
1
53
45
43
0
44
0
45
-0.0139193969876572
46
0.0139193969876572
79
0
47
0
98
1
10
0
20
0
0
DIMENSION
5
106
100
AcDbEntity
8
SK2
62
256
6
ByLayer
370
13
48
1
60
0
100
AcDbDimension
2
_U0
10
100.0391
20
-20.113398
30
0
11
50.01955
21
-20.113398
31
0
70
32
71
1
72
1
41
1
210
0
220
0
230
1
3
Standard
100
AcDbAlignedDimension
13
0
23
0
33
0
14
100.0391
24
-9.9
34
0
50
0
100
AcDbRotatedDimension
1001
ACAD
1000
DSTYLE
1002
{
1070
   371
1070
    13
1070
   372
1070
    13
1070
   170
1070
     0
1070
   144
1040
1.0
1070
   277
1070
     2
1070
   278
1070
    44
1070
   146
1040
1.0
1070
   345
1005
16
1070
   347
1005
16
1070
   346
1005
16
1070
   344
1005
0
1070
   343
1005
0
1070
   172
1070
     1
1070
    76
1070
     0
1070
    75
1070
     0
1070
   282
1070
     0
1070
   281
1070
     0
1070
    71
1070
     0
1070
    74
1070
     0
1070
   279
1070
     0
1070
   173
1070
     1
1070
   340
1005
EE
1070
   271
1070
     2
1070
   272
1070
     2
1070
    77
1070
     1
1070
    73
1070
     1
1070
   171
1070
     3
1070
   274
1070
     4
1070
   177
1070
    35
1070
   176
1070
    35
1070
   178
1070
    35
1070
    48
1040
-0.1
1070
    41
1040
3.5
1070
   147
1040
1.75
1070
    42
1040
1.5875
1070
    44
1040
2.0
1070
   140
1040
3.5
1002
}
1001
ACAD_DSTYLE_DIM_LINETYPE
1070
   380
1005
16
1001
ACAD_DSTYLE_DIM_EXT1_LINETYPE
1070
   381
1005
16
1001
ACAD_DSTYLE_DIM_EXT2_LINETYPE
1070
   382
1005
16
0
DIMENSION
5
11F
100
AcDbEntity
8
SK2
62
256
6
ByLayer
370
13
48
1
60
0
100
AcDbDimension
2
_U1
10
103
20
-38.692985
30
0
11
26.5
21
-38.692985
31
0
70
32
71
1
72
1
41
1
210
0
220
0
230
1
3
Standard
100
AcDbAlignedDimension
13
-50
23
-10
33
0
14
103
24
0
34
0
50
0
100
AcDbRotatedDimension
1001
ACAD
1000
DSTYLE
1002
{
1070
   371
1070
    13
1070
   372
1070
    13
1070
   170
1070
     0
1070
   144
1040
1.0
1070
   277
1070
     2
1070
   278
1070
    44
1070
   146
1040
1.0
1070
   345
1005
16
1070
   347
1005
16
1070
   346
1005
16
1070
   344
1005
0
1070
   343
1005
0
1070
   172
1070
     1
1070
    76
1070
     0
1070
    75
1070
     0
1070
   282
1070
     0
1070
   281
1070
     0
1070
    71
1070
     0
1070
    74
1070
     0
1070
   279
1070
     0
1070
   173
1070
     1
1070
   340
1005
EE
1070
   271
1070
     2
1070
   272
1070
     2
1070
    77
1070
     1
1070
    73
1070
     1
1070
   171
1070
     3
1070
   274
1070
     4
1070
   177
1070
    35
1070
   176
1070
    35
1070
   178
1070
    35
1070
    48
1040
-0.1
1070
    41
1040
3.5
1070
   147
1040
1.75
1070
    42
1040
1.5875
1070
    44
1040
2.0
1070
   140
1040
3.5
1002
}
1001
ACAD_DSTYLE_DIM_LINETYPE
1070
   380
1005
16
1001
ACAD_DSTYLE_DIM_EXT1_LINETYPE
1070
   381
1005
16
1001
ACAD_DSTYLE_DIM_EXT2_LINETYPE
1070
   382
1005
16
0
DIMENSION
5
137
100
AcDbEntity
8
SK2
62
256
6
ByLayer
370
13
48
1
60
0
100
AcDbDimension
2
_U2
10
103
20
21.509119
30
0
11
60.42
21
21.509119
31
0
70
32
71
1
72
1
41
1
210
0
220
0
230
1
3
Standard
100
AcDbAlignedDimension
13
17.84
23
9.9
33
0
14
103
24
0
34
0
50
0
100
AcDbRotatedDimension
1001
ACAD
1000
DSTYLE
1002
{
1070
   371
1070
    13
1070
   372
1070
    13
1070
   170
1070
     0
1070
   144
1040
1.0
1070
   277
1070
     2
1070
   278
1070
    44
1070
   146
1040
1.0
1070
   345
1005
16
1070
   347
1005
16
1070
   346
1005
16
1070
   344
1005
0
1070
   343
1005
0
1070
   172
1070
     1
1070
    76
1070
     0
1070
    75
1070
     0
1070
   282
1070
     0
1070
   281
1070
     0
1070
    71
1070
     0
1070
    74
1070
     0
1070
   279
1070
     0
1070
   173
1070
     1
1070
   340
1005
EE
1070
   271
1070
     2
1070
   272
1070
     2
1070
    77
1070
     1
1070
    73
1070
     1
1070
   171
1070
     3
1070
   274
1070
     4
1070
   177
1070
    35
1070
   176
1070
    35
1070
   178
1070
    35
1070
    48
1040
-0.1
1070
    41
1040
3.5
1070
   147
1040
1.75
1070
    42
1040
1.5875
1070
    44
1040
2.0
1070
   140
1040
3.5
1002
}
1001
ACAD_DSTYLE_DIM_LINETYPE
1070
   380
1005
16
1001
ACAD_DSTYLE_DIM_EXT1_LINETYPE
1070
   381
1005
16
1001
ACAD_DSTYLE_DIM_EXT2_LINETYPE
1070
   382
1005
16
0
DIMENSION
5
14F
100
AcDbEntity
8
SK2
62
256
6
ByLayer
370
13
48
1
60
0
100
AcDbDimension
2
_U3
10
100.0391
20
-22.702503
30
0
11
120.583333
21
-22.702503
31
0
70
32
71
1
72
1
41
1
210
0
220
0
230
1
3
Standard
100
AcDbAlignedDimension
13
103
23
0
33
0
14
100.0391
24
-9.9
34
0
50
0
100
AcDbRotatedDimension
1001
ACAD
1000
DSTYLE
1002
{
1070
   371
1070
    13
1070
   372
1070
    13
1070
   170
1070
     0
1070
   144
1040
1.0
1070
   277
1070
     2
1070
   278
1070
    44
1070
   146
1040
1.0
1070
   345
1005
16
1070
   347
1005
16
1070
   346
1005
16
1070
   344
1005
0
1070
   343
1005
0
1070
   172
1070
     1
1070
    76
1070
     0
1070
    75
1070
     0
1070
   282
1070
     0
1070
   281
1070
     0
1070
    71
1070
     0
1070
    74
1070
     0
1070
   279
1070
     0
1070
   173
1070
     1
1070
   340
1005
EE
1070
   271
1070
     2
1070
   272
1070
     2
1070
    77
1070
     1
1070
    73
1070
     1
1070
   171
1070
     3
1070
   274
1070
     4
1070
   177
1070
    35
1070
   176
1070
    35
1070
   178
1070
    35
1070
    48
1040
-0.1
1070
    41
1040
3.5
1070
   147
1040
1.75
1070
    42
1040
1.5875
1070
    44
1040
2.0
1070
   140
1040
3.5
1002
}
1001
ACAD_DSTYLE_DIM_LINETYPE
1070
   380
1005
16
1001
ACAD_DSTYLE_DIM_EXT1_LINETYPE
1070
   381
1005
16
1001
ACAD_DSTYLE_DIM_EXT2_LINETYPE
1070
   382
1005
16
0
DIMENSION
5
169
100
AcDbEntity
8
SK2
62
256
6
ByLayer
370
13
48
1
60
0
100
AcDbDimension
2
_U4
10
100.0391
20
-28.343428
30
0
11
25.01955
21
-28.343428
31
0
70
32
71
1
72
1
41
1
210
0
220
0
230
1
3
Standard
100
AcDbAlignedDimension
13
-50
23
-10
33
0
14
100.0391
24
-9.9
34
0
50
0
100
AcDbRotatedDimension
1001
ACAD
1000
DSTYLE
1002
{
1070
   371
1070
    13
1070
   372
1070
    13
1070
   170
1070
     0
1070
   144
1040
1.0
1070
   277
1070
     2
1070
   278
1070
    44
1070
   146
1040
1.0
1070
   345
1005
16
1070
   347
1005
16
1070
   346
1005
16
1070
   344
1005
0
1070
   343
1005
0
1070
   172
1070
     1
1070
    76
1070
     0
1070
    75
1070
     0
1070
   282
1070
     0
1070
   281
1070
     0
1070
    71
1070
     0
1070
    74
1070
     0
1070
   279
1070
     0
1070
   173
1070
     1
1070
   340
1005
EE
1070
   271
1070
     2
1070
   272
1070
     2
1070
    77
1070
     1
1070
    73
1070
     1
1070
   171
1070
     3
1070
   274
1070
     4
1070
   177
1070
    35
1070
   176
1070
    35
1070
   178
1070
    35
1070
    48
1040
-0.1
1070
    41
1040
3.5
1070
   147
1040
1.75
1070
    42
1040
1.5875
1070
    44
1040
2.0
1070
   140
1040
3.5
1002
}
1001
ACAD_DSTYLE_DIM_LINETYPE
1070
   380
1005
16
1001
ACAD_DSTYLE_DIM_EXT1_LINETYPE
1070
   381
1005
16
1001
ACAD_DSTYLE_DIM_EXT2_LINETYPE
1070
   382
1005
16
0
ENDSEC
0
SECTION
2
OBJECTS
0
DICTIONARY
5
1f1
330
0
100
AcDbDictionary
280
0
281
1
3
ACAD_GROUP
350
1f2
3
ACAD_MLINESTYLE
350
1f3
0
DICTIONARY
5
1f2
330
0
100
AcDbDictionary
280
0
281
1
0
DICTIONARY
5
1f3
330
0
100
AcDbDictionary
280
0
281
1
3
Standard
350
18
0
MLINESTYLE
5
18
330
1f3
100
AcDbMlineStyle
2
Standard
70
0
3

62
256
51
90
52
90
71
2
49
-0.5
62
256
6
ByLayer
49
0.5
62
256
6
ByLayer
0
RASTERVARIABLES
5
1df
330

100
AcDbRasterVariables
90
0
70
1
71
1
72
1
0
ENDSEC
0
EOF
