0
SECTION
2
HEADER
9
$ACADVER
1
AC1015
9
$DWGCODEPAGE
3
ANSI_1252
9
$HANDSEED
5
1fe
9
$ANGBASE
50
0
9
$ANGDIR
70
0
9
$ATTMODE
70
1
9
$AUNITS
70
0
9
$AUPREC
70
0
9
$CECOLOR
62
256
9
$CELTSCALE
40
1
9
$CELTYPE
6
ByLayer
9
$CELWEIGHT
370
18
9
$CLAYER
8
0
9
$CMLJUST
70
0
9
$CMLSCALE
40
1
9
$CMLSTYLE
2
Standard
9
$DIMSTYLE
2
Standard
9
$TEXTSIZE
40
0.2
9
$TEXTSTYLE
7
Standard
9
$LUNITS
70
2
9
$LUPREC
70
4
9
$EXTNAMES
290
1
9
$INSUNITS
70
4
9
$LTSCALE
40
1
9
$LWDISPLAY
290
1
9
$PDMODE
70
0
9
$PDSIZE
40
0
9
$PLINEGEN
70
0
0
ENDSEC
0
SECTION
2
CLASSES
0
CLASS
1
RASTERVARIABLES
2
AcDbRasterVariables
3
ISM
90
0
280
0
281
0
0
ENDSEC
0
SECTION
2
TABLES
0
TABLE
2
VPORT
5
1f4
100
AcDbSymbolTable
0
VPORT
5
1
100
AcDbSymbolTableRecord
100
AcDbViewportTableRecord
2
*Active
70
0
10
0
20
0
11
1
21
1
12
-1
22
1
13
0
23
0
14
0.5
24
0.5
15
10
25
10
16
0
26
0
36
1
17
0
27
0
37
0
0
ENDTAB
0
TABLE
2
LTYPE
5
1f5
100
AcDbSymbolTable
0
LTYPE
5
14
100
AcDbSymbolTableRecord
100
AcDbLinetypeTableRecord
70
0
2
ByBlock
3

72
65
73
0
40
0
0
LTYPE
5
15
100
AcDbSymbolTableRecord
100
AcDbLinetypeTableRecord
70
0
2
ByLayer
3

72
65
73
0
40
0
0
LTYPE
5
16
100
AcDbSymbolTableRecord
100
AcDbLinetypeTableRecord
70
0
2
Continuous
3
Solid line
72
65
73
0
40
0
0
LTYPE
5
6E
100
AcDbSymbolTableRecord
100
AcDbLinetypeTableRecord
70
0
2
CENTER
3
____ _ ____ _ ____ _ ____
72
65
73
4
40
47.5
49
22
74
0
49
-8.5
74
0
49
8.5
74
0
49
-8.5
74
0
0
LTYPE
5
6F
100
AcDbSymbolTableRecord
100
AcDbLinetypeTableRecord
70
0
2
DASHED
3
__ __ __ __ __ __ __ __ __
72
65
73
2
40
25.72
49
12.86
74
0
49
-12.86
74
0
0
ENDTAB
0
TABLE
2
LAYER
5
1f6
100
AcDbSymbolTable
0
LAYER
5
10
100
AcDbSymbolTableRecord
100
AcDbLayerTableRecord
2
0
70
0
62
7
6
Continuous
290
1
370
-3
390
0
0
LAYER
5
71
100
AcDbSymbolTableRecord
100
AcDbLayerTableRecord
2
80
70
0
62
-6
6
Continuous
290
1
370
-3
390
0
0
LAYER
5
73
100
AcDbSymbolTableRecord
100
AcDbLayerTableRecord
2
81
70
0
62
-3
6
Continuous
290
1
370
-3
390
0
0
LAYER
5
75
100
AcDbSymbolTableRecord
100
AcDbLayerTableRecord
2
1
70
0
62
4
6
Continuous
290
1
370
-3
390
0
0
LAYER
5
88
100
AcDbSymbolTableRecord
100
AcDbLayerTableRecord
2
4
70
0
62
-2
6
CENTER
290
1
370
-3
390
0
0
LAYER
5
A3
100
AcDbSymbolTableRecord
100
AcDbLayerTableRecord
2
2
70
0
62
7
6
Continuous
290
1
370
-3
390
0
0
LAYER
5
108
100
AcDbSymbolTableRecord
100
AcDbLayerTableRecord
2
Defpoints
70
0
62
7
6
Continuous
290
0
370
-3
390
0
0
LAYER
5
1e0
100
AcDbSymbolTableRecord
100
AcDbLayerTableRecord
2
SK1
70
0
62
4
6
Continuous
290
1
370
-3
390
0
0
LAYER
5
1e1
100
AcDbSymbolTableRecord
100
AcDbLayerTableRecord
2
SK4
70
0
62
2
6
CENTER
290
1
370
-3
390
0
0
LAYER
5
1e2
100
AcDbSymbolTableRecord
100
AcDbLayerTableRecord
2
SK2
70
0
62
7
6
Continuous
290
1
370
-3
390
0
0
LAYER
5
1e3
100
AcDbSymbolTableRecord
100
AcDbLayerTableRecord
2
SK6
70
0
62
5
6
Continuous
290
1
370
-3
390
0
0
ENDTAB
0
TABLE
2
STYLE
5
1f7
100
AcDbSymbolTable
0
STYLE
5
11
100
AcDbSymbolTableRecord
100
AcDbTextStyleTableRecord
2
Standard
3
txt
70
0
71
0
40
0
41
1
42
0
50
0
0
STYLE
5
ED
100
AcDbSymbolTableRecord
100
AcDbTextStyleTableRecord
2
iso_b_vert
3
simplex.shx
70
0
71
0
40
0
41
1
42
0
50
0
0
STYLE
5
EE
100
AcDbSymbolTableRecord
100
AcDbTextStyleTableRecord
2
DWGDirectTextStyle
3
simplex
70
0
71
0
40
0
41
1
42
0
50
0
0
ENDTAB
0
TABLE
2
DIMSTYLE
5
1f8
100
AcDbSymbolTable
100
AcDbDimStyleTable
0
DIMSTYLE
105
27
100
AcDbSymbolTableRecord
100
AcDbDimStyleTableRecord
2
Standard
70
0
3
<>
41
0.18
42
0.0625
44
0.18
140
0.18
147
0.09
73
0
74
0
77
1
271
2
275
0
278
52
280
0
340
11
0
ENDTAB
0
TABLE
2
VIEW
5
1f9
100
AcDbSymbolTable
0
ENDTAB
0
TABLE
2
UCS
5
1fa
100
AcDbSymbolTable
0
ENDTAB
0
TABLE
2
APPID
5
1fb
100
AcDbSymbolTable
0
APPID
5
12
100
AcDbSymbolTableRecord
100
AcDbRegAppTableRecord
2
ACAD
70
0
0
APPID
5
104
100
AcDbSymbolTableRecord
100
AcDbRegAppTableRecord
2
ACAD_DSTYLE_DIMBREAK
70
0
0
APPID
5
19F
100
AcDbSymbolTableRecord
100
AcDbRegAppTableRecord
2
ACAD_DSTYLE_DIM_LINETYPE
70
0
0
APPID
5
1A0
100
AcDbSymbolTableRecord
100
AcDbRegAppTableRecord
2
ACAD_DSTYLE_DIM_EXT1_LINETYPE
70
0
0
APPID
5
1A1
100
AcDbSymbolTableRecord
100
AcDbRegAppTableRecord
2
ACAD_DSTYLE_DIM_EXT2_LINETYPE
70
0
0
APPID
5
1DC
100
AcDbSymbolTableRecord
100
AcDbRegAppTableRecord
2
ACAD_MLEADERVER
70
0
0
ENDTAB
0
TABLE
2
BLOCK_RECORD
5
1fc
100
AcDbSymbolTable
0
BLOCK_RECORD
5
1F
100
AcDbSymbolTableRecord
100
AcDbBlockTableRecord
2
*Model_Space
340
0
70
0
0
BLOCK_RECORD
5
1B
100
AcDbSymbolTableRecord
100
AcDbBlockTableRecord
2
*Paper_Space
340
0
70
0
0
BLOCK_RECORD
5
23
100
AcDbSymbolTableRecord
100
AcDbBlockTableRecord
2
*Paper_Space0
340
0
70
0
0
BLOCK_RECORD
5
109
100
AcDbSymbolTableRecord
100
AcDbBlockTableRecord
2
*D1
340
0
70
0
0
BLOCK_RECORD
5
115
100
AcDbSymbolTableRecord
100
AcDbBlockTableRecord
2
_U0
340
0
70
0
0
BLOCK_RECORD
5
121
100
AcDbSymbolTableRecord
100
AcDbBlockTableRecord
2
*D3
340
0
70
0
0
BLOCK_RECORD
5
12D
100
AcDbSymbolTableRecord
100
AcDbBlockTableRecord
2
_U1
340
0
70
0
0
BLOCK_RECORD
5
139
100
AcDbSymbolTableRecord
100
AcDbBlockTableRecord
2
*D5
340
0
70
0
0
BLOCK_RECORD
5
146
100
AcDbSymbolTableRecord
100
AcDbBlockTableRecord
2
_U2
340
0
70
0
0
BLOCK_RECORD
5
152
100
AcDbSymbolTableRecord
100
AcDbBlockTableRecord
2
*D7
340
0
70
0
0
BLOCK_RECORD
5
160
100
AcDbSymbolTableRecord
100
AcDbBlockTableRecord
2
_U3
340
0
70
0
0
BLOCK_RECORD
5
16C
100
AcDbSymbolTableRecord
100
AcDbBlockTableRecord
2
*D9
340
0
70
0
0
BLOCK_RECORD
5
178
100
AcDbSymbolTableRecord
100
AcDbBlockTableRecord
2
_U4
340
0
70
0
0
ENDTAB
0
ENDSEC
0
SECTION
2
BLOCKS
0
BLOCK
5
20
100
AcDbEntity
8
0
100
AcDbBlockBegin
2
*Model_Space
70
0
10
0
20
0
30
0
3
*Model_Space
0
ENDBLK
5
21
100
AcDbEntity
8
0
100
AcDbBlockEnd
0
BLOCK
5
1C
100
AcDbEntity
8
0
100
AcDbBlockBegin
2
*Paper_Space
70
0
10
0
20
0
30
0
3
*Paper_Space
0
ENDBLK
5
1D
100
AcDbEntity
8
0
100
AcDbBlockEnd
0
BLOCK
5
24
100
AcDbEntity
8
0
100
AcDbBlockBegin
2
*Paper_Space0
70
0
10
0
20
0
30
0
3
*Paper_Space0
0
ENDBLK
5
25
100
AcDbEntity
8
0
100
AcDbBlockEnd
0
BLOCK
5
10A
100
AcDbEntity
8
0
100
AcDbBlockBegin
2
*D1
70
1
10
0
20
0
30
0
3
*D1
0
LINE
5
10C
100
AcDbEntity
8
0
62
256
6
ByLayer
370
-2
48
1
60
0
100
AcDbLine
10
0
20
-1.5875
30
0
11
0
21
-13.737398
31
0
39
0
210
0
220
0
230
1
0
LINE
5
10D
100
AcDbEntity
8
0
62
256
6
ByLayer
370
-2
48
1
60
0
100
AcDbLine
10
29.5634
20
-3.1115
30
0
11
29.5634
21
-13.737398
31
0
39
0
210
0
220
0
230
1
0
LINE
5
10E
100
AcDbEntity
8
0
62
256
6
ByLayer
370
-2
48
1
60
0
100
AcDbLine
10
3.5
20
-11.737398
30
0
11
26.0634
21
-11.737398
31
0
39
0
210
0
220
0
230
1
0
SOLID
5
10F
100
AcDbEntity
8
0
62
256
6
ByLayer
370
-1
48
1
60
0
100
AcDbTrace
10
3.5
20
-11.154065
30
0
11
3.5
21
-12.320732
31
0
12
0
22
-11.737398
32
0
13
0
23
-11.737398
33
0
39
0
210
0
220
0
230
1
0
SOLID
5
110
100
AcDbEntity
8
0
62
256
6
ByLayer
370
-1
48
1
60
0
100
AcDbTrace
10
26.0634
20
-12.320732
30
0
11
26.0634
21
-11.154065
31
0
12
29.5634
22
-11.737398
32
0
13
29.5634
23
-11.737398
33
0
39
0
210
0
220
0
230
1
0
MTEXT
5
111
100
AcDbEntity
8
0
62
256
6
ByLayer
370
18
48
1
60
0
100
AcDbMText
10
14.7817
20
-4.737398
30
0
210
0
220
0
230
1
1
\A1;29.56
40
3.5
41
0
44
1
50
0
71
5
72
5
7
iso_b_vert
0
POINT
5
112
100
AcDbEntity
8
Defpoints
62
0
6
ByLayer
370
-1
48
1
60
0
100
AcDbPoint
10
0
20
0
30
0
39
0
210
0
220
0
230
1
50
360
0
POINT
5
113
100
AcDbEntity
8
Defpoints
62
0
6
ByLayer
370
-1
48
1
60
0
100
AcDbPoint
10
29.5634
20
-1.524
30
0
39
0
210
0
220
0
230
1
50
360
0
POINT
5
114
100
AcDbEntity
8
Defpoints
62
0
6
ByLayer
370
-1
48
1
60
0
100
AcDbPoint
10
29.5634
20
-11.737398
30
0
39
0
210
0
220
0
230
1
50
360
0
ENDBLK
5
10B
100
AcDbEntity
8
0
100
AcDbBlockEnd
0
BLOCK
5
11C
100
AcDbEntity
8
0
100
AcDbBlockBegin
2
_U0
70
0
10
0
20
0
30
0
3
_U0
0
MTEXT
5
116
100
AcDbEntity
8
SK2
62
256
6
ByLayer
370
13
48
1
60
0
100
AcDbMText
10
9.644401
20
-10.704765
30
0
210
0
220
0
230
1
1
\W0.7317;29,56
40
3.5
41
0
44
1.084337
50
0
71
7
72
5
7
iso_b_vert
0
LINE
5
117
100
AcDbEntity
8
SK2
62
256
6
ByLayer
370
13
48
1
60
0
100
AcDbLine
10
0
20
-1.5875
30
0
11
0
21
-13.737398
31
0
39
0
210
0
220
0
230
1
0
LINE
5
118
100
AcDbEntity
8
SK2
62
256
6
ByLayer
370
13
48
1
60
0
100
AcDbLine
10
29.5634
20
-3.1115
30
0
11
29.5634
21
-13.737398
31
0
39
0
210
0
220
0
230
1
0
LINE
5
119
100
AcDbEntity
8
SK2
62
256
6
ByLayer
370
13
48
1
60
0
100
AcDbLine
10
0
20
-11.737398
30
0
11
29.5634
21
-11.737398
31
0
39
0
210
0
220
0
230
1
0
SOLID
5
11A
100
AcDbEntity
8
SK2
62
256
6
ByLayer
370
18
48
1
60
0
100
AcDbTrace
10
0
20
-11.737398
30
0
11
3.499998
21
-11.276615
31
0
12
3.500002
22
-12.198182
32
0
13
3.500002
23
-12.198182
33
0
39
0
210
0
220
0
230
1
0
SOLID
5
11B
100
AcDbEntity
8
SK2
62
256
6
ByLayer
370
18
48
1
60
0
100
AcDbTrace
10
29.5634
20
-11.737398
30
0
11
26.063402
21
-12.198182
31
0
12
26.063398
22
-11.276615
32
0
13
26.063398
23
-11.276615
33
0
39
0
210
0
220
0
230
1
0
ENDBLK
5
11D
100
AcDbEntity
8
0
100
AcDbBlockEnd
0
BLOCK
5
122
100
AcDbEntity
8
0
100
AcDbBlockBegin
2
*D3
70
1
10
0
20
0
30
0
3
*D3
0
LINE
5
124
100
AcDbEntity
8
0
62
256
6
ByLayer
370
-2
48
1
60
0
100
AcDbLine
10
-36
20
-4.5875
30
0
11
-36
21
-33.692985
31
0
39
0
210
0
220
0
230
1
0
LINE
5
125
100
AcDbEntity
8
0
62
256
6
ByLayer
370
-2
48
1
60
0
100
AcDbLine
10
30
20
-1.5875
30
0
11
30
21
-33.692985
31
0
39
0
210
0
220
0
230
1
0
LINE
5
126
100
AcDbEntity
8
0
62
256
6
ByLayer
370
-2
48
1
60
0
100
AcDbLine
10
-32.5
20
-31.692985
30
0
11
26.5
21
-31.692985
31
0
39
0
210
0
220
0
230
1
0
SOLID
5
127
100
AcDbEntity
8
0
62
256
6
ByLayer
370
-1
48
1
60
0
100
AcDbTrace
10
-32.5
20
-31.109652
30
0
11
-32.5
21
-32.276319
31
0
12
-36
22
-31.692985
32
0
13
-36
23
-31.692985
33
0
39
0
210
0
220
0
230
1
0
SOLID
5
128
100
AcDbEntity
8
0
62
256
6
ByLayer
370
-1
48
1
60
0
100
AcDbTrace
10
26.5
20
-32.276319
30
0
11
26.5
21
-31.109652
31
0
12
30
22
-31.692985
32
0
13
30
23
-31.692985
33
0
39
0
210
0
220
0
230
1
0
MTEXT
5
129
100
AcDbEntity
8
0
62
256
6
ByLayer
370
18
48
1
60
0
100
AcDbMText
10
-3
20
-24.692985
30
0
210
0
220
0
230
1
1
\A1;66.00
40
3.5
41
0
44
1
50
0
71
5
72
5
7
iso_b_vert
0
POINT
5
12A
100
AcDbEntity
8
Defpoints
62
0
6
ByLayer
370
-1
48
1
60
0
100
AcDbPoint
10
-36
20
-3
30
0
39
0
210
0
220
0
230
1
50
360
0
POINT
5
12B
100
AcDbEntity
8
Defpoints
62
0
6
ByLayer
370
-1
48
1
60
0
100
AcDbPoint
10
30
20
0
30
0
39
0
210
0
220
0
230
1
50
360
0
POINT
5
12C
100
AcDbEntity
8
Defpoints
62
0
6
ByLayer
370
-1
48
1
60
0
100
AcDbPoint
10
30
20
-31.692985
30
0
39
0
210
0
220
0
230
1
50
360
0
ENDBLK
5
123
100
AcDbEntity
8
0
100
AcDbBlockEnd
0
BLOCK
5
134
100
AcDbEntity
8
0
100
AcDbBlockBegin
2
_U1
70
0
10
0
20
0
30
0
3
_U1
0
MTEXT
5
12E
100
AcDbEntity
8
SK2
62
256
6
ByLayer
370
13
48
1
60
0
100
AcDbMText
10
-8.137299
20
-30.660352
30
0
210
0
220
0
230
1
1
\W0.7317;66,00
40
3.5
41
0
44
1.084337
50
0
71
7
72
5
7
iso_b_vert
0
LINE
5
12F
100
AcDbEntity
8
SK2
62
256
6
ByLayer
370
13
48
1
60
0
100
AcDbLine
10
-36
20
-4.5875
30
0
11
-36
21
-33.692985
31
0
39
0
210
0
220
0
230
1
0
LINE
5
130
100
AcDbEntity
8
SK2
62
256
6
ByLayer
370
13
48
1
60
0
100
AcDbLine
10
30
20
-1.5875
30
0
11
30
21
-33.692985
31
0
39
0
210
0
220
0
230
1
0
LINE
5
131
100
AcDbEntity
8
SK2
62
256
6
ByLayer
370
13
48
1
60
0
100
AcDbLine
10
-36
20
-31.692985
30
0
11
30
21
-31.692985
31
0
39
0
210
0
220
0
230
1
0
SOLID
5
132
100
AcDbEntity
8
SK2
62
256
6
ByLayer
370
18
48
1
60
0
100
AcDbTrace
10
-36
20
-31.692985
30
0
11
-32.500002
21
-31.232202
31
0
12
-32.499998
22
-32.153769
32
0
13
-32.499998
23
-32.153769
33
0
39
0
210
0
220
0
230
1
0
SOLID
5
133
100
AcDbEntity
8
SK2
62
256
6
ByLayer
370
18
48
1
60
0
100
AcDbTrace
10
30
20
-31.692985
30
0
11
26.500002
21
-32.153769
31
0
12
26.499998
22
-31.232202
32
0
13
26.499998
23
-31.232202
33
0
39
0
210
0
220
0
230
1
0
ENDBLK
5
135
100
AcDbEntity
8
0
100
AcDbBlockEnd
0
BLOCK
5
13A
100
AcDbEntity
8
0
100
AcDbBlockBegin
2
*D5
70
1
10
0
20
0
30
0
3
*D5
0
LINE
5
13C
100
AcDbEntity
8
0
62
256
6
ByLayer
370
-2
48
1
60
0
100
AcDbLine
10
14.31
20
3.1115
30
0
11
14.31
21
15.133119
31
0
39
0
210
0
220
0
230
1
0
LINE
5
13D
100
AcDbEntity
8
0
62
256
6
ByLayer
370
-2
48
1
60
0
100
AcDbLine
10
30
20
1.5875
30
0
11
30
21
15.133119
31
0
39
0
210
0
220
0
230
1
0
LINE
5
13E
100
AcDbEntity
8
0
62
256
6
ByLayer
370
-2
48
1
60
0
100
AcDbLine
10
10.81
20
13.133119
30
0
11
7.31
21
13.133119
31
0
39
0
210
0
220
0
230
1
0
LINE
5
13F
100
AcDbEntity
8
0
62
256
6
ByLayer
370
-2
48
1
60
0
100
AcDbLine
10
33.5
20
13.133119
30
0
11
37
21
13.133119
31
0
39
0
210
0
220
0
230
1
0
SOLID
5
140
100
AcDbEntity
8
0
62
256
6
ByLayer
370
-1
48
1
60
0
100
AcDbTrace
10
10.81
20
12.549786
30
0
11
10.81
21
13.716453
31
0
12
14.31
22
13.133119
32
0
13
14.31
23
13.133119
33
0
39
0
210
0
220
0
230
1
0
SOLID
5
141
100
AcDbEntity
8
0
62
256
6
ByLayer
370
-1
48
1
60
0
100
AcDbTrace
10
33.5
20
13.716453
30
0
11
33.5
21
12.549786
31
0
12
30
22
13.133119
32
0
13
30
23
13.133119
33
0
39
0
210
0
220
0
230
1
0
MTEXT
5
142
100
AcDbEntity
8
0
62
256
6
ByLayer
370
18
48
1
60
0
100
AcDbMText
10
22.155
20
20.133119
30
0
210
0
220
0
230
1
1
\A1;15.69
40
3.5
41
0
44
1
50
0
71
5
72
5
7
iso_b_vert
0
POINT
5
143
100
AcDbEntity
8
Defpoints
62
0
6
ByLayer
370
-1
48
1
60
0
100
AcDbPoint
10
14.31
20
1.524
30
0
39
0
210
0
220
0
230
1
50
360
0
POINT
5
144
100
AcDbEntity
8
Defpoints
62
0
6
ByLayer
370
-1
48
1
60
0
100
AcDbPoint
10
30
20
0
30
0
39
0
210
0
220
0
230
1
50
360
0
POINT
5
145
100
AcDbEntity
8
Defpoints
62
0
6
ByLayer
370
-1
48
1
60
0
100
AcDbPoint
10
30
20
13.133119
30
0
39
0
210
0
220
0
230
1
50
360
0
ENDBLK
5
13B
100
AcDbEntity
8
0
100
AcDbBlockEnd
0
BLOCK
5
14D
100
AcDbEntity
8
0
100
AcDbBlockBegin
2
_U2
70
0
10
0
20
0
30
0
3
_U2
0
MTEXT
5
147
100
AcDbEntity
8
SK2
62
256
6
ByLayer
370
13
48
1
60
0
100
AcDbMText
10
17.455135
20
14.165753
30
0
210
0
220
0
230
1
1
\W0.6791;15,69
40
3.5
41
0
44
1.084337
50
0
71
7
72
5
7
iso_b_vert
0
LINE
5
148
100
AcDbEntity
8
SK2
62
256
6
ByLayer
370
13
48
1
60
0
100
AcDbLine
10
14.31
20
3.1115
30
0
11
14.31
21
15.133119
31
0
39
0
210
0
220
0
230
1
0
LINE
5
149
100
AcDbEntity
8
SK2
62
256
6
ByLayer
370
13
48
1
60
0
100
AcDbLine
10
30
20
1.5875
30
0
11
30
21
15.133119
31
0
39
0
210
0
220
0
230
1
0
LINE
5
14A
100
AcDbEntity
8
SK2
62
256
6
ByLayer
370
13
48
1
60
0
100
AcDbLine
10
14.31
20
13.133119
30
0
11
30
21
13.133119
31
0
39
0
210
0
220
0
230
1
0
SOLID
5
14B
100
AcDbEntity
8
SK2
62
256
6
ByLayer
370
18
48
1
60
0
100
AcDbTrace
10
14.31
20
13.133119
30
0
11
17.809998
21
13.593903
31
0
12
17.810002
22
12.672335
32
0
13
17.810002
23
12.672335
33
0
39
0
210
0
220
0
230
1
0
SOLID
5
14C
100
AcDbEntity
8
SK2
62
256
6
ByLayer
370
18
48
1
60
0
100
AcDbTrace
10
30
20
13.133119
30
0
11
26.500002
21
12.672335
31
0
12
26.499998
22
13.593903
32
0
13
26.499998
23
13.593903
33
0
39
0
210
0
220
0
230
1
0
ENDBLK
5
14E
100
AcDbEntity
8
0
100
AcDbBlockEnd
0
BLOCK
5
153
100
AcDbEntity
8
0
100
AcDbBlockBegin
2
*D7
70
1
10
0
20
0
30
0
3
*D7
0
LINE
5
155
100
AcDbEntity
8
0
62
256
6
ByLayer
370
-2
48
1
60
0
100
AcDbLine
10
30
20
-1.5875
30
0
11
30
21
-16.326503
31
0
39
0
210
0
220
0
230
1
0
LINE
5
156
100
AcDbEntity
8
0
62
256
6
ByLayer
370
-2
48
1
60
0
100
AcDbLine
10
29.5634
20
-3.1115
30
0
11
29.5634
21
-16.326503
31
0
39
0
210
0
220
0
230
1
0
LINE
5
157
100
AcDbEntity
8
0
62
256
6
ByLayer
370
-2
48
1
60
0
100
AcDbLine
10
30
20
-14.326503
30
0
11
58.333333
21
-14.326503
31
0
39
0
210
0
220
0
230
1
0
LINE
5
158
100
AcDbEntity
8
0
62
256
6
ByLayer
370
-2
48
1
60
0
100
AcDbLine
10
33.5
20
-14.326503
30
0
11
37
21
-14.326503
31
0
39
0
210
0
220
0
230
1
0
LINE
5
159
100
AcDbEntity
8
0
62
256
6
ByLayer
370
-2
48
1
60
0
100
AcDbLine
10
26.0634
20
-14.326503
30
0
11
22.5634
21
-14.326503
31
0
39
0
210
0
220
0
230
1
0
SOLID
5
15A
100
AcDbEntity
8
0
62
256
6
ByLayer
370
-1
48
1
60
0
100
AcDbTrace
10
33.5
20
-13.74317
30
0
11
33.5
21
-14.909837
31
0
12
30
22
-14.326503
32
0
13
30
23
-14.326503
33
0
39
0
210
0
220
0
230
1
0
SOLID
5
15B
100
AcDbEntity
8
0
62
256
6
ByLayer
370
-1
48
1
60
0
100
AcDbTrace
10
26.0634
20
-14.909837
30
0
11
26.0634
21
-13.74317
31
0
12
29.5634
22
-14.326503
32
0
13
29.5634
23
-14.326503
33
0
39
0
210
0
220
0
230
1
0
MTEXT
5
15C
100
AcDbEntity
8
0
62
256
6
ByLayer
370
18
48
1
60
0
100
AcDbMText
10
47.666667
20
-7.326503
30
0
210
0
220
0
230
1
1
\A1;0.44
40
3.5
41
0
44
1
50
0
71
5
72
5
7
iso_b_vert
0
POINT
5
15D
100
AcDbEntity
8
Defpoints
62
0
6
ByLayer
370
-1
48
1
60
0
100
AcDbPoint
10
30
20
0
30
0
39
0
210
0
220
0
230
1
50
360
0
POINT
5
15E
100
AcDbEntity
8
Defpoints
62
0
6
ByLayer
370
-1
48
1
60
0
100
AcDbPoint
10
29.5634
20
-1.524
30
0
39
0
210
0
220
0
230
1
50
360
0
POINT
5
15F
100
AcDbEntity
8
Defpoints
62
0
6
ByLayer
370
-1
48
1
60
0
100
AcDbPoint
10
29.5634
20
-14.326503
30
0
39
0
210
0
220
0
230
1
50
360
0
ENDBLK
5
154
100
AcDbEntity
8
0
100
AcDbBlockEnd
0
BLOCK
5
167
100
AcDbEntity
8
0
100
AcDbBlockBegin
2
_U3
70
0
10
0
20
0
30
0
3
_U3
0
MTEXT
5
161
100
AcDbEntity
8
SK2
62
256
6
ByLayer
370
13
48
1
60
0
100
AcDbMText
10
35.783326
20
-13.29387
30
0
210
0
220
0
230
1
1
\W0.7721;0,44
40
3.5
41
0
44
1.084337
50
0
71
7
72
5
7
iso_b_vert
0
LINE
5
162
100
AcDbEntity
8
SK2
62
256
6
ByLayer
370
13
48
1
60
0
100
AcDbLine
10
30
20
-1.5875
30
0
11
30
21
-16.326503
31
0
39
0
210
0
220
0
230
1
0
LINE
5
163
100
AcDbEntity
8
SK2
62
256
6
ByLayer
370
13
48
1
60
0
100
AcDbLine
10
29.5634
20
-3.1115
30
0
11
29.5634
21
-16.326503
31
0
39
0
210
0
220
0
230
1
0
LINE
5
164
100
AcDbEntity
8
SK2
62
256
6
ByLayer
370
13
48
1
60
0
100
AcDbLine
10
20.8134
20
-14.326503
30
0
11
44.365024
21
-14.326503
31
0
39
0
210
0
220
0
230
1
0
SOLID
5
165
100
AcDbEntity
8
SK2
62
256
6
ByLayer
370
18
48
1
60
0
100
AcDbTrace
10
30
20
-14.326503
30
0
11
33.499998
21
-13.865719
31
0
12
33.500002
22
-14.787287
32
0
13
33.500002
23
-14.787287
33
0
39
0
210
0
220
0
230
1
0
SOLID
5
166
100
AcDbEntity
8
SK2
62
256
6
ByLayer
370
18
48
1
60
0
100
AcDbTrace
10
29.5634
20
-14.326503
30
0
11
26.063402
21
-14.787287
31
0
12
26.063398
22
-13.865719
32
0
13
26.063398
23
-13.865719
33
0
39
0
210
0
220
0
230
1
0
ENDBLK
5
168
100
AcDbEntity
8
0
100
AcDbBlockEnd
0
BLOCK
5
16D
100
AcDbEntity
8
0
100
AcDbBlockBegin
2
*D9
70
1
10
0
20
0
30
0
3
*D9
0
LINE
5
16F
100
AcDbEntity
8
0
62
256
6
ByLayer
370
-2
48
1
60
0
100
AcDbLine
10
-36
20
-4.5875
30
0
11
-36
21
-23.343428
31
0
39
0
210
0
220
0
230
1
0
LINE
5
170
100
AcDbEntity
8
0
62
256
6
ByLayer
370
-2
48
1
60
0
100
AcDbLine
10
29.5634
20
-3.1115
30
0
11
29.5634
21
-23.343428
31
0
39
0
210
0
220
0
230
1
0
LINE
5
171
100
AcDbEntity
8
0
62
256
6
ByLayer
370
-2
48
1
60
0
100
AcDbLine
10
-32.5
20
-21.343428
30
0
11
26.0634
21
-21.343428
31
0
39
0
210
0
220
0
230
1
0
SOLID
5
172
100
AcDbEntity
8
0
62
256
6
ByLayer
370
-1
48
1
60
0
100
AcDbTrace
10
-32.5
20
-20.760095
30
0
11
-32.5
21
-21.926762
31
0
12
-36
22
-21.343428
32
0
13
-36
23
-21.343428
33
0
39
0
210
0
220
0
230
1
0
SOLID
5
173
100
AcDbEntity
8
0
62
256
6
ByLayer
370
-1
48
1
60
0
100
AcDbTrace
10
26.0634
20
-21.926762
30
0
11
26.0634
21
-20.760095
31
0
12
29.5634
22
-21.343428
32
0
13
29.5634
23
-21.343428
33
0
39
0
210
0
220
0
230
1
0
MTEXT
5
174
100
AcDbEntity
8
0
62
256
6
ByLayer
370
18
48
1
60
0
100
AcDbMText
10
-3.2183
20
-14.343428
30
0
210
0
220
0
230
1
1
\A1;65.56
40
3.5
41
0
44
1
50
0
71
5
72
5
7
iso_b_vert
0
POINT
5
175
100
AcDbEntity
8
Defpoints
62
0
6
ByLayer
370
-1
48
1
60
0
100
AcDbPoint
10
-36
20
-3
30
0
39
0
210
0
220
0
230
1
50
360
0
POINT
5
176
100
AcDbEntity
8
Defpoints
62
0
6
ByLayer
370
-1
48
1
60
0
100
AcDbPoint
10
29.5634
20
-1.524
30
0
39
0
210
0
220
0
230
1
50
360
0
POINT
5
177
100
AcDbEntity
8
Defpoints
62
0
6
ByLayer
370
-1
48
1
60
0
100
AcDbPoint
10
29.5634
20
-21.343428
30
0
39
0
210
0
220
0
230
1
50
360
0
ENDBLK
5
16E
100
AcDbEntity
8
0
100
AcDbBlockEnd
0
BLOCK
5
17F
100
AcDbEntity
8
0
100
AcDbBlockBegin
2
_U4
70
0
10
0
20
0
30
0
3
_U4
0
MTEXT
5
179
100
AcDbEntity
8
SK2
62
256
6
ByLayer
370
13
48
1
60
0
100
AcDbMText
10
-8.355599
20
-20.310795
30
0
210
0
220
0
230
1
1
\W0.7317;65,56
40
3.5
41
0
44
1.084337
50
0
71
7
72
5
7
iso_b_vert
0
LINE
5
17A
100
AcDbEntity
8
SK2
62
256
6
ByLayer
370
13
48
1
60
0
100
AcDbLine
10
-36
20
-4.5875
30
0
11
-36
21
-23.343428
31
0
39
0
210
0
220
0
230
1
0
LINE
5
17B
100
AcDbEntity
8
SK2
62
256
6
ByLayer
370
13
48
1
60
0
100
AcDbLine
10
29.5634
20
-3.1115
30
0
11
29.5634
21
-23.343428
31
0
39
0
210
0
220
0
230
1
0
LINE
5
17C
100
AcDbEntity
8
SK2
62
256
6
ByLayer
370
13
48
1
60
0
100
AcDbLine
10
-36
20
-21.343428
30
0
11
29.5634
21
-21.343428
31
0
39
0
210
0
220
0
230
1
0
SOLID
5
17D
100
AcDbEntity
8
SK2
62
256
6
ByLayer
370
18
48
1
60
0
100
AcDbTrace
10
-36
20
-21.343428
30
0
11
-32.500002
21
-20.882645
31
0
12
-32.499998
22
-21.804212
32
0
13
-32.499998
23
-21.804212
33
0
39
0
210
0
220
0
230
1
0
SOLID
5
17E
100
AcDbEntity
8
SK2
62
256
6
ByLayer
370
18
48
1
60
0
100
AcDbTrace
10
29.5634
20
-21.343428
30
0
11
26.063402
21
-21.804212
31
0
12
26.063398
22
-20.882645
32
0
13
26.063398
23
-20.882645
33
0
39
0
210
0
220
0
230
1
0
ENDBLK
5
180
100
AcDbEntity
8
0
100
AcDbBlockEnd
0
ENDSEC
0
SECTION
2
ENTITIES
0
ARC
5
AC
100
AcDbEntity
8
1
62
256
6
ByLayer
370
18
48
1
60
0
100
AcDbCircle
39
0
10
1.59645
20
-2.306527
30
0
40
0.799999999999997
210
0
220
0
230
1
100
AcDbArc
50
89.96419
51
176.182456
0
ARC
5
AD
100
AcDbEntity
8
1
62
256
6
ByLayer
370
18
48
1
60
0
100
AcDbCircle
39
0
10
1.59645
20
2.306527
30
0
40
0.799999999999997
210
0
220
0
230
1
100
AcDbArc
50
183.817544
51
270.03581
0
ARC
5
AE
100
AcDbEntity
8
1
62
256
6
ByLayer
370
18
48
1
60
0
100
AcDbCircle
39
0
10
0
20
-2.2
30
0
40
0.799999999999997
210
0
220
0
230
1
100
AcDbArc
50
270
51
356.182456
0
ARC
5
AF
100
AcDbEntity
8
1
62
256
6
ByLayer
370
18
48
1
60
0
100
AcDbCircle
39
0
10
0
20
2.2
30
0
40
0.799999999999997
210
0
220
0
230
1
100
AcDbArc
50
3.817544
51
90
0
ELLIPSE
5
B0
100
AcDbEntity
8
1
62
256
6
ByLayer
370
18
48
1
60
0
100
AcDbEllipse
10
4.25
20
1.6831
30
0
11
0.25
21
0
31
0
210
0
220
0
230
1
40
1
41
-2.33992724897862
42
-1.56347721431132
0
ELLIPSE
5
B1
100
AcDbEntity
8
1
62
256
6
ByLayer
370
18
48
1
60
0
100
AcDbEllipse
10
4.25
20
-1.6831
30
0
11
0.25
21
0
31
0
210
0
220
0
230
1
40
1
41
1.56958167072595
42
2.34395855179319
0
POINT
5
70
100
AcDbEntity
8
80
62
256
6
ByLayer
370
18
48
1
60
0
100
AcDbPoint
10
0
20
0
30
0
39
0
210
0
220
0
230
1
50
360
0
POINT
5
72
100
AcDbEntity
8
81
62
256
6
ByLayer
370
18
48
1
60
0
100
AcDbPoint
10
30
20
0
30
0
39
0
210
0
220
0
230
1
50
360
0
POINT
5
74
100
AcDbEntity
8
1
62
256
6
ByLayer
370
18
48
1
60
1
100
AcDbPoint
10
29.5634
20
-1.524
30
0
39
0
210
0
220
0
230
1
50
360
0
POINT
5
76
100
AcDbEntity
8
1
62
256
6
ByLayer
370
18
48
1
60
1
100
AcDbPoint
10
-36
20
-3
30
0
39
0
210
0
220
0
230
1
50
360
0
POINT
5
77
100
AcDbEntity
8
1
62
256
6
ByLayer
370
18
48
1
60
1
100
AcDbPoint
10
14.31
20
1.524
30
0
39
0
210
0
220
0
230
1
50
360
0
POINT
5
78
100
AcDbEntity
8
1
62
256
6
ByLayer
370
18
48
1
60
1
100
AcDbPoint
10
29.5634
20
-1.524
30
0
39
0
210
0
220
0
230
1
50
360
0
POINT
5
79
100
AcDbEntity
8
1
62
256
6
ByLayer
370
18
48
1
60
1
100
AcDbPoint
10
-36
20
-3
30
0
39
0
210
0
220
0
230
1
50
360
0
POINT
5
7A
100
AcDbEntity
8
1
62
256
6
ByLayer
370
18
48
1
60
1
100
AcDbPoint
10
29.5634
20
-1.524
30
0
39
0
210
0
220
0
230
1
50
360
0
SPLINE
5
B2
100
AcDbEntity
8
1
62
256
6
ByLayer
370
13
48
1
60
0
100
AcDbSpline
70
4
71
3
72
8
73
4
40
0
40
0
40
0
40
0
40
1
40
1
40
1
40
1
41
1
10
4.07080962466412
20
1.26281631943709
30
0
41
1
10
4.08820429637109
20
1.24263374747835
30
0
41
1
10
4.10818730154915
20
1.22534657251603
30
0
41
1
10
4.13113473905352
20
1.21135961366724
30
0
0
SPLINE
5
B3
100
AcDbEntity
8
1
62
256
6
ByLayer
370
18
48
1
60
0
100
AcDbSpline
70
4
71
3
72
8
73
4
40
0
40
0
40
0
40
0
40
1
40
1
40
1
40
1
41
1
10
4.20487784708666
20
1.17696395440788
30
0
41
1
10
4.17522382199954
20
1.18670256149923
30
0
41
1
10
4.14602725662064
20
1.19674930226938
30
0
41
1
10
4.12016122877384
20
1.20963364393717
30
0
0
SPLINE
5
B4
100
AcDbEntity
8
1
62
256
6
ByLayer
370
18
48
1
60
0
100
AcDbSpline
70
4
71
3
72
8
73
4
40
0
40
0
40
0
40
0
40
1
40
1
40
1
40
1
41
1
10
29.9999361356206
20
0.0321490296865079
30
0
41
1
10
30.0000213056707
20
0.0107119271002318
30
0
41
1
10
30.0000212698215
20
-0.0107209502169212
30
0
41
1
10
29.9999361356208
20
-0.032149029652345
30
0
0
SPLINE
5
B5
100
AcDbEntity
8
1
62
256
6
ByLayer
370
18
48
1
60
0
100
AcDbSpline
70
4
71
3
72
62
73
58
40
0
40
0
40
0
40
0
40
0.00426954212427
40
0.00426954212427
40
0.0366131678029269
40
0.0366131678029269
40
0.068956793481584
40
0.068956793481584
40
0.101300419160241
40
0.101300419160241
40
0.133644044838898
40
0.133644044838898
40
0.198331296196212
40
0.198331296196212
40
0.230674921874869
40
0.230674921874869
40
0.263018547553526
40
0.263018547553526
40
0.295362173232183
40
0.295362173232183
40
0.32770579891084
40
0.32770579891084
40
0.360049424589497
40
0.360049424589497
40
0.392393050268154
40
0.392393050268154
40
0.424736675946811
40
0.424736675946811
40
0.457080301625468
40
0.457080301625468
40
0.489423927304125
40
0.489423927304125
40
0.521767552982782
40
0.521767552982782
40
0.586454804340096
40
0.586454804340096
40
0.65114205569741
40
0.65114205569741
40
0.683485681376067
40
0.683485681376067
40
0.715829307054725
40
0.715829307054725
40
0.748172932733383
40
0.748172932733383
40
0.78051655841204
40
0.78051655841204
40
0.812860184090698
40
0.812860184090698
40
0.845203809769356
40
0.845203809769356
40
0.877547435448014
40
0.877547435448014
40
0.909891061126671
40
0.909891061126671
40
0.974578312483988
40
0.974578312483988
40
1
40
1
40
1
40
1
41
1
10
26.6983062015759
20
-1.12032365881149
30
0
41
1
10
26.682723482471
20
-1.12530982662312
30
0
41
1
10
26.6671389927031
20
-1.13024850542868
30
0
41
1
10
26.5334776102006
20
-1.17218811098829
30
0
41
1
10
26.4150734493559
20
-1.20628166339662
30
0
41
1
10
26.1787575357667
20
-1.26794873589051
30
0
41
1
10
26.0608545296057
20
-1.29578443619823
30
0
41
1
10
25.8250043699123
20
-1.34412604885367
30
0
41
1
10
25.7071056382867
20
-1.36448578218841
30
0
41
1
10
25.4706893951896
20
-1.39834415721376
30
0
41
1
10
25.3522536205008
20
-1.41214134617286
30
0
41
1
10
24.9978459375117
20
-1.44337297439583
30
0
41
1
10
24.7623451437936
20
-1.45036876900193
30
0
41
1
10
24.4079011502262
20
-1.43737075005939
30
0
41
1
10
24.2894742648999
20
-1.42877919920971
30
0
41
1
10
24.0531233443979
20
-1.40396806526252
30
0
41
1
10
23.9350286037247
20
-1.38857346698887
30
0
41
1
10
23.6990125389991
20
-1.35131153240721
30
0
41
1
10
23.5810339501063
20
-1.32927169288283
30
0
41
1
10
23.3445995277949
20
-1.27749361544249
30
0
41
1
10
23.225998043352
20
-1.2483861067318
30
0
41
1
10
22.9896671381729
20
-1.18459874408421
30
0
41
1
10
22.8716770048776
20
-1.14973347948586
30
0
41
1
10
22.6356802717497
20
-1.07332393444369
30
0
41
1
10
22.5174731900257
20
-1.0320288278908
30
0
41
1
10
22.2809437894581
20
-0.945295025283542
30
0
41
1
10
22.1624808158404
20
-0.8995096451915
30
0
41
1
10
21.9263037502034
20
-0.803227443126872
30
0
41
1
10
21.8082646630282
20
-0.752738415512738
30
0
41
1
10
21.5721724924696
20
-0.648812863403975
30
0
41
1
10
21.4541661793867
20
-0.595236100156143
30
0
41
1
10
21.2177330351195
20
-0.484750760369195
30
0
41
1
10
21.0993076069359
20
-0.427870368955837
30
0
41
1
10
20.7447733906467
20
-0.25543279523265
30
0
41
1
10
20.5093588434019
20
-0.136647693750263
30
0
41
1
10
20.0358979625268
20
0.101112998890613
30
0
41
1
10
19.7996732323681
20
0.220862747133936
30
0
41
1
10
19.4453281913968
20
0.393827652064772
30
0
41
1
10
19.3271434085351
20
0.450562426888496
30
0
41
1
10
19.0904806445176
20
0.562229226376587
30
0
41
1
10
18.9721362212969
20
0.616956012165645
30
0
41
1
10
18.7358840593368
20
0.722122036397252
30
0
41
1
10
18.6177936808094
20
0.772496008560836
30
0
41
1
10
18.3816936971872
20
0.870246952141287
30
0
41
1
10
18.2636442607895
20
0.917330610679414
30
0
41
1
10
18.0269885473062
20
1.0060451635708
30
0
41
1
10
17.9085009697717
20
1.04743936862209
30
0
41
1
10
17.6722181839547
20
1.1253165589786
30
0
41
1
10
17.5541984853269
20
1.16183830687325
30
0
41
1
10
17.3181194304836
20
1.22844807366485
30
0
41
1
10
17.1998599150932
20
1.25812764474139
30
0
41
1
10
16.9629954198107
20
1.31147902482854
30
0
41
1
10
16.844616449568
20
1.33534756286625
30
0
41
1
10
16.4902868231679
20
1.39644302357988
30
0
41
1
10
16.2541764789453
20
1.42119248373018
30
0
41
1
10
15.9242909276637
20
1.43805387562389
30
0
41
1
10
15.8313310036652
20
1.44042474360001
30
0
41
1
10
15.7384297853946
20
1.44031010017258
30
0
0
SPLINE
5
B6
100
AcDbEntity
8
1
62
256
6
ByLayer
370
18
48
1
60
0
100
AcDbSpline
70
4
71
3
72
24
73
20
40
0
40
0
40
0
40
0
40
0.0408166897367081
40
0.0408166897367081
40
0.147392613099297
40
0.147392613099297
40
0.253968536461886
40
0.253968536461886
40
0.360544459824475
40
0.360544459824475
40
0.573696306549654
40
0.573696306549654
40
0.68027222991224
40
0.68027222991224
40
0.786848153274826
40
0.786848153274826
40
0.893424076637414
40
0.893424076637414
40
1
40
1
40
1
40
1
41
1
10
8.70448420207279
20
-1.11007899509246
30
0
41
1
10
8.65911577970988
20
-1.1244278987671
30
0
41
1
10
8.61375489188757
20
-1.1383596287626
30
0
41
1
10
8.45010463219904
20
-1.18714647507807
30
0
41
1
10
8.33202347548485
20
-1.21976647218037
30
0
41
1
10
8.09573247805687
20
-1.27825979743383
30
0
41
1
10
7.97753395529193
20
-1.30401720854849
30
0
41
1
10
7.74087507362353
20
-1.34896854808136
30
0
41
1
10
7.62227708908261
20
-1.36832686329112
30
0
41
1
10
7.26751644912929
20
-1.41575958305316
30
0
41
1
10
7.03158279418267
20
-1.43198337614069
30
0
41
1
10
6.67705385257983
20
-1.43590501509047
30
0
41
1
10
6.55840416428407
20
-1.43361354228276
30
0
41
1
10
6.32169585162666
20
-1.42119961057719
30
0
41
1
10
6.20356476565607
20
-1.41124080216511
30
0
41
1
10
5.96753693920513
20
-1.38463110538132
30
0
41
1
10
5.84964872540334
20
-1.36789438247445
30
0
41
1
10
5.6133192045678
20
-1.32696533854263
30
0
41
1
10
5.49486981513854
20
-1.30279512807135
30
0
41
1
10
5.37631604028473
20
-1.27577417054908
30
0
0
SPLINE
5
B7
100
AcDbEntity
8
1
62
256
6
ByLayer
370
18
48
1
60
0
100
AcDbSpline
70
4
71
3
72
60
73
56
40
0
40
0
40
0
40
0
40
0.0057637209131363
40
0.0057637209131363
40
0.0705369262845503
40
0.0705369262845503
40
0.135310131655964
40
0.135310131655964
40
0.200083337027378
40
0.200083337027378
40
0.232469939713085
40
0.232469939713085
40
0.264856542398792
40
0.264856542398792
40
0.297243145084499
40
0.297243145084499
40
0.329629747770206
40
0.329629747770206
40
0.362016350455913
40
0.362016350455913
40
0.39440295314162
40
0.39440295314162
40
0.426789555827327
40
0.426789555827327
40
0.459176158513034
40
0.459176158513034
40
0.52394936388445
40
0.52394936388445
40
0.556335966570158
40
0.556335966570158
40
0.588722569255867
40
0.588722569255867
40
0.621109171941575
40
0.621109171941575
40
0.653495774627284
40
0.653495774627284
40
0.685882377312993
40
0.685882377312993
40
0.718268979998701
40
0.718268979998701
40
0.750655582684409
40
0.750655582684409
40
0.783042185370118
40
0.783042185370118
40
0.815428788055827
40
0.815428788055827
40
0.847815390741535
40
0.847815390741535
40
0.912588596112952
40
0.912588596112952
40
0.944975198798661
40
0.944975198798661
40
0.977361801484369
40
0.977361801484369
40
1
40
1
40
1
40
1
41
1
10
6.73210001442871
20
1.43493364064847
30
0
41
1
10
6.75312907266061
20
1.43494213305374
30
0
41
1
10
6.77415064557937
20
1.43483073441541
30
0
41
1
10
7.03130317703534
20
1.43198915965323
30
0
41
1
10
7.26731812237472
20
1.4157934931537
30
0
41
1
10
7.74108928848329
20
1.35243386415109
30
0
41
1
10
7.97704594678652
20
1.3076180143367
30
0
41
1
10
8.44956435019432
20
1.1906918058913
30
0
41
1
10
8.68662898035768
20
1.11952588704764
30
0
41
1
10
9.04102010050826
20
0.996889791584891
30
0
41
1
10
9.15895003966227
20
0.953026142267476
30
0
41
1
10
9.39519078218427
20
0.861566460534249
30
0
41
1
10
9.51342705715794
20
0.813568602009866
30
0
41
1
10
9.75037988340841
20
0.712886927748769
30
0
41
1
10
9.86848932346592
20
0.660464105349575
30
0
41
1
10
10.1047161729886
20
0.55316817725091
30
0
41
1
10
10.2227527140217
20
0.498258299990397
30
0
41
1
10
10.4590744050039
20
0.385552121901299
30
0
41
1
10
10.5773611278267
20
0.327775983798261
30
0
41
1
10
10.8142001159435
20
0.210944255366741
30
0
41
1
10
10.9324539382512
20
0.15214961671262
30
0
41
1
10
11.1687327615483
20
0.0339700883239402
30
0
41
1
10
11.2867876623202
20
-0.025358851833289
30
0
41
1
10
11.523013165816
20
-0.143890363870355
30
0
41
1
10
11.6413913999143
20
-0.202920144781956
30
0
41
1
10
11.9966278545926
20
-0.378368378289338
30
0
41
1
10
12.2322921833163
20
-0.491599792224548
30
0
41
1
10
12.5866550975799
20
-0.653864767190214
30
0
41
1
10
12.7051121309913
20
-0.706316893458137
30
0
41
1
10
12.9417028254896
20
-0.807126089616332
30
0
41
1
10
13.0598124961111
20
-0.855501076703462
30
0
41
1
10
13.2960373970271
20
-0.948265291069873
30
0
41
1
10
13.4141571659363
20
-0.992711651320946
30
0
41
1
10
13.6505253416169
20
-1.07490634484355
30
0
41
1
10
13.7689605920821
20
-1.11338935318128
30
0
41
1
10
14.0056503126124
20
-1.18495952435529
30
0
41
1
10
14.1238652296626
20
-1.21845476272861
30
0
41
1
10
14.3601467517213
20
-1.27777776191269
30
0
41
1
10
14.478131444786
20
-1.30372172196903
30
0
41
1
10
14.7146378897437
20
-1.34970738606245
30
0
41
1
10
14.8331943629468
20
-1.36984665611376
30
0
41
1
10
15.0698125965537
20
-1.40243720755836
30
0
41
1
10
15.1877816326169
20
-1.4147234347848
30
0
41
1
10
15.4238864009733
20
-1.43212758713321
30
0
41
1
10
15.5419523732161
20
-1.43769558732916
30
0
41
1
10
15.7785184922082
20
-1.44155298703828
30
0
41
1
10
15.897008539686
20
-1.439403442177
30
0
41
1
10
16.2514949941898
20
-1.42141813458403
30
0
41
1
10
16.4874446354906
20
-1.39682743553118
30
0
41
1
10
16.8421662406676
20
-1.33582200853385
30
0
41
1
10
16.9606748270247
20
-1.3119586799011
30
0
41
1
10
17.1971235703637
20
-1.25878610387133
30
0
41
1
10
17.3152765945249
20
-1.22919550984719
30
0
41
1
10
17.515842012937
20
-1.17269770961406
30
0
41
1
10
17.5984021163087
20
-1.14785994180582
30
0
41
1
10
17.6810481935723
20
-1.12170277618884
30
0
0
SPLINE
5
B8
100
AcDbEntity
8
1
62
256
6
ByLayer
370
18
48
1
60
0
100
AcDbSpline
70
4
71
3
72
18
73
14
40
0
40
0
40
0
40
0
40
0.149327842463071
40
0.149327842463071
40
0.361995881847308
40
0.361995881847308
40
0.468329901539427
40
0.468329901539427
40
0.574663921231545
40
0.574663921231545
40
0.787331960615772
40
0.787331960615772
40
1
40
1
40
1
40
1
41
1
10
24.7343530276483
20
1.44531859396639
30
0
41
1
10
24.9002571528283
20
1.44503385153473
30
0
41
1
10
25.0663597819411
20
1.43728645055288
30
0
41
1
10
25.4686813030022
20
1.40195026693294
30
0
41
1
10
25.7045265071665
20
1.36874238913603
30
0
41
1
10
26.0593068934222
20
1.2961400410542
30
0
41
1
10
26.1777432931901
20
1.26819645748194
30
0
41
1
10
26.4141148768611
20
1.20654861066313
30
0
41
1
10
26.5320965292661
20
1.17259771420169
30
0
41
1
10
26.8861608379982
20
1.06157197804734
30
0
41
1
10
27.1232586284918
20
0.97596732686884
30
0
41
1
10
27.5956052977862
20
0.787340481139523
30
0
41
1
10
27.8315051547748
20
0.684304398326958
30
0
41
1
10
28.0681501376726
20
0.574560344642862
30
0
0
SPLINE
5
B9
100
AcDbEntity
8
1
62
256
6
ByLayer
370
18
48
1
60
0
100
AcDbSpline
70
4
71
3
72
10
73
6
40
0
40
0
40
0
40
0
40
0.5
40
0.5
40
1
40
1
40
1
40
1
41
1
10
29.5534954204077
20
-1.47287397180753
30
0
41
1
10
29.5382643895216
20
-1.4850974867166
30
0
41
1
10
29.523570751088
20
-1.49534120107148
30
0
41
1
10
29.4959460363182
20
-1.51118992388174
30
0
41
1
10
29.4829956585255
20
-1.51683435999968
30
0
41
1
10
29.470857380163
20
-1.52020524495032
30
0
0
SPLINE
5
BA
100
AcDbEntity
8
1
62
256
6
ByLayer
370
18
48
1
60
0
100
AcDbSpline
70
4
71
3
72
38
73
34
40
0
40
0
40
0
40
0
40
0.0428797959581316
40
0.0428797959581316
40
0.0857595919162632
40
0.0857595919162632
40
0.171519183832527
40
0.171519183832527
40
0.25727877574879
40
0.25727877574879
40
0.300158571706921
40
0.300158571706921
40
0.343038367665053
40
0.343038367665053
40
0.514557551497576
40
0.514557551497576
40
0.557437347455708
40
0.557437347455708
40
0.60031714341384
40
0.60031714341384
40
0.686076735330104
40
0.686076735330104
40
0.728956531288236
40
0.728956531288236
40
0.771836327246368
40
0.771836327246368
40
0.857595919162632
40
0.857595919162632
40
0.943355511078897
40
0.943355511078897
40
0.986235307037029
40
0.986235307037029
40
1
40
1
40
1
40
1
41
1
10
29.4708573801628
20
-1.52020524495072
30
0
41
1
10
29.3384210403759
20
-1.52507797396564
30
0
41
1
10
29.2061024912771
20
-1.52502074590947
30
0
41
1
10
28.941212682434
20
-1.51516864143113
30
0
41
1
10
28.8083393955626
20
-1.50532871464245
30
0
41
1
10
28.4119140160535
20
-1.46169877141324
30
0
41
1
10
28.1500792706866
20
-1.41383757684329
30
0
41
1
10
27.626836574338
20
-1.28446397624236
30
0
41
1
10
27.3654167278548
20
-1.20297862117044
30
0
41
1
10
26.9704204784608
20
-1.05867879096445
30
0
41
1
10
26.8379256501764
20
-1.00677950578216
30
0
41
1
10
26.5729909035539
20
-0.89684054352648
30
0
41
1
10
26.4412111027913
20
-0.839084429965197
30
0
41
1
10
25.784236435239
20
-0.539056871468432
30
0
41
1
10
25.2650716899201
20
-0.262516885150148
30
0
41
1
10
24.6024433813895
20
0.0890873714652116
30
0
41
1
10
24.4699757111019
20
0.159275974576843
30
0
41
1
10
24.2065943954142
20
0.297361443707103
30
0
41
1
10
24.0753912466568
20
0.365450188825889
30
0
41
1
10
23.6825067958568
20
0.56551011934215
30
0
41
1
10
23.4212504948528
20
0.69272864649156
30
0
41
1
10
23.0275920667607
20
0.869409942160104
30
0
41
1
10
22.8960265840053
20
0.925859038221859
30
0
41
1
10
22.6316584792579
20
1.03292815328953
30
0
41
1
10
22.4986506064794
20
1.08362036410165
30
0
41
1
10
22.102760976044
20
1.22387864509821
30
0
41
1
10
21.8409120131706
20
1.30199662760114
30
0
41
1
10
21.3175605922699
20
1.4242409444951
30
0
41
1
10
21.055829299434
20
1.46817141169785
30
0
41
1
10
20.6602953723334
20
1.50596113743089
30
0
41
1
10
20.5274518375878
20
1.51385175683546
30
0
41
1
10
20.3525930886962
20
1.51778536117431
30
0
41
1
10
20.3101655489625
20
1.5182399263773
30
0
41
1
10
20.2677944528259
20
1.51819679256053
30
0
0
SPLINE
5
BB
100
AcDbEntity
8
1
62
256
6
ByLayer
370
18
48
1
60
0
100
AcDbSpline
70
4
71
3
72
30
73
26
40
0
40
0
40
0
40
0
40
0.0081899071386387
40
0.0081899071386387
40
0.206551925710907
40
0.206551925710907
40
0.256142430353975
40
0.256142430353975
40
0.305732934997042
40
0.305732934997042
40
0.404913944283177
40
0.404913944283177
40
0.504094953569311
40
0.504094953569311
40
0.55368545821238
40
0.55368545821238
40
0.603275962855448
40
0.603275962855448
40
0.702456972141586
40
0.702456972141586
40
0.752047476784655
40
0.752047476784655
40
0.801637981427725
40
0.801637981427725
40
1
40
1
40
1
40
1
41
1
10
12.1741817165281
20
-1.43837155015373
30
0
41
1
10
12.1522778883869
20
-1.44194945011464
30
0
41
1
10
12.1303660039643
20
-1.44540208868568
30
0
41
1
10
11.5776004635032
20
-1.52927337275065
30
0
41
1
10
11.0577766617319
20
-1.53324893819618
30
0
41
1
10
10.3999678867303
20
-1.44440770907565
30
0
41
1
10
10.2680158237414
20
-1.42197305938498
30
0
41
1
10
10.0028646710382
20
-1.3678057409503
30
0
41
1
10
9.87007850126975
20
-1.33618772875064
30
0
41
1
10
9.47433536253453
20
-1.22963203488172
30
0
41
1
10
9.21254636984386
20
-1.14251442775014
30
0
41
1
10
8.68857438695829
20
-0.942058758423116
30
0
41
1
10
8.42639092438714
20
-0.828739002374732
30
0
41
1
10
8.02965791001913
20
-0.643632680721026
30
0
41
1
10
7.89648412021674
20
-0.579208774773122
30
0
41
1
10
7.63198901860878
20
-0.448002561019337
30
0
41
1
10
7.50030665952579
20
-0.381070971915363
30
0
41
1
10
7.10618158510025
20
-0.177787850084371
30
0
41
1
10
6.84465243361865
20
-0.0389630906809657
30
0
41
1
10
6.45098276458293
20
0.168012519351009
30
0
41
1
10
6.31954219614113
20
0.236817353941888
30
0
41
1
10
6.05564961802679
20
0.372932352096257
30
0
41
1
10
5.92283911316915
20
0.440408617765087
30
0
41
1
10
5.25917582228158
20
0.769317844660577
30
0
41
1
10
4.7367195261142
20
1.00230310713164
30
0
41
1
10
4.20487784708632
20
1.176963954408
30
0
0
SPLINE
5
BC
100
AcDbEntity
8
1
62
256
6
ByLayer
370
13
48
1
60
0
100
AcDbSpline
70
4
71
3
72
30
73
26
40
0
40
0
40
0
40
0
40
0.0539007203170802
40
0.0539007203170802
40
0.10780144063416
40
0.10780144063416
40
0.215602881268321
40
0.215602881268321
40
0.323404321902481
40
0.323404321902481
40
0.431205762536641
40
0.431205762536641
40
0.485106482853721
40
0.485106482853721
40
0.539007203170801
40
0.539007203170801
40
0.646808643804962
40
0.646808643804962
40
0.754610084439122
40
0.754610084439122
40
0.862411525073282
40
0.862411525073282
40
0.970212965707442
40
0.970212965707442
40
1
40
1
40
1
40
1
41
1
10
29.4726931776848
20
-1.44777603401911
30
0
41
1
10
29.3406914550075
20
-1.44766547559473
30
0
41
1
10
29.2083511419735
20
-1.44288211926502
30
0
41
1
10
28.9446811522117
20
-1.42420478441704
30
0
41
1
10
28.8134224561076
20
-1.41033964260191
30
0
41
1
10
28.4206866431706
20
-1.35586502130184
30
0
41
1
10
28.1602748950588
20
-1.30231213158484
30
0
41
1
10
27.6382092438972
20
-1.16413186894292
30
0
41
1
10
27.3765739434527
20
-1.07950270449851
30
0
41
1
10
26.8481190676109
20
-0.88327237256712
30
0
41
1
10
26.5846691095487
20
-0.772914516350767
30
0
41
1
10
26.1890142175336
20
-0.594788086461165
30
0
41
1
10
26.0566439971973
20
-0.533127334228851
30
0
41
1
10
25.7928453957007
20
-0.407236958012106
30
0
41
1
10
25.6615230265897
20
-0.34306575593277
30
0
41
1
10
25.2685816709174
20
-0.148305393417616
30
0
41
1
10
25.0078906332405
20
-0.0156656670544635
30
0
41
1
10
24.4850499835472
20
0.247118914659325
30
0
41
1
10
24.222439455729
20
0.377429945379447
30
0
41
1
10
23.6939605673032
20
0.627359756870931
30
0
41
1
10
23.4320882173088
20
0.744432200309092
30
0
41
1
10
22.9095283320314
20
0.957256679108013
30
0
41
1
10
22.6486157574118
20
1.05257792760776
30
0
41
1
10
22.3139356965744
20
1.15681824191032
30
0
41
1
10
22.241269265068
20
1.17832717331476
30
0
41
1
10
22.1684757029524
20
1.19870503209251
30
0
0
SPLINE
5
BD
100
AcDbEntity
8
1
62
256
6
ByLayer
370
18
48
1
60
0
100
AcDbSpline
70
4
71
3
72
8
73
4
40
0
40
0
40
0
40
0
40
1
40
1
40
1
40
1
41
1
10
22.168475253204
20
1.19870515799528
30
0
41
1
10
22.0718745910218
20
1.22574757947282
30
0
41
1
10
21.9750500444573
20
1.25079811344955
30
0
41
1
10
21.8781960186675
20
1.2736870096746
30
0
0
SPLINE
5
BE
100
AcDbEntity
8
1
62
256
6
ByLayer
370
18
48
1
60
0
100
AcDbSpline
70
4
71
3
72
16
73
12
40
0
40
0
40
0
40
0
40
0.0709835799036448
40
0.0709835799036448
40
0.516021287313687
40
0.516021287313687
40
0.738540141018708
40
0.738540141018708
40
0.96105899472373
40
0.96105899472373
40
1
40
1
40
1
40
1
41
1
10
11.4685025456912
20
-1.43650567565359
30
0
41
1
10
11.4266696363221
20
-1.436420717766
30
0
41
1
10
11.384868055799
20
-1.43587529399988
30
0
41
1
10
11.0811595984256
20
-1.42857424988713
30
0
41
1
10
10.8201912567903
20
-1.40428497209629
30
0
41
1
10
10.4271794606015
20
-1.34196416053734
30
0
41
1
10
10.2959247418971
20
-1.31684454155405
30
0
41
1
10
10.0324415744722
20
-1.25828234678545
30
0
41
1
10
9.89978240892157
20
-1.22469521092387
30
0
41
1
10
9.74474454977741
20
-1.18097450660701
30
0
41
1
10
9.72167048909731
20
-1.17435165004534
30
0
41
1
10
9.69861188727236
20
-1.16761963549234
30
0
0
SPLINE
5
BF
100
AcDbEntity
8
1
62
256
6
ByLayer
370
13
48
1
60
0
100
AcDbSpline
70
4
71
3
72
20
73
16
40
0
40
0
40
0
40
0
40
0.132007172648823
40
0.132007172648823
40
0.276672643874019
40
0.276672643874019
40
0.349005379486617
40
0.349005379486617
40
0.421338115099215
40
0.421338115099215
40
0.710669057549608
40
0.710669057549608
40
0.855334528774804
40
0.855334528774804
40
1
40
1
40
1
40
1
41
1
10
9.69861187131059
20
-1.16761963083226
30
0
41
1
10
9.45814499377585
20
-1.0974147439974
30
0
41
1
10
9.21935932601738
20
-1.01533850681855
30
0
41
1
10
8.71925433837737
20
-0.823366978994528
30
0
41
1
10
8.45791153896784
20
-0.71156668406411
30
0
41
1
10
8.06333449291563
20
-0.531434077403645
30
0
41
1
10
7.9310647101826
20
-0.469166844549022
30
0
41
1
10
7.66654102734816
20
-0.342091884730223
30
0
41
1
10
7.53488263619016
20
-0.277562463744914
30
0
41
1
10
6.87840115570697
20
0.0475658280748519
30
0
41
1
10
6.35893498729877
20
0.315435259930695
30
0
41
1
10
5.56472052786262
20
0.680841756673232
30
0
41
1
10
5.30148675593887
20
0.794812386669236
30
0
41
1
10
4.77652636338451
20
0.999558145591436
30
0
41
1
10
4.51433090516323
20
1.09041059550924
30
0
41
1
10
4.25050972458183
20
1.16657276139165
30
0
0
SPLINE
5
C0
100
AcDbEntity
8
1
62
256
6
ByLayer
370
18
48
1
60
0
100
AcDbSpline
70
4
71
3
72
52
73
48
40
0
40
0
40
0
40
0
40
0.041486872538218
40
0.041486872538218
40
0.109493100462906
40
0.109493100462906
40
0.177499328387595
40
0.177499328387595
40
0.245505556312283
40
0.245505556312283
40
0.279508670274627
40
0.279508670274627
40
0.313511784236971
40
0.313511784236971
40
0.381518012161659
40
0.381518012161659
40
0.449524240086348
40
0.449524240086348
40
0.517530468011036
40
0.517530468011036
40
0.585536695935724
40
0.585536695935724
40
0.619539809898068
40
0.619539809898068
40
0.653542923860411
40
0.653542923860411
40
0.687546037822755
40
0.687546037822755
40
0.721549151785098
40
0.721549151785098
40
0.755552265747442
40
0.755552265747442
40
0.789555379709785
40
0.789555379709785
40
0.823558493672129
40
0.823558493672129
40
0.857561607634472
40
0.857561607634472
40
0.891564721596815
40
0.891564721596815
40
0.925567835559159
40
0.925567835559159
40
0.959570949521502
40
0.959570949521502
40
0.993574063483845
40
0.993574063483845
40
1
40
1
40
1
40
1
41
1
10
8.6944765039963
20
1.11792808058823
30
0
41
1
10
8.84766050227032
20
1.1722461993237
30
0
41
1
10
9.00110824095873
20
1.22174898370662
30
0
41
1
10
9.4069189193045
20
1.33939086987772
30
0
41
1
10
9.66259304171825
20
1.397479689042
30
0
41
1
10
10.1662150281704
20
1.47982675014325
30
0
41
1
10
10.4172404816551
20
1.50366405823206
30
0
41
1
10
10.918150737049
20
1.51706085486299
30
0
41
1
10
11.1696658521499
20
1.50646602790147
30
0
41
1
10
11.548905818301
20
1.46391176966469
30
0
41
1
10
11.6762756800308
20
1.44525850119223
30
0
41
1
10
11.9296035434944
20
1.4001198772354
30
0
41
1
10
12.0556603256349
20
1.37346596716691
30
0
41
1
10
12.432373459291
20
1.28149740553209
30
0
41
1
10
12.6831465907769
20
1.20579000465537
30
0
41
1
10
13.1843804615731
20
1.02620171828693
30
0
41
1
10
13.436462244076
20
0.924451790498324
30
0
41
1
10
13.9441784896754
20
0.696857900691725
30
0
41
1
10
14.1966211474774
20
0.575861444941211
30
0
41
1
10
14.6979394091729
20
0.321533054387544
30
0
41
1
10
14.9486485471179
20
0.191082316207542
30
0
41
1
10
15.3251522816391
20
-0.0088504515915133
30
0
41
1
10
15.450983835993
20
-0.0757167690156848
30
0
41
1
10
15.7040645767443
20
-0.208386455810313
30
0
41
1
10
15.8313952449855
20
-0.274804652347427
30
0
41
1
10
16.0848299923664
20
-0.406134388713838
30
0
41
1
10
16.2113720814447
20
-0.47057253695516
30
0
41
1
10
16.4649065160148
20
-0.595620599684622
30
0
41
1
10
16.5916578005462
20
-0.656669235084905
30
0
41
1
10
16.8452110227083
20
-0.775583398900125
30
0
41
1
10
16.9722031972129
20
-0.832877522935917
30
0
41
1
10
17.2249824604591
20
-0.94097356074144
30
0
41
1
10
17.3508666853761
20
-0.992321073026346
30
0
41
1
10
17.6016946677629
20
-1.08946571375381
30
0
41
1
10
17.7269144345663
20
-1.13484837381336
30
0
41
1
10
17.9777548097269
20
-1.21838517442941
30
0
41
1
10
18.1031519753027
20
-1.25683677976542
30
0
41
1
10
18.3539180228495
20
-1.32689909652649
30
0
41
1
10
18.4795603814344
20
-1.35820301860576
30
0
41
1
10
18.7321910689926
20
-1.41263264643908
30
0
41
1
10
18.8593521714691
20
-1.43602590317269
30
0
41
1
10
19.1126206608089
20
-1.47437576994099
30
0
41
1
10
19.2386775389966
20
-1.48912057795312
30
0
41
1
10
19.4905126798168
20
-1.50977454414314
30
0
41
1
10
19.6160739396871
20
-1.51578712009166
30
0
41
1
10
19.7649174372735
20
-1.517755163733
30
0
41
1
10
19.7885712758453
20
-1.51791054186646
30
0
41
1
10
19.8122242240091
20
-1.51790936313628
30
0
0
SPLINE
5
C1
100
AcDbEntity
8
1
62
256
6
ByLayer
370
18
48
1
60
0
100
AcDbSpline
70
4
71
3
72
22
73
18
40
0
40
0
40
0
40
0
40
0.0773710456815581
40
0.0773710456815581
40
0.209175182012764
40
0.209175182012764
40
0.340979318343971
40
0.340979318343971
40
0.472783454675176
40
0.472783454675176
40
0.604587591006382
40
0.604587591006382
40
0.736391727337588
40
0.736391727337588
40
0.868195863668794
40
0.868195863668794
40
1
40
1
40
1
40
1
41
1
10
26.6874731027928
20
1.12367344825009
30
0
41
1
10
26.7611089044825
20
1.15021005656814
30
0
41
1
10
26.8348702934323
20
1.17563722655251
30
0
41
1
10
27.0349538089116
20
1.24095612229121
30
0
41
1
10
27.161811213124
20
1.27875730879356
30
0
41
1
10
27.4152558671157
20
1.34733665741197
30
0
41
1
10
27.5412509281946
20
1.37763669508416
30
0
41
1
10
27.7930230172104
20
1.42951922893891
30
0
41
1
10
27.9186369412759
20
1.45129377267878
30
0
41
1
10
28.1689473139164
20
1.48671036663671
30
0
41
1
10
28.2938440417028
20
1.50018307721407
30
0
41
1
10
28.544373997349
20
1.51832413490086
30
0
41
1
10
28.6698498381758
20
1.52310244153196
30
0
41
1
10
28.9208169728152
20
1.52391363032305
30
0
41
1
10
29.0464979592906
20
1.51987166786353
30
0
41
1
10
29.299541899593
20
1.50299348292921
30
0
41
1
10
29.4268769727158
20
1.490155295432
30
0
41
1
10
29.553495420409
20
1.47287397180631
30
0
0
SPLINE
5
C2
100
AcDbEntity
8
1
62
256
6
ByLayer
370
18
48
1
60
0
100
AcDbSpline
70
4
71
3
72
8
73
4
40
0
40
0
40
0
40
0
40
1
40
1
40
1
40
1
41
1
10
29.9717907130296
20
0.420388679040855
30
0
41
1
10
29.9799400048902
20
0.311926839373399
30
0
41
1
10
29.9859811022405
20
0.203624299666444
30
0
41
1
10
29.9899166071344
20
0.0954808633028676
30
0
0
SPLINE
5
C3
100
AcDbEntity
8
1
62
256
6
ByLayer
370
18
48
1
60
0
100
AcDbSpline
70
4
71
3
72
14
73
10
40
0
40
0
40
0
40
0
40
0.25
40
0.25
40
0.5
40
0.5
40
0.75
40
0.75
40
1
40
1
40
1
40
1
41
1
10
29.4726929349488
20
-1.44777603381581
30
0
41
1
10
29.4753957697724
20
-1.44778940138491
30
0
41
1
10
29.4776414507501
20
-1.44898632594888
30
0
41
1
10
29.4809879425982
20
-1.45430699391156
30
0
41
1
10
29.4820829720088
20
-1.45851832322285
30
0
41
1
10
29.4824216333004
20
-1.47056129621103
30
0
41
1
10
29.4816559416641
20
-1.47847410684557
30
0
41
1
10
29.4777516161611
20
-1.49783539384777
30
0
41
1
10
29.4746688527614
20
-1.50891617142591
30
0
41
1
10
29.470857380163
20
-1.52020524495035
30
0
0
SPLINE
5
C4
100
AcDbEntity
8
1
62
256
6
ByLayer
370
18
48
1
60
0
100
AcDbSpline
70
4
71
3
72
8
73
4
40
0
40
0
40
0
40
0
40
1
40
1
40
1
40
1
41
1
10
29.9999361356206
20
0.0321490296865079
30
0
41
1
10
29.9949062110458
20
0.0145605501939485
30
0
41
1
10
29.9871859139673
20
-0.0039446171404052
30
0
41
1
10
29.9790723837347
20
-0.0172673600476685
30
0
0
SPLINE
5
C5
100
AcDbEntity
8
1
62
256
6
ByLayer
370
18
48
1
60
0
100
AcDbSpline
70
4
71
3
72
10
73
6
40
0
40
0
40
0
40
0
40
0.5
40
0.5
40
1
40
1
40
1
40
1
41
1
10
29.5534954204077
20
1.47287397180745
30
0
41
1
10
29.5381641764329
20
1.48517791175087
30
0
41
1
10
29.5235849068673
20
1.49532759447851
30
0
41
1
10
29.4960591100522
20
1.51113051165274
30
0
41
1
10
29.4830791888402
20
1.51681116304604
30
0
41
1
10
29.470857380163
20
1.52020524495035
30
0
0
SPLINE
5
C6
100
AcDbEntity
8
1
62
256
6
ByLayer
370
18
48
1
60
0
100
AcDbSpline
70
4
71
3
72
8
73
4
40
0
40
0
40
0
40
0
40
1
40
1
40
1
40
1
41
1
10
29.9899166071345
20
-0.0954808633027824
30
0
41
1
10
29.9905604864778
20
-0.0777877523384802
30
0
41
1
10
29.9944136683117
20
-0.0554765219128512
30
0
41
1
10
29.9999361356253
20
-0.0321490296668401
30
0
0
SPLINE
5
C7
100
AcDbEntity
8
1
62
256
6
ByLayer
370
18
48
1
60
0
100
AcDbSpline
70
4
71
3
72
8
73
4
40
0
40
0
40
0
40
0
40
1
40
1
40
1
40
1
41
1
10
29.470857380163
20
1.52020524495035
30
0
41
1
10
29.4034002866559
20
1.52268719316274
30
0
41
1
10
29.3358673772506
20
1.52387811153267
30
0
41
1
10
29.2683233924769
20
1.52379629966063
30
0
0
SPLINE
5
C8
100
AcDbEntity
8
1
62
256
6
ByLayer
370
18
48
1
60
0
100
AcDbSpline
70
4
71
3
72
36
73
32
40
0
40
0
40
0
40
0
40
0.0264822311336562
40
0.0264822311336562
40
0.107218409198135
40
0.107218409198135
40
0.187954587262613
40
0.187954587262613
40
0.228322676294853
40
0.228322676294853
40
0.268690765327092
40
0.268690765327092
40
0.430163121456054
40
0.430163121456054
40
0.470531210488294
40
0.470531210488294
40
0.510899299520534
40
0.510899299520534
40
0.591635477585015
40
0.591635477585015
40
0.672371655649495
40
0.672371655649495
40
0.753107833713975
40
0.753107833713975
40
0.833844011778455
40
0.833844011778455
40
0.874212100810695
40
0.874212100810695
40
0.914580189842935
40
0.914580189842935
40
1
40
1
40
1
40
1
41
1
10
21.0513421371828
20
-1.46254005782794
30
0
41
1
10
20.9648448530404
20
-1.47483626209203
30
0
41
1
10
20.8781317118714
20
-1.48516467046647
30
0
41
1
10
20.5259054776754
20
-1.51875220888638
30
0
41
1
10
20.2624630134503
20
-1.52453245315962
30
0
41
1
10
19.7383524837098
20
-1.49810148646671
30
0
41
1
10
19.4769633140394
20
-1.46597898269016
30
0
41
1
10
19.0830255086476
20
-1.39053970298244
30
0
41
1
10
18.9513706056748
20
-1.36086536432339
30
0
41
1
10
18.6867910131124
20
-1.29277198522101
30
0
41
1
10
18.5537278745241
20
-1.25428104116426
30
0
41
1
10
17.8936123858963
20
-1.04379387200078
30
0
41
1
10
17.3741870521435
20
-0.816391305573148
30
0
41
1
10
16.7143309645112
20
-0.491440516708394
30
0
41
1
10
16.5813617869085
20
-0.424158174390357
30
0
41
1
10
16.316590625914
20
-0.28794021212002
30
0
41
1
10
16.1848172045952
20
-0.219049582708976
30
0
41
1
10
15.7906044292459
20
-0.0114400471336751
30
0
41
1
10
15.5291180492619
20
0.127914819419033
30
0
41
1
10
15.0048900202332
20
0.401005180006933
30
0
41
1
10
14.7418641946075
20
0.534521372305079
30
0
41
1
10
14.2106297010845
20
0.787079331651171
30
0
41
1
10
13.9479136213326
20
0.903535338168183
30
0
41
1
10
13.4235464121899
20
1.11017474015475
30
0
41
1
10
13.1621159848606
20
1.20067776162333
30
0
41
1
10
12.76761711939
20
1.31265577581715
30
0
41
1
10
12.6357514470982
20
1.34605829721028
30
0
41
1
10
12.3708161420716
20
1.40437565661469
30
0
41
1
10
12.2378642784277
20
1.42915085594285
30
0
41
1
10
11.8265758154765
20
1.49136850811641
30
0
41
1
10
11.5496131857261
20
1.51253122699509
30
0
41
1
10
11.2724080120469
20
1.51249612354115
30
0
0
SPLINE
5
C9
100
AcDbEntity
8
1
62
256
6
ByLayer
370
18
48
1
60
0
100
AcDbSpline
70
4
71
3
72
14
73
10
40
0
40
0
40
0
40
0
40
0.25
40
0.25
40
0.5
40
0.5
40
0.75
40
0.75
40
1
40
1
40
1
40
1
41
1
10
29.3656192438904
20
-1.13064127357751
30
0
41
1
10
29.3651641953991
20
-1.18187817939108
30
0
41
1
10
29.3669784272555
20
-1.22718061446372
30
0
41
1
10
29.3752588315232
20
-1.30613483832187
30
0
41
1
10
29.3818342074952
20
-1.34000150657405
30
0
41
1
10
29.3996304826798
20
-1.39368573851107
30
0
41
1
10
29.4108131324919
20
-1.41376865315604
30
0
41
1
10
29.4380443747875
20
-1.44079837718437
30
0
41
1
10
29.4542066299547
20
-1.44768461433779
30
0
41
1
10
29.4726929734161
20
-1.44777603400604
30
0
0
SPLINE
5
CA
100
AcDbEntity
8
1
62
256
6
ByLayer
370
18
48
1
60
0
100
AcDbSpline
70
4
71
3
72
8
73
4
40
0
40
0
40
0
40
0
40
1
40
1
40
1
40
1
41
1
10
29.9899166071344
20
0.0954808633028676
30
0
41
1
10
29.9905604864776
20
0.0777877523435109
30
0
41
1
10
29.9944136683097
20
0.055476521925101
30
0
41
1
10
29.9999361356206
20
0.0321490296865079
30
0
0
SPLINE
5
CB
100
AcDbEntity
8
1
62
256
6
ByLayer
370
18
48
1
60
0
100
AcDbSpline
70
4
71
3
72
28
73
24
40
0
40
0
40
0
40
0
40
0.250000000000057
40
0.250000000000057
40
0.375000000000085
40
0.375000000000085
40
0.500000000000113
40
0.500000000000113
40
0.625000000000141
40
0.625000000000141
40
0.75000000000017
40
0.75000000000017
40
0.812500000000184
40
0.812500000000184
40
0.843750000000183
40
0.843750000000183
40
0.859375000000174
40
0.859375000000174
40
0.867187500000163
40
0.867187500000163
40
0.875000000000151
40
0.875000000000151
40
1
40
1
40
1
40
1
41
1
10
28.0681501376833
20
0.57456034463786
30
0
41
1
10
28.180608284388
20
0.477848079135953
30
0
41
1
10
28.2983000239627
20
0.393475420469628
30
0
41
1
10
28.4830654528802
20
0.286315736341152
30
0
41
1
10
28.5463284759195
20
0.253821690541372
30
0
41
1
10
28.6727943915313
20
0.197645316657912
30
0
41
1
10
28.7363135026665
20
0.173679419283531
30
0
41
1
10
28.8639704934836
20
0.134661527898601
30
0
41
1
10
28.928111387408
20
0.119652956693301
30
0
41
1
10
29.0571256157027
20
0.100187261006425
30
0
41
1
10
29.121306021286
20
0.0958052484727432
30
0
41
1
10
29.2157950609936
20
0.0984650954272865
30
0
41
1
10
29.2470917074404
20
0.10090905790355
30
0
41
1
10
29.2934849910461
20
0.107163830333633
30
0
41
1
10
29.3087566702286
20
0.109974083595745
30
0
41
1
10
29.3317460306386
20
0.113902127465337
30
0
41
1
10
29.3397690835554
20
0.114686077292419
30
0
41
1
10
29.3493618616587
20
0.121183450425406
30
0
41
1
10
29.3520994888969
20
0.124372516413132
30
0
41
1
10
29.3549375098772
20
0.132589347803332
30
0
41
1
10
29.3553795439933
20
0.13731762718848
30
0
41
1
10
29.3686700303809
20
0.214017440170522
30
0
41
1
10
29.3740605570445
20
0.289477607693499
30
0
41
1
10
29.3743829389553
20
0.36551554257764
30
0
0
SPLINE
5
CC
100
AcDbEntity
8
1
62
256
6
ByLayer
370
18
48
1
60
0
100
AcDbSpline
70
4
71
3
72
12
73
8
40
0
40
0
40
0
40
0
40
0.254266579666932
40
0.254266579666932
40
0.693395176811612
40
0.693395176811612
40
1
40
1
40
1
40
1
41
1
10
20.4711635974057
20
-1.4423101068808
30
0
41
1
10
20.3192550297516
20
-1.44208160894942
30
0
41
1
10
20.1678167210967
20
-1.43577000095479
30
0
41
1
10
19.7552042527224
20
-1.40232078895025
30
0
41
1
10
19.4940566817049
20
-1.3634147291547
30
0
41
1
10
19.0479479337791
20
-1.26859318772617
30
0
41
1
10
18.8632058831854
20
-1.22120494669252
30
0
41
1
10
18.6789880856473
20
-1.16675700952999
30
0
0
SPLINE
5
CD
100
AcDbEntity
8
1
62
256
6
ByLayer
370
13
48
1
60
0
100
AcDbSpline
70
4
71
3
72
24
73
20
40
0
40
0
40
0
40
0
40
0.0438975684610553
40
0.0438975684610553
40
0.189356413063233
40
0.189356413063233
40
0.262085835364323
40
0.262085835364323
40
0.334815257665412
40
0.334815257665412
40
0.48027410226759
40
0.48027410226759
40
0.625732946869768
40
0.625732946869768
40
0.771191791471946
40
0.771191791471946
40
0.916650636074124
40
0.916650636074124
40
1
40
1
40
1
40
1
41
1
10
18.6789871267015
20
-1.1667567261012
30
0
41
1
10
18.5993630057927
20
-1.14322278321745
30
0
41
1
10
18.5198368270646
20
-1.11836993992452
30
0
41
1
10
18.1778600965206
20
-1.00594342106004
30
0
41
1
10
17.9163325852725
20
-0.906302604952174
30
0
41
1
10
17.5229399978305
20
-0.74126103177349
30
0
41
1
10
17.3916275854805
20
-0.683675438868192
30
0
41
1
10
17.1280893144977
20
-0.564204881978583
30
0
41
1
10
16.9955959089397
20
-0.502167026644344
30
0
41
1
10
16.5992432180483
20
-0.312276769816549
30
0
41
1
10
16.3357664057546
20
-0.180616787720624
30
0
41
1
10
15.8065088179652
20
0.0853637024178227
30
0
41
1
10
15.5439686550515
20
0.21754164826504
30
0
41
1
10
15.020538669002
20
0.472912319822626
30
0
41
1
10
14.7592846194134
20
0.595761487954746
30
0
41
1
10
14.2341128221307
20
0.824953055252934
30
0
41
1
10
13.9686406460344
20
0.93165101561388
30
0
41
1
10
13.5551606193039
20
1.07711546088669
30
0
41
1
10
13.4050941912801
20
1.12563647998866
30
0
41
1
10
13.2552120699771
20
1.16930600853658
30
0
0
SPLINE
5
CE
100
AcDbEntity
8
1
62
256
6
ByLayer
370
18
48
1
60
0
100
AcDbSpline
70
4
71
3
72
8
73
4
40
0
40
0
40
0
40
0
40
1
40
1
40
1
40
1
41
1
10
13.2552120699596
20
1.16930600854167
30
0
41
1
10
13.1346233356959
20
1.20444064052884
30
0
41
1
10
13.0141539054262
20
1.23643484335565
30
0
41
1
10
12.89361099964
20
1.26508900099847
30
0
0
SPLINE
5
CF
100
AcDbEntity
8
1
62
256
6
ByLayer
370
18
48
1
60
0
100
AcDbSpline
70
4
71
3
72
10
73
6
40
0
40
0
40
0
40
0
40
0.5
40
0.5
40
1
40
1
40
1
40
1
41
1
10
4.25147132970693
20
-0.923070600049215
30
0
41
1
10
4.21901308202337
20
-0.909671621695026
30
0
41
1
10
4.18707072273332
20
-0.900667677410752
30
0
41
1
10
4.12505012006852
20
-0.892095261841519
30
0
41
1
10
4.09668966855475
20
-0.892775386555343
30
0
41
1
10
4.07201653987093
20
-0.898798664978415
30
0
0
SPLINE
5
D0
100
AcDbEntity
8
1
62
256
6
ByLayer
370
18
48
1
60
0
100
AcDbSpline
70
4
71
3
72
18
73
14
40
0
40
0
40
0
40
0
40
0.0883720767097955
40
0.0883720767097955
40
0.189664068186485
40
0.189664068186485
40
0.392248051139864
40
0.392248051139864
40
0.594832034093243
40
0.594832034093243
40
0.797416017046621
40
0.797416017046621
40
1
40
1
40
1
40
1
41
1
10
4.07148946444545
20
-1.50807267506076
30
0
41
1
10
4.07151392243242
20
-1.50807546226179
30
0
41
1
10
4.07153765963537
20
-1.50635018767772
30
0
41
1
10
4.07158650506335
20
-1.49897653917469
30
0
41
1
10
4.07161138777511
20
-1.49281743927742
30
0
41
1
10
4.07168312627505
20
-1.46782971477714
30
0
41
1
10
4.07172714672299
20
-1.44254920301896
30
0
41
1
10
4.0718093822384
20
-1.37414929172527
30
0
41
1
10
4.07184663771159
20
-1.33173390441368
30
0
41
1
10
4.07191273289862
20
-1.23218528699004
30
0
41
1
10
4.07194192436236
20
-1.1744371160471
30
0
41
1
10
4.07198902067302
20
-1.04514783397266
30
0
41
1
10
4.07200659803533
20
-0.974764720668475
30
0
41
1
10
4.07201653987093
20
-0.898798664978415
30
0
0
SPLINE
5
D1
100
AcDbEntity
8
1
62
256
6
ByLayer
370
18
48
1
60
0
100
AcDbSpline
70
4
71
3
72
52
73
48
40
0
40
0
40
0
40
0
40
0.125000000000002
40
0.125000000000002
40
0.187500000000001
40
0.187500000000001
40
0.25
40
0.25
40
0.3125
40
0.3125
40
0.343749999999998
40
0.343749999999998
40
0.374999999999997
40
0.374999999999997
40
0.390624999999997
40
0.390624999999997
40
0.406249999999997
40
0.406249999999997
40
0.421874999999997
40
0.421874999999997
40
0.437499999999997
40
0.437499999999997
40
0.468749999999999
40
0.468749999999999
40
0.5
40
0.5
40
0.531250000000001
40
0.531250000000001
40
0.5390625
40
0.5390625
40
0.542968749999999
40
0.542968749999999
40
0.546874999999997
40
0.546874999999997
40
0.550781249999996
40
0.550781249999996
40
0.554687499999994
40
0.554687499999994
40
0.562499999999994
40
0.562499999999994
40
0.624999999999996
40
0.624999999999996
40
0.749999999999997
40
0.749999999999997
40
0.874999999999999
40
0.874999999999999
40
1
40
1
40
1
40
1
41
1
10
4.07201653987067
20
-0.898798664978301
30
0
41
1
10
3.83689603752043
20
-0.795169078106909
30
0
41
1
10
3.60389687439186
20
-0.680536043199879
30
0
41
1
10
3.25704438973139
20
-0.490959913400616
30
0
41
1
10
3.14189234996388
20
-0.424781504221727
30
0
41
1
10
2.91293787742217
20
-0.284902503095168
30
0
41
1
10
2.79855069114706
20
-0.210852263555381
30
0
41
1
10
2.5766278458396
20
-0.0545023284031458
30
0
41
1
10
2.46867481716629
20
0.0277205152460169
30
0
41
1
10
2.3156385071502
20
0.162944209098242
30
0
41
1
10
2.26608674536985
20
0.210133715108867
30
0
41
1
10
2.17372728239272
20
0.309208630521766
30
0
41
1
10
2.13042326849757
20
0.3615579432375
30
0
41
1
10
2.07578040399704
20
0.444222869986618
30
0
41
1
10
2.05924422922664
20
0.47253321613104
30
0
41
1
10
2.03093726372242
20
0.531356708362466
30
0
41
1
10
2.01933790390544
20
0.561676975484801
30
0
41
1
10
2.00362140101902
20
0.622722411250948
30
0
41
1
10
1.99946680487926
20
0.654137931152889
30
0
41
1
10
2.00063008019444
20
0.714734218752284
30
0
41
1
10
2.00584753353448
20
0.744362072072221
30
0
41
1
10
2.0354814403542
20
0.829380102968003
30
0
41
1
10
2.07293522117678
20
0.877937772770423
30
0
41
1
10
2.1631310503119
20
0.958678341675835
30
0
41
1
10
2.21663945766173
20
0.992083865071379
30
0
41
1
10
2.32852353800564
20
1.04874126779049
30
0
41
1
10
2.38753303187957
20
1.07238113258296
30
0
41
1
10
2.46373963789765
20
1.09842249414754
30
0
41
1
10
2.4791074969549
20
1.10344810611139
30
0
41
1
10
2.50233330585155
20
1.1107392849843
30
0
41
1
10
2.51010553952764
20
1.11312876249346
30
0
41
1
10
2.52568188148334
20
1.11782206710362
30
0
41
1
10
2.53327138633219
20
1.1205041941945
30
0
41
1
10
2.54938080495111
20
1.12423731739975
30
0
41
1
10
2.55813448942942
20
1.12516908605085
30
0
41
1
10
2.57529376977746
20
1.12558032569035
30
0
41
1
10
2.58376393982564
20
1.12501137063438
30
0
41
1
10
2.60916163258372
20
1.12321144390967
30
0
41
1
10
2.62610491457147
20
1.12209065840528
30
0
41
1
10
2.77847599283947
20
1.11114067918365
30
0
41
1
10
2.913514667469
20
1.09875708959501
30
0
41
1
10
3.31651822536449
20
1.05319068409534
30
0
41
1
10
3.58332382192322
20
1.01139533005164
30
0
41
1
10
4.10755737905171
20
0.902900026092169
30
0
41
1
10
4.3654330144432
20
0.836126106372546
30
0
41
1
10
4.87481959137421
20
0.677401907550376
30
0
41
1
10
5.12634963046796
20
0.585457042962304
30
0
41
1
10
5.37631604028471
20
0.482773320472091
30
0
0
SPLINE
5
D2
100
AcDbEntity
8
1
62
256
6
ByLayer
370
18
48
1
60
0
100
AcDbSpline
70
4
71
3
72
14
73
10
40
0
40
0
40
0
40
0
40
0.326265481821569
40
0.326265481821569
40
0.652530963643138
40
0.652530963643138
40
0.978796445464707
40
0.978796445464707
40
1
40
1
40
1
40
1
41
1
10
4.07080962466409
20
1.26281631943709
30
0
41
1
10
4.07090583225468
20
1.31482126850074
30
0
41
1
10
4.07099285265474
20
1.35878963047287
30
0
41
1
10
4.07115352382579
20
1.43084477864872
30
0
41
1
10
4.07122763299475
20
1.45896302892277
30
0
41
1
10
4.07136157185309
20
1.49672376760753
30
0
41
1
10
4.07142215385815
20
1.50679502760488
30
0
41
1
10
4.07148236615336
20
1.50803633810085
30
0
41
1
10
4.07148602531723
20
1.5080736747845
30
0
41
1
10
4.07148966846742
20
1.50807265822448
30
0
0
SPLINE
5
D3
100
AcDbEntity
8
1
62
256
6
ByLayer
370
18
48
1
60
0
100
AcDbSpline
70
4
71
3
72
10
73
6
40
0
40
0
40
0
40
0
40
0.5
40
0.5
40
1
40
1
40
1
40
1
41
1
10
29.5534954204056
20
1.47287397181569
30
0
41
1
10
29.6192007406293
20
1.29557004769492
30
0
41
1
10
29.6872924545627
20
1.11931093867955
30
0
41
1
10
29.8271319924181
20
0.768336860770773
30
0
41
1
10
29.8988429100216
20
0.593733621503475
30
0
41
1
10
29.9717907130295
20
0.420388679040855
30
0
0
SPLINE
5
D4
100
AcDbEntity
8
1
62
256
6
ByLayer
370
18
48
1
60
0
100
AcDbSpline
70
4
71
3
72
8
73
4
40
0
40
0
40
0
40
0
40
1
40
1
40
1
40
1
41
1
10
29.4649526656444
20
0.427795612687078
30
0
41
1
10
29.6341416282075
20
0.424032655035575
30
0
41
1
10
29.8030820774077
20
0.42159332587525
30
0
41
1
10
29.9717907130295
20
0.420388679040855
30
0
0
SPLINE
5
D5
100
AcDbEntity
8
1
62
256
6
ByLayer
370
18
48
1
60
0
100
AcDbSpline
70
4
71
3
72
34
73
30
40
0
40
0
40
0
40
0
40
0.109234347921703
40
0.109234347921703
40
0.196513910759135
40
0.196513910759135
40
0.283793473596567
40
0.283793473596567
40
0.458352599271431
40
0.458352599271431
40
0.545632162108863
40
0.545632162108863
40
0.567452052818221
40
0.5783619981729
40
0.5783619981729
40
0.583816970850239
40
0.583816970850239
40
0.589271943527579
40
0.589271943527579
40
0.600181888882258
40
0.600181888882258
40
0.611091834236937
40
0.632911724946295
40
0.632911724946295
40
0.807470850621159
40
0.807470850621159
40
0.982029976296023
40
0.982029976296023
40
1
40
1
40
1
40
1
41
1
10
5.37631604028471
20
0.482773320472091
30
0
41
1
10
5.37631604028471
20
0.45441515331305
30
0
41
1
10
5.37631604028473
20
0.420600797804667
30
0
41
1
10
5.37631604028473
20
0.350346149286025
30
0
41
1
10
5.37631604028471
20
0.315841103921599
30
0
41
1
10
5.37631604028471
20
0.241880616228855
30
0
41
1
10
5.37631604028471
20
0.202260209264978
30
0
41
1
10
5.37631604028471
20
0.0758885023038829
30
0
41
1
10
5.37631604028471
20
-0.0183805597825426
30
0
41
1
10
5.37631604028471
20
-0.174222652578976
30
0
41
1
10
5.37631604028473
20
-0.228120101051758
30
0
41
1
10
5.37631604028473
20
-0.297870724274077
30
0
41
1
10
5.37631604028468
20
-0.318978398633448
30
0
41
1
10
5.37631604028471
20
-0.340327235764903
30
0
41
1
10
5.37631604028471
20
-0.351043122060872
30
0
41
1
10
5.37631604028471
20
-0.354538879930203
30
0
41
1
10
5.37631604028471
20
-0.362171336892516
30
0
41
1
10
5.37631604028471
20
-0.366315028356411
30
0
41
1
10
5.37631604028471
20
-0.379135556297371
30
0
41
1
10
5.37631604028468
20
-0.387694306968683
30
0
41
1
10
5.37631604028468
20
-0.404792753076919
30
0
41
1
10
5.37631604028468
20
-0.43042163849438
30
0
41
1
10
5.37631604028479
20
-0.455993958541285
30
0
41
1
10
5.37631604028479
20
-0.609199451378771
30
0
41
1
10
5.37631604028473
20
-0.743232424089598
30
0
41
1
10
5.37631604028473
20
-1.00217754745418
30
0
41
1
10
5.37631604028471
20
-1.12514869469217
30
0
41
1
10
5.37631604028471
20
-1.25226881868627
30
0
41
1
10
5.37631604028471
20
-1.26406146088726
30
0
41
1
10
5.37631604028471
20
-1.27577417054923
30
0
0
SPLINE
5
D6
100
AcDbEntity
8
1
62
256
6
ByLayer
370
18
48
1
60
0
100
AcDbSpline
70
4
71
3
72
8
73
4
40
0
40
0
40
0
40
0
40
1
40
1
40
1
40
1
41
1
10
29.9717907130296
20
-0.420388679040855
30
0
41
1
10
29.9799358831623
20
-0.311981696923624
30
0
41
1
10
29.985979110556
20
-0.20367902901333
30
0
41
1
10
29.9899166071344
20
-0.0954808633028676
30
0
0
SPLINE
5
D7
100
AcDbEntity
8
1
62
256
6
ByLayer
370
18
48
1
60
0
100
AcDbSpline
70
4
71
3
72
8
73
4
40
0
40
0
40
0
40
0
40
1
40
1
40
1
40
1
41
1
10
29.9790723837347
20
-0.0172673600476685
30
0
41
1
10
29.7607326751644
20
-0.375789941500898
30
0
41
1
10
29.5560887849056
20
-0.746769497405921
30
0
41
1
10
29.3656192438904
20
-1.13064127357751
30
0
0
SPLINE
5
D8
100
AcDbEntity
8
1
62
256
6
ByLayer
370
18
48
1
60
0
100
AcDbSpline
70
4
71
3
72
10
73
6
40
0
40
0
40
0
40
0
40
0.5
40
0.5
40
1
40
1
40
1
40
1
41
1
10
4.12016122877372
20
1.20963364393722
30
0
41
1
10
4.10618715260753
20
1.21659438691961
30
0
41
1
10
4.09428286766939
20
1.2246271080113
30
0
41
1
10
4.07644450119722
20
1.24284664258081
30
0
41
1
10
4.07079111874774
20
1.25281295917907
30
0
41
1
10
4.07080962466304
20
1.26281631943695
30
0
0
SPLINE
5
D9
100
AcDbEntity
8
1
62
256
6
ByLayer
370
18
48
1
60
0
100
AcDbSpline
70
4
71
3
72
26
73
22
40
0
40
0
40
0
40
0
40
0.0696094294270853
40
0.0696094294270853
40
0.139218858854171
40
0.139218858854171
40
0.278437717708338
40
0.278437717708338
40
0.348047147135422
40
0.348047147135422
40
0.417656576562506
40
0.417656576562506
40
0.556875435416673
40
0.556875435416673
40
0.696094294270841
40
0.696094294270841
40
0.835313153125008
40
0.835313153125008
40
0.974532011979176
40
0.974532011979176
40
1
40
1
40
1
40
1
41
1
10
5.37631604028471
20
0.482773320472091
30
0
41
1
10
5.50302242471628
20
0.418333437704206
30
0
41
1
10
5.6296715292109
20
0.353948100979409
30
0
41
1
10
5.8823255055751
20
0.224221346262908
30
0
41
1
10
6.00811680922476
20
0.158464267455344
30
0
41
1
10
6.38443812795214
20
-0.0404007505165112
30
0
41
1
10
6.63544561146949
20
-0.172135462130456
30
0
41
1
10
7.01246331401521
20
-0.367855251674882
30
0
41
1
10
7.13856791743115
20
-0.432109160980474
30
0
41
1
10
7.39208644436218
20
-0.557790094514132
30
0
41
1
10
7.51954053632372
20
-0.619824042602346
30
0
41
1
10
7.89884373081026
20
-0.799406659917537
30
0
41
1
10
8.15044718223189
20
-0.90883563634867
30
0
41
1
10
8.6516140885573
20
-1.10694583210002
30
0
41
1
10
8.9028204259898
20
-1.19325598301052
30
0
41
1
10
9.40691891930453
20
-1.33939086987772
30
0
41
1
10
9.66259304171825
20
-1.397479689042
30
0
41
1
10
10.1662150281705
20
-1.47982675014325
30
0
41
1
10
10.4172404816551
20
-1.50366405823203
30
0
41
1
10
10.7135125930886
20
-1.51158782737343
30
0
41
1
10
10.7593650494919
20
-1.51223447734358
30
0
41
1
10
10.8052545184867
20
-1.5122994590258
30
0
0
SPLINE
5
DA
100
AcDbEntity
8
1
62
256
6
ByLayer
370
18
48
1
60
0
100
AcDbSpline
70
4
71
3
72
68
73
64
40
0
40
0
40
0
40
0
40
0.0156689745750496
40
0.0156689745750496
40
0.0495821886092434
40
0.0495821886092434
40
0.083495402643437
40
0.083495402643437
40
0.117408616677631
40
0.117408616677631
40
0.151321830711825
40
0.151321830711825
40
0.185235044746018
40
0.185235044746018
40
0.219148258780212
40
0.219148258780212
40
0.253061472814405
40
0.253061472814405
40
0.286974686848599
40
0.286974686848599
40
0.320887900882793
40
0.320887900882793
40
0.354801114916987
40
0.354801114916987
40
0.38871432895118
40
0.38871432895118
40
0.422627542985374
40
0.422627542985374
40
0.456540757019568
40
0.456540757019568
40
0.490453971053761
40
0.490453971053761
40
0.524367185087955
40
0.524367185087955
40
0.558280399122149
40
0.558280399122149
40
0.592193613156343
40
0.592193613156343
40
0.626106827190536
40
0.626106827190536
40
0.66002004122473
40
0.66002004122473
40
0.693933255258923
40
0.693933255258923
40
0.727846469293117
40
0.727846469293117
40
0.761759683327311
40
0.761759683327311
40
0.795672897361504
40
0.795672897361504
40
0.829586111395701
40
0.829586111395701
40
0.863499325429898
40
0.863499325429898
40
0.897412539464094
40
0.897412539464094
40
0.931325753498291
40
0.931325753498291
40
0.965238967532488
40
0.965238967532488
40
0.999152181566684
40
0.999152181566684
40
1
40
1
40
1
40
1
41
1
10
17.6785798031272
20
1.11644905552535
30
0
41
1
10
17.7364812412642
20
1.13724858991844
30
0
41
1
10
17.7943865394785
20
1.1573184557194
30
0
41
1
10
17.9777548097269
20
1.21838517442941
30
0
41
1
10
18.1031519753027
20
1.25683677976545
30
0
41
1
10
18.3539180228495
20
1.32689909652649
30
0
41
1
10
18.4795603814344
20
1.35820301860576
30
0
41
1
10
18.7321910689927
20
1.41263264643908
30
0
41
1
10
18.8593521714691
20
1.43602590317269
30
0
41
1
10
19.1126206608089
20
1.47437576994099
30
0
41
1
10
19.2386775389967
20
1.48912057795312
30
0
41
1
10
19.4905126798168
20
1.50977454414314
30
0
41
1
10
19.6160739396871
20
1.51578712009166
30
0
41
1
10
19.8664455091939
20
1.51909759171676
30
0
41
1
10
19.991522813012
20
1.51634473019433
30
0
41
1
10
20.2423446663673
20
1.50228145938723
30
0
41
1
10
20.3678757548067
20
1.49096790613342
30
0
41
1
10
20.6191018355515
20
1.45946554625417
30
0
41
1
10
20.7450616907933
20
1.43935453350895
30
0
41
1
10
20.9986069590375
20
1.39096190338051
30
0
41
1
10
21.1258861245574
20
1.36255292107376
30
0
41
1
10
21.3780848879865
20
1.29786414448213
30
0
41
1
10
21.5036930598285
20
1.26172469473602
30
0
41
1
10
21.7548864082178
20
1.18311911167044
30
0
41
1
10
21.8802659944638
20
1.14044798837281
30
0
41
1
10
22.1304496883672
20
1.0480999844838
30
0
41
1
10
22.2555091819914
20
0.998730475068612
30
0
41
1
10
22.506556990547
20
0.895114143156491
30
0
41
1
10
22.6323436394392
20
0.840597455411228
30
0
41
1
10
22.8842745960766
20
0.725644927715024
30
0
41
1
10
23.0110010657512
20
0.665436693274103
30
0
41
1
10
23.264790186163
20
0.542434586189302
30
0
41
1
10
23.391122227186
20
0.479562658348414
30
0
41
1
10
23.642474886078
20
0.350727466678933
30
0
41
1
10
23.7677392035607
20
0.285222319105714
30
0
41
1
10
24.0185028972295
20
0.154071880089362
30
0
41
1
10
24.1438105482512
20
0.088063616183149
30
0
41
1
10
24.3940348672628
20
-0.0452956932022914
30
0
41
1
10
24.5191889515257
20
-0.112192522471986
30
0
41
1
10
24.7706734671457
20
-0.244298432333693
30
0
41
1
10
24.896815635403
20
-0.309869917727497
30
0
41
1
10
25.1496565739349
20
-0.440550373068646
30
0
41
1
10
25.2766744296179
20
-0.505225859554287
30
0
41
1
10
25.529362308003
20
-0.629334769052861
30
0
41
1
10
25.6552903586961
20
-0.689369349548542
30
0
41
1
10
25.9060298169142
20
-0.805902317005291
30
0
41
1
10
26.0310650062993
20
-0.861983832660115
30
0
41
1
10
26.2816177935204
20
-0.968048316606286
30
0
41
1
10
26.406959540725
20
-1.01833987172228
30
0
41
1
10
26.6574438917085
20
-1.11380543008883
30
0
41
1
10
26.7828031025219
20
-1.1586394673601
30
0
41
1
10
27.0349538089116
20
-1.24095612229124
30
0
41
1
10
27.1618112131241
20
-1.27875730879359
30
0
41
1
10
27.4152558671158
20
-1.347336657412
30
0
41
1
10
27.5412509281946
20
-1.37763669508419
30
0
41
1
10
27.7930230172105
20
-1.42951922893891
30
0
41
1
10
27.918636941276
20
-1.45129377267881
30
0
41
1
10
28.1689473139164
20
-1.48671036663671
30
0
41
1
10
28.2938440417029
20
-1.50018307721407
30
0
41
1
10
28.544373997349
20
-1.51832413490086
30
0
41
1
10
28.6698498381758
20
-1.52310244153196
30
0
41
1
10
28.7984704505819
20
-1.52351817564485
30
0
41
1
10
28.8016076190519
20
-1.52352553571734
30
0
41
1
10
28.8047449209606
20
-1.52353011693282
30
0
0
SPLINE
5
DB
100
AcDbEntity
8
1
62
256
6
ByLayer
370
13
48
1
60
0
100
AcDbSpline
70
4
71
3
72
8
73
4
40
0
40
0
40
0
40
0
40
1
40
1
40
1
40
1
41
1
10
4.13113473905352
20
1.21135961366724
30
0
41
1
10
4.16819374367697
20
1.1887713498343
30
0
41
1
10
4.2088881300464
20
1.17375732386253
30
0
41
1
10
4.250509724582
20
1.16657276139162
30
0
0
SPLINE
5
DC
100
AcDbEntity
8
1
62
256
6
ByLayer
370
18
48
1
60
0
100
AcDbSpline
70
4
71
3
72
10
73
6
40
0
40
0
40
0
40
0
40
0.5
40
0.5
40
1
40
1
40
1
40
1
41
1
10
29.5534954204055
20
-1.47287397181614
30
0
41
1
10
29.6191807229398
20
-1.29562406485653
30
0
41
1
10
29.6872673638073
20
-1.11937496278284
30
0
41
1
10
29.8271165681769
20
-0.768374522902519
30
0
41
1
10
29.8988108274824
20
-0.593809858836323
30
0
41
1
10
29.9717907130296
20
-0.420388679040911
30
0
0
SPLINE
5
DD
100
AcDbEntity
8
1
62
256
6
ByLayer
370
18
48
1
60
0
100
AcDbSpline
70
4
71
3
72
24
73
20
40
0
40
0
40
0
40
0
40
0.0624999999999974
40
0.0624999999999974
40
0.124999999999995
40
0.124999999999995
40
0.187499999999992
40
0.187499999999992
40
0.24999999999999
40
0.24999999999999
40
0.374999999999991
40
0.374999999999991
40
0.499999999999993
40
0.499999999999993
40
0.624999999999995
40
0.624999999999995
40
0.749999999999997
40
0.749999999999997
40
1
40
1
40
1
40
1
41
1
10
28.0681501376833
20
0.574560344637746
30
0
41
1
10
28.062837900745
20
0.529105082860582
30
0
41
1
10
28.0609482238377
20
0.482533394652705
30
0
41
1
10
28.0642304695426
20
0.387086550576981
30
0
41
1
10
28.0695077746913
20
0.338073384972546
30
0
41
1
10
28.0865352483518
20
0.241704014610065
30
0
41
1
10
28.098274159057
20
0.193848328952328
30
0
41
1
10
28.1276776374696
20
0.0987414330566594
30
0
41
1
10
28.1454851433296
20
0.0512535454853662
30
0
41
1
10
28.2053265641078
20
-0.0862081812968256
30
0
41
1
10
28.2539840977151
20
-0.172625618843284
30
0
41
1
10
28.3646956474391
20
-0.337474944765319
30
0
41
1
10
28.4255290859443
20
-0.41397378188941
30
0
41
1
10
28.5538151152589
20
-0.556464964698336
30
0
41
1
10
28.6215621758855
20
-0.622785439478122
30
0
41
1
10
28.7629168802111
20
-0.747417596872992
30
0
41
1
10
28.8357145089717
20
-0.804963624063106
30
0
41
1
10
29.0570088555845
20
-0.964349090338288
30
0
41
1
10
29.2093551992693
20
-1.05417659333401
30
0
41
1
10
29.3656192438904
20
-1.13064127357748
30
0
0
SPLINE
5
DE
100
AcDbEntity
8
1
62
256
6
ByLayer
370
13
48
1
60
0
100
AcDbSpline
70
4
71
3
72
14
73
10
40
0
40
0
40
0
40
0
40
0.301214421795989
40
0.301214421795989
40
0.602428843591979
40
0.602428843591979
40
0.903643265387968
40
0.903643265387968
40
1
40
1
40
1
40
1
41
1
10
4.25050972458197
20
1.16657276139162
30
0
41
1
10
4.2505840075234
20
1.21871875542411
30
0
41
1
10
4.25065126278494
20
1.26341408941786
30
0
41
1
10
4.25077603679176
20
1.33822225498503
30
0
41
1
10
4.25083365764868
20
1.36826229871053
30
0
41
1
10
4.2509389083435
20
1.41147350693029
30
0
41
1
10
4.25098714061249
20
1.425057071081
30
0
41
1
10
4.25104719787694
20
1.43219534681609
30
0
41
1
10
4.25106149399676
20
1.43307337306771
30
0
41
1
10
4.25107544123455
20
1.43309740195974
30
0
0
SPLINE
5
DF
100
AcDbEntity
8
1
62
256
6
ByLayer
370
13
48
1
60
0
100
AcDbSpline
70
4
71
3
72
18
73
14
40
0
40
0
40
0
40
0
40
0.0368069894789938
40
0.0368069894789938
40
0.143828435092439
40
0.143828435092439
40
0.357871326319329
40
0.357871326319329
40
0.57191421754622
40
0.57191421754622
40
0.78595710877311
40
0.78595710877311
40
1
40
1
40
1
40
1
41
1
10
4.25107650591281
20
-1.43309757644599
30
0
41
1
10
4.25108399374343
20
-1.43308711523605
30
0
41
1
10
4.251091380102
20
-1.43282986358312
30
0
41
1
10
4.25111979259756
20
-1.43085905548068
30
0
41
1
10
4.25114007121863
20
-1.42732951998588
30
0
41
1
10
4.25119876709709
20
-1.41067349816032
30
0
41
1
10
4.25123510231037
20
-1.39153325573315
30
0
41
1
10
4.25130309819983
20
-1.33655244428692
30
0
41
1
10
4.25133412795373
20
-1.30114005711613
30
0
41
1
10
4.25138909683884
20
-1.21537634735753
30
0
41
1
10
4.25141255421391
20
-1.16586748868204
30
0
41
1
10
4.25144997248944
20
-1.05415230175296
30
0
41
1
10
4.25146398202696
20
-0.991601274707989
30
0
41
1
10
4.25147132970696
20
-0.923070600099976
30
0
0
SPLINE
5
E0
100
AcDbEntity
8
1
62
256
6
ByLayer
370
18
48
1
60
0
100
AcDbSpline
70
4
71
3
72
12
73
8
40
0
40
0
40
0
40
0
40
0.25
40
0.25
40
0.5
40
0.5
40
1
40
1
40
1
40
1
41
1
10
29.3743829389552
20
0.365515542577611
30
0
41
1
10
29.3744249805975
20
0.375431606592713
30
0
41
1
10
29.3772680117664
20
0.385304470050045
30
0
41
1
10
29.3882000102411
20
0.402289475905576
30
0
41
1
10
29.3962624388945
20
0.409385473239098
30
0
41
1
10
29.4231871322871
20
0.424852742832513
30
0
41
1
10
29.4442904096289
20
0.428255165090377
30
0
41
1
10
29.4649526656444
20
0.427795612686992
30
0
0
SPLINE
5
E1
100
AcDbEntity
8
1
62
256
6
ByLayer
370
18
48
1
60
0
100
AcDbSpline
70
4
71
3
72
10
73
6
40
0
40
0
40
0
40
0
40
0.5
40
0.5
40
1
40
1
40
1
40
1
41
1
10
5.37631604028471
20
-1.27577417054908
30
0
41
1
10
5.18609613331421
20
-1.2348171741501
30
0
41
1
10
4.99794971715789
20
-1.185194742448
30
0
41
1
10
4.62318609559566
20
-1.06753853671864
30
0
41
1
10
4.43679151380187
20
-0.999571992218165
30
0
41
1
10
4.25147132983
20
-0.923070600100033
30
0
0
SPLINE
5
E2
100
AcDbEntity
8
1
62
256
6
ByLayer
370
18
48
1
60
0
100
AcDbSpline
70
4
71
1
72
4
73
2
40
0
40
0
40
1
40
1
41
1
10
20.539274356819
20
-0.153785435863313
30
0
41
1
10
20.5968007404045
20
-0.180691872722804
30
0
0
SPLINE
5
E3
100
AcDbEntity
8
1
62
256
6
ByLayer
370
18
48
1
60
0
100
AcDbSpline
70
4
71
3
72
18
73
14
40
0
40
0
40
0
40
0
40
0.155144483621545
40
0.280516261600367
40
0.37589401477642
40
0.441110131704557
40
0.487954750681623
40
0.534554752022387
40
0.581117587204697
40
0.627623493773482
40
0.683923456159388
40
0.814629171224158
40
1
40
1
40
1
40
1
41
1
10
20.453398483153
20
-1.44234357727458
30
0
41
1
10
20.6766848242565
20
-1.44253132417006
30
0
41
1
10
21.0804947924207
20
-1.44294875060518
30
0
41
1
10
21.6220759261828
20
-1.44229985223339
30
0
41
1
10
22.033863699575
20
-1.44379077873634
30
0
41
1
10
22.3325776540909
20
-1.44321042603974
30
0
41
1
10
22.5611216161024
20
-1.44328150046886
30
0
41
1
10
22.7627718497532
20
-1.44432671318964
30
0
41
1
10
22.9639346328668
20
-1.444163194098
30
0
41
1
10
23.1790641130164
20
-1.44349675517742
30
0
41
1
10
23.5154089890892
20
-1.44407614308034
30
0
41
1
10
24.0518096496074
20
-1.44327709542924
30
0
41
1
10
24.5070598054783
20
-1.4443877159398
30
0
41
1
10
24.7740453215925
20
-1.44522561971061
30
0
0
SPLINE
5
E4
100
AcDbEntity
8
1
62
256
6
ByLayer
370
18
48
1
60
0
100
AcDbSpline
70
4
71
3
72
14
73
10
40
0
40
0
40
0
40
0
40
0.196012542732215
40
0.339761565800803
40
0.46104825721723
40
0.567333958763326
40
0.70275872828558
40
0.899724500236018
40
1
40
1
40
1
40
1
41
1
10
15.7740314625825
20
1.44040226128689
30
0
41
1
10
15.5303779080675
20
1.44029454783165
30
0
41
1
10
15.1079830799079
20
1.44003200362494
30
0
41
1
10
14.5341929465488
20
1.43876023393224
30
0
41
1
10
14.0727094262748
20
1.43871847215689
30
0
41
1
10
13.6210100903851
20
1.43854160435623
30
0
41
1
10
13.0754064648105
20
1.43754614291365
30
0
41
1
10
12.5371445422182
20
1.43731778073828
30
0
41
1
10
12.1674487843517
20
1.43704926304915
30
0
41
1
10
12.0427384147794
20
1.43695362398233
30
0
0
SPLINE
5
E5
100
AcDbEntity
8
1
62
256
6
ByLayer
370
18
48
1
60
0
100
AcDbSpline
70
4
71
3
72
11
73
7
40
0
40
0
40
0
40
0
40
0.152541011093723
40
0.403634771225437
40
0.686169668910189
40
1
40
1
40
1
40
1
41
1
10
4.25106177077075
20
-1.4328116657106
30
0
41
1
10
4.37925102372725
20
-1.43338490874592
30
0
41
1
10
4.71845011870158
20
-1.43460583232755
30
0
41
1
10
5.29510713144856
20
-1.43320890269589
30
0
41
1
10
6.0072588875104
20
-1.43493065883797
30
0
41
1
10
6.50845106624467
20
-1.43492366872533
30
0
41
1
10
6.77220224343012
20
-1.43493233820459
30
0
0
SPLINE
5
E6
100
AcDbEntity
8
1
62
256
6
ByLayer
370
18
48
1
60
0
100
AcDbSpline
70
4
71
3
72
15
73
11
40
0
40
0
40
0
40
0
40
0.174703669537734
40
0.302678753427948
40
0.388997528221301
40
0.463198298109089
40
0.536590449141155
40
0.647690683754394
40
0.802254999037056
40
1
40
1
40
1
40
1
41
1
10
11.4519008094584
20
-1.43649280335833
30
0
41
1
10
11.7035041700296
20
-1.43659776920956
30
0
41
1
10
12.139464680498
20
-1.43668021141269
30
0
41
1
10
12.6999876247071
20
-1.43829949572597
30
0
41
1
10
13.1156017507064
20
-1.43722993597575
30
0
41
1
10
13.4525855731345
20
-1.4394514223255
30
0
41
1
10
13.8253264643665
20
-1.43756519447098
30
0
41
1
10
14.3138269787203
20
-1.44031229198964
30
0
41
1
10
14.9815363326414
20
-1.43934806946854
30
0
41
1
10
15.489130811323
20
-1.44010679162963
30
0
41
1
10
15.7740314625875
20
-1.44040226128686
30
0
0
SPLINE
5
E7
100
AcDbEntity
8
1
62
256
6
ByLayer
370
18
48
1
60
0
100
AcDbSpline
70
4
71
3
72
8
73
4
40
0
40
0
40
0
40
0
40
1
40
1
40
1
40
1
41
1
10
6.34744081141511
20
-0.0225380632065537
30
0
41
1
10
6.32393845737585
20
-0.0097733418773771
30
0
41
1
10
6.30067857418368
20
0.0031996619102586
30
0
41
1
10
6.27764446261722
20
0.0163942196105893
30
0
0
SPLINE
5
E8
100
AcDbEntity
8
1
62
256
6
ByLayer
370
18
48
1
60
0
100
AcDbSpline
70
4
71
1
72
4
73
2
40
0
40
0
40
1
40
1
41
1
10
29.3379248249759
20
-1.44653064970564
30
0
41
1
10
29.4510689153412
20
-1.4439398989183
30
0
0
SPLINE
5
E9
100
AcDbEntity
8
1
62
256
6
ByLayer
370
18
48
1
60
0
100
AcDbSpline
70
4
71
3
72
18
73
14
40
0
40
0
40
0
40
0
40
0.213096697516795
40
0.363352033864896
40
0.428072767617605
40
0.481534551061294
40
0.535061777917039
40
0.588631729864289
40
0.642482886846812
40
0.717453362158207
40
0.827096742147028
40
0.971220345765988
40
1
40
1
40
1
40
1
41
1
10
24.7740453215974
20
1.44522561971064
30
0
41
1
10
24.5070598054821
20
1.44438771593985
30
0
41
1
10
24.0518096496097
20
1.44327709542932
30
0
41
1
10
23.5154089890898
20
1.44407614308037
30
0
41
1
10
23.1790641130166
20
1.44349675517745
30
0
41
1
10
22.963934632867
20
1.44416319409802
30
0
41
1
10
22.7627718497535
20
1.44432671318967
30
0
41
1
10
22.5611216161029
20
1.44328150046889
30
0
41
1
10
22.3325776540917
20
1.44321042603974
30
0
41
1
10
22.033863699576
20
1.44379077873637
30
0
41
1
10
21.6220759261838
20
1.44229985223342
30
0
41
1
10
21.2679539064166
20
1.44272414545139
30
0
41
1
10
21.0513517738107
20
1.44272456895894
30
0
41
1
10
21.0153010223928
20
1.44271879770864
30
0
0
SPLINE
5
EA
100
AcDbEntity
8
1
62
256
6
ByLayer
370
18
48
1
60
0
100
AcDbSpline
70
4
71
1
72
4
73
2
40
0
40
0
40
1
40
1
41
1
10
15.351858926429
20
-0.0197335645211467
30
0
41
1
10
15.2912161961312
20
0.0092894553230281
30
0
0
SPLINE
5
EB
100
AcDbEntity
8
1
62
256
6
ByLayer
370
18
48
1
60
0
100
AcDbSpline
70
4
71
2
72
6
73
3
40
0
40
0
40
0
40
1
40
1
40
1
41
1
10
6.77220224343523
20
1.4349323382045
30
0
41
1
10
5.51158590245251
20
1.43383423036488
30
0
41
1
10
4.25106473621813
20
1.43246683502758
30
0
0
LINE
5
7B
100
AcDbEntity
8
SK1
62
256
6
ByLayer
370
18
48
1
60
0
100
AcDbLine
10
-36
20
2.065
30
0
11
-36
21
-2.065
31
0
39
0
210
0
220
0
230
1
0
LINE
5
7D
100
AcDbEntity
8
SK1
62
256
6
ByLayer
370
18
48
1
60
0
100
AcDbLine
10
-35.065
20
3
30
0
11
-35.065
21
-3
31
0
39
0
210
0
220
0
230
1
0
LINE
5
7E
100
AcDbEntity
8
SK1
62
256
6
ByLayer
370
18
48
1
60
0
100
AcDbLine
10
0
20
-3
30
0
11
0
21
3
31
0
39
0
210
0
220
0
230
1
0
LINE
5
7F
100
AcDbEntity
8
1
62
256
6
ByLayer
370
18
48
1
60
0
100
AcDbLine
10
0
20
-3
30
0
11
0
21
3
31
0
39
0
210
0
220
0
230
1
0
LINE
5
80
100
AcDbEntity
8
1
62
256
6
ByLayer
370
13
48
1
60
0
100
AcDbLine
10
29.464953
20
0.427796
30
0
11
29.989917
21
0.095481
31
0
39
0
210
0
220
0
230
1
0
LINE
5
81
100
AcDbEntity
8
1
62
256
6
ByLayer
370
13
48
1
60
0
100
AcDbLine
10
1.59695
20
1.506527
30
0
11
1.59695
21
-1.506527
31
0
39
0
210
0
220
0
230
1
0
LINE
5
82
100
AcDbEntity
8
1
62
256
6
ByLayer
370
13
48
1
60
0
100
AcDbLine
10
29.374383
20
0.365516
30
0
11
29.979072
21
-0.017267
31
0
39
0
210
0
220
0
230
1
0
LINE
5
83
100
AcDbEntity
8
1
62
256
6
ByLayer
370
13
48
1
60
0
100
AcDbLine
10
4.245173
20
1.161288
30
0
11
4.25051
21
1.166573
31
0
39
0
210
0
220
0
230
1
0
LINE
5
84
100
AcDbEntity
8
1
62
256
6
ByLayer
370
18
48
1
60
0
100
AcDbLine
10
4.124974
20
1.205887
30
0
11
4.131135
21
1.21136
31
0
39
0
210
0
220
0
230
1
0
LINE
5
85
100
AcDbEntity
8
1
62
256
6
ByLayer
370
13
48
1
60
0
100
AcDbLine
10
0.798225
20
2.253264
30
0
11
0.798225
21
-2.253264
31
0
39
0
210
0
220
0
230
1
0
LINE
5
86
100
AcDbEntity
8
80
62
256
6
ByLayer
370
18
48
1
60
0
100
AcDbLine
10
0
20
0
30
0
11
-5
21
0
31
0
39
0
210
0
220
0
230
1
0
LINE
5
87
100
AcDbEntity
8
4
62
256
6
ByLayer
370
18
48
0.05
60
0
100
AcDbLine
10
30
20
0
30
0
11
0
21
0
31
0
39
0
210
0
220
0
230
1
0
LINE
5
89
100
AcDbEntity
8
SK4
62
256
6
ByLayer
370
18
48
0.05
60
0
100
AcDbLine
10
35
20
0
30
0
11
-41
21
0
31
0
39
0
210
0
220
0
230
1
0
LINE
5
8B
100
AcDbEntity
8
SK1
62
256
6
ByLayer
370
18
48
1
60
0
100
AcDbLine
10
-35.065
20
-3
30
0
11
0
21
-3
31
0
39
0
210
0
220
0
230
1
0
LINE
5
8C
100
AcDbEntity
8
SK1
62
256
6
ByLayer
370
18
48
1
60
0
100
AcDbLine
10
0
20
3
30
0
11
-35.065
21
3
31
0
39
0
210
0
220
0
230
1
0
LINE
5
8D
100
AcDbEntity
8
SK1
62
256
6
ByLayer
370
18
48
1
60
0
100
AcDbLine
10
-36
20
-2.065
30
0
11
-35.065
21
-3
31
0
39
0
210
0
220
0
230
1
0
LINE
5
8E
100
AcDbEntity
8
SK1
62
256
6
ByLayer
370
18
48
1
60
0
100
AcDbLine
10
-35.065
20
3
30
0
11
-36
21
2.065
31
0
39
0
210
0
220
0
230
1
0
LINE
5
8F
100
AcDbEntity
8
1
62
256
6
ByLayer
370
18
48
1
60
0
100
AcDbLine
10
1.59695
20
-1.506527
30
0
11
4.071478
21
-1.508074
31
0
39
0
210
0
220
0
230
1
0
LINE
5
90
100
AcDbEntity
8
1
62
256
6
ByLayer
370
18
48
1
60
0
100
AcDbLine
10
10.807751
20
-1.512284
30
0
11
11.268672
21
-1.512572
31
0
39
0
210
0
220
0
230
1
0
LINE
5
91
100
AcDbEntity
8
1
62
256
6
ByLayer
370
18
48
1
60
0
100
AcDbLine
10
19.809202
20
-1.51791
30
0
11
20.270029
21
-1.518198
31
0
39
0
210
0
220
0
230
1
0
LINE
5
92
100
AcDbEntity
8
1
62
256
6
ByLayer
370
18
48
1
60
0
100
AcDbLine
10
28.808576
20
-1.523535
30
0
11
29.270391
21
-1.523823
31
0
39
0
210
0
220
0
230
1
0
LINE
5
93
100
AcDbEntity
8
1
62
256
6
ByLayer
370
18
48
1
60
0
100
AcDbLine
10
29.270386
20
1.523823
30
0
11
28.808576
21
1.523535
31
0
39
0
210
0
220
0
230
1
0
LINE
5
94
100
AcDbEntity
8
1
62
256
6
ByLayer
370
18
48
1
60
0
100
AcDbLine
10
20.270984
20
1.518199
30
0
11
19.809202
21
1.51791
31
0
39
0
210
0
220
0
230
1
0
LINE
5
95
100
AcDbEntity
8
1
62
256
6
ByLayer
370
18
48
1
60
0
100
AcDbLine
10
11.270589
20
1.512573
30
0
11
10.807751
21
1.512284
31
0
39
0
210
0
220
0
230
1
0
LINE
5
96
100
AcDbEntity
8
1
62
256
6
ByLayer
370
18
48
1
60
0
100
AcDbLine
10
4.071478
20
1.508074
30
0
11
1.59695
21
1.506527
31
0
39
0
210
0
220
0
230
1
0
LINE
5
97
100
AcDbEntity
8
81
62
256
6
ByLayer
370
18
48
1
60
0
100
AcDbLine
10
30
20
0
30
0
11
35
21
0
31
0
39
0
210
0
220
0
230
1
0
LINE
5
98
100
AcDbEntity
8
SK2
62
256
6
ByLayer
370
13
48
1
60
0
100
AcDbLine
10
-44.625163
20
32.117107
30
0
11
-44.625163
21
-11.75
31
0
39
0
210
0
220
0
230
1
0
LINE
5
9A
100
AcDbEntity
8
SK2
62
256
6
ByLayer
370
13
48
1
60
0
100
AcDbLine
10
-37.5875
20
3
30
0
11
-46.625163
21
3
31
0
39
0
210
0
220
0
230
1
0
LINE
5
9B
100
AcDbEntity
8
SK2
62
256
6
ByLayer
370
13
48
1
60
0
100
AcDbLine
10
-37.5875
20
-3
30
0
11
-46.625163
21
-3
31
0
39
0
210
0
220
0
230
1
0
LINE
5
9C
100
AcDbEntity
8
1
62
256
6
ByLayer
370
18
48
1
60
1
100
AcDbLine
10
-44.625163
20
3
30
0
11
-45.085946
21
6.499998
31
0
39
0
210
0
220
0
230
1
0
LINE
5
9D
100
AcDbEntity
8
1
62
256
6
ByLayer
370
18
48
1
60
1
100
AcDbLine
10
-45.085946
20
6.499998
30
0
11
-44.164379
21
6.500002
31
0
39
0
210
0
220
0
230
1
0
LINE
5
9E
100
AcDbEntity
8
1
62
256
6
ByLayer
370
18
48
1
60
1
100
AcDbLine
10
-44.164379
20
6.500002
30
0
11
-44.625163
21
3
31
0
39
0
210
0
220
0
230
1
0
LINE
5
9F
100
AcDbEntity
8
1
62
256
6
ByLayer
370
18
48
1
60
1
100
AcDbLine
10
-44.625163
20
-3
30
0
11
-44.164379
21
-6.499998
31
0
39
0
210
0
220
0
230
1
0
LINE
5
A0
100
AcDbEntity
8
1
62
256
6
ByLayer
370
18
48
1
60
1
100
AcDbLine
10
-44.164379
20
-6.499998
30
0
11
-45.085946
21
-6.500002
31
0
39
0
210
0
220
0
230
1
0
LINE
5
A1
100
AcDbEntity
8
1
62
256
6
ByLayer
370
18
48
1
60
1
100
AcDbLine
10
-45.085946
20
-6.500002
30
0
11
-44.625163
21
-3
31
0
39
0
210
0
220
0
230
1
0
LINE
5
A2
100
AcDbEntity
8
2
62
256
6
ByLayer
370
13
48
1
60
0
100
AcDbLine
10
42.083343
20
29.602727
30
0
11
42.083343
21
-10.274
31
0
39
0
210
0
220
0
230
1
0
LINE
5
A4
100
AcDbEntity
8
2
62
256
6
ByLayer
370
13
48
1
60
0
100
AcDbLine
10
31.1509
20
1.524
30
0
11
44.083343
21
1.524
31
0
39
0
210
0
220
0
230
1
0
LINE
5
A5
100
AcDbEntity
8
2
62
256
6
ByLayer
370
13
48
1
60
0
100
AcDbLine
10
31.1509
20
-1.524
30
0
11
44.083343
21
-1.524
31
0
39
0
210
0
220
0
230
1
0
LINE
5
A6
100
AcDbEntity
8
1
62
256
6
ByLayer
370
18
48
1
60
1
100
AcDbLine
10
42.083343
20
1.524
30
0
11
41.622559
21
5.023998
31
0
39
0
210
0
220
0
230
1
0
LINE
5
A7
100
AcDbEntity
8
1
62
256
6
ByLayer
370
18
48
1
60
1
100
AcDbLine
10
41.622559
20
5.023998
30
0
11
42.544126
21
5.024002
31
0
39
0
210
0
220
0
230
1
0
LINE
5
A8
100
AcDbEntity
8
1
62
256
6
ByLayer
370
18
48
1
60
1
100
AcDbLine
10
42.544126
20
5.024002
30
0
11
42.083343
21
1.524
31
0
39
0
210
0
220
0
230
1
0
LINE
5
A9
100
AcDbEntity
8
1
62
256
6
ByLayer
370
18
48
1
60
1
100
AcDbLine
10
42.083343
20
-1.524
30
0
11
42.544126
21
-5.023998
31
0
39
0
210
0
220
0
230
1
0
LINE
5
AA
100
AcDbEntity
8
1
62
256
6
ByLayer
370
18
48
1
60
1
100
AcDbLine
10
42.544126
20
-5.023998
30
0
11
41.622559
21
-5.024002
31
0
39
0
210
0
220
0
230
1
0
LINE
5
AB
100
AcDbEntity
8
1
62
256
6
ByLayer
370
18
48
1
60
1
100
AcDbLine
10
41.622559
20
-5.024002
30
0
11
42.083343
21
-1.524
31
0
39
0
210
0
220
0
230
1
0
LINE
5
F2
100
AcDbEntity
8
1
62
256
6
ByLayer
370
18
48
1
60
1
100
AcDbLine
10
-44.625163
20
3
30
0
11
-45.085946
21
6.499998
31
0
39
0
210
0
220
0
230
1
0
LINE
5
F3
100
AcDbEntity
8
1
62
256
6
ByLayer
370
18
48
1
60
1
100
AcDbLine
10
-45.085946
20
6.499998
30
0
11
-44.164379
21
6.500002
31
0
39
0
210
0
220
0
230
1
0
LINE
5
F4
100
AcDbEntity
8
1
62
256
6
ByLayer
370
18
48
1
60
1
100
AcDbLine
10
-44.164379
20
6.500002
30
0
11
-44.625163
21
3
31
0
39
0
210
0
220
0
230
1
0
LINE
5
F6
100
AcDbEntity
8
1
62
256
6
ByLayer
370
18
48
1
60
1
100
AcDbLine
10
-44.625163
20
-3
30
0
11
-44.164379
21
-6.499998
31
0
39
0
210
0
220
0
230
1
0
LINE
5
F7
100
AcDbEntity
8
1
62
256
6
ByLayer
370
18
48
1
60
1
100
AcDbLine
10
-44.164379
20
-6.499998
30
0
11
-45.085946
21
-6.500002
31
0
39
0
210
0
220
0
230
1
0
LINE
5
F8
100
AcDbEntity
8
1
62
256
6
ByLayer
370
18
48
1
60
1
100
AcDbLine
10
-45.085946
20
-6.500002
30
0
11
-44.625163
21
-3
31
0
39
0
210
0
220
0
230
1
0
LINE
5
FC
100
AcDbEntity
8
1
62
256
6
ByLayer
370
18
48
1
60
1
100
AcDbLine
10
42.083343
20
1.524
30
0
11
41.622559
21
5.023998
31
0
39
0
210
0
220
0
230
1
0
LINE
5
FD
100
AcDbEntity
8
1
62
256
6
ByLayer
370
18
48
1
60
1
100
AcDbLine
10
41.622559
20
5.023998
30
0
11
42.544126
21
5.024002
31
0
39
0
210
0
220
0
230
1
0
LINE
5
FE
100
AcDbEntity
8
1
62
256
6
ByLayer
370
18
48
1
60
1
100
AcDbLine
10
42.544126
20
5.024002
30
0
11
42.083343
21
1.524
31
0
39
0
210
0
220
0
230
1
0
LINE
5
100
100
AcDbEntity
8
1
62
256
6
ByLayer
370
18
48
1
60
1
100
AcDbLine
10
42.083343
20
-1.524
30
0
11
42.544126
21
-5.023998
31
0
39
0
210
0
220
0
230
1
0
LINE
5
101
100
AcDbEntity
8
1
62
256
6
ByLayer
370
18
48
1
60
1
100
AcDbLine
10
42.544126
20
-5.023998
30
0
11
41.622559
21
-5.024002
31
0
39
0
210
0
220
0
230
1
0
LINE
5
102
100
AcDbEntity
8
1
62
256
6
ByLayer
370
18
48
1
60
1
100
AcDbLine
10
41.622559
20
-5.024002
30
0
11
42.083343
21
-1.524
31
0
39
0
210
0
220
0
230
1
0
MTEXT
5
EC
100
AcDbEntity
8
SK6
62
256
6
ByLayer
370
13
48
1
60
0
100
AcDbMText
10
-32.145193
20
34.064328
30
0
210
0
220
0
230
1
1
\W0.7670;462.1-0305-015A0-XM X2BM
40
3.5
41
0
44
1.084337
50
0
71
7
72
5
7
iso_b_vert
0
MTEXT
5
F0
100
AcDbEntity
8
SK2
62
256
6
ByLayer
370
18
48
1
60
0
100
AcDbMText
10
-46.189796
20
16.409024
30
0
210
0
220
0
230
1
1
%%c
40
3.5
41
0
44
1.084337
50
90
71
7
72
5
7
iso_b_vert
0
MTEXT
5
F1
100
AcDbEntity
8
SK2
62
256
6
ByLayer
370
18
48
1
60
0
100
AcDbMText
10
-46.189796
20
21.63168
30
0
210
0
220
0
230
1
1
\W0.7317;6,000
40
3.5
41
0
44
1.084337
50
90
71
7
72
5
7
iso_b_vert
0
MTEXT
5
FA
100
AcDbEntity
8
2
62
256
6
ByLayer
370
18
48
1
60
0
100
AcDbMText
10
40.518709
20
13.52611
30
0
210
0
220
0
230
1
1
%%c
40
3.5
41
0
44
1.084337
50
90
71
7
72
5
7
iso_b_vert
0
MTEXT
5
FB
100
AcDbEntity
8
2
62
256
6
ByLayer
370
18
48
1
60
0
100
AcDbMText
10
40.518709
20
18.748766
30
0
210
0
220
0
230
1
1
\W0.7581;3,048
40
3.5
41
0
44
1.084337
50
90
71
7
72
5
7
iso_b_vert
0
HATCH
5
F5
100
AcDbEntity
8
SK2
62
256
6
ByLayer
370
13
48
1
60
0
100
AcDbHatch
10
0
20
0
30
0
210
0
220
0
230
1
2
ANSI31
70
0
71
0
91
1
92
5
93
3
72
1
10
-44.6251625675374
20
3
11
-45.0859463090902
21
6.49999830744682
72
1
10
-45.0859463090902
20
6.49999830744682
11
-44.1643788259847
21
6.50000169255318
72
1
10
-44.1643788259847
20
6.50000169255318
11
-44.6251625675374
21
3
97
0
75
0
76
1
52
0
41
0.0062
77
0
78
1
53
45
43
0
44
0
45
-0.0139193969876572
46
0.0139193969876572
79
0
47
0
98
1
10
0
20
0
0
HATCH
5
F9
100
AcDbEntity
8
SK2
62
256
6
ByLayer
370
13
48
1
60
0
100
AcDbHatch
10
0
20
0
30
0
210
0
220
0
230
1
2
ANSI31
70
0
71
0
91
1
92
5
93
3
72
1
10
-44.6251625675374
20
-3
11
-44.1643788259847
21
-6.49999830744682
72
1
10
-44.1643788259847
20
-6.49999830744682
11
-45.0859463090902
21
-6.50000169255318
72
1
10
-45.0859463090902
20
-6.50000169255318
11
-44.6251625675374
21
-3
97
0
75
0
76
1
52
0
41
0.0062
77
0
78
1
53
45
43
0
44
0
45
-0.0139193969876572
46
0.0139193969876572
79
0
47
0
98
1
10
0
20
0
0
HATCH
5
FF
100
AcDbEntity
8
2
62
256
6
ByLayer
370
13
48
1
60
0
100
AcDbHatch
10
0
20
0
30
0
210
0
220
0
230
1
2
ANSI31
70
0
71
0
91
1
92
5
93
3
72
1
10
42.083342615295
20
1.524
11
41.6225588737423
21
5.02399830744682
72
1
10
41.6225588737423
20
5.02399830744682
11
42.5441263568478
21
5.02400169255318
72
1
10
42.5441263568478
20
5.02400169255318
11
42.083342615295
21
1.524
97
0
75
0
76
1
52
0
41
0.0062
77
0
78
1
53
45
43
0
44
0
45
-0.0139193969876572
46
0.0139193969876572
79
0
47
0
98
1
10
0
20
0
0
HATCH
5
103
100
AcDbEntity
8
2
62
256
6
ByLayer
370
13
48
1
60
0
100
AcDbHatch
10
0
20
0
30
0
210
0
220
0
230
1
2
ANSI31
70
0
71
0
91
1
92
5
93
3
72
1
10
42.083342615295
20
-1.524
11
42.5441263568478
21
-5.02399830744682
72
1
10
42.5441263568478
20
-5.02399830744682
11
41.6225588737423
21
-5.02400169255318
72
1
10
41.6225588737423
20
-5.02400169255318
11
42.083342615295
21
-1.524
97
0
75
0
76
1
52
0
41
0.0062
77
0
78
1
53
45
43
0
44
0
45
-0.0139193969876572
46
0.0139193969876572
79
0
47
0
98
1
10
0
20
0
0
DIMENSION
5
105
100
AcDbEntity
8
SK2
62
256
6
ByLayer
370
13
48
1
60
0
100
AcDbDimension
2
_U0
10
29.5634
20
-11.737398
30
0
11
14.7817
21
-11.737398
31
0
70
32
71
1
72
1
41
1
210
0
220
0
230
1
3
Standard
100
AcDbAlignedDimension
13
0
23
0
33
0
14
29.5634
24
-1.524
34
0
50
0
100
AcDbRotatedDimension
1001
ACAD
1000
DSTYLE
1002
{
1070
   371
1070
    13
1070
   372
1070
    13
1070
   170
1070
     0
1070
   144
1040
1.0
1070
   277
1070
     2
1070
   278
1070
    44
1070
   146
1040
1.0
1070
   345
1005
16
1070
   347
1005
16
1070
   346
1005
16
1070
   344
1005
0
1070
   343
1005
0
1070
   172
1070
     1
1070
    76
1070
     0
1070
    75
1070
     0
1070
   282
1070
     0
1070
   281
1070
     0
1070
    71
1070
     0
1070
    74
1070
     0
1070
   279
1070
     0
1070
   173
1070
     1
1070
   340
1005
ED
1070
   271
1070
     2
1070
   272
1070
     2
1070
    77
1070
     1
1070
    73
1070
     1
1070
   171
1070
     3
1070
   274
1070
     4
1070
   177
1070
    35
1070
   176
1070
    35
1070
   178
1070
    35
1070
    48
1040
-0.1
1070
    41
1040
3.5
1070
   147
1040
1.75
1070
    42
1040
1.5875
1070
    44
1040
2.0
1070
   140
1040
3.5
1002
}
1001
ACAD_DSTYLE_DIM_LINETYPE
1070
   380
1005
16
1001
ACAD_DSTYLE_DIM_EXT1_LINETYPE
1070
   381
1005
16
1001
ACAD_DSTYLE_DIM_EXT2_LINETYPE
1070
   382
1005
16
0
DIMENSION
5
11E
100
AcDbEntity
8
SK2
62
256
6
ByLayer
370
13
48
1
60
0
100
AcDbDimension
2
_U1
10
30
20
-31.692985
30
0
11
-3
21
-31.692985
31
0
70
32
71
1
72
1
41
1
210
0
220
0
230
1
3
Standard
100
AcDbAlignedDimension
13
-36
23
-3
33
0
14
30
24
0
34
0
50
0
100
AcDbRotatedDimension
1001
ACAD
1000
DSTYLE
1002
{
1070
   371
1070
    13
1070
   372
1070
    13
1070
   170
1070
     0
1070
   144
1040
1.0
1070
   277
1070
     2
1070
   278
1070
    44
1070
   146
1040
1.0
1070
   345
1005
16
1070
   347
1005
16
1070
   346
1005
16
1070
   344
1005
0
1070
   343
1005
0
1070
   172
1070
     1
1070
    76
1070
     0
1070
    75
1070
     0
1070
   282
1070
     0
1070
   281
1070
     0
1070
    71
1070
     0
1070
    74
1070
     0
1070
   279
1070
     0
1070
   173
1070
     1
1070
   340
1005
ED
1070
   271
1070
     2
1070
   272
1070
     2
1070
    77
1070
     1
1070
    73
1070
     1
1070
   171
1070
     3
1070
   274
1070
     4
1070
   177
1070
    35
1070
   176
1070
    35
1070
   178
1070
    35
1070
    48
1040
-0.1
1070
    41
1040
3.5
1070
   147
1040
1.75
1070
    42
1040
1.5875
1070
    44
1040
2.0
1070
   140
1040
3.5
1002
}
1001
ACAD_DSTYLE_DIM_LINETYPE
1070
   380
1005
16
1001
ACAD_DSTYLE_DIM_EXT1_LINETYPE
1070
   381
1005
16
1001
ACAD_DSTYLE_DIM_EXT2_LINETYPE
1070
   382
1005
16
0
DIMENSION
5
136
100
AcDbEntity
8
SK2
62
256
6
ByLayer
370
13
48
1
60
0
100
AcDbDimension
2
_U2
10
30
20
13.133119
30
0
11
22.155
21
13.133119
31
0
70
32
71
1
72
1
41
1
210
0
220
0
230
1
3
Standard
100
AcDbAlignedDimension
13
14.31
23
1.524
33
0
14
30
24
0
34
0
50
0
100
AcDbRotatedDimension
1001
ACAD
1000
DSTYLE
1002
{
1070
   371
1070
    13
1070
   372
1070
    13
1070
   170
1070
     0
1070
   144
1040
1.0
1070
   277
1070
     2
1070
   278
1070
    44
1070
   146
1040
1.0
1070
   345
1005
16
1070
   347
1005
16
1070
   346
1005
16
1070
   344
1005
0
1070
   343
1005
0
1070
   172
1070
     1
1070
    76
1070
     0
1070
    75
1070
     0
1070
   282
1070
     0
1070
   281
1070
     0
1070
    71
1070
     0
1070
    74
1070
     0
1070
   279
1070
     0
1070
   173
1070
     1
1070
   340
1005
ED
1070
   271
1070
     2
1070
   272
1070
     2
1070
    77
1070
     1
1070
    73
1070
     1
1070
   171
1070
     3
1070
   274
1070
     4
1070
   177
1070
    35
1070
   176
1070
    35
1070
   178
1070
    35
1070
    48
1040
-0.1
1070
    41
1040
3.5
1070
   147
1040
1.75
1070
    42
1040
1.5875
1070
    44
1040
2.0
1070
   140
1040
3.5
1002
}
1001
ACAD_DSTYLE_DIM_LINETYPE
1070
   380
1005
16
1001
ACAD_DSTYLE_DIM_EXT1_LINETYPE
1070
   381
1005
16
1001
ACAD_DSTYLE_DIM_EXT2_LINETYPE
1070
   382
1005
16
0
DIMENSION
5
14F
100
AcDbEntity
8
SK2
62
256
6
ByLayer
370
13
48
1
60
0
100
AcDbDimension
2
_U3
10
29.5634
20
-14.326503
30
0
11
47.666667
21
-14.326503
31
0
70
32
71
1
72
1
41
1
210
0
220
0
230
1
3
Standard
100
AcDbAlignedDimension
13
30
23
0
33
0
14
29.5634
24
-1.524
34
0
50
0
100
AcDbRotatedDimension
1001
ACAD
1000
DSTYLE
1002
{
1070
   371
1070
    13
1070
   372
1070
    13
1070
   170
1070
     0
1070
   144
1040
1.0
1070
   277
1070
     2
1070
   278
1070
    44
1070
   146
1040
1.0
1070
   345
1005
16
1070
   347
1005
16
1070
   346
1005
16
1070
   344
1005
0
1070
   343
1005
0
1070
   172
1070
     1
1070
    76
1070
     0
1070
    75
1070
     0
1070
   282
1070
     0
1070
   281
1070
     0
1070
    71
1070
     0
1070
    74
1070
     0
1070
   279
1070
     0
1070
   173
1070
     1
1070
   340
1005
ED
1070
   271
1070
     2
1070
   272
1070
     2
1070
    77
1070
     1
1070
    73
1070
     1
1070
   171
1070
     3
1070
   274
1070
     4
1070
   177
1070
    35
1070
   176
1070
    35
1070
   178
1070
    35
1070
    48
1040
-0.1
1070
    41
1040
3.5
1070
   147
1040
1.75
1070
    42
1040
1.5875
1070
    44
1040
2.0
1070
   140
1040
3.5
1002
}
1001
ACAD_DSTYLE_DIM_LINETYPE
1070
   380
1005
16
1001
ACAD_DSTYLE_DIM_EXT1_LINETYPE
1070
   381
1005
16
1001
ACAD_DSTYLE_DIM_EXT2_LINETYPE
1070
   382
1005
16
0
DIMENSION
5
169
100
AcDbEntity
8
SK2
62
256
6
ByLayer
370
13
48
1
60
0
100
AcDbDimension
2
_U4
10
29.5634
20
-21.343428
30
0
11
-3.2183
21
-21.343428
31
0
70
32
71
1
72
1
41
1
210
0
220
0
230
1
3
Standard
100
AcDbAlignedDimension
13
-36
23
-3
33
0
14
29.5634
24
-1.524
34
0
50
0
100
AcDbRotatedDimension
1001
ACAD
1000
DSTYLE
1002
{
1070
   371
1070
    13
1070
   372
1070
    13
1070
   170
1070
     0
1070
   144
1040
1.0
1070
   277
1070
     2
1070
   278
1070
    44
1070
   146
1040
1.0
1070
   345
1005
16
1070
   347
1005
16
1070
   346
1005
16
1070
   344
1005
0
1070
   343
1005
0
1070
   172
1070
     1
1070
    76
1070
     0
1070
    75
1070
     0
1070
   282
1070
     0
1070
   281
1070
     0
1070
    71
1070
     0
1070
    74
1070
     0
1070
   279
1070
     0
1070
   173
1070
     1
1070
   340
1005
ED
1070
   271
1070
     2
1070
   272
1070
     2
1070
    77
1070
     1
1070
    73
1070
     1
1070
   171
1070
     3
1070
   274
1070
     4
1070
   177
1070
    35
1070
   176
1070
    35
1070
   178
1070
    35
1070
    48
1040
-0.1
1070
    41
1040
3.5
1070
   147
1040
1.75
1070
    42
1040
1.5875
1070
    44
1040
2.0
1070
   140
1040
3.5
1002
}
1001
ACAD_DSTYLE_DIM_LINETYPE
1070
   380
1005
16
1001
ACAD_DSTYLE_DIM_EXT1_LINETYPE
1070
   381
1005
16
1001
ACAD_DSTYLE_DIM_EXT2_LINETYPE
1070
   382
1005
16
0
ENDSEC
0
SECTION
2
OBJECTS
0
DICTIONARY
5
1f1
330
0
100
AcDbDictionary
280
0
281
1
3
ACAD_GROUP
350
1f2
3
ACAD_MLINESTYLE
350
1f3
0
DICTIONARY
5
1f2
330
0
100
AcDbDictionary
280
0
281
1
0
DICTIONARY
5
1f3
330
0
100
AcDbDictionary
280
0
281
1
3
Standard
350
18
0
MLINESTYLE
5
18
330
1f3
100
AcDbMlineStyle
2
Standard
70
0
3

62
256
51
90
52
90
71
2
49
-0.5
62
256
6
ByLayer
49
0.5
62
256
6
ByLayer
0
RASTERVARIABLES
5
1df
330

100
AcDbRasterVariables
90
0
70
1
71
1
72
1
0
ENDSEC
0
EOF
