0
SECTION
2
HEADER
9
$ACADVER
1
AC1015
9
$DWGCODEPAGE
3
ANSI_1252
9
$HANDSEED
5
201
9
$ANGBASE
50
0
9
$ANGDIR
70
0
9
$ATTMODE
70
1
9
$AUNITS
70
0
9
$AUPREC
70
0
9
$CECOLOR
62
256
9
$CELTSCALE
40
1
9
$CELTYPE
6
ByLayer
9
$CELWEIGHT
370
18
9
$CLAYER
8
0
9
$CMLJUST
70
0
9
$CMLSCALE
40
1
9
$CMLSTYLE
2
Standard
9
$DIMSTYLE
2
Standard
9
$TEXTSIZE
40
0.2
9
$TEXTSTYLE
7
Standard
9
$LUNITS
70
2
9
$LUPREC
70
4
9
$EXTNAMES
290
1
9
$INSUNITS
70
4
9
$LTSCALE
40
1
9
$LWDISPLAY
290
1
9
$PDMODE
70
0
9
$PDSIZE
40
0
9
$PLINEGEN
70
0
0
ENDSEC
0
SECTION
2
CLASSES
0
CLASS
1
RASTERVARIABLES
2
AcDbRasterVariables
3
ISM
90
0
280
0
281
0
0
ENDSEC
0
SECTION
2
TABLES
0
TABLE
2
VPORT
5
1f7
100
AcDbSymbolTable
0
VPORT
5
1
100
AcDbSymbolTableRecord
100
AcDbViewportTableRecord
2
*Active
70
0
10
0
20
0
11
1
21
1
12
-1
22
1
13
0
23
0
14
0.5
24
0.5
15
10
25
10
16
0
26
0
36
1
17
0
27
0
37
0
0
ENDTAB
0
TABLE
2
LTYPE
5
1f8
100
AcDbSymbolTable
0
LTYPE
5
14
100
AcDbSymbolTableRecord
100
AcDbLinetypeTableRecord
70
0
2
ByBlock
3

72
65
73
0
40
0
0
LTYPE
5
15
100
AcDbSymbolTableRecord
100
AcDbLinetypeTableRecord
70
0
2
ByLayer
3

72
65
73
0
40
0
0
LTYPE
5
16
100
AcDbSymbolTableRecord
100
AcDbLinetypeTableRecord
70
0
2
Continuous
3
Solid line
72
65
73
0
40
0
0
LTYPE
5
6E
100
AcDbSymbolTableRecord
100
AcDbLinetypeTableRecord
70
0
2
CENTER
3
____ _ ____ _ ____ _ ____
72
65
73
4
40
47.5
49
22
74
0
49
-8.5
74
0
49
8.5
74
0
49
-8.5
74
0
0
LTYPE
5
6F
100
AcDbSymbolTableRecord
100
AcDbLinetypeTableRecord
70
0
2
DASHED
3
__ __ __ __ __ __ __ __ __
72
65
73
2
40
25.72
49
12.86
74
0
49
-12.86
74
0
0
ENDTAB
0
TABLE
2
LAYER
5
1f9
100
AcDbSymbolTable
0
LAYER
5
10
100
AcDbSymbolTableRecord
100
AcDbLayerTableRecord
2
0
70
0
62
7
6
Continuous
290
1
370
-3
390
0
0
LAYER
5
71
100
AcDbSymbolTableRecord
100
AcDbLayerTableRecord
2
80
70
0
62
-6
6
Continuous
290
1
370
-3
390
0
0
LAYER
5
73
100
AcDbSymbolTableRecord
100
AcDbLayerTableRecord
2
81
70
0
62
-3
6
Continuous
290
1
370
-3
390
0
0
LAYER
5
75
100
AcDbSymbolTableRecord
100
AcDbLayerTableRecord
2
1
70
0
62
4
6
Continuous
290
1
370
-3
390
0
0
LAYER
5
88
100
AcDbSymbolTableRecord
100
AcDbLayerTableRecord
2
4
70
0
62
-2
6
CENTER
290
1
370
-3
390
0
0
LAYER
5
A3
100
AcDbSymbolTableRecord
100
AcDbLayerTableRecord
2
2
70
0
62
7
6
Continuous
290
1
370
-3
390
0
0
LAYER
5
10C
100
AcDbSymbolTableRecord
100
AcDbLayerTableRecord
2
Defpoints
70
0
62
7
6
Continuous
290
0
370
-3
390
0
0
LAYER
5
1e3
100
AcDbSymbolTableRecord
100
AcDbLayerTableRecord
2
SK1
70
0
62
4
6
Continuous
290
1
370
-3
390
0
0
LAYER
5
1e4
100
AcDbSymbolTableRecord
100
AcDbLayerTableRecord
2
SK4
70
0
62
2
6
CENTER
290
1
370
-3
390
0
0
LAYER
5
1e5
100
AcDbSymbolTableRecord
100
AcDbLayerTableRecord
2
SK2
70
0
62
7
6
Continuous
290
1
370
-3
390
0
0
LAYER
5
1e6
100
AcDbSymbolTableRecord
100
AcDbLayerTableRecord
2
SK6
70
0
62
5
6
Continuous
290
1
370
-3
390
0
0
ENDTAB
0
TABLE
2
STYLE
5
1fa
100
AcDbSymbolTable
0
STYLE
5
11
100
AcDbSymbolTableRecord
100
AcDbTextStyleTableRecord
2
Standard
3
txt
70
0
71
0
40
0
41
1
42
0
50
0
0
STYLE
5
F1
100
AcDbSymbolTableRecord
100
AcDbTextStyleTableRecord
2
iso_b_vert
3
simplex.shx
70
0
71
0
40
0
41
1
42
0
50
0
0
STYLE
5
F2
100
AcDbSymbolTableRecord
100
AcDbTextStyleTableRecord
2
DWGDirectTextStyle
3
simplex
70
0
71
0
40
0
41
1
42
0
50
0
0
ENDTAB
0
TABLE
2
DIMSTYLE
5
1fb
100
AcDbSymbolTable
100
AcDbDimStyleTable
0
DIMSTYLE
105
27
100
AcDbSymbolTableRecord
100
AcDbDimStyleTableRecord
2
Standard
70
0
3
<>
41
0.18
42
0.0625
44
0.18
140
0.18
147
0.09
73
0
74
0
77
1
271
2
275
0
278
52
280
0
340
11
0
ENDTAB
0
TABLE
2
VIEW
5
1fc
100
AcDbSymbolTable
0
ENDTAB
0
TABLE
2
UCS
5
1fd
100
AcDbSymbolTable
0
ENDTAB
0
TABLE
2
APPID
5
1fe
100
AcDbSymbolTable
0
APPID
5
12
100
AcDbSymbolTableRecord
100
AcDbRegAppTableRecord
2
ACAD
70
0
0
APPID
5
108
100
AcDbSymbolTableRecord
100
AcDbRegAppTableRecord
2
ACAD_DSTYLE_DIMBREAK
70
0
0
APPID
5
1A2
100
AcDbSymbolTableRecord
100
AcDbRegAppTableRecord
2
ACAD_DSTYLE_DIM_LINETYPE
70
0
0
APPID
5
1A3
100
AcDbSymbolTableRecord
100
AcDbRegAppTableRecord
2
ACAD_DSTYLE_DIM_EXT1_LINETYPE
70
0
0
APPID
5
1A4
100
AcDbSymbolTableRecord
100
AcDbRegAppTableRecord
2
ACAD_DSTYLE_DIM_EXT2_LINETYPE
70
0
0
APPID
5
1DF
100
AcDbSymbolTableRecord
100
AcDbRegAppTableRecord
2
ACAD_MLEADERVER
70
0
0
ENDTAB
0
TABLE
2
BLOCK_RECORD
5
1ff
100
AcDbSymbolTable
0
BLOCK_RECORD
5
1F
100
AcDbSymbolTableRecord
100
AcDbBlockTableRecord
2
*Model_Space
340
0
70
0
0
BLOCK_RECORD
5
1B
100
AcDbSymbolTableRecord
100
AcDbBlockTableRecord
2
*Paper_Space
340
0
70
0
0
BLOCK_RECORD
5
23
100
AcDbSymbolTableRecord
100
AcDbBlockTableRecord
2
*Paper_Space0
340
0
70
0
0
BLOCK_RECORD
5
10D
100
AcDbSymbolTableRecord
100
AcDbBlockTableRecord
2
*D1
340
0
70
0
0
BLOCK_RECORD
5
119
100
AcDbSymbolTableRecord
100
AcDbBlockTableRecord
2
_U0
340
0
70
0
0
BLOCK_RECORD
5
125
100
AcDbSymbolTableRecord
100
AcDbBlockTableRecord
2
*D3
340
0
70
0
0
BLOCK_RECORD
5
131
100
AcDbSymbolTableRecord
100
AcDbBlockTableRecord
2
_U1
340
0
70
0
0
BLOCK_RECORD
5
13D
100
AcDbSymbolTableRecord
100
AcDbBlockTableRecord
2
*D5
340
0
70
0
0
BLOCK_RECORD
5
149
100
AcDbSymbolTableRecord
100
AcDbBlockTableRecord
2
_U2
340
0
70
0
0
BLOCK_RECORD
5
155
100
AcDbSymbolTableRecord
100
AcDbBlockTableRecord
2
*D7
340
0
70
0
0
BLOCK_RECORD
5
163
100
AcDbSymbolTableRecord
100
AcDbBlockTableRecord
2
_U3
340
0
70
0
0
BLOCK_RECORD
5
16F
100
AcDbSymbolTableRecord
100
AcDbBlockTableRecord
2
*D9
340
0
70
0
0
BLOCK_RECORD
5
17B
100
AcDbSymbolTableRecord
100
AcDbBlockTableRecord
2
_U4
340
0
70
0
0
ENDTAB
0
ENDSEC
0
SECTION
2
BLOCKS
0
BLOCK
5
20
100
AcDbEntity
8
0
100
AcDbBlockBegin
2
*Model_Space
70
0
10
0
20
0
30
0
3
*Model_Space
0
ENDBLK
5
21
100
AcDbEntity
8
0
100
AcDbBlockEnd
0
BLOCK
5
1C
100
AcDbEntity
8
0
100
AcDbBlockBegin
2
*Paper_Space
70
0
10
0
20
0
30
0
3
*Paper_Space
0
ENDBLK
5
1D
100
AcDbEntity
8
0
100
AcDbBlockEnd
0
BLOCK
5
24
100
AcDbEntity
8
0
100
AcDbBlockBegin
2
*Paper_Space0
70
0
10
0
20
0
30
0
3
*Paper_Space0
0
ENDBLK
5
25
100
AcDbEntity
8
0
100
AcDbBlockEnd
0
BLOCK
5
10E
100
AcDbEntity
8
0
100
AcDbBlockBegin
2
*D1
70
1
10
0
20
0
30
0
3
*D1
0
LINE
5
110
100
AcDbEntity
8
0
62
256
6
ByLayer
370
-2
48
1
60
0
100
AcDbLine
10
0
20
-1.5875
30
0
11
0
21
-14.213398
31
0
39
0
210
0
220
0
230
1
0
LINE
5
111
100
AcDbEntity
8
0
62
256
6
ByLayer
370
-2
48
1
60
0
100
AcDbLine
10
37.4202
20
-3.5875
30
0
11
37.4202
21
-14.213398
31
0
39
0
210
0
220
0
230
1
0
LINE
5
112
100
AcDbEntity
8
0
62
256
6
ByLayer
370
-2
48
1
60
0
100
AcDbLine
10
3.5
20
-12.213398
30
0
11
33.9202
21
-12.213398
31
0
39
0
210
0
220
0
230
1
0
SOLID
5
113
100
AcDbEntity
8
0
62
256
6
ByLayer
370
-1
48
1
60
0
100
AcDbTrace
10
3.5
20
-11.630065
30
0
11
3.5
21
-12.796732
31
0
12
0
22
-12.213398
32
0
13
0
23
-12.213398
33
0
39
0
210
0
220
0
230
1
0
SOLID
5
114
100
AcDbEntity
8
0
62
256
6
ByLayer
370
-1
48
1
60
0
100
AcDbTrace
10
33.9202
20
-12.796732
30
0
11
33.9202
21
-11.630065
31
0
12
37.4202
22
-12.213398
32
0
13
37.4202
23
-12.213398
33
0
39
0
210
0
220
0
230
1
0
MTEXT
5
115
100
AcDbEntity
8
0
62
256
6
ByLayer
370
18
48
1
60
0
100
AcDbMText
10
18.7101
20
-5.213398
30
0
210
0
220
0
230
1
1
\A1;37.42
40
3.5
41
0
44
1
50
0
71
5
72
5
7
iso_b_vert
0
POINT
5
116
100
AcDbEntity
8
Defpoints
62
0
6
ByLayer
370
-1
48
1
60
0
100
AcDbPoint
10
0
20
0
30
0
39
0
210
0
220
0
230
1
50
360
0
POINT
5
117
100
AcDbEntity
8
Defpoints
62
0
6
ByLayer
370
-1
48
1
60
0
100
AcDbPoint
10
37.4202
20
-2
30
0
39
0
210
0
220
0
230
1
50
360
0
POINT
5
118
100
AcDbEntity
8
Defpoints
62
0
6
ByLayer
370
-1
48
1
60
0
100
AcDbPoint
10
37.4202
20
-12.213398
30
0
39
0
210
0
220
0
230
1
50
360
0
ENDBLK
5
10F
100
AcDbEntity
8
0
100
AcDbBlockEnd
0
BLOCK
5
120
100
AcDbEntity
8
0
100
AcDbBlockBegin
2
_U0
70
0
10
0
20
0
30
0
3
_U0
0
MTEXT
5
11A
100
AcDbEntity
8
SK2
62
256
6
ByLayer
370
13
48
1
60
0
100
AcDbMText
10
13.388535
20
-11.180765
30
0
210
0
220
0
230
1
1
\W0.7581;37,42
40
3.5
41
0
44
1.084337
50
0
71
7
72
5
7
iso_b_vert
0
LINE
5
11B
100
AcDbEntity
8
SK2
62
256
6
ByLayer
370
13
48
1
60
0
100
AcDbLine
10
0
20
-1.5875
30
0
11
0
21
-14.213398
31
0
39
0
210
0
220
0
230
1
0
LINE
5
11C
100
AcDbEntity
8
SK2
62
256
6
ByLayer
370
13
48
1
60
0
100
AcDbLine
10
37.4202
20
-3.5875
30
0
11
37.4202
21
-14.213398
31
0
39
0
210
0
220
0
230
1
0
LINE
5
11D
100
AcDbEntity
8
SK2
62
256
6
ByLayer
370
13
48
1
60
0
100
AcDbLine
10
0
20
-12.213398
30
0
11
37.4202
21
-12.213398
31
0
39
0
210
0
220
0
230
1
0
SOLID
5
11E
100
AcDbEntity
8
SK2
62
256
6
ByLayer
370
18
48
1
60
0
100
AcDbTrace
10
0
20
-12.213398
30
0
11
3.499998
21
-11.752615
31
0
12
3.500002
22
-12.674182
32
0
13
3.500002
23
-12.674182
33
0
39
0
210
0
220
0
230
1
0
SOLID
5
11F
100
AcDbEntity
8
SK2
62
256
6
ByLayer
370
18
48
1
60
0
100
AcDbTrace
10
37.4202
20
-12.213398
30
0
11
33.920202
21
-12.674182
31
0
12
33.920198
22
-11.752615
32
0
13
33.920198
23
-11.752615
33
0
39
0
210
0
220
0
230
1
0
ENDBLK
5
121
100
AcDbEntity
8
0
100
AcDbBlockEnd
0
BLOCK
5
126
100
AcDbEntity
8
0
100
AcDbBlockBegin
2
*D3
70
1
10
0
20
0
30
0
3
*D3
0
LINE
5
128
100
AcDbEntity
8
0
62
256
6
ByLayer
370
-2
48
1
60
0
100
AcDbLine
10
-36
20
-4.5875
30
0
11
-36
21
-33.692985
31
0
39
0
210
0
220
0
230
1
0
LINE
5
129
100
AcDbEntity
8
0
62
256
6
ByLayer
370
-2
48
1
60
0
100
AcDbLine
10
38
20
-1.5875
30
0
11
38
21
-33.692985
31
0
39
0
210
0
220
0
230
1
0
LINE
5
12A
100
AcDbEntity
8
0
62
256
6
ByLayer
370
-2
48
1
60
0
100
AcDbLine
10
-32.5
20
-31.692985
30
0
11
34.5
21
-31.692985
31
0
39
0
210
0
220
0
230
1
0
SOLID
5
12B
100
AcDbEntity
8
0
62
256
6
ByLayer
370
-1
48
1
60
0
100
AcDbTrace
10
-32.5
20
-31.109652
30
0
11
-32.5
21
-32.276319
31
0
12
-36
22
-31.692985
32
0
13
-36
23
-31.692985
33
0
39
0
210
0
220
0
230
1
0
SOLID
5
12C
100
AcDbEntity
8
0
62
256
6
ByLayer
370
-1
48
1
60
0
100
AcDbTrace
10
34.5
20
-32.276319
30
0
11
34.5
21
-31.109652
31
0
12
38
22
-31.692985
32
0
13
38
23
-31.692985
33
0
39
0
210
0
220
0
230
1
0
MTEXT
5
12D
100
AcDbEntity
8
0
62
256
6
ByLayer
370
18
48
1
60
0
100
AcDbMText
10
1
20
-24.692985
30
0
210
0
220
0
230
1
1
\A1;74.00
40
3.5
41
0
44
1
50
0
71
5
72
5
7
iso_b_vert
0
POINT
5
12E
100
AcDbEntity
8
Defpoints
62
0
6
ByLayer
370
-1
48
1
60
0
100
AcDbPoint
10
-36
20
-3
30
0
39
0
210
0
220
0
230
1
50
360
0
POINT
5
12F
100
AcDbEntity
8
Defpoints
62
0
6
ByLayer
370
-1
48
1
60
0
100
AcDbPoint
10
38
20
0
30
0
39
0
210
0
220
0
230
1
50
360
0
POINT
5
130
100
AcDbEntity
8
Defpoints
62
0
6
ByLayer
370
-1
48
1
60
0
100
AcDbPoint
10
38
20
-31.692985
30
0
39
0
210
0
220
0
230
1
50
360
0
ENDBLK
5
127
100
AcDbEntity
8
0
100
AcDbBlockEnd
0
BLOCK
5
138
100
AcDbEntity
8
0
100
AcDbBlockBegin
2
_U1
70
0
10
0
20
0
30
0
3
_U1
0
MTEXT
5
132
100
AcDbEntity
8
SK2
62
256
6
ByLayer
370
13
48
1
60
0
100
AcDbMText
10
-4.321565
20
-30.660352
30
0
210
0
220
0
230
1
1
\W0.7581;74,00
40
3.5
41
0
44
1.084337
50
0
71
7
72
5
7
iso_b_vert
0
LINE
5
133
100
AcDbEntity
8
SK2
62
256
6
ByLayer
370
13
48
1
60
0
100
AcDbLine
10
-36
20
-4.5875
30
0
11
-36
21
-33.692985
31
0
39
0
210
0
220
0
230
1
0
LINE
5
134
100
AcDbEntity
8
SK2
62
256
6
ByLayer
370
13
48
1
60
0
100
AcDbLine
10
38
20
-1.5875
30
0
11
38
21
-33.692985
31
0
39
0
210
0
220
0
230
1
0
LINE
5
135
100
AcDbEntity
8
SK2
62
256
6
ByLayer
370
13
48
1
60
0
100
AcDbLine
10
-36
20
-31.692985
30
0
11
38
21
-31.692985
31
0
39
0
210
0
220
0
230
1
0
SOLID
5
136
100
AcDbEntity
8
SK2
62
256
6
ByLayer
370
18
48
1
60
0
100
AcDbTrace
10
-36
20
-31.692985
30
0
11
-32.500002
21
-31.232202
31
0
12
-32.499998
22
-32.153769
32
0
13
-32.499998
23
-32.153769
33
0
39
0
210
0
220
0
230
1
0
SOLID
5
137
100
AcDbEntity
8
SK2
62
256
6
ByLayer
370
18
48
1
60
0
100
AcDbTrace
10
38
20
-31.692985
30
0
11
34.500002
21
-32.153769
31
0
12
34.499998
22
-31.232202
32
0
13
34.499998
23
-31.232202
33
0
39
0
210
0
220
0
230
1
0
ENDBLK
5
139
100
AcDbEntity
8
0
100
AcDbBlockEnd
0
BLOCK
5
13E
100
AcDbEntity
8
0
100
AcDbBlockBegin
2
*D5
70
1
10
0
20
0
30
0
3
*D5
0
LINE
5
140
100
AcDbEntity
8
0
62
256
6
ByLayer
370
-2
48
1
60
0
100
AcDbLine
10
17.42
20
3.5875
30
0
11
17.42
21
15.609119
31
0
39
0
210
0
220
0
230
1
0
LINE
5
141
100
AcDbEntity
8
0
62
256
6
ByLayer
370
-2
48
1
60
0
100
AcDbLine
10
38
20
1.5875
30
0
11
38
21
15.609119
31
0
39
0
210
0
220
0
230
1
0
LINE
5
142
100
AcDbEntity
8
0
62
256
6
ByLayer
370
-2
48
1
60
0
100
AcDbLine
10
20.92
20
13.609119
30
0
11
34.5
21
13.609119
31
0
39
0
210
0
220
0
230
1
0
SOLID
5
143
100
AcDbEntity
8
0
62
256
6
ByLayer
370
-1
48
1
60
0
100
AcDbTrace
10
20.92
20
14.192453
30
0
11
20.92
21
13.025786
31
0
12
17.42
22
13.609119
32
0
13
17.42
23
13.609119
33
0
39
0
210
0
220
0
230
1
0
SOLID
5
144
100
AcDbEntity
8
0
62
256
6
ByLayer
370
-1
48
1
60
0
100
AcDbTrace
10
34.5
20
13.025786
30
0
11
34.5
21
14.192453
31
0
12
38
22
13.609119
32
0
13
38
23
13.609119
33
0
39
0
210
0
220
0
230
1
0
MTEXT
5
145
100
AcDbEntity
8
0
62
256
6
ByLayer
370
18
48
1
60
0
100
AcDbMText
10
27.71
20
20.609119
30
0
210
0
220
0
230
1
1
\A1;20.58
40
3.5
41
0
44
1
50
0
71
5
72
5
7
iso_b_vert
0
POINT
5
146
100
AcDbEntity
8
Defpoints
62
0
6
ByLayer
370
-1
48
1
60
0
100
AcDbPoint
10
17.42
20
2
30
0
39
0
210
0
220
0
230
1
50
360
0
POINT
5
147
100
AcDbEntity
8
Defpoints
62
0
6
ByLayer
370
-1
48
1
60
0
100
AcDbPoint
10
38
20
0
30
0
39
0
210
0
220
0
230
1
50
360
0
POINT
5
148
100
AcDbEntity
8
Defpoints
62
0
6
ByLayer
370
-1
48
1
60
0
100
AcDbPoint
10
38
20
13.609119
30
0
39
0
210
0
220
0
230
1
50
360
0
ENDBLK
5
13F
100
AcDbEntity
8
0
100
AcDbBlockEnd
0
BLOCK
5
150
100
AcDbEntity
8
0
100
AcDbBlockBegin
2
_U2
70
0
10
0
20
0
30
0
3
_U2
0
MTEXT
5
14A
100
AcDbEntity
8
SK2
62
256
6
ByLayer
370
13
48
1
60
0
100
AcDbMText
10
22.572701
20
14.641753
30
0
210
0
220
0
230
1
1
\W0.7317;20,58
40
3.5
41
0
44
1.084337
50
0
71
7
72
5
7
iso_b_vert
0
LINE
5
14B
100
AcDbEntity
8
SK2
62
256
6
ByLayer
370
13
48
1
60
0
100
AcDbLine
10
17.42
20
3.5875
30
0
11
17.42
21
15.609119
31
0
39
0
210
0
220
0
230
1
0
LINE
5
14C
100
AcDbEntity
8
SK2
62
256
6
ByLayer
370
13
48
1
60
0
100
AcDbLine
10
38
20
1.5875
30
0
11
38
21
15.609119
31
0
39
0
210
0
220
0
230
1
0
LINE
5
14D
100
AcDbEntity
8
SK2
62
256
6
ByLayer
370
13
48
1
60
0
100
AcDbLine
10
17.42
20
13.609119
30
0
11
38
21
13.609119
31
0
39
0
210
0
220
0
230
1
0
SOLID
5
14E
100
AcDbEntity
8
SK2
62
256
6
ByLayer
370
18
48
1
60
0
100
AcDbTrace
10
17.42
20
13.609119
30
0
11
20.919998
21
14.069903
31
0
12
20.920002
22
13.148335
32
0
13
20.920002
23
13.148335
33
0
39
0
210
0
220
0
230
1
0
SOLID
5
14F
100
AcDbEntity
8
SK2
62
256
6
ByLayer
370
18
48
1
60
0
100
AcDbTrace
10
38
20
13.609119
30
0
11
34.500002
21
13.148335
31
0
12
34.499998
22
14.069903
32
0
13
34.499998
23
14.069903
33
0
39
0
210
0
220
0
230
1
0
ENDBLK
5
151
100
AcDbEntity
8
0
100
AcDbBlockEnd
0
BLOCK
5
156
100
AcDbEntity
8
0
100
AcDbBlockBegin
2
*D7
70
1
10
0
20
0
30
0
3
*D7
0
LINE
5
158
100
AcDbEntity
8
0
62
256
6
ByLayer
370
-2
48
1
60
0
100
AcDbLine
10
38
20
-1.5875
30
0
11
38
21
-16.802503
31
0
39
0
210
0
220
0
230
1
0
LINE
5
159
100
AcDbEntity
8
0
62
256
6
ByLayer
370
-2
48
1
60
0
100
AcDbLine
10
37.4202
20
-3.5875
30
0
11
37.4202
21
-16.802503
31
0
39
0
210
0
220
0
230
1
0
LINE
5
15A
100
AcDbEntity
8
0
62
256
6
ByLayer
370
-2
48
1
60
0
100
AcDbLine
10
38
20
-14.802503
30
0
11
66.166667
21
-14.802503
31
0
39
0
210
0
220
0
230
1
0
LINE
5
15B
100
AcDbEntity
8
0
62
256
6
ByLayer
370
-2
48
1
60
0
100
AcDbLine
10
41.5
20
-14.802503
30
0
11
45
21
-14.802503
31
0
39
0
210
0
220
0
230
1
0
LINE
5
15C
100
AcDbEntity
8
0
62
256
6
ByLayer
370
-2
48
1
60
0
100
AcDbLine
10
33.9202
20
-14.802503
30
0
11
30.4202
21
-14.802503
31
0
39
0
210
0
220
0
230
1
0
SOLID
5
15D
100
AcDbEntity
8
0
62
256
6
ByLayer
370
-1
48
1
60
0
100
AcDbTrace
10
41.5
20
-14.21917
30
0
11
41.5
21
-15.385837
31
0
12
38
22
-14.802503
32
0
13
38
23
-14.802503
33
0
39
0
210
0
220
0
230
1
0
SOLID
5
15E
100
AcDbEntity
8
0
62
256
6
ByLayer
370
-1
48
1
60
0
100
AcDbTrace
10
33.9202
20
-15.385837
30
0
11
33.9202
21
-14.21917
31
0
12
37.4202
22
-14.802503
32
0
13
37.4202
23
-14.802503
33
0
39
0
210
0
220
0
230
1
0
MTEXT
5
15F
100
AcDbEntity
8
0
62
256
6
ByLayer
370
18
48
1
60
0
100
AcDbMText
10
55.583333
20
-7.802503
30
0
210
0
220
0
230
1
1
\A1;0.58
40
3.5
41
0
44
1
50
0
71
5
72
5
7
iso_b_vert
0
POINT
5
160
100
AcDbEntity
8
Defpoints
62
0
6
ByLayer
370
-1
48
1
60
0
100
AcDbPoint
10
38
20
0
30
0
39
0
210
0
220
0
230
1
50
360
0
POINT
5
161
100
AcDbEntity
8
Defpoints
62
0
6
ByLayer
370
-1
48
1
60
0
100
AcDbPoint
10
37.4202
20
-2
30
0
39
0
210
0
220
0
230
1
50
360
0
POINT
5
162
100
AcDbEntity
8
Defpoints
62
0
6
ByLayer
370
-1
48
1
60
0
100
AcDbPoint
10
37.4202
20
-14.802503
30
0
39
0
210
0
220
0
230
1
50
360
0
ENDBLK
5
157
100
AcDbEntity
8
0
100
AcDbBlockEnd
0
BLOCK
5
16A
100
AcDbEntity
8
0
100
AcDbBlockBegin
2
_U3
70
0
10
0
20
0
30
0
3
_U3
0
MTEXT
5
164
100
AcDbEntity
8
SK2
62
256
6
ByLayer
370
13
48
1
60
0
100
AcDbMText
10
44.15186
20
-13.76987
30
0
210
0
220
0
230
1
1
\W0.7150;0,58
40
3.5
41
0
44
1.084337
50
0
71
7
72
5
7
iso_b_vert
0
LINE
5
165
100
AcDbEntity
8
SK2
62
256
6
ByLayer
370
13
48
1
60
0
100
AcDbLine
10
38
20
-1.5875
30
0
11
38
21
-16.802503
31
0
39
0
210
0
220
0
230
1
0
LINE
5
166
100
AcDbEntity
8
SK2
62
256
6
ByLayer
370
13
48
1
60
0
100
AcDbLine
10
37.4202
20
-3.5875
30
0
11
37.4202
21
-16.802503
31
0
39
0
210
0
220
0
230
1
0
LINE
5
167
100
AcDbEntity
8
SK2
62
256
6
ByLayer
370
13
48
1
60
0
100
AcDbLine
10
28.6702
20
-14.802503
30
0
11
51.996491
21
-14.802503
31
0
39
0
210
0
220
0
230
1
0
SOLID
5
168
100
AcDbEntity
8
SK2
62
256
6
ByLayer
370
18
48
1
60
0
100
AcDbTrace
10
38
20
-14.802503
30
0
11
41.499998
21
-14.341719
31
0
12
41.500002
22
-15.263287
32
0
13
41.500002
23
-15.263287
33
0
39
0
210
0
220
0
230
1
0
SOLID
5
169
100
AcDbEntity
8
SK2
62
256
6
ByLayer
370
18
48
1
60
0
100
AcDbTrace
10
37.4202
20
-14.802503
30
0
11
33.920202
21
-15.263287
31
0
12
33.920198
22
-14.341719
32
0
13
33.920198
23
-14.341719
33
0
39
0
210
0
220
0
230
1
0
ENDBLK
5
16B
100
AcDbEntity
8
0
100
AcDbBlockEnd
0
BLOCK
5
170
100
AcDbEntity
8
0
100
AcDbBlockBegin
2
*D9
70
1
10
0
20
0
30
0
3
*D9
0
LINE
5
172
100
AcDbEntity
8
0
62
256
6
ByLayer
370
-2
48
1
60
0
100
AcDbLine
10
-36
20
-4.5875
30
0
11
-36
21
-23.343428
31
0
39
0
210
0
220
0
230
1
0
LINE
5
173
100
AcDbEntity
8
0
62
256
6
ByLayer
370
-2
48
1
60
0
100
AcDbLine
10
37.4202
20
-3.5875
30
0
11
37.4202
21
-23.343428
31
0
39
0
210
0
220
0
230
1
0
LINE
5
174
100
AcDbEntity
8
0
62
256
6
ByLayer
370
-2
48
1
60
0
100
AcDbLine
10
-32.5
20
-21.343428
30
0
11
33.9202
21
-21.343428
31
0
39
0
210
0
220
0
230
1
0
SOLID
5
175
100
AcDbEntity
8
0
62
256
6
ByLayer
370
-1
48
1
60
0
100
AcDbTrace
10
-32.5
20
-20.760095
30
0
11
-32.5
21
-21.926762
31
0
12
-36
22
-21.343428
32
0
13
-36
23
-21.343428
33
0
39
0
210
0
220
0
230
1
0
SOLID
5
176
100
AcDbEntity
8
0
62
256
6
ByLayer
370
-1
48
1
60
0
100
AcDbTrace
10
33.9202
20
-21.926762
30
0
11
33.9202
21
-20.760095
31
0
12
37.4202
22
-21.343428
32
0
13
37.4202
23
-21.343428
33
0
39
0
210
0
220
0
230
1
0
MTEXT
5
177
100
AcDbEntity
8
0
62
256
6
ByLayer
370
18
48
1
60
0
100
AcDbMText
10
0.7101
20
-14.343428
30
0
210
0
220
0
230
1
1
\A1;73.42
40
3.5
41
0
44
1
50
0
71
5
72
5
7
iso_b_vert
0
POINT
5
178
100
AcDbEntity
8
Defpoints
62
0
6
ByLayer
370
-1
48
1
60
0
100
AcDbPoint
10
-36
20
-3
30
0
39
0
210
0
220
0
230
1
50
360
0
POINT
5
179
100
AcDbEntity
8
Defpoints
62
0
6
ByLayer
370
-1
48
1
60
0
100
AcDbPoint
10
37.4202
20
-2
30
0
39
0
210
0
220
0
230
1
50
360
0
POINT
5
17A
100
AcDbEntity
8
Defpoints
62
0
6
ByLayer
370
-1
48
1
60
0
100
AcDbPoint
10
37.4202
20
-21.343428
30
0
39
0
210
0
220
0
230
1
50
360
0
ENDBLK
5
171
100
AcDbEntity
8
0
100
AcDbBlockEnd
0
BLOCK
5
182
100
AcDbEntity
8
0
100
AcDbBlockBegin
2
_U4
70
0
10
0
20
0
30
0
3
_U4
0
MTEXT
5
17C
100
AcDbEntity
8
SK2
62
256
6
ByLayer
370
13
48
1
60
0
100
AcDbMText
10
-4.611465
20
-20.310795
30
0
210
0
220
0
230
1
1
\W0.7581;73,42
40
3.5
41
0
44
1.084337
50
0
71
7
72
5
7
iso_b_vert
0
LINE
5
17D
100
AcDbEntity
8
SK2
62
256
6
ByLayer
370
13
48
1
60
0
100
AcDbLine
10
-36
20
-4.5875
30
0
11
-36
21
-23.343428
31
0
39
0
210
0
220
0
230
1
0
LINE
5
17E
100
AcDbEntity
8
SK2
62
256
6
ByLayer
370
13
48
1
60
0
100
AcDbLine
10
37.4202
20
-3.5875
30
0
11
37.4202
21
-23.343428
31
0
39
0
210
0
220
0
230
1
0
LINE
5
17F
100
AcDbEntity
8
SK2
62
256
6
ByLayer
370
13
48
1
60
0
100
AcDbLine
10
-36
20
-21.343428
30
0
11
37.4202
21
-21.343428
31
0
39
0
210
0
220
0
230
1
0
SOLID
5
180
100
AcDbEntity
8
SK2
62
256
6
ByLayer
370
18
48
1
60
0
100
AcDbTrace
10
-36
20
-21.343428
30
0
11
-32.500002
21
-20.882645
31
0
12
-32.499998
22
-21.804212
32
0
13
-32.499998
23
-21.804212
33
0
39
0
210
0
220
0
230
1
0
SOLID
5
181
100
AcDbEntity
8
SK2
62
256
6
ByLayer
370
18
48
1
60
0
100
AcDbTrace
10
37.4202
20
-21.343428
30
0
11
33.920202
21
-21.804212
31
0
12
33.920198
22
-20.882645
32
0
13
33.920198
23
-20.882645
33
0
39
0
210
0
220
0
230
1
0
ENDBLK
5
183
100
AcDbEntity
8
0
100
AcDbBlockEnd
0
ENDSEC
0
SECTION
2
ENTITIES
0
ARC
5
AC
100
AcDbEntity
8
1
62
256
6
ByLayer
370
18
48
1
60
0
100
AcDbCircle
39
0
10
1.492127
20
2.777544
30
0
40
0.8
210
0
220
0
230
1
100
AcDbArc
50
201.159467
51
270.03581
0
ARC
5
AD
100
AcDbEntity
8
1
62
256
6
ByLayer
370
18
48
1
60
0
100
AcDbCircle
39
0
10
1.492127
20
-2.777544
30
0
40
0.8
210
0
220
0
230
1
100
AcDbArc
50
89.96419
51
158.840533
0
ARC
5
AE
100
AcDbEntity
8
1
62
256
6
ByLayer
370
18
48
1
60
0
100
AcDbCircle
39
0
10
0
20
-2.2
30
0
40
0.8
210
0
220
0
230
1
100
AcDbArc
50
270
51
338.840533
0
ARC
5
AF
100
AcDbEntity
8
1
62
256
6
ByLayer
370
18
48
1
60
0
100
AcDbCircle
39
0
10
0
20
2.2
30
0
40
0.8
210
0
220
0
230
1
100
AcDbArc
50
21.159467
51
90
0
ELLIPSE
5
B0
100
AcDbEntity
8
1
62
256
6
ByLayer
370
13
48
1
60
0
100
AcDbEllipse
10
4.250299
20
-1.933758
30
0
11
-0.0115947553915032
21
0.0993255337131959
31
0
210
0
220
0
230
1
40
0.472917
41
0.986569346573262
42
1.28668463322662
0
ELLIPSE
5
B1
100
AcDbEntity
8
1
62
256
6
ByLayer
370
18
48
1
60
0
100
AcDbEllipse
10
4.25
20
-2.129353
30
0
11
-0.25
21
3.06151588455594E-17
31
0
210
0
220
0
230
1
40
0.999753
41
-1.56126887425136
42
-0.650901230655886
0
ELLIPSE
5
B2
100
AcDbEntity
8
1
62
256
6
ByLayer
370
18
48
1
60
0
100
AcDbEllipse
10
4.25
20
2.129353
30
0
11
-0.25
21
3.06151588455594E-17
31
0
210
0
220
0
230
1
40
0.999753
41
0.650430929312993
42
0.980445329837072
0
POINT
5
70
100
AcDbEntity
8
80
62
256
6
ByLayer
370
18
48
1
60
0
100
AcDbPoint
10
0
20
0
30
0
39
0
210
0
220
0
230
1
50
360
0
POINT
5
72
100
AcDbEntity
8
81
62
256
6
ByLayer
370
18
48
1
60
0
100
AcDbPoint
10
38
20
0
30
0
39
0
210
0
220
0
230
1
50
360
0
POINT
5
74
100
AcDbEntity
8
1
62
256
6
ByLayer
370
18
48
1
60
1
100
AcDbPoint
10
37.4202
20
-2
30
0
39
0
210
0
220
0
230
1
50
360
0
POINT
5
76
100
AcDbEntity
8
1
62
256
6
ByLayer
370
18
48
1
60
1
100
AcDbPoint
10
-36
20
-3
30
0
39
0
210
0
220
0
230
1
50
360
0
POINT
5
77
100
AcDbEntity
8
1
62
256
6
ByLayer
370
18
48
1
60
1
100
AcDbPoint
10
17.42
20
2
30
0
39
0
210
0
220
0
230
1
50
360
0
POINT
5
78
100
AcDbEntity
8
1
62
256
6
ByLayer
370
18
48
1
60
1
100
AcDbPoint
10
37.4202
20
-2
30
0
39
0
210
0
220
0
230
1
50
360
0
POINT
5
79
100
AcDbEntity
8
1
62
256
6
ByLayer
370
18
48
1
60
1
100
AcDbPoint
10
-36
20
-3
30
0
39
0
210
0
220
0
230
1
50
360
0
POINT
5
7A
100
AcDbEntity
8
1
62
256
6
ByLayer
370
18
48
1
60
1
100
AcDbPoint
10
37.4202
20
-2
30
0
39
0
210
0
220
0
230
1
50
360
0
SPLINE
5
B3
100
AcDbEntity
8
1
62
256
6
ByLayer
370
18
48
1
60
0
100
AcDbSpline
70
4
71
3
72
8
73
4
40
0
40
0
40
0
40
0
40
1
40
1
40
1
40
1
41
1
10
37.4225110632942
20
1.92598195640889
30
0
41
1
10
37.381220851578
20
1.9602622241502
30
0
41
1
10
37.3441176834154
20
1.98298436560449
30
0
41
1
10
37.3109553157334
20
1.99342421731058
30
0
0
SPLINE
5
B4
100
AcDbEntity
8
1
62
256
6
ByLayer
370
18
48
1
60
0
100
AcDbSpline
70
4
71
3
72
8
73
4
40
0
40
0
40
0
40
0
40
1
40
1
40
1
40
1
41
1
10
37.9654927839617
20
0.545778623487365
30
0
41
1
10
37.976754359809
20
0.395424371842097
30
0
41
1
10
37.9849287396893
20
0.245303413184359
30
0
41
1
10
37.9900199527746
20
0.0954154430379504
30
0
0
SPLINE
5
B5
100
AcDbEntity
8
1
62
256
6
ByLayer
370
18
48
1
60
0
100
AcDbSpline
70
4
71
3
72
64
73
60
40
0
40
0
40
0
40
0
40
0.0212476841478203
40
0.0212476841478203
40
0.0563133280608489
40
0.0563133280608489
40
0.0913789719738774
40
0.0913789719738774
40
0.126444615886906
40
0.126444615886906
40
0.161510259799934
40
0.161510259799934
40
0.196575903712963
40
0.196575903712963
40
0.231641547625992
40
0.231641547625992
40
0.26670719153902
40
0.26670719153902
40
0.301772835452049
40
0.301772835452049
40
0.336838479365077
40
0.336838479365077
40
0.371904123278106
40
0.371904123278106
40
0.406969767191134
40
0.406969767191134
40
0.442035411104163
40
0.442035411104163
40
0.477101055017191
40
0.477101055017191
40
0.51216669893022
40
0.51216669893022
40
0.547232342843249
40
0.547232342843249
40
0.582297986756277
40
0.582297986756277
40
0.617363630669306
40
0.617363630669306
40
0.652429274582334
40
0.652429274582334
40
0.687494918495363
40
0.687494918495363
40
0.722560562408391
40
0.722560562408391
40
0.75762620632142
40
0.75762620632142
40
0.792691850234448
40
0.792691850234448
40
0.827757494147477
40
0.827757494147477
40
0.862823138060505
40
0.862823138060505
40
0.897888781973534
40
0.897888781973534
40
0.932954425886563
40
0.932954425886563
40
0.968020069799591
40
0.968020069799591
40
1
40
1
40
1
40
1
41
1
10
11.2829633516607
20
1.45998434779361
30
0
41
1
10
11.3816310963942
20
1.49702753325349
30
0
41
1
10
11.4803277331919
20
1.53223442367008
30
0
41
1
10
11.7417360795311
20
1.62077323982356
30
0
41
1
10
11.904135492225
20
1.6713683935518
30
0
41
1
10
12.2288493707829
20
1.76245795781867
30
0
41
1
10
12.3922231089835
20
1.80231642769911
30
0
41
1
10
12.7181763731715
20
1.87055313628275
30
0
41
1
10
12.880567177929
20
1.89917005924102
30
0
41
1
10
13.204984080916
20
1.94461466810691
30
0
41
1
10
13.3677609373895
20
1.9611470377877
30
0
41
1
10
13.6941297348999
20
1.98220596916187
30
0
41
1
10
13.8568359128766
20
1.9867019062637
30
0
41
1
10
14.1813074713389
20
1.98322685319329
30
0
41
1
10
14.3439440350597
20
1.9753494627661
30
0
41
1
10
14.6696321317851
20
1.94760428968112
30
0
41
1
10
14.8326398047553
20
1.92752286705331
30
0
41
1
10
15.1575618110739
20
1.87531493443794
30
0
41
1
10
15.3202465223616
20
1.84362807289344
30
0
41
1
10
15.6456227168224
20
1.76919289229755
30
0
41
1
10
15.8079659672427
20
1.72611794360492
30
0
41
1
10
16.133249744422
20
1.62893703520399
30
0
41
1
10
16.2963487312098
20
1.57566353069623
30
0
41
1
10
16.6217926899607
20
1.45995105422534
30
0
41
1
10
16.7839637328615
20
1.39698087348813
30
0
41
1
10
17.1086220618741
20
1.26232970456115
30
0
41
1
10
17.2720050340974
20
1.19138357009925
30
0
41
1
10
17.5978774735425
20
1.04273079192552
30
0
41
1
10
17.7600502443004
20
0.964415818335226
30
0
41
1
10
18.0844433516419
20
0.802148022444811
30
0
41
1
10
18.247224328099
20
0.719146489842643
30
0
41
1
10
18.5733674953398
20
0.548528573568632
30
0
41
1
10
18.7359396210209
20
0.460439033065825
30
0
41
1
10
19.0604474892289
20
0.282401337639954
30
0
41
1
10
19.2231017355453
20
0.193272217734517
30
0
41
1
10
19.5485938296601
20
0.013724891710325
30
0
41
1
10
19.7113436278003
20
-0.077576843383639
30
0
41
1
10
20.0363288269529
20
-0.258481434754287
30
0
41
1
10
20.1990379524424
20
-0.347259206846417
30
0
41
1
10
20.5242556764722
20
-0.522675173206977
30
0
41
1
10
20.6863644318783
20
-0.609995831656789
30
0
41
1
10
21.0116039341311
20
-0.78026763294497
30
0
41
1
10
21.1747822524646
20
-0.862350620669901
30
0
41
1
10
21.500091937345
20
-1.02089367969157
30
0
41
1
10
21.6620391520966
20
-1.09807180881995
30
0
41
1
10
21.9866800080679
20
-1.24477427788412
30
0
41
1
10
22.1500282946303
20
-1.31394484364625
30
0
41
1
10
22.4757971707307
20
-1.44402720354114
30
0
41
1
10
22.637776120095
20
-1.50541070333719
30
0
41
1
10
22.9622007946262
20
-1.61793199944319
30
0
41
1
10
23.1249579103691
20
-1.66881533534024
30
0
41
1
10
23.4508713407119
20
-1.7606646903742
30
0
41
1
10
23.6132954373297
20
-1.80181065153025
30
0
41
1
10
23.9378491905934
20
-1.87200302728152
30
0
41
1
10
24.1004871933924
20
-1.9010548369663
30
0
41
1
10
24.4257821605053
20
-1.94770072398296
30
0
41
1
10
24.5883077003053
20
-1.96538453686657
30
0
41
1
10
24.8990779443265
20
-1.98707622527476
30
0
41
1
10
25.0474519291056
20
-1.99223936575288
30
0
41
1
10
25.1956975497696
20
-1.99235937576824
30
0
0
SPLINE
5
B6
100
AcDbEntity
8
1
62
256
6
ByLayer
370
18
48
1
60
0
100
AcDbSpline
70
4
71
3
72
22
73
18
40
0
40
0
40
0
40
0
40
0.0619137129133601
40
0.0619137129133601
40
0.195926039640023
40
0.195926039640023
40
0.329938366366686
40
0.329938366366686
40
0.463950693093349
40
0.463950693093349
40
0.597963019820011
40
0.597963019820011
40
0.731975346546674
40
0.731975346546674
40
0.865987673273337
40
0.865987673273337
40
1
40
1
40
1
40
1
41
1
10
33.7872205525843
20
1.47183297943786
30
0
41
1
10
33.8622838824708
20
1.50001250709226
30
0
41
1
10
33.9373571653815
20
1.52722126289521
30
0
41
1
10
34.1748412547606
20
1.61040533993662
30
0
41
1
10
34.3370167120742
20
1.66340119364514
30
0
41
1
10
34.6622059205458
20
1.75740850106766
30
0
41
1
10
34.8248542577977
20
1.79868436544712
30
0
41
1
10
35.1495189379803
20
1.87053704210339
30
0
41
1
10
35.3111294959685
20
1.90124958779793
30
0
41
1
10
35.6362718996671
20
1.95008222695392
30
0
41
1
10
35.799466819365
20
1.96841429140031
30
0
41
1
10
36.1242603457122
20
1.99306430513747
30
0
41
1
10
36.2857505462305
20
1.99935873170338
30
0
41
1
10
36.6103011479832
20
1.99942237503961
30
0
41
1
10
36.7733576132543
20
1.99333982764418
30
0
41
1
10
37.0987610924645
20
1.9688767036715
30
0
41
1
10
37.2603401944341
20
1.95028192522702
30
0
41
1
10
37.4225110632941
20
1.92598195640889
30
0
0
SPLINE
5
B7
100
AcDbEntity
8
1
62
256
6
ByLayer
370
18
48
1
60
0
100
AcDbSpline
70
4
71
3
72
10
73
6
40
0
40
0
40
0
40
0
40
0.953307807334808
40
0.953307807334808
40
1
40
1
40
1
40
1
41
1
10
4.05039077807123
20
1.94840896657053
30
0
41
1
10
4.05045620636901
20
1.97056414103145
30
0
41
1
10
4.05051403787616
20
1.98078297765383
30
0
41
1
10
4.05056922480051
20
1.97884057835685
30
0
41
1
10
4.05057178638802
20
1.97872082319753
30
0
41
1
10
4.0505743330296
20
1.97857207774078
30
0
0
SPLINE
5
B8
100
AcDbEntity
8
1
62
256
6
ByLayer
370
18
48
1
60
0
100
AcDbSpline
70
4
71
3
72
8
73
4
40
0
40
0
40
0
40
0
40
1
40
1
40
1
40
1
41
1
10
37.9900199527746
20
-0.0954154430378651
30
0
41
1
10
37.9906202072548
20
-0.0777436378907908
30
0
41
1
10
37.9944477377525
20
-0.0554488259474795
30
0
41
1
10
37.9999513538622
20
-0.0321429135541678
30
0
0
SPLINE
5
B9
100
AcDbEntity
8
1
62
256
6
ByLayer
370
18
48
1
60
0
100
AcDbSpline
70
4
71
3
72
8
73
4
40
0
40
0
40
0
40
0
40
1
40
1
40
1
40
1
41
1
10
4.17965041213802
20
-1.91589341244577
30
0
41
1
10
4.16010067120882
20
-1.91859329342279
30
0
41
1
10
4.14053466533881
20
-1.92121027702845
30
0
41
1
10
4.12197874960884
20
-1.92412428654544
30
0
0
SPLINE
5
BA
100
AcDbEntity
8
1
62
256
6
ByLayer
370
13
48
1
60
0
100
AcDbSpline
70
4
71
3
72
8
73
4
40
0
40
0
40
0
40
0
40
1
40
1
40
1
40
1
41
1
10
4.20195937896816
20
-1.91117968319554
30
0
41
1
10
4.25541938773438
20
-1.90365628926787
30
0
41
1
10
4.30883245020345
20
-1.89549298176783
30
0
41
1
10
4.3622098031646
20
-1.88670065896952
30
0
0
SPLINE
5
BB
100
AcDbEntity
8
1
62
256
6
ByLayer
370
18
48
1
60
0
100
AcDbSpline
70
4
71
3
72
34
73
30
40
0
40
0
40
0
40
0
40
0.0302384487079708
40
0.0302384487079708
40
0.0853166259645046
40
0.0853166259645046
40
0.140394803221039
40
0.140394803221039
40
0.250551157734107
40
0.250551157734107
40
0.360707512247175
40
0.360707512247175
40
0.470863866760243
40
0.470863866760243
40
0.525942044016778
40
0.525942044016778
40
0.581020221273313
40
0.581020221273313
40
0.691176575786382
40
0.691176575786382
40
0.746254753042916
40
0.746254753042916
40
0.80133293029945
40
0.80133293029945
40
0.911489284812516
40
0.911489284812516
40
0.96656746206905
40
0.96656746206905
40
1
40
1
40
1
40
1
41
1
10
17.3822977912218
20
1.38496604794742
30
0
41
1
10
17.4765537867382
20
1.34754192363593
30
0
41
1
10
17.5709112044742
20
1.3086312741747
30
0
41
1
10
17.8376181832727
20
1.19487806285005
30
0
41
1
10
18.0103869169835
20
1.11686259471995
30
0
41
1
10
18.3579735775421
20
0.952562138009085
30
0
41
1
10
18.5310466316232
20
0.866987981568826
30
0
41
1
10
19.0477851025594
20
0.603159740759537
30
0
41
1
10
19.3900401250849
20
0.418103961575809
30
0
41
1
10
20.0757990776275
20
0.0398996058460455
30
0
41
1
10
20.4201033144504
20
-0.152839807264343
30
0
41
1
10
21.1148734759311
20
-0.533078578193368
30
0
41
1
10
21.4592397320382
20
-0.716385745566328
30
0
41
1
10
21.9759504776154
20
-0.973375072965581
30
0
41
1
10
22.14828421729
20
-1.05594473978076
30
0
41
1
10
22.493881843272
20
-1.21360064184745
30
0
41
1
10
22.667509845441
20
-1.2888679162547
30
0
41
1
10
23.1882245348844
20
-1.50044693589842
30
0
41
1
10
23.5338321812142
20
-1.6214925454812
30
0
41
1
10
24.0547175149916
20
-1.76765787639607
30
0
41
1
10
24.2281844847258
20
-1.81022600049977
30
0
41
1
10
24.5729895866329
20
-1.88196028660724
30
0
41
1
10
24.7447100215909
20
-1.91128228451086
30
0
41
1
10
25.2591236406175
20
-1.97932294035968
30
0
41
1
10
25.6012383098987
20
-1.99787175185438
30
0
41
1
10
26.1176961508296
20
-1.98427294349145
30
0
41
1
10
26.2905205809647
20
-1.97286797491898
30
0
41
1
10
26.5697412548164
20
-1.94317415151815
30
0
41
1
10
26.6748256382838
20
-1.92944973112512
30
0
41
1
10
26.7796242582573
20
-1.91331212652756
30
0
0
SPLINE
5
BC
100
AcDbEntity
8
1
62
256
6
ByLayer
370
18
48
1
60
0
100
AcDbSpline
70
4
71
3
72
16
73
12
40
0
40
0
40
0
40
0
40
0.007296334006986
40
0.007296334006986
40
0.436485197957173
40
0.436485197957173
40
0.651079629932264
40
0.651079629932264
40
0.865674061907354
40
0.865674061907354
40
1
40
1
40
1
40
1
41
1
10
25.9836889844343
20
-1.89312162864144
30
0
41
1
10
25.9778429182971
20
-1.89312303008904
30
0
41
1
10
25.9719975312649
20
-1.89311694812778
30
0
41
1
10
25.6223515217855
20
-1.8923061387425
30
0
41
1
10
25.2804537565267
20
-1.86534314021213
30
0
41
1
10
24.7663970602076
20
-1.78719174163646
30
0
41
1
10
24.5947977843832
20
-1.75492837273356
30
0
41
1
10
24.2502771311065
20
-1.67819370452159
30
0
41
1
10
24.0769391828868
20
-1.63356032942468
30
0
41
1
10
23.7951960285904
20
-1.55188458696148
30
0
41
1
10
23.6868681764802
20
-1.51832372421487
30
0
41
1
10
23.578589416345
20
-1.4827563454547
30
0
0
SPLINE
5
BD
100
AcDbEntity
8
1
62
256
6
ByLayer
370
13
48
1
60
0
100
AcDbSpline
70
4
71
3
72
22
73
18
40
0
40
0
40
0
40
0
40
0.112765114427836
40
0.112765114427836
40
0.194832962051832
40
0.194832962051832
40
0.276900809675828
40
0.276900809675828
40
0.441036504923818
40
0.441036504923818
40
0.7693078954198
40
0.7693078954198
40
0.851375743043797
40
0.851375743043797
40
0.933443590667793
40
0.933443590667793
40
1
40
1
40
1
40
1
41
1
10
23.5785894165809
20
-1.48275634553218
30
0
41
1
10
23.34090343809
20
-1.40468131759778
30
0
41
1
10
23.1034540140277
20
-1.31693769826157
30
0
41
1
10
22.6920061088497
20
-1.15066250561893
30
0
41
1
10
22.518796286002
20
-1.07643846075004
30
0
41
1
10
22.1737508689641
20
-0.921728898513919
30
0
41
1
10
22.001630591946
20
-0.841101218298206
30
0
41
1
10
21.485543810613
20
-0.591198430475259
30
0
41
1
10
21.1414568183481
20
-0.414486211432177
30
0
41
1
10
20.1008315407975
20
0.131145444156687
30
0
41
1
10
19.4210533982327
20
0.498738837987446
30
0
41
1
10
18.5606209429824
20
0.907152105812258
30
0
41
1
10
18.387646241009
20
0.986300740117457
30
0
41
1
10
18.0408027271734
20
1.137234989266
30
0
41
1
10
17.8683143113948
20
1.20858955618667
30
0
41
1
10
17.5569166053588
20
1.32958677670212
30
0
41
1
10
17.4177922257076
20
1.38070998324048
30
0
41
1
10
17.2787962365842
20
1.42854369996604
30
0
0
SPLINE
5
BE
100
AcDbEntity
8
1
62
256
6
ByLayer
370
18
48
1
60
0
100
AcDbSpline
70
4
71
3
72
24
73
20
40
0
40
0
40
0
40
0
40
0.0596572601666339
40
0.0596572601666339
40
0.223775271404423
40
0.223775271404423
40
0.305834277023318
40
0.305834277023318
40
0.387893282642212
40
0.387893282642212
40
0.552011293879999
40
0.552011293879999
40
0.63407029949889
40
0.63407029949889
40
0.716129305117782
40
0.716129305117782
40
0.880247316355567
40
0.880247316355567
40
1
40
1
40
1
40
1
41
1
10
5.90320222684622
20
1.46784430068266
30
0
41
1
10
6.02917248704949
20
1.42124331695717
30
0
41
1
10
6.15471613316134
20
1.3721125956184
30
0
41
1
10
6.62458749024154
20
1.17914740574909
30
0
41
1
10
6.96697937792067
20
1.02004390759498
30
0
41
1
10
7.48222361895205
20
0.762881913231354
30
0
41
1
10
7.6542557351448
20
0.674096921444345
30
0
41
1
10
7.99968472895588
20
0.491652757171579
30
0
41
1
10
8.17356778277536
20
0.397723146602686
30
0
41
1
10
8.69475368414388
20
0.112866976787728
30
0
41
1
10
9.04053958576262
20
-0.0805967384061432
30
0
41
1
10
9.56214922641681
20
-0.366253292459959
30
0
41
1
10
9.73563604597433
20
-0.46034033004571
30
0
41
1
10
10.080631537313
20
-0.643787037240429
30
0
41
1
10
10.252512343406
20
-0.733231540025201
30
0
41
1
10
10.7675629844701
20
-0.992631470142868
30
0
41
1
10
11.1098879433442
20
-1.15407589653128
30
0
41
1
10
11.7063525973125
20
-1.40358163597614
30
0
41
1
10
11.9599172773407
20
-1.49999040043039
30
0
41
1
10
12.2133199306101
20
-1.58446358063816
30
0
0
SPLINE
5
BF
100
AcDbEntity
8
1
62
256
6
ByLayer
370
13
48
1
60
0
100
AcDbSpline
70
4
71
3
72
18
73
14
40
0
40
0
40
0
40
0
40
0.0824333309179463
40
0.0824333309179463
40
0.234903684062221
40
0.234903684062221
40
0.387374037206496
40
0.387374037206496
40
0.692314743495044
40
0.692314743495044
40
0.997255449783593
40
0.997255449783593
40
1
40
1
40
1
40
1
41
1
10
12.2133199306327
20
-1.58446358064563
30
0
41
1
10
12.3071991772791
20
-1.61575874830606
30
0
41
1
10
12.4010561855212
20
-1.64541573996849
30
0
41
1
10
12.668144739262
20
-1.72481117016207
30
0
41
1
10
12.8414240230301
20
-1.77047232316153
30
0
41
1
10
13.1886238761312
20
-1.84921660799822
30
0
41
1
10
13.3626466247753
20
-1.88224596168217
30
0
41
1
10
13.8810471057546
20
-1.96060103257955
30
0
41
1
10
14.223589500775
20
-1.98573947448296
30
0
41
1
10
14.9097173888041
20
-1.98143962484241
30
0
41
1
10
15.2530455449035
20
-1.95187670693724
30
0
41
1
10
15.6032330133905
20
-1.89449236128471
30
0
41
1
10
15.6063567443534
20
-1.89397833286944
30
0
41
1
10
15.6094805285208
20
-1.89346214759158
30
0
0
SPLINE
5
C0
100
AcDbEntity
8
1
62
256
6
ByLayer
370
18
48
1
60
0
100
AcDbSpline
70
4
71
3
72
20
73
16
40
0
40
0
40
0
40
0
40
0.173233357529825
40
0.173233357529825
40
0.28116636400297
40
0.28116636400297
40
0.389099370476114
40
0.389099370476114
40
0.604965383422396
40
0.604965383422396
40
0.712898389895534
40
0.712898389895534
40
0.820831396368672
40
0.820831396368672
40
1
40
1
40
1
40
1
41
1
10
29.2520320190353
20
1.12368533402994
30
0
41
1
10
29.5301768337389
20
0.995934539536506
30
0
41
1
10
29.8076593663807
20
0.858406494723681
30
0
41
1
10
30.2595035540324
20
0.623293213203681
30
0
41
1
10
30.4330010704725
20
0.530530162647977
30
0
41
1
10
30.777822320894
20
0.343322492969151
30
0
41
1
10
30.9496408972454
20
0.248716407981902
30
0
41
1
10
31.4642243337964
20
-0.0364545574821591
30
0
41
1
10
31.8060640518431
20
-0.228469527298302
30
0
41
1
10
32.3219393496616
20
-0.51028881508671
30
0
41
1
10
32.4945581739086
20
-0.602937336759567
30
0
41
1
10
32.8418413376245
20
-0.784322311737469
30
0
41
1
10
33.014700431107
20
-0.872146800685385
30
0
41
1
10
33.4724946875476
20
-1.09613406919044
30
0
41
1
10
33.7565434953022
20
-1.22601108472622
30
0
41
1
10
34.0408039711122
20
-1.34333341358987
30
0
0
SPLINE
5
C1
100
AcDbEntity
8
1
62
256
6
ByLayer
370
13
48
1
60
0
100
AcDbSpline
70
4
71
3
72
16
73
12
40
0
40
0
40
0
40
0
40
0.0536282875026242
40
0.0536282875026242
40
0.211356906252187
40
0.211356906252187
40
0.36908552500175
40
0.36908552500175
40
0.684542762500876
40
0.684542762500876
40
1
40
1
40
1
40
1
41
1
10
34.0408030471386
20
-1.3433330322398
30
0
41
1
10
34.0990257378721
20
-1.36736318713594
30
0
41
1
10
34.1572573083974
20
-1.39086664924866
30
0
41
1
10
34.3868542034634
20
-1.48133170009711
30
0
41
1
10
34.558405417101
20
-1.54409332417208
30
0
41
1
10
34.9027932359593
20
-1.65891801232658
30
0
41
1
10
35.0760189294159
20
-1.71109200246042
30
0
41
1
10
35.596252526004
20
-1.84919648204379
30
0
41
1
10
35.9392535416415
20
-1.91551418637536
30
0
41
1
10
36.6246480543645
20
-1.99441938729157
30
0
41
1
10
36.9669810928581
20
-2.00695636694093
30
0
41
1
10
37.3117251681426
20
-1.99151529061646
30
0
0
SPLINE
5
C2
100
AcDbEntity
8
1
62
256
6
ByLayer
370
18
48
1
60
0
100
AcDbSpline
70
4
71
3
72
8
73
4
40
0
40
0
40
0
40
0
40
1
40
1
40
1
40
1
41
1
10
4.17965041215456
20
1.91589341244108
30
0
41
1
10
4.16010067121431
20
1.91859329341966
30
0
41
1
10
4.14053466534929
20
1.92121027702683
30
0
41
1
10
4.12197874960884
20
1.92412428654544
30
0
0
SPLINE
5
C3
100
AcDbEntity
8
1
62
256
6
ByLayer
370
18
48
1
60
0
100
AcDbSpline
70
4
71
3
72
8
73
4
40
0
40
0
40
0
40
0
40
1
40
1
40
1
40
1
41
1
10
37.9999513538574
20
0.0321429135741482
30
0
41
1
10
38.0000162241765
20
0.0107113984130933
30
0
41
1
10
38.0000162057388
20
-0.0107174897633513
30
0
41
1
10
37.9999513538576
20
-0.0321429135395306
30
0
0
SPLINE
5
C4
100
AcDbEntity
8
1
62
256
6
ByLayer
370
18
48
1
60
0
100
AcDbSpline
70
4
71
3
72
8
73
4
40
0
40
0
40
0
40
0
40
1
40
1
40
1
40
1
41
1
10
37.3200095095146
20
-1.89933853067268
30
0
41
1
10
37.0615401349458
20
-1.90283828411782
30
0
41
1
10
36.8042867788815
20
-1.89133906140933
30
0
41
1
10
36.5471914894591
20
-1.86543596777068
30
0
0
SPLINE
5
C5
100
AcDbEntity
8
1
62
256
6
ByLayer
370
13
48
1
60
0
100
AcDbSpline
70
4
71
3
72
28
73
24
40
0
40
0
40
0
40
0
40
0.0321802572778085
40
0.0321802572778085
40
0.161159486676565
40
0.161159486676565
40
0.290138716075321
40
0.290138716075321
40
0.419117945474077
40
0.419117945474077
40
0.483607560173456
40
0.483607560173456
40
0.548097174872834
40
0.548097174872834
40
0.67707640427159
40
0.67707640427159
40
0.741566018970969
40
0.741566018970969
40
0.806055633670347
40
0.806055633670347
40
0.935034863069107
40
0.935034863069107
40
1
40
1
40
1
40
1
41
1
10
36.5471917346667
20
-1.86543599247605
30
0
41
1
10
36.4617219228474
20
-1.85682466490113
30
0
41
1
10
36.3762695804448
20
-1.84662143475899
30
0
41
1
10
35.9482150583949
20
-1.78766063271124
30
0
41
1
10
35.6053174260864
20
-1.71523346863276
30
0
41
1
10
34.9122896571708
20
-1.52285579793005
30
0
41
1
10
34.568952280795
20
-1.40481189091906
30
0
41
1
10
33.8842272719691
20
-1.13471984987302
30
0
41
1
10
33.542589405259
20
-0.982567579566137
30
0
41
1
10
33.026615699228
20
-0.735796542384236
30
0
41
1
10
32.8536964158441
20
-0.650289996114623
30
0
41
1
10
32.5072901237145
20
-0.475035804824444
30
0
41
1
10
32.3349879406047
20
-0.385882132051762
30
0
41
1
10
31.8198012918427
20
-0.115718195974267
30
0
41
1
10
31.478199146363
20
0.0671362389516617
30
0
41
1
10
30.9639861289015
20
0.33669324868427
30
0
41
1
10
30.7923012845323
20
0.425798573246652
30
0
41
1
10
30.4477256594281
20
0.601272681205018
30
0
41
1
10
30.2743311268948
20
0.687771050180942
30
0
41
1
10
29.7549581975923
20
0.939070927229011
30
0
41
1
10
29.409931607765
20
1.09468173982282
30
0
41
1
10
28.8887179146578
20
1.30399338165094
30
0
41
1
10
28.7148115363376
20
1.36931008453553
30
0
41
1
10
28.5414299637575
20
1.42941888572324
30
0
0
SPLINE
5
C6
100
AcDbEntity
8
1
62
256
6
ByLayer
370
18
48
1
60
0
100
AcDbSpline
70
4
71
3
72
16
73
12
40
0
40
0
40
0
40
0
40
0.0532280404290896
40
0.0532280404290896
40
0.470702895006278
40
0.470702895006278
40
0.679440322294873
40
0.679440322294873
40
0.888177749583468
40
0.888177749583468
40
1
40
1
40
1
40
1
41
1
10
14.7321048178015
20
-1.88587156116228
30
0
41
1
10
14.6883889437198
20
-1.88586885011736
30
0
41
1
10
14.6446837975124
20
-1.88544309088272
30
0
41
1
10
14.2582318246674
20
-1.8779389737403
30
0
41
1
10
13.9158552917447
20
-1.84544024147488
30
0
41
1
10
13.3980944011085
20
-1.75853775222961
30
0
41
1
10
13.2243666890974
20
-1.7230776272776
30
0
41
1
10
12.8777600335821
20
-1.64054456623651
30
0
41
1
10
12.7047676022749
20
-1.59345055142396
30
0
41
1
10
12.4389790921116
20
-1.51280030976338
30
0
41
1
10
12.3461420781535
20
-1.48305640254338
30
0
41
1
10
12.2532832107655
20
-1.45184666791818
30
0
0
SPLINE
5
C7
100
AcDbEntity
8
1
62
256
6
ByLayer
370
13
48
1
60
0
100
AcDbSpline
70
4
71
3
72
26
73
22
40
0
40
0
40
0
40
0
40
0.11623776626486
40
0.11623776626486
40
0.275000832290152
40
0.275000832290152
40
0.354382365302799
40
0.354382365302799
40
0.433763898315445
40
0.433763898315445
40
0.592526964340737
40
0.592526964340737
40
0.671908497353384
40
0.671908497353384
40
0.75129003036603
40
0.75129003036603
40
0.910053096391325
40
0.910053096391325
40
0.989434629403972
40
0.989434629403972
40
1
40
1
40
1
40
1
41
1
10
12.25328321065
20
-1.45184666787935
30
0
41
1
10
11.9994647216951
20
-1.36653863100165
30
0
41
1
10
11.7454829578688
20
-1.27027886783327
30
0
41
1
10
11.148996753371
20
-1.02361438190243
30
0
41
1
10
10.8068586492804
20
-0.865917154529768
30
0
41
1
10
10.2922688291878
20
-0.61451677297282
30
0
41
1
10
10.1205308893316
20
-0.528194655842213
30
0
41
1
10
9.77589582055538
20
-0.351900124234476
30
0
41
1
10
9.60266073203428
20
-0.26178090894166
30
0
41
1
10
9.08207264562964
20
0.0107378390165707
30
0
41
1
10
8.7367333675391
20
0.194038938821507
30
0
41
1
10
8.21645781754455
20
0.462175265425856
30
0
41
1
10
8.0429068349921
20
0.550220871708689
30
0
41
1
10
7.6979446264184
20
0.720764079983326
30
0
41
1
10
7.52610075166015
20
0.803510667534766
30
0
41
1
10
7.01134163454486
20
1.04224125764907
30
0
41
1
10
6.6691563811695
20
1.18863547670793
30
0
41
1
10
6.15281283152873
20
1.38177820231982
30
0
41
1
10
5.98018241871586
20
1.4417185113378
30
0
41
1
10
5.78365147524877
20
1.50414448852268
30
0
41
1
10
5.76056751403905
20
1.5113838592948
30
0
41
1
10
5.73748576399478
20
1.51852830974113
30
0
0
SPLINE
5
C8
100
AcDbEntity
8
1
62
256
6
ByLayer
370
18
48
1
60
0
100
AcDbSpline
70
4
71
3
72
66
73
62
40
0
40
0
40
0
40
0
40
0.0115750570166277
40
0.0115750570166277
40
0.0780886286423783
40
0.0780886286423783
40
0.111345414455252
40
0.111345414455252
40
0.144602200268127
40
0.144602200268127
40
0.177858986081001
40
0.177858986081001
40
0.211115771893875
40
0.211115771893875
40
0.244372557706749
40
0.244372557706749
40
0.277629343519623
40
0.277629343519623
40
0.310886129332497
40
0.310886129332497
40
0.344142915145371
40
0.344142915145371
40
0.377399700958245
40
0.377399700958245
40
0.410656486771119
40
0.410656486771119
40
0.443913272583991
40
0.443913272583991
40
0.477170058396863
40
0.477170058396863
40
0.510426844209734
40
0.510426844209734
40
0.543683630022606
40
0.543683630022606
40
0.576940415835478
40
0.576940415835478
40
0.61019720164835
40
0.61019720164835
40
0.643453987461221
40
0.643453987461221
40
0.676710773274093
40
0.676710773274093
40
0.709967559086965
40
0.709967559086965
40
0.743224344899836
40
0.743224344899836
40
0.776481130712708
40
0.776481130712708
40
0.80973791652558
40
0.80973791652558
40
0.842994702338452
40
0.842994702338452
40
0.876251488151323
40
0.876251488151323
40
0.909508273964195
40
0.909508273964195
40
0.942765059777067
40
0.942765059777067
40
0.976021845589938
40
0.976021845589938
40
1
40
1
40
1
40
1
41
1
10
33.7869892237271
20
-1.45920854194793
30
0
41
1
10
33.7339465542158
20
-1.47721990480198
30
0
41
1
10
33.6808679472679
20
-1.49475329873027
30
0
41
1
10
33.3225262155045
20
-1.60962673990684
30
0
41
1
10
33.0194544819929
20
-1.69109371654588
30
0
41
1
10
32.5626204113227
20
-1.78324251346225
30
0
41
1
10
32.4099417815144
20
-1.80857044375926
30
0
41
1
10
32.1052544513663
20
-1.84963037986876
30
0
41
1
10
31.9530317738292
20
-1.86550418145859
30
0
41
1
10
31.6484527876212
20
-1.88805968650948
30
0
41
1
10
31.4962297480484
20
-1.89466138596094
30
0
41
1
10
31.1916932332522
20
-1.8975820615137
30
0
41
1
10
31.039104206004
20
-1.89389855732921
30
0
41
1
10
30.7345574026088
20
-1.87579539495613
30
0
41
1
10
30.5824255283108
20
-1.86119100013201
30
0
41
1
10
30.2782526952711
20
-1.82019277817133
30
0
41
1
10
30.1260637551525
20
-1.79500924904082
30
0
41
1
10
29.8209045575642
20
-1.73687749560872
30
0
41
1
10
29.6684796432827
20
-1.70347242287693
30
0
41
1
10
29.3643944745156
20
-1.62600805654839
30
0
41
1
10
29.2125017939128
20
-1.58235603824645
30
0
41
1
10
28.9081579164122
20
-1.4884598878223
30
0
41
1
10
28.755455776347
20
-1.43766747602908
30
0
41
1
10
28.4508155454115
20
-1.32715219920891
30
0
41
1
10
28.2989199118776
20
-1.26723309865687
30
0
41
1
10
27.9948081563351
20
-1.14294628143409
30
0
41
1
10
27.842651785815
20
-1.07826577990727
30
0
41
1
10
27.5381291016308
20
-0.94219225043966
30
0
41
1
10
27.3856753417194
20
-0.870470743159729
30
0
41
1
10
27.0812215720067
20
-0.723960193799428
30
0
41
1
10
26.9290472670844
20
-0.649331148547503
30
0
41
1
10
26.6248005818781
20
-0.496356292658589
30
0
41
1
10
26.4728829328471
20
-0.417708374817352
30
0
41
1
10
26.1678747005668
20
-0.258684185665857
30
0
41
1
10
26.015251785918
20
-0.178671969977927
30
0
41
1
10
25.7106370998814
20
-0.0182230972115178
30
0
41
1
10
25.5587150303494
20
0.0626882031575633
30
0
41
1
10
25.2543488249253
20
0.223415595271945
30
0
41
1
10
25.1016135961924
20
0.30310252116152
30
0
41
1
10
24.7963575532061
20
0.460785332648754
30
0
41
1
10
24.6442257034482
20
0.53884401695899
30
0
41
1
10
24.3401164473986
20
0.691323784450361
30
0
41
1
10
24.1878868247084
20
0.765151594376903
30
0
41
1
10
23.8829401698907
20
0.909153283907472
30
0
41
1
10
23.7302098750856
20
0.979599673509341
30
0
41
1
10
23.4258466677582
20
1.11420249505048
30
0
41
1
10
23.2737916022879
20
1.17797722051111
30
0
41
1
10
22.969284332335
20
1.29850860632706
30
0
41
1
10
22.817024977006
20
1.35610253981525
30
0
41
1
10
22.5123174786597
20
1.46406481697394
30
0
41
1
10
22.359888928103
20
1.51399615324237
30
0
41
1
10
22.0553568906045
20
1.6039950401526
30
0
41
1
10
21.9031288151854
20
1.64514672590775
30
0
41
1
10
21.5990075016654
20
1.71933872897259
30
0
41
1
10
21.4467302270389
20
1.75170464921592
30
0
41
1
10
21.141539315446
20
1.80557834044083
30
0
41
1
10
20.9890783096861
20
1.82735439978373
30
0
41
1
10
20.6848343151461
20
1.86302685955224
30
0
41
1
10
20.5329563274021
20
1.8759941898565
30
0
41
1
10
20.2707727498603
20
1.88822598921752
30
0
41
1
10
20.1605824232477
20
1.89034648986757
30
0
41
1
10
20.0505018642357
20
1.89006396416343
30
0
0
SPLINE
5
C9
100
AcDbEntity
8
1
62
256
6
ByLayer
370
18
48
1
60
0
100
AcDbSpline
70
4
71
3
72
30
73
26
40
0
40
0
40
0
40
0
40
0.0046147250091868
40
0.0046147250091868
40
0.0951042954628971
40
0.0951042954628971
40
0.185593865916607
40
0.185593865916607
40
0.276083436370318
40
0.276083436370318
40
0.366573006824028
40
0.366573006824028
40
0.457062577277738
40
0.457062577277738
40
0.547552147731449
40
0.547552147731449
40
0.638041718185159
40
0.638041718185159
40
0.728531288638869
40
0.728531288638869
40
0.819020859092579
40
0.819020859092579
40
0.90951042954629
40
0.90951042954629
40
1
40
1
40
1
40
1
41
1
10
11.2599542688251
20
-1.45799349069276
30
0
41
1
10
11.252178751527
20
-1.46058751293174
30
0
41
1
10
11.2444046111912
20
-1.46317007317941
30
0
41
1
10
11.0842196140165
20
-1.51615426333524
30
0
41
1
10
10.9321784120663
20
-1.56180219234918
30
0
41
1
10
10.6276741846787
20
-1.6459350985489
30
0
41
1
10
10.4752305373503
20
-1.68399853364738
30
0
41
1
10
10.1698366165134
20
-1.7505965825199
30
0
41
1
10
10.0174986337496
20
-1.77836419505328
30
0
41
1
10
9.71299008174526
20
-1.82470464199102
30
0
41
1
10
9.56071990347385
20
-1.84358112937573
30
0
41
1
10
9.25594911233267
20
-1.8710489155219
30
0
41
1
10
9.10342106932265
20
-1.8794619707227
30
0
41
1
10
8.79829063233984
20
-1.8852463035382
30
0
41
1
10
8.64587683369959
20
-1.88360858883993
30
0
41
1
10
8.34108398378919
20
-1.87016681754642
30
0
41
1
10
8.18887984857406
20
-1.85795431825258
30
0
41
1
10
7.88404166664154
20
-1.82332065070222
30
0
41
1
10
7.73108549568371
20
-1.80121788049803
30
0
41
1
10
7.42611669950153
20
-1.74802476874962
30
0
41
1
10
7.27405477631993
20
-1.7165772975635
30
0
41
1
10
6.97030144375833
20
-1.64392741419167
30
0
41
1
10
6.81846056559485
20
-1.60304622803125
30
0
41
1
10
6.51416228477049
20
-1.5134885892104
30
0
41
1
10
6.3616658877078
20
-1.46471505138538
30
0
41
1
10
6.20879330095386
20
-1.41129108637355
30
0
0
SPLINE
5
CA
100
AcDbEntity
8
1
62
256
6
ByLayer
370
13
48
1
60
0
100
AcDbSpline
70
4
71
3
72
8
73
4
40
0
40
0
40
0
40
0
40
1
40
1
40
1
40
1
41
1
10
4.17965041215467
20
-1.91589341244088
30
0
41
1
10
4.18699267845759
20
-1.91381884053271
30
0
41
1
10
4.19442884267147
20
-1.91223945090516
30
0
41
1
10
4.20195937896818
20
-1.91117968319554
30
0
0
SPLINE
5
CB
100
AcDbEntity
8
1
62
256
6
ByLayer
370
18
48
1
60
0
100
AcDbSpline
70
4
71
3
72
54
73
50
40
0
40
0
40
0
40
0
40
0.124999999999992
40
0.124999999999992
40
0.187499999999988
40
0.187499999999988
40
0.249999999999984
40
0.249999999999984
40
0.281249999999981
40
0.281249999999981
40
0.312499999999979
40
0.312499999999979
40
0.328124999999978
40
0.328124999999978
40
0.343749999999977
40
0.343749999999977
40
0.359374999999976
40
0.359374999999976
40
0.374999999999975
40
0.374999999999975
40
0.390624999999974
40
0.390624999999974
40
0.406249999999973
40
0.406249999999973
40
0.421874999999972
40
0.421874999999972
40
0.437499999999971
40
0.437499999999971
40
0.468749999999971
40
0.468749999999971
40
0.499999999999971
40
0.499999999999971
40
0.503906249999972
40
0.503906249999972
40
0.507812499999972
40
0.507812499999972
40
0.515624999999974
40
0.515624999999974
40
0.531249999999975
40
0.531249999999975
40
0.562499999999977
40
0.562499999999977
40
0.62499999999998
40
0.62499999999998
40
0.749999999999987
40
0.749999999999987
40
0.874999999999993
40
0.874999999999993
40
1
40
1
40
1
40
1
41
1
10
4.0512322262465
20
-0.437396896783611
30
0
41
1
10
3.78258364036654
20
-0.280325459304407
30
0
41
1
10
3.51520369138876
20
-0.115929482849395
30
0
41
1
10
3.11781185918727
20
0.146967435050129
30
0
41
1
10
2.98643735178186
20
0.237155431745776
30
0
41
1
10
2.73209456343301
20
0.422038928053183
30
0
41
1
10
2.60841671789063
20
0.516989050233832
30
0
41
1
10
2.43230973371996
20
0.667053780240991
30
0
41
1
10
2.37520670047041
20
0.718378485101312
30
0
41
1
10
2.26587618798124
20
0.825188252882242
30
0
41
1
10
2.21311510689617
20
0.881222497027323
30
0
41
1
10
2.14280897449831
20
0.967944698981796
30
0
41
1
10
2.12082806252596
20
0.997317898551415
30
0
41
1
10
2.08071874872667
20
1.05737408930733
30
0
41
1
10
2.06264542962339
20
1.08804071911044
30
0
41
1
10
2.03261600043842
20
1.14936648001765
30
0
41
1
10
2.02051394700126
20
1.18021297958282
30
0
41
1
10
2.00387516616331
20
1.24251107782271
30
0
41
1
10
1.99946576704946
20
1.27419089884609
30
0
41
1
10
2.00050054809941
20
1.33482052986216
30
0
41
1
10
2.00589087035459
20
1.36450510705524
30
0
41
1
10
2.02635305170313
20
1.42036180283665
30
0
41
1
10
2.04115714607491
20
1.44620262492654
30
0
41
1
10
2.07866048162202
20
1.49444462409812
30
0
41
1
10
2.1011563593859
20
1.51649235586481
30
0
41
1
10
2.15076507781177
20
1.55644165988795
30
0
41
1
10
2.17806084352378
20
1.57455265672254
30
0
41
1
10
2.26583054667069
20
1.62465973157833
30
0
41
1
10
2.3304333410189
20
1.65163762624979
30
0
41
1
10
2.46536185940335
20
1.69794918053611
30
0
41
1
10
2.53623389277004
20
1.71735133126802
30
0
41
1
10
2.61818508855521
20
1.73637930323463
30
0
41
1
10
2.62726275894016
20
1.73850909422021
30
0
41
1
10
2.64566166904592
20
1.74249545772091
30
0
41
1
10
2.65547391233406
20
1.74405578256383
30
0
41
1
10
2.68474509861164
20
1.74589733733637
30
0
41
1
10
2.70430951519134
20
1.7446853320204
30
0
41
1
10
2.76296982961102
20
1.74264314811234
30
0
41
1
10
2.80206071894895
20
1.74114192101334
30
0
41
1
10
2.91923940435765
20
1.73621420136342
30
0
41
1
10
2.99728020356571
20
1.73236159327493
30
0
41
1
10
3.23088926687848
20
1.7190407961881
30
0
41
1
10
3.38583713945764
20
1.70782396290406
30
0
41
1
10
3.8484187168101
20
1.6663578927282
30
0
41
1
10
4.1546372684102
20
1.62807261836787
30
0
41
1
10
4.75670713204994
20
1.52558891127151
30
0
41
1
10
5.05242381981114
20
1.46135085021586
30
0
41
1
10
5.63575867037292
20
1.30367538014571
30
0
41
1
10
5.9233566659403
20
1.21013006711112
30
0
41
1
10
6.2087933009538
20
1.10225641415292
30
0
0
SPLINE
5
CC
100
AcDbEntity
8
1
62
256
6
ByLayer
370
18
48
1
60
0
100
AcDbSpline
70
4
71
3
72
10
73
6
40
0
40
0
40
0
40
0
40
0.5
40
0.5
40
1
40
1
40
1
40
1
41
1
10
37.2649345390889
20
0.554411877814033
30
0
41
1
10
37.3817885552169
20
0.552292590031925
30
0
41
1
10
37.4986212588531
20
0.550368436209851
30
0
41
1
10
37.7322188262294
20
0.547141260417988
30
0
41
1
10
37.8490197471808
20
0.5458559931769
30
0
41
1
10
37.9654927839616
20
0.545778623487251
30
0
0
SPLINE
5
CD
100
AcDbEntity
8
1
62
256
6
ByLayer
370
13
48
1
60
0
100
AcDbSpline
70
4
71
3
72
24
73
20
40
0
40
0
40
0
40
0
40
0.0354511220029406
40
0.0354511220029406
40
0.109647189541176
40
0.109647189541176
40
0.258039324617647
40
0.258039324617647
40
0.406431459694118
40
0.406431459694118
40
0.554823594770589
40
0.554823594770589
40
0.629019662308824
40
0.629019662308824
40
0.703215729847059
40
0.703215729847059
40
0.85160786492353
40
0.85160786492353
40
1
40
1
40
1
40
1
41
1
10
4.25075130816245
20
-1.87942795026461
30
0
41
1
10
4.2507655279928
20
-1.87880656834369
30
0
41
1
10
4.25077948111266
20
-1.87754582879646
30
0
41
1
10
4.25082191723408
20
-1.8716491274044
30
0
41
1
10
4.25084966757765
20
-1.86477732273806
30
0
41
1
10
4.2509291171832
20
-1.83604239078383
30
0
41
1
10
4.25097767194421
20
-1.80611250691692
30
0
41
1
10
4.25107047521612
20
-1.7249480775242
30
0
41
1
10
4.25111495532084
20
-1.67321875927266
30
0
41
1
10
4.25119984381459
20
-1.55063921906751
30
0
41
1
10
4.25124059290516
20
-1.4793906943415
30
0
41
1
10
4.25129832191772
20
-1.36087348979476
30
0
41
1
10
4.25131705534238
20
-1.3193179005919
30
0
41
1
10
4.25135344328234
20
-1.23207021081922
30
0
41
1
10
4.25137117979895
20
-1.18612890242792
30
0
41
1
10
4.25142154845602
20
-1.04449138618807
30
0
41
1
10
4.2514515978875
20
-0.944725209567764
30
0
41
1
10
4.25150217496383
20
-0.734886824966594
30
0
41
1
10
4.25152279420169
20
-0.624200992632694
30
0
41
1
10
4.2515359571193
20
-0.509353654623055
30
0
0
SPLINE
5
CE
100
AcDbEntity
8
1
62
256
6
ByLayer
370
18
48
1
60
0
100
AcDbSpline
70
4
71
3
72
68
73
64
40
0
40
0
40
0
40
0
40
0.0115712559561384
40
0.0115712559561384
40
0.0448203430531503
40
0.0448203430531503
40
0.0780694301501623
40
0.0780694301501623
40
0.111318517247174
40
0.111318517247174
40
0.144567604344186
40
0.144567604344186
40
0.177816691441198
40
0.177816691441198
40
0.21106577853821
40
0.21106577853821
40
0.244314865635222
40
0.244314865635222
40
0.277563952732234
40
0.277563952732234
40
0.310813039829246
40
0.310813039829246
40
0.344062126926258
40
0.344062126926258
40
0.37731121402327
40
0.37731121402327
40
0.410560301120282
40
0.410560301120282
40
0.443809388217294
40
0.443809388217294
40
0.477058475314306
40
0.477058475314306
40
0.510307562411317
40
0.510307562411317
40
0.543556649508329
40
0.543556649508329
40
0.576805736605341
40
0.576805736605341
40
0.610054823702353
40
0.610054823702353
40
0.643303910799365
40
0.643303910799365
40
0.676552997896377
40
0.676552997896377
40
0.709802084993389
40
0.709802084993389
40
0.743051172090401
40
0.743051172090401
40
0.776300259187413
40
0.776300259187413
40
0.809549346284425
40
0.809549346284425
40
0.842798433381437
40
0.842798433381437
40
0.876047520478449
40
0.876047520478449
40
0.909296607575461
40
0.909296607575461
40
0.942545694672473
40
0.942545694672473
40
0.975794781769484
40
0.975794781769484
40
1
40
1
40
1
40
1
41
1
10
8.79430354415589
20
1.88370881348587
30
0
41
1
10
8.84745901043806
20
1.8838049718417
30
0
41
1
10
8.90059528750569
20
1.88332776665129
30
0
41
1
10
9.1061973826545
20
1.87934724466115
30
0
41
1
10
9.25833032188336
20
1.8708865690916
30
0
41
1
10
9.56305448520385
20
1.84331764499382
30
0
41
1
10
9.71545415185656
20
1.82438002658242
30
0
41
1
10
10.0204852886168
20
1.77785840473004
30
0
41
1
10
10.1731759894155
20
1.74993245606194
30
0
41
1
10
10.4780136574142
20
1.68332621122718
30
0
41
1
10
10.6303179206189
20
1.64525007603507
30
0
41
1
10
10.9347835732824
20
1.5610361821831
30
0
41
1
10
11.0869112173088
20
1.51532044074219
30
0
41
1
10
11.3922399355959
20
1.4142131930279
30
0
41
1
10
11.5449577518161
20
1.35937461053294
30
0
41
1
10
11.8495687682144
20
1.24313396138677
30
0
41
1
10
12.0016068493906
20
1.18186443431247
30
0
41
1
10
12.3062153546723
20
1.05325188626415
30
0
41
1
10
12.4590040803396
20
0.985307627057693
30
0
41
1
10
12.764358065213
20
0.844465164105145
30
0
41
1
10
12.9165863853509
20
0.771609850509321
30
0
41
1
10
13.2211532730768
20
0.622985116704513
30
0
41
1
10
13.3735420460236
20
0.546809042978367
30
0
41
1
10
13.6785259212056
20
0.391131337657811
30
0
41
1
10
13.8312908799855
20
0.311584652783949
30
0
41
1
10
14.1362627010592
20
0.151946685836009
30
0
41
1
10
14.2887193459849
20
0.07204788812777
30
0
41
1
10
14.5933931709338
20
-0.0882697061955753
30
0
41
1
10
14.7456411135272
20
-0.168624107145547
30
0
41
1
10
15.0506178932055
20
-0.328460728360398
30
0
41
1
10
15.203557897404
20
-0.407617028053181
30
0
41
1
10
15.5083394574734
20
-0.562478177877296
30
0
41
1
10
15.6604100368719
20
-0.638522132562628
30
0
41
1
10
15.9646467693628
20
-0.787475089280264
30
0
41
1
10
16.1169914804533
20
-0.860152656154668
30
0
41
1
10
16.4225313096009
20
-1.00043157444981
30
0
41
1
10
16.5747597847383
20
-1.06731177215639
30
0
41
1
10
16.8788596204643
20
-1.19565805103522
30
0
41
1
10
17.0308685234109
20
-1.25688100790262
30
0
41
1
10
17.3355742842963
20
-1.37286039955711
30
0
41
1
10
17.4882464377267
20
-1.42711202132344
30
0
41
1
10
17.7930142001828
20
-1.52701582744348
30
0
41
1
10
17.9450606655489
20
-1.57314532318546
30
0
41
1
10
18.2496200491439
20
-1.65696391534095
30
0
41
1
10
18.4018859599392
20
-1.69467531760952
30
0
41
1
10
18.706540604882
20
-1.75959902474653
30
0
41
1
10
18.8591047136599
20
-1.78730957260663
30
0
41
1
10
19.1640079863464
20
-1.83369332042966
30
0
41
1
10
19.3163978026505
20
-1.85275410388979
30
0
41
1
10
19.6207331119313
20
-1.87859813321265
30
0
41
1
10
19.7727579657605
20
-1.88593855133917
30
0
41
1
10
20.0779129837722
20
-1.89153843475071
30
0
41
1
10
20.2307431821492
20
-1.89015142239904
30
0
41
1
10
20.5352499251482
20
-1.87582836050456
30
0
41
1
10
20.6871095676097
20
-1.86280641064886
30
0
41
1
10
20.9914489262292
20
-1.82702940989756
30
0
41
1
10
21.1441456390069
20
-1.80517796234349
30
0
41
1
10
21.4493299380372
20
-1.7511850071736
30
0
41
1
10
21.601331185073
20
-1.71881682808393
30
0
41
1
10
21.9053338693042
20
-1.64456314212958
30
0
41
1
10
22.0575585629601
20
-1.60338827568134
30
0
41
1
10
22.3207493922975
20
-1.52553060700697
30
0
41
1
10
22.4317719514908
20
-1.49009068727037
30
0
41
1
10
22.5426925657237
20
-1.45241522477099
30
0
0
SPLINE
5
CF
100
AcDbEntity
8
1
62
256
6
ByLayer
370
18
48
1
60
0
100
AcDbSpline
70
4
71
3
72
24
73
20
40
0
40
0
40
0
40
0
40
0.0092464331972943
40
0.0092464331972943
40
0.119330162842042
40
0.119330162842042
40
0.22941389248679
40
0.22941389248679
40
0.339497622131537
40
0.339497622131537
40
0.559665081421025
40
0.559665081421025
40
0.669748811065769
40
0.669748811065769
40
0.779832540710512
40
0.779832540710512
40
0.889916270355257
40
0.889916270355257
40
1
40
1
40
1
40
1
41
1
10
31.3062034540364
20
1.89637824424204
30
0
41
1
10
31.3189943212179
20
1.89632714834585
30
0
41
1
10
31.3317831183216
20
1.89623964449646
30
0
41
1
10
31.4967975074549
20
1.89464221362934
30
0
41
1
10
31.6489841728363
20
1.88803054752134
30
0
41
1
10
31.9534939162197
20
1.86545971168374
30
0
41
1
10
32.1056843131793
20
1.84958074270187
30
0
41
1
10
32.4103128824246
20
1.8085121206465
30
0
41
1
10
32.5629676373646
20
1.78317979829939
30
0
41
1
10
33.0197251521738
20
1.69102444713741
30
0
41
1
10
33.3227452109873
20
1.60956257295516
30
0
41
1
10
33.780502217667
20
1.46281056669716
30
0
41
1
10
33.9327824395
20
1.40971650851651
30
0
41
1
10
34.2368411848649
20
1.29648989569469
30
0
41
1
10
34.3886904240672
20
1.23639894674963
30
0
41
1
10
34.6931837869391
20
1.11032274214693
30
0
41
1
10
34.8458703841671
20
1.04387993877677
30
0
41
1
10
35.1504808171828
20
0.905264558757807
30
0
41
1
10
35.3023288361485
20
0.833164067180121
30
0
41
1
10
35.4544043199445
20
0.759426529795377
30
0
0
SPLINE
5
D0
100
AcDbEntity
8
1
62
256
6
ByLayer
370
18
48
1
60
0
100
AcDbSpline
70
4
71
3
72
28
73
24
40
0
40
0
40
0
40
0
40
0.0097005404191744
40
0.0097005404191744
40
0.151171891787864
40
0.151171891787864
40
0.221907567472209
40
0.221907567472209
40
0.292643243156554
40
0.292643243156554
40
0.434114594525243
40
0.434114594525243
40
0.504850270209588
40
0.504850270209588
40
0.575585945893933
40
0.575585945893933
40
0.717057297262622
40
0.717057297262622
40
0.787792972946967
40
0.787792972946967
40
0.858528648631311
40
0.858528648631311
40
1
40
1
40
1
40
1
41
1
10
4.05055575132658
20
-1.97914196855948
30
0
41
1
10
4.05055940861163
20
-1.9791284599971
30
0
41
1
10
4.05056304058149
20
-1.97905824264558
30
0
41
1
10
4.05061925812785
20
-1.97707956882431
30
0
41
1
10
4.05066552758416
20
-1.96311414491274
30
0
41
1
10
4.05072880445977
20
-1.92488879627135
30
0
41
1
10
4.05074890620838
20
-1.90924599935928
30
0
41
1
10
4.05078769615267
20
-1.87206379338511
30
0
41
1
10
4.05080648074514
20
-1.85038163390723
30
0
41
1
10
4.0508606060327
20
-1.77733746238155
30
0
41
1
10
4.05089381282289
20
-1.71823299514546
30
0
41
1
10
4.0509419089646
20
-1.61433835198252
30
0
41
1
10
4.05095763896699
20
-1.57714997816368
30
0
41
1
10
4.05098874900403
20
-1.49751026684709
30
0
41
1
10
4.05100405739998
20
-1.45521168505411
30
0
41
1
10
4.05104873120615
20
-1.32308925105681
30
0
41
1
10
4.05107721558605
20
-1.22733727881504
30
0
41
1
10
4.05111775525563
20
-1.07219606930639
30
0
41
1
10
4.05113094901407
20
-1.01826837429618
30
0
41
1
10
4.05115598468353
20
-0.907833220190128
30
0
41
1
10
4.05116778939032
20
-0.851532598589188
30
0
41
1
10
4.05120061751291
20
-0.679471609603041
30
0
41
1
10
4.0512191341694
20
-0.560580477460292
30
0
41
1
10
4.05123222624405
20
-0.437396896783781
30
0
0
SPLINE
5
D1
100
AcDbEntity
8
1
62
256
6
ByLayer
370
18
48
1
60
0
100
AcDbSpline
70
4
71
3
72
8
73
4
40
0
40
0
40
0
40
0
40
1
40
1
40
1
40
1
41
1
10
37.9790627080815
20
-0.0172612351267958
30
0
41
1
10
37.6900396596646
20
-0.491068040516865
30
0
41
1
10
37.4192469782541
20
-0.981474859627014
30
0
41
1
10
37.1673301333637
20
-1.48906943722272
30
0
0
SPLINE
5
D2
100
AcDbEntity
8
1
62
256
6
ByLayer
370
18
48
1
60
0
100
AcDbSpline
70
4
71
3
72
12
73
8
40
0
40
0
40
0
40
0
40
0.249999999999998
40
0.249999999999998
40
0.499999999999996
40
0.499999999999996
40
1
40
1
40
1
40
1
41
1
10
6.20879330095386
20
-1.41129108637355
30
0
41
1
10
6.04201528906341
20
-1.35533543288753
30
0
41
1
10
5.87669062715639
20
-1.29367822984563
30
0
41
1
10
5.54765936367863
20
-1.16084524042267
30
0
41
1
10
5.38363599875194
20
-1.08917369358809
30
0
41
1
10
4.89436368911154
20
-0.861034463543831
30
0
41
1
10
4.57232799094385
20
-0.692187404804145
30
0
41
1
10
4.25153595723086
20
-0.509353654623226
30
0
0
SPLINE
5
D3
100
AcDbEntity
8
1
62
256
6
ByLayer
370
18
48
1
60
0
100
AcDbSpline
70
4
71
3
72
14
73
10
40
0
40
0
40
0
40
0
40
0.271436138970316
40
0.271436138970316
40
0.542872277940631
40
0.542872277940631
40
0.814308416910947
40
0.814308416910947
40
1
40
1
40
1
40
1
41
1
10
37.1673301333637
20
-1.48906943722275
30
0
41
1
10
37.1668769537702
20
-1.55823394845694
30
0
41
1
10
37.1696096495172
20
-1.61903897833417
30
0
41
1
10
37.1816267783809
20
-1.72423376389247
30
0
41
1
10
37.1910713873783
20
-1.76885462857527
30
0
41
1
10
37.2164322323733
20
-1.83825102980569
30
0
41
1
10
37.2323212092512
20
-1.86349941589071
30
0
41
1
10
37.2648906303193
20
-1.89047084801302
30
0
41
1
10
37.2797890707382
20
-1.89703635906571
30
0
41
1
10
37.2962396061964
20
-1.89918658656845
30
0
0
SPLINE
5
D4
100
AcDbEntity
8
1
62
256
6
ByLayer
370
18
48
1
60
0
100
AcDbSpline
70
4
71
3
72
10
73
6
40
0
40
0
40
0
40
0
40
0.5
40
0.5
40
1
40
1
40
1
40
1
41
1
10
4.25153595711927
20
-0.509353654559476
30
0
41
1
10
4.2150096258903
20
-0.488535662161809
30
0
41
1
10
4.1782094995425
20
-0.471114658516996
30
0
41
1
10
4.10855799635033
20
-0.445869508663804
30
0
41
1
10
4.07608177786778
20
-0.438387553358638
30
0
41
1
10
4.05123222624678
20
-0.437396896783781
30
0
0
SPLINE
5
D5
100
AcDbEntity
8
1
62
256
6
ByLayer
370
18
48
1
60
0
100
AcDbSpline
70
4
71
3
72
8
73
4
40
0
40
0
40
0
40
0
40
1
40
1
40
1
40
1
41
1
10
37.3109553157334
20
1.99342421731058
30
0
41
1
10
37.2144560060988
20
1.9977257264573
30
0
41
1
10
37.118042148341
20
1.99983345515039
30
0
41
1
10
37.0216524573753
20
1.99976099720476
30
0
0
SPLINE
5
D6
100
AcDbEntity
8
1
62
256
6
ByLayer
370
18
48
1
60
0
100
AcDbSpline
70
4
71
3
72
40
73
36
40
0
40
0
40
0
40
0
40
0.0679640162797246
40
0.0679640162797246
40
0.110256236813325
40
0.110256236813325
40
0.152548457346924
40
0.152548457346924
40
0.237132898414123
40
0.237132898414123
40
0.279425118947722
40
0.279425118947722
40
0.321717339481322
40
0.321717339481322
40
0.406301780548521
40
0.406301780548521
40
0.448594001082119
40
0.448594001082119
40
0.490886221615718
40
0.490886221615718
40
0.660055103750115
40
0.660055103750115
40
0.702347324283715
40
0.702347324283715
40
0.744639544817315
40
0.744639544817315
40
0.829223985884514
40
0.829223985884514
40
0.871516206418114
40
0.871516206418114
40
0.913808426951713
40
0.913808426951713
40
0.998392868018913
40
0.998392868018913
40
1
40
1
40
1
40
1
41
1
10
26.7633380071979
20
-1.91742233862729
30
0
41
1
10
26.487323487986
20
-1.95926246268834
30
0
41
1
10
26.2105865244743
20
-1.98407724786139
30
0
41
1
10
25.7578839345801
20
-1.99503952800947
30
0
41
1
10
25.5838986588747
20
-1.99216381357977
30
0
41
1
10
25.2384059209095
20
-1.9726294452372
30
0
41
1
10
25.0663321453878
20
-1.95599301963796
30
0
41
1
10
24.5510149773062
20
-1.88611853001612
30
0
41
1
10
24.2083691004678
20
-1.81306629651965
30
0
41
1
10
23.6911376407709
20
-1.66664428189981
30
0
41
1
10
23.5181631137061
20
-1.61170365434484
30
0
41
1
10
23.170140293599
20
-1.49023565258455
30
0
41
1
10
22.9967444222849
20
-1.42418074395331
30
0
41
1
10
22.4791574862445
20
-1.21274340538386
30
0
41
1
10
22.1363302137598
20
-1.05430204799785
30
0
41
1
10
21.6210385996174
20
-0.797423908714649
30
0
41
1
10
21.4490619545973
20
-0.708648000599084
30
0
41
1
10
21.1037618657788
20
-0.526294145894838
30
0
41
1
10
20.9301885844198
20
-0.432443794312405
30
0
41
1
10
20.0604851014247
20
0.0442215571482905
30
0
41
1
10
19.3799230110495
20
0.43463681776899
30
0
41
1
10
18.5158942973562
20
0.875410057669939
30
0
41
1
10
18.3417359516225
20
0.961371026926713
30
0
41
1
10
17.9942191386859
20
1.12534367746278
30
0
41
1
10
17.8214115161319
20
1.20324935338087
30
0
41
1
10
17.304530362087
20
1.42306837432602
30
0
41
1
10
16.9619047016322
20
1.55093894554901
30
0
41
1
10
16.4458761969462
20
1.70882065242449
30
0
41
1
10
16.2735425972636
20
1.75582033101509
30
0
41
1
10
15.9273263555932
20
1.83754559191308
30
0
41
1
10
15.7527969626099
20
1.87238665287245
30
0
41
1
10
15.232330217345
20
1.95615927203389
30
0
41
1
10
14.8888026816512
20
1.98462144718786
30
0
41
1
10
14.5387123901978
20
1.98567866878688
30
0
41
1
10
14.5321846755609
20
1.98568847240173
30
0
41
1
10
14.5256570208981
20
1.98568836793643
30
0
0
SPLINE
5
D7
100
AcDbEntity
8
1
62
256
6
ByLayer
370
18
48
1
60
0
100
AcDbSpline
70
4
71
3
72
8
73
4
40
0
40
0
40
0
40
0
40
1
40
1
40
1
40
1
41
1
10
4.36575192211134
20
-1.8876308302076
30
0
41
1
10
4.30377045871361
20
-1.89789303352416
30
0
41
1
10
4.24174232722382
20
-1.90731832283086
30
0
41
1
10
4.17965041215462
20
-1.91589341244108
30
0
0
SPLINE
5
D8
100
AcDbEntity
8
1
62
256
6
ByLayer
370
18
48
1
60
0
100
AcDbSpline
70
4
71
3
72
32
73
28
40
0
40
0
40
0
40
0
40
0.152776579364107
40
0.152776579364107
40
0.230665897516918
40
0.230665897516918
40
0.308555215669729
40
0.308555215669729
40
0.464333851975352
40
0.464333851975352
40
0.542223170128163
40
0.542223170128163
40
0.581167829204569
40
0.581167829204569
40
0.59090399397367
40
0.59090399397367
40
0.600640158742771
40
0.600640158742771
40
0.620112488280974
40
0.620112488280974
40
0.775891124586597
40
0.775891124586597
40
0.853780442739408
40
0.853780442739408
40
0.931669760892219
40
0.931669760892219
40
1
40
1
40
1
40
1
41
1
10
6.2087933009538
20
1.10225641417736
30
0
41
1
10
6.2087933009538
20
1.01492469349114
30
0
41
1
10
6.20879330095386
20
0.914413612037521
30
0
41
1
10
6.20879330095386
20
0.743907603786312
30
0
41
1
10
6.20879330095383
20
0.683456328396517
30
0
41
1
10
6.20879330095383
20
0.558729650825654
30
0
41
1
10
6.20879330095386
20
0.494218747810209
30
0
41
1
10
6.20879330095386
20
0.294565344628751
30
0
41
1
10
6.20879330095386
20
0.153353043017091
30
0
41
1
10
6.20879330095386
20
-0.0703916043161144
30
0
41
1
10
6.20879330095383
20
-0.146535464411159
30
0
41
1
10
6.20879330095383
20
-0.262511772123673
30
0
41
1
10
6.2087933009538
20
-0.301507020903955
30
0
41
1
10
6.2087933009538
20
-0.350577110539149
30
0
41
1
10
6.20879330095383
20
-0.360486691758695
30
0
41
1
10
6.20879330095383
20
-0.381036497815842
30
0
41
1
10
6.20879330095386
20
-0.390588287609489
30
0
41
1
10
6.20879330095386
20
-0.419037719479093
30
0
41
1
10
6.20879330095383
20
-0.437933978308905
30
0
41
1
10
6.20879330095383
20
-0.607244791162856
30
0
41
1
10
6.20879330095386
20
-0.751789662128118
30
0
41
1
10
6.20879330095386
20
-0.954815865780859
30
0
41
1
10
6.20879330095386
20
-1.02038646491533
30
0
41
1
10
6.20879330095386
20
-1.14707603161514
30
0
41
1
10
6.20879330095386
20
-1.20853680174105
30
0
41
1
10
6.20879330095386
20
-1.3174339207977
30
0
41
1
10
6.20879330095386
20
-1.3657097751248
30
0
41
1
10
6.20879330095386
20
-1.41129108637296
30
0
0
SPLINE
5
D9
100
AcDbEntity
8
1
62
256
6
ByLayer
370
18
48
1
60
0
100
AcDbSpline
70
4
71
3
72
10
73
6
40
0
40
0
40
0
40
0
40
0.5
40
0.5
40
1
40
1
40
1
40
1
41
1
10
37.4225110632941
20
1.92598195640915
30
0
41
1
10
37.507111174553
20
1.69361768857726
30
0
41
1
10
37.5952316196548
20
1.46258169523807
30
0
41
1
10
37.7767500548012
20
1.00251322101494
30
0
41
1
10
37.8702374405766
20
0.773294061459751
30
0
41
1
10
37.9654927839617
20
0.545778623487394
30
0
0
SPLINE
5
DA
100
AcDbEntity
8
1
62
256
6
ByLayer
370
18
48
1
60
0
100
AcDbSpline
70
4
71
3
72
36
73
32
40
0
40
0
40
0
40
0
40
0.0896423704154599
40
0.0896423704154599
40
0.134463555623189
40
0.134463555623189
40
0.179284740830917
40
0.179284740830917
40
0.268927111246377
40
0.268927111246377
40
0.358569481661837
40
0.358569481661837
40
0.448211852077297
40
0.448211852077297
40
0.537854222492757
40
0.537854222492757
40
0.582675407700487
40
0.582675407700487
40
0.627496592908217
40
0.627496592908217
40
0.717138963323674
40
0.717138963323674
40
0.761960148531403
40
0.761960148531403
40
0.806781333739131
40
0.806781333739131
40
0.896423704154591
40
0.896423704154591
40
0.986066074570051
40
0.986066074570051
40
1
40
1
40
1
40
1
41
1
10
37.3109553157334
20
-1.99342421731058
30
0
41
1
10
36.9651291122841
20
-2.00883960818689
30
0
41
1
10
36.6209239059814
20
-1.99605820885918
30
0
41
1
10
36.1028264149213
20
-1.93590343283833
30
0
41
1
10
35.9298333486637
20
-1.90899559708743
30
0
41
1
10
35.5823788287717
20
-1.84162502342866
30
0
41
1
10
35.4088409547024
20
-1.80131237558479
30
0
41
1
10
34.8913364072307
20
-1.66282693671556
30
0
41
1
10
34.5488593678215
20
-1.54682506027481
30
0
41
1
10
33.8623932025828
20
-1.2754178617999
30
0
41
1
10
33.5181186946413
20
-1.11985470038866
30
0
41
1
10
32.8224783762262
20
-0.778273996451901
30
0
41
1
10
32.4784973959252
20
-0.596446029928586
30
0
41
1
10
31.7924819202405
20
-0.22107429084727
30
0
41
1
10
31.4499186915136
20
-0.0284661925261958
30
0
41
1
10
30.9317825500628
20
0.258777305896473
30
0
41
1
10
30.7578124319312
20
0.354581589658522
30
0
41
1
10
30.4104955785725
20
0.543036797343092
30
0
41
1
10
30.2378369216291
20
0.635265037970441
30
0
41
1
10
29.7214326141834
20
0.903611238180417
30
0
41
1
10
29.3789769935901
20
1.07094287753284
30
0
41
1
10
28.8636057590061
20
1.29776079462948
30
0
41
1
10
28.6914628065715
20
1.36922630986908
30
0
41
1
10
28.3456622042323
20
1.50264243078362
30
0
41
1
10
28.1713466883737
20
1.56483929969954
30
0
41
1
10
27.6512363029046
20
1.73337625391963
30
0
41
1
10
27.3078235309316
20
1.82158120254033
30
0
41
1
10
26.6215176677476
20
1.94617721908483
30
0
41
1
10
26.2783500338826
20
1.98240442031403
30
0
41
1
10
25.8783077785898
20
1.99212837175935
30
0
41
1
10
25.8243594813834
20
1.99275603279167
30
0
41
1
10
25.7703589654147
20
1.99270581310995
30
0
0
SPLINE
5
DB
100
AcDbEntity
8
1
62
256
6
ByLayer
370
18
48
1
60
0
100
AcDbSpline
70
4
71
3
72
36
73
32
40
0
40
0
40
0
40
0
40
0.0059688723993992
40
0.0059688723993992
40
0.0963353385449123
40
0.0963353385449123
40
0.186701804690426
40
0.186701804690426
40
0.231885037763181
40
0.231885037763181
40
0.277068270835937
40
0.277068270835937
40
0.367434736981448
40
0.367434736981448
40
0.412617970054202
40
0.412617970054202
40
0.457801203126957
40
0.457801203126957
40
0.638534135417974
40
0.638534135417974
40
0.683717368490727
40
0.683717368490727
40
0.728900601563481
40
0.728900601563481
40
0.819267067708988
40
0.819267067708988
40
0.864450300781741
40
0.864450300781741
40
0.909633533854495
40
0.909633533854495
40
1
40
1
40
1
40
1
41
1
10
15.6493886178184
20
-1.88866775124279
30
0
41
1
10
15.6264142352733
20
-1.89260341629245
30
0
41
1
10
15.6034301655483
20
-1.89642428794119
30
0
41
1
10
15.2323327377956
20
-1.95621720438891
30
0
41
1
10
14.8882102173476
20
-1.98465983484289
30
0
41
1
10
14.2008917094975
20
-1.98666216597849
30
0
41
1
10
13.8579660497129
20
-1.96019806972004
30
0
41
1
10
13.3392761431698
20
-1.87994873432857
30
0
41
1
10
13.1651450378514
20
-1.84627856551711
30
0
41
1
10
12.817527875098
20
-1.76617321165349
30
0
41
1
10
12.644610873378
20
-1.71998730173419
30
0
41
1
10
12.1273381211673
20
-1.56456554293913
30
0
41
1
10
11.7846434917534
20
-1.4382267688643
30
0
41
1
10
11.2684533479306
20
-1.22135871620404
30
0
41
1
10
11.0961054924971
20
-1.14441572376927
30
0
41
1
10
10.7499459275664
20
-0.982355516495801
30
0
41
1
10
10.5754016938013
20
-0.896966171744168
30
0
41
1
10
9.70720422905109
20
-0.45805780298997
30
0
41
1
10
9.02670589989256
20
-0.0683819175826841
30
0
41
1
10
8.16006513547404
20
0.405421181600701
30
0
41
1
10
7.98537758936649
20
0.499790869869713
30
0
41
1
10
7.63854065068389
20
0.682903327320503
30
0
41
1
10
7.46592334624569
20
0.771912976584701
30
0
41
1
10
6.94926250853905
20
1.02942477005564
30
0
41
1
10
6.60636024120316
20
1.18831424049881
30
0
41
1
10
6.08934621387891
20
1.39988604989276
30
0
41
1
10
5.91660347602499
20
1.46600627206959
30
0
41
1
10
5.56949495071655
20
1.58816883416881
30
0
41
1
10
5.39490231315904
20
1.64414261997484
30
0
41
1
10
4.87374003473144
20
1.7930653352546
30
0
41
1
10
4.52756970307433
20
1.86784465933957
30
0
41
1
10
4.1796504121545
20
1.91589341244108
30
0
0
SPLINE
5
DC
100
AcDbEntity
8
1
62
256
6
ByLayer
370
18
48
1
60
0
100
AcDbSpline
70
4
71
3
72
14
73
10
40
0
40
0
40
0
40
0
40
0.25
40
0.25
40
0.5
40
0.5
40
0.75
40
0.75
40
1
40
1
40
1
40
1
41
1
10
37.3200094676628
20
-1.89933853123938
30
0
41
1
10
37.3233253210009
20
-1.89897971003006
30
0
41
1
10
37.3260487745407
20
-1.90018332617962
30
0
41
1
10
37.3299034419532
20
-1.90674180411312
30
0
41
1
10
37.3309940178125
20
-1.91215125037934
30
0
41
1
10
37.3303516571614
20
-1.9284364906957
30
0
41
1
10
37.328527067546
20
-1.93935789549718
30
0
41
1
10
37.3218434844528
20
-1.96440709696552
30
0
41
1
10
37.3170377194699
20
-1.97834091140751
30
0
41
1
10
37.3117251681614
20
-1.99151529061561
30
0
0
SPLINE
5
DD
100
AcDbEntity
8
1
62
256
6
ByLayer
370
18
48
1
60
0
100
AcDbSpline
70
4
71
3
72
8
73
4
40
0
40
0
40
0
40
0
40
1
40
1
40
1
40
1
41
1
10
37.9999513538574
20
0.0321429135741766
30
0
41
1
10
37.9949112172782
20
0.0145571123221373
30
0
41
1
10
37.9871848141648
20
-0.0039463484510236
30
0
41
1
10
37.9790627080815
20
-0.0172612351267674
30
0
0
SPLINE
5
DE
100
AcDbEntity
8
1
62
256
6
ByLayer
370
18
48
1
60
0
100
AcDbSpline
70
4
71
3
72
10
73
6
40
0
40
0
40
0
40
0
40
0.5
40
0.5
40
1
40
1
40
1
40
1
41
1
10
37.4225110632942
20
-1.92598195640889
30
0
41
1
10
37.5075992149224
20
-1.69227722765558
30
0
41
1
10
37.5958749400326
20
-1.46091832418671
30
0
41
1
10
37.7772618608059
20
-1.00124907044068
30
0
41
1
10
37.8703798174566
20
-0.772953997195998
30
0
41
1
10
37.9654927839616
20
-0.545778623487422
30
0
0
SPLINE
5
DF
100
AcDbEntity
8
1
62
256
6
ByLayer
370
18
48
1
60
0
100
AcDbSpline
70
4
71
3
72
8
73
4
40
0
40
0
40
0
40
0
40
1
40
1
40
1
40
1
41
1
10
37.4225110632942
20
-1.92598195640889
30
0
41
1
10
37.381220851578
20
-1.9602622241502
30
0
41
1
10
37.3441176834154
20
-1.98298436560449
30
0
41
1
10
37.3109553157334
20
-1.99342421731058
30
0
0
SPLINE
5
E0
100
AcDbEntity
8
1
62
256
6
ByLayer
370
18
48
1
60
0
100
AcDbSpline
70
4
71
3
72
24
73
20
40
0
40
0
40
0
40
0
40
0.0625
40
0.0625
40
0.125
40
0.125
40
0.1875
40
0.1875
40
0.25
40
0.25
40
0.375
40
0.375
40
0.5
40
0.5
40
0.625
40
0.625
40
0.75
40
0.75
40
1
40
1
40
1
40
1
41
1
10
35.4544043199445
20
0.759426529795093
30
0
41
1
10
35.4471333597422
20
0.699489494475444
30
0
41
1
10
35.4444000540922
20
0.638017106406721
30
0
41
1
10
35.448340578013
20
0.511889348674799
30
0
41
1
10
35.4551430442764
20
0.447210491974488
30
0
41
1
10
35.4773605524556
20
0.319968467803562
30
0
41
1
10
35.4927678096101
20
0.256728913359268
30
0
41
1
10
35.5315127373404
20
0.130953565001477
30
0
41
1
10
35.5550000214469
20
0.0682265247316707
30
0
41
1
10
35.6339461522564
20
-0.113233018829845
30
0
41
1
10
35.698285433697
20
-0.227426151597001
30
0
41
1
10
35.8449678545622
20
-0.445387170322562
30
0
41
1
10
35.9251672129725
20
-0.545934837919191
30
0
41
1
10
36.0948727831461
20
-0.733889026105174
30
0
41
1
10
36.1845579241456
20
-0.821412353645997
30
0
41
1
10
36.3717929829547
20
-0.985955346656084
30
0
41
1
10
36.4675986093087
20
-1.06142511412995
30
0
41
1
10
36.7597111760538
20
-1.2710277586452
30
0
41
1
10
36.9608936542492
20
-1.38894674926732
30
0
41
1
10
37.1673301333637
20
-1.4890694372227
30
0
0
SPLINE
5
E1
100
AcDbEntity
8
1
62
256
6
ByLayer
370
18
48
1
60
0
100
AcDbSpline
70
4
71
3
72
36
73
32
40
0
40
0
40
0
40
0
40
0.0630872207391123
40
0.0630872207391123
40
0.126174441478225
40
0.126174441478225
40
0.189261662217337
40
0.189261662217337
40
0.252348882956449
40
0.252348882956449
40
0.378523324434676
40
0.378523324434676
40
0.441610545173789
40
0.441610545173789
40
0.504697765912902
40
0.504697765912902
40
0.567784986652015
40
0.567784986652015
40
0.630872207391129
40
0.630872207391129
40
0.693959428130242
40
0.693959428130242
40
0.757046648869355
40
0.757046648869355
40
0.820133869608469
40
0.820133869608469
40
0.883221090347582
40
0.883221090347582
40
0.946308311086695
40
0.946308311086695
40
1
40
1
40
1
40
1
41
1
10
6.2087933009538
20
1.10225641415292
30
0
41
1
10
6.37121406085527
20
1.02626143023298
30
0
41
1
10
6.53406610442977
20
0.948330228454211
30
0
41
1
10
6.8598419154701
20
0.787703638635776
30
0
41
1
10
7.02252677058598
20
0.704605700459155
30
0
41
1
10
7.34738891574995
20
0.532464654761128
30
0
41
1
10
7.51071535401886
20
0.444866178768251
30
0
41
1
10
7.83671985242921
20
0.268544043112257
30
0
41
1
10
7.99932312376478
20
0.179202134644925
30
0
41
1
10
8.48604575331717
20
-0.0922107696118815
30
0
41
1
10
8.81371633168257
20
-0.27148869124278
30
0
41
1
10
9.30046745031984
20
-0.536263296271159
30
0
41
1
10
9.46305750201014
20
-0.622288868467365
30
0
41
1
10
9.78893560331628
20
-0.7899403110099
30
0
41
1
10
9.95219240683508
20
-0.872196259329229
30
0
41
1
10
10.2770708977072
20
-1.03144874653722
30
0
41
1
10
10.4396888622318
20
-1.1072207073949
30
0
41
1
10
10.7652154917216
20
-1.25141783166492
30
0
41
1
10
10.927819329163
20
-1.32027366364204
30
0
41
1
10
11.2532336195056
20
-1.45047416363238
30
0
41
1
10
11.4161843032724
20
-1.51050909076227
30
0
41
1
10
11.7417360795311
20
-1.62077323982356
30
0
41
1
10
11.9041354922251
20
-1.6713683935518
30
0
41
1
10
12.228849370783
20
-1.76245795781867
30
0
41
1
10
12.3922231089835
20
-1.80231642769911
30
0
41
1
10
12.7181763731715
20
-1.87055313628275
30
0
41
1
10
12.8805671779291
20
-1.89917005924102
30
0
41
1
10
13.2049840809161
20
-1.94461466810691
30
0
41
1
10
13.3677609373895
20
-1.9611470377877
30
0
41
1
10
13.669826806446
20
-1.98063782384159
30
0
41
1
10
13.8083618911848
20
-1.98522893010207
30
0
41
1
10
13.9465554122442
20
-1.98532657253395
30
0
0
SPLINE
5
E2
100
AcDbEntity
8
1
62
256
6
ByLayer
370
18
48
1
60
0
100
AcDbSpline
70
4
71
3
72
64
73
60
40
0
40
0
40
0
40
0
40
0.0185062568873065
40
0.0185062568873065
40
0.0535633614563933
40
0.0535633614563933
40
0.08862046602548
40
0.08862046602548
40
0.123677570594567
40
0.123677570594567
40
0.158734675163653
40
0.158734675163653
40
0.19379177973274
40
0.19379177973274
40
0.228848884301827
40
0.228848884301827
40
0.263905988870914
40
0.263905988870914
40
0.298963093440001
40
0.298963093440001
40
0.334020198009088
40
0.334020198009088
40
0.369077302578174
40
0.369077302578174
40
0.404134407147261
40
0.404134407147261
40
0.439191511716348
40
0.439191511716348
40
0.474248616285435
40
0.474248616285435
40
0.509305720854521
40
0.509305720854521
40
0.544362825423608
40
0.544362825423608
40
0.579419929992695
40
0.579419929992695
40
0.614477034561781
40
0.614477034561781
40
0.649534139130868
40
0.649534139130868
40
0.684591243699955
40
0.684591243699955
40
0.719648348269042
40
0.719648348269042
40
0.754705452838129
40
0.754705452838129
40
0.789762557407215
40
0.789762557407215
40
0.824819661976302
40
0.824819661976302
40
0.859876766545389
40
0.859876766545389
40
0.894933871114476
40
0.894933871114476
40
0.929990975683562
40
0.929990975683562
40
0.965048080252649
40
0.965048080252649
40
1
40
1
40
1
40
1
41
1
10
22.5431257510962
20
1.46850606354388
30
0
41
1
10
22.628793305423
20
1.50084503827344
30
0
41
1
10
22.714358362673
20
1.53197197894306
30
0
41
1
10
22.9622007946263
20
1.61793199944322
30
0
41
1
10
23.1249579103692
20
1.66881533534024
30
0
41
1
10
23.450871340712
20
1.76066469037423
30
0
41
1
10
23.6132954373298
20
1.80181065153027
30
0
41
1
10
23.9378491905935
20
1.87200302728152
30
0
41
1
10
24.1004871933924
20
1.90105483696632
30
0
41
1
10
24.4257821605053
20
1.94770072398296
30
0
41
1
10
24.5883077003053
20
1.96538453686657
30
0
41
1
10
24.9133808720908
20
1.98807456619818
30
0
41
1
10
25.0760861710707
20
1.99318747957204
30
0
41
1
10
25.4011257673052
20
1.99131928862704
30
0
41
1
10
25.5630239396521
20
1.98419185396304
30
0
41
1
10
25.8882243997449
20
1.95761690811281
30
0
41
1
10
26.0514373786436
20
1.93835417226589
30
0
41
1
10
26.3766012623042
20
1.88808187828693
30
0
41
1
10
26.5383707839593
20
1.85669766300529
30
0
41
1
10
26.8630130915834
20
1.7829307367706
30
0
41
1
10
27.0263035484863
20
1.74068841942872
30
0
41
1
10
27.3519441313647
20
1.64554658573539
30
0
41
1
10
27.5137546683803
20
1.59215658411986
30
0
41
1
10
27.8381908779851
20
1.47664532720285
30
0
41
1
10
28.0009053796821
20
1.41473982988734
30
0
41
1
10
28.3265864938121
20
1.28178195936832
30
0
41
1
10
28.4889027627158
20
1.21011348467641
30
0
41
1
10
28.8135086924414
20
1.06127419517713
30
0
41
1
10
28.9761170897654
20
0.98414968081417
30
0
41
1
10
29.3011984942926
20
0.823419718325454
30
0
41
1
10
29.4635222630719
20
0.738881058255316
30
0
41
1
10
29.7886586807301
20
0.567448275697672
30
0
41
1
10
29.9513441122905
20
0.480703892799909
30
0
41
1
10
30.2762049106152
20
0.303907695506837
30
0
41
1
10
30.437945671473
20
0.213056766342959
30
0
41
1
10
30.763119228298
20
0.0319061597285781
30
0
41
1
10
30.9263398659788
20
-0.0583244625061923
30
0
41
1
10
31.251337230621
20
-0.238373800993713
30
0
41
1
10
31.4129564940592
20
-0.329106918678349
30
0
41
1
10
31.7375846132343
20
-0.506347066710958
30
0
41
1
10
31.9008020664318
20
-0.593142106434755
30
0
41
1
10
32.2263033731994
20
-0.763347501930298
30
0
41
1
10
32.3879930855616
20
-0.847341291103987
30
0
41
1
10
32.7124472707848
20
-1.00780659463427
30
0
41
1
10
32.8751093971616
20
-1.08451633562041
30
0
41
1
10
33.2005536961459
20
-1.23205699411349
30
0
41
1
10
33.3627692377759
20
-1.30333036603932
30
0
41
1
10
33.6874013672182
20
-1.43539276806649
30
0
41
1
10
33.849965649285
20
-1.49661044333777
30
0
41
1
10
34.1748412547606
20
-1.61040533993668
30
0
41
1
10
34.3370167120743
20
-1.66340119364517
30
0
41
1
10
34.6622059205459
20
-1.75740850106771
30
0
41
1
10
34.8248542577979
20
-1.79868436544714
30
0
41
1
10
35.1495189379804
20
-1.87053704210342
30
0
41
1
10
35.3111294959688
20
-1.90124958779796
30
0
41
1
10
35.6362718996672
20
-1.95008222695395
30
0
41
1
10
35.7994668193651
20
-1.96841429140031
30
0
41
1
10
36.123773092849
20
-1.99302732536785
30
0
41
1
10
36.2847814724171
20
-1.99932090600419
30
0
41
1
10
36.4465652029751
20
-1.99939009781227
30
0
0
SPLINE
5
E3
100
AcDbEntity
8
1
62
256
6
ByLayer
370
18
48
1
60
0
100
AcDbSpline
70
4
71
3
72
30
73
26
40
0
40
0
40
0
40
0
40
0.249999999999996
40
0.249999999999996
40
0.375
40
0.375
40
0.500000000000004
40
0.500000000000004
40
0.625000000000008
40
0.625000000000008
40
0.750000000000012
40
0.750000000000012
40
0.812500000000007
40
0.812500000000007
40
0.828125000000006
40
0.828125000000006
40
0.843750000000005
40
0.843750000000005
40
0.851562500000005
40
0.851562500000005
40
0.859375000000004
40
0.859375000000004
40
0.875000000000003
40
0.875000000000003
40
1
40
1
40
1
40
1
41
1
10
35.4544043199445
20
0.759426529795292
30
0
41
1
10
35.6025429915202
20
0.625333441372192
30
0
41
1
10
35.7587774767297
20
0.508145508077831
30
0
41
1
10
36.005750989585
20
0.358719604429155
30
0
41
1
10
36.0895335439587
20
0.31387701647401
30
0
41
1
10
36.2577064670158
20
0.236244060753705
30
0
41
1
10
36.3424584596416
20
0.203228591983532
30
0
41
1
10
36.513423830327
20
0.149935616982589
30
0
41
1
10
36.6001702316711
20
0.129559837869323
30
0
41
1
10
36.7726098918137
20
0.104117632755703
30
0
41
1
10
36.857953221482
20
0.0989791010666181
30
0
41
1
10
36.9843615226021
20
0.105170745444354
30
0
41
1
10
37.0260353540679
20
0.109573834889659
30
0
41
1
10
37.077268887965
20
0.118342658706922
30
0
41
1
10
37.0874695004705
20
0.120258564845756
30
0
41
1
10
37.1077766848422
20
0.124421174797277
30
0
41
1
10
37.1184162181996
20
0.125534868929179
30
0
41
1
10
37.1317457522921
20
0.13330887315783
30
0
41
1
10
37.135274417287
20
0.137613118514622
30
0
41
1
10
37.1394814034
20
0.148250607127295
30
0
41
1
10
37.1405515877149
20
0.154284212915599
30
0
41
1
10
37.1443689901289
20
0.171916786700933
30
0
41
1
10
37.1467479172327
20
0.183754350630124
30
0
41
1
10
37.1667294185077
20
0.291002636907166
30
0
41
1
10
37.1742908886921
20
0.390496198797791
30
0
41
1
10
37.1747833208683
20
0.491866881821636
30
0
0
SPLINE
5
E4
100
AcDbEntity
8
1
62
256
6
ByLayer
370
18
48
1
60
0
100
AcDbSpline
70
4
71
3
72
8
73
4
40
0
40
0
40
0
40
0
40
1
40
1
40
1
40
1
41
1
10
37.3117251681581
20
-1.99151529062374
30
0
41
1
10
37.3114685663786
20
-1.99215162690598
30
0
41
1
10
37.3112119488823
20
-1.99278793582644
30
0
41
1
10
37.3109553157334
20
-1.99342421731046
30
0
0
SPLINE
5
E5
100
AcDbEntity
8
1
62
256
6
ByLayer
370
18
48
1
60
0
100
AcDbSpline
70
4
71
3
72
8
73
4
40
0
40
0
40
0
40
0
40
1
40
1
40
1
40
1
41
1
10
37.9900199527746
20
0.0954154430379504
30
0
41
1
10
37.9906202072546
20
0.0777436378958782
30
0
41
1
10
37.9944477377504
20
0.0554488259599566
30
0
41
1
10
37.9999513538574
20
0.0321429135741766
30
0
0
SPLINE
5
E6
100
AcDbEntity
8
1
62
256
6
ByLayer
370
18
48
1
60
0
100
AcDbSpline
70
4
71
3
72
10
73
6
40
0
40
0
40
0
40
0
40
0.5
40
0.5
40
1
40
1
40
1
40
1
41
1
10
4.12197874960853
20
1.92412428654507
30
0
41
1
10
4.10191397430668
20
1.92727524643499
30
0
41
1
10
4.08440274529187
20
1.93115550841432
30
0
41
1
10
4.05871227431652
20
1.93958130648141
30
0
41
1
10
4.05037816113554
20
1.94413665114652
30
0
41
1
10
4.05039077806919
20
1.94840896657198
30
0
0
SPLINE
5
E7
100
AcDbEntity
8
1
62
256
6
ByLayer
370
18
48
1
60
0
100
AcDbSpline
70
4
71
3
72
8
73
4
40
0
40
0
40
0
40
0
40
1
40
1
40
1
40
1
41
1
10
37.9654927839617
20
-0.545778623487394
30
0
41
1
10
37.9767482944679
20
-0.395505350723852
30
0
41
1
10
37.9849259958654
20
-0.245384192792443
30
0
41
1
10
37.9900199527746
20
-0.0954154430379504
30
0
0
SPLINE
5
E8
100
AcDbEntity
8
1
62
256
6
ByLayer
370
18
48
1
60
0
100
AcDbSpline
70
4
71
3
72
12
73
8
40
0
40
0
40
0
40
0
40
0.25
40
0.25
40
0.5
40
0.5
40
1
40
1
40
1
40
1
41
1
10
37.1747833208684
20
0.491866881821636
30
0
41
1
10
37.1748313694003
20
0.501758015537007
30
0
41
1
10
37.1776442857123
20
0.511614497272689
30
0
41
1
10
37.1884825085293
20
0.528604027754369
30
0
41
1
10
37.1964865564445
20
0.535723925510013
30
0
41
1
10
37.2232866546954
20
0.551295834776823
30
0
41
1
10
37.2443266353526
20
0.554785626875599
30
0
41
1
10
37.2649345390888
20
0.554411877816307
30
0
0
SPLINE
5
E9
100
AcDbEntity
8
1
62
256
6
ByLayer
370
18
48
1
60
0
100
AcDbSpline
70
4
71
3
72
21
73
17
40
0
40
0
40
0
40
0
40
0.108483275177129
40
0.182965203579562
40
0.231726275851475
40
0.281451195011041
40
0.332120570910397
40
0.42404543516148
40
0.518750642294961
40
0.586033121315751
40
0.658272819895771
40
0.730870830789618
40
0.800862807498626
40
0.860702998863734
40
0.924369097432209
40
1
40
1
40
1
40
1
41
1
10
25.9494578213204
20
-1.89309942837906
30
0
41
1
10
26.1431267334834
20
-1.89335574035607
30
0
41
1
10
26.4697952991364
20
-1.8936437210555
30
0
41
1
10
26.8838851112237
20
-1.89372645022658
30
0
41
1
10
27.1926436984305
20
-1.89360079366833
30
0
41
1
10
27.4591107214567
20
-1.89451979055761
30
0
41
1
10
27.8026725387143
20
-1.89467977207732
30
0
41
1
10
28.2265930765753
20
-1.89362720874962
30
0
41
1
10
28.6801902222412
20
-1.8962044869352
30
0
41
1
10
29.0986179271882
20
-1.89425032952414
30
0
41
1
10
29.4775633392163
20
-1.89560108840158
30
0
41
1
10
29.861313885957
20
-1.89523804961067
30
0
41
1
10
30.2230319814526
20
-1.8944742778059
30
0
41
1
10
30.568392291431
20
-1.89803309164563
30
0
41
1
10
30.9242067746204
20
-1.89746036467295
30
0
41
1
10
31.1728591092249
20
-1.8969574132941
30
0
41
1
10
31.307843872412
20
-1.89635465644253
30
0
0
SPLINE
5
EA
100
AcDbEntity
8
1
62
256
6
ByLayer
370
18
48
1
60
0
100
AcDbSpline
70
4
71
3
72
22
73
18
40
0
40
0
40
0
40
0
40
0.0941976683333016
40
0.173579498041645
40
0.230317018151947
40
0.290670685092231
40
0.356976627752302
40
0.433651747201335
40
0.518138232875233
40
0.602206969910154
40
0.679780751280407
40
0.745436828634701
40
0.804222573449578
40
0.864328187861429
40
0.92558477139463
40
0.987446145227253
40
1
40
1
40
1
40
1
41
1
10
20.0515926352223
20
1.8904794336257
30
0
41
1
10
19.9106129650789
20
1.8904443656341
30
0
41
1
10
19.6508303402011
20
1.89018796910813
30
0
41
1
10
19.3061173699555
20
1.89096799120483
30
0
41
1
10
19.0120960219342
20
1.8889951936994
30
0
41
1
10
18.7376094569268
20
1.88933147368374
30
0
41
1
10
18.4332926032039
20
1.8901936129063
30
0
41
1
10
18.0928568444783
20
1.88861600621598
30
0
41
1
10
17.7258352334424
20
1.88833986732567
30
0
41
1
10
17.3574680958841
20
1.88940417911323
30
0
41
1
10
17.0172878525873
20
1.88719847325942
30
0
41
1
10
16.7149415708088
20
1.88750733219877
30
0
41
1
10
16.4387406393327
20
1.88814664743873
30
0
41
1
10
16.1691273274232
20
1.88742088807402
30
0
41
1
10
15.8948953292587
20
1.88675371816225
30
0
41
1
10
15.6918791206574
20
1.88677200772003
30
0
41
1
10
15.58051349134
20
1.88672092991646
30
0
41
1
10
15.561725845385
20
1.88671082816373
30
0
0
SPLINE
5
EB
100
AcDbEntity
8
1
62
256
6
ByLayer
370
18
48
1
60
0
100
AcDbSpline
70
4
71
3
72
19
73
15
40
0
40
0
40
0
40
0
40
0.08379820180296
40
0.175921673643289
40
0.235586930528131
40
0.293974932211278
40
0.354683213238292
40
0.412221552046883
40
0.466946125658735
40
0.66668123715998
40
0.720462948679738
40
0.794219927432785
40
0.896798886320412
40
1
40
1
40
1
40
1
41
1
10
4.25063360173581
20
-1.8797844796278
30
0
41
1
10
4.37764948752925
20
-1.88021658157072
30
0
41
1
10
4.64430534841557
20
-1.88092575139746
30
0
41
1
10
5.00141417049073
20
-1.88121736387421
30
0
41
1
10
5.32001691851178
20
-1.88119836694065
30
0
41
1
10
5.59100308181112
20
-1.88114137724125
30
0
41
1
10
5.8587644341755
20
-1.88086458892136
30
0
41
1
10
6.1209713641598
20
-1.88170752629304
30
0
41
1
10
6.59392992107573
20
-1.8825861699396
30
0
41
1
10
7.06119293387499
20
-1.88269429932504
30
0
41
1
10
7.55730772964813
20
-1.88262609356309
30
0
41
1
10
7.90613673143781
20
-1.88244636200534
30
0
41
1
10
8.32989142415903
20
-1.88387427666464
30
0
41
1
10
8.64182522543808
20
-1.88391874402427
30
0
41
1
10
8.79826262019097
20
-1.8838904047297
30
0
0
SPLINE
5
EC
100
AcDbEntity
8
1
62
256
6
ByLayer
370
18
48
1
60
0
100
AcDbSpline
70
4
71
3
72
20
73
16
40
0
40
0
40
0
40
0
40
0.113792619013059
40
0.186981508508395
40
0.246015643552758
40
0.30426809139733
40
0.361002780928763
40
0.421621216213267
40
0.495164144325893
40
0.600765513863675
40
0.700046439904983
40
0.781147471926541
40
0.838458279545792
40
0.90714162724291
40
1
40
1
40
1
40
1
41
1
10
14.6971480575261
20
-1.8858395155608
30
0
41
1
10
14.900163066679
20
-1.88613826472442
30
0
41
1
10
15.2337656069888
20
-1.88651044712674
30
0
41
1
10
15.6727352673253
20
-1.88678765381755
30
0
41
1
10
16.0125993856964
20
-1.88679996517331
30
0
41
1
10
16.3231301025652
20
-1.88815440705901
30
0
41
1
10
16.6364813238667
20
-1.8877005052984
30
0
41
1
10
16.9771206806661
20
-1.88705114665188
30
0
41
1
10
17.4049525845533
20
-1.88976903213654
30
0
41
1
10
17.9017805260203
20
-1.88751437930065
30
0
41
1
10
18.4120885225993
20
-1.89064265429923
30
0
41
1
10
18.8362367814578
20
-1.8887348799199
30
0
41
1
10
19.2057671535964
20
-1.89023252359232
30
0
41
1
10
19.5962935293533
20
-1.89066656559967
30
0
41
1
10
19.8845489627107
20
-1.89068122435944
30
0
41
1
10
20.05024630784
20
-1.89051161321524
30
0
0
SPLINE
5
ED
100
AcDbEntity
8
1
62
256
6
ByLayer
370
18
48
1
60
0
100
AcDbSpline
70
4
71
1
72
4
73
2
40
0
40
0
40
1
40
1
41
1
10
37.0951702994601
20
-1.89908451890707
30
0
41
1
10
37.2973609225385
20
-1.89922564321614
30
0
0
SPLINE
5
EE
100
AcDbEntity
8
1
62
256
6
ByLayer
370
18
48
1
60
0
100
AcDbSpline
70
4
71
3
72
19
73
15
40
0
40
0
40
0
40
0
40
0.0914343353265592
40
0.168405781430336
40
0.240751757829233
40
0.325371104451673
40
0.41314111091252
40
0.500477922666399
40
0.581821523485726
40
0.72636216673221
40
0.87312629168018
40
0.931949237702834
40
0.990288472268638
40
1
40
1
40
1
40
1
41
1
10
31.3078332587075
20
1.89635468575631
30
0
41
1
10
31.1728520320025
20
1.8969574240617
30
0
41
1
10
30.9242032346755
20
1.89746033474583
30
0
41
1
10
30.568392291104
20
1.89803319629058
30
0
41
1
10
30.2230319819756
20
1.89447388588672
30
0
41
1
10
29.861313883878
20
1.89523982351974
30
0
41
1
10
29.4775633471974
20
1.89559424293816
30
0
41
1
10
29.098617898519
20
1.89427496125902
30
0
41
1
10
28.6357978606098
20
1.89629917771498
30
0
41
1
10
28.0851609468079
20
1.89321331677195
30
0
41
1
10
27.5678039163234
20
1.89500067177863
30
0
41
1
10
27.1778153919403
20
1.89356298845885
30
0
41
1
10
26.990486831731
20
1.89367657441613
30
0
41
1
10
26.889959930954
20
1.89369557571499
30
0
41
1
10
26.8756128825995
20
1.89369748807735
30
0
0
SPLINE
5
EF
100
AcDbEntity
8
1
62
256
6
ByLayer
370
18
48
1
60
0
100
AcDbSpline
70
4
71
3
72
20
73
16
40
0
40
0
40
0
40
0
40
0.107200429878204
40
0.200197231503138
40
0.258764684401258
40
0.314455570956784
40
0.37027920602009
40
0.42763332503469
40
0.486886291210742
40
0.562407074985792
40
0.645718394155842
40
0.726806267264978
40
0.807388665903491
40
0.921667048618902
40
1
40
1
40
1
40
1
41
1
10
8.79378749148921
20
1.88387999773334
30
0
41
1
10
8.63576303158899
20
1.88390786186827
30
0
41
1
10
8.34064682923415
20
1.88382911390627
30
0
41
1
10
7.95899687221106
20
1.8826275131502
30
0
41
1
10
7.65355365101533
20
1.88249723481681
30
0
41
1
10
7.40276615108507
20
1.88273385785789
30
0
41
1
10
7.15375977702598
20
1.88258590841002
30
0
41
1
10
6.89950369258153
20
1.88213618920591
30
0
41
1
10
6.6162016550382
20
1.88206437914317
30
0
41
1
10
6.29462815792175
20
1.88237891894241
30
0
41
1
10
5.940856965481
20
1.88083140399323
30
0
41
1
10
5.57961648194336
20
1.88114627682032
30
0
41
1
10
5.17273150236846
20
1.88122543828865
30
0
41
1
10
4.76990113011877
20
1.88110538735589
30
0
41
1
10
4.4859240445702
20
1.88046141065439
30
0
41
1
10
4.37043744199508
20
1.88012470626006
30
0
0
LINE
5
7B
100
AcDbEntity
8
SK1
62
256
6
ByLayer
370
18
48
1
60
0
100
AcDbLine
10
-35.065
20
3
30
0
11
-35.065
21
-3
31
0
39
0
210
0
220
0
230
1
0
LINE
5
7D
100
AcDbEntity
8
SK1
62
256
6
ByLayer
370
18
48
1
60
0
100
AcDbLine
10
-36
20
2.065
30
0
11
-36
21
-2.065
31
0
39
0
210
0
220
0
230
1
0
LINE
5
7E
100
AcDbEntity
8
SK1
62
256
6
ByLayer
370
18
48
1
60
0
100
AcDbLine
10
0
20
-3
30
0
11
0
21
3
31
0
39
0
210
0
220
0
230
1
0
LINE
5
7F
100
AcDbEntity
8
1
62
256
6
ByLayer
370
13
48
1
60
0
100
AcDbLine
10
37.264935
20
0.554412
30
0
11
37.99002
21
0.095415
31
0
39
0
210
0
220
0
230
1
0
LINE
5
80
100
AcDbEntity
8
1
62
256
6
ByLayer
370
18
48
1
60
0
100
AcDbLine
10
4.250728
20
-1.879878
30
0
11
4.250751
21
-1.879428
31
0
39
0
210
0
220
0
230
1
0
LINE
5
81
100
AcDbEntity
8
1
62
256
6
ByLayer
370
13
48
1
60
0
100
AcDbLine
10
4.119469
20
-1.916187
30
0
11
4.121979
21
-1.924124
31
0
39
0
210
0
220
0
230
1
0
LINE
5
82
100
AcDbEntity
8
1
62
256
6
ByLayer
370
18
48
1
60
0
100
AcDbLine
10
0
20
-3
30
0
11
0
21
3
31
0
39
0
210
0
220
0
230
1
0
LINE
5
83
100
AcDbEntity
8
1
62
256
6
ByLayer
370
13
48
1
60
0
100
AcDbLine
10
1.492627
20
1.977544
30
0
11
1.492627
21
-1.977544
31
0
39
0
210
0
220
0
230
1
0
LINE
5
84
100
AcDbEntity
8
1
62
256
6
ByLayer
370
13
48
1
60
0
100
AcDbLine
10
37.174783
20
0.491867
30
0
11
37.979063
21
-0.017261
31
0
39
0
210
0
220
0
230
1
0
LINE
5
85
100
AcDbEntity
8
1
62
256
6
ByLayer
370
13
48
1
60
0
100
AcDbLine
10
0.746064
20
2.488772
30
0
11
0.746064
21
-2.488772
31
0
39
0
210
0
220
0
230
1
0
LINE
5
86
100
AcDbEntity
8
80
62
256
6
ByLayer
370
18
48
1
60
0
100
AcDbLine
10
0
20
0
30
0
11
-5
21
0
31
0
39
0
210
0
220
0
230
1
0
LINE
5
87
100
AcDbEntity
8
4
62
256
6
ByLayer
370
18
48
0.05
60
0
100
AcDbLine
10
38
20
0
30
0
11
0
21
0
31
0
39
0
210
0
220
0
230
1
0
LINE
5
89
100
AcDbEntity
8
SK4
62
256
6
ByLayer
370
18
48
0.05
60
0
100
AcDbLine
10
43
20
0
30
0
11
-41
21
0
31
0
39
0
210
0
220
0
230
1
0
LINE
5
8B
100
AcDbEntity
8
SK1
62
256
6
ByLayer
370
18
48
1
60
0
100
AcDbLine
10
-36
20
-2.065
30
0
11
-35.065
21
-3
31
0
39
0
210
0
220
0
230
1
0
LINE
5
8C
100
AcDbEntity
8
SK1
62
256
6
ByLayer
370
18
48
1
60
0
100
AcDbLine
10
-35.065
20
3
30
0
11
-36
21
2.065
31
0
39
0
210
0
220
0
230
1
0
LINE
5
8D
100
AcDbEntity
8
SK1
62
256
6
ByLayer
370
18
48
1
60
0
100
AcDbLine
10
-35.065
20
-3
30
0
11
0
21
-3
31
0
39
0
210
0
220
0
230
1
0
LINE
5
8E
100
AcDbEntity
8
SK1
62
256
6
ByLayer
370
18
48
1
60
0
100
AcDbLine
10
0
20
3
30
0
11
-35.065
21
3
31
0
39
0
210
0
220
0
230
1
0
LINE
5
8F
100
AcDbEntity
8
1
62
256
6
ByLayer
370
18
48
1
60
0
100
AcDbLine
10
1.492627
20
-1.977544
30
0
11
4.050549
21
-1.979143
31
0
39
0
210
0
220
0
230
1
0
LINE
5
90
100
AcDbEntity
8
1
62
256
6
ByLayer
370
18
48
1
60
0
100
AcDbLine
10
13.946397
20
-1.985328
30
0
11
14.520525
21
-1.985686
31
0
39
0
210
0
220
0
230
1
0
LINE
5
91
100
AcDbEntity
8
1
62
256
6
ByLayer
370
18
48
1
60
0
100
AcDbLine
10
25.19588
20
-1.992359
30
0
11
25.772231
21
-1.992719
31
0
39
0
210
0
220
0
230
1
0
LINE
5
92
100
AcDbEntity
8
1
62
256
6
ByLayer
370
18
48
1
60
0
100
AcDbLine
10
36.447488
20
-1.999391
30
0
11
37.02242
21
-1.99975
31
0
39
0
210
0
220
0
230
1
0
LINE
5
93
100
AcDbEntity
8
1
62
256
6
ByLayer
370
18
48
1
60
0
100
AcDbLine
10
37.022387
20
1.99975
30
0
11
36.447488
21
1.999391
31
0
39
0
210
0
220
0
230
1
0
LINE
5
94
100
AcDbEntity
8
1
62
256
6
ByLayer
370
18
48
1
60
0
100
AcDbLine
10
25.770941
20
1.992718
30
0
11
25.19588
21
1.992359
31
0
39
0
210
0
220
0
230
1
0
LINE
5
95
100
AcDbEntity
8
1
62
256
6
ByLayer
370
18
48
1
60
0
100
AcDbLine
10
14.521788
20
1.985687
30
0
11
13.946397
21
1.985328
31
0
39
0
210
0
220
0
230
1
0
LINE
5
96
100
AcDbEntity
8
1
62
256
6
ByLayer
370
18
48
1
60
0
100
AcDbLine
10
4.050549
20
1.979143
30
0
11
1.492627
21
1.977544
31
0
39
0
210
0
220
0
230
1
0
LINE
5
97
100
AcDbEntity
8
81
62
256
6
ByLayer
370
18
48
1
60
0
100
AcDbLine
10
38
20
0
30
0
11
43
21
0
31
0
39
0
210
0
220
0
230
1
0
LINE
5
98
100
AcDbEntity
8
SK2
62
256
6
ByLayer
370
13
48
1
60
0
100
AcDbLine
10
-44.625163
20
32.117107
30
0
11
-44.625163
21
-11.75
31
0
39
0
210
0
220
0
230
1
0
LINE
5
9A
100
AcDbEntity
8
SK2
62
256
6
ByLayer
370
13
48
1
60
0
100
AcDbLine
10
-37.5875
20
3
30
0
11
-46.625163
21
3
31
0
39
0
210
0
220
0
230
1
0
LINE
5
9B
100
AcDbEntity
8
SK2
62
256
6
ByLayer
370
13
48
1
60
0
100
AcDbLine
10
-37.5875
20
-3
30
0
11
-46.625163
21
-3
31
0
39
0
210
0
220
0
230
1
0
LINE
5
9C
100
AcDbEntity
8
1
62
256
6
ByLayer
370
18
48
1
60
1
100
AcDbLine
10
-44.625163
20
3
30
0
11
-45.085946
21
6.499998
31
0
39
0
210
0
220
0
230
1
0
LINE
5
9D
100
AcDbEntity
8
1
62
256
6
ByLayer
370
18
48
1
60
1
100
AcDbLine
10
-45.085946
20
6.499998
30
0
11
-44.164379
21
6.500002
31
0
39
0
210
0
220
0
230
1
0
LINE
5
9E
100
AcDbEntity
8
1
62
256
6
ByLayer
370
18
48
1
60
1
100
AcDbLine
10
-44.164379
20
6.500002
30
0
11
-44.625163
21
3
31
0
39
0
210
0
220
0
230
1
0
LINE
5
9F
100
AcDbEntity
8
1
62
256
6
ByLayer
370
18
48
1
60
1
100
AcDbLine
10
-44.625163
20
-3
30
0
11
-44.164379
21
-6.499998
31
0
39
0
210
0
220
0
230
1
0
LINE
5
A0
100
AcDbEntity
8
1
62
256
6
ByLayer
370
18
48
1
60
1
100
AcDbLine
10
-44.164379
20
-6.499998
30
0
11
-45.085946
21
-6.500002
31
0
39
0
210
0
220
0
230
1
0
LINE
5
A1
100
AcDbEntity
8
1
62
256
6
ByLayer
370
18
48
1
60
1
100
AcDbLine
10
-45.085946
20
-6.500002
30
0
11
-44.625163
21
-3
31
0
39
0
210
0
220
0
230
1
0
LINE
5
A2
100
AcDbEntity
8
2
62
256
6
ByLayer
370
13
48
1
60
0
100
AcDbLine
10
50.083343
20
30.078727
30
0
11
50.083343
21
-10.75
31
0
39
0
210
0
220
0
230
1
0
LINE
5
A4
100
AcDbEntity
8
2
62
256
6
ByLayer
370
13
48
1
60
0
100
AcDbLine
10
39.0077
20
2
30
0
11
52.083343
21
2
31
0
39
0
210
0
220
0
230
1
0
LINE
5
A5
100
AcDbEntity
8
2
62
256
6
ByLayer
370
13
48
1
60
0
100
AcDbLine
10
39.0077
20
-2
30
0
11
52.083343
21
-2
31
0
39
0
210
0
220
0
230
1
0
LINE
5
A6
100
AcDbEntity
8
1
62
256
6
ByLayer
370
18
48
1
60
1
100
AcDbLine
10
50.083343
20
2
30
0
11
49.622559
21
5.499998
31
0
39
0
210
0
220
0
230
1
0
LINE
5
A7
100
AcDbEntity
8
1
62
256
6
ByLayer
370
18
48
1
60
1
100
AcDbLine
10
49.622559
20
5.499998
30
0
11
50.544126
21
5.500002
31
0
39
0
210
0
220
0
230
1
0
LINE
5
A8
100
AcDbEntity
8
1
62
256
6
ByLayer
370
18
48
1
60
1
100
AcDbLine
10
50.544126
20
5.500002
30
0
11
50.083343
21
2
31
0
39
0
210
0
220
0
230
1
0
LINE
5
A9
100
AcDbEntity
8
1
62
256
6
ByLayer
370
18
48
1
60
1
100
AcDbLine
10
50.083343
20
-2
30
0
11
50.544126
21
-5.499998
31
0
39
0
210
0
220
0
230
1
0
LINE
5
AA
100
AcDbEntity
8
1
62
256
6
ByLayer
370
18
48
1
60
1
100
AcDbLine
10
50.544126
20
-5.499998
30
0
11
49.622559
21
-5.500002
31
0
39
0
210
0
220
0
230
1
0
LINE
5
AB
100
AcDbEntity
8
1
62
256
6
ByLayer
370
18
48
1
60
1
100
AcDbLine
10
49.622559
20
-5.500002
30
0
11
50.083343
21
-2
31
0
39
0
210
0
220
0
230
1
0
LINE
5
F6
100
AcDbEntity
8
1
62
256
6
ByLayer
370
18
48
1
60
1
100
AcDbLine
10
-44.625163
20
3
30
0
11
-45.085946
21
6.499998
31
0
39
0
210
0
220
0
230
1
0
LINE
5
F7
100
AcDbEntity
8
1
62
256
6
ByLayer
370
18
48
1
60
1
100
AcDbLine
10
-45.085946
20
6.499998
30
0
11
-44.164379
21
6.500002
31
0
39
0
210
0
220
0
230
1
0
LINE
5
F8
100
AcDbEntity
8
1
62
256
6
ByLayer
370
18
48
1
60
1
100
AcDbLine
10
-44.164379
20
6.500002
30
0
11
-44.625163
21
3
31
0
39
0
210
0
220
0
230
1
0
LINE
5
FA
100
AcDbEntity
8
1
62
256
6
ByLayer
370
18
48
1
60
1
100
AcDbLine
10
-44.625163
20
-3
30
0
11
-44.164379
21
-6.499998
31
0
39
0
210
0
220
0
230
1
0
LINE
5
FB
100
AcDbEntity
8
1
62
256
6
ByLayer
370
18
48
1
60
1
100
AcDbLine
10
-44.164379
20
-6.499998
30
0
11
-45.085946
21
-6.500002
31
0
39
0
210
0
220
0
230
1
0
LINE
5
FC
100
AcDbEntity
8
1
62
256
6
ByLayer
370
18
48
1
60
1
100
AcDbLine
10
-45.085946
20
-6.500002
30
0
11
-44.625163
21
-3
31
0
39
0
210
0
220
0
230
1
0
LINE
5
100
100
AcDbEntity
8
1
62
256
6
ByLayer
370
18
48
1
60
1
100
AcDbLine
10
50.083343
20
2
30
0
11
49.622559
21
5.499998
31
0
39
0
210
0
220
0
230
1
0
LINE
5
101
100
AcDbEntity
8
1
62
256
6
ByLayer
370
18
48
1
60
1
100
AcDbLine
10
49.622559
20
5.499998
30
0
11
50.544126
21
5.500002
31
0
39
0
210
0
220
0
230
1
0
LINE
5
102
100
AcDbEntity
8
1
62
256
6
ByLayer
370
18
48
1
60
1
100
AcDbLine
10
50.544126
20
5.500002
30
0
11
50.083343
21
2
31
0
39
0
210
0
220
0
230
1
0
LINE
5
104
100
AcDbEntity
8
1
62
256
6
ByLayer
370
18
48
1
60
1
100
AcDbLine
10
50.083343
20
-2
30
0
11
50.544126
21
-5.499998
31
0
39
0
210
0
220
0
230
1
0
LINE
5
105
100
AcDbEntity
8
1
62
256
6
ByLayer
370
18
48
1
60
1
100
AcDbLine
10
50.544126
20
-5.499998
30
0
11
49.622559
21
-5.500002
31
0
39
0
210
0
220
0
230
1
0
LINE
5
106
100
AcDbEntity
8
1
62
256
6
ByLayer
370
18
48
1
60
1
100
AcDbLine
10
49.622559
20
-5.500002
30
0
11
50.083343
21
-2
31
0
39
0
210
0
220
0
230
1
0
MTEXT
5
F0
100
AcDbEntity
8
SK6
62
256
6
ByLayer
370
13
48
1
60
0
100
AcDbMText
10
-28.766893
20
34.540328
30
0
210
0
220
0
230
1
1
\W0.7823;462.1-0400-020A0-XM X2BM
40
3.5
41
0
44
1.084337
50
0
71
7
72
5
7
iso_b_vert
0
MTEXT
5
F4
100
AcDbEntity
8
SK2
62
256
6
ByLayer
370
18
48
1
60
0
100
AcDbMText
10
-46.189796
20
16.409024
30
0
210
0
220
0
230
1
1
%%c
40
3.5
41
0
44
1.084337
50
90
71
7
72
5
7
iso_b_vert
0
MTEXT
5
F5
100
AcDbEntity
8
SK2
62
256
6
ByLayer
370
18
48
1
60
0
100
AcDbMText
10
-46.189796
20
21.63168
30
0
210
0
220
0
230
1
1
\W0.7317;6,000
40
3.5
41
0
44
1.084337
50
90
71
7
72
5
7
iso_b_vert
0
MTEXT
5
FE
100
AcDbEntity
8
2
62
256
6
ByLayer
370
18
48
1
60
0
100
AcDbMText
10
48.518709
20
14.00211
30
0
210
0
220
0
230
1
1
%%c
40
3.5
41
0
44
1.084337
50
90
71
7
72
5
7
iso_b_vert
0
MTEXT
5
FF
100
AcDbEntity
8
2
62
256
6
ByLayer
370
18
48
1
60
0
100
AcDbMText
10
48.518709
20
19.224766
30
0
210
0
220
0
230
1
1
\W0.7581;4,000
40
3.5
41
0
44
1.084337
50
90
71
7
72
5
7
iso_b_vert
0
HATCH
5
F9
100
AcDbEntity
8
SK2
62
256
6
ByLayer
370
13
48
1
60
0
100
AcDbHatch
10
0
20
0
30
0
210
0
220
0
230
1
2
ANSI31
70
0
71
0
91
1
92
5
93
3
72
1
10
-44.6251625675374
20
3
11
-45.0859463090902
21
6.49999830744682
72
1
10
-45.0859463090902
20
6.49999830744682
11
-44.1643788259847
21
6.50000169255318
72
1
10
-44.1643788259847
20
6.50000169255318
11
-44.6251625675374
21
3
97
0
75
0
76
1
52
0
41
0.0062
77
0
78
1
53
45
43
0
44
0
45
-0.0139193969876572
46
0.0139193969876572
79
0
47
0
98
1
10
0
20
0
0
HATCH
5
FD
100
AcDbEntity
8
SK2
62
256
6
ByLayer
370
13
48
1
60
0
100
AcDbHatch
10
0
20
0
30
0
210
0
220
0
230
1
2
ANSI31
70
0
71
0
91
1
92
5
93
3
72
1
10
-44.6251625675374
20
-3
11
-44.1643788259847
21
-6.49999830744682
72
1
10
-44.1643788259847
20
-6.49999830744682
11
-45.0859463090902
21
-6.50000169255318
72
1
10
-45.0859463090902
20
-6.50000169255318
11
-44.6251625675374
21
-3
97
0
75
0
76
1
52
0
41
0.0062
77
0
78
1
53
45
43
0
44
0
45
-0.0139193969876572
46
0.0139193969876572
79
0
47
0
98
1
10
0
20
0
0
HATCH
5
103
100
AcDbEntity
8
2
62
256
6
ByLayer
370
13
48
1
60
0
100
AcDbHatch
10
0
20
0
30
0
210
0
220
0
230
1
2
ANSI31
70
0
71
0
91
1
92
5
93
3
72
1
10
50.083342615295
20
2
11
49.6225588737423
21
5.49999830744682
72
1
10
49.6225588737423
20
5.49999830744682
11
50.5441263568478
21
5.50000169255318
72
1
10
50.5441263568478
20
5.50000169255318
11
50.083342615295
21
2
97
0
75
0
76
1
52
0
41
0.0062
77
0
78
1
53
45
43
0
44
0
45
-0.0139193969876572
46
0.0139193969876572
79
0
47
0
98
1
10
0
20
0
0
HATCH
5
107
100
AcDbEntity
8
2
62
256
6
ByLayer
370
13
48
1
60
0
100
AcDbHatch
10
0
20
0
30
0
210
0
220
0
230
1
2
ANSI31
70
0
71
0
91
1
92
5
93
3
72
1
10
50.083342615295
20
-2
11
50.5441263568478
21
-5.49999830744682
72
1
10
50.5441263568478
20
-5.49999830744682
11
49.6225588737423
21
-5.50000169255318
72
1
10
49.6225588737423
20
-5.50000169255318
11
50.083342615295
21
-2
97
0
75
0
76
1
52
0
41
0.0062
77
0
78
1
53
45
43
0
44
0
45
-0.0139193969876572
46
0.0139193969876572
79
0
47
0
98
1
10
0
20
0
0
DIMENSION
5
109
100
AcDbEntity
8
SK2
62
256
6
ByLayer
370
13
48
1
60
0
100
AcDbDimension
2
_U0
10
37.4202
20
-12.213398
30
0
11
18.7101
21
-12.213398
31
0
70
32
71
1
72
1
41
1
210
0
220
0
230
1
3
Standard
100
AcDbAlignedDimension
13
0
23
0
33
0
14
37.4202
24
-2
34
0
50
0
100
AcDbRotatedDimension
1001
ACAD
1000
DSTYLE
1002
{
1070
   371
1070
    13
1070
   372
1070
    13
1070
   170
1070
     0
1070
   144
1040
1.0
1070
   277
1070
     2
1070
   278
1070
    44
1070
   146
1040
1.0
1070
   345
1005
16
1070
   347
1005
16
1070
   346
1005
16
1070
   344
1005
0
1070
   343
1005
0
1070
   172
1070
     1
1070
    76
1070
     0
1070
    75
1070
     0
1070
   282
1070
     0
1070
   281
1070
     0
1070
    71
1070
     0
1070
    74
1070
     0
1070
   279
1070
     0
1070
   173
1070
     1
1070
   340
1005
F1
1070
   271
1070
     2
1070
   272
1070
     2
1070
    77
1070
     1
1070
    73
1070
     1
1070
   171
1070
     3
1070
   274
1070
     4
1070
   177
1070
    35
1070
   176
1070
    35
1070
   178
1070
    35
1070
    48
1040
-0.1
1070
    41
1040
3.5
1070
   147
1040
1.75
1070
    42
1040
1.5875
1070
    44
1040
2.0
1070
   140
1040
3.5
1002
}
1001
ACAD_DSTYLE_DIM_LINETYPE
1070
   380
1005
16
1001
ACAD_DSTYLE_DIM_EXT1_LINETYPE
1070
   381
1005
16
1001
ACAD_DSTYLE_DIM_EXT2_LINETYPE
1070
   382
1005
16
0
DIMENSION
5
122
100
AcDbEntity
8
SK2
62
256
6
ByLayer
370
13
48
1
60
0
100
AcDbDimension
2
_U1
10
38
20
-31.692985
30
0
11
1
21
-31.692985
31
0
70
32
71
1
72
1
41
1
210
0
220
0
230
1
3
Standard
100
AcDbAlignedDimension
13
-36
23
-3
33
0
14
38
24
0
34
0
50
0
100
AcDbRotatedDimension
1001
ACAD
1000
DSTYLE
1002
{
1070
   371
1070
    13
1070
   372
1070
    13
1070
   170
1070
     0
1070
   144
1040
1.0
1070
   277
1070
     2
1070
   278
1070
    44
1070
   146
1040
1.0
1070
   345
1005
16
1070
   347
1005
16
1070
   346
1005
16
1070
   344
1005
0
1070
   343
1005
0
1070
   172
1070
     1
1070
    76
1070
     0
1070
    75
1070
     0
1070
   282
1070
     0
1070
   281
1070
     0
1070
    71
1070
     0
1070
    74
1070
     0
1070
   279
1070
     0
1070
   173
1070
     1
1070
   340
1005
F1
1070
   271
1070
     2
1070
   272
1070
     2
1070
    77
1070
     1
1070
    73
1070
     1
1070
   171
1070
     3
1070
   274
1070
     4
1070
   177
1070
    35
1070
   176
1070
    35
1070
   178
1070
    35
1070
    48
1040
-0.1
1070
    41
1040
3.5
1070
   147
1040
1.75
1070
    42
1040
1.5875
1070
    44
1040
2.0
1070
   140
1040
3.5
1002
}
1001
ACAD_DSTYLE_DIM_LINETYPE
1070
   380
1005
16
1001
ACAD_DSTYLE_DIM_EXT1_LINETYPE
1070
   381
1005
16
1001
ACAD_DSTYLE_DIM_EXT2_LINETYPE
1070
   382
1005
16
0
DIMENSION
5
13A
100
AcDbEntity
8
SK2
62
256
6
ByLayer
370
13
48
1
60
0
100
AcDbDimension
2
_U2
10
38
20
13.609119
30
0
11
27.71
21
13.609119
31
0
70
32
71
1
72
1
41
1
210
0
220
0
230
1
3
Standard
100
AcDbAlignedDimension
13
17.42
23
2
33
0
14
38
24
0
34
0
50
0
100
AcDbRotatedDimension
1001
ACAD
1000
DSTYLE
1002
{
1070
   371
1070
    13
1070
   372
1070
    13
1070
   170
1070
     0
1070
   144
1040
1.0
1070
   277
1070
     2
1070
   278
1070
    44
1070
   146
1040
1.0
1070
   345
1005
16
1070
   347
1005
16
1070
   346
1005
16
1070
   344
1005
0
1070
   343
1005
0
1070
   172
1070
     1
1070
    76
1070
     0
1070
    75
1070
     0
1070
   282
1070
     0
1070
   281
1070
     0
1070
    71
1070
     0
1070
    74
1070
     0
1070
   279
1070
     0
1070
   173
1070
     1
1070
   340
1005
F1
1070
   271
1070
     2
1070
   272
1070
     2
1070
    77
1070
     1
1070
    73
1070
     1
1070
   171
1070
     3
1070
   274
1070
     4
1070
   177
1070
    35
1070
   176
1070
    35
1070
   178
1070
    35
1070
    48
1040
-0.1
1070
    41
1040
3.5
1070
   147
1040
1.75
1070
    42
1040
1.5875
1070
    44
1040
2.0
1070
   140
1040
3.5
1002
}
1001
ACAD_DSTYLE_DIM_LINETYPE
1070
   380
1005
16
1001
ACAD_DSTYLE_DIM_EXT1_LINETYPE
1070
   381
1005
16
1001
ACAD_DSTYLE_DIM_EXT2_LINETYPE
1070
   382
1005
16
0
DIMENSION
5
152
100
AcDbEntity
8
SK2
62
256
6
ByLayer
370
13
48
1
60
0
100
AcDbDimension
2
_U3
10
37.4202
20
-14.802503
30
0
11
55.583333
21
-14.802503
31
0
70
32
71
1
72
1
41
1
210
0
220
0
230
1
3
Standard
100
AcDbAlignedDimension
13
38
23
0
33
0
14
37.4202
24
-2
34
0
50
0
100
AcDbRotatedDimension
1001
ACAD
1000
DSTYLE
1002
{
1070
   371
1070
    13
1070
   372
1070
    13
1070
   170
1070
     0
1070
   144
1040
1.0
1070
   277
1070
     2
1070
   278
1070
    44
1070
   146
1040
1.0
1070
   345
1005
16
1070
   347
1005
16
1070
   346
1005
16
1070
   344
1005
0
1070
   343
1005
0
1070
   172
1070
     1
1070
    76
1070
     0
1070
    75
1070
     0
1070
   282
1070
     0
1070
   281
1070
     0
1070
    71
1070
     0
1070
    74
1070
     0
1070
   279
1070
     0
1070
   173
1070
     1
1070
   340
1005
F1
1070
   271
1070
     2
1070
   272
1070
     2
1070
    77
1070
     1
1070
    73
1070
     1
1070
   171
1070
     3
1070
   274
1070
     4
1070
   177
1070
    35
1070
   176
1070
    35
1070
   178
1070
    35
1070
    48
1040
-0.1
1070
    41
1040
3.5
1070
   147
1040
1.75
1070
    42
1040
1.5875
1070
    44
1040
2.0
1070
   140
1040
3.5
1002
}
1001
ACAD_DSTYLE_DIM_LINETYPE
1070
   380
1005
16
1001
ACAD_DSTYLE_DIM_EXT1_LINETYPE
1070
   381
1005
16
1001
ACAD_DSTYLE_DIM_EXT2_LINETYPE
1070
   382
1005
16
0
DIMENSION
5
16C
100
AcDbEntity
8
SK2
62
256
6
ByLayer
370
13
48
1
60
0
100
AcDbDimension
2
_U4
10
37.4202
20
-21.343428
30
0
11
0.7101
21
-21.343428
31
0
70
32
71
1
72
1
41
1
210
0
220
0
230
1
3
Standard
100
AcDbAlignedDimension
13
-36
23
-3
33
0
14
37.4202
24
-2
34
0
50
0
100
AcDbRotatedDimension
1001
ACAD
1000
DSTYLE
1002
{
1070
   371
1070
    13
1070
   372
1070
    13
1070
   170
1070
     0
1070
   144
1040
1.0
1070
   277
1070
     2
1070
   278
1070
    44
1070
   146
1040
1.0
1070
   345
1005
16
1070
   347
1005
16
1070
   346
1005
16
1070
   344
1005
0
1070
   343
1005
0
1070
   172
1070
     1
1070
    76
1070
     0
1070
    75
1070
     0
1070
   282
1070
     0
1070
   281
1070
     0
1070
    71
1070
     0
1070
    74
1070
     0
1070
   279
1070
     0
1070
   173
1070
     1
1070
   340
1005
F1
1070
   271
1070
     2
1070
   272
1070
     2
1070
    77
1070
     1
1070
    73
1070
     1
1070
   171
1070
     3
1070
   274
1070
     4
1070
   177
1070
    35
1070
   176
1070
    35
1070
   178
1070
    35
1070
    48
1040
-0.1
1070
    41
1040
3.5
1070
   147
1040
1.75
1070
    42
1040
1.5875
1070
    44
1040
2.0
1070
   140
1040
3.5
1002
}
1001
ACAD_DSTYLE_DIM_LINETYPE
1070
   380
1005
16
1001
ACAD_DSTYLE_DIM_EXT1_LINETYPE
1070
   381
1005
16
1001
ACAD_DSTYLE_DIM_EXT2_LINETYPE
1070
   382
1005
16
0
ENDSEC
0
SECTION
2
OBJECTS
0
DICTIONARY
5
1f4
330
0
100
AcDbDictionary
280
0
281
1
3
ACAD_GROUP
350
1f5
3
ACAD_MLINESTYLE
350
1f6
0
DICTIONARY
5
1f5
330
0
100
AcDbDictionary
280
0
281
1
0
DICTIONARY
5
1f6
330
0
100
AcDbDictionary
280
0
281
1
3
Standard
350
18
0
MLINESTYLE
5
18
330
1f6
100
AcDbMlineStyle
2
Standard
70
0
3

62
256
51
90
52
90
71
2
49
-0.5
62
256
6
ByLayer
49
0.5
62
256
6
ByLayer
0
RASTERVARIABLES
5
1e2
330

100
AcDbRasterVariables
90
0
70
1
71
1
72
1
0
ENDSEC
0
EOF
