0
SECTION
2
HEADER
9
$ACADVER
1
AC1015
9
$DWGCODEPAGE
3
ANSI_1252
9
$HANDSEED
5
200
9
$ANGBASE
50
0
9
$ANGDIR
70
0
9
$ATTMODE
70
1
9
$AUNITS
70
0
9
$AUPREC
70
0
9
$CECOLOR
62
256
9
$CELTSCALE
40
1
9
$CELTYPE
6
ByLayer
9
$CELWEIGHT
370
18
9
$CLAYER
8
0
9
$CMLJUST
70
0
9
$CMLSCALE
40
1
9
$CMLSTYLE
2
Standard
9
$DIMSTYLE
2
Standard
9
$TEXTSIZE
40
0.2
9
$TEXTSTYLE
7
Standard
9
$LUNITS
70
2
9
$LUPREC
70
4
9
$EXTNAMES
290
1
9
$INSUNITS
70
4
9
$LTSCALE
40
1
9
$LWDISPLAY
290
1
9
$PDMODE
70
0
9
$PDSIZE
40
0
9
$PLINEGEN
70
0
0
ENDSEC
0
SECTION
2
CLASSES
0
CLASS
1
RASTERVARIABLES
2
AcDbRasterVariables
3
ISM
90
0
280
0
281
0
0
ENDSEC
0
SECTION
2
TABLES
0
TABLE
2
VPORT
5
1f6
100
AcDbSymbolTable
0
VPORT
5
1
100
AcDbSymbolTableRecord
100
AcDbViewportTableRecord
2
*Active
70
0
10
0
20
0
11
1
21
1
12
-1
22
1
13
0
23
0
14
0.5
24
0.5
15
10
25
10
16
0
26
0
36
1
17
0
27
0
37
0
0
ENDTAB
0
TABLE
2
LTYPE
5
1f7
100
AcDbSymbolTable
0
LTYPE
5
14
100
AcDbSymbolTableRecord
100
AcDbLinetypeTableRecord
70
0
2
ByBlock
3

72
65
73
0
40
0
0
LTYPE
5
15
100
AcDbSymbolTableRecord
100
AcDbLinetypeTableRecord
70
0
2
ByLayer
3

72
65
73
0
40
0
0
LTYPE
5
16
100
AcDbSymbolTableRecord
100
AcDbLinetypeTableRecord
70
0
2
Continuous
3
Solid line
72
65
73
0
40
0
0
LTYPE
5
6E
100
AcDbSymbolTableRecord
100
AcDbLinetypeTableRecord
70
0
2
CENTER
3
____ _ ____ _ ____ _ ____
72
65
73
4
40
47.5
49
22
74
0
49
-8.5
74
0
49
8.5
74
0
49
-8.5
74
0
0
LTYPE
5
6F
100
AcDbSymbolTableRecord
100
AcDbLinetypeTableRecord
70
0
2
DASHED
3
__ __ __ __ __ __ __ __ __
72
65
73
2
40
25.72
49
12.86
74
0
49
-12.86
74
0
0
ENDTAB
0
TABLE
2
LAYER
5
1f8
100
AcDbSymbolTable
0
LAYER
5
10
100
AcDbSymbolTableRecord
100
AcDbLayerTableRecord
2
0
70
0
62
7
6
Continuous
290
1
370
-3
390
0
0
LAYER
5
71
100
AcDbSymbolTableRecord
100
AcDbLayerTableRecord
2
80
70
0
62
-6
6
Continuous
290
1
370
-3
390
0
0
LAYER
5
73
100
AcDbSymbolTableRecord
100
AcDbLayerTableRecord
2
81
70
0
62
-3
6
Continuous
290
1
370
-3
390
0
0
LAYER
5
75
100
AcDbSymbolTableRecord
100
AcDbLayerTableRecord
2
1
70
0
62
4
6
Continuous
290
1
370
-3
390
0
0
LAYER
5
8C
100
AcDbSymbolTableRecord
100
AcDbLayerTableRecord
2
4
70
0
62
-2
6
CENTER
290
1
370
-3
390
0
0
LAYER
5
A5
100
AcDbSymbolTableRecord
100
AcDbLayerTableRecord
2
2
70
0
62
7
6
Continuous
290
1
370
-3
390
0
0
LAYER
5
10B
100
AcDbSymbolTableRecord
100
AcDbLayerTableRecord
2
Defpoints
70
0
62
7
6
Continuous
290
0
370
-3
390
0
0
LAYER
5
1e2
100
AcDbSymbolTableRecord
100
AcDbLayerTableRecord
2
SK1
70
0
62
4
6
Continuous
290
1
370
-3
390
0
0
LAYER
5
1e3
100
AcDbSymbolTableRecord
100
AcDbLayerTableRecord
2
SK4
70
0
62
2
6
CENTER
290
1
370
-3
390
0
0
LAYER
5
1e4
100
AcDbSymbolTableRecord
100
AcDbLayerTableRecord
2
SK2
70
0
62
7
6
Continuous
290
1
370
-3
390
0
0
LAYER
5
1e5
100
AcDbSymbolTableRecord
100
AcDbLayerTableRecord
2
SK6
70
0
62
5
6
Continuous
290
1
370
-3
390
0
0
ENDTAB
0
TABLE
2
STYLE
5
1f9
100
AcDbSymbolTable
0
STYLE
5
11
100
AcDbSymbolTableRecord
100
AcDbTextStyleTableRecord
2
Standard
3
txt
70
0
71
0
40
0
41
1
42
0
50
0
0
STYLE
5
F0
100
AcDbSymbolTableRecord
100
AcDbTextStyleTableRecord
2
iso_b_vert
3
simplex.shx
70
0
71
0
40
0
41
1
42
0
50
0
0
STYLE
5
F1
100
AcDbSymbolTableRecord
100
AcDbTextStyleTableRecord
2
DWGDirectTextStyle
3
simplex
70
0
71
0
40
0
41
1
42
0
50
0
0
ENDTAB
0
TABLE
2
DIMSTYLE
5
1fa
100
AcDbSymbolTable
100
AcDbDimStyleTable
0
DIMSTYLE
105
27
100
AcDbSymbolTableRecord
100
AcDbDimStyleTableRecord
2
Standard
70
0
3
<>
41
0.18
42
0.0625
44
0.18
140
0.18
147
0.09
73
0
74
0
77
1
271
2
275
0
278
52
280
0
340
11
0
ENDTAB
0
TABLE
2
VIEW
5
1fb
100
AcDbSymbolTable
0
ENDTAB
0
TABLE
2
UCS
5
1fc
100
AcDbSymbolTable
0
ENDTAB
0
TABLE
2
APPID
5
1fd
100
AcDbSymbolTable
0
APPID
5
12
100
AcDbSymbolTableRecord
100
AcDbRegAppTableRecord
2
ACAD
70
0
0
APPID
5
107
100
AcDbSymbolTableRecord
100
AcDbRegAppTableRecord
2
ACAD_DSTYLE_DIMBREAK
70
0
0
APPID
5
1A1
100
AcDbSymbolTableRecord
100
AcDbRegAppTableRecord
2
ACAD_DSTYLE_DIM_LINETYPE
70
0
0
APPID
5
1A2
100
AcDbSymbolTableRecord
100
AcDbRegAppTableRecord
2
ACAD_DSTYLE_DIM_EXT1_LINETYPE
70
0
0
APPID
5
1A3
100
AcDbSymbolTableRecord
100
AcDbRegAppTableRecord
2
ACAD_DSTYLE_DIM_EXT2_LINETYPE
70
0
0
APPID
5
1DE
100
AcDbSymbolTableRecord
100
AcDbRegAppTableRecord
2
ACAD_MLEADERVER
70
0
0
ENDTAB
0
TABLE
2
BLOCK_RECORD
5
1fe
100
AcDbSymbolTable
0
BLOCK_RECORD
5
1F
100
AcDbSymbolTableRecord
100
AcDbBlockTableRecord
2
*Model_Space
340
0
70
0
0
BLOCK_RECORD
5
1B
100
AcDbSymbolTableRecord
100
AcDbBlockTableRecord
2
*Paper_Space
340
0
70
0
0
BLOCK_RECORD
5
23
100
AcDbSymbolTableRecord
100
AcDbBlockTableRecord
2
*Paper_Space0
340
0
70
0
0
BLOCK_RECORD
5
10C
100
AcDbSymbolTableRecord
100
AcDbBlockTableRecord
2
*D1
340
0
70
0
0
BLOCK_RECORD
5
118
100
AcDbSymbolTableRecord
100
AcDbBlockTableRecord
2
_U0
340
0
70
0
0
BLOCK_RECORD
5
124
100
AcDbSymbolTableRecord
100
AcDbBlockTableRecord
2
*D3
340
0
70
0
0
BLOCK_RECORD
5
130
100
AcDbSymbolTableRecord
100
AcDbBlockTableRecord
2
_U1
340
0
70
0
0
BLOCK_RECORD
5
13C
100
AcDbSymbolTableRecord
100
AcDbBlockTableRecord
2
*D5
340
0
70
0
0
BLOCK_RECORD
5
148
100
AcDbSymbolTableRecord
100
AcDbBlockTableRecord
2
_U2
340
0
70
0
0
BLOCK_RECORD
5
154
100
AcDbSymbolTableRecord
100
AcDbBlockTableRecord
2
*D7
340
0
70
0
0
BLOCK_RECORD
5
162
100
AcDbSymbolTableRecord
100
AcDbBlockTableRecord
2
_U3
340
0
70
0
0
BLOCK_RECORD
5
16E
100
AcDbSymbolTableRecord
100
AcDbBlockTableRecord
2
*D9
340
0
70
0
0
BLOCK_RECORD
5
17A
100
AcDbSymbolTableRecord
100
AcDbBlockTableRecord
2
_U4
340
0
70
0
0
ENDTAB
0
ENDSEC
0
SECTION
2
BLOCKS
0
BLOCK
5
20
100
AcDbEntity
8
0
100
AcDbBlockBegin
2
*Model_Space
70
0
10
0
20
0
30
0
3
*Model_Space
0
ENDBLK
5
21
100
AcDbEntity
8
0
100
AcDbBlockEnd
0
BLOCK
5
1C
100
AcDbEntity
8
0
100
AcDbBlockBegin
2
*Paper_Space
70
0
10
0
20
0
30
0
3
*Paper_Space
0
ENDBLK
5
1D
100
AcDbEntity
8
0
100
AcDbBlockEnd
0
BLOCK
5
24
100
AcDbEntity
8
0
100
AcDbBlockBegin
2
*Paper_Space0
70
0
10
0
20
0
30
0
3
*Paper_Space0
0
ENDBLK
5
25
100
AcDbEntity
8
0
100
AcDbBlockEnd
0
BLOCK
5
10D
100
AcDbEntity
8
0
100
AcDbBlockBegin
2
*D1
70
1
10
0
20
0
30
0
3
*D1
0
LINE
5
10F
100
AcDbEntity
8
0
62
256
6
ByLayer
370
-2
48
1
60
0
100
AcDbLine
10
0
20
-1.5875
30
0
11
0
21
-20.488398
31
0
39
0
210
0
220
0
230
1
0
LINE
5
110
100
AcDbEntity
8
0
62
256
6
ByLayer
370
-2
48
1
60
0
100
AcDbLine
10
92.5289
20
-9.8625
30
0
11
92.5289
21
-20.488398
31
0
39
0
210
0
220
0
230
1
0
LINE
5
111
100
AcDbEntity
8
0
62
256
6
ByLayer
370
-2
48
1
60
0
100
AcDbLine
10
3.5
20
-18.488398
30
0
11
89.0289
21
-18.488398
31
0
39
0
210
0
220
0
230
1
0
SOLID
5
112
100
AcDbEntity
8
0
62
256
6
ByLayer
370
-1
48
1
60
0
100
AcDbTrace
10
3.5
20
-17.905065
30
0
11
3.5
21
-19.071732
31
0
12
0
22
-18.488398
32
0
13
0
23
-18.488398
33
0
39
0
210
0
220
0
230
1
0
SOLID
5
113
100
AcDbEntity
8
0
62
256
6
ByLayer
370
-1
48
1
60
0
100
AcDbTrace
10
89.0289
20
-19.071732
30
0
11
89.0289
21
-17.905065
31
0
12
92.5289
22
-18.488398
32
0
13
92.5289
23
-18.488398
33
0
39
0
210
0
220
0
230
1
0
MTEXT
5
114
100
AcDbEntity
8
0
62
256
6
ByLayer
370
18
48
1
60
0
100
AcDbMText
10
46.26445
20
-11.488398
30
0
210
0
220
0
230
1
1
\A1;92.53
40
3.5
41
0
44
1
50
0
71
5
72
5
7
iso_b_vert
0
POINT
5
115
100
AcDbEntity
8
Defpoints
62
0
6
ByLayer
370
-1
48
1
60
0
100
AcDbPoint
10
0
20
0
30
0
39
0
210
0
220
0
230
1
50
360
0
POINT
5
116
100
AcDbEntity
8
Defpoints
62
0
6
ByLayer
370
-1
48
1
60
0
100
AcDbPoint
10
92.5289
20
-8.275
30
0
39
0
210
0
220
0
230
1
50
360
0
POINT
5
117
100
AcDbEntity
8
Defpoints
62
0
6
ByLayer
370
-1
48
1
60
0
100
AcDbPoint
10
92.5289
20
-18.488398
30
0
39
0
210
0
220
0
230
1
50
360
0
ENDBLK
5
10E
100
AcDbEntity
8
0
100
AcDbBlockEnd
0
BLOCK
5
11F
100
AcDbEntity
8
0
100
AcDbBlockBegin
2
_U0
70
0
10
0
20
0
30
0
3
_U0
0
MTEXT
5
119
100
AcDbEntity
8
SK2
62
256
6
ByLayer
370
13
48
1
60
0
100
AcDbMText
10
41.127151
20
-17.455765
30
0
210
0
220
0
230
1
1
\W0.7317;92,53
40
3.5
41
0
44
1.084337
50
0
71
7
72
5
7
iso_b_vert
0
LINE
5
11A
100
AcDbEntity
8
SK2
62
256
6
ByLayer
370
13
48
1
60
0
100
AcDbLine
10
0
20
-1.5875
30
0
11
0
21
-20.488398
31
0
39
0
210
0
220
0
230
1
0
LINE
5
11B
100
AcDbEntity
8
SK2
62
256
6
ByLayer
370
13
48
1
60
0
100
AcDbLine
10
92.5289
20
-9.8625
30
0
11
92.5289
21
-20.488398
31
0
39
0
210
0
220
0
230
1
0
LINE
5
11C
100
AcDbEntity
8
SK2
62
256
6
ByLayer
370
13
48
1
60
0
100
AcDbLine
10
0
20
-18.488398
30
0
11
92.5289
21
-18.488398
31
0
39
0
210
0
220
0
230
1
0
SOLID
5
11D
100
AcDbEntity
8
SK2
62
256
6
ByLayer
370
18
48
1
60
0
100
AcDbTrace
10
0
20
-18.488398
30
0
11
3.499998
21
-18.027615
31
0
12
3.500002
22
-18.949182
32
0
13
3.500002
23
-18.949182
33
0
39
0
210
0
220
0
230
1
0
SOLID
5
11E
100
AcDbEntity
8
SK2
62
256
6
ByLayer
370
18
48
1
60
0
100
AcDbTrace
10
92.5289
20
-18.488398
30
0
11
89.028902
21
-18.949182
31
0
12
89.028898
22
-18.027615
32
0
13
89.028898
23
-18.027615
33
0
39
0
210
0
220
0
230
1
0
ENDBLK
5
120
100
AcDbEntity
8
0
100
AcDbBlockEnd
0
BLOCK
5
125
100
AcDbEntity
8
0
100
AcDbBlockBegin
2
*D3
70
1
10
0
20
0
30
0
3
*D3
0
LINE
5
127
100
AcDbEntity
8
0
62
256
6
ByLayer
370
-2
48
1
60
0
100
AcDbLine
10
-48
20
-10.5875
30
0
11
-48
21
-39.692985
31
0
39
0
210
0
220
0
230
1
0
LINE
5
128
100
AcDbEntity
8
0
62
256
6
ByLayer
370
-2
48
1
60
0
100
AcDbLine
10
95
20
-1.5875
30
0
11
95
21
-39.692985
31
0
39
0
210
0
220
0
230
1
0
LINE
5
129
100
AcDbEntity
8
0
62
256
6
ByLayer
370
-2
48
1
60
0
100
AcDbLine
10
-44.5
20
-37.692985
30
0
11
91.5
21
-37.692985
31
0
39
0
210
0
220
0
230
1
0
SOLID
5
12A
100
AcDbEntity
8
0
62
256
6
ByLayer
370
-1
48
1
60
0
100
AcDbTrace
10
-44.5
20
-37.109652
30
0
11
-44.5
21
-38.276319
31
0
12
-48
22
-37.692985
32
0
13
-48
23
-37.692985
33
0
39
0
210
0
220
0
230
1
0
SOLID
5
12B
100
AcDbEntity
8
0
62
256
6
ByLayer
370
-1
48
1
60
0
100
AcDbTrace
10
91.5
20
-38.276319
30
0
11
91.5
21
-37.109652
31
0
12
95
22
-37.692985
32
0
13
95
23
-37.692985
33
0
39
0
210
0
220
0
230
1
0
MTEXT
5
12C
100
AcDbEntity
8
0
62
256
6
ByLayer
370
18
48
1
60
0
100
AcDbMText
10
23.5
20
-30.692985
30
0
210
0
220
0
230
1
1
\A1;143.00
40
3.5
41
0
44
1
50
0
71
5
72
5
7
iso_b_vert
0
POINT
5
12D
100
AcDbEntity
8
Defpoints
62
0
6
ByLayer
370
-1
48
1
60
0
100
AcDbPoint
10
-48
20
-9
30
0
39
0
210
0
220
0
230
1
50
360
0
POINT
5
12E
100
AcDbEntity
8
Defpoints
62
0
6
ByLayer
370
-1
48
1
60
0
100
AcDbPoint
10
95
20
0
30
0
39
0
210
0
220
0
230
1
50
360
0
POINT
5
12F
100
AcDbEntity
8
Defpoints
62
0
6
ByLayer
370
-1
48
1
60
0
100
AcDbPoint
10
95
20
-37.692985
30
0
39
0
210
0
220
0
230
1
50
360
0
ENDBLK
5
126
100
AcDbEntity
8
0
100
AcDbBlockEnd
0
BLOCK
5
137
100
AcDbEntity
8
0
100
AcDbBlockBegin
2
_U1
70
0
10
0
20
0
30
0
3
_U1
0
MTEXT
5
131
100
AcDbEntity
8
SK2
62
256
6
ByLayer
370
13
48
1
60
0
100
AcDbMText
10
17.308135
20
-36.660352
30
0
210
0
220
0
230
1
1
\W0.7145;143,00
40
3.5
41
0
44
1.084337
50
0
71
7
72
5
7
iso_b_vert
0
LINE
5
132
100
AcDbEntity
8
SK2
62
256
6
ByLayer
370
13
48
1
60
0
100
AcDbLine
10
-48
20
-10.5875
30
0
11
-48
21
-39.692985
31
0
39
0
210
0
220
0
230
1
0
LINE
5
133
100
AcDbEntity
8
SK2
62
256
6
ByLayer
370
13
48
1
60
0
100
AcDbLine
10
95
20
-1.5875
30
0
11
95
21
-39.692985
31
0
39
0
210
0
220
0
230
1
0
LINE
5
134
100
AcDbEntity
8
SK2
62
256
6
ByLayer
370
13
48
1
60
0
100
AcDbLine
10
-48
20
-37.692985
30
0
11
95
21
-37.692985
31
0
39
0
210
0
220
0
230
1
0
SOLID
5
135
100
AcDbEntity
8
SK2
62
256
6
ByLayer
370
18
48
1
60
0
100
AcDbTrace
10
-48
20
-37.692985
30
0
11
-44.500002
21
-37.232202
31
0
12
-44.499998
22
-38.153769
32
0
13
-44.499998
23
-38.153769
33
0
39
0
210
0
220
0
230
1
0
SOLID
5
136
100
AcDbEntity
8
SK2
62
256
6
ByLayer
370
18
48
1
60
0
100
AcDbTrace
10
95
20
-37.692985
30
0
11
91.500002
21
-38.153769
31
0
12
91.499998
22
-37.232202
32
0
13
91.499998
23
-37.232202
33
0
39
0
210
0
220
0
230
1
0
ENDBLK
5
138
100
AcDbEntity
8
0
100
AcDbBlockEnd
0
BLOCK
5
13D
100
AcDbEntity
8
0
100
AcDbBlockBegin
2
*D5
70
1
10
0
20
0
30
0
3
*D5
0
LINE
5
13F
100
AcDbEntity
8
0
62
256
6
ByLayer
370
-2
48
1
60
0
100
AcDbLine
10
18.55
20
9.8625
30
0
11
18.55
21
21.884119
31
0
39
0
210
0
220
0
230
1
0
LINE
5
140
100
AcDbEntity
8
0
62
256
6
ByLayer
370
-2
48
1
60
0
100
AcDbLine
10
95
20
1.5875
30
0
11
95
21
21.884119
31
0
39
0
210
0
220
0
230
1
0
LINE
5
141
100
AcDbEntity
8
0
62
256
6
ByLayer
370
-2
48
1
60
0
100
AcDbLine
10
22.05
20
19.884119
30
0
11
91.5
21
19.884119
31
0
39
0
210
0
220
0
230
1
0
SOLID
5
142
100
AcDbEntity
8
0
62
256
6
ByLayer
370
-1
48
1
60
0
100
AcDbTrace
10
22.05
20
20.467453
30
0
11
22.05
21
19.300786
31
0
12
18.55
22
19.884119
32
0
13
18.55
23
19.884119
33
0
39
0
210
0
220
0
230
1
0
SOLID
5
143
100
AcDbEntity
8
0
62
256
6
ByLayer
370
-1
48
1
60
0
100
AcDbTrace
10
91.5
20
19.300786
30
0
11
91.5
21
20.467453
31
0
12
95
22
19.884119
32
0
13
95
23
19.884119
33
0
39
0
210
0
220
0
230
1
0
MTEXT
5
144
100
AcDbEntity
8
0
62
256
6
ByLayer
370
18
48
1
60
0
100
AcDbMText
10
56.775
20
26.884119
30
0
210
0
220
0
230
1
1
\A1;76.45
40
3.5
41
0
44
1
50
0
71
5
72
5
7
iso_b_vert
0
POINT
5
145
100
AcDbEntity
8
Defpoints
62
0
6
ByLayer
370
-1
48
1
60
0
100
AcDbPoint
10
18.55
20
8.275
30
0
39
0
210
0
220
0
230
1
50
360
0
POINT
5
146
100
AcDbEntity
8
Defpoints
62
0
6
ByLayer
370
-1
48
1
60
0
100
AcDbPoint
10
95
20
0
30
0
39
0
210
0
220
0
230
1
50
360
0
POINT
5
147
100
AcDbEntity
8
Defpoints
62
0
6
ByLayer
370
-1
48
1
60
0
100
AcDbPoint
10
95
20
19.884119
30
0
39
0
210
0
220
0
230
1
50
360
0
ENDBLK
5
13E
100
AcDbEntity
8
0
100
AcDbBlockEnd
0
BLOCK
5
14F
100
AcDbEntity
8
0
100
AcDbBlockBegin
2
_U2
70
0
10
0
20
0
30
0
3
_U2
0
MTEXT
5
149
100
AcDbEntity
8
SK2
62
256
6
ByLayer
370
13
48
1
60
0
100
AcDbMText
10
51.453435
20
20.916753
30
0
210
0
220
0
230
1
1
\W0.7581;76,45
40
3.5
41
0
44
1.084337
50
0
71
7
72
5
7
iso_b_vert
0
LINE
5
14A
100
AcDbEntity
8
SK2
62
256
6
ByLayer
370
13
48
1
60
0
100
AcDbLine
10
18.55
20
9.8625
30
0
11
18.55
21
21.884119
31
0
39
0
210
0
220
0
230
1
0
LINE
5
14B
100
AcDbEntity
8
SK2
62
256
6
ByLayer
370
13
48
1
60
0
100
AcDbLine
10
95
20
1.5875
30
0
11
95
21
21.884119
31
0
39
0
210
0
220
0
230
1
0
LINE
5
14C
100
AcDbEntity
8
SK2
62
256
6
ByLayer
370
13
48
1
60
0
100
AcDbLine
10
18.55
20
19.884119
30
0
11
95
21
19.884119
31
0
39
0
210
0
220
0
230
1
0
SOLID
5
14D
100
AcDbEntity
8
SK2
62
256
6
ByLayer
370
18
48
1
60
0
100
AcDbTrace
10
18.55
20
19.884119
30
0
11
22.049998
21
20.344903
31
0
12
22.050002
22
19.423335
32
0
13
22.050002
23
19.423335
33
0
39
0
210
0
220
0
230
1
0
SOLID
5
14E
100
AcDbEntity
8
SK2
62
256
6
ByLayer
370
18
48
1
60
0
100
AcDbTrace
10
95
20
19.884119
30
0
11
91.500002
21
19.423335
31
0
12
91.499998
22
20.344903
32
0
13
91.499998
23
20.344903
33
0
39
0
210
0
220
0
230
1
0
ENDBLK
5
150
100
AcDbEntity
8
0
100
AcDbBlockEnd
0
BLOCK
5
155
100
AcDbEntity
8
0
100
AcDbBlockBegin
2
*D7
70
1
10
0
20
0
30
0
3
*D7
0
LINE
5
157
100
AcDbEntity
8
0
62
256
6
ByLayer
370
-2
48
1
60
0
100
AcDbLine
10
95
20
-1.5875
30
0
11
95
21
-23.077503
31
0
39
0
210
0
220
0
230
1
0
LINE
5
158
100
AcDbEntity
8
0
62
256
6
ByLayer
370
-2
48
1
60
0
100
AcDbLine
10
92.5289
20
-9.8625
30
0
11
92.5289
21
-23.077503
31
0
39
0
210
0
220
0
230
1
0
LINE
5
159
100
AcDbEntity
8
0
62
256
6
ByLayer
370
-2
48
1
60
0
100
AcDbLine
10
95
20
-21.077503
30
0
11
123.166667
21
-21.077503
31
0
39
0
210
0
220
0
230
1
0
LINE
5
15A
100
AcDbEntity
8
0
62
256
6
ByLayer
370
-2
48
1
60
0
100
AcDbLine
10
98.5
20
-21.077503
30
0
11
102
21
-21.077503
31
0
39
0
210
0
220
0
230
1
0
LINE
5
15B
100
AcDbEntity
8
0
62
256
6
ByLayer
370
-2
48
1
60
0
100
AcDbLine
10
89.0289
20
-21.077503
30
0
11
85.5289
21
-21.077503
31
0
39
0
210
0
220
0
230
1
0
SOLID
5
15C
100
AcDbEntity
8
0
62
256
6
ByLayer
370
-1
48
1
60
0
100
AcDbTrace
10
98.5
20
-20.49417
30
0
11
98.5
21
-21.660837
31
0
12
95
22
-21.077503
32
0
13
95
23
-21.077503
33
0
39
0
210
0
220
0
230
1
0
SOLID
5
15D
100
AcDbEntity
8
0
62
256
6
ByLayer
370
-1
48
1
60
0
100
AcDbTrace
10
89.0289
20
-21.660837
30
0
11
89.0289
21
-20.49417
31
0
12
92.5289
22
-21.077503
32
0
13
92.5289
23
-21.077503
33
0
39
0
210
0
220
0
230
1
0
MTEXT
5
15E
100
AcDbEntity
8
0
62
256
6
ByLayer
370
18
48
1
60
0
100
AcDbMText
10
112.583333
20
-14.077503
30
0
210
0
220
0
230
1
1
\A1;2.47
40
3.5
41
0
44
1
50
0
71
5
72
5
7
iso_b_vert
0
POINT
5
15F
100
AcDbEntity
8
Defpoints
62
0
6
ByLayer
370
-1
48
1
60
0
100
AcDbPoint
10
95
20
0
30
0
39
0
210
0
220
0
230
1
50
360
0
POINT
5
160
100
AcDbEntity
8
Defpoints
62
0
6
ByLayer
370
-1
48
1
60
0
100
AcDbPoint
10
92.5289
20
-8.275
30
0
39
0
210
0
220
0
230
1
50
360
0
POINT
5
161
100
AcDbEntity
8
Defpoints
62
0
6
ByLayer
370
-1
48
1
60
0
100
AcDbPoint
10
92.5289
20
-21.077503
30
0
39
0
210
0
220
0
230
1
50
360
0
ENDBLK
5
156
100
AcDbEntity
8
0
100
AcDbBlockEnd
0
BLOCK
5
169
100
AcDbEntity
8
0
100
AcDbBlockBegin
2
_U3
70
0
10
0
20
0
30
0
3
_U3
0
MTEXT
5
163
100
AcDbEntity
8
SK2
62
256
6
ByLayer
370
13
48
1
60
0
100
AcDbMText
10
100.967593
20
-20.04487
30
0
210
0
220
0
230
1
1
\W0.7493;2,47
40
3.5
41
0
44
1.084337
50
0
71
7
72
5
7
iso_b_vert
0
LINE
5
164
100
AcDbEntity
8
SK2
62
256
6
ByLayer
370
13
48
1
60
0
100
AcDbLine
10
95
20
-1.5875
30
0
11
95
21
-23.077503
31
0
39
0
210
0
220
0
230
1
0
LINE
5
165
100
AcDbEntity
8
SK2
62
256
6
ByLayer
370
13
48
1
60
0
100
AcDbLine
10
92.5289
20
-9.8625
30
0
11
92.5289
21
-23.077503
31
0
39
0
210
0
220
0
230
1
0
LINE
5
166
100
AcDbEntity
8
SK2
62
256
6
ByLayer
370
13
48
1
60
0
100
AcDbLine
10
83.7789
20
-21.077503
30
0
11
109.180758
21
-21.077503
31
0
39
0
210
0
220
0
230
1
0
SOLID
5
167
100
AcDbEntity
8
SK2
62
256
6
ByLayer
370
18
48
1
60
0
100
AcDbTrace
10
95
20
-21.077503
30
0
11
98.499998
21
-20.616719
31
0
12
98.500002
22
-21.538287
32
0
13
98.500002
23
-21.538287
33
0
39
0
210
0
220
0
230
1
0
SOLID
5
168
100
AcDbEntity
8
SK2
62
256
6
ByLayer
370
18
48
1
60
0
100
AcDbTrace
10
92.5289
20
-21.077503
30
0
11
89.028902
21
-21.538287
31
0
12
89.028898
22
-20.616719
32
0
13
89.028898
23
-20.616719
33
0
39
0
210
0
220
0
230
1
0
ENDBLK
5
16A
100
AcDbEntity
8
0
100
AcDbBlockEnd
0
BLOCK
5
16F
100
AcDbEntity
8
0
100
AcDbBlockBegin
2
*D9
70
1
10
0
20
0
30
0
3
*D9
0
LINE
5
171
100
AcDbEntity
8
0
62
256
6
ByLayer
370
-2
48
1
60
0
100
AcDbLine
10
-48
20
-10.5875
30
0
11
-48
21
-29.343428
31
0
39
0
210
0
220
0
230
1
0
LINE
5
172
100
AcDbEntity
8
0
62
256
6
ByLayer
370
-2
48
1
60
0
100
AcDbLine
10
92.5289
20
-9.8625
30
0
11
92.5289
21
-29.343428
31
0
39
0
210
0
220
0
230
1
0
LINE
5
173
100
AcDbEntity
8
0
62
256
6
ByLayer
370
-2
48
1
60
0
100
AcDbLine
10
-44.5
20
-27.343428
30
0
11
89.0289
21
-27.343428
31
0
39
0
210
0
220
0
230
1
0
SOLID
5
174
100
AcDbEntity
8
0
62
256
6
ByLayer
370
-1
48
1
60
0
100
AcDbTrace
10
-44.5
20
-26.760095
30
0
11
-44.5
21
-27.926762
31
0
12
-48
22
-27.343428
32
0
13
-48
23
-27.343428
33
0
39
0
210
0
220
0
230
1
0
SOLID
5
175
100
AcDbEntity
8
0
62
256
6
ByLayer
370
-1
48
1
60
0
100
AcDbTrace
10
89.0289
20
-27.926762
30
0
11
89.0289
21
-26.760095
31
0
12
92.5289
22
-27.343428
32
0
13
92.5289
23
-27.343428
33
0
39
0
210
0
220
0
230
1
0
MTEXT
5
176
100
AcDbEntity
8
0
62
256
6
ByLayer
370
18
48
1
60
0
100
AcDbMText
10
22.26445
20
-20.343428
30
0
210
0
220
0
230
1
1
\A1;140.53
40
3.5
41
0
44
1
50
0
71
5
72
5
7
iso_b_vert
0
POINT
5
177
100
AcDbEntity
8
Defpoints
62
0
6
ByLayer
370
-1
48
1
60
0
100
AcDbPoint
10
-48
20
-9
30
0
39
0
210
0
220
0
230
1
50
360
0
POINT
5
178
100
AcDbEntity
8
Defpoints
62
0
6
ByLayer
370
-1
48
1
60
0
100
AcDbPoint
10
92.5289
20
-8.275
30
0
39
0
210
0
220
0
230
1
50
360
0
POINT
5
179
100
AcDbEntity
8
Defpoints
62
0
6
ByLayer
370
-1
48
1
60
0
100
AcDbPoint
10
92.5289
20
-27.343428
30
0
39
0
210
0
220
0
230
1
50
360
0
ENDBLK
5
170
100
AcDbEntity
8
0
100
AcDbBlockEnd
0
BLOCK
5
181
100
AcDbEntity
8
0
100
AcDbBlockBegin
2
_U4
70
0
10
0
20
0
30
0
3
_U4
0
MTEXT
5
17B
100
AcDbEntity
8
SK2
62
256
6
ByLayer
370
13
48
1
60
0
100
AcDbMText
10
16.072585
20
-26.310795
30
0
210
0
220
0
230
1
1
\W0.7145;140,53
40
3.5
41
0
44
1.084337
50
0
71
7
72
5
7
iso_b_vert
0
LINE
5
17C
100
AcDbEntity
8
SK2
62
256
6
ByLayer
370
13
48
1
60
0
100
AcDbLine
10
-48
20
-10.5875
30
0
11
-48
21
-29.343428
31
0
39
0
210
0
220
0
230
1
0
LINE
5
17D
100
AcDbEntity
8
SK2
62
256
6
ByLayer
370
13
48
1
60
0
100
AcDbLine
10
92.5289
20
-9.8625
30
0
11
92.5289
21
-29.343428
31
0
39
0
210
0
220
0
230
1
0
LINE
5
17E
100
AcDbEntity
8
SK2
62
256
6
ByLayer
370
13
48
1
60
0
100
AcDbLine
10
-48
20
-27.343428
30
0
11
92.5289
21
-27.343428
31
0
39
0
210
0
220
0
230
1
0
SOLID
5
17F
100
AcDbEntity
8
SK2
62
256
6
ByLayer
370
18
48
1
60
0
100
AcDbTrace
10
-48
20
-27.343428
30
0
11
-44.500002
21
-26.882645
31
0
12
-44.499998
22
-27.804212
32
0
13
-44.499998
23
-27.804212
33
0
39
0
210
0
220
0
230
1
0
SOLID
5
180
100
AcDbEntity
8
SK2
62
256
6
ByLayer
370
18
48
1
60
0
100
AcDbTrace
10
92.5289
20
-27.343428
30
0
11
89.028902
21
-27.804212
31
0
12
89.028898
22
-26.882645
32
0
13
89.028898
23
-26.882645
33
0
39
0
210
0
220
0
230
1
0
ENDBLK
5
182
100
AcDbEntity
8
0
100
AcDbBlockEnd
0
ENDSEC
0
SECTION
2
ENTITIES
0
ARC
5
AE
100
AcDbEntity
8
1
62
256
6
ByLayer
370
18
48
1
60
0
100
AcDbCircle
39
0
10
1.375069
20
-9.018037
30
0
40
0.799999999999995
210
0
220
0
230
1
100
AcDbArc
50
89.96419
51
149.251325
0
ARC
5
AF
100
AcDbEntity
8
1
62
256
6
ByLayer
370
18
48
1
60
0
100
AcDbCircle
39
0
10
1.375069
20
9.018037
30
0
40
0.799999999999995
210
0
220
0
230
1
100
AcDbArc
50
210.748675
51
270.03581
0
ARC
5
B0
100
AcDbEntity
8
1
62
256
6
ByLayer
370
18
48
1
60
0
100
AcDbCircle
39
0
10
0
20
-8.2
30
0
40
0.800000000000002
210
0
220
0
230
1
100
AcDbArc
50
270
51
329.251325
0
ARC
5
B1
100
AcDbEntity
8
1
62
256
6
ByLayer
370
18
48
1
60
0
100
AcDbCircle
39
0
10
0
20
8.2
30
0
40
0.800000000000002
210
0
220
0
230
1
100
AcDbArc
50
30.748675
51
90
0
ELLIPSE
5
B2
100
AcDbEntity
8
1
62
256
6
ByLayer
370
18
48
1
60
0
100
AcDbEllipse
10
4.25
20
-8.056787
30
0
11
0.25
21
0
31
0
210
0
220
0
230
1
40
0.999999
41
1.57319875379642
42
3.10741323877738
0
ELLIPSE
5
B3
100
AcDbEntity
8
1
62
256
6
ByLayer
370
18
48
1
60
0
100
AcDbEllipse
10
4.25
20
8.056787
30
0
11
0.25
21
0
31
0
210
0
220
0
230
1
40
0.999999
41
-3.10741323877741
42
-1.56193022344879
0
POINT
5
70
100
AcDbEntity
8
80
62
256
6
ByLayer
370
18
48
1
60
0
100
AcDbPoint
10
0
20
0
30
0
39
0
210
0
220
0
230
1
50
360
0
POINT
5
72
100
AcDbEntity
8
81
62
256
6
ByLayer
370
18
48
1
60
0
100
AcDbPoint
10
95
20
0
30
0
39
0
210
0
220
0
230
1
50
360
0
POINT
5
74
100
AcDbEntity
8
1
62
256
6
ByLayer
370
18
48
1
60
1
100
AcDbPoint
10
92.5289
20
-8.275
30
0
39
0
210
0
220
0
230
1
50
360
0
POINT
5
76
100
AcDbEntity
8
1
62
256
6
ByLayer
370
18
48
1
60
1
100
AcDbPoint
10
-48
20
-9
30
0
39
0
210
0
220
0
230
1
50
360
0
POINT
5
77
100
AcDbEntity
8
1
62
256
6
ByLayer
370
18
48
1
60
1
100
AcDbPoint
10
18.55
20
8.275
30
0
39
0
210
0
220
0
230
1
50
360
0
POINT
5
78
100
AcDbEntity
8
1
62
256
6
ByLayer
370
18
48
1
60
1
100
AcDbPoint
10
92.5289
20
-8.275
30
0
39
0
210
0
220
0
230
1
50
360
0
POINT
5
79
100
AcDbEntity
8
1
62
256
6
ByLayer
370
18
48
1
60
1
100
AcDbPoint
10
-48
20
-9
30
0
39
0
210
0
220
0
230
1
50
360
0
POINT
5
7A
100
AcDbEntity
8
1
62
256
6
ByLayer
370
18
48
1
60
1
100
AcDbPoint
10
92.5289
20
-8.275
30
0
39
0
210
0
220
0
230
1
50
360
0
SPLINE
5
B4
100
AcDbEntity
8
SK1
62
256
6
ByLayer
370
18
48
1
60
0
100
AcDbSpline
70
4
71
3
72
8
73
4
40
0
40
0
40
0
40
0
40
1
40
1
40
1
40
1
41
1
10
-48
20
-6.24931530846615
30
0
41
1
10
-47.4020915051344
20
-6.84497034447733
30
0
41
1
10
-46.8016144246208
20
-7.43823174345678
30
0
41
1
10
-46.2
20
-8.03043326383147
30
0
0
SPLINE
5
B5
100
AcDbEntity
8
SK1
62
256
6
ByLayer
370
18
48
1
60
0
100
AcDbSpline
70
4
71
3
72
12
73
8
40
0
40
0
40
0
40
0
40
0.499999999999994
40
0.499999999999994
40
0.749999999999997
40
0.749999999999997
40
1
40
1
40
1
40
1
41
1
10
-46.2
20
-8.03043326383147
30
0
41
1
10
-46.1766202203863
20
-8.05344724166613
30
0
41
1
10
-46.153872809496
20
-8.0752854721087
30
0
41
1
10
-46.12567398283
20
-8.10120345124113
30
0
41
1
10
-46.1170638079665
20
-8.10887260453205
30
0
41
1
10
-46.1042330689809
20
-8.11944197167571
30
0
41
1
10
-46.1
20
-8.12231440237082
30
0
41
1
10
-46.1
20
-8.12089830352505
30
0
0
SPLINE
5
B6
100
AcDbEntity
8
SK1
62
256
6
ByLayer
370
18
48
1
60
0
100
AcDbSpline
70
4
71
3
72
8
73
4
40
0
40
0
40
0
40
0
40
1
40
1
40
1
40
1
41
1
10
-46.2
20
-7.26740497479301
30
0
41
1
10
-46.8016119396904
20
-6.67520590046931
30
0
41
1
10
-47.4020883056795
20
-6.08194524283533
30
0
41
1
10
-48
20
-5.48628701942769
30
0
0
SPLINE
5
B7
100
AcDbEntity
8
SK1
62
256
6
ByLayer
370
18
48
1
60
0
100
AcDbSpline
70
4
71
3
72
12
73
8
40
0
40
0
40
0
40
0
40
0.249999999999999
40
0.249999999999999
40
0.499999999999998
40
0.499999999999998
40
1
40
1
40
1
40
1
41
1
10
-46.1
20
-7.40873856708916
30
0
41
1
10
-46.1
20
-7.40173663477242
30
0
41
1
10
-46.1041745743607
20
-7.39105525295511
30
0
41
1
10
-46.1170332025337
20
-7.36742030048842
30
0
41
1
10
-46.125516867034
20
-7.35465706850886
30
0
41
1
10
-46.1539367625989
20
-7.31617162263481
30
0
41
1
10
-46.1766247086701
20
-7.29041453456796
30
0
41
1
10
-46.2
20
-7.26740497479301
30
0
0
SPLINE
5
B8
100
AcDbEntity
8
1
62
256
6
ByLayer
370
18
48
1
60
0
100
AcDbSpline
70
4
71
3
72
14
73
10
40
0
40
0
40
0
40
0
40
0.25
40
0.25
40
0.5
40
0.5
40
0.75
40
0.75
40
1
40
1
40
1
40
1
41
1
10
92.2239527212213
20
-7.85299645443848
30
0
41
1
10
92.2273981779482
20
-7.85236533273556
30
0
41
1
10
92.2301972159779
20
-7.85344155859607
30
0
41
1
10
92.234094465925
20
-7.86007341891099
30
0
41
1
10
92.2351369835039
20
-7.86571557383729
30
0
41
1
10
92.2342874629571
20
-7.88259454853488
30
0
41
1
10
92.2323192880183
20
-7.89386067224254
30
0
41
1
10
92.2254292865446
20
-7.91942033763453
30
0
41
1
10
92.2205824573595
20
-7.9334733801193
30
0
41
1
10
92.2152265638889
20
-7.94679297967426
30
0
0
SPLINE
5
B9
100
AcDbEntity
8
1
62
256
6
ByLayer
370
18
48
1
60
0
100
AcDbSpline
70
4
71
3
72
34
73
30
40
0
40
0
40
0
40
0
40
0.0624999999999995
40
0.0624999999999995
40
0.124999999999999
40
0.124999999999999
40
0.187499999999999
40
0.187499999999999
40
0.249999999999998
40
0.249999999999998
40
0.312499999999998
40
0.312499999999998
40
0.374999999999997
40
0.374999999999997
40
0.437499999999997
40
0.437499999999997
40
0.499999999999996
40
0.499999999999996
40
0.624999999999995
40
0.624999999999995
40
0.687499999999994
40
0.687499999999994
40
0.749999999999994
40
0.749999999999994
40
0.874999999999993
40
0.874999999999993
40
0.937499999999997
40
0.937499999999997
40
1
40
1
40
1
40
1
41
1
10
93.4569169725386
20
-2.5818116999678
30
0
41
1
10
93.4523009074733
20
-2.62860656554901
30
0
41
1
10
93.4452523047934
20
-2.67924751955997
30
0
41
1
10
93.4262214289764
20
-2.78658919543832
30
0
41
1
10
93.4144839325561
20
-2.84205791951641
30
0
41
1
10
93.3867312067279
20
-2.95649601567172
30
0
41
1
10
93.3705063049639
20
-3.01613237577166
30
0
41
1
10
93.3347506493574
20
-3.13535701441222
30
0
41
1
10
93.3153085669438
20
-3.19480373835305
30
0
41
1
10
93.2735101365596
20
-3.31339984183188
30
0
41
1
10
93.2510379112453
20
-3.37276423825861
30
0
41
1
10
93.2049297927148
20
-3.4870471192481
30
0
41
1
10
93.1811126591347
20
-3.54251210338336
30
0
41
1
10
93.1320670553123
20
-3.65027403706466
30
0
41
1
10
93.1069883805984
20
-3.70219300051443
30
0
41
1
10
93.0569976393357
20
-3.80002008675927
30
0
41
1
10
93.031909856977
20
-3.84631553421269
30
0
41
1
10
92.9564024476925
20
-3.97764828725741
30
0
41
1
10
92.90620714316
20
-4.05406263828189
30
0
41
1
10
92.8357442412931
20
-4.14662288206819
30
0
41
1
10
92.8128893890822
20
-4.17409133450826
30
0
41
1
10
92.7684113175878
20
-4.22235295297503
30
0
41
1
10
92.7466566148638
20
-4.24324960059792
30
0
41
1
10
92.6842716558754
20
-4.29464051124131
30
0
41
1
10
92.6469242000476
20
-4.31386371635332
30
0
41
1
10
92.5972684291861
20
-4.3193887036737
30
0
41
1
10
92.5817789091584
20
-4.3171957318248
30
0
41
1
10
92.5540116821338
20
-4.30466919753493
30
0
41
1
10
92.5415929434861
20
-4.29438073436691
30
0
41
1
10
92.5306770161523
20
-4.27990964605971
30
0
0
SPLINE
5
BA
100
AcDbEntity
8
1
62
256
6
ByLayer
370
18
48
1
60
0
100
AcDbSpline
70
4
71
3
72
14
73
10
40
0
40
0
40
0
40
0
40
0.250000000000001
40
0.250000000000001
40
0.500000000000001
40
0.500000000000001
40
0.750000000000001
40
0.750000000000001
40
1
40
1
40
1
40
1
41
1
10
92.0547725713875
20
1.83856887224164
30
0
41
1
10
92.0533740468467
20
1.85870969865309
30
0
41
1
10
92.0572731756315
20
1.8791897355201
30
0
41
1
10
92.0768587622381
20
1.91489179869552
30
0
41
1
10
92.0925469806014
20
1.9298887388602
30
0
41
1
10
92.1280759772052
20
1.95115197884206
30
0
41
1
10
92.1481809948383
20
1.95801874592598
30
0
41
1
10
92.1886416754455
20
1.96607739641289
30
0
41
1
10
92.2094495423937
20
1.96741323076682
30
0
41
1
10
92.230183860545
20
1.96675651297892
30
0
0
SPLINE
5
BB
100
AcDbEntity
8
1
62
256
6
ByLayer
370
18
48
1
60
0
100
AcDbSpline
70
4
71
3
72
16
73
12
40
0
40
0
40
0
40
0
40
0.266894396859047
40
0.266894396859047
40
0.694610377375817
40
0.694610377375817
40
0.80153937250501
40
0.80153937250501
40
0.908468367634199
40
0.908468367634199
40
1
40
1
40
1
40
1
41
1
10
66.8344165136135
20
-0.02000962119169
30
0
41
1
10
67.9758968606054
20
-0.601420852338919
30
0
41
1
10
69.111484522485
20
-1.1798236048638
30
0
41
1
10
72.0659955382657
20
-2.64876608466872
30
0
41
1
10
73.8840582323687
20
-3.51800297724344
30
0
41
1
10
76.1842112469499
20
-4.50393059848153
30
0
41
1
10
76.6466243200038
20
-4.69655987784699
30
0
41
1
10
77.5678261778506
20
-5.06760512138578
30
0
41
1
10
78.0269551655143
20
-5.24619569078081
30
0
41
1
10
78.8770502624014
20
-5.56387407845483
30
0
41
1
10
79.2683342649173
20
-5.70495002663523
30
0
41
1
10
79.6590450588525
20
-5.84034309451457
30
0
0
SPLINE
5
BC
100
AcDbEntity
8
1
62
256
6
ByLayer
370
13
48
1
60
0
100
AcDbSpline
70
4
71
3
72
16
73
12
40
0
40
0
40
0
40
0
40
0.125108992363252
40
0.125108992363252
40
0.562554496181624
40
0.562554496181624
40
0.671915872136218
40
0.671915872136218
40
0.781277248090812
40
0.781277248090812
40
1
40
1
40
1
40
1
41
1
10
79.6590450564659
20
-5.84034309368755
30
0
41
1
10
80.1812058357417
20
-6.02128754401113
30
0
41
1
10
80.7023428262505
20
-6.19208199098875
30
0
41
1
10
83.0433308863127
20
-6.91181395813132
30
0
41
1
10
84.8577786719576
20
-7.33967818122071
30
0
41
1
10
87.1464021625358
20
-7.68089638202707
30
0
41
1
10
87.6051838693043
20
-7.73944622152172
30
0
41
1
10
88.5256074052976
20
-7.83656134195934
30
0
41
1
10
88.9877551202618
20
-7.87513138409707
30
0
41
1
10
90.3715685460477
20
-7.95946120926646
30
0
41
1
10
91.2927208038027
20
-7.97413826307042
30
0
41
1
10
92.2152265634727
20
-7.94679297968656
30
0
0
SPLINE
5
BD
100
AcDbEntity
8
1
62
256
6
ByLayer
370
18
48
1
60
0
100
AcDbSpline
70
4
71
3
72
108
73
104
40
0
40
0
40
0
40
0
40
0.0118926478170004
40
0.0118926478170004
40
0.0295374219631249
40
0.0295374219631249
40
0.0471821961092494
40
0.0471821961092494
40
0.0648269702553739
40
0.0648269702553739
40
0.0824717444014983
40
0.0824717444014983
40
0.117761292693748
40
0.117761292693748
40
0.135406066839873
40
0.135406066839873
40
0.153050840985998
40
0.153050840985998
40
0.170695615132123
40
0.170695615132123
40
0.188340389278248
40
0.188340389278248
40
0.205985163424373
40
0.205985163424373
40
0.223629937570498
40
0.223629937570498
40
0.241274711716623
40
0.241274711716623
40
0.258919485862748
40
0.258919485862748
40
0.276564260008873
40
0.276564260008873
40
0.294209034154998
40
0.294209034154998
40
0.329498582447248
40
0.329498582447248
40
0.364788130739497
40
0.364788130739497
40
0.382432904885622
40
0.382432904885622
40
0.400077679031747
40
0.400077679031747
40
0.417722453177872
40
0.417722453177872
40
0.435367227323997
40
0.435367227323997
40
0.453012001470122
40
0.453012001470122
40
0.470656775616247
40
0.470656775616247
40
0.505946323908498
40
0.505946323908498
40
0.523591098054623
40
0.523591098054623
40
0.541235872200748
40
0.541235872200748
40
0.558880646346873
40
0.558880646346873
40
0.576525420492998
40
0.576525420492998
40
0.594170194639123
40
0.594170194639123
40
0.611814968785248
40
0.611814968785248
40
0.629459742931373
40
0.629459742931373
40
0.647104517077498
40
0.647104517077498
40
0.664749291223623
40
0.664749291223623
40
0.682394065369749
40
0.682394065369749
40
0.700038839515874
40
0.700038839515874
40
0.717683613661999
40
0.717683613661999
40
0.735328387808124
40
0.735328387808124
40
0.752973161954249
40
0.752973161954249
40
0.770617936100374
40
0.770617936100374
40
0.788262710246499
40
0.788262710246499
40
0.805907484392624
40
0.805907484392624
40
0.823552258538749
40
0.823552258538749
40
0.841197032684874
40
0.841197032684874
40
0.858841806830999
40
0.858841806830999
40
0.876486580977124
40
0.876486580977124
40
0.894131355123249
40
0.894131355123249
40
0.911776129269375
40
0.911776129269375
40
0.9294209034155
40
0.9294209034155
40
0.96471045170775
40
0.96471045170775
40
1
40
1
40
1
40
1
41
1
10
76.8492472229418
20
-5.92935997892647
30
0
41
1
10
76.6177659977213
20
-6.00581599966367
30
0
41
1
10
76.3862723487065
20
-6.08047548093847
30
0
41
1
10
75.8112945347567
20
-6.26127567955481
30
0
41
1
10
75.4676950202331
20
-6.36506683866853
30
0
41
1
10
74.7790955970415
20
-6.56214286070798
30
0
41
1
10
74.4347247411647
20
-6.65536649041573
30
0
41
1
10
73.7468902538191
20
-6.83046476594293
30
0
41
1
10
73.4032360097048
20
-6.91267843908463
30
0
41
1
10
72.7166268716813
20
-7.06887891240277
30
0
41
1
10
72.3736921227271
20
-7.14259572726019
30
0
41
1
10
71.3440326047435
20
-7.34703481935475
30
0
41
1
10
70.6568806541301
20
-7.46103380481398
30
0
41
1
10
69.6254417869567
20
-7.60160280638397
30
0
41
1
10
69.2812989232417
20
-7.64317086805431
30
0
41
1
10
68.5930159676313
20
-7.71376170144924
30
0
41
1
10
68.2490900031743
20
-7.74282916659644
30
0
41
1
10
67.5616549658672
20
-7.79046003416371
30
0
41
1
10
67.2181536933581
20
-7.80904069647886
30
0
41
1
10
66.5316286077718
20
-7.83502322047141
30
0
41
1
10
66.1887372762737
20
-7.84223468118387
30
0
41
1
10
65.5022720640096
20
-7.84436289288087
30
0
41
1
10
65.1587922881711
20
-7.83970997132667
30
0
41
1
10
64.4714050797358
20
-7.81981757758061
30
0
41
1
10
64.127497698773
20
-7.8045196548986
30
0
41
1
10
63.4391347240842
20
-7.76193664455937
30
0
41
1
10
63.0948529690488
20
-7.7343395776029
30
0
41
1
10
62.4071719328334
20
-7.66817512966435
30
0
41
1
10
62.0634766633376
20
-7.62985477712232
30
0
41
1
10
61.3763451856466
20
-7.54266892998493
30
0
41
1
10
61.0329100905544
20
-7.49370720151268
30
0
41
1
10
60.3462154127266
20
-7.38395150866342
30
0
41
1
10
60.0030883796989
20
-7.3230877067983
30
0
41
1
10
58.9733181294722
20
-7.12692386392948
30
0
41
1
10
58.2853309310014
20
-6.97600057797987
30
0
41
1
10
56.9072350166762
20
-6.63023899209512
30
0
41
1
10
56.2205911842033
20
-6.43881381659196
30
0
41
1
10
55.1900128698802
20
-6.12438446784861
30
0
41
1
10
54.8464699049762
20
-6.01477129331317
30
0
41
1
10
54.1594722926656
20
-5.78744988494532
30
0
41
1
10
53.8160925418159
20
-5.66981055737546
30
0
41
1
10
53.1292897917048
20
-5.42539946446826
30
0
41
1
10
52.7855107324476
20
-5.29923003814275
30
0
41
1
10
52.0969439205068
20
-5.03901355203459
30
0
41
1
10
51.7519958764699
20
-4.90495809156099
30
0
41
1
10
51.063374699481
20
-4.6309055307037
30
0
41
1
10
50.7194650896947
20
-4.49056859938727
30
0
41
1
10
50.0325393768171
20
-4.20254897129311
30
0
41
1
10
49.689130850801
20
-4.05525680876758
30
0
41
1
10
48.6585707989526
20
-3.60627704566068
30
0
41
1
10
47.9714219279327
20
-3.29741255646061
30
0
41
1
10
46.9401348821657
20
-2.81700853240571
30
0
41
1
10
46.5960771620033
20
-2.6543274791965
30
0
41
1
10
45.9068820072489
20
-2.32623127100925
30
0
41
1
10
45.5623972348502
20
-2.1607378475037
30
0
41
1
10
44.8742294214561
20
-1.82711019616866
30
0
41
1
10
44.5304420829569
20
-1.65891519478245
30
0
41
1
10
43.8434642593017
20
-1.31974255861775
30
0
41
1
10
43.5002778289231
20
-1.14882341827351
30
0
41
1
10
42.8133822075989
20
-0.806612985110206
30
0
41
1
10
42.4698268122988
20
-0.63501871600522
30
0
41
1
10
41.7822321095527
20
-0.291070349843238
30
0
41
1
10
41.4381668444106
20
-0.118771240211714
30
0
41
1
10
40.7499167319787
20
0.226893386226493
30
0
41
1
10
40.4054912018785
20
0.400533895926117
30
0
41
1
10
39.7168928115264
20
0.745509658031864
30
0
41
1
10
39.372825749961
20
0.917064463413482
30
0
41
1
10
38.6850412668407
20
1.25792358951
30
0
41
1
10
38.3413416787312
20
1.42746311554475
30
0
41
1
10
37.6544437912102
20
1.76508801620972
30
0
41
1
10
37.3113740155064
20
1.93338218675572
30
0
41
1
10
36.6245447260968
20
2.26582390437062
30
0
41
1
10
36.280802763282
20
2.42986549152349
30
0
41
1
10
35.5928177380757
20
2.75446969019322
30
0
41
1
10
35.2486276364902
20
2.91521845429696
30
0
41
1
10
34.5597963649423
20
3.23321252969558
30
0
41
1
10
34.2154996204963
20
3.3906989959026
30
0
41
1
10
33.5276277661925
20
3.69842647055305
30
0
41
1
10
33.1837999394543
20
3.84881108460741
30
0
41
1
10
32.4964006278983
20
4.14447318198015
30
0
41
1
10
32.1528293902291
20
4.28954124108836
30
0
41
1
10
31.4659605622402
20
4.5737498784026
30
0
41
1
10
31.1228084659466
20
4.7130022690429
30
0
41
1
10
30.4358034086738
20
4.9828367293006
30
0
41
1
10
30.0919801484257
20
5.11411829131737
30
0
41
1
10
29.4037706316133
20
5.37001905400936
30
0
41
1
10
29.0591421906649
20
5.49454754225118
30
0
41
1
10
28.3701687882668
20
5.7350952253299
30
0
41
1
10
28.0262407040969
20
5.8505985146854
30
0
41
1
10
27.3387625621971
20
6.07322494001329
30
0
41
1
10
26.9950678389047
20
6.18051822361707
30
0
41
1
10
26.3076639993511
20
6.38593691519011
30
0
41
1
10
25.9639661322739
20
6.48411364545987
30
0
41
1
10
25.2764127817279
20
6.66991560859884
30
0
41
1
10
24.9326120869343
20
6.75763673372432
30
0
41
1
10
24.2448927599255
20
6.924644216817
30
0
41
1
10
23.9004561933957
20
7.00334553651334
30
0
41
1
10
23.2113688251105
20
7.14979231523051
30
0
41
1
10
22.8670984681156
20
7.21746271488351
30
0
41
1
10
21.8350941548487
20
7.40504593437538
30
0
41
1
10
21.1487578934168
20
7.5102702747825
30
0
41
1
10
19.7741544454965
20
7.67351947985443
30
0
41
1
10
19.0859441399018
20
7.73323115099439
30
0
41
1
10
18.3968680181999
20
7.77069515612706
30
0
0
SPLINE
5
BE
100
AcDbEntity
8
1
62
256
6
ByLayer
370
18
48
1
60
0
100
AcDbSpline
70
4
71
3
72
16
73
12
40
0
40
0
40
0
40
0
40
0.250000000000014
40
0.250000000000014
40
0.500000000000029
40
0.500000000000029
40
0.625000000000023
40
0.625000000000023
40
0.750000000000016
40
0.750000000000016
40
1
40
1
40
1
40
1
41
1
10
3.99999989292917
20
-4.49572204039401
30
0
41
1
10
3.99999989292917
20
-4.45633420258991
30
0
41
1
10
4.00363399624717
20
-4.41773409344495
30
0
41
1
10
4.02284473014541
20
-4.34319329629054
30
0
41
1
10
4.03872834117189
20
-4.30733449589391
30
0
41
1
10
4.07653246640155
20
-4.27029929710707
30
0
41
1
10
4.09159352400192
20
-4.26099169856147
30
0
41
1
10
4.12439860050614
20
-4.25156989926452
30
0
41
1
10
4.1416581900429
20
-4.25149167729458
30
0
41
1
10
4.19191065874452
20
-4.2615263541025
30
0
41
1
10
4.22308823902648
20
-4.28073384459898
30
0
41
1
10
4.25124349488317
20
-4.30428889374488
30
0
0
SPLINE
5
BF
100
AcDbEntity
8
1
62
256
6
ByLayer
370
18
48
1
60
0
100
AcDbSpline
70
4
71
3
72
63
73
59
40
0
40
0
40
0
40
0
40
0.0312500000000002
40
0.0312500000000002
40
0.0625000000000005
40
0.0625000000000005
40
0.0937500000000007
40
0.0937500000000007
40
0.109375000000001
40
0.109375000000001
40
0.125
40
0.125
40
0.140625
40
0.140625
40
0.15625
40
0.15625
40
0.171875
40
0.171875
40
0.1875
40
0.1875
40
0.21875
40
0.21875
40
0.249999999999999
40
0.249999999999999
40
0.265624999999999
40
0.265624999999999
40
0.281249999999999
40
0.281249999999999
40
0.312499999999999
40
0.312499999999999
40
0.328124999999999
40
0.328124999999999
40
0.335937499999999
40
0.335937499999999
40
0.33984375
40
0.33984375
40
0.343750000000001
40
0.343750000000001
40
0.347656250000001
40
0.347656250000001
40
0.351562500000002
40
0.359375000000002
40
0.359375000000002
40
0.375000000000002
40
0.375000000000002
40
0.437500000000001
40
0.437500000000001
40
0.500000000000001
40
0.500000000000001
40
0.625
40
0.625
40
0.749999999999999
40
0.749999999999999
40
0.812499999999999
40
0.812499999999999
40
0.874999999999999
40
0.874999999999999
40
1
40
1
40
1
40
1
41
1
10
3.9999998929265
20
-4.73860116297371
30
0
41
1
10
3.82536969999748
20
-4.60915503366232
30
0
41
1
10
3.6541783861183
20
-4.4727629717365
30
0
41
1
10
3.32383555835014
20
-4.18455235486607
30
0
41
1
10
3.16530629069544
20
-4.03336156557614
30
0
41
1
10
2.8657453391898
20
-3.71270687541136
30
0
41
1
10
2.7246442582113
20
-3.5433114020519
30
0
41
1
10
2.53133151551907
20
-3.27040563531577
30
0
41
1
10
2.47025810902079
20
-3.17660648728506
30
0
41
1
10
2.35717802352593
20
-2.98440990776197
30
0
41
1
10
2.30499402913637
20
-2.88576187942573
30
0
41
1
10
2.2108146573047
20
-2.6825532911397
30
0
41
1
10
2.1688167251246
20
-2.57799463913724
30
0
41
1
10
2.09697702580695
20
-2.36187964483671
30
0
41
1
10
2.06742514895529
20
-2.25081225699904
30
0
41
1
10
2.02377203947808
20
-2.0268540668533
30
0
41
1
10
2.0094458530113
20
-1.91333618403632
30
0
41
1
10
1.99724671838334
20
-1.68297486907505
30
0
41
1
10
1.99954589052535
20
-1.56512123523561
30
0
41
1
10
2.03230566967093
20
-1.21676474093908
30
0
41
1
10
2.08788297826473
20
-0.989796270073612
30
0
41
1
10
2.26115508445065
20
-0.546786618467252
30
0
41
1
10
2.37453660690409
20
-0.340741999100771
30
0
41
1
10
2.5742379191895
20
-0.0488447173046325
30
0
41
1
10
2.64605366805455
20
0.045830572233541
30
0
41
1
10
2.7975499946059
20
0.228735664522503
30
0
41
1
10
2.87663362394423
20
0.316335804679568
30
0
41
1
10
3.12226036390649
20
0.569480735589877
30
0
41
1
10
3.29711853464573
20
0.725441896172782
30
0
41
1
10
3.5719111263638
20
0.945029333735249
30
0
41
1
10
3.6656195216685
20
1.01580179825777
30
0
41
1
10
3.80900078731804
20
1.11873158461498
30
0
41
1
10
3.8572650511336
20
1.15250250250054
30
0
41
1
10
3.93033125101721
20
1.20239242622389
30
0
41
1
10
3.95453062681668
20
1.21939886324932
30
0
41
1
10
4.00767037348299
20
1.2433010386342
30
0
41
1
10
4.03633771562392
20
1.25148345933624
30
0
41
1
10
4.09447185127732
20
1.26284825942793
30
0
41
1
10
4.12372617510965
20
1.26548304346929
30
0
41
1
10
4.18239182623188
20
1.26819860173984
30
0
41
1
10
4.27039930504284
20
1.2721253343108
30
0
41
1
10
4.35843372664297
20
1.27561338227602
30
0
41
1
10
4.53453832964149
20
1.28200745063916
30
0
41
1
10
4.65197808419691
20
1.28549356225
30
0
41
1
10
5.23910596332036
20
1.29907452561883
30
0
41
1
10
5.70881145851766
20
1.29764822681142
30
0
41
1
10
6.64822866011932
20
1.27095930147962
30
0
41
1
10
7.11656391325704
20
1.24573241754254
30
0
41
1
10
8.51538496343034
20
1.13577462463161
30
0
41
1
10
9.44064423304681
20
1.01664181400091
30
0
41
1
10
11.2776900493053
20
0.692595211963919
30
0
41
1
10
12.1894184338442
20
0.487306323909877
30
0
41
1
10
13.547970742076
20
0.120494578810565
30
0
41
1
10
13.9987180781932
20
-0.0114331080193892
30
0
41
1
10
14.8930157187172
20
-0.291785718723162
30
0
41
1
10
15.3370824371616
20
-0.440359728126083
30
0
41
1
10
16.6610900963447
20
-0.907966387210166
30
0
41
1
10
17.532801266518
20
-1.24897717358388
30
0
41
1
10
18.3968680181995
20
-1.60910606903624
30
0
0
SPLINE
5
C0
100
AcDbEntity
8
1
62
256
6
ByLayer
370
18
48
1
60
0
100
AcDbSpline
70
4
71
3
72
44
73
40
40
0
40
0
40
0
40
0
40
0.12499999999999
40
0.12499999999999
40
0.187499999999985
40
0.187499999999985
40
0.24999999999998
40
0.24999999999998
40
0.374999999999965
40
0.374999999999965
40
0.499999999999949
40
0.499999999999949
40
0.624999999999933
40
0.624999999999933
40
0.687499999999926
40
0.687499999999926
40
0.749999999999918
40
0.749999999999918
40
0.81249999999991
40
0.81249999999991
40
0.843749999999909
40
0.843749999999909
40
0.851562499999909
40
0.851562499999909
40
0.855468749999911
40
0.855468749999911
40
0.859374999999914
40
0.859374999999914
40
0.863281249999916
40
0.863281249999916
40
0.867187499999918
40
0.867187499999918
40
0.871093749999921
40
0.871093749999921
40
0.874999999999923
40
0.874999999999923
40
0.937499999999962
40
0.937499999999962
40
1
40
1
40
1
40
1
41
1
10
84.4005476594004
20
2.85895197457583
30
0
41
1
10
84.7343435125482
20
2.56745716063486
30
0
41
1
10
85.0770551080783
20
2.29517068094847
30
0
41
1
10
85.6045427079094
20
1.9156538440316
30
0
41
1
10
85.78265422366
20
1.79406531916672
30
0
41
1
10
86.1437253064738
20
1.56133305194638
30
0
41
1
10
86.3270586667024
20
1.44986155796073
30
0
41
1
10
86.8816382619199
20
1.13298510907421
30
0
41
1
10
87.2535000750985
20
0.947092184718144
30
0
41
1
10
88.0015579053348
20
0.626614768228393
30
0
41
1
10
88.377732390843
20
0.491775384978809
30
0
41
1
10
89.1349356920349
20
0.279562321004164
30
0
41
1
10
89.5160467754271
20
0.20316252781538
30
0
41
1
10
90.0920722539558
20
0.140163072479709
30
0
41
1
10
90.2830818283948
20
0.128150252723827
30
0
41
1
10
90.6609007320044
20
0.123584940809167
30
0
41
1
10
90.8480276722689
20
0.130984215290795
30
0
41
1
10
91.2183539589016
20
0.16711597306761
30
0
41
1
10
91.4019891311566
20
0.195917112284718
30
0
41
1
10
91.6720721570317
20
0.256801463681029
30
0
41
1
10
91.761199451298
20
0.280039232684459
30
0
41
1
10
91.8712499843284
20
0.312922439171842
30
0
41
1
10
91.893191227234
20
0.319690342525234
30
0
41
1
10
91.9259981162687
20
0.330133756040198
30
0
41
1
10
91.9369157439901
20
0.333663417661029
30
0
41
1
10
91.9587142428661
20
0.340820741400648
30
0
41
1
10
91.9696107820969
20
0.344499767647676
30
0
41
1
10
91.9902125858163
20
0.354060994776859
30
0
41
1
10
91.9998844264314
20
0.360013239173952
30
0
41
1
10
92.017320464346
20
0.375470726580062
30
0
41
1
10
92.0250900428086
20
0.384901230289103
30
0
41
1
10
92.037056592195
20
0.406800086120029
30
0
41
1
10
92.0413046826845
20
0.41944247470974
30
0
41
1
10
92.0452657048074
20
0.446530192915162
30
0
41
1
10
92.0461604574234
20
0.460636730674338
30
0
41
1
10
92.0684632263123
20
0.696605264670694
30
0
41
1
10
92.0782072713149
20
0.922415777037003
30
0
41
1
10
92.0793635140622
20
1.37828620526966
30
0
41
1
10
92.0707321043512
20
1.60872794085833
30
0
41
1
10
92.0547725713878
20
1.83856887224172
30
0
0
SPLINE
5
C1
100
AcDbEntity
8
1
62
256
6
ByLayer
370
18
48
1
60
0
100
AcDbSpline
70
4
71
3
72
10
73
6
40
0
40
0
40
0
40
0
40
0.5
40
0.5
40
1
40
1
40
1
40
1
41
1
10
94.9696354961031
20
0.232618009795772
30
0
41
1
10
94.9703339270511
20
0.209776278726935
30
0
41
1
10
94.973843551107
20
0.182946244614584
30
0
41
1
10
94.9844079292332
20
0.125642690475445
30
0
41
1
10
94.9913870377775
20
0.0956012801609916
30
0
41
1
10
94.9999529974426
20
0.0642674091465096
30
0
0
SPLINE
5
C2
100
AcDbEntity
8
1
62
256
6
ByLayer
370
13
48
1
60
0
100
AcDbSpline
70
4
71
3
72
26
73
22
40
0
40
0
40
0
40
0
40
0.0455084561706853
40
0.0455084561706853
40
0.15156307215172
40
0.15156307215172
40
0.257617688132755
40
0.257617688132755
40
0.36367230411379
40
0.36367230411379
40
0.469726920094825
40
0.469726920094825
40
0.57578153607586
40
0.57578153607586
40
0.681836152056895
40
0.681836152056895
40
0.734863460047412
40
0.734863460047412
40
0.78789076803793
40
0.78789076803793
40
1
40
1
40
1
40
1
41
1
10
4.25081084431613
20
-7.8067926910426
30
0
41
1
10
4.25082026142388
20
-7.80677965938958
30
0
41
1
10
4.25082959926075
20
-7.80411251455118
30
0
41
1
10
4.25086026023578
20
-7.78641516934817
30
0
41
1
10
4.25088109980157
20
-7.75972988604011
30
0
41
1
10
4.25092187273293
20
-7.67779522162226
30
0
41
1
10
4.25094181645255
20
-7.62239287835584
30
0
41
1
10
4.25098050216417
20
-7.48425978455927
30
0
41
1
10
4.25099930844451
20
-7.40143806306139
30
0
41
1
10
4.2510359108573
20
-7.20803881202932
30
0
41
1
10
4.25105353822184
20
-7.09827964651885
30
0
41
1
10
4.25108719423912
20
-6.85493400597778
30
0
41
1
10
4.25110326244254
20
-6.72113769280307
30
0
41
1
10
4.25113370612519
20
-6.4294603549489
30
0
41
1
10
4.25114808226587
20
-6.27158059764633
30
0
41
1
10
4.25116811366269
20
-6.016224438602
30
0
41
1
10
4.25117455138059
20
-5.92773231684259
30
0
41
1
10
4.25118673802717
20
-5.74612512048205
30
0
41
1
10
4.25119249167918
20
-5.6529977432233
30
0
41
1
10
4.25121945881082
20
-5.17596688763766
30
0
41
1
10
4.2512353767836
20
-4.75824870601895
30
0
41
1
10
4.25124349487598
20
-4.30428889582865
30
0
0
SPLINE
5
C3
100
AcDbEntity
8
1
62
256
6
ByLayer
370
18
48
1
60
0
100
AcDbSpline
70
4
71
3
72
18
73
14
40
0
40
0
40
0
40
0
40
0.235488893920453
40
0.235488893920453
40
0.456605454055288
40
0.456605454055288
40
0.567163734122705
40
0.567163734122705
40
0.622442874156414
40
0.622442874156414
40
0.677722014190123
40
0.677722014190123
40
1
40
1
40
1
40
1
41
1
10
17.8004290054736
20
-0.0025769494517931
30
0
41
1
10
18.7720024595006
20
-0.495555027798446
30
0
41
1
10
19.7418216140099
20
-0.987788220089868
30
0
41
1
10
21.6255525814265
20
-1.92731221882363
30
0
41
1
10
22.5392291500923
20
-2.37559035783244
30
0
41
1
10
23.9162245431149
20
-3.02935842013235
30
0
41
1
10
24.3762781619028
20
-3.24422094202475
30
0
41
1
10
25.0685614168234
20
-3.56069665945859
30
0
41
1
10
25.2998040677451
20
-3.6652659946281
30
0
41
1
10
25.7612331342684
20
-3.8714308064568
30
0
41
1
10
25.991644272828
20
-3.97312681730483
30
0
41
1
10
27.5634571420056
20
-4.65793667713635
30
0
41
1
10
28.8959780217319
20
-5.19340976705658
30
0
41
1
10
30.2283708830843
20
-5.66691333257623
30
0
0
SPLINE
5
C4
100
AcDbEntity
8
1
62
256
6
ByLayer
370
13
48
1
60
0
100
AcDbSpline
70
4
71
3
72
20
73
16
40
0
40
0
40
0
40
0
40
0.105155653178675
40
0.105155653178675
40
0.298991927190853
40
0.298991927190853
40
0.347450995693898
40
0.347450995693898
40
0.395910064196943
40
0.395910064196943
40
0.492828201203032
40
0.492828201203032
40
0.880500749227397
40
0.880500749227397
40
1
40
1
40
1
40
1
41
1
10
30.228370883258
20
-5.66691333263793
30
0
41
1
10
30.7243010176619
20
-5.84315616138434
30
0
41
1
10
31.2202134163506
20
-6.01081370812352
30
0
41
1
10
32.6315282647626
20
-6.46121716682998
30
0
41
1
10
33.5478957924122
20
-6.72194374238768
30
0
41
1
10
34.6988319472741
20
-7.00384672689745
30
0
41
1
10
34.9292880503678
20
-7.05802449995866
30
0
41
1
10
35.3908421721322
20
-7.16185933854729
30
0
41
1
10
35.6220273231427
20
-7.21152921356219
30
0
41
1
10
36.3140165139859
20
-7.35304669692809
30
0
41
1
10
36.7741126212144
20
-7.43762943691868
30
0
41
1
10
39.0700003875369
20
-7.81106739636451
30
0
41
1
10
40.8926094760927
20
-7.95091041186834
30
0
41
1
10
43.2885358704218
20
-7.91894680452475
30
0
41
1
10
43.8539069074852
20
-7.89583902468505
30
0
41
1
10
44.4207965155243
20
-7.85704917395535
30
0
0
SPLINE
5
C5
100
AcDbEntity
8
1
62
256
6
ByLayer
370
18
48
1
60
0
100
AcDbSpline
70
4
71
3
72
48
73
44
40
0
40
0
40
0
40
0
40
0.0624999999999997
40
0.0624999999999997
40
0.124999999999999
40
0.124999999999999
40
0.187499999999999
40
0.187499999999999
40
0.249999999999998
40
0.249999999999998
40
0.312499999999998
40
0.312499999999998
40
0.343749999999998
40
0.343749999999998
40
0.374999999999998
40
0.374999999999998
40
0.406249999999997
40
0.406249999999997
40
0.437499999999997
40
0.437499999999997
40
0.453124999999997
40
0.453124999999997
40
0.468749999999997
40
0.468749999999997
40
0.484374999999997
40
0.484374999999997
40
0.499999999999997
40
0.499999999999997
40
0.531249999999997
40
0.531249999999997
40
0.562499999999997
40
0.562499999999997
40
0.624999999999997
40
0.624999999999997
40
0.687499999999998
40
0.687499999999998
40
0.749999999999998
40
0.749999999999998
40
0.874999999999999
40
0.874999999999999
40
0.9375
40
0.9375
40
1
40
1
40
1
40
1
41
1
10
92.5306770161524
20
-4.27990964605962
30
0
41
1
10
92.3869046634893
20
-4.23594386127235
30
0
41
1
10
92.2432921007392
20
-4.18571726595539
30
0
41
1
10
91.9563863869279
20
-4.07274904212733
30
0
41
1
10
91.8126251663449
20
-4.00976613639193
30
0
41
1
10
91.5287228909917
20
-3.87178508614673
30
0
41
1
10
91.3884035147003
20
-3.79678224102801
30
0
41
1
10
91.1114873430662
20
-3.63306048416234
30
0
41
1
10
90.9748722190541
20
-3.54440910546765
30
0
41
1
10
90.7064610426193
20
-3.34935019773314
30
0
41
1
10
90.5748633413697
20
-3.24321729229098
30
0
41
1
10
90.3871184784425
20
-3.06702393205859
30
0
41
1
10
90.3261328423746
20
-3.00536801718661
30
0
41
1
10
90.2100880631042
20
-2.87583390813629
30
0
41
1
10
90.1547861571381
20
-2.80784968867675
30
0
41
1
10
90.0525760303138
20
-2.66195512165513
30
0
41
1
10
90.0055084078654
20
-2.5838183200448
30
0
41
1
10
89.9310732246654
20
-2.4180103641142
30
0
41
1
10
89.9039466675848
20
-2.33065999406713
30
0
41
1
10
89.893304468213
20
-2.19900399819971
30
0
41
1
10
89.8949384440988
20
-2.1566108140276
30
0
41
1
10
89.9095584822459
20
-2.07509365285608
30
0
41
1
10
89.9222782162554
20
-2.03770358086581
30
0
41
1
10
89.9567062619935
20
-1.96971111424583
30
0
41
1
10
89.9782429192973
20
-1.93952011387731
30
0
41
1
10
90.0263713725549
20
-1.8867465883539
30
0
41
1
10
90.0534089206883
20
-1.86363613188158
30
0
41
1
10
90.1391465242995
20
-1.8033930223167
30
0
41
1
10
90.2017656707706
20
-1.7750405021369
30
0
41
1
10
90.3331666186381
20
-1.73166298606176
30
0
41
1
10
90.4015052472344
20
-1.71711004011314
30
0
41
1
10
90.6077365301387
20
-1.68780756168334
30
0
41
1
10
90.7487484629035
20
-1.68653075385402
30
0
41
1
10
91.034688329556
20
-1.70426394589501
30
0
41
1
10
91.1797989226637
20
-1.72383099831228
30
0
41
1
10
91.4678622199608
20
-1.77710907316904
30
0
41
1
10
91.6116033636796
20
-1.81096087307932
30
0
41
1
10
92.0421337196442
20
-1.92972419672762
30
0
41
1
10
92.3282480247412
20
-2.03139256160662
30
0
41
1
10
92.7561939248705
20
-2.21432369845706
30
0
41
1
10
92.8983208831589
20
-2.28040119831235
30
0
41
1
10
93.1795929152064
20
-2.42275973446238
30
0
41
1
10
93.3190037025684
20
-2.49911970140016
30
0
41
1
10
93.4569169725395
20
-2.58181169996888
30
0
0
SPLINE
5
C6
100
AcDbEntity
8
1
62
256
6
ByLayer
370
18
48
1
60
0
100
AcDbSpline
70
4
71
3
72
38
73
34
40
0
40
0
40
0
40
0
40
0.108143216794231
40
0.108143216794231
40
0.162214825191347
40
0.162214825191347
40
0.216286433588463
40
0.216286433588463
40
0.270358041985579
40
0.270358041985579
40
0.324429650382694
40
0.324429650382694
40
0.432572867176924
40
0.432572867176924
40
0.486644475574039
40
0.486644475574039
40
0.540716083971154
40
0.540716083971154
40
0.594787692368269
40
0.594787692368269
40
0.648859300765384
40
0.648859300765384
40
0.702930909162499
40
0.702930909162499
40
0.757002517559614
40
0.757002517559614
40
0.865145734353845
40
0.865145734353845
40
0.91921734275096
40
0.91921734275096
40
0.973288951148075
40
0.973288951148075
40
1
40
1
40
1
40
1
41
1
10
18.3968680181994
20
-1.60910606903624
30
0
41
1
10
19.174990504118
20
-2.01580240757548
30
0
41
1
10
19.9515291353098
20
-2.40821565283645
30
0
41
1
10
21.1109696675396
20
-2.98265163819613
30
0
41
1
10
21.4961741747521
20
-3.17240445493653
30
0
41
1
10
22.2658487037582
20
-3.5450805481546
30
0
41
1
10
22.6507886782225
20
-3.72719437930456
30
0
41
1
10
23.4204784626348
20
-4.08384700665871
30
0
41
1
10
23.8051854364896
20
-4.2584574870142
30
0
41
1
10
24.5740157596767
20
-4.60071157359445
30
0
41
1
10
24.957706216296
20
-4.76901872915298
30
0
41
1
10
26.1112384632958
20
-5.25800194641962
30
0
41
1
10
26.8830561735964
20
-5.56381097635355
30
0
41
1
10
28.0422908730323
20
-5.99584574121812
30
0
41
1
10
28.4288881395114
20
-6.13542167624877
30
0
41
1
10
29.2054181111564
20
-6.40161386561115
30
0
41
1
10
29.5956748825936
20
-6.52899430089391
30
0
41
1
10
30.3745749065697
20
-6.77131837918341
30
0
41
1
10
30.7628727229767
20
-6.88610891878125
30
0
41
1
10
31.5366462444582
20
-7.10345182099513
30
0
41
1
10
31.9228447098251
20
-7.20520053217686
30
0
41
1
10
32.6949763275761
20
-7.39418676479499
30
0
41
1
10
33.0806538557239
20
-7.48169211356833
30
0
41
1
10
33.8508442453495
20
-7.64315621198188
30
0
41
1
10
34.2351469596086
20
-7.71724635922268
30
0
41
1
10
35.3870739895611
20
-7.91831364496477
30
0
41
1
10
36.1566736978158
20
-8.0225684316494
30
0
41
1
10
37.3110837895146
20
-8.13597071848901
30
0
41
1
10
37.6954685007616
20
-8.16662739339336
30
0
41
1
10
38.4662008643811
20
-8.21262290589939
30
0
41
1
10
38.8525958806915
20
-8.22802915807739
30
0
41
1
10
39.431017047988
20
-8.23980686444196
30
0
41
1
10
39.62246425036
20
-8.24186475886779
30
0
41
1
10
39.8140798807871
20
-8.24206287285105
30
0
0
SPLINE
5
C7
100
AcDbEntity
8
1
62
256
6
ByLayer
370
18
48
1
60
0
100
AcDbSpline
70
4
71
3
72
32
73
28
40
0
40
0
40
0
40
0
40
0.114522588281479
40
0.114522588281479
40
0.188312372591356
40
0.188312372591356
40
0.262102156901233
40
0.262102156901233
40
0.335891941211109
40
0.335891941211109
40
0.409681725520986
40
0.409681725520986
40
0.55726129414074
40
0.55726129414074
40
0.594156186295678
40
0.594156186295678
40
0.631051078450617
40
0.631051078450617
40
0.704840862760493
40
0.704840862760493
40
0.77863064707037
40
0.77863064707037
40
0.852420431380247
40
0.852420431380247
40
0.926210215690124
40
0.926210215690124
40
1
40
1
40
1
40
1
41
1
10
76.824505563037
20
5.93924915117057
30
0
41
1
10
77.4245765565621
20
6.16073094725849
30
0
41
1
10
78.023579693327
20
6.36718153576439
30
0
41
1
10
79.0055758865498
20
6.68420475308065
30
0
41
1
10
79.3891950411042
20
6.80314155506184
30
0
41
1
10
80.1570387811223
20
7.02710393766566
30
0
41
1
10
80.5412377741569
20
7.13222937830548
30
0
41
1
10
81.3096538889861
20
7.32949322528123
30
0
41
1
10
81.6938913381795
20
7.42161030063846
30
0
41
1
10
82.4620042556364
20
7.59299578440388
30
0
41
1
10
82.8457000659339
20
7.67233523211743
30
0
41
1
10
84.0004195329175
20
7.88772508185983
30
0
41
1
10
84.7735952718165
20
8.00270132801745
30
0
41
1
10
85.7420067379426
20
8.11077939884979
30
0
41
1
10
85.9358158727136
20
8.13057301034593
30
0
41
1
10
86.3243338630796
20
8.16625430607724
30
0
41
1
10
86.5191369150472
20
8.182184292388
30
0
41
1
10
87.1029795450478
20
8.22413005496651
30
0
41
1
10
87.4916103553543
20
8.24436444397557
30
0
41
1
10
88.2672590021005
20
8.26963894428073
30
0
41
1
10
88.6541385186437
20
8.27467214154882
30
0
41
1
10
89.4265014502897
20
8.26933046762667
30
0
41
1
10
89.8128638494585
20
8.25899899198254
30
0
41
1
10
90.5856823208179
20
8.22335562864518
30
0
41
1
10
90.9720655266336
20
8.19803181696366
30
0
41
1
10
91.7444682375997
20
8.13223593259625
30
0
41
1
10
92.1300462843839
20
8.09155712973956
30
0
41
1
10
92.5163357981731
20
8.04350753013094
30
0
0
SPLINE
5
C8
100
AcDbEntity
8
1
62
256
6
ByLayer
370
18
48
1
60
0
100
AcDbSpline
70
4
71
3
72
14
73
10
40
0
40
0
40
0
40
0
40
0.25
40
0.25
40
0.5
40
0.5
40
0.75
40
0.75
40
1
40
1
40
1
40
1
41
1
10
92.516335798173
20
8.04350753013094
30
0
41
1
10
92.699270392517
20
7.5266812352325
30
0
41
1
10
92.8865520534032
20
7.01045581928676
30
0
41
1
10
93.2687406957423
20
5.97932628164537
30
0
41
1
10
93.4636872020769
20
5.46442785519275
30
0
41
1
10
93.860634969915
20
4.4360651314104
30
0
41
1
10
94.0627428530956
20
3.92238928959233
30
0
41
1
10
94.4719475973898
20
2.90047376175286
30
0
41
1
10
94.6792088016038
20
2.39165429483856
30
0
41
1
10
94.8890683703983
20
1.88475292559812
30
0
0
SPLINE
5
C9
100
AcDbEntity
8
1
62
256
6
ByLayer
370
13
48
1
60
0
100
AcDbSpline
70
4
71
3
72
20
73
16
40
0
40
0
40
0
40
0
40
0.0825488331392336
40
0.0825488331392336
40
0.247234753147519
40
0.247234753147519
40
0.411920673155804
40
0.411920673155804
40
0.57660659316409
40
0.57660659316409
40
0.905978433180661
40
0.905978433180661
40
0.988321393184804
40
0.988321393184804
40
1
40
1
40
1
40
1
41
1
10
4.25031853500084
20
6.28115610980552
30
0
41
1
10
4.25033562470938
20
6.3624955291134
30
0
41
1
10
4.25035233304965
20
6.4408293008803
30
0
41
1
10
4.2504013490888
20
6.6665051992737
30
0
41
1
10
4.25043268561649
20
6.80516686418864
30
0
41
1
10
4.25049298234853
20
7.05739063988125
30
0
41
1
10
4.25052176831545
20
7.17024298913447
30
0
41
1
10
4.25057726297678
20
7.3695940711097
30
0
41
1
10
4.25060404186257
20
7.45621257104088
30
0
41
1
10
4.25068085617505
20
7.67237383144257
30
0
41
1
10
4.25072785935845
20
7.76046371041684
30
0
41
1
10
4.2507840603968
20
7.8009854127364
30
0
41
1
10
4.25079516856115
20
7.80557479625841
30
0
41
1
10
4.25080773079074
20
7.80672458424189
30
0
41
1
10
4.25080928924126
20
7.80679488057618
30
0
41
1
10
4.25081084552676
20
7.80679268935276
30
0
0
SPLINE
5
CA
100
AcDbEntity
8
1
62
256
6
ByLayer
370
18
48
1
60
0
100
AcDbSpline
70
4
71
3
72
12
73
8
40
0
40
0
40
0
40
0
40
0.249999999999989
40
0.249999999999989
40
0.499999999999978
40
0.499999999999978
40
1
40
1
40
1
40
1
41
1
10
4.13338334189854
20
6.31372525802192
30
0
41
1
10
4.1131983270181
20
6.32053147305129
30
0
41
1
10
4.09490606404546
20
6.32890465001486
30
0
41
1
10
4.06200565848798
20
6.34864659824521
30
0
41
1
10
4.04762062577521
20
6.35997007355883
30
0
41
1
10
4.01271615915459
20
6.39647222950435
30
0
41
1
10
3.99999989292897
20
6.42470144945298
30
0
41
1
10
3.99999989292897
20
6.45297128372746
30
0
0
SPLINE
5
CB
100
AcDbEntity
8
1
62
256
6
ByLayer
370
18
48
1
60
0
100
AcDbSpline
70
4
71
3
72
18
73
14
40
0
40
0
40
0
40
0
40
0.25
40
0.25
40
0.374999999999999
40
0.374999999999999
40
0.499999999999999
40
0.499999999999999
40
0.749999999999998
40
0.749999999999998
40
0.874999999999999
40
0.874999999999999
40
1
40
1
40
1
40
1
41
1
10
91.555713727747
20
-6.18031726824165
30
0
41
1
10
91.5544196679232
20
-6.4713417026922
30
0
41
1
10
91.566893276373
20
-6.72613304245812
30
0
41
1
10
91.6068872318921
20
-7.05495464328834
30
0
41
1
10
91.6237940629532
20
-7.15561481628578
30
0
41
1
10
91.6652241131929
20
-7.3385528881393
30
0
41
1
10
91.689509782442
20
-7.41967601641318
30
0
41
1
10
91.7727254540803
20
-7.63180896330928
30
0
41
1
10
91.8420755212804
20
-7.73248801040072
30
0
41
1
10
91.9686436392157
20
-7.82352475309835
30
0
41
1
10
92.0148035086561
20
-7.84382564587727
30
0
41
1
10
92.1141045272548
20
-7.86370447831047
30
0
41
1
10
92.167228362002
20
-7.86338694169348
30
0
41
1
10
92.2239527212747
20
-7.85299645442871
30
0
0
SPLINE
5
CC
100
AcDbEntity
8
1
62
256
6
ByLayer
370
18
48
1
60
0
100
AcDbSpline
70
4
71
3
72
56
73
52
40
0
40
0
40
0
40
0
40
0.0551845912063041
40
0.0551845912063041
40
0.110369182412608
40
0.110369182412608
40
0.13796147801576
40
0.13796147801576
40
0.165553773618911
40
0.165553773618911
40
0.220738364825215
40
0.220738364825215
40
0.248330660428367
40
0.248330660428367
40
0.275922956031519
40
0.275922956031519
40
0.331107547237825
40
0.331107547237825
40
0.38629213844413
40
0.38629213844413
40
0.413884434047283
40
0.413884434047283
40
0.441476729650435
40
0.441476729650435
40
0.551845912063047
40
0.551845912063047
40
0.607030503269353
40
0.607030503269353
40
0.634622798872506
40
0.634622798872506
40
0.66221509447566
40
0.66221509447566
40
0.717399685681966
40
0.717399685681966
40
0.74499198128512
40
0.74499198128512
40
0.772584276888273
40
0.772584276888273
40
0.827768868094581
40
0.827768868094581
40
0.855361163697735
40
0.855361163697735
40
0.882953459300889
40
0.882953459300889
40
0.938138050507197
40
0.938138050507197
40
0.965730346110351
40
0.965730346110351
40
0.993322641713505
40
0.993322641713505
40
1
40
1
40
1
40
1
41
1
10
92.0871430621768
20
-8.26407237755228
30
0
41
1
10
91.169800535726
20
-8.288214065441
30
0
41
1
10
90.2512467933386
20
-8.26922718526197
30
0
41
1
10
88.4187030837204
20
-8.14624369493467
30
0
41
1
10
87.5038438884844
20
-8.04238805247311
30
0
41
1
10
86.1291632148564
20
-7.82482266579441
30
0
41
1
10
85.6700828252083
20
-7.74192411787081
30
0
41
1
10
84.7524551233948
20
-7.55639551406261
30
0
41
1
10
84.2942715639415
20
-7.45382793068256
30
0
41
1
10
82.9204063194264
20
-7.11783001429436
30
0
41
1
10
82.0053630834286
20
-6.85614867017793
30
0
41
1
10
80.6295891754389
20
-6.41146427038694
30
0
41
1
10
80.170239593459
20
-6.2544484651246
30
0
41
1
10
79.2533088492531
20
-5.92537374701578
30
0
41
1
10
78.7953379049473
20
-5.7531156313963
30
0
41
1
10
77.4217017385216
20
-5.21487991723052
30
0
41
1
10
76.5062665457152
20
-4.82750073007676
30
0
41
1
10
74.6698064415789
20
-4.00470349512216
30
0
41
1
10
73.7537609112777
20
-3.57120624335704
30
0
41
1
10
72.3801327923057
20
-2.89690052804204
30
0
41
1
10
71.9222059535998
20
-2.66811125710899
30
0
41
1
10
71.0054108179062
20
-2.20397901073233
30
0
41
1
10
70.5458873337603
20
-1.96823405947123
30
0
41
1
10
68.2533375734228
20
-0.780791204996689
30
0
41
1
10
66.4401392320337
20
0.193613220699206
30
0
41
1
10
63.7152868063828
20
1.62222062714119
30
0
41
1
10
62.8060777878457
20
2.09277244381434
30
0
41
1
10
61.4366130148912
20
2.78197587572478
30
0
41
1
10
60.9791527208096
20
3.00888277891804
30
0
41
1
10
60.0614912430114
20
3.45552516768456
30
0
41
1
10
59.6021876936852
20
3.67483792553378
30
0
41
1
10
58.2274005733327
20
4.31620822224704
30
0
41
1
10
57.3126955849073
20
4.72264096242509
30
0
41
1
10
55.9388021889381
20
5.29339744591294
30
0
41
1
10
55.4805323927072
20
5.47716851155326
30
0
41
1
10
54.5625609240165
20
5.83048406145193
30
0
41
1
10
54.1032015986374
20
5.99990360715967
30
0
41
1
10
52.7280612168697
20
6.48311573095555
30
0
41
1
10
51.8132053048364
20
6.77253058480113
30
0
41
1
10
50.4392144295826
20
7.15255416464481
30
0
41
1
10
49.9809251941503
20
7.27020607699833
30
0
41
1
10
49.0630091938423
20
7.48665647756866
30
0
41
1
10
48.603518132816
20
7.58537573076359
30
0
41
1
10
47.2281205685752
20
7.85101427694465
30
0
41
1
10
46.3131689707866
20
7.98786756022292
30
0
41
1
10
44.9391405366717
20
8.13055331757158
30
0
41
1
10
44.4808402059446
20
8.16767690539683
30
0
41
1
10
43.5629434952966
20
8.22071999652556
30
0
41
1
10
43.1033590355704
20
8.23660537168445
30
0
41
1
10
42.5338296110793
20
8.24300243448747
30
0
41
1
10
42.4228887207287
20
8.24362245273554
30
0
41
1
10
42.3119728360979
20
8.24361703561394
30
0
0
SPLINE
5
CD
100
AcDbEntity
8
1
62
256
6
ByLayer
370
18
48
1
60
0
100
AcDbSpline
70
4
71
3
72
10
73
6
40
0
40
0
40
0
40
0
40
0.5
40
0.5
40
1
40
1
40
1
40
1
41
1
10
92.230183860545
20
1.96675651297889
30
0
41
1
10
92.6733661681991
20
1.95271960553902
30
0
41
1
10
93.1165744109077
20
1.93840792342601
30
0
41
1
10
94.0029494491308
20
1.91022368066652
30
0
41
1
10
94.4460969807025
20
1.89655521612644
30
0
41
1
10
94.889068370403
20
1.88475292560011
30
0
0
SPLINE
5
CE
100
AcDbEntity
8
1
62
256
6
ByLayer
370
18
48
1
60
0
100
AcDbSpline
70
4
71
3
72
8
73
4
40
0
40
0
40
0
40
0
40
1
40
1
40
1
40
1
41
1
10
94.8890683703974
20
-1.88475292560025
30
0
41
1
10
94.9259511402519
20
-1.33353096173642
30
0
41
1
10
94.9528120145521
20
-0.782819060226075
30
0
41
1
10
94.9696354961031
20
-0.232618009795772
30
0
0
SPLINE
5
CF
100
AcDbEntity
8
1
62
256
6
ByLayer
370
18
48
1
60
0
100
AcDbSpline
70
4
71
3
72
8
73
4
40
0
40
0
40
0
40
0
40
1
40
1
40
1
40
1
41
1
10
92.5306770161523
20
-4.27990964605965
30
0
41
1
10
92.1984783257717
20
-4.90683689660278
30
0
41
1
10
91.8734677208151
20
-5.54028538094977
30
0
41
1
10
91.555713727747
20
-6.18031726824171
30
0
0
SPLINE
5
D0
100
AcDbEntity
8
1
62
256
6
ByLayer
370
18
48
1
60
0
100
AcDbSpline
70
4
71
3
72
8
73
4
40
0
40
0
40
0
40
0
40
1
40
1
40
1
40
1
41
1
10
94.9999529974427
20
0.0642674091464528
30
0
41
1
10
94.9908576699581
20
0.0388418898622547
30
0
41
1
10
94.9793050487393
20
0.0140192374615253
30
0
41
1
10
94.9675068340607
20
-0.0052616845307796
30
0
0
SPLINE
5
D1
100
AcDbEntity
8
1
62
256
6
ByLayer
370
18
48
1
60
0
100
AcDbSpline
70
4
71
3
72
14
73
10
40
0
40
0
40
0
40
0
40
0.255885377529996
40
0.255885377529996
40
0.383828066294994
40
0.383828066294994
40
0.511770755059991
40
0.511770755059991
40
1
40
1
40
1
40
1
41
1
10
92.2239527215339
20
-7.85299645443146
30
0
41
1
10
91.301897788148
20
-7.87366435118852
30
0
41
1
10
90.3811713840252
20
-7.85289091743525
30
0
41
1
10
88.9980335011567
20
-7.76034644880889
30
0
41
1
10
88.5361858282342
20
-7.71919715884277
30
0
41
1
10
87.616354294241
20
-7.61727289870319
30
0
41
1
10
87.1578237081288
20
-7.55649812856066
30
0
41
1
10
84.9544852941975
20
-7.21794171716803
30
0
41
1
10
83.2231923996388
20
-6.81122374557154
30
0
41
1
10
81.4874366022174
20
-6.28622465504577
30
0
0
SPLINE
5
D2
100
AcDbEntity
8
1
62
256
6
ByLayer
370
13
48
1
60
0
100
AcDbSpline
70
4
71
3
72
26
73
22
40
0
40
0
40
0
40
0
40
0.0136175774409044
40
0.0136175774409044
40
0.161634161984518
40
0.161634161984518
40
0.235642454256323
40
0.235642454256323
40
0.272646600392226
40
0.272646600392226
40
0.309650746528128
40
0.309650746528128
40
0.605683915615358
40
0.605683915615358
40
0.901717084702587
40
0.901717084702587
40
0.938721230838489
40
0.938721230838489
40
0.975725376974391
40
0.975725376974391
40
1
40
1
40
1
40
1
41
1
10
81.487436964055
20
-6.28622476448766
30
0
41
1
10
81.40374191308
20
-6.26091024481349
30
0
41
1
10
81.3200364858743
20
-6.23532072194581
30
0
41
1
10
80.3263444608974
20
-5.92834796060629
30
0
41
1
10
79.4147802140665
20
-5.61518187063544
30
0
41
1
10
78.0410788423587
20
-5.10210079585832
30
0
41
1
10
77.582094496237
20
-4.92383848942137
30
0
41
1
10
76.8914480490281
20
-4.64634330056992
30
0
41
1
10
76.6606213192491
20
-4.5520572138312
30
0
41
1
10
76.199469425399
20
-4.36079403543994
30
0
41
1
10
75.9692684268751
20
-4.26387261863906
30
0
41
1
10
73.9004110066019
20
-3.38079073462563
30
0
41
1
10
72.0828495490485
20
-2.51816250342216
30
0
41
1
10
68.4451970918814
20
-0.727101992853989
30
0
41
1
10
66.6253243964915
20
0.201830974045322
30
0
41
1
10
64.5517707311088
20
1.23405159978333
30
0
41
1
10
64.3207889784154
20
1.34866585038671
30
0
41
1
10
63.8598466909789
20
1.57638660535864
30
0
41
1
10
63.6297263122462
20
1.6895737297786
30
0
41
1
10
63.249140021467
20
1.87573082940366
30
0
41
1
10
63.0985097030674
20
1.94915341233215
30
0
41
1
10
62.948001522819
20
2.02223583898908
30
0
0
SPLINE
5
D3
100
AcDbEntity
8
1
62
256
6
ByLayer
370
18
48
1
60
0
100
AcDbSpline
70
4
71
3
72
22
73
18
40
0
40
0
40
0
40
0
40
0.219250301816749
40
0.219250301816749
40
0.438500603633498
40
0.438500603633498
40
0.54812575454187
40
0.54812575454187
40
0.657750905450243
40
0.657750905450243
40
0.767376056358616
40
0.767376056358616
40
0.877001207266988
40
0.877001207266988
40
0.986626358175361
40
0.986626358175361
40
1
40
1
40
1
40
1
41
1
10
18.3968680181999
20
-7.77069515612706
30
0
41
1
10
19.0861948550848
20
-7.73321751999688
30
0
41
1
10
19.7744986189932
20
-7.67348490537913
30
0
41
1
10
21.1489827391463
20
-7.51023726938826
30
0
41
1
10
21.8350949428244
20
-7.40503837243369
30
0
41
1
10
22.8665351187292
20
-7.21756881892745
30
0
41
1
10
23.210578845612
20
-7.1499489695903
30
0
41
1
10
23.8991293985688
20
-7.00363871048194
30
0
41
1
10
24.2439065270518
20
-6.92487815990737
30
0
41
1
10
24.9324362448708
20
-6.75768498245159
30
0
41
1
10
25.2765298145802
20
-6.66988679256951
30
0
41
1
10
25.9643931307742
20
-6.48399544217489
30
0
41
1
10
26.3081070709635
20
-6.38580750793852
30
0
41
1
10
26.9953002857375
20
-6.18044576097299
30
0
41
1
10
27.3387672980672
20
-6.07322077385555
30
0
41
1
10
27.7240628504482
20
-5.94845325518818
30
0
41
1
10
27.7659570243685
20
-5.93482564569032
30
0
41
1
10
27.8078528588629
20
-5.92113536172195
30
0
0
SPLINE
5
D4
100
AcDbEntity
8
1
62
256
6
ByLayer
370
18
48
1
60
0
100
AcDbSpline
70
4
71
3
72
38
73
34
40
0
40
0
40
0
40
0
40
0.0491104813781628
40
0.0491104813781628
40
0.105045158944154
40
0.105045158944154
40
0.160979836510144
40
0.160979836510144
40
0.216914514076135
40
0.216914514076135
40
0.272849191642126
40
0.272849191642126
40
0.328783869208116
40
0.328783869208116
40
0.384718546774108
40
0.384718546774108
40
0.440653224340098
40
0.440653224340098
40
0.496587901906089
40
0.496587901906089
40
0.55252257947208
40
0.55252257947208
40
0.66439193460406
40
0.66439193460406
40
0.72032661217005
40
0.72032661217005
40
0.77626128973604
40
0.77626128973604
40
0.83219596730203
40
0.83219596730203
40
0.88813064486802
40
0.88813064486802
40
1
40
1
40
1
40
1
41
1
10
65.965499362706
20
7.84267600404138
30
0
41
1
10
66.2671290169234
20
7.84048426267313
30
0
41
1
10
66.5684192875906
20
7.83358171599551
30
0
41
1
10
67.2131866726222
20
7.80928374365354
30
0
41
1
10
67.556583630068
20
7.79075560205928
30
0
41
1
10
68.243494194803
20
7.7432718416492
30
0
41
1
10
68.5869995885167
20
7.71429896727736
30
0
41
1
10
69.2740647906397
20
7.643991061202
30
0
41
1
10
69.6175189695217
20
7.60260214517621
30
0
41
1
10
70.305692164062
20
7.50897395838797
30
0
41
1
10
70.6504204854302
20
7.45677387990634
30
0
41
1
10
71.3387527946092
20
7.34229411503895
30
0
41
1
10
71.6825903909211
20
7.27976714685965
30
0
41
1
10
72.3695738983568
20
7.14345976515315
30
0
41
1
10
72.7126095628217
20
7.06975834871463
30
0
41
1
10
73.3991140548235
20
6.91365024199757
30
0
41
1
10
73.7425754311431
20
6.83151275739806
30
0
41
1
10
74.4296699330625
20
6.65670299203327
30
0
41
1
10
74.7733008247866
20
6.56373604143198
30
0
41
1
10
75.4608649521045
20
6.36708567899143
30
0
41
1
10
75.8047291254041
20
6.26329454361297
30
0
41
1
10
76.8376353430147
20
5.93863571476518
30
0
41
1
10
77.5255163295608
20
5.70590632442867
30
0
41
1
10
78.5562526668808
20
5.33510961244241
30
0
41
1
10
78.8996006654298
20
5.20802285430608
30
0
41
1
10
79.5860922205408
20
4.94508225932526
30
0
41
1
10
79.9295807151058
20
4.80981247477337
30
0
41
1
10
80.6170041767436
20
4.5321781703469
30
0
41
1
10
80.9609475060425
20
4.38980782438989
30
0
41
1
10
81.6493436523542
20
4.09840696211009
30
0
41
1
10
81.9940059872233
20
3.94921544590142
30
0
41
1
10
83.0259225399326
20
3.49304585118551
30
0
41
1
10
83.7134400362679
20
3.18009778012748
30
0
41
1
10
84.4005476594004
20
2.85895197457575
30
0
0
SPLINE
5
D5
100
AcDbEntity
8
1
62
256
6
ByLayer
370
18
48
1
60
0
100
AcDbSpline
70
4
71
3
72
100
73
96
40
0
40
0
40
0
40
0
40
0.0167217000873758
40
0.0167217000873758
40
0.035702061733979
40
0.035702061733979
40
0.0546824233805823
40
0.0546824233805823
40
0.0736627850271856
40
0.0736627850271856
40
0.0926431466737889
40
0.0926431466737889
40
0.111623508320392
40
0.111623508320392
40
0.149584231613599
40
0.149584231613599
40
0.168564593260202
40
0.168564593260202
40
0.187544954906805
40
0.187544954906805
40
0.206525316553409
40
0.206525316553409
40
0.225505678200012
40
0.225505678200012
40
0.263466401493219
40
0.263466401493219
40
0.282446763139823
40
0.282446763139823
40
0.301427124786426
40
0.301427124786426
40
0.32040748643303
40
0.32040748643303
40
0.339387848079634
40
0.339387848079634
40
0.358368209726238
40
0.358368209726238
40
0.377348571372842
40
0.377348571372842
40
0.396328933019445
40
0.396328933019445
40
0.415309294666049
40
0.415309294666049
40
0.434289656312653
40
0.434289656312653
40
0.453270017959257
40
0.453270017959257
40
0.472250379605861
40
0.472250379605861
40
0.491230741252465
40
0.491230741252465
40
0.529191464545672
40
0.529191464545672
40
0.567152187838879
40
0.567152187838879
40
0.586132549485482
40
0.586132549485482
40
0.605112911132086
40
0.605112911132086
40
0.624093272778689
40
0.624093272778689
40
0.643073634425293
40
0.643073634425293
40
0.6810343577185
40
0.6810343577185
40
0.700014719365103
40
0.700014719365103
40
0.718995081011706
40
0.718995081011706
40
0.73797544265831
40
0.73797544265831
40
0.756955804304913
40
0.756955804304913
40
0.775936165951516
40
0.775936165951516
40
0.79491652759812
40
0.79491652759812
40
0.832877250891327
40
0.832877250891327
40
0.85185761253793
40
0.85185761253793
40
0.870837974184534
40
0.870837974184534
40
0.889818335831137
40
0.889818335831137
40
0.908798697477741
40
0.908798697477741
40
0.946759420770948
40
0.946759420770948
40
0.95624960159425
40
0.95624960159425
40
0.965739782417553
40
0.965739782417553
40
0.984720144064157
40
0.984720144064157
40
1
40
1
40
1
40
1
41
1
10
27.7938385321115
20
5.90305437195099
30
0
41
1
10
28.1343245788407
20
6.0289730311375
30
0
41
1
10
28.4750916426163
20
6.15126010116063
30
0
41
1
10
29.2054181111564
20
6.40161386561115
30
0
41
1
10
29.5956748825936
20
6.52899430089391
30
0
41
1
10
30.3745749065696
20
6.77131837918338
30
0
41
1
10
30.7628727229767
20
6.88610891878125
30
0
41
1
10
31.5366462444582
20
7.10345182099511
30
0
41
1
10
31.9228447098252
20
7.20520053217686
30
0
41
1
10
32.6949763275761
20
7.39418676479499
30
0
41
1
10
33.0806538557238
20
7.48169211356833
30
0
41
1
10
33.8508442453495
20
7.64315621198188
30
0
41
1
10
34.2351469596086
20
7.71724635922266
30
0
41
1
10
35.3870739895611
20
7.91831364496477
30
0
41
1
10
36.1566736978157
20
8.0225684316494
30
0
41
1
10
37.3110837895146
20
8.13597071848901
30
0
41
1
10
37.6954685007616
20
8.16662739339333
30
0
41
1
10
38.4662008643811
20
8.21262290589939
30
0
41
1
10
38.8525958806915
20
8.22802915807736
30
0
41
1
10
39.6269245277485
20
8.24379589683164
30
0
41
1
10
40.0148689134243
20
8.24415378903942
30
0
41
1
10
40.7919539656435
20
8.22943142704403
30
0
41
1
10
41.1814353517201
20
8.2141900866088
30
0
41
1
10
42.3471980924909
20
8.1460058428311
30
0
41
1
10
43.1218127435842
20
8.07094486284566
30
0
41
1
10
44.277117366556
20
7.91347468655951
30
0
41
1
10
44.6616206979426
20
7.85365136611662
30
0
41
1
10
45.4311268971938
20
7.72060968863681
30
0
41
1
10
45.8158076568506
20
7.64723124390682
30
0
41
1
10
46.5845906418503
20
7.48651423145103
30
0
41
1
10
46.9686007179853
20
7.39909058455424
30
0
41
1
10
47.7360855626997
20
7.21002945448868
30
0
41
1
10
48.120472868961
20
7.10922059685799
30
0
41
1
10
48.8903808373244
20
6.89512362313084
30
0
41
1
10
49.2758114011659
20
6.78174648165364
30
0
41
1
10
50.0473217001589
20
6.54184353710005
30
0
41
1
10
50.4329948481295
20
6.41478514980778
30
0
41
1
10
51.2065528615954
20
6.1490629450042
30
0
41
1
10
51.5946575995038
20
6.01075007754827
30
0
41
1
10
52.3730519305116
20
5.72260399688093
30
0
41
1
10
52.7632808433399
20
5.57273971631548
30
0
41
1
10
53.5395459218318
20
5.26312153791503
30
0
41
1
10
53.9260125568218
20
5.10256535131944
30
0
41
1
10
54.6988354617987
20
4.77507406948013
30
0
41
1
10
55.0849238100885
20
4.60775007222534
30
0
41
1
10
55.8559042211261
20
4.26516737255824
30
0
41
1
10
56.2408588748687
20
4.09001178261255
30
0
41
1
10
57.0091214562811
20
3.73094348926398
30
0
41
1
10
57.3927012868493
20
3.54746806757146
30
0
41
1
10
58.5452792934063
20
2.99140677466661
30
0
41
1
10
59.3144980320454
20
2.61052210522095
30
0
41
1
10
60.851621020743
20
1.82243586855739
30
0
41
1
10
61.6237820439379
20
1.42320633060703
30
0
41
1
10
62.7859722724563
20
0.813736205264178
30
0
41
1
10
63.1736492915875
20
0.608013950000014
30
0
41
1
10
63.9514242290145
20
0.19502123752315
30
0
41
1
10
64.3408606981503
20
-0.0108203639695148
30
0
41
1
10
65.1169832564832
20
-0.42026177994245
30
0
41
1
10
65.5041660459522
20
-0.624208857459251
30
0
41
1
10
66.276465228609
20
-1.03119435530815
30
0
41
1
10
66.6611776777451
20
-1.2350010893357
30
0
41
1
10
67.8157659796796
20
-1.83813241406389
30
0
41
1
10
68.585341123992
20
-2.23081068558136
30
0
41
1
10
69.7367164436661
20
-2.81096253880952
30
0
41
1
10
70.1200267955111
20
-3.0027931122703
30
0
41
1
10
70.888520880487
20
-3.37824642347948
30
0
41
1
10
71.273313426462
20
-3.56259329718742
30
0
41
1
10
72.0434690687218
20
-3.92544585709507
30
0
41
1
10
72.4288755185443
20
-4.10387622263377
30
0
41
1
10
73.1998725201803
20
-4.45541687721467
30
0
41
1
10
73.5862172170832
20
-4.6272390879422
30
0
41
1
10
74.3615806756905
20
-4.96137879224574
30
0
41
1
10
74.7504446331679
20
-5.12414983176058
30
0
41
1
10
75.5296312863779
20
-5.44134880700244
30
0
41
1
10
75.9176254792944
20
-5.59529499416109
30
0
41
1
10
77.0786217056736
20
-6.04040940669816
30
0
41
1
10
77.851196814789
20
-6.31153022556433
30
0
41
1
10
79.0055758865498
20
-6.68420475308065
30
0
41
1
10
79.3891950411042
20
-6.80314155506181
30
0
41
1
10
80.1570387811224
20
-7.02710393766566
30
0
41
1
10
80.5412377741569
20
-7.13222937830548
30
0
41
1
10
81.3096538889862
20
-7.32949322528123
30
0
41
1
10
81.6938913381795
20
-7.42161030063843
30
0
41
1
10
82.4620042556364
20
-7.59299578440388
30
0
41
1
10
82.8457000659339
20
-7.67233523211743
30
0
41
1
10
84.0004195329175
20
-7.88772508185983
30
0
41
1
10
84.7735952718164
20
-8.00270132801751
30
0
41
1
10
85.7420067379427
20
-8.11077939884976
30
0
41
1
10
85.9358158727136
20
-8.13057301034593
30
0
41
1
10
86.3243338630796
20
-8.16625430607724
30
0
41
1
10
86.5191369150472
20
-8.182184292388
30
0
41
1
10
87.1029795450478
20
-8.22413005496651
30
0
41
1
10
87.4916103553543
20
-8.24436444397557
30
0
41
1
10
88.1916468430629
20
-8.26717512313607
30
0
41
1
10
88.5032466956715
20
-8.27242050695483
30
0
41
1
10
88.8143629761796
20
-8.27268568249528
30
0
0
SPLINE
5
D6
100
AcDbEntity
8
1
62
256
6
ByLayer
370
18
48
1
60
0
100
AcDbSpline
70
4
71
3
72
12
73
8
40
0
40
0
40
0
40
0
40
0.25
40
0.25
40
0.5
40
0.5
40
1
40
1
40
1
40
1
41
1
10
92.5163357981706
20
-8.04350753013273
30
0
41
1
10
92.4766991567004
20
-8.07334163742266
30
0
41
1
10
92.4378902935791
20
-8.10048829017333
30
0
41
1
10
92.3619329458895
20
-8.14921061716277
30
0
41
1
10
92.3248297640999
20
-8.17074066976861
30
0
41
1
10
92.2172536647801
20
-8.22611557472538
30
0
41
1
10
92.1500649529396
20
-8.25106002004253
30
0
41
1
10
92.0871430621767
20
-8.26407237755228
30
0
0
SPLINE
5
D7
100
AcDbEntity
8
1
62
256
6
ByLayer
370
18
48
1
60
0
100
AcDbSpline
70
4
71
3
72
10
73
6
40
0
40
0
40
0
40
0
40
0.5
40
0.5
40
1
40
1
40
1
40
1
41
1
10
94.9696354961031
20
-0.232618009795687
30
0
41
1
10
94.9703339270511
20
-0.209776278726878
30
0
41
1
10
94.9738435511071
20
-0.182946244614556
30
0
41
1
10
94.9844079292333
20
-0.12564269047553
30
0
41
1
10
94.9913870377776
20
-0.0956012801611337
30
0
41
1
10
94.9999529974427
20
-0.0642674091467086
30
0
0
SPLINE
5
D8
100
AcDbEntity
8
1
62
256
6
ByLayer
370
18
48
1
60
0
100
AcDbSpline
70
4
71
3
72
8
73
4
40
0
40
0
40
0
40
0
40
1
40
1
40
1
40
1
41
1
10
18.3968680181999
20
7.77069515612709
30
0
41
1
10
17.8668101754279
20
7.79768125610548
30
0
41
1
10
17.341206611644
20
7.8128829634021
30
0
41
1
10
16.8186956910923
20
7.81545985025878
30
0
0
SPLINE
5
D9
100
AcDbEntity
8
1
62
256
6
ByLayer
370
18
48
1
60
0
100
AcDbSpline
70
4
71
3
72
8
73
4
40
0
40
0
40
0
40
0
40
1
40
1
40
1
40
1
41
1
10
94.9999529974426
20
0.0642674091464812
30
0
41
1
10
95.0000156697768
20
0.0214209273930521
30
0
41
1
10
95.0000156641847
20
-0.0214247505088565
30
0
41
1
10
94.9999529974427
20
-0.0642674091467086
30
0
0
SPLINE
5
DA
100
AcDbEntity
8
1
62
256
6
ByLayer
370
18
48
1
60
0
100
AcDbSpline
70
4
71
3
72
44
73
40
40
0
40
0
40
0
40
0
40
0.0860290111685723
40
0.0860290111685723
40
0.148058151588674
40
0.148058151588674
40
0.179072721798724
40
0.179072721798724
40
0.210087292008775
40
0.210087292008775
40
0.334145572848978
40
0.334145572848978
40
0.458203853689181
40
0.458203853689181
40
0.520232994109283
40
0.520232994109283
40
0.551247564319333
40
0.551247564319333
40
0.566754849424359
40
0.566754849424359
40
0.574508491976871
40
0.574508491976871
40
0.578385313253127
40
0.578385313253127
40
0.582262134529384
40
0.582262134529384
40
0.644291274949486
40
0.644291274949486
40
0.706320415369588
40
0.706320415369588
40
0.830378696209792
40
0.830378696209792
40
0.892407836629894
40
0.892407836629894
40
0.923422406839944
40
0.923422406839944
40
0.954436977049995
40
0.954436977049995
40
1
40
1
40
1
40
1
41
1
10
18.3968680181994
20
-1.59124745591817
30
0
41
1
10
18.3968680181996
20
-1.49141381396612
30
0
41
1
10
18.3968680181999
20
-1.41246673116694
30
0
41
1
10
18.3968680181999
20
-1.31137271043093
30
0
41
1
10
18.3968680181998
20
-1.27957853337838
30
0
41
1
10
18.3968680181998
20
-1.24780648958384
30
0
41
1
10
18.3968680181999
20
-1.23987295324929
30
0
41
1
10
18.3968680181999
20
-1.22942319567491
30
0
41
1
10
18.3968680181998
20
-1.2268784703337
30
0
41
1
10
18.3968680181998
20
-1.22719335167707
30
0
41
1
10
18.3968680181999
20
-1.26892497846018
30
0
41
1
10
18.3968680181999
20
-1.43031825534931
30
0
41
1
10
18.3968680181999
20
-1.55000968200852
30
0
41
1
10
18.3968680181999
20
-1.78840125944205
30
0
41
1
10
18.3968680181999
20
-1.87727680756123
30
0
41
1
10
18.3968680181999
20
-2.02415637731545
30
0
41
1
10
18.3968680181999
20
-2.07540909857289
30
0
41
1
10
18.3968680181999
20
-2.15565772970771
30
0
41
1
10
18.3968680181999
20
-2.18296219171464
30
0
41
1
10
18.3968680181999
20
-2.22474897231447
30
0
41
1
10
18.3968680181999
20
-2.24648712766441
30
0
41
1
10
18.3968680181999
20
-2.28723249034158
30
0
41
1
10
18.3968680181999
20
-2.30224248408041
30
0
41
1
10
18.3968680181999
20
-2.33311946819361
30
0
41
1
10
18.3968680181998
20
-2.34857904123785
30
0
41
1
10
18.3968680181998
20
-2.61175095672149
30
0
41
1
10
18.3968680181998
20
-2.86366932276127
30
0
41
1
10
18.3968680181998
20
-3.37605672329084
30
0
41
1
10
18.3968680181999
20
-3.63716190156328
30
0
41
1
10
18.3968680181999
20
-4.42609109717142
30
0
41
1
10
18.3968680181999
20
-4.96104014475981
30
0
41
1
10
18.3968680181999
20
-5.77745949602451
30
0
41
1
10
18.3968680181999
20
-6.05194309464383
30
0
41
1
10
18.3968680181999
20
-6.46736490028809
30
0
41
1
10
18.3968680181998
20
-6.60676037764247
30
0
41
1
10
18.3968680181998
20
-6.88488583375926
30
0
41
1
10
18.3968680181999
20
-7.0236641655556
30
0
41
1
10
18.3968680181999
20
-7.36561735572909
30
0
41
1
10
18.3968680181999
20
-7.56846736060263
30
0
41
1
10
18.3968680181999
20
-7.77069515612709
30
0
0
SPLINE
5
DB
100
AcDbEntity
8
1
62
256
6
ByLayer
370
18
48
1
60
0
100
AcDbSpline
70
4
71
3
72
8
73
4
40
0
40
0
40
0
40
0
40
1
40
1
40
1
40
1
41
1
10
94.8890683703974
20
1.88475292560042
30
0
41
1
10
94.9259549051826
20
1.33347469393269
30
0
41
1
10
94.9528137323985
20
0.78276287917376
30
0
41
1
10
94.9696354961031
20
0.232618009795772
30
0
0
SPLINE
5
DC
100
AcDbEntity
8
1
62
256
6
ByLayer
370
18
48
1
60
0
100
AcDbSpline
70
4
71
3
72
34
73
30
40
0
40
0
40
0
40
0
40
0.0625000000000023
40
0.0625000000000023
40
0.0937500000000036
40
0.0937500000000036
40
0.125000000000005
40
0.125000000000005
40
0.187500000000008
40
0.187500000000008
40
0.218750000000009
40
0.218750000000009
40
0.25000000000001
40
0.25000000000001
40
0.375000000000013
40
0.375000000000013
40
0.437500000000012
40
0.437500000000012
40
0.500000000000012
40
0.500000000000012
40
0.625000000000015
40
0.625000000000015
40
0.687500000000014
40
0.687500000000014
40
0.750000000000013
40
0.750000000000013
40
0.875000000000007
40
0.875000000000007
40
1
40
1
40
1
40
1
41
1
10
84.4005476594004
20
2.8589519745758
30
0
41
1
10
84.3848076880431
20
2.61124683035968
30
0
41
1
10
84.3873708992103
20
2.35887127631838
30
0
41
1
10
84.4189469818554
20
1.97323177822784
30
0
41
1
10
84.4341761363049
20
1.84304276327276
30
0
41
1
10
84.4737246940716
20
1.58236856592893
30
0
41
1
10
84.4978647362448
20
1.45282049827347
30
0
41
1
10
84.5825671463469
20
1.06639609103553
30
0
41
1
10
84.6553677429237
20
0.811731585066042
30
0
41
1
10
84.786794841879
20
0.433751801665181
30
0
41
1
10
84.8343191824993
20
0.308430013711757
30
0
41
1
10
84.9365248113187
20
0.0590799237886017
30
0
41
1
10
84.991002551409
20
-0.0643967641589143
30
0
41
1
10
85.2762548239142
20
-0.670313953752043
30
0
41
1
10
85.5473552583172
20
-1.12499596066866
30
0
41
1
10
86.0019181273691
20
-1.77345505102988
30
0
41
1
10
86.1621300261327
20
-1.98449220787972
30
0
41
1
10
86.4912442384822
20
-2.3892505017873
30
0
41
1
10
86.6607430960768
20
-2.58391388522693
30
0
41
1
10
87.182010166991
20
-3.14796492182671
30
0
41
1
10
87.5466789864403
20
-3.49721031819763
30
0
41
1
10
88.1152688675721
20
-3.98737426873336
30
0
41
1
10
88.3084483761299
20
-4.14532371261089
30
0
41
1
10
88.700819239706
20
-4.45076679585014
30
0
41
1
10
88.8986718767601
20
-4.59719887897364
30
0
41
1
10
89.4967421017391
20
-5.01947262304645
30
0
41
1
10
89.901449163806
20
-5.27837794036682
30
0
41
1
10
90.7211164606035
20
-5.75750893235269
30
0
41
1
10
91.1360750633044
20
-5.9777407637784
30
0
41
1
10
91.555713727747
20
-6.18031726824168
30
0
0
SPLINE
5
DD
100
AcDbEntity
8
1
62
256
6
ByLayer
370
18
48
1
60
0
100
AcDbSpline
70
4
71
3
72
12
73
8
40
0
40
0
40
0
40
0
40
0.250000000000003
40
0.250000000000003
40
0.500000000000007
40
0.500000000000007
40
1
40
1
40
1
40
1
41
1
10
92.516335798173
20
8.04350753013094
30
0
41
1
10
92.4766991567025
20
8.07334163742115
30
0
41
1
10
92.437890293581
20
8.10048829017205
30
0
41
1
10
92.3619329458911
20
8.14921061716188
30
0
41
1
10
92.3248297641012
20
8.17074066976789
30
0
41
1
10
92.2172536647806
20
8.2261155747251
30
0
41
1
10
92.1500649529401
20
8.25106002004247
30
0
41
1
10
92.0871430621768
20
8.26407237755228
30
0
0
SPLINE
5
DE
100
AcDbEntity
8
1
62
256
6
ByLayer
370
18
48
1
60
0
100
AcDbSpline
70
4
71
3
72
18
73
14
40
0
40
0
40
0
40
0
40
0.0089104654521219
40
0.0089104654521219
40
0.548939044324505
40
0.548939044324505
40
0.683946189042599
40
0.683946189042599
40
0.751449761401645
40
0.751449761401645
40
0.818953333760691
40
0.818953333760691
40
1
40
1
40
1
40
1
41
1
10
42.8433376402613
20
-7.82831601811233
30
0
41
1
10
42.8131273329628
20
-7.82861515058616
30
0
41
1
10
42.7829194939735
20
-7.82887023684256
30
0
41
1
10
40.9220781807427
20
-7.84187269543702
30
0
41
1
10
39.0999465048636
20
-7.69258363118459
30
0
41
1
10
36.8049958571587
20
-7.31067478102693
30
0
41
1
10
36.3450925626186
20
-7.22456969261296
30
0
41
1
10
35.6534310391147
20
-7.08104167420774
30
0
41
1
10
35.4223735402455
20
-7.03074871010381
30
0
41
1
10
34.9610972568364
20
-6.92576524610945
30
0
41
1
10
34.7307732067669
20
-6.87105732981036
30
0
41
1
10
33.8836795535514
20
-6.66167098229906
30
0
41
1
10
33.2685596310579
20
-6.49366018994101
30
0
41
1
10
32.6544898223164
20
-6.3113237967066
30
0
0
SPLINE
5
DF
100
AcDbEntity
8
1
62
256
6
ByLayer
370
13
48
1
60
0
100
AcDbSpline
70
4
71
3
72
24
73
20
40
0
40
0
40
0
40
0
40
0.0478080563581824
40
0.0478080563581824
40
0.338000328699715
40
0.338000328699715
40
0.374274362742406
40
0.374274362742406
40
0.410548396785098
40
0.410548396785098
40
0.483096464870479
40
0.483096464870479
40
0.628192601041241
40
0.628192601041241
40
0.918384873382769
40
0.918384873382769
40
0.990932941468151
40
0.990932941468151
40
1
40
1
40
1
40
1
41
1
10
32.654489822086
20
-6.31132379663819
30
0
41
1
10
32.3527315379839
20
-6.22172239241735
30
0
41
1
10
32.0512268363695
20
-6.12866162819753
30
0
41
1
10
29.92067473829
20
-5.44724782139099
30
0
41
1
10
28.0973480145486
20
-4.7394355667212
30
0
41
1
10
26.0271012253875
20
-3.8424576397039
30
0
41
1
10
25.7968001340098
20
-3.74140962425747
30
0
41
1
10
25.3355996022248
20
-3.53664450295483
30
0
41
1
10
25.1044864198028
20
-3.43283121321551
30
0
41
1
10
24.4126026889502
20
-3.11874635989204
30
0
41
1
10
23.9527850431366
20
-2.9056233335142
30
0
41
1
10
22.5764229715154
20
-2.2575112093667
30
0
41
1
10
21.6630691489156
20
-1.8135855191515
30
0
41
1
10
18.9272703057023
20
-0.463316205158634
30
0
41
1
10
17.1092203904508
20
0.461816366089607
30
0
41
1
10
14.8159870241947
20
1.59241170314661
30
0
41
1
10
14.3563077091998
20
1.81724004582378
30
0
41
1
10
13.8376484392028
20
2.06795988986039
30
0
41
1
10
13.7799921603306
20
2.0957892279508
30
0
41
1
10
13.722313949057
20
2.12358554808836
30
0
0
SPLINE
5
E0
100
AcDbEntity
8
1
62
256
6
ByLayer
370
18
48
1
60
0
100
AcDbSpline
70
4
71
3
72
8
73
4
40
0
40
0
40
0
40
0
40
1
40
1
40
1
40
1
41
1
10
92.2152265638163
20
-7.94679297985488
30
0
41
1
10
92.1726258850272
20
-8.05273683130719
30
0
41
1
10
92.1299288640917
20
-8.15849543241262
30
0
41
1
10
92.0871430621767
20
-8.26407237755228
30
0
0
SPLINE
5
E1
100
AcDbEntity
8
1
62
256
6
ByLayer
370
18
48
1
60
0
100
AcDbSpline
70
4
71
3
72
14
73
10
40
0
40
0
40
0
40
0
40
0.25
40
0.25
40
0.5
40
0.5
40
0.75
40
0.75
40
1
40
1
40
1
40
1
41
1
10
92.5163357981649
20
-8.04350753015368
30
0
41
1
10
92.7006619502279
20
-7.52274981035052
30
0
41
1
10
92.888800955331
20
-7.00428629859147
30
0
41
1
10
93.2718034248251
20
-5.97116666187
30
0
41
1
10
93.4667026352759
20
-5.45653202972491
30
0
41
1
10
93.8627663575044
20
-4.43062831248744
30
0
41
1
10
94.0639445537773
20
-3.91936749559139
30
0
41
1
10
94.4721962906139
20
-2.89987353075003
30
0
41
1
10
94.6792243581799
20
-2.39161671899802
30
0
41
1
10
94.8890683703974
20
-1.88475292560025
30
0
0
SPLINE
5
E2
100
AcDbEntity
8
1
62
256
6
ByLayer
370
18
48
1
60
0
100
AcDbSpline
70
4
71
3
72
8
73
4
40
0
40
0
40
0
40
0
40
1
40
1
40
1
40
1
41
1
10
3.99999989292917
20
-4.73860116297394
30
0
41
1
10
3.99999989292917
20
-4.65787733292086
30
0
41
1
10
3.99999989292917
20
-4.57691822606185
30
0
41
1
10
3.99999989292917
20
-4.49572204039401
30
0
0
SPLINE
5
E3
100
AcDbEntity
8
1
62
256
6
ByLayer
370
18
48
1
60
0
100
AcDbSpline
70
4
71
3
72
28
73
24
40
0
40
0
40
0
40
0
40
0.0625000000000002
40
0.0625000000000002
40
0.125
40
0.125
40
0.187500000000001
40
0.187500000000001
40
0.250000000000001
40
0.250000000000001
40
0.375000000000001
40
0.375000000000001
40
0.500000000000002
40
0.500000000000002
40
0.625000000000002
40
0.625000000000002
40
0.687500000000002
40
0.687500000000002
40
0.750000000000001
40
0.750000000000001
40
0.875000000000001
40
0.875000000000001
40
1
40
1
40
1
40
1
41
1
10
4.25124349513467
20
-4.304288893956
30
0
41
1
10
4.49771082762618
20
-4.51048663402929
30
0
41
1
10
4.75485782178083
20
-4.69836488286691
30
0
41
1
10
5.28347043751145
20
-5.04830206560703
30
0
41
1
10
5.5550192040028
20
-5.21022717414056
30
0
41
1
10
6.10876780764767
20
-5.51387577027296
30
0
41
1
10
6.39108641340241
20
-5.65559153817
30
0
41
1
10
6.96372293091687
20
-5.92219724822627
30
0
41
1
10
7.25189718252281
20
-6.04609797360777
30
0
41
1
10
8.12053223882342
20
-6.39440676979578
30
0
41
1
10
8.70502801570592
20
-6.59537500700606
30
0
41
1
10
9.88096453095244
20
-6.95145959687579
30
0
41
1
10
10.4726651120641
20
-7.10383517337024
30
0
41
1
10
11.6629793940574
20
-7.36294695758593
30
0
41
1
10
12.2615090280846
20
-7.47083517951654
30
0
41
1
10
13.1657873912487
20
-7.59902271313399
30
0
41
1
10
13.4683072906605
20
-7.63616603789987
30
0
41
1
10
14.0758397745283
20
-7.70001892546878
30
0
41
1
10
14.3811714380557
20
-7.72679148058023
30
0
41
1
10
15.2987058875525
20
-7.79170973063293
30
0
41
1
10
15.9122308737219
20
-7.81309176492465
30
0
41
1
10
17.147309766193
20
-7.81809129563192
30
0
41
1
10
17.7689194725078
20
-7.80266502972924
30
0
41
1
10
18.3968680181996
20
-7.77069515612695
30
0
0
SPLINE
5
E4
100
AcDbEntity
8
1
62
256
6
ByLayer
370
18
48
1
60
0
100
AcDbSpline
70
4
71
3
72
8
73
4
40
0
40
0
40
0
40
0
40
1
40
1
40
1
40
1
41
1
10
94.9675068340607
20
-0.0052616845308364
30
0
41
1
10
94.4498237800782
20
-0.851271598102812
30
0
41
1
10
93.946218245043
20
-1.71005303385604
30
0
41
1
10
93.4569169725403
20
-2.58181169996541
30
0
0
SPLINE
5
E5
100
AcDbEntity
8
1
62
256
6
ByLayer
370
18
48
1
60
0
100
AcDbSpline
70
4
71
3
72
8
73
4
40
0
40
0
40
0
40
0
40
1
40
1
40
1
40
1
41
1
10
92.0871430621768
20
8.26407237755228
30
0
41
1
10
91.8223522300929
20
8.27104087344085
30
0
41
1
10
91.5574566360243
20
8.2744272120608
30
0
41
1
10
91.2925402402224
20
8.27423324691895
30
0
0
SPLINE
5
E6
100
AcDbEntity
8
1
62
256
6
ByLayer
370
18
48
1
60
0
100
AcDbSpline
70
4
71
3
72
50
73
46
40
0
40
0
40
0
40
0
40
0.0406751789206961
40
0.0406751789206961
40
0.0726526729566728
40
0.0726526729566728
40
0.10463016699265
40
0.10463016699265
40
0.168585155064604
40
0.168585155064604
40
0.20056264910058
40
0.20056264910058
40
0.232540143136556
40
0.232540143136556
40
0.29649513120851
40
0.29649513120851
40
0.328472625244486
40
0.328472625244486
40
0.360450119280463
40
0.360450119280463
40
0.424405107352417
40
0.424405107352417
40
0.456382601388394
40
0.456382601388394
40
0.48836009542437
40
0.48836009542437
40
0.552315083496324
40
0.552315083496324
40
0.584292577532301
40
0.584292577532301
40
0.616270071568278
40
0.616270071568278
40
0.680225059640233
40
0.680225059640233
40
0.712202553676209
40
0.712202553676209
40
0.744180047712186
40
0.744180047712186
40
0.80813503578414
40
0.80813503578414
40
0.840112529820117
40
0.840112529820117
40
0.872090023856093
40
0.872090023856093
40
1
40
1
40
1
40
1
41
1
10
47.1729447849175
20
-7.84662691685256
30
0
41
1
10
46.5900882704195
20
-7.94109416380195
30
0
41
1
10
46.007531041034
20
-8.01906373703497
30
0
41
1
10
44.9661197986614
20
-8.12815613948433
30
0
41
1
10
44.5074255587088
20
-8.16572448067822
30
0
41
1
10
43.5886697761395
20
-8.21962641742371
30
0
41
1
10
43.1289315165262
20
-8.23591318510671
30
0
41
1
10
41.7525912942607
20
-8.252554693251
30
0
41
1
10
40.8369809921407
20
-8.22082265402531
30
0
41
1
10
39.4618120541805
20
-8.1097607749364
30
0
41
1
10
39.0031178647144
20
-8.06217145190453
30
0
41
1
10
38.0844047485418
20
-7.94599362868232
30
0
41
1
10
37.6245367634185
20
-7.87739081370538
30
0
41
1
10
36.2479424200064
20
-7.6416863415663
30
0
41
1
10
35.3322115085481
20
-7.44442200200524
30
0
41
1
10
33.9569917854805
20
-7.09210641347607
30
0
41
1
10
33.49828750082
20
-6.96529451678848
30
0
41
1
10
32.579612238444
20
-6.69348119934108
30
0
41
1
10
32.1196424796129
20
-6.54845371585222
30
0
41
1
10
30.7427366314886
20
-6.08961426556323
30
0
41
1
10
29.8269721898511
20
-5.75111767269894
30
0
41
1
10
28.4516310351781
20
-5.20121937701217
30
0
41
1
10
27.992930537243
20
-5.01085967558174
30
0
41
1
10
27.0743029555708
20
-4.61700561151829
30
0
41
1
10
26.6142331938954
20
-4.41347084409787
30
0
41
1
10
25.237076163149
20
-3.78808727751598
30
0
41
1
10
24.3211974394437
20
-3.3502258197266
30
0
41
1
10
22.9458593620148
20
-2.67047783950582
30
0
41
1
10
22.4871552981282
20
-2.44008117798907
30
0
41
1
10
21.5685293321396
20
-1.97289060498514
30
0
41
1
10
21.108369466864
20
-1.73598316081853
30
0
41
1
10
19.7309672663587
20
-1.0211906595826
30
0
41
1
10
18.8149290665505
20
-0.538080696442648
30
0
41
1
10
17.4395092275383
20
0.187502619859231
30
0
41
1
10
16.9808018013043
20
0.429503040302421
30
0
41
1
10
16.0621845689914
20
0.912384614315329
30
0
41
1
10
15.601938129333
20
1.1534237762454
30
0
41
1
10
14.2243623087895
20
1.86928519091424
30
0
41
1
10
13.308485771884
20
2.33805654850369
30
0
41
1
10
11.9335944582369
20
3.01969505857761
30
0
41
1
10
11.4751355299649
20
3.24335515221591
30
0
41
1
10
10.5571285246406
20
3.68218503313099
30
0
41
1
10
10.0970210789534
20
3.89758211027547
30
0
41
1
10
7.79923595934176
20
4.94615653203357
30
0
41
1
10
5.97262317136506
20
5.69354925894115
30
0
41
1
10
4.13338334189734
20
6.31372525802229
30
0
0
SPLINE
5
E7
100
AcDbEntity
8
1
62
256
6
ByLayer
370
18
48
1
60
0
100
AcDbSpline
70
4
71
2
72
6
73
3
40
0
40
0
40
0
40
1
40
1
40
1
41
1
10
66.7952296983922
20
-6.55713328968E-05
30
0
41
1
10
66.795244439526
20
-5.83748370104E-05
30
0
41
1
10
66.7952591806479
20
-5.14974841224E-05
30
0
0
SPLINE
5
E8
100
AcDbEntity
8
1
62
256
6
ByLayer
370
18
48
1
60
0
100
AcDbSpline
70
4
71
2
72
6
73
3
40
0
40
0
40
0
40
1
40
1
40
1
41
1
10
91.5238691251219
20
-7.86074560651235
30
0
41
1
10
91.83444736688
20
-7.86033312291704
30
0
41
1
10
92.145019423895
20
-7.8611132824025
30
0
0
SPLINE
5
E9
100
AcDbEntity
8
1
62
256
6
ByLayer
370
18
48
1
60
0
100
AcDbSpline
70
4
71
3
72
34
73
30
40
0
40
0
40
0
40
0
40
0.0320864950701416
40
0.063239917930554
40
0.0906015115916358
40
0.116272590548225
40
0.140832788408047
40
0.164666760354464
40
0.190499289790269
40
0.216552295102963
40
0.241988212150773
40
0.264965582698299
40
0.290531493383715
40
0.32066637041694
40
0.347617641104892
40
0.386341341332245
40
0.437036084601317
40
0.477946849745537
40
0.51509590650526
40
0.563013107738908
40
0.611364856001782
40
0.662169314578996
40
0.715251369620926
40
0.762481170688133
40
0.814130567236722
40
0.85926939289334
40
0.907646843150603
40
0.961698448597231
40
1
40
1
40
1
40
1
41
1
10
42.4747386431428
20
-7.8295793236905
30
0
41
1
10
42.7184948409731
20
-7.82906251329376
30
0
41
1
10
43.2025666539993
20
-7.82853450987929
30
0
41
1
10
43.9179203990618
20
-7.82639362431388
30
0
41
1
10
44.5713330147792
20
-7.83042923621039
30
0
41
1
10
45.1702769783343
20
-7.83178555570615
30
0
41
1
10
45.7504644804601
20
-7.83202215485994
30
0
41
1
10
46.3333777715533
20
-7.8322811667349
30
0
41
1
10
46.9276923782733
20
-7.83286402501489
30
0
41
1
10
47.5346506257012
20
-7.83349893263212
30
0
41
1
10
48.1191776488092
20
-7.8337017230958
30
0
41
1
10
48.6999152619515
20
-7.83379806281948
30
0
41
1
10
49.3175288236824
20
-7.8340711531354
30
0
41
1
10
49.9663426766588
20
-7.83518395420737
30
0
41
1
10
50.7184378343846
20
-7.83552527732925
30
0
41
1
10
51.6319355535349
20
-7.83513592439081
30
0
41
1
10
52.6549939939145
20
-7.83662937420277
30
0
41
1
10
53.6657083258849
20
-7.83670731987851
30
0
41
1
10
54.6546046039262
20
-7.83652763271695
30
0
41
1
10
55.7019294296384
20
-7.83869974756021
30
0
41
1
10
56.8564422542639
20
-7.83738797782274
30
0
41
1
10
58.0515008983776
20
-7.83997897587764
30
0
41
1
10
59.2377495492961
20
-7.8392031447442
30
0
41
1
10
60.4306333411636
20
-7.84034822949718
30
0
41
1
10
61.5611383708622
20
-7.84102743186475
30
0
41
1
10
62.7007707418486
20
-7.8414013834456
30
0
41
1
10
63.8587514793285
20
-7.84310844809062
30
0
41
1
10
64.96491485704
20
-7.84254088985941
30
0
41
1
10
65.6853069249096
20
-7.84252232374411
30
0
41
1
10
65.9835448860938
20
-7.84247052806731
30
0
0
SPLINE
5
EA
100
AcDbEntity
8
1
62
256
6
ByLayer
370
18
48
1
60
0
100
AcDbSpline
70
4
71
1
72
4
73
2
40
0
40
0
40
1
40
1
41
1
10
17.7857534318582
20
0.0048492737668937
30
0
41
1
10
17.785738424502
20
0.0048540834840765
30
0
0
SPLINE
5
EB
100
AcDbEntity
8
1
62
256
6
ByLayer
370
18
48
1
60
0
100
AcDbSpline
70
4
71
3
72
26
73
22
40
0
40
0
40
0
40
0
40
0.0573239472825612
40
0.112533790836879
40
0.16290878509599
40
0.235971190691878
40
0.304771591078915
40
0.349756883883385
40
0.399316826897674
40
0.451401389859298
40
0.497345204574864
40
0.544623321036177
40
0.59936575462572
40
0.643593811107686
40
0.685731402434462
40
0.743991116686868
40
0.79051142444545
40
0.846097234749141
40
0.914343703426357
40
0.974451863961141
40
1
40
1
40
1
40
1
41
1
10
65.9695152600601
20
7.8426315340258
30
0
41
1
10
65.6112199676227
20
7.84255256570827
30
0
41
1
10
64.9066948278259
20
7.84237384602983
30
0
41
1
10
63.8815264912059
20
7.84300164407102
30
0
41
1
10
62.7581611153992
20
7.8416203855808
30
0
41
1
10
61.5490275553744
20
7.84113778014307
30
0
41
1
10
60.3738773033356
20
7.84005502943035
30
0
41
1
10
59.346531942927
20
7.83922402090636
30
0
41
1
10
58.4243184402913
20
7.84014091988735
30
0
41
1
10
57.4960732172551
20
7.83827059945767
30
0
41
1
10
56.5821810866952
20
7.83795121463049
30
0
41
1
10
55.6515710862267
20
7.8384434788567
30
0
41
1
10
54.7317517773528
20
7.8367472943693
30
0
41
1
10
53.8442673447768
20
7.83659384390199
30
0
41
1
10
52.9346723367606
20
7.83679622710656
30
0
41
1
10
52.0106454138883
20
7.83548486533147
30
0
41
1
10
51.0020447718518
20
7.83543727184986
30
0
41
1
10
49.9306173323291
20
7.83530427981941
30
0
41
1
10
48.7738040350082
20
7.83350743374976
30
0
41
1
10
47.8056597772658
20
7.83371277336994
30
0
41
1
10
47.2672008628529
20
7.83321990048029
30
0
41
1
10
47.1065696312541
20
7.8330582237667
30
0
0
SPLINE
5
EC
100
AcDbEntity
8
1
62
256
6
ByLayer
370
18
48
1
60
0
100
AcDbSpline
70
4
71
3
72
28
73
24
40
0
40
0
40
0
40
0
40
0.0651610050434545
40
0.135860587784142
40
0.19233501528285
40
0.248805857029636
40
0.293188938296395
40
0.331721847288788
40
0.382566824747817
40
0.446810226142927
40
0.515397728451843
40
0.579886950602458
40
0.625379908204019
40
0.66870708104222
40
0.710042593967774
40
0.75007098490506
40
0.795644831714037
40
0.843583992137892
40
0.878153208022329
40
0.909173226122338
40
0.947727829424301
40
0.995578554589901
40
1
40
1
40
1
40
1
41
1
10
4.25078271910513
20
-7.80662210017377
30
0
41
1
10
4.52407312329558
20
-7.80757769070166
30
0
41
1
10
5.09388401830472
20
-7.80918631810238
30
0
41
1
10
5.90055546184578
20
-7.81010035220774
30
0
41
1
10
6.67078270881615
20
-7.81035648038198
30
0
41
1
10
7.33062569828121
20
-7.81040198584975
30
0
41
1
10
7.91523007718399
20
-7.81041670528344
30
0
41
1
10
8.47622734916598
20
-7.8103276561886
30
0
41
1
10
9.12053462514638
20
-7.81045329726479
30
0
41
1
10
9.89082807027205
20
-7.81263494852078
30
0
41
1
10
10.7183955342812
20
-7.81294626515657
30
0
41
1
10
11.467348919719
20
-7.81299931604036
30
0
41
1
10
12.1102931172208
20
-7.81370233498046
30
0
41
1
10
12.6560920822025
20
-7.81440279482675
30
0
41
1
10
13.1790418053226
20
-7.8144771498427
30
0
41
1
10
13.7114331960288
20
-7.81442978666874
30
0
41
1
10
14.2715175465842
20
-7.8145993651693
30
0
41
1
10
14.8087147144599
20
-7.81522571792115
30
0
41
1
10
15.2848442400261
20
-7.81580861761691
30
0
41
1
10
15.7216632847544
20
-7.81592874489886
30
0
41
1
10
16.2128384797311
20
-7.81580790300239
30
0
41
1
10
16.5922012855298
20
-7.81529039505381
30
0
41
1
10
16.8114448814856
20
-7.81547904033673
30
0
41
1
10
16.8299923740953
20
-7.81549630923507
30
0
0
SPLINE
5
ED
100
AcDbEntity
8
1
62
256
6
ByLayer
370
18
48
1
60
0
100
AcDbSpline
70
4
71
3
72
24
73
20
40
0
40
0
40
0
40
0
40
0.0440636072394518
40
0.0823561690929438
40
0.113773103294507
40
0.141441518153645
40
0.178811820409794
40
0.263192672199539
40
0.338107931559916
40
0.419878835277237
40
0.49554435018326
40
0.575916200727493
40
0.644394713264421
40
0.694543307682235
40
0.742859900348635
40
0.807587157819665
40
0.864084437264796
40
0.934812628052605
40
1
40
1
40
1
40
1
41
1
10
16.8249848929863
20
7.81548791420798
30
0
41
1
10
16.6405327077262
20
7.81554008865612
30
0
41
1
10
16.2958223512134
20
7.81562971963345
30
0
41
1
10
15.8206964739003
20
7.81593676067553
30
0
41
1
10
15.4125634560924
20
7.81586761284049
30
0
41
1
10
15.0081593850063
20
7.81550524420564
30
0
41
1
10
14.3817432700535
20
7.81463254136716
30
0
41
1
10
13.5572287435472
20
7.8143892769686
30
0
41
1
10
12.5465892355155
20
7.81452127901852
30
0
41
1
10
11.5726369263826
20
7.81287385946891
30
0
41
1
10
10.5756010904741
20
7.81307222747586
30
0
41
1
10
9.63439208273979
20
7.81200412437798
30
0
41
1
10
8.80014615344166
20
7.81010805423509
30
0
41
1
10
8.10024076687424
20
7.81044670095031
30
0
41
1
10
7.41608238333947
20
7.81039445091673
30
0
41
1
10
6.70529982633303
20
7.81037023393876
30
0
41
1
10
5.90055592454269
20
7.8100996094486
30
0
41
1
10
5.09388388563764
20
7.80918653106775
30
0
41
1
10
4.52407312329538
20
7.80757769070163
30
0
41
1
10
4.25078271910519
20
7.80662210017374
30
0
0
SPLINE
5
EE
100
AcDbEntity
8
1
62
256
6
ByLayer
370
18
48
1
60
0
100
AcDbSpline
70
4
71
2
72
6
73
3
40
0
40
0
40
0
40
1
40
1
40
1
41
1
10
66.7952591806462
20
5.14974849182E-05
30
0
41
1
10
66.7952444396771
20
5.83747665246E-05
30
0
41
1
10
66.7952296986961
20
6.55711845354E-05
30
0
0
LINE
5
7B
100
AcDbEntity
8
SK1
62
256
6
ByLayer
370
18
48
1
60
0
100
AcDbLine
10
-48
20
-5.486195
30
0
11
-48
21
-6.249315
31
0
39
0
210
0
220
0
230
1
0
LINE
5
7D
100
AcDbEntity
8
SK1
62
256
6
ByLayer
370
18
48
1
60
0
100
AcDbLine
10
-48
20
-6.25
30
0
11
-48
21
-6.249315
31
0
39
0
210
0
220
0
230
1
0
LINE
5
7E
100
AcDbEntity
8
SK1
62
256
6
ByLayer
370
18
48
1
60
0
100
AcDbLine
10
-45.25
20
9
30
0
11
-45.25
21
-9
31
0
39
0
210
0
220
0
230
1
0
LINE
5
7F
100
AcDbEntity
8
SK1
62
256
6
ByLayer
370
18
48
1
60
0
100
AcDbLine
10
-46.1
20
-8.120898
30
0
11
-46.1
21
-7.408739
31
0
39
0
210
0
220
0
230
1
0
LINE
5
80
100
AcDbEntity
8
SK1
62
256
6
ByLayer
370
13
48
1
60
0
100
AcDbLine
10
-46.2
20
-7.267215
30
0
11
-46.2
21
-8.030433
31
0
39
0
210
0
220
0
230
1
0
LINE
5
81
100
AcDbEntity
8
SK1
62
256
6
ByLayer
370
18
48
1
60
0
100
AcDbLine
10
0
20
-9
30
0
11
0
21
9
31
0
39
0
210
0
220
0
230
1
0
LINE
5
82
100
AcDbEntity
8
SK1
62
256
6
ByLayer
370
18
48
1
60
0
100
AcDbLine
10
-48
20
6.25
30
0
11
-48
21
-5.486287
31
0
39
0
210
0
220
0
230
1
0
LINE
5
83
100
AcDbEntity
8
1
62
256
6
ByLayer
370
13
48
1
60
0
100
AcDbLine
10
0.687535
20
8.609019
30
0
11
0.687535
21
-8.609019
31
0
39
0
210
0
220
0
230
1
0
LINE
5
84
100
AcDbEntity
8
1
62
256
6
ByLayer
370
13
48
1
60
0
100
AcDbLine
10
1.375569
20
8.218037
30
0
11
1.375569
21
-8.218037
31
0
39
0
210
0
220
0
230
1
0
LINE
5
85
100
AcDbEntity
8
1
62
256
6
ByLayer
370
18
48
1
60
0
100
AcDbLine
10
0
20
-9
30
0
11
0
21
9
31
0
39
0
210
0
220
0
230
1
0
LINE
5
86
100
AcDbEntity
8
1
62
256
6
ByLayer
370
18
48
1
60
0
100
AcDbLine
10
4
20
8.219678
30
0
11
4
21
6.452971
31
0
39
0
210
0
220
0
230
1
0
LINE
5
87
100
AcDbEntity
8
1
62
256
6
ByLayer
370
13
48
1
60
0
100
AcDbLine
10
92.230184
20
1.966757
30
0
11
94.969635
21
0.232618
31
0
39
0
210
0
220
0
230
1
0
LINE
5
88
100
AcDbEntity
8
1
62
256
6
ByLayer
370
18
48
1
60
0
100
AcDbLine
10
4
20
-8.219678
30
0
11
4
21
-4.738601
31
0
39
0
210
0
220
0
230
1
0
LINE
5
89
100
AcDbEntity
8
1
62
256
6
ByLayer
370
13
48
1
60
0
100
AcDbLine
10
92.054773
20
1.838569
30
0
11
94.967507
21
-0.005262
31
0
39
0
210
0
220
0
230
1
0
LINE
5
8A
100
AcDbEntity
8
80
62
256
6
ByLayer
370
18
48
1
60
0
100
AcDbLine
10
0
20
0
30
0
11
-5
21
0
31
0
39
0
210
0
220
0
230
1
0
LINE
5
8B
100
AcDbEntity
8
4
62
256
6
ByLayer
370
18
48
0.05
60
0
100
AcDbLine
10
95
20
0
30
0
11
0
21
0
31
0
39
0
210
0
220
0
230
1
0
LINE
5
8D
100
AcDbEntity
8
SK4
62
256
6
ByLayer
370
18
48
0.05
60
0
100
AcDbLine
10
100
20
0
30
0
11
-53
21
0
31
0
39
0
210
0
220
0
230
1
0
LINE
5
8F
100
AcDbEntity
8
SK1
62
256
6
ByLayer
370
18
48
1
60
0
100
AcDbLine
10
-45.25
20
-9
30
0
11
0
21
-9
31
0
39
0
210
0
220
0
230
1
0
LINE
5
90
100
AcDbEntity
8
SK1
62
256
6
ByLayer
370
18
48
1
60
0
100
AcDbLine
10
0
20
9
30
0
11
-45.25
21
9
31
0
39
0
210
0
220
0
230
1
0
LINE
5
91
100
AcDbEntity
8
SK1
62
256
6
ByLayer
370
18
48
1
60
0
100
AcDbLine
10
-48
20
-6.25
30
0
11
-45.25
21
-9
31
0
39
0
210
0
220
0
230
1
0
LINE
5
92
100
AcDbEntity
8
SK1
62
256
6
ByLayer
370
18
48
1
60
0
100
AcDbLine
10
-45.25
20
9
30
0
11
-48
21
6.25
31
0
39
0
210
0
220
0
230
1
0
LINE
5
93
100
AcDbEntity
8
1
62
256
6
ByLayer
370
18
48
1
60
0
100
AcDbLine
10
1.375569
20
-8.218037
30
0
11
4
21
-8.219678
31
0
39
0
210
0
220
0
230
1
0
LINE
5
94
100
AcDbEntity
8
1
62
256
6
ByLayer
370
18
48
1
60
0
100
AcDbLine
10
39.824999
20
-8.242068
30
0
11
42.294666
21
-8.243612
31
0
39
0
210
0
220
0
230
1
0
LINE
5
95
100
AcDbEntity
8
1
62
256
6
ByLayer
370
18
48
1
60
0
100
AcDbLine
10
88.819993
20
-8.27269
30
0
11
91.295517
21
-8.274237
31
0
39
0
210
0
220
0
230
1
0
LINE
5
96
100
AcDbEntity
8
1
62
256
6
ByLayer
370
18
48
1
60
0
100
AcDbLine
10
91.295557
20
8.274237
30
0
11
88.819993
21
8.27269
31
0
39
0
210
0
220
0
230
1
0
LINE
5
97
100
AcDbEntity
8
1
62
256
6
ByLayer
370
18
48
1
60
0
100
AcDbLine
10
42.294857
20
8.243612
30
0
11
39.824999
21
8.242068
31
0
39
0
210
0
220
0
230
1
0
LINE
5
98
100
AcDbEntity
8
1
62
256
6
ByLayer
370
18
48
1
60
0
100
AcDbLine
10
4
20
8.219678
30
0
11
1.375569
21
8.218037
31
0
39
0
210
0
220
0
230
1
0
LINE
5
99
100
AcDbEntity
8
81
62
256
6
ByLayer
370
18
48
1
60
0
100
AcDbLine
10
95
20
0
30
0
11
100
21
0
31
0
39
0
210
0
220
0
230
1
0
LINE
5
9A
100
AcDbEntity
8
SK2
62
256
6
ByLayer
370
13
48
1
60
0
100
AcDbLine
10
-56.625163
20
-9
30
0
11
-56.625163
21
39.857173
31
0
39
0
210
0
220
0
230
1
0
LINE
5
9C
100
AcDbEntity
8
SK2
62
256
6
ByLayer
370
13
48
1
60
0
100
AcDbLine
10
-49.5875
20
9
30
0
11
-58.625163
21
9
31
0
39
0
210
0
220
0
230
1
0
LINE
5
9D
100
AcDbEntity
8
SK2
62
256
6
ByLayer
370
13
48
1
60
0
100
AcDbLine
10
-49.5875
20
-9
30
0
11
-58.625163
21
-9
31
0
39
0
210
0
220
0
230
1
0
LINE
5
9E
100
AcDbEntity
8
1
62
256
6
ByLayer
370
18
48
1
60
1
100
AcDbLine
10
-56.625163
20
9
30
0
11
-56.164379
21
5.500002
31
0
39
0
210
0
220
0
230
1
0
LINE
5
9F
100
AcDbEntity
8
1
62
256
6
ByLayer
370
18
48
1
60
1
100
AcDbLine
10
-56.164379
20
5.500002
30
0
11
-57.085946
21
5.499998
31
0
39
0
210
0
220
0
230
1
0
LINE
5
A0
100
AcDbEntity
8
1
62
256
6
ByLayer
370
18
48
1
60
1
100
AcDbLine
10
-57.085946
20
5.499998
30
0
11
-56.625163
21
9
31
0
39
0
210
0
220
0
230
1
0
LINE
5
A1
100
AcDbEntity
8
1
62
256
6
ByLayer
370
18
48
1
60
1
100
AcDbLine
10
-56.625163
20
-9
30
0
11
-57.085946
21
-5.500002
31
0
39
0
210
0
220
0
230
1
0
LINE
5
A2
100
AcDbEntity
8
1
62
256
6
ByLayer
370
18
48
1
60
1
100
AcDbLine
10
-57.085946
20
-5.500002
30
0
11
-56.164379
21
-5.499998
31
0
39
0
210
0
220
0
230
1
0
LINE
5
A3
100
AcDbEntity
8
1
62
256
6
ByLayer
370
18
48
1
60
1
100
AcDbLine
10
-56.164379
20
-5.499998
30
0
11
-56.625163
21
-9
31
0
39
0
210
0
220
0
230
1
0
LINE
5
A4
100
AcDbEntity
8
2
62
256
6
ByLayer
370
13
48
1
60
0
100
AcDbLine
10
107.083343
20
-8.275
30
0
11
107.083343
21
37.725259
31
0
39
0
210
0
220
0
230
1
0
LINE
5
A6
100
AcDbEntity
8
2
62
256
6
ByLayer
370
13
48
1
60
0
100
AcDbLine
10
94.1164
20
8.275
30
0
11
109.083343
21
8.275
31
0
39
0
210
0
220
0
230
1
0
LINE
5
A7
100
AcDbEntity
8
2
62
256
6
ByLayer
370
13
48
1
60
0
100
AcDbLine
10
94.1164
20
-8.275
30
0
11
109.083343
21
-8.275
31
0
39
0
210
0
220
0
230
1
0
LINE
5
A8
100
AcDbEntity
8
1
62
256
6
ByLayer
370
18
48
1
60
1
100
AcDbLine
10
107.083343
20
8.275
30
0
11
107.544126
21
4.775002
31
0
39
0
210
0
220
0
230
1
0
LINE
5
A9
100
AcDbEntity
8
1
62
256
6
ByLayer
370
18
48
1
60
1
100
AcDbLine
10
107.544126
20
4.775002
30
0
11
106.622559
21
4.774998
31
0
39
0
210
0
220
0
230
1
0
LINE
5
AA
100
AcDbEntity
8
1
62
256
6
ByLayer
370
18
48
1
60
1
100
AcDbLine
10
106.622559
20
4.774998
30
0
11
107.083343
21
8.275
31
0
39
0
210
0
220
0
230
1
0
LINE
5
AB
100
AcDbEntity
8
1
62
256
6
ByLayer
370
18
48
1
60
1
100
AcDbLine
10
107.083343
20
-8.275
30
0
11
106.622559
21
-4.775002
31
0
39
0
210
0
220
0
230
1
0
LINE
5
AC
100
AcDbEntity
8
1
62
256
6
ByLayer
370
18
48
1
60
1
100
AcDbLine
10
106.622559
20
-4.775002
30
0
11
107.544126
21
-4.774998
31
0
39
0
210
0
220
0
230
1
0
LINE
5
AD
100
AcDbEntity
8
1
62
256
6
ByLayer
370
18
48
1
60
1
100
AcDbLine
10
107.544126
20
-4.774998
30
0
11
107.083343
21
-8.275
31
0
39
0
210
0
220
0
230
1
0
LINE
5
F5
100
AcDbEntity
8
1
62
256
6
ByLayer
370
18
48
1
60
1
100
AcDbLine
10
-56.625163
20
9
30
0
11
-56.164379
21
5.500002
31
0
39
0
210
0
220
0
230
1
0
LINE
5
F6
100
AcDbEntity
8
1
62
256
6
ByLayer
370
18
48
1
60
1
100
AcDbLine
10
-56.164379
20
5.500002
30
0
11
-57.085946
21
5.499998
31
0
39
0
210
0
220
0
230
1
0
LINE
5
F7
100
AcDbEntity
8
1
62
256
6
ByLayer
370
18
48
1
60
1
100
AcDbLine
10
-57.085946
20
5.499998
30
0
11
-56.625163
21
9
31
0
39
0
210
0
220
0
230
1
0
LINE
5
F9
100
AcDbEntity
8
1
62
256
6
ByLayer
370
18
48
1
60
1
100
AcDbLine
10
-56.625163
20
-9
30
0
11
-57.085946
21
-5.500002
31
0
39
0
210
0
220
0
230
1
0
LINE
5
FA
100
AcDbEntity
8
1
62
256
6
ByLayer
370
18
48
1
60
1
100
AcDbLine
10
-57.085946
20
-5.500002
30
0
11
-56.164379
21
-5.499998
31
0
39
0
210
0
220
0
230
1
0
LINE
5
FB
100
AcDbEntity
8
1
62
256
6
ByLayer
370
18
48
1
60
1
100
AcDbLine
10
-56.164379
20
-5.499998
30
0
11
-56.625163
21
-9
31
0
39
0
210
0
220
0
230
1
0
LINE
5
FF
100
AcDbEntity
8
1
62
256
6
ByLayer
370
18
48
1
60
1
100
AcDbLine
10
107.083343
20
8.275
30
0
11
107.544126
21
4.775002
31
0
39
0
210
0
220
0
230
1
0
LINE
5
100
100
AcDbEntity
8
1
62
256
6
ByLayer
370
18
48
1
60
1
100
AcDbLine
10
107.544126
20
4.775002
30
0
11
106.622559
21
4.774998
31
0
39
0
210
0
220
0
230
1
0
LINE
5
101
100
AcDbEntity
8
1
62
256
6
ByLayer
370
18
48
1
60
1
100
AcDbLine
10
106.622559
20
4.774998
30
0
11
107.083343
21
8.275
31
0
39
0
210
0
220
0
230
1
0
LINE
5
103
100
AcDbEntity
8
1
62
256
6
ByLayer
370
18
48
1
60
1
100
AcDbLine
10
107.083343
20
-8.275
30
0
11
106.622559
21
-4.775002
31
0
39
0
210
0
220
0
230
1
0
LINE
5
104
100
AcDbEntity
8
1
62
256
6
ByLayer
370
18
48
1
60
1
100
AcDbLine
10
106.622559
20
-4.775002
30
0
11
107.544126
21
-4.774998
31
0
39
0
210
0
220
0
230
1
0
LINE
5
105
100
AcDbEntity
8
1
62
256
6
ByLayer
370
18
48
1
60
1
100
AcDbLine
10
107.544126
20
-4.774998
30
0
11
107.083343
21
-8.275
31
0
39
0
210
0
220
0
230
1
0
MTEXT
5
EF
100
AcDbEntity
8
SK6
62
256
6
ByLayer
370
13
48
1
60
0
100
AcDbMText
10
-5.392027
20
40.815328
30
0
210
0
220
0
230
1
1
\W0.7610;462.1-1655-074A1-XM X2BM
40
3.5
41
0
44
1.084337
50
0
71
7
72
5
7
iso_b_vert
0
MTEXT
5
F3
100
AcDbEntity
8
SK2
62
256
6
ByLayer
370
18
48
1
60
0
100
AcDbMText
10
-58.189796
20
22.409024
30
0
210
0
220
0
230
1
1
%%c
40
3.5
41
0
44
1.084337
50
90
71
7
72
5
7
iso_b_vert
0
MTEXT
5
F4
100
AcDbEntity
8
SK2
62
256
6
ByLayer
370
18
48
1
60
0
100
AcDbMText
10
-58.189796
20
27.63168
30
0
210
0
220
0
230
1
1
\W0.6930;18,000
40
3.5
41
0
44
1.084337
50
90
71
7
72
5
7
iso_b_vert
0
MTEXT
5
FD
100
AcDbEntity
8
2
62
256
6
ByLayer
370
18
48
1
60
0
100
AcDbMText
10
105.518709
20
20.27711
30
0
210
0
220
0
230
1
1
%%c
40
3.5
41
0
44
1.084337
50
90
71
7
72
5
7
iso_b_vert
0
MTEXT
5
FE
100
AcDbEntity
8
2
62
256
6
ByLayer
370
18
48
1
60
0
100
AcDbMText
10
105.518709
20
25.499766
30
0
210
0
220
0
230
1
1
\W0.6930;16,550
40
3.5
41
0
44
1.084337
50
90
71
7
72
5
7
iso_b_vert
0
HATCH
5
F8
100
AcDbEntity
8
SK2
62
256
6
ByLayer
370
13
48
1
60
0
100
AcDbHatch
10
0
20
0
30
0
210
0
220
0
230
1
2
ANSI31
70
0
71
0
91
1
92
5
93
3
72
1
10
-56.6251625675374
20
9
11
-56.1643788259847
21
5.50000169255318
72
1
10
-56.1643788259847
20
5.50000169255318
11
-57.0859463090902
21
5.49999830744682
72
1
10
-57.0859463090902
20
5.49999830744682
11
-56.6251625675374
21
9
97
0
75
0
76
1
52
0
41
0.0062
77
0
78
1
53
45
43
0
44
0
45
-0.0139193969876572
46
0.0139193969876572
79
0
47
0
98
1
10
0
20
0
0
HATCH
5
FC
100
AcDbEntity
8
SK2
62
256
6
ByLayer
370
13
48
1
60
0
100
AcDbHatch
10
0
20
0
30
0
210
0
220
0
230
1
2
ANSI31
70
0
71
0
91
1
92
5
93
3
72
1
10
-56.6251625675374
20
-9
11
-57.0859463090902
21
-5.50000169255318
72
1
10
-57.0859463090902
20
-5.50000169255318
11
-56.1643788259847
21
-5.49999830744682
72
1
10
-56.1643788259847
20
-5.49999830744682
11
-56.6251625675374
21
-9
97
0
75
0
76
1
52
0
41
0.0062
77
0
78
1
53
45
43
0
44
0
45
-0.0139193969876572
46
0.0139193969876572
79
0
47
0
98
1
10
0
20
0
0
HATCH
5
102
100
AcDbEntity
8
2
62
256
6
ByLayer
370
13
48
1
60
0
100
AcDbHatch
10
0
20
0
30
0
210
0
220
0
230
1
2
ANSI31
70
0
71
0
91
1
92
5
93
3
72
1
10
107.083342615295
20
8.27500000000001
11
107.544126356848
21
4.77500169255319
72
1
10
107.544126356848
20
4.77500169255319
11
106.622558873742
21
4.77499830744682
72
1
10
106.622558873742
20
4.77499830744682
11
107.083342615295
21
8.27500000000001
97
0
75
0
76
1
52
0
41
0.0062
77
0
78
1
53
45
43
0
44
0
45
-0.0139193969876572
46
0.0139193969876572
79
0
47
0
98
1
10
0
20
0
0
HATCH
5
106
100
AcDbEntity
8
2
62
256
6
ByLayer
370
13
48
1
60
0
100
AcDbHatch
10
0
20
0
30
0
210
0
220
0
230
1
2
ANSI31
70
0
71
0
91
1
92
5
93
3
72
1
10
107.083342615295
20
-8.27499999999998
11
106.622558873742
21
-4.77500169255316
72
1
10
106.622558873742
20
-4.77500169255316
11
107.544126356848
21
-4.77499830744679
72
1
10
107.544126356848
20
-4.77499830744679
11
107.083342615295
21
-8.27499999999998
97
0
75
0
76
1
52
0
41
0.0062
77
0
78
1
53
45
43
0
44
0
45
-0.0139193969876572
46
0.0139193969876572
79
0
47
0
98
1
10
0
20
0
0
DIMENSION
5
108
100
AcDbEntity
8
SK2
62
256
6
ByLayer
370
13
48
1
60
0
100
AcDbDimension
2
_U0
10
92.5289
20
-18.488398
30
0
11
46.26445
21
-18.488398
31
0
70
32
71
1
72
1
41
1
210
0
220
0
230
1
3
Standard
100
AcDbAlignedDimension
13
0
23
0
33
0
14
92.5289
24
-8.275
34
0
50
0
100
AcDbRotatedDimension
1001
ACAD
1000
DSTYLE
1002
{
1070
   371
1070
    13
1070
   372
1070
    13
1070
   170
1070
     0
1070
   144
1040
1.0
1070
   277
1070
     2
1070
   278
1070
    44
1070
   146
1040
1.0
1070
   345
1005
16
1070
   347
1005
16
1070
   346
1005
16
1070
   344
1005
0
1070
   343
1005
0
1070
   172
1070
     1
1070
    76
1070
     0
1070
    75
1070
     0
1070
   282
1070
     0
1070
   281
1070
     0
1070
    71
1070
     0
1070
    74
1070
     0
1070
   279
1070
     0
1070
   173
1070
     1
1070
   340
1005
F0
1070
   271
1070
     2
1070
   272
1070
     2
1070
    77
1070
     1
1070
    73
1070
     1
1070
   171
1070
     3
1070
   274
1070
     4
1070
   177
1070
    35
1070
   176
1070
    35
1070
   178
1070
    35
1070
    48
1040
-0.1
1070
    41
1040
3.5
1070
   147
1040
1.75
1070
    42
1040
1.5875
1070
    44
1040
2.0
1070
   140
1040
3.5
1002
}
1001
ACAD_DSTYLE_DIM_LINETYPE
1070
   380
1005
16
1001
ACAD_DSTYLE_DIM_EXT1_LINETYPE
1070
   381
1005
16
1001
ACAD_DSTYLE_DIM_EXT2_LINETYPE
1070
   382
1005
16
0
DIMENSION
5
121
100
AcDbEntity
8
SK2
62
256
6
ByLayer
370
13
48
1
60
0
100
AcDbDimension
2
_U1
10
95
20
-37.692985
30
0
11
23.5
21
-37.692985
31
0
70
32
71
1
72
1
41
1
210
0
220
0
230
1
3
Standard
100
AcDbAlignedDimension
13
-48
23
-9
33
0
14
95
24
0
34
0
50
0
100
AcDbRotatedDimension
1001
ACAD
1000
DSTYLE
1002
{
1070
   371
1070
    13
1070
   372
1070
    13
1070
   170
1070
     0
1070
   144
1040
1.0
1070
   277
1070
     2
1070
   278
1070
    44
1070
   146
1040
1.0
1070
   345
1005
16
1070
   347
1005
16
1070
   346
1005
16
1070
   344
1005
0
1070
   343
1005
0
1070
   172
1070
     1
1070
    76
1070
     0
1070
    75
1070
     0
1070
   282
1070
     0
1070
   281
1070
     0
1070
    71
1070
     0
1070
    74
1070
     0
1070
   279
1070
     0
1070
   173
1070
     1
1070
   340
1005
F0
1070
   271
1070
     2
1070
   272
1070
     2
1070
    77
1070
     1
1070
    73
1070
     1
1070
   171
1070
     3
1070
   274
1070
     4
1070
   177
1070
    35
1070
   176
1070
    35
1070
   178
1070
    35
1070
    48
1040
-0.1
1070
    41
1040
3.5
1070
   147
1040
1.75
1070
    42
1040
1.5875
1070
    44
1040
2.0
1070
   140
1040
3.5
1002
}
1001
ACAD_DSTYLE_DIM_LINETYPE
1070
   380
1005
16
1001
ACAD_DSTYLE_DIM_EXT1_LINETYPE
1070
   381
1005
16
1001
ACAD_DSTYLE_DIM_EXT2_LINETYPE
1070
   382
1005
16
0
DIMENSION
5
139
100
AcDbEntity
8
SK2
62
256
6
ByLayer
370
13
48
1
60
0
100
AcDbDimension
2
_U2
10
95
20
19.884119
30
0
11
56.775
21
19.884119
31
0
70
32
71
1
72
1
41
1
210
0
220
0
230
1
3
Standard
100
AcDbAlignedDimension
13
18.55
23
8.275
33
0
14
95
24
0
34
0
50
0
100
AcDbRotatedDimension
1001
ACAD
1000
DSTYLE
1002
{
1070
   371
1070
    13
1070
   372
1070
    13
1070
   170
1070
     0
1070
   144
1040
1.0
1070
   277
1070
     2
1070
   278
1070
    44
1070
   146
1040
1.0
1070
   345
1005
16
1070
   347
1005
16
1070
   346
1005
16
1070
   344
1005
0
1070
   343
1005
0
1070
   172
1070
     1
1070
    76
1070
     0
1070
    75
1070
     0
1070
   282
1070
     0
1070
   281
1070
     0
1070
    71
1070
     0
1070
    74
1070
     0
1070
   279
1070
     0
1070
   173
1070
     1
1070
   340
1005
F0
1070
   271
1070
     2
1070
   272
1070
     2
1070
    77
1070
     1
1070
    73
1070
     1
1070
   171
1070
     3
1070
   274
1070
     4
1070
   177
1070
    35
1070
   176
1070
    35
1070
   178
1070
    35
1070
    48
1040
-0.1
1070
    41
1040
3.5
1070
   147
1040
1.75
1070
    42
1040
1.5875
1070
    44
1040
2.0
1070
   140
1040
3.5
1002
}
1001
ACAD_DSTYLE_DIM_LINETYPE
1070
   380
1005
16
1001
ACAD_DSTYLE_DIM_EXT1_LINETYPE
1070
   381
1005
16
1001
ACAD_DSTYLE_DIM_EXT2_LINETYPE
1070
   382
1005
16
0
DIMENSION
5
151
100
AcDbEntity
8
SK2
62
256
6
ByLayer
370
13
48
1
60
0
100
AcDbDimension
2
_U3
10
92.5289
20
-21.077503
30
0
11
112.583333
21
-21.077503
31
0
70
32
71
1
72
1
41
1
210
0
220
0
230
1
3
Standard
100
AcDbAlignedDimension
13
95
23
0
33
0
14
92.5289
24
-8.275
34
0
50
0
100
AcDbRotatedDimension
1001
ACAD
1000
DSTYLE
1002
{
1070
   371
1070
    13
1070
   372
1070
    13
1070
   170
1070
     0
1070
   144
1040
1.0
1070
   277
1070
     2
1070
   278
1070
    44
1070
   146
1040
1.0
1070
   345
1005
16
1070
   347
1005
16
1070
   346
1005
16
1070
   344
1005
0
1070
   343
1005
0
1070
   172
1070
     1
1070
    76
1070
     0
1070
    75
1070
     0
1070
   282
1070
     0
1070
   281
1070
     0
1070
    71
1070
     0
1070
    74
1070
     0
1070
   279
1070
     0
1070
   173
1070
     1
1070
   340
1005
F0
1070
   271
1070
     2
1070
   272
1070
     2
1070
    77
1070
     1
1070
    73
1070
     1
1070
   171
1070
     3
1070
   274
1070
     4
1070
   177
1070
    35
1070
   176
1070
    35
1070
   178
1070
    35
1070
    48
1040
-0.1
1070
    41
1040
3.5
1070
   147
1040
1.75
1070
    42
1040
1.5875
1070
    44
1040
2.0
1070
   140
1040
3.5
1002
}
1001
ACAD_DSTYLE_DIM_LINETYPE
1070
   380
1005
16
1001
ACAD_DSTYLE_DIM_EXT1_LINETYPE
1070
   381
1005
16
1001
ACAD_DSTYLE_DIM_EXT2_LINETYPE
1070
   382
1005
16
0
DIMENSION
5
16B
100
AcDbEntity
8
SK2
62
256
6
ByLayer
370
13
48
1
60
0
100
AcDbDimension
2
_U4
10
92.5289
20
-27.343428
30
0
11
22.26445
21
-27.343428
31
0
70
32
71
1
72
1
41
1
210
0
220
0
230
1
3
Standard
100
AcDbAlignedDimension
13
-48
23
-9
33
0
14
92.5289
24
-8.275
34
0
50
0
100
AcDbRotatedDimension
1001
ACAD
1000
DSTYLE
1002
{
1070
   371
1070
    13
1070
   372
1070
    13
1070
   170
1070
     0
1070
   144
1040
1.0
1070
   277
1070
     2
1070
   278
1070
    44
1070
   146
1040
1.0
1070
   345
1005
16
1070
   347
1005
16
1070
   346
1005
16
1070
   344
1005
0
1070
   343
1005
0
1070
   172
1070
     1
1070
    76
1070
     0
1070
    75
1070
     0
1070
   282
1070
     0
1070
   281
1070
     0
1070
    71
1070
     0
1070
    74
1070
     0
1070
   279
1070
     0
1070
   173
1070
     1
1070
   340
1005
F0
1070
   271
1070
     2
1070
   272
1070
     2
1070
    77
1070
     1
1070
    73
1070
     1
1070
   171
1070
     3
1070
   274
1070
     4
1070
   177
1070
    35
1070
   176
1070
    35
1070
   178
1070
    35
1070
    48
1040
-0.1
1070
    41
1040
3.5
1070
   147
1040
1.75
1070
    42
1040
1.5875
1070
    44
1040
2.0
1070
   140
1040
3.5
1002
}
1001
ACAD_DSTYLE_DIM_LINETYPE
1070
   380
1005
16
1001
ACAD_DSTYLE_DIM_EXT1_LINETYPE
1070
   381
1005
16
1001
ACAD_DSTYLE_DIM_EXT2_LINETYPE
1070
   382
1005
16
0
ENDSEC
0
SECTION
2
OBJECTS
0
DICTIONARY
5
1f3
330
0
100
AcDbDictionary
280
0
281
1
3
ACAD_GROUP
350
1f4
3
ACAD_MLINESTYLE
350
1f5
0
DICTIONARY
5
1f4
330
0
100
AcDbDictionary
280
0
281
1
0
DICTIONARY
5
1f5
330
0
100
AcDbDictionary
280
0
281
1
3
Standard
350
18
0
MLINESTYLE
5
18
330
1f5
100
AcDbMlineStyle
2
Standard
70
0
3

62
256
51
90
52
90
71
2
49
-0.5
62
256
6
ByLayer
49
0.5
62
256
6
ByLayer
0
RASTERVARIABLES
5
1e1
330

100
AcDbRasterVariables
90
0
70
1
71
1
72
1
0
ENDSEC
0
EOF
