0
SECTION
2
HEADER
9
$ACADVER
1
AC1015
9
$DWGCODEPAGE
3
ANSI_1252
9
$HANDSEED
5
1fe
9
$ANGBASE
50
0
9
$ANGDIR
70
0
9
$ATTMODE
70
1
9
$AUNITS
70
0
9
$AUPREC
70
0
9
$CECOLOR
62
256
9
$CELTSCALE
40
1
9
$CELTYPE
6
ByLayer
9
$CELWEIGHT
370
18
9
$CLAYER
8
0
9
$CMLJUST
70
0
9
$CMLSCALE
40
1
9
$CMLSTYLE
2
Standard
9
$DIMSTYLE
2
Standard
9
$TEXTSIZE
40
0.2
9
$TEXTSTYLE
7
Standard
9
$LUNITS
70
2
9
$LUPREC
70
4
9
$EXTNAMES
290
1
9
$INSUNITS
70
4
9
$LTSCALE
40
1
9
$LWDISPLAY
290
1
9
$PDMODE
70
0
9
$PDSIZE
40
0
9
$PLINEGEN
70
0
0
ENDSEC
0
SECTION
2
CLASSES
0
CLASS
1
RASTERVARIABLES
2
AcDbRasterVariables
3
ISM
90
0
280
0
281
0
0
ENDSEC
0
SECTION
2
TABLES
0
TABLE
2
VPORT
5
1f4
100
AcDbSymbolTable
0
VPORT
5
1
100
AcDbSymbolTableRecord
100
AcDbViewportTableRecord
2
*Active
70
0
10
0
20
0
11
1
21
1
12
-1
22
1
13
0
23
0
14
0.5
24
0.5
15
10
25
10
16
0
26
0
36
1
17
0
27
0
37
0
0
ENDTAB
0
TABLE
2
LTYPE
5
1f5
100
AcDbSymbolTable
0
LTYPE
5
14
100
AcDbSymbolTableRecord
100
AcDbLinetypeTableRecord
70
0
2
ByBlock
3

72
65
73
0
40
0
0
LTYPE
5
15
100
AcDbSymbolTableRecord
100
AcDbLinetypeTableRecord
70
0
2
ByLayer
3

72
65
73
0
40
0
0
LTYPE
5
16
100
AcDbSymbolTableRecord
100
AcDbLinetypeTableRecord
70
0
2
Continuous
3
Solid line
72
65
73
0
40
0
0
LTYPE
5
6E
100
AcDbSymbolTableRecord
100
AcDbLinetypeTableRecord
70
0
2
CENTER
3
____ _ ____ _ ____ _ ____
72
65
73
4
40
47.5
49
22
74
0
49
-8.5
74
0
49
8.5
74
0
49
-8.5
74
0
0
LTYPE
5
6F
100
AcDbSymbolTableRecord
100
AcDbLinetypeTableRecord
70
0
2
DASHED
3
__ __ __ __ __ __ __ __ __
72
65
73
2
40
25.72
49
12.86
74
0
49
-12.86
74
0
0
ENDTAB
0
TABLE
2
LAYER
5
1f6
100
AcDbSymbolTable
0
LAYER
5
10
100
AcDbSymbolTableRecord
100
AcDbLayerTableRecord
2
0
70
0
62
7
6
Continuous
290
1
370
-3
390
0
0
LAYER
5
71
100
AcDbSymbolTableRecord
100
AcDbLayerTableRecord
2
80
70
0
62
-6
6
Continuous
290
1
370
-3
390
0
0
LAYER
5
73
100
AcDbSymbolTableRecord
100
AcDbLayerTableRecord
2
81
70
0
62
-3
6
Continuous
290
1
370
-3
390
0
0
LAYER
5
75
100
AcDbSymbolTableRecord
100
AcDbLayerTableRecord
2
1
70
0
62
4
6
Continuous
290
1
370
-3
390
0
0
LAYER
5
8C
100
AcDbSymbolTableRecord
100
AcDbLayerTableRecord
2
4
70
0
62
-2
6
CENTER
290
1
370
-3
390
0
0
LAYER
5
A5
100
AcDbSymbolTableRecord
100
AcDbLayerTableRecord
2
2
70
0
62
7
6
Continuous
290
1
370
-3
390
0
0
LAYER
5
109
100
AcDbSymbolTableRecord
100
AcDbLayerTableRecord
2
Defpoints
70
0
62
7
6
Continuous
290
0
370
-3
390
0
0
LAYER
5
1e0
100
AcDbSymbolTableRecord
100
AcDbLayerTableRecord
2
SK1
70
0
62
4
6
Continuous
290
1
370
-3
390
0
0
LAYER
5
1e1
100
AcDbSymbolTableRecord
100
AcDbLayerTableRecord
2
SK4
70
0
62
2
6
CENTER
290
1
370
-3
390
0
0
LAYER
5
1e2
100
AcDbSymbolTableRecord
100
AcDbLayerTableRecord
2
SK2
70
0
62
7
6
Continuous
290
1
370
-3
390
0
0
LAYER
5
1e3
100
AcDbSymbolTableRecord
100
AcDbLayerTableRecord
2
SK6
70
0
62
5
6
Continuous
290
1
370
-3
390
0
0
ENDTAB
0
TABLE
2
STYLE
5
1f7
100
AcDbSymbolTable
0
STYLE
5
11
100
AcDbSymbolTableRecord
100
AcDbTextStyleTableRecord
2
Standard
3
txt
70
0
71
0
40
0
41
1
42
0
50
0
0
STYLE
5
EE
100
AcDbSymbolTableRecord
100
AcDbTextStyleTableRecord
2
iso_b_vert
3
simplex.shx
70
0
71
0
40
0
41
1
42
0
50
0
0
STYLE
5
EF
100
AcDbSymbolTableRecord
100
AcDbTextStyleTableRecord
2
DWGDirectTextStyle
3
simplex
70
0
71
0
40
0
41
1
42
0
50
0
0
ENDTAB
0
TABLE
2
DIMSTYLE
5
1f8
100
AcDbSymbolTable
100
AcDbDimStyleTable
0
DIMSTYLE
105
27
100
AcDbSymbolTableRecord
100
AcDbDimStyleTableRecord
2
Standard
70
0
3
<>
41
0.18
42
0.0625
44
0.18
140
0.18
147
0.09
73
0
74
0
77
1
271
2
275
0
278
52
280
0
340
11
0
ENDTAB
0
TABLE
2
VIEW
5
1f9
100
AcDbSymbolTable
0
ENDTAB
0
TABLE
2
UCS
5
1fa
100
AcDbSymbolTable
0
ENDTAB
0
TABLE
2
APPID
5
1fb
100
AcDbSymbolTable
0
APPID
5
12
100
AcDbSymbolTableRecord
100
AcDbRegAppTableRecord
2
ACAD
70
0
0
APPID
5
105
100
AcDbSymbolTableRecord
100
AcDbRegAppTableRecord
2
ACAD_DSTYLE_DIMBREAK
70
0
0
APPID
5
19F
100
AcDbSymbolTableRecord
100
AcDbRegAppTableRecord
2
ACAD_DSTYLE_DIM_LINETYPE
70
0
0
APPID
5
1A0
100
AcDbSymbolTableRecord
100
AcDbRegAppTableRecord
2
ACAD_DSTYLE_DIM_EXT1_LINETYPE
70
0
0
APPID
5
1A1
100
AcDbSymbolTableRecord
100
AcDbRegAppTableRecord
2
ACAD_DSTYLE_DIM_EXT2_LINETYPE
70
0
0
APPID
5
1DC
100
AcDbSymbolTableRecord
100
AcDbRegAppTableRecord
2
ACAD_MLEADERVER
70
0
0
ENDTAB
0
TABLE
2
BLOCK_RECORD
5
1fc
100
AcDbSymbolTable
0
BLOCK_RECORD
5
1F
100
AcDbSymbolTableRecord
100
AcDbBlockTableRecord
2
*Model_Space
340
0
70
0
0
BLOCK_RECORD
5
1B
100
AcDbSymbolTableRecord
100
AcDbBlockTableRecord
2
*Paper_Space
340
0
70
0
0
BLOCK_RECORD
5
23
100
AcDbSymbolTableRecord
100
AcDbBlockTableRecord
2
*Paper_Space0
340
0
70
0
0
BLOCK_RECORD
5
10A
100
AcDbSymbolTableRecord
100
AcDbBlockTableRecord
2
*D1
340
0
70
0
0
BLOCK_RECORD
5
116
100
AcDbSymbolTableRecord
100
AcDbBlockTableRecord
2
_U0
340
0
70
0
0
BLOCK_RECORD
5
122
100
AcDbSymbolTableRecord
100
AcDbBlockTableRecord
2
*D3
340
0
70
0
0
BLOCK_RECORD
5
12E
100
AcDbSymbolTableRecord
100
AcDbBlockTableRecord
2
_U1
340
0
70
0
0
BLOCK_RECORD
5
13A
100
AcDbSymbolTableRecord
100
AcDbBlockTableRecord
2
*D5
340
0
70
0
0
BLOCK_RECORD
5
146
100
AcDbSymbolTableRecord
100
AcDbBlockTableRecord
2
_U2
340
0
70
0
0
BLOCK_RECORD
5
152
100
AcDbSymbolTableRecord
100
AcDbBlockTableRecord
2
*D7
340
0
70
0
0
BLOCK_RECORD
5
160
100
AcDbSymbolTableRecord
100
AcDbBlockTableRecord
2
_U3
340
0
70
0
0
BLOCK_RECORD
5
16C
100
AcDbSymbolTableRecord
100
AcDbBlockTableRecord
2
*D9
340
0
70
0
0
BLOCK_RECORD
5
178
100
AcDbSymbolTableRecord
100
AcDbBlockTableRecord
2
_U4
340
0
70
0
0
ENDTAB
0
ENDSEC
0
SECTION
2
BLOCKS
0
BLOCK
5
20
100
AcDbEntity
8
0
100
AcDbBlockBegin
2
*Model_Space
70
0
10
0
20
0
30
0
3
*Model_Space
0
ENDBLK
5
21
100
AcDbEntity
8
0
100
AcDbBlockEnd
0
BLOCK
5
1C
100
AcDbEntity
8
0
100
AcDbBlockBegin
2
*Paper_Space
70
0
10
0
20
0
30
0
3
*Paper_Space
0
ENDBLK
5
1D
100
AcDbEntity
8
0
100
AcDbBlockEnd
0
BLOCK
5
24
100
AcDbEntity
8
0
100
AcDbBlockBegin
2
*Paper_Space0
70
0
10
0
20
0
30
0
3
*Paper_Space0
0
ENDBLK
5
25
100
AcDbEntity
8
0
100
AcDbBlockEnd
0
BLOCK
5
10B
100
AcDbEntity
8
0
100
AcDbBlockBegin
2
*D1
70
1
10
0
20
0
30
0
3
*D1
0
LINE
5
10D
100
AcDbEntity
8
0
62
256
6
ByLayer
370
-2
48
1
60
0
100
AcDbLine
10
0
20
-1.5875
30
0
11
0
21
-20.263398
31
0
39
0
210
0
220
0
230
1
0
LINE
5
10E
100
AcDbEntity
8
0
62
256
6
ByLayer
370
-2
48
1
60
0
100
AcDbLine
10
92.5967
20
-9.6375
30
0
11
92.5967
21
-20.263398
31
0
39
0
210
0
220
0
230
1
0
LINE
5
10F
100
AcDbEntity
8
0
62
256
6
ByLayer
370
-2
48
1
60
0
100
AcDbLine
10
3.5
20
-18.263398
30
0
11
89.0967
21
-18.263398
31
0
39
0
210
0
220
0
230
1
0
SOLID
5
110
100
AcDbEntity
8
0
62
256
6
ByLayer
370
-1
48
1
60
0
100
AcDbTrace
10
3.5
20
-17.680065
30
0
11
3.5
21
-18.846732
31
0
12
0
22
-18.263398
32
0
13
0
23
-18.263398
33
0
39
0
210
0
220
0
230
1
0
SOLID
5
111
100
AcDbEntity
8
0
62
256
6
ByLayer
370
-1
48
1
60
0
100
AcDbTrace
10
89.0967
20
-18.846732
30
0
11
89.0967
21
-17.680065
31
0
12
92.5967
22
-18.263398
32
0
13
92.5967
23
-18.263398
33
0
39
0
210
0
220
0
230
1
0
MTEXT
5
112
100
AcDbEntity
8
0
62
256
6
ByLayer
370
18
48
1
60
0
100
AcDbMText
10
46.29835
20
-11.263398
30
0
210
0
220
0
230
1
1
\A1;92.60
40
3.5
41
0
44
1
50
0
71
5
72
5
7
iso_b_vert
0
POINT
5
113
100
AcDbEntity
8
Defpoints
62
0
6
ByLayer
370
-1
48
1
60
0
100
AcDbPoint
10
0
20
0
30
0
39
0
210
0
220
0
230
1
50
360
0
POINT
5
114
100
AcDbEntity
8
Defpoints
62
0
6
ByLayer
370
-1
48
1
60
0
100
AcDbPoint
10
92.5967
20
-8.05
30
0
39
0
210
0
220
0
230
1
50
360
0
POINT
5
115
100
AcDbEntity
8
Defpoints
62
0
6
ByLayer
370
-1
48
1
60
0
100
AcDbPoint
10
92.5967
20
-18.263398
30
0
39
0
210
0
220
0
230
1
50
360
0
ENDBLK
5
10C
100
AcDbEntity
8
0
100
AcDbBlockEnd
0
BLOCK
5
11D
100
AcDbEntity
8
0
100
AcDbBlockBegin
2
_U0
70
0
10
0
20
0
30
0
3
_U0
0
MTEXT
5
117
100
AcDbEntity
8
SK2
62
256
6
ByLayer
370
13
48
1
60
0
100
AcDbMText
10
41.161051
20
-17.230765
30
0
210
0
220
0
230
1
1
\W0.7317;92,60
40
3.5
41
0
44
1.084337
50
0
71
7
72
5
7
iso_b_vert
0
LINE
5
118
100
AcDbEntity
8
SK2
62
256
6
ByLayer
370
13
48
1
60
0
100
AcDbLine
10
0
20
-1.5875
30
0
11
0
21
-20.263398
31
0
39
0
210
0
220
0
230
1
0
LINE
5
119
100
AcDbEntity
8
SK2
62
256
6
ByLayer
370
13
48
1
60
0
100
AcDbLine
10
92.5967
20
-9.6375
30
0
11
92.5967
21
-20.263398
31
0
39
0
210
0
220
0
230
1
0
LINE
5
11A
100
AcDbEntity
8
SK2
62
256
6
ByLayer
370
13
48
1
60
0
100
AcDbLine
10
0
20
-18.263398
30
0
11
92.5967
21
-18.263398
31
0
39
0
210
0
220
0
230
1
0
SOLID
5
11B
100
AcDbEntity
8
SK2
62
256
6
ByLayer
370
18
48
1
60
0
100
AcDbTrace
10
0
20
-18.263398
30
0
11
3.499998
21
-17.802615
31
0
12
3.500002
22
-18.724182
32
0
13
3.500002
23
-18.724182
33
0
39
0
210
0
220
0
230
1
0
SOLID
5
11C
100
AcDbEntity
8
SK2
62
256
6
ByLayer
370
18
48
1
60
0
100
AcDbTrace
10
92.5967
20
-18.263398
30
0
11
89.096702
21
-18.724182
31
0
12
89.096698
22
-17.802615
32
0
13
89.096698
23
-17.802615
33
0
39
0
210
0
220
0
230
1
0
ENDBLK
5
11E
100
AcDbEntity
8
0
100
AcDbBlockEnd
0
BLOCK
5
123
100
AcDbEntity
8
0
100
AcDbBlockBegin
2
*D3
70
1
10
0
20
0
30
0
3
*D3
0
LINE
5
125
100
AcDbEntity
8
0
62
256
6
ByLayer
370
-2
48
1
60
0
100
AcDbLine
10
-48
20
-10.5875
30
0
11
-48
21
-39.692985
31
0
39
0
210
0
220
0
230
1
0
LINE
5
126
100
AcDbEntity
8
0
62
256
6
ByLayer
370
-2
48
1
60
0
100
AcDbLine
10
95
20
-1.5875
30
0
11
95
21
-39.692985
31
0
39
0
210
0
220
0
230
1
0
LINE
5
127
100
AcDbEntity
8
0
62
256
6
ByLayer
370
-2
48
1
60
0
100
AcDbLine
10
-44.5
20
-37.692985
30
0
11
91.5
21
-37.692985
31
0
39
0
210
0
220
0
230
1
0
SOLID
5
128
100
AcDbEntity
8
0
62
256
6
ByLayer
370
-1
48
1
60
0
100
AcDbTrace
10
-44.5
20
-37.109652
30
0
11
-44.5
21
-38.276319
31
0
12
-48
22
-37.692985
32
0
13
-48
23
-37.692985
33
0
39
0
210
0
220
0
230
1
0
SOLID
5
129
100
AcDbEntity
8
0
62
256
6
ByLayer
370
-1
48
1
60
0
100
AcDbTrace
10
91.5
20
-38.276319
30
0
11
91.5
21
-37.109652
31
0
12
95
22
-37.692985
32
0
13
95
23
-37.692985
33
0
39
0
210
0
220
0
230
1
0
MTEXT
5
12A
100
AcDbEntity
8
0
62
256
6
ByLayer
370
18
48
1
60
0
100
AcDbMText
10
23.5
20
-30.692985
30
0
210
0
220
0
230
1
1
\A1;143.00
40
3.5
41
0
44
1
50
0
71
5
72
5
7
iso_b_vert
0
POINT
5
12B
100
AcDbEntity
8
Defpoints
62
0
6
ByLayer
370
-1
48
1
60
0
100
AcDbPoint
10
-48
20
-9
30
0
39
0
210
0
220
0
230
1
50
360
0
POINT
5
12C
100
AcDbEntity
8
Defpoints
62
0
6
ByLayer
370
-1
48
1
60
0
100
AcDbPoint
10
95
20
0
30
0
39
0
210
0
220
0
230
1
50
360
0
POINT
5
12D
100
AcDbEntity
8
Defpoints
62
0
6
ByLayer
370
-1
48
1
60
0
100
AcDbPoint
10
95
20
-37.692985
30
0
39
0
210
0
220
0
230
1
50
360
0
ENDBLK
5
124
100
AcDbEntity
8
0
100
AcDbBlockEnd
0
BLOCK
5
135
100
AcDbEntity
8
0
100
AcDbBlockBegin
2
_U1
70
0
10
0
20
0
30
0
3
_U1
0
MTEXT
5
12F
100
AcDbEntity
8
SK2
62
256
6
ByLayer
370
13
48
1
60
0
100
AcDbMText
10
17.308135
20
-36.660352
30
0
210
0
220
0
230
1
1
\W0.7145;143,00
40
3.5
41
0
44
1.084337
50
0
71
7
72
5
7
iso_b_vert
0
LINE
5
130
100
AcDbEntity
8
SK2
62
256
6
ByLayer
370
13
48
1
60
0
100
AcDbLine
10
-48
20
-10.5875
30
0
11
-48
21
-39.692985
31
0
39
0
210
0
220
0
230
1
0
LINE
5
131
100
AcDbEntity
8
SK2
62
256
6
ByLayer
370
13
48
1
60
0
100
AcDbLine
10
95
20
-1.5875
30
0
11
95
21
-39.692985
31
0
39
0
210
0
220
0
230
1
0
LINE
5
132
100
AcDbEntity
8
SK2
62
256
6
ByLayer
370
13
48
1
60
0
100
AcDbLine
10
-48
20
-37.692985
30
0
11
95
21
-37.692985
31
0
39
0
210
0
220
0
230
1
0
SOLID
5
133
100
AcDbEntity
8
SK2
62
256
6
ByLayer
370
18
48
1
60
0
100
AcDbTrace
10
-48
20
-37.692985
30
0
11
-44.500002
21
-37.232202
31
0
12
-44.499998
22
-38.153769
32
0
13
-44.499998
23
-38.153769
33
0
39
0
210
0
220
0
230
1
0
SOLID
5
134
100
AcDbEntity
8
SK2
62
256
6
ByLayer
370
18
48
1
60
0
100
AcDbTrace
10
95
20
-37.692985
30
0
11
91.500002
21
-38.153769
31
0
12
91.499998
22
-37.232202
32
0
13
91.499998
23
-37.232202
33
0
39
0
210
0
220
0
230
1
0
ENDBLK
5
136
100
AcDbEntity
8
0
100
AcDbBlockEnd
0
BLOCK
5
13B
100
AcDbEntity
8
0
100
AcDbBlockBegin
2
*D5
70
1
10
0
20
0
30
0
3
*D5
0
LINE
5
13D
100
AcDbEntity
8
0
62
256
6
ByLayer
370
-2
48
1
60
0
100
AcDbLine
10
18.1
20
9.6375
30
0
11
18.1
21
21.659119
31
0
39
0
210
0
220
0
230
1
0
LINE
5
13E
100
AcDbEntity
8
0
62
256
6
ByLayer
370
-2
48
1
60
0
100
AcDbLine
10
95
20
1.5875
30
0
11
95
21
21.659119
31
0
39
0
210
0
220
0
230
1
0
LINE
5
13F
100
AcDbEntity
8
0
62
256
6
ByLayer
370
-2
48
1
60
0
100
AcDbLine
10
21.6
20
19.659119
30
0
11
91.5
21
19.659119
31
0
39
0
210
0
220
0
230
1
0
SOLID
5
140
100
AcDbEntity
8
0
62
256
6
ByLayer
370
-1
48
1
60
0
100
AcDbTrace
10
21.6
20
20.242453
30
0
11
21.6
21
19.075786
31
0
12
18.1
22
19.659119
32
0
13
18.1
23
19.659119
33
0
39
0
210
0
220
0
230
1
0
SOLID
5
141
100
AcDbEntity
8
0
62
256
6
ByLayer
370
-1
48
1
60
0
100
AcDbTrace
10
91.5
20
19.075786
30
0
11
91.5
21
20.242453
31
0
12
95
22
19.659119
32
0
13
95
23
19.659119
33
0
39
0
210
0
220
0
230
1
0
MTEXT
5
142
100
AcDbEntity
8
0
62
256
6
ByLayer
370
18
48
1
60
0
100
AcDbMText
10
56.55
20
26.659119
30
0
210
0
220
0
230
1
1
\A1;76.90
40
3.5
41
0
44
1
50
0
71
5
72
5
7
iso_b_vert
0
POINT
5
143
100
AcDbEntity
8
Defpoints
62
0
6
ByLayer
370
-1
48
1
60
0
100
AcDbPoint
10
18.1
20
8.05
30
0
39
0
210
0
220
0
230
1
50
360
0
POINT
5
144
100
AcDbEntity
8
Defpoints
62
0
6
ByLayer
370
-1
48
1
60
0
100
AcDbPoint
10
95
20
0
30
0
39
0
210
0
220
0
230
1
50
360
0
POINT
5
145
100
AcDbEntity
8
Defpoints
62
0
6
ByLayer
370
-1
48
1
60
0
100
AcDbPoint
10
95
20
19.659119
30
0
39
0
210
0
220
0
230
1
50
360
0
ENDBLK
5
13C
100
AcDbEntity
8
0
100
AcDbBlockEnd
0
BLOCK
5
14D
100
AcDbEntity
8
0
100
AcDbBlockBegin
2
_U2
70
0
10
0
20
0
30
0
3
_U2
0
MTEXT
5
147
100
AcDbEntity
8
SK2
62
256
6
ByLayer
370
13
48
1
60
0
100
AcDbMText
10
51.412701
20
20.691753
30
0
210
0
220
0
230
1
1
\W0.7317;76,90
40
3.5
41
0
44
1.084337
50
0
71
7
72
5
7
iso_b_vert
0
LINE
5
148
100
AcDbEntity
8
SK2
62
256
6
ByLayer
370
13
48
1
60
0
100
AcDbLine
10
18.1
20
9.6375
30
0
11
18.1
21
21.659119
31
0
39
0
210
0
220
0
230
1
0
LINE
5
149
100
AcDbEntity
8
SK2
62
256
6
ByLayer
370
13
48
1
60
0
100
AcDbLine
10
95
20
1.5875
30
0
11
95
21
21.659119
31
0
39
0
210
0
220
0
230
1
0
LINE
5
14A
100
AcDbEntity
8
SK2
62
256
6
ByLayer
370
13
48
1
60
0
100
AcDbLine
10
18.1
20
19.659119
30
0
11
95
21
19.659119
31
0
39
0
210
0
220
0
230
1
0
SOLID
5
14B
100
AcDbEntity
8
SK2
62
256
6
ByLayer
370
18
48
1
60
0
100
AcDbTrace
10
18.1
20
19.659119
30
0
11
21.599998
21
20.119903
31
0
12
21.600002
22
19.198335
32
0
13
21.600002
23
19.198335
33
0
39
0
210
0
220
0
230
1
0
SOLID
5
14C
100
AcDbEntity
8
SK2
62
256
6
ByLayer
370
18
48
1
60
0
100
AcDbTrace
10
95
20
19.659119
30
0
11
91.500002
21
19.198335
31
0
12
91.499998
22
20.119903
32
0
13
91.499998
23
20.119903
33
0
39
0
210
0
220
0
230
1
0
ENDBLK
5
14E
100
AcDbEntity
8
0
100
AcDbBlockEnd
0
BLOCK
5
153
100
AcDbEntity
8
0
100
AcDbBlockBegin
2
*D7
70
1
10
0
20
0
30
0
3
*D7
0
LINE
5
155
100
AcDbEntity
8
0
62
256
6
ByLayer
370
-2
48
1
60
0
100
AcDbLine
10
95
20
-1.5875
30
0
11
95
21
-22.852503
31
0
39
0
210
0
220
0
230
1
0
LINE
5
156
100
AcDbEntity
8
0
62
256
6
ByLayer
370
-2
48
1
60
0
100
AcDbLine
10
92.5967
20
-9.6375
30
0
11
92.5967
21
-22.852503
31
0
39
0
210
0
220
0
230
1
0
LINE
5
157
100
AcDbEntity
8
0
62
256
6
ByLayer
370
-2
48
1
60
0
100
AcDbLine
10
95
20
-20.852503
30
0
11
123.166667
21
-20.852503
31
0
39
0
210
0
220
0
230
1
0
LINE
5
158
100
AcDbEntity
8
0
62
256
6
ByLayer
370
-2
48
1
60
0
100
AcDbLine
10
98.5
20
-20.852503
30
0
11
102
21
-20.852503
31
0
39
0
210
0
220
0
230
1
0
LINE
5
159
100
AcDbEntity
8
0
62
256
6
ByLayer
370
-2
48
1
60
0
100
AcDbLine
10
89.0967
20
-20.852503
30
0
11
85.5967
21
-20.852503
31
0
39
0
210
0
220
0
230
1
0
SOLID
5
15A
100
AcDbEntity
8
0
62
256
6
ByLayer
370
-1
48
1
60
0
100
AcDbTrace
10
98.5
20
-20.26917
30
0
11
98.5
21
-21.435837
31
0
12
95
22
-20.852503
32
0
13
95
23
-20.852503
33
0
39
0
210
0
220
0
230
1
0
SOLID
5
15B
100
AcDbEntity
8
0
62
256
6
ByLayer
370
-1
48
1
60
0
100
AcDbTrace
10
89.0967
20
-21.435837
30
0
11
89.0967
21
-20.26917
31
0
12
92.5967
22
-20.852503
32
0
13
92.5967
23
-20.852503
33
0
39
0
210
0
220
0
230
1
0
MTEXT
5
15C
100
AcDbEntity
8
0
62
256
6
ByLayer
370
18
48
1
60
0
100
AcDbMText
10
112.583333
20
-13.852503
30
0
210
0
220
0
230
1
1
\A1;2.40
40
3.5
41
0
44
1
50
0
71
5
72
5
7
iso_b_vert
0
POINT
5
15D
100
AcDbEntity
8
Defpoints
62
0
6
ByLayer
370
-1
48
1
60
0
100
AcDbPoint
10
95
20
0
30
0
39
0
210
0
220
0
230
1
50
360
0
POINT
5
15E
100
AcDbEntity
8
Defpoints
62
0
6
ByLayer
370
-1
48
1
60
0
100
AcDbPoint
10
92.5967
20
-8.05
30
0
39
0
210
0
220
0
230
1
50
360
0
POINT
5
15F
100
AcDbEntity
8
Defpoints
62
0
6
ByLayer
370
-1
48
1
60
0
100
AcDbPoint
10
92.5967
20
-20.852503
30
0
39
0
210
0
220
0
230
1
50
360
0
ENDBLK
5
154
100
AcDbEntity
8
0
100
AcDbBlockEnd
0
BLOCK
5
167
100
AcDbEntity
8
0
100
AcDbBlockBegin
2
_U3
70
0
10
0
20
0
30
0
3
_U3
0
MTEXT
5
161
100
AcDbEntity
8
SK2
62
256
6
ByLayer
370
13
48
1
60
0
100
AcDbMText
10
100.967593
20
-19.81987
30
0
210
0
220
0
230
1
1
\W0.7493;2,40
40
3.5
41
0
44
1.084337
50
0
71
7
72
5
7
iso_b_vert
0
LINE
5
162
100
AcDbEntity
8
SK2
62
256
6
ByLayer
370
13
48
1
60
0
100
AcDbLine
10
95
20
-1.5875
30
0
11
95
21
-22.852503
31
0
39
0
210
0
220
0
230
1
0
LINE
5
163
100
AcDbEntity
8
SK2
62
256
6
ByLayer
370
13
48
1
60
0
100
AcDbLine
10
92.5967
20
-9.6375
30
0
11
92.5967
21
-22.852503
31
0
39
0
210
0
220
0
230
1
0
LINE
5
164
100
AcDbEntity
8
SK2
62
256
6
ByLayer
370
13
48
1
60
0
100
AcDbLine
10
83.8467
20
-20.852503
30
0
11
109.180758
21
-20.852503
31
0
39
0
210
0
220
0
230
1
0
SOLID
5
165
100
AcDbEntity
8
SK2
62
256
6
ByLayer
370
18
48
1
60
0
100
AcDbTrace
10
95
20
-20.852503
30
0
11
98.499998
21
-20.391719
31
0
12
98.500002
22
-21.313287
32
0
13
98.500002
23
-21.313287
33
0
39
0
210
0
220
0
230
1
0
SOLID
5
166
100
AcDbEntity
8
SK2
62
256
6
ByLayer
370
18
48
1
60
0
100
AcDbTrace
10
92.5967
20
-20.852503
30
0
11
89.096702
21
-21.313287
31
0
12
89.096698
22
-20.391719
32
0
13
89.096698
23
-20.391719
33
0
39
0
210
0
220
0
230
1
0
ENDBLK
5
168
100
AcDbEntity
8
0
100
AcDbBlockEnd
0
BLOCK
5
16D
100
AcDbEntity
8
0
100
AcDbBlockBegin
2
*D9
70
1
10
0
20
0
30
0
3
*D9
0
LINE
5
16F
100
AcDbEntity
8
0
62
256
6
ByLayer
370
-2
48
1
60
0
100
AcDbLine
10
-48
20
-10.5875
30
0
11
-48
21
-29.343428
31
0
39
0
210
0
220
0
230
1
0
LINE
5
170
100
AcDbEntity
8
0
62
256
6
ByLayer
370
-2
48
1
60
0
100
AcDbLine
10
92.5967
20
-9.6375
30
0
11
92.5967
21
-29.343428
31
0
39
0
210
0
220
0
230
1
0
LINE
5
171
100
AcDbEntity
8
0
62
256
6
ByLayer
370
-2
48
1
60
0
100
AcDbLine
10
-44.5
20
-27.343428
30
0
11
89.0967
21
-27.343428
31
0
39
0
210
0
220
0
230
1
0
SOLID
5
172
100
AcDbEntity
8
0
62
256
6
ByLayer
370
-1
48
1
60
0
100
AcDbTrace
10
-44.5
20
-26.760095
30
0
11
-44.5
21
-27.926762
31
0
12
-48
22
-27.343428
32
0
13
-48
23
-27.343428
33
0
39
0
210
0
220
0
230
1
0
SOLID
5
173
100
AcDbEntity
8
0
62
256
6
ByLayer
370
-1
48
1
60
0
100
AcDbTrace
10
89.0967
20
-27.926762
30
0
11
89.0967
21
-26.760095
31
0
12
92.5967
22
-27.343428
32
0
13
92.5967
23
-27.343428
33
0
39
0
210
0
220
0
230
1
0
MTEXT
5
174
100
AcDbEntity
8
0
62
256
6
ByLayer
370
18
48
1
60
0
100
AcDbMText
10
22.29835
20
-20.343428
30
0
210
0
220
0
230
1
1
\A1;140.60
40
3.5
41
0
44
1
50
0
71
5
72
5
7
iso_b_vert
0
POINT
5
175
100
AcDbEntity
8
Defpoints
62
0
6
ByLayer
370
-1
48
1
60
0
100
AcDbPoint
10
-48
20
-9
30
0
39
0
210
0
220
0
230
1
50
360
0
POINT
5
176
100
AcDbEntity
8
Defpoints
62
0
6
ByLayer
370
-1
48
1
60
0
100
AcDbPoint
10
92.5967
20
-8.05
30
0
39
0
210
0
220
0
230
1
50
360
0
POINT
5
177
100
AcDbEntity
8
Defpoints
62
0
6
ByLayer
370
-1
48
1
60
0
100
AcDbPoint
10
92.5967
20
-27.343428
30
0
39
0
210
0
220
0
230
1
50
360
0
ENDBLK
5
16E
100
AcDbEntity
8
0
100
AcDbBlockEnd
0
BLOCK
5
17F
100
AcDbEntity
8
0
100
AcDbBlockBegin
2
_U4
70
0
10
0
20
0
30
0
3
_U4
0
MTEXT
5
179
100
AcDbEntity
8
SK2
62
256
6
ByLayer
370
13
48
1
60
0
100
AcDbMText
10
16.106485
20
-26.310795
30
0
210
0
220
0
230
1
1
\W0.7145;140,60
40
3.5
41
0
44
1.084337
50
0
71
7
72
5
7
iso_b_vert
0
LINE
5
17A
100
AcDbEntity
8
SK2
62
256
6
ByLayer
370
13
48
1
60
0
100
AcDbLine
10
-48
20
-10.5875
30
0
11
-48
21
-29.343428
31
0
39
0
210
0
220
0
230
1
0
LINE
5
17B
100
AcDbEntity
8
SK2
62
256
6
ByLayer
370
13
48
1
60
0
100
AcDbLine
10
92.5967
20
-9.6375
30
0
11
92.5967
21
-29.343428
31
0
39
0
210
0
220
0
230
1
0
LINE
5
17C
100
AcDbEntity
8
SK2
62
256
6
ByLayer
370
13
48
1
60
0
100
AcDbLine
10
-48
20
-27.343428
30
0
11
92.5967
21
-27.343428
31
0
39
0
210
0
220
0
230
1
0
SOLID
5
17D
100
AcDbEntity
8
SK2
62
256
6
ByLayer
370
18
48
1
60
0
100
AcDbTrace
10
-48
20
-27.343428
30
0
11
-44.500002
21
-26.882645
31
0
12
-44.499998
22
-27.804212
32
0
13
-44.499998
23
-27.804212
33
0
39
0
210
0
220
0
230
1
0
SOLID
5
17E
100
AcDbEntity
8
SK2
62
256
6
ByLayer
370
18
48
1
60
0
100
AcDbTrace
10
92.5967
20
-27.343428
30
0
11
89.096702
21
-27.804212
31
0
12
89.096698
22
-26.882645
32
0
13
89.096698
23
-26.882645
33
0
39
0
210
0
220
0
230
1
0
ENDBLK
5
180
100
AcDbEntity
8
0
100
AcDbBlockEnd
0
ENDSEC
0
SECTION
2
ENTITIES
0
ARC
5
AE
100
AcDbEntity
8
1
62
256
6
ByLayer
370
18
48
1
60
0
100
AcDbCircle
39
0
10
1.486027
20
8.793064
30
0
40
0.800000000000001
210
0
220
0
230
1
100
AcDbArc
50
201.756637
51
270.03581
0
ARC
5
AF
100
AcDbEntity
8
1
62
256
6
ByLayer
370
18
48
1
60
0
100
AcDbCircle
39
0
10
1.486027
20
-8.793064
30
0
40
0.800000000000001
210
0
220
0
230
1
100
AcDbArc
50
89.96419
51
158.243363
0
ARC
5
B0
100
AcDbEntity
8
1
62
256
6
ByLayer
370
18
48
1
60
0
100
AcDbCircle
39
0
10
0
20
-8.2
30
0
40
0.799999999999995
210
0
220
0
230
1
100
AcDbArc
50
270
51
338.243363
0
ARC
5
B1
100
AcDbEntity
8
1
62
256
6
ByLayer
370
18
48
1
60
0
100
AcDbCircle
39
0
10
0
20
8.2
30
0
40
0.799999999999995
210
0
220
0
230
1
100
AcDbArc
50
21.756637
51
90
0
ELLIPSE
5
B2
100
AcDbEntity
8
1
62
256
6
ByLayer
370
18
48
1
60
0
100
AcDbEllipse
10
4.25
20
-7.8428
30
0
11
0.25
21
0
31
0
210
0
220
0
230
1
40
0.999999
41
1.57534081279144
42
3.10856244763048
0
ELLIPSE
5
B3
100
AcDbEntity
8
1
62
256
6
ByLayer
370
18
48
1
60
0
100
AcDbEllipse
10
4.25
20
7.8428
30
0
11
0.25
21
0
31
0
210
0
220
0
230
1
40
0.999999
41
-3.10856244763048
42
-1.56129048049206
0
POINT
5
70
100
AcDbEntity
8
80
62
256
6
ByLayer
370
18
48
1
60
0
100
AcDbPoint
10
0
20
0
30
0
39
0
210
0
220
0
230
1
50
360
0
POINT
5
72
100
AcDbEntity
8
81
62
256
6
ByLayer
370
18
48
1
60
0
100
AcDbPoint
10
95
20
0
30
0
39
0
210
0
220
0
230
1
50
360
0
POINT
5
74
100
AcDbEntity
8
1
62
256
6
ByLayer
370
18
48
1
60
1
100
AcDbPoint
10
92.5967
20
-8.05
30
0
39
0
210
0
220
0
230
1
50
360
0
POINT
5
76
100
AcDbEntity
8
1
62
256
6
ByLayer
370
18
48
1
60
1
100
AcDbPoint
10
-48
20
-9
30
0
39
0
210
0
220
0
230
1
50
360
0
POINT
5
77
100
AcDbEntity
8
1
62
256
6
ByLayer
370
18
48
1
60
1
100
AcDbPoint
10
18.1
20
8.05
30
0
39
0
210
0
220
0
230
1
50
360
0
POINT
5
78
100
AcDbEntity
8
1
62
256
6
ByLayer
370
18
48
1
60
1
100
AcDbPoint
10
92.5967
20
-8.05
30
0
39
0
210
0
220
0
230
1
50
360
0
POINT
5
79
100
AcDbEntity
8
1
62
256
6
ByLayer
370
18
48
1
60
1
100
AcDbPoint
10
-48
20
-9
30
0
39
0
210
0
220
0
230
1
50
360
0
POINT
5
7A
100
AcDbEntity
8
1
62
256
6
ByLayer
370
18
48
1
60
1
100
AcDbPoint
10
92.5967
20
-8.05
30
0
39
0
210
0
220
0
230
1
50
360
0
SPLINE
5
B4
100
AcDbEntity
8
SK1
62
256
6
ByLayer
370
18
48
1
60
0
100
AcDbSpline
70
4
71
3
72
12
73
8
40
0
40
0
40
0
40
0
40
0.249999999999998
40
0.249999999999998
40
0.499999999999995
40
0.499999999999995
40
1
40
1
40
1
40
1
41
1
10
-46.1
20
-7.40815101176361
30
0
41
1
10
-46.1
20
-7.40114643724499
30
0
41
1
10
-46.1041745743607
20
-7.3904627807128
30
0
41
1
10
-46.1170332025337
20
-7.36682431592956
30
0
41
1
10
-46.125516867034
20
-7.3540598331675
30
0
41
1
10
-46.1539367625989
20
-7.31557178964721
30
0
41
1
10
-46.1766247086701
20
-7.28981447769385
30
0
41
1
10
-46.2
20
-7.26680596501538
30
0
0
SPLINE
5
B5
100
AcDbEntity
8
SK1
62
256
6
ByLayer
370
18
48
1
60
0
100
AcDbSpline
70
4
71
3
72
8
73
4
40
0
40
0
40
0
40
0
40
1
40
1
40
1
40
1
41
1
10
-46.2
20
-7.26680596501538
30
0
41
1
10
-46.8016119381556
20
-6.67463384141712
30
0
41
1
10
-47.4020883037034
20
-6.08140018176525
30
0
41
1
10
-48
20
-5.48576906301929
30
0
0
SPLINE
5
B6
100
AcDbEntity
8
SK1
62
256
6
ByLayer
370
18
48
1
60
0
100
AcDbSpline
70
4
71
3
72
8
73
4
40
0
40
0
40
0
40
0
40
1
40
1
40
1
40
1
41
1
10
-48
20
-6.24929921259266
30
0
41
1
10
-47.4020914989604
20
-6.84492714826911
30
0
41
1
10
-46.8016144198256
20
-7.43816154826013
30
0
41
1
10
-46.2
20
-8.03033611458875
30
0
0
SPLINE
5
B7
100
AcDbEntity
8
SK1
62
256
6
ByLayer
370
18
48
1
60
0
100
AcDbSpline
70
4
71
3
72
12
73
8
40
0
40
0
40
0
40
0
40
0.500000000000007
40
0.500000000000007
40
0.750000000000003
40
0.750000000000003
40
1
40
1
40
1
40
1
41
1
10
-46.2
20
-8.03033611458878
30
0
41
1
10
-46.1766202203863
20
-8.05334904512591
30
0
41
1
10
-46.153872809496
20
-8.07518486957517
30
0
41
1
10
-46.12567398283
20
-8.10109736366039
30
0
41
1
10
-46.1170638079665
20
-8.10876431436779
30
0
41
1
10
-46.1042330689809
20
-8.11932863393486
30
0
41
1
10
-46.1
20
-8.12219814104736
30
0
41
1
10
-46.1
20
-8.12077915136544
30
0
0
SPLINE
5
B8
100
AcDbEntity
8
1
62
256
6
ByLayer
370
18
48
1
60
0
100
AcDbSpline
70
4
71
3
72
14
73
10
40
0
40
0
40
0
40
0
40
0.25
40
0.25
40
0.5
40
0.5
40
0.75
40
0.75
40
1
40
1
40
1
40
1
41
1
10
92.1185574595254
20
1.79819151021147
30
0
41
1
10
92.1170482528976
20
1.81835584520928
30
0
41
1
10
92.1208066699186
20
1.83889056984321
30
0
41
1
10
92.1401963594684
20
1.87474388436419
30
0
41
1
10
92.1558408749495
20
1.88982080657868
30
0
41
1
10
92.1913512493446
20
1.91115123751933
30
0
41
1
10
92.2114731685595
20
1.91801505312634
30
0
41
1
10
92.2519623108979
20
1.92603500493337
30
0
41
1
10
92.2727992894478
20
1.92733731953248
30
0
41
1
10
92.2935471039715
20
1.92664606215064
30
0
0
SPLINE
5
B9
100
AcDbEntity
8
1
62
256
6
ByLayer
370
18
48
1
60
0
100
AcDbSpline
70
4
71
3
72
38
73
34
40
0
40
0
40
0
40
0
40
0.107816757403755
40
0.107816757403755
40
0.161725136105633
40
0.161725136105633
40
0.215633514807511
40
0.215633514807511
40
0.26954189350939
40
0.26954189350939
40
0.323450272211268
40
0.323450272211268
40
0.431267029615026
40
0.431267029615026
40
0.485175408316905
40
0.485175408316905
40
0.539083787018785
40
0.539083787018785
40
0.592992165720664
40
0.592992165720664
40
0.646900544422544
40
0.646900544422544
40
0.700808923124424
40
0.700808923124424
40
0.754717301826303
40
0.754717301826303
40
0.862534059230063
40
0.862534059230063
40
0.916442437931942
40
0.916442437931942
40
0.970350816633822
40
0.970350816633822
40
1
40
1
40
1
40
1
41
1
10
18.3741270563104
20
-1.5200659740778
30
0
41
1
10
19.1531935978422
20
-1.91658014982107
30
0
41
1
10
19.9306613143029
20
-2.29928438479823
30
0
41
1
10
21.0915678168992
20
-2.85983872681251
30
0
41
1
10
21.4772782982513
20
-3.04509053790142
30
0
41
1
10
22.2479961517938
20
-3.40891598537925
30
0
41
1
10
22.6334319289394
20
-3.58673020290885
30
0
41
1
10
23.404067766927
20
-3.93504443651173
30
0
41
1
10
23.7892277163435
20
-4.10561366549638
30
0
41
1
10
24.5589296364676
20
-4.44004753436332
30
0
41
1
10
24.943061525121
20
-4.60455983616339
30
0
41
1
10
26.0978306616968
20
-5.08244975486178
30
0
41
1
10
26.8702600616722
20
-5.38143246087529
30
0
41
1
10
28.0301305758235
20
-5.8041665469147
30
0
41
1
10
28.4169517047287
20
-5.94071835542624
30
0
41
1
10
29.1937423952799
20
-6.20119751541188
30
0
41
1
10
29.5835621692036
20
-6.32575042400441
30
0
41
1
10
30.3641754207119
20
-6.56360953438815
30
0
41
1
10
30.7532874694375
20
-6.67635772554604
30
0
41
1
10
31.5286850748886
20
-6.88992123027461
30
0
41
1
10
31.9157459356863
20
-6.98985036717446
30
0
41
1
10
32.6893774076735
20
-7.17564929299533
30
0
41
1
10
33.0757359217576
20
-7.26174792320393
30
0
41
1
10
33.8471832355392
20
-7.42075238682881
30
0
41
1
10
34.232002148973
20
-7.49383468655057
30
0
41
1
10
35.385730436865
20
-7.69212408666212
30
0
41
1
10
36.1561567743278
20
-7.79528585259672
30
0
41
1
10
37.3112829654085
20
-7.90821977673679
30
0
41
1
10
37.6958382437503
20
-7.9389110155735
30
0
41
1
10
38.4668855602735
20
-7.9853320214508
30
0
41
1
10
38.8533185588584
20
-8.00115864661842
30
0
41
1
10
39.4532808311965
20
-8.01436003676994
30
0
41
1
10
39.6663715438804
20
-8.0168321020933
30
0
41
1
10
39.8796313677189
20
-8.0170608596747
30
0
0
SPLINE
5
BA
100
AcDbEntity
8
1
62
256
6
ByLayer
370
18
48
1
60
0
100
AcDbSpline
70
4
71
3
72
30
73
26
40
0
40
0
40
0
40
0
40
0.11679776684788
40
0.11679776684788
40
0.190397952943892
40
0.190397952943892
40
0.263998139039903
40
0.263998139039903
40
0.337598325135914
40
0.337598325135914
40
0.411198511231926
40
0.411198511231926
40
0.558398883423949
40
0.558398883423949
40
0.705599255615971
40
0.705599255615971
40
0.742399348663975
40
0.742399348663975
40
0.779199441711979
40
0.779199441711979
40
0.852799627807986
40
0.852799627807986
40
0.926399813903993
40
0.926399813903993
40
1
40
1
40
1
40
1
41
1
10
76.8219926675854
20
5.75246432965034
30
0
41
1
10
77.4395038736759
20
5.9750069249784
30
0
41
1
10
78.0554003326638
20
6.1821472082496
30
0
41
1
10
79.054834477181
20
6.49699413760496
30
0
41
1
10
79.4398489705976
20
6.61337187987311
30
0
41
1
10
80.2103343356141
20
6.83195501703608
30
0
41
1
10
80.5955279276948
20
6.93454965854338
30
0
41
1
10
81.3652654093981
20
7.12710551412758
30
0
41
1
10
81.7498742076147
20
7.21700408450695
30
0
41
1
10
82.5179977489605
20
7.38435574232813
30
0
41
1
10
82.901830585849
20
7.4614839497392
30
0
41
1
10
84.055823183993
20
7.67100396536389
30
0
41
1
10
84.8268972668028
20
7.78305532968304
30
0
41
1
10
86.369986743709
20
7.95164931279604
30
0
41
1
10
87.1461199590026
20
8.00642747759096
30
0
41
1
10
88.1206486373694
20
8.03804865514405
30
0
41
1
10
88.3155352766181
20
8.04250538583963
30
0
41
1
10
88.7045203326413
20
8.04764557140388
30
0
41
1
10
88.8986833815367
20
8.04832309949225
30
0
41
1
10
89.4813178976257
20
8.04468884012036
30
0
41
1
10
89.869757954579
20
8.03476240233707
30
0
41
1
10
90.6462199489278
20
8.0001904516229
30
0
41
1
10
91.0342221379051
20
7.97553826272551
30
0
41
1
10
91.8094190024035
20
7.9113083115937
30
0
41
1
10
92.1962693449133
20
7.87153616656977
30
0
41
1
10
92.583980837799
20
7.82471637103112
30
0
0
SPLINE
5
BB
100
AcDbEntity
8
1
62
256
6
ByLayer
370
18
48
1
60
0
100
AcDbSpline
70
4
71
3
72
16
73
12
40
0
40
0
40
0
40
0
40
0.279092962736512
40
0.279092962736512
40
0.725820963667583
40
0.725820963667583
40
0.837502963900351
40
0.837502963900351
40
0.949184964133115
40
0.949184964133115
40
1
40
1
40
1
40
1
41
1
10
66.8848198588876
20
-0.0192023060436384
30
0
41
1
10
68.0255898714126
20
-0.584627572731279
30
0
41
1
10
69.1621425169047
20
-1.14794302905278
30
0
41
1
10
72.1206450001117
20
-2.57926891850156
30
0
41
1
10
73.9439577538354
20
-3.4276537424673
30
0
41
1
10
76.2542389610024
20
-4.39065292896376
30
0
41
1
10
76.7153629254854
20
-4.57740664182131
30
0
41
1
10
77.6344477529761
20
-4.93736020819415
30
0
41
1
10
78.0927361378033
20
-5.11069689139435
30
0
41
1
10
78.7582262523014
20
-5.35250499409727
30
0
41
1
10
78.9661519698823
20
-5.42664365528279
30
0
41
1
10
79.1739261128117
20
-5.4992667971336
30
0
0
SPLINE
5
BC
100
AcDbEntity
8
1
62
256
6
ByLayer
370
13
48
1
60
0
100
AcDbSpline
70
4
71
3
72
16
73
12
40
0
40
0
40
0
40
0
40
0.161865126866687
40
0.161865126866687
40
0.580932563433334
40
0.580932563433334
40
0.685699422575
40
0.685699422575
40
0.790466281716665
40
0.790466281716665
40
1
40
1
40
1
40
1
41
1
10
79.1739251682672
20
-5.49926646698765
30
0
41
1
10
79.8794492065663
20
-5.74586777510706
30
0
41
1
10
80.5832255430346
20
-5.9749946903784
30
0
41
1
10
83.1070901406327
20
-6.72934517015742
30
0
41
1
10
84.9243873791834
20
-7.14587919960402
30
0
41
1
10
87.2186899197085
20
-7.47738842004409
30
0
41
1
10
87.6787125191673
20
-7.53421647385079
30
0
41
1
10
88.6018129977949
20
-7.62833698578459
30
0
41
1
10
89.0641303047957
20
-7.66552492085805
30
0
41
1
10
90.4484357049826
20
-7.74655119040142
30
0
41
1
10
91.3701463863077
20
-7.7601041190027
30
0
41
1
10
92.2933597273889
20
-7.73261461596272
30
0
0
SPLINE
5
BD
100
AcDbEntity
8
1
62
256
6
ByLayer
370
18
48
1
60
0
100
AcDbSpline
70
4
71
3
72
8
73
4
40
0
40
0
40
0
40
0
40
1
40
1
40
1
40
1
41
1
10
92.1704162937154
20
8.03851142431193
30
0
41
1
10
91.8946358923839
20
8.04586242026994
30
0
41
1
10
91.618752101242
20
8.04943203354173
30
0
41
1
10
91.3428415128785
20
8.04922254868953
30
0
0
SPLINE
5
BE
100
AcDbEntity
8
1
62
256
6
ByLayer
370
18
48
1
60
0
100
AcDbSpline
70
4
71
3
72
42
73
38
40
0
40
0
40
0
40
0
40
0.0401226617496522
40
0.0401226617496522
40
0.0721185730246637
40
0.0721185730246637
40
0.104114484299675
40
0.104114484299675
40
0.168106306849699
40
0.168106306849699
40
0.200102218124711
40
0.200102218124711
40
0.232098129399723
40
0.232098129399723
40
0.296089951949746
40
0.296089951949746
40
0.328085863224757
40
0.328085863224757
40
0.360081774499769
40
0.360081774499769
40
0.424073597049792
40
0.424073597049792
40
0.456069508324804
40
0.456069508324804
40
0.488065419599815
40
0.488065419599815
40
0.552057242149839
40
0.552057242149839
40
0.616049064699862
40
0.616049064699862
40
0.744032709799907
40
0.744032709799907
40
0.80802453234993
40
0.80802453234993
40
0.872016354899953
40
0.872016354899953
40
1
40
1
40
1
40
1
41
1
10
47.1526676921171
20
-7.64368558968386
30
0
41
1
10
46.5771074292644
20
-7.73312665354615
30
0
41
1
10
46.001897451358
20
-7.80688873672472
30
0
41
1
10
44.9673130903267
20
-7.910645471761
30
0
41
1
10
44.508051825816
20
-7.94647397297956
30
0
41
1
10
43.5883217332313
20
-7.99741288333377
30
0
41
1
10
43.1276154692631
20
-8.01250080977468
30
0
41
1
10
41.7485226190688
20
-8.02627806068355
30
0
41
1
10
40.831335890504
20
-7.99363339236939
30
0
41
1
10
39.4543634742183
20
-7.88284629339432
30
0
41
1
10
38.9951607876619
20
-7.83562390424882
30
0
41
1
10
38.0756522270542
20
-7.72076025543484
30
0
41
1
10
37.614892114791
20
-7.65302533020719
30
0
41
1
10
36.2352390486144
20
-7.42057780708063
30
0
41
1
10
35.3178501729472
20
-7.22652454127507
30
0
41
1
10
33.9408808409031
20
-6.88074362398348
30
0
41
1
10
33.481717709069
20
-6.75639656776576
30
0
41
1
10
32.5624068146097
20
-6.49011022737579
30
0
41
1
10
32.1017379316347
20
-6.34800010658537
30
0
41
1
10
30.7214332761361
20
-5.89812069414359
30
0
41
1
10
29.8039081218402
20
-5.5666032831632
30
0
41
1
10
28.4268423771196
20
-5.02883607317756
30
0
41
1
10
27.9677251527218
20
-4.84278799913233
30
0
41
1
10
27.0485979491293
20
-4.4581329476076
30
0
41
1
10
26.5881421118265
20
-4.25936442709272
30
0
41
1
10
25.207216353343
20
-3.64760038959878
30
0
41
1
10
24.2894527480021
20
-3.21972398508012
30
0
41
1
10
22.4533576350436
20
-2.33529942061753
30
0
41
1
10
21.5346893501746
20
-1.87842085102244
30
0
41
1
10
18.7715466827223
20
-0.482323231114577
30
0
41
1
10
16.9413069076045
20
0.471653547840447
30
0
41
1
10
14.1777423545424
20
1.86695848469407
30
0
41
1
10
13.2615550217833
20
2.32223336125352
30
0
41
1
10
11.4359357704043
20
3.2006146271176
30
0
41
1
10
10.5261219527256
20
3.62415468103632
30
0
41
1
10
7.79672144271561
20
4.83232388698005
30
0
41
1
10
5.9776050465257
20
5.5551624819081
30
0
41
1
10
4.13592335340817
20
6.15674801707607
30
0
0
SPLINE
5
BF
100
AcDbEntity
8
1
62
256
6
ByLayer
370
18
48
1
60
0
100
AcDbSpline
70
4
71
3
72
14
73
10
40
0
40
0
40
0
40
0
40
0.25
40
0.25
40
0.5
40
0.5
40
0.75
40
0.75
40
1
40
1
40
1
40
1
41
1
10
92.3021222091098
20
-7.63899274253563
30
0
41
1
10
92.3055610897131
20
-7.63834429777447
30
0
41
1
10
92.3083458721708
20
-7.63942124714958
30
0
41
1
10
92.312203707272
20
-7.64607713556646
30
0
41
1
10
92.3132196487447
20
-7.65174634770773
30
0
41
1
10
92.3123252401433
20
-7.66865056565146
30
0
41
1
10
92.3103433543407
20
-7.6798993747403
30
0
41
1
10
92.3034875352338
20
-7.7053408507677
30
0
41
1
10
92.2986798934747
20
-7.71932696131864
30
0
41
1
10
92.2933597273889
20
-7.73261461596269
30
0
0
SPLINE
5
C0
100
AcDbEntity
8
1
62
256
6
ByLayer
370
18
48
1
60
0
100
AcDbSpline
70
4
71
3
72
16
73
12
40
0
40
0
40
0
40
0
40
0.250000000000009
40
0.250000000000009
40
0.500000000000019
40
0.500000000000019
40
0.625000000000023
40
0.625000000000023
40
0.750000000000028
40
0.750000000000028
40
1
40
1
40
1
40
1
41
1
10
4.00000040823207
20
-4.41347543823352
30
0
41
1
10
4.00000040823204
20
-4.37407613708288
30
0
41
1
10
4.00362554818031
20
-4.3354299687243
30
0
41
1
10
4.0226031607973
20
-4.26063739527612
30
0
41
1
10
4.03823430437586
20
-4.22453641115249
30
0
41
1
10
4.07543349551801
20
-4.18630581053367
30
0
41
1
10
4.09035609345341
20
-4.17637603800361
30
0
41
1
10
4.12296392356467
20
-4.16565428836839
30
0
41
1
10
4.14035171890728
20
-4.16488517688555
30
0
41
1
10
4.19114622749967
20
-4.17337308895731
30
0
41
1
10
4.22269078237537
20
-4.19205828005903
30
0
41
1
10
4.25113644912949
20
-4.21527718739765
30
0
0
SPLINE
5
C1
100
AcDbEntity
8
1
62
256
6
ByLayer
370
18
48
1
60
0
100
AcDbSpline
70
4
71
3
72
106
73
102
40
0
40
0
40
0
40
0
40
0.0075145560691381
40
0.0075145560691381
40
0.0252375104250461
40
0.0252375104250461
40
0.0429604647809541
40
0.0429604647809541
40
0.0606834191368621
40
0.0606834191368621
40
0.0784063734927701
40
0.0784063734927701
40
0.113852282204587
40
0.113852282204587
40
0.131575236560495
40
0.131575236560495
40
0.149298190916403
40
0.149298190916403
40
0.167021145272311
40
0.167021145272311
40
0.18474409962822
40
0.18474409962822
40
0.202467053984128
40
0.202467053984128
40
0.220190008340036
40
0.220190008340036
40
0.255635917051853
40
0.255635917051853
40
0.273358871407761
40
0.273358871407761
40
0.291081825763669
40
0.291081825763669
40
0.326527734475486
40
0.326527734475486
40
0.344250688831394
40
0.344250688831394
40
0.361973643187302
40
0.361973643187302
40
0.37969659754321
40
0.37969659754321
40
0.397419551899118
40
0.397419551899118
40
0.415142506255027
40
0.415142506255027
40
0.432865460610935
40
0.432865460610935
40
0.450588414966843
40
0.450588414966843
40
0.468311369322752
40
0.468311369322752
40
0.503757278034568
40
0.503757278034568
40
0.521480232390476
40
0.521480232390476
40
0.539203186746385
40
0.539203186746385
40
0.556926141102293
40
0.556926141102293
40
0.574649095458201
40
0.574649095458201
40
0.59237204981411
40
0.59237204981411
40
0.610095004170018
40
0.610095004170018
40
0.627817958525926
40
0.627817958525926
40
0.645540912881834
40
0.645540912881834
40
0.663263867237743
40
0.663263867237743
40
0.680986821593651
40
0.680986821593651
40
0.698709775949559
40
0.698709775949559
40
0.716432730305468
40
0.716432730305468
40
0.734155684661376
40
0.734155684661376
40
0.751878639017284
40
0.751878639017284
40
0.769601593373192
40
0.769601593373192
40
0.787324547729101
40
0.787324547729101
40
0.805047502085009
40
0.805047502085009
40
0.822770456440917
40
0.822770456440917
40
0.840493410796825
40
0.840493410796825
40
0.858216365152734
40
0.858216365152734
40
0.875939319508642
40
0.875939319508642
40
0.893662273864551
40
0.893662273864551
40
0.929108182576367
40
0.929108182576367
40
0.964554091288183
40
0.964554091288183
40
1
40
1
40
1
40
1
41
1
10
76.8361451064706
20
-5.75072120483037
30
0
41
1
10
76.6898198053241
20
-5.79792052293061
30
0
41
1
10
76.5434907516247
20
-5.84441550647176
30
0
41
1
10
76.0520355856438
20
-5.99814650185462
30
0
41
1
10
75.7070464236395
20
-6.10229321106448
30
0
41
1
10
75.0159576812861
20
-6.30061981545302
30
0
41
1
10
74.6695915090556
20
-6.39486039500682
30
0
41
1
10
73.97767757744
20
-6.57216869865272
30
0
41
1
10
73.6320117287514
20
-6.65517104780386
30
0
41
1
10
72.9413439996288
20
-6.81302416746487
30
0
41
1
10
72.5965119739449
20
-6.88782585223089
30
0
41
1
10
71.5618105576501
20
-7.096556498594
30
0
41
1
10
70.8715048578836
20
-7.21372320601265
30
0
41
1
10
69.8354418993879
20
-7.35949566920138
30
0
41
1
10
69.4901370693551
20
-7.40300083903665
30
0
41
1
10
68.798531763778
20
-7.47817363632737
30
0
41
1
10
68.4521923688039
20
-7.50961093048011
30
0
41
1
10
67.7605793915317
20
-7.56180000953077
30
0
41
1
10
67.4150227130826
20
-7.58266775345135
30
0
41
1
10
66.7244527241205
20
-7.61367969996576
30
0
41
1
10
66.3795541616424
20
-7.62367224737662
30
0
41
1
10
65.6897639240561
20
-7.63143093687219
30
0
41
1
10
65.3446922432047
20
-7.62950306206992
30
0
41
1
10
64.6542079729655
20
-7.61532037471054
30
0
41
1
10
64.3088082120476
20
-7.60301478866165
30
0
41
1
10
63.2719937741601
20
-7.5487844457158
30
0
41
1
10
62.5794505341872
20
-7.48811230693832
30
0
41
1
10
61.5424392893299
20
-7.36735796549775
30
0
41
1
10
61.1969675482792
20
-7.32189057615133
30
0
41
1
10
60.5063538015455
20
-7.2194547219442
30
0
41
1
10
60.1612022317628
20
-7.16229013763504
30
0
41
1
10
59.1264632392859
20
-6.97684077184249
30
0
41
1
10
58.4359436559013
20
-6.83390482043342
30
0
41
1
10
57.398047936337
20
-6.58675530165365
30
0
41
1
10
57.0515557047238
20
-6.49950843723332
30
0
41
1
10
56.3598447588905
20
-6.31588447964225
30
0
41
1
10
56.0142903844393
20
-6.21952634690183
30
0
41
1
10
55.323292548799
20
-6.01788989851568
30
0
41
1
10
54.9778892449356
20
-5.912383009438
30
0
41
1
10
54.2873002686844
20
-5.69324215628973
30
0
41
1
10
53.9421490638685
20
-5.57991452286259
30
0
41
1
10
53.2521573644378
20
-5.3442518660496
30
0
41
1
10
52.9071376175892
20
-5.22221766036461
30
0
41
1
10
52.2161401849221
20
-4.97078035309414
30
0
41
1
10
51.8702533019891
20
-4.841212470182
30
0
41
1
10
51.1779918066475
20
-4.57566651938814
30
0
41
1
10
50.8315062597063
20
-4.43938600463468
30
0
41
1
10
50.1401089348861
20
-4.1599600599765
30
0
41
1
10
49.794870239436
20
-4.01662805820862
30
0
41
1
10
48.7588663473657
20
-3.58003159762845
30
0
41
1
10
48.0684831826084
20
-3.27973913368379
30
0
41
1
10
47.0330955644271
20
-2.81315006157377
30
0
41
1
10
46.6879792078747
20
-2.65478906232752
30
0
41
1
10
45.9968425951598
20
-2.33564524991158
30
0
41
1
10
45.6509081621691
20
-2.17444535343634
30
0
41
1
10
44.958233610401
20
-1.84868329660077
30
0
41
1
10
44.6121242918031
20
-1.68440440709085
30
0
41
1
10
43.9209474481598
20
-1.35332731792801
30
0
41
1
10
43.5758812255691
20
-1.18631798008008
30
0
41
1
10
42.8855325009822
20
-0.851987427182451
30
0
41
1
10
42.5403747981686
20
-0.684408782939016
30
0
41
1
10
41.8499193299262
20
-0.348621463571959
30
0
41
1
10
41.5045818420699
20
-0.180482594609828
30
0
41
1
10
40.8140017039894
20
0.156686847130004
30
0
41
1
10
40.4688728274553
20
0.325983502451919
30
0
41
1
10
39.7775606992089
20
0.663221497141393
30
0
41
1
10
39.4311579809115
20
0.831431124855584
30
0
41
1
10
38.7386621929342
20
1.16564797746835
30
0
41
1
10
38.3927462088221
20
1.33179355462991
30
0
41
1
10
37.7016680543056
20
1.66253834574846
30
0
41
1
10
37.3566618425878
20
1.82738951545181
30
0
41
1
10
36.6664386694225
20
2.15312926076425
30
0
41
1
10
36.3212006511845
20
2.3138028993651
30
0
41
1
10
35.63051720381
20
2.63154236890858
30
0
41
1
10
35.2851174648565
20
2.78882218661005
30
0
41
1
10
34.594184937234
20
3.09982079600144
30
0
41
1
10
34.248815252654
20
3.25386521443505
30
0
41
1
10
33.5569528729587
20
3.55601436696944
30
0
41
1
10
33.2102794577943
20
3.7040398344345
30
0
41
1
10
32.5180378883055
20
3.99466380395077
30
0
41
1
10
32.1721998955088
20
4.13718897679095
30
0
41
1
10
31.4811274587331
20
4.41627515970183
30
0
41
1
10
31.1360284794709
20
4.5529262542689
30
0
41
1
10
30.4456863077021
20
4.81778844874074
30
0
41
1
10
30.1003756858973
20
4.94659934513757
30
0
41
1
10
29.4095102958084
20
5.19754982387224
30
0
41
1
10
29.0639497110597
20
5.3195288524027
30
0
41
1
10
28.3724414902197
20
5.55538537468038
30
0
41
1
10
28.0265100916404
20
5.66887238317992
30
0
41
1
10
27.3339830415754
20
5.88815778752917
30
0
41
1
10
26.9877937864049
20
5.99381337656681
30
0
41
1
10
26.2966428406867
20
6.19569925405418
30
0
41
1
10
25.9515189780707
20
6.29203260292269
30
0
41
1
10
25.262143963536
20
6.47411558675492
30
0
41
1
10
24.9179285786015
20
6.5600263938575
30
0
41
1
10
23.8864085429914
20
6.80523991312432
30
0
41
1
10
23.1988572146488
20
6.9485023090653
30
0
41
1
10
21.8235194869149
20
7.19382271637042
30
0
41
1
10
21.1364213177622
20
7.29746806328046
30
0
41
1
10
19.758139535136
20
7.45882566647143
30
0
41
1
10
19.0670881907429
20
7.51826311654517
30
0
41
1
10
18.3741270563104
20
7.55584010098073
30
0
0
SPLINE
5
C2
100
AcDbEntity
8
1
62
256
6
ByLayer
370
18
48
1
60
0
100
AcDbSpline
70
4
71
3
72
34
73
30
40
0
40
0
40
0
40
0
40
0.0625000000000002
40
0.0625000000000002
40
0.125
40
0.125
40
0.187500000000001
40
0.187500000000001
40
0.250000000000001
40
0.250000000000001
40
0.312500000000001
40
0.312500000000001
40
0.375000000000001
40
0.375000000000001
40
0.437500000000001
40
0.437500000000001
40
0.500000000000001
40
0.500000000000001
40
0.625000000000001
40
0.625000000000001
40
0.687500000000001
40
0.687500000000001
40
0.750000000000001
40
0.750000000000001
40
0.875
40
0.875
40
0.9375
40
0.9375
40
1
40
1
40
1
40
1
41
1
10
93.4582909256403
20
-2.58273553804454
30
0
41
1
10
93.4536430510437
20
-2.62950290749842
30
0
41
1
10
93.4465671518997
20
-2.68013919957616
30
0
41
1
10
93.427528794148
20
-2.78731464293841
30
0
41
1
10
93.4158002511454
20
-2.84269789310267
30
0
41
1
10
93.3880864889273
20
-2.95696433424831
30
0
41
1
10
93.3718912772306
20
-3.01651489517889
30
0
41
1
10
93.3362310585388
20
-3.13551963502368
30
0
41
1
10
93.3168455752121
20
-3.1948633385349
30
0
41
1
10
93.2751760585278
20
-3.31326664457276
30
0
41
1
10
93.2527799107365
20
-3.37253220612123
30
0
41
1
10
93.2068341673847
20
-3.48663837084328
30
0
41
1
10
93.1831030421664
20
-3.54202616365137
30
0
41
1
10
93.1342389063479
20
-3.64965391385459
30
0
41
1
10
93.1092549224827
20
-3.70151709046866
30
0
41
1
10
93.0594559097395
20
-3.79925708898281
30
0
41
1
10
93.034465994782
20
-3.84552036500239
30
0
41
1
10
92.9592585976387
20
-3.9767888932742
30
0
41
1
10
92.909257243424
20
-4.05322602722498
30
0
41
1
10
92.8390719110471
20
-4.14587762170135
30
0
41
1
10
92.81630902159
20
-4.17338502183168
30
0
41
1
10
92.772012960196
20
-4.22174399179039
30
0
41
1
10
92.7503520436682
20
-4.24269733929484
30
0
41
1
10
92.688204220771
20
-4.2943177945078
30
0
41
1
10
92.6510029863398
20
-4.31372343265133
30
0
41
1
10
92.6015336045706
20
-4.31960274724887
30
0
41
1
10
92.5860933408372
20
-4.31754247241034
30
0
41
1
10
92.5584047855002
20
-4.30529787128404
30
0
41
1
10
92.5460173388198
20
-4.29516093559261
30
0
41
1
10
92.5351221303193
20
-4.2808571239471
30
0
0
SPLINE
5
C3
100
AcDbEntity
8
1
62
256
6
ByLayer
370
18
48
1
60
0
100
AcDbSpline
70
4
71
3
72
40
73
36
40
0
40
0
40
0
40
0
40
0.249999999999988
40
0.249999999999988
40
0.374999999999984
40
0.374999999999984
40
0.499999999999981
40
0.499999999999981
40
0.562499999999977
40
0.562499999999977
40
0.624999999999972
40
0.624999999999972
40
0.687499999999967
40
0.687499999999967
40
0.749999999999963
40
0.749999999999963
40
0.812499999999958
40
0.812499999999958
40
0.843749999999956
40
0.843749999999956
40
0.851562499999954
40
0.851562499999954
40
0.859374999999952
40
0.859374999999952
40
0.863281249999953
40
0.863281249999953
40
0.867187499999954
40
0.867187499999954
40
0.871093749999956
40
0.871093749999956
40
0.874999999999957
40
0.874999999999957
40
0.937499999999978
40
0.937499999999978
40
1
40
1
40
1
40
1
41
1
10
84.6835688903911
20
2.62111785160366
30
0
41
1
10
85.3414022804901
20
2.07053449450882
30
0
41
1
10
86.03059684116
20
1.59292178891826
30
0
41
1
10
87.1169043528325
20
0.99869532197647
30
0
41
1
10
87.4813163465569
20
0.824545413352553
30
0
41
1
10
88.2143762154012
20
0.525547681642905
30
0
41
1
10
88.5830707793223
20
0.400268986783061
30
0
41
1
10
89.1399811460448
20
0.255636059250463
30
0
41
1
10
89.3262508146167
20
0.214506412427625
30
0
41
1
10
89.7001601936739
20
0.147576601000623
30
0
41
1
10
89.8875332355327
20
0.121880358495275
30
0
41
1
10
90.2587375438843
20
0.0877313858441653
30
0
41
1
10
90.4431487672689
20
0.0791803358748098
30
0
41
1
10
90.8093841675689
20
0.080593607356036
30
0
41
1
10
90.9914987628671
20
0.0905705781903237
30
0
41
1
10
91.3515155111324
20
0.131041020411601
30
0
41
1
10
91.5290798296558
20
0.161488268505678
30
0
41
1
10
91.7901340244973
20
0.223988003383681
30
0
41
1
10
91.8762889977575
20
0.247627378838644
30
0
41
1
10
91.9826256577778
20
0.280940630547974
30
0
41
1
10
92.0038153489623
20
0.287818116369408
30
0
41
1
10
92.0461768930778
20
0.30161617977771
30
0
41
1
10
92.0667034650025
20
0.309998920483736
30
0
41
1
10
92.0916079688681
20
0.333350278710867
30
0
41
1
10
92.0988788676749
20
0.342715611780307
30
0
41
1
10
92.109901512486
20
0.364508144483551
30
0
41
1
10
92.1134052321555
20
0.377085782726596
30
0
41
1
10
92.1169382374383
20
0.403520985784894
30
0
41
1
10
92.1175830112606
20
0.417272677429054
30
0
41
1
10
92.1199818890919
20
0.444279948791689
30
0
41
1
10
92.1211398286788
20
0.457797787038658
30
0
41
1
10
92.1401278989408
20
0.687839542458732
30
0
41
1
10
92.147517480433
20
0.907586578682412
30
0
41
1
10
92.1451016326446
20
1.35109564214869
30
0
41
1
10
92.1352678583216
20
1.57492580683908
30
0
41
1
10
92.1185574595253
20
1.79819151021147
30
0
0
SPLINE
5
C4
100
AcDbEntity
8
1
62
256
6
ByLayer
370
18
48
1
60
0
100
AcDbSpline
70
4
71
3
72
34
73
30
40
0
40
0
40
0
40
0
40
0.0625000000000004
40
0.0625000000000004
40
0.125000000000001
40
0.125000000000001
40
0.187500000000001
40
0.187500000000001
40
0.218750000000002
40
0.218750000000002
40
0.250000000000002
40
0.250000000000002
40
0.375000000000003
40
0.375000000000003
40
0.406250000000003
40
0.406250000000003
40
0.437500000000003
40
0.437500000000003
40
0.500000000000004
40
0.500000000000004
40
0.625000000000009
40
0.625000000000009
40
0.687500000000009
40
0.687500000000009
40
0.750000000000009
40
0.750000000000009
40
0.875000000000005
40
0.875000000000005
40
1
40
1
40
1
40
1
41
1
10
84.6835688903911
20
2.62111785160366
30
0
41
1
10
84.6762173665607
20
2.38132021837527
30
0
41
1
10
84.686239428192
20
2.13799328474903
30
0
41
1
10
84.7408398983272
20
1.6443195810308
30
0
41
1
10
84.7861048127621
20
1.39213180130952
30
0
41
1
10
84.9067188969119
20
0.898736379204479
30
0
41
1
10
84.9820401171751
20
0.655641975719902
30
0
41
1
10
85.1151521852208
20
0.295831499893637
30
0
41
1
10
85.1628885933771
20
0.176702425791717
30
0
41
1
10
85.264799695393
20
-0.0600105746651707
30
0
41
1
10
85.3191125770991
20
-0.17783275140556
30
0
41
1
10
85.6021755030568
20
-0.755500172894529
30
0
41
1
10
85.8670926450287
20
-1.18760454999492
30
0
41
1
10
86.2337375251158
20
-1.70002273745951
30
0
41
1
10
86.308877141457
20
-1.80109287732057
30
0
41
1
10
86.4625821964905
20
-2.00055874859379
30
0
41
1
10
86.5413230012042
20
-2.09916048078193
30
0
41
1
10
86.7807204368371
20
-2.3891017239736
30
0
41
1
10
86.9446696933538
20
-2.57489592802739
30
0
41
1
10
87.4479035346856
20
-3.11265185059094
30
0
41
1
10
87.7987621657652
20
-3.44466285934098
30
0
41
1
10
88.3436930873995
20
-3.91054362883059
30
0
41
1
10
88.5284251182508
20
-4.06051361987556
30
0
41
1
10
88.9035547559732
20
-4.35068759099485
30
0
41
1
10
89.0943831885203
20
-4.49117468803996
30
0
41
1
10
89.6705607814253
20
-4.8960298185759
30
0
41
1
10
90.0600193106678
20
-5.14445406261882
30
0
41
1
10
90.8480873412462
20
-5.60449535746528
30
0
41
1
10
91.2467158687047
20
-5.81603588108123
30
0
41
1
10
91.6495406245389
20
-6.0106982646345
30
0
0
SPLINE
5
C5
100
AcDbEntity
8
1
62
256
6
ByLayer
370
18
48
1
60
0
100
AcDbSpline
70
4
71
3
72
8
73
4
40
0
40
0
40
0
40
0
40
1
40
1
40
1
40
1
41
1
10
94.8909193407609
20
1.84181685570209
30
0
41
1
10
94.9269361127363
20
1.3048658293234
30
0
41
1
10
94.9531738738872
20
0.76846854627675
30
0
41
1
10
94.9696236394606
20
0.232625515330085
30
0
0
SPLINE
5
C6
100
AcDbEntity
8
1
62
256
6
ByLayer
370
18
48
1
60
0
100
AcDbSpline
70
4
71
3
72
38
73
34
40
0
40
0
40
0
40
0
40
0.0771699806857587
40
0.0771699806857587
40
0.18464604715606
40
0.18464604715606
40
0.238384080391211
40
0.238384080391211
40
0.265253097008786
40
0.27197035116318
40
0.27197035116318
40
0.278687605317574
40
0.278687605317574
40
0.292122113626361
40
0.292122113626361
40
0.298839367780755
40
0.298839367780755
40
0.305556621935149
40
0.305556621935149
40
0.318991130243937
40
0.318991130243937
40
0.345860146861512
40
0.399598180096663
40
0.399598180096663
40
0.507074246566965
40
0.507074246566965
40
0.722026379507568
40
0.722026379507568
40
0.82950244597787
40
0.82950244597787
40
0.936978512448171
40
0.936978512448171
40
1
40
1
40
1
40
1
41
1
10
18.3741270563104
20
-1.49104610097748
30
0
41
1
10
18.3741270563104
20
-1.53661203210569
30
0
41
1
10
18.3741270563104
20
-1.58716579153281
30
0
41
1
10
18.3741270563104
20
-1.72007457570035
30
0
41
1
10
18.3741270563104
20
-1.80703150165294
30
0
41
1
10
18.3741270563104
20
-1.95078069655563
30
0
41
1
10
18.3741270563104
20
-2.00095821644484
30
0
41
1
10
18.3741270563104
20
-2.07960551001398
30
0
41
1
10
18.3741270563104
20
-2.11307062566712
30
0
41
1
10
18.3741270563104
20
-2.14739099180286
30
0
41
1
10
18.3741270563104
20
-2.16118803975488
30
0
41
1
10
18.3741270563104
20
-2.1675256061778
30
0
41
1
10
18.3741270563104
20
-2.19160314265744
30
0
41
1
10
18.3741270563104
20
-2.2154164940134
30
0
41
1
10
18.3741270563104
20
-2.25848356650832
30
0
41
1
10
18.3741270563104
20
-2.27443962340902
30
0
41
1
10
18.3741270563104
20
-2.30561285530101
30
0
41
1
10
18.3741270563104
20
-2.32121804348955
30
0
41
1
10
18.3741270563104
20
-2.36808939090562
30
0
41
1
10
18.3741270563104
20
-2.39941324285604
30
0
41
1
10
18.3741270563104
20
-2.49359578544252
30
0
41
1
10
18.3741270563104
20
-2.68273887181334
30
0
41
1
10
18.3741270563104
20
-2.87422039890401
30
0
41
1
10
18.3741270563104
20
-3.26032764183989
30
0
41
1
10
18.3741270563105
20
-3.52259354956365
30
0
41
1
10
18.3741270563105
20
-4.31715659456731
30
0
41
1
10
18.3741270563106
20
-4.85531251371725
30
0
41
1
10
18.3741270563106
20
-5.67555858345418
30
0
41
1
10
18.3741270563104
20
-5.95115318001137
30
0
41
1
10
18.3741270563104
20
-6.50690272553985
30
0
41
1
10
18.3741270563104
20
-6.78800850414777
30
0
41
1
10
18.3741270563104
20
-7.23029389425832
30
0
41
1
10
18.3741270563104
20
-7.39330583400246
30
0
41
1
10
18.3741270563104
20
-7.55584010098102
30
0
0
SPLINE
5
C7
100
AcDbEntity
8
1
62
256
6
ByLayer
370
18
48
1
60
0
100
AcDbSpline
70
4
71
3
72
8
73
4
40
0
40
0
40
0
40
0
40
1
40
1
40
1
40
1
41
1
10
94.999951682836
20
0.0642679875825252
30
0
41
1
10
95.0000161080129
20
0.0214211388731655
30
0
41
1
10
95.0000161021961
20
-0.0214250074486984
30
0
41
1
10
94.999951682836
20
-0.064267987582582
30
0
0
SPLINE
5
C8
100
AcDbEntity
8
1
62
256
6
ByLayer
370
13
48
1
60
0
100
AcDbSpline
70
4
71
3
72
28
73
24
40
0
40
0
40
0
40
0
40
0.045596798290447
40
0.045596798290447
40
0.151641598480398
40
0.151641598480398
40
0.257686398670348
40
0.257686398670348
40
0.363731198860299
40
0.363731198860299
40
0.416753598955274
40
0.416753598955274
40
0.469775999050249
40
0.469775999050249
40
0.5758207992402
40
0.5758207992402
40
0.68186559943015
40
0.68186559943015
40
0.734887999525125
40
0.734887999525125
40
0.7879103996201
40
0.7879103996201
40
1
40
1
40
1
40
1
41
1
10
4.2506225073779
20
-7.59280608045324
30
0
41
1
10
4.25062862226793
20
-7.59277757635243
30
0
41
1
10
4.25063482414961
20
-7.59018518133126
30
0
41
1
10
4.25065568292681
20
-7.57303961034958
30
0
41
1
10
4.25067069780806
20
-7.54726978522041
30
0
41
1
10
4.25070214796997
20
-7.46825255878895
30
0
41
1
10
4.2507186125153
20
-7.41482531275852
30
0
41
1
10
4.2507529163077
20
-7.28163442070843
30
0
41
1
10
4.25077079843749
20
-7.20180036069917
30
0
41
1
10
4.25079880391698
20
-7.06204797573994
30
0
41
1
10
4.25080832802951
20
-7.01214344827446
30
0
41
1
10
4.25082758460238
20
-6.90659356426102
30
0
41
1
10
4.25083733762318
20
-6.85084788103441
30
0
41
1
10
4.25086692847034
20
-6.67484391834094
30
0
41
1
10
4.25088710407596
20
-6.54584179256557
30
0
41
1
10
4.25092798327501
20
-6.26470183820857
30
0
41
1
10
4.25094868787937
20
-6.11256497299621
30
0
41
1
10
4.25097971186128
20
-5.86659050506776
30
0
41
1
10
4.25099007331113
20
-5.78139473083962
30
0
41
1
10
4.25101055007877
20
-5.6061091394335
30
0
41
1
10
4.25102064288183
20
-5.51623063947872
30
0
41
1
10
4.25107013843572
20
-5.05588718694523
30
0
41
1
10
4.25110675292461
20
-4.65291851369943
30
0
41
1
10
4.25113644912943
20
-4.2152771887319
30
0
0
SPLINE
5
C9
100
AcDbEntity
8
1
62
256
6
ByLayer
370
18
48
1
60
0
100
AcDbSpline
70
4
71
3
72
18
73
14
40
0
40
0
40
0
40
0
40
0.0108680415378706
40
0.0108680415378706
40
0.554271273403581
40
0.554271273403581
40
0.690122081370005
40
0.690122081370005
40
0.75804748535322
40
0.75804748535322
40
0.825972889336434
40
0.825972889336434
40
1
40
1
40
1
40
1
41
1
10
42.9059805502906
20
-7.61452723409732
30
0
41
1
10
42.8693138318143
20
-7.61488747316801
30
0
41
1
10
42.8326506152125
20
-7.61518460176953
30
0
41
1
10
40.9629925686857
20
-7.62712103472396
30
0
41
1
10
39.1381256562211
20
-7.48070681972766
30
0
41
1
10
36.8404191599695
20
-7.10739934327296
30
0
41
1
10
36.3799992712354
20
-7.02326539320077
30
0
41
1
10
35.6876315357437
20
-6.88308279479645
30
0
41
1
10
35.4563746617771
20
-6.8339756197189
30
0
41
1
10
34.9947200797433
20
-6.73148526363752
30
0
41
1
10
34.764191480766
20
-6.67807923731095
30
0
41
1
10
33.9439289398659
20
-6.48034609434359
30
0
41
1
10
33.3556011503662
20
-6.32433737447278
30
0
41
1
10
32.7682102612912
20
-6.1555363626438
30
0
0
SPLINE
5
CA
100
AcDbEntity
8
1
62
256
6
ByLayer
370
13
48
1
60
0
100
AcDbSpline
70
4
71
3
72
24
73
20
40
0
40
0
40
0
40
0
40
0.0512353706882899
40
0.0512353706882899
40
0.336278698510491
40
0.336278698510491
40
0.371909114488266
40
0.371909114488266
40
0.407539530466042
40
0.407539530466042
40
0.478800362421596
40
0.478800362421596
40
0.621322026332703
40
0.621322026332703
40
0.906365354154918
40
0.906365354154918
40
0.977626186110472
40
0.977626186110472
40
1
40
1
40
1
40
1
41
1
10
32.7682102610251
20
-6.15553636256735
30
0
41
1
10
32.4385310848562
20
-6.06079505902892
30
0
41
1
10
32.1091470445985
20
-5.9620240158886
30
0
41
1
10
29.94836814047
20
-5.28845460169734
30
0
41
1
10
28.122266687988
20
-4.59778772953254
30
0
41
1
10
26.049482234119
20
-3.72316231881487
30
0
41
1
10
25.8189071172417
20
-3.62464161830715
30
0
41
1
10
25.3571769645831
20
-3.42501708431408
30
0
41
1
10
25.1258680734996
20
-3.32384524689547
30
0
41
1
10
24.433547065174
20
-3.01783474277829
30
0
41
1
10
23.9733922424461
20
-2.8101900728208
30
0
41
1
10
22.595933107181
20
-2.17876659544825
30
0
41
1
10
21.6817296122221
20
-1.74630627253487
30
0
41
1
10
18.9433953603784
20
-0.431183123409966
30
0
41
1
10
17.1236493645007
20
0.469478086790559
30
0
41
1
10
14.8295047804349
20
1.56903990207593
30
0
41
1
10
14.3697005553173
20
1.78763288420882
30
0
41
1
10
13.7638460721579
20
2.07226923213096
30
0
41
1
10
13.6188961970162
20
2.14010890828447
30
0
41
1
10
13.4738731700218
20
2.20769487166149
30
0
0
SPLINE
5
CB
100
AcDbEntity
8
1
62
256
6
ByLayer
370
18
48
1
60
0
100
AcDbSpline
70
4
71
3
72
10
73
6
40
0
40
0
40
0
40
0
40
0.5
40
0.5
40
1
40
1
40
1
40
1
41
1
10
94.9696236394607
20
-0.232625515329886
30
0
41
1
10
94.9703248936088
20
-0.209782506015728
30
0
41
1
10
94.9738366385342
20
-0.182951386423014
30
0
41
1
10
94.9844043271513
20
-0.125645777168557
30
0
41
1
10
94.9913846425896
20
-0.095603198469064
30
0
41
1
10
94.999951682836
20
-0.064267987582582
30
0
0
SPLINE
5
CC
100
AcDbEntity
8
1
62
256
6
ByLayer
370
18
48
1
60
0
100
AcDbSpline
70
4
71
3
72
10
73
6
40
0
40
0
40
0
40
0
40
0.5
40
0.5
40
1
40
1
40
1
40
1
41
1
10
92.5839808377966
20
7.82471637103288
30
0
41
1
10
92.5074509431894
20
7.88232747818452
30
0
41
1
10
92.4338207980794
20
7.92971988263128
30
0
41
1
10
92.2958724116831
20
8.00111205894166
30
0
41
1
10
92.2311375480776
20
8.02548253717555
30
0
41
1
10
92.1704162937154
20
8.03851142431191
30
0
0
SPLINE
5
CD
100
AcDbEntity
8
1
62
256
6
ByLayer
370
18
48
1
60
0
100
AcDbSpline
70
4
71
3
72
8
73
4
40
0
40
0
40
0
40
0
40
1
40
1
40
1
40
1
41
1
10
92.293359727389
20
-7.73261461596275
30
0
41
1
10
92.2524685606858
20
-7.83474445408694
30
0
41
1
10
92.2114851225472
20
-7.93670900460356
30
0
41
1
10
92.1704162937154
20
-8.03851142431193
30
0
0
SPLINE
5
CE
100
AcDbEntity
8
1
62
256
6
ByLayer
370
18
48
1
60
0
100
AcDbSpline
70
4
71
3
72
14
73
10
40
0
40
0
40
0
40
0
40
0.25
40
0.25
40
0.5
40
0.5
40
0.75
40
0.75
40
1
40
1
40
1
40
1
41
1
10
92.5839808377908
20
-7.82471637105391
30
0
41
1
10
92.7635885082788
20
-7.3189807258662
30
0
41
1
10
92.9467063729168
20
-6.81538194459006
30
0
41
1
10
93.3192859921907
20
-5.81181049926195
30
0
41
1
10
93.5087792537604
20
-5.31185683876649
30
0
41
1
10
93.8937389591873
20
-4.31518469331317
30
0
41
1
10
94.0892381202159
20
-3.81848482707386
30
0
41
1
10
94.4858885781661
20
-2.82800893646214
30
0
41
1
10
94.6870271857214
20
-2.33422679250577
30
0
41
1
10
94.8909193407609
20
-1.84181685570212
30
0
0
SPLINE
5
CF
100
AcDbEntity
8
1
62
256
6
ByLayer
370
18
48
1
60
0
100
AcDbSpline
70
4
71
3
72
18
73
14
40
0
40
0
40
0
40
0
40
0.25
40
0.25
40
0.374999999999999
40
0.374999999999999
40
0.499999999999999
40
0.499999999999999
40
0.749999999999998
40
0.749999999999998
40
0.874999999999999
40
0.874999999999999
40
1
40
1
40
1
40
1
41
1
10
91.6495406245389
20
-6.01069826463453
30
0
41
1
10
91.6482240848663
20
-6.29460659044543
30
0
41
1
10
91.6603610887254
20
-6.54311735306354
30
0
41
1
10
91.6993728807416
20
-6.86373376708355
30
0
41
1
10
91.715872269728
20
-6.96186247696485
30
0
41
1
10
91.7563201490452
20
-7.14015010775083
30
0
41
1
10
91.7800248386236
20
-7.21914243295262
30
0
41
1
10
91.861280207335
20
-7.42565430360253
30
0
41
1
10
91.9290147048708
20
-7.52351603900394
30
0
41
1
10
92.0526791927859
20
-7.61165428843682
30
0
41
1
10
92.0977873392612
20
-7.63120716850099
30
0
41
1
10
92.1947982042753
20
-7.65004769528335
30
0
41
1
10
92.2466995899844
20
-7.64944338365575
30
0
41
1
10
92.302122209158
20
-7.63899274252657
30
0
0
SPLINE
5
D0
100
AcDbEntity
8
1
62
256
6
ByLayer
370
18
48
1
60
0
100
AcDbSpline
70
4
71
3
72
8
73
4
40
0
40
0
40
0
40
0
40
1
40
1
40
1
40
1
41
1
10
18.3741270563104
20
7.55584010098073
30
0
41
1
10
17.8229146348287
20
7.58356425235684
30
0
41
1
10
17.2762947789486
20
7.59915780943646
30
0
41
1
10
16.7328728775282
20
7.60170086994896
30
0
0
SPLINE
5
D1
100
AcDbEntity
8
1
62
256
6
ByLayer
370
18
48
1
60
0
100
AcDbSpline
70
4
71
3
72
64
73
60
40
0
40
0
40
0
40
0
40
0.0312499999999999
40
0.0312499999999999
40
0.0624999999999998
40
0.0624999999999998
40
0.0937499999999997
40
0.0937499999999997
40
0.109375
40
0.109375
40
0.125
40
0.125
40
0.140624999999999
40
0.140624999999999
40
0.156249999999999
40
0.156249999999999
40
0.171874999999999
40
0.171874999999999
40
0.187499999999999
40
0.187499999999999
40
0.203124999999999
40
0.203124999999999
40
0.218749999999999
40
0.218749999999999
40
0.249999999999999
40
0.249999999999999
40
0.265624999999998
40
0.265624999999998
40
0.281249999999998
40
0.281249999999998
40
0.312499999999998
40
0.312499999999998
40
0.328124999999998
40
0.328124999999998
40
0.332031249999997
40
0.332031249999997
40
0.335937499999997
40
0.335937499999997
40
0.339843749999996
40
0.339843749999996
40
0.343749999999996
40
0.343749999999996
40
0.347656249999995
40
0.347656249999995
40
0.351562499999995
40
0.359374999999994
40
0.374999999999995
40
0.374999999999995
40
0.437499999999995
40
0.437499999999995
40
0.499999999999995
40
0.499999999999995
40
0.624999999999996
40
0.624999999999996
40
0.749999999999998
40
0.749999999999998
40
0.874999999999999
40
0.874999999999999
40
1
40
1
40
1
40
1
41
1
10
4.00000040823085
20
-4.64079326739605
30
0
41
1
10
3.82503873365624
20
-4.51410129743797
30
0
41
1
10
3.65340725394958
20
-4.38041849271269
30
0
41
1
10
3.32265743503927
20
-4.09809336338012
30
0
41
1
10
3.16387771094134
20
-3.94984444805982
30
0
41
1
10
2.86373433730714
20
-3.63501069765439
30
0
41
1
10
2.72229842624367
20
-3.46849786794101
30
0
41
1
10
2.5284800131632
20
-3.19975348521348
30
0
41
1
10
2.46691333223401
20
-3.10683026062395
30
0
41
1
10
2.35321444002963
20
-2.91645791608954
30
0
41
1
10
2.3008176829876
20
-2.81869475665735
30
0
41
1
10
2.20641813838574
20
-2.61719804770794
30
0
41
1
10
2.16440456523662
20
-2.51347010637778
30
0
41
1
10
2.09286633634272
20
-2.29890525632558
30
0
41
1
10
2.06368595756695
20
-2.18869525435628
30
0
41
1
10
2.02109884872272
20
-1.96628716561159
30
0
41
1
10
2.00748937724634
20
-1.85349417056136
30
0
41
1
10
1.99716536189823
20
-1.62446492525351
30
0
41
1
10
2.00065748901082
20
-1.50735618296127
30
0
41
1
10
2.02509466416183
20
-1.27733127012078
30
0
41
1
10
2.04588718069226
20
-1.16369115755538
30
0
41
1
10
2.10388382359272
20
-0.939071415888748
30
0
41
1
10
2.14134845357253
20
-0.827482727734406
30
0
41
1
10
2.27570621906352
20
-0.500800820133946
30
0
41
1
10
2.3918460673118
20
-0.298334696793518
30
0
41
1
10
2.59539936197922
20
-0.0116018900768324
30
0
41
1
10
2.66860044714017
20
0.0815203266491267
30
0
41
1
10
2.82156599813405
20
0.260100430338667
30
0
41
1
10
2.90129983225484
20
0.345646507312495
30
0
41
1
10
3.14867323695404
20
0.592891339113464
30
0
41
1
10
3.32441984909428
20
0.745272723513608
30
0
41
1
10
3.60024610308574
20
0.959871804568621
30
0
41
1
10
3.69424740740897
20
1.02904718030368
30
0
41
1
10
3.81404349472427
20
1.11289504311586
30
0
41
1
10
3.8381189612318
20
1.12953412271881
30
0
41
1
10
3.88648865947121
20
1.16255305790736
30
0
41
1
10
3.91011192707171
20
1.1801391341715
30
0
41
1
10
3.96257965397569
20
1.20521123719641
30
0
41
1
10
3.99109766325066
20
1.21411233498861
30
0
41
1
10
4.04889097533319
20
1.22647768808133
30
0
41
1
10
4.07797345601645
20
1.22964319320849
30
0
41
1
10
4.13632009524412
20
1.23302599420273
30
0
41
1
10
4.16553556483777
20
1.23403328569978
30
0
41
1
10
4.22392395447613
20
1.23673831102826
30
0
41
1
10
4.31151527684017
20
1.24065389916231
30
0
41
1
10
4.51595531674047
20
1.24879943415445
30
0
41
1
10
4.69129652710853
20
1.25409086123511
30
0
41
1
10
5.27564526129044
20
1.26800116360008
30
0
41
1
10
5.74301630413834
20
1.26722092506571
30
0
41
1
10
6.67754994495803
20
1.2426606190642
30
0
41
1
10
7.14515513564606
20
1.21880414633208
30
0
41
1
10
8.53936417132684
20
1.11411214526785
30
0
41
1
10
9.45986693708028
20
1.00004100424181
30
0
41
1
10
11.2844234674653
20
0.690229688056803
30
0
41
1
10
12.1884032326896
20
0.494119749999726
30
0
41
1
10
13.9816406624868
20
0.0280322392882226
30
0
41
1
10
14.8708724284976
20
-0.242079141423886
30
0
41
1
10
16.6374169483368
20
-0.843145733909722
30
0
41
1
10
17.5101957481896
20
-1.17239423434594
30
0
41
1
10
18.3741270563104
20
-1.5200659740778
30
0
0
SPLINE
5
D2
100
AcDbEntity
8
1
62
256
6
ByLayer
370
18
48
1
60
0
100
AcDbSpline
70
4
71
3
72
14
73
10
40
0
40
0
40
0
40
0
40
0.29660422928079
40
0.29660422928079
40
0.444906343921185
40
0.444906343921185
40
0.59320845856158
40
0.59320845856158
40
1
40
1
40
1
40
1
41
1
10
92.3021222093965
20
-7.63899274252915
30
0
41
1
10
91.3793567635283
20
-7.65982542717305
30
0
41
1
10
90.458067198569
20
-7.64019854256043
30
0
41
1
10
89.0744332946306
20
-7.55097295695643
30
0
41
1
10
88.6123198495839
20
-7.51119875076705
30
0
41
1
10
87.6898575723104
20
-7.41227366016074
30
0
41
1
10
87.230104971008
20
-7.35322528164178
30
0
41
1
10
85.5134836083478
20
-7.09738809629872
30
0
41
1
10
84.2637759658316
20
-6.84004500773295
30
0
41
1
10
83.015585077056
20
-6.52052519517068
30
0
0
SPLINE
5
D3
100
AcDbEntity
8
1
62
256
6
ByLayer
370
13
48
1
60
0
100
AcDbSpline
70
4
71
3
72
22
73
18
40
0
40
0
40
0
40
0
40
0.0855043245725355
40
0.0855043245725355
40
0.221548558343356
40
0.221548558343356
40
0.289570675228767
40
0.289570675228767
40
0.357592792114177
40
0.357592792114177
40
0.629681259655817
40
0.629681259655817
40
0.901769727197457
40
0.901769727197457
40
0.969791844082867
40
0.969791844082867
40
1
40
1
40
1
40
1
41
1
10
83.0155849172411
20
-6.52052515426021
30
0
41
1
10
82.4435870950901
20
-6.37410152497569
30
0
41
1
10
81.8719077966203
20
-6.21462056004535
30
0
41
1
10
80.3897770369027
20
-5.76947509273927
30
0
41
1
10
79.4787052510661
20
-5.46512202941179
30
0
41
1
10
78.1068892461508
20
-4.96695156635778
30
0
41
1
10
77.6487289259798
20
-4.79393952096513
30
0
41
1
10
76.7299446302954
20
-4.43502317855018
30
0
41
1
10
76.2688953852958
20
-4.2489414943939
30
0
41
1
10
73.9602299882183
20
-3.29075450770665
30
0
41
1
10
72.1375006867796
20
-2.44904833820209
30
0
41
1
10
68.4966412796653
20
-0.705160149498482
30
0
41
1
10
66.6787159035226
20
0.197487730821223
30
0
41
1
10
64.3830803289497
20
1.30915443523088
30
0
41
1
10
63.9227840972049
20
1.53064186860783
30
0
41
1
10
63.255800573784
20
1.8480207786958
30
0
41
1
10
63.0508427416618
20
1.94508628182533
30
0
41
1
10
62.8461049524732
20
2.04152593273949
30
0
0
SPLINE
5
D4
100
AcDbEntity
8
1
62
256
6
ByLayer
370
18
48
1
60
0
100
AcDbSpline
70
4
71
3
72
28
73
24
40
0
40
0
40
0
40
0
40
0.0625000000000004
40
0.0625000000000004
40
0.125000000000001
40
0.125000000000001
40
0.187500000000001
40
0.187500000000001
40
0.250000000000002
40
0.250000000000002
40
0.375000000000001
40
0.375000000000001
40
0.500000000000001
40
0.500000000000001
40
0.625000000000001
40
0.625000000000001
40
0.687500000000001
40
0.687500000000001
40
0.750000000000001
40
0.750000000000001
40
0.875
40
0.875
40
1
40
1
40
1
40
1
41
1
10
4.25113644906335
20
-4.21527718734433
30
0
41
1
10
4.49807091615796
20
-4.41683859069909
30
0
41
1
10
4.75546830631242
20
-4.60011648449077
30
0
41
1
10
5.28424201724238
20
-4.94106089493019
30
0
41
1
10
5.55570406917258
20
-5.09859080129996
30
0
41
1
10
6.10898603069245
20
-5.39373712321779
30
0
41
1
10
6.39089059185704
20
-5.5313148596625
30
0
41
1
10
6.96267100973535
20
-5.78998031687794
30
0
41
1
10
7.25035238143451
20
-5.9100903205169
30
0
41
1
10
8.1174195901917
20
-6.24733238245713
30
0
41
1
10
8.70077127059625
20
-6.44112927451738
30
0
41
1
10
9.87438099795358
20
-6.78373117351248
30
0
41
1
10
10.4648990418653
20
-6.92982841248963
30
0
41
1
10
11.6528698905856
20
-7.17733378612417
30
0
41
1
10
12.2502309370143
20
-7.27995728883127
30
0
41
1
10
13.1526811577247
20
-7.40128573477867
30
0
41
1
10
13.4545794185573
20
-7.43630432399058
30
0
41
1
10
14.0608143880626
20
-7.49625789150633
30
0
41
1
10
14.3653953582772
20
-7.52124636369857
30
0
41
1
10
15.2815683174445
20
-7.5815909848283
30
0
41
1
10
15.8942147076676
20
-7.60083659791329
30
0
41
1
10
17.1272541135812
20
-7.60318509887495
30
0
41
1
10
17.7477018315239
20
-7.58734720619287
30
0
41
1
10
18.3741270563103
20
-7.55584010098087
30
0
0
SPLINE
5
D5
100
AcDbEntity
8
1
62
256
6
ByLayer
370
18
48
1
60
0
100
AcDbSpline
70
4
71
3
72
10
73
6
40
0
40
0
40
0
40
0
40
0.5
40
0.5
40
1
40
1
40
1
40
1
41
1
10
92.5839808377963
20
-7.82471637103302
30
0
41
1
10
92.5074509431893
20
-7.88232747818461
30
0
41
1
10
92.4338207980794
20
-7.92971988263133
30
0
41
1
10
92.2958724116831
20
-8.00111205894169
30
0
41
1
10
92.2311375480776
20
-8.02548253717555
30
0
41
1
10
92.1704162937154
20
-8.03851142431191
30
0
0
SPLINE
5
D6
100
AcDbEntity
8
1
62
256
6
ByLayer
370
18
48
1
60
0
100
AcDbSpline
70
4
71
3
72
14
73
10
40
0
40
0
40
0
40
0
40
0.25
40
0.25
40
0.5
40
0.5
40
0.75
40
0.75
40
1
40
1
40
1
40
1
41
1
10
92.5839808377913
20
7.82471637105238
30
0
41
1
10
92.7623182365388
20
7.3225575313345
30
0
41
1
10
92.9446392005309
20
6.82104269239201
30
0
41
1
10
93.3164341925341
20
5.8194005932354
30
0
41
1
10
93.5059434360203
20
5.31927938213875
30
0
41
1
10
93.8916489298709
20
4.32051633652037
30
0
41
1
10
94.0880248929343
20
3.82153527974373
30
0
41
1
10
94.4856333474021
20
2.82862544754897
30
0
41
1
10
94.6870088612985
20
2.33427104691981
30
0
41
1
10
94.8909193407608
20
1.84181685570249
30
0
0
SPLINE
5
D7
100
AcDbEntity
8
1
62
256
6
ByLayer
370
18
48
1
60
0
100
AcDbSpline
70
4
71
3
72
8
73
4
40
0
40
0
40
0
40
0
40
1
40
1
40
1
40
1
41
1
10
94.8909193407609
20
-1.84181685570212
30
0
41
1
10
94.9269323231453
20
-1.30492232591479
30
0
41
1
10
94.9531721421913
20
-0.76852495542164
30
0
41
1
10
94.9696236394606
20
-0.232625515330056
30
0
0
SPLINE
5
D8
100
AcDbEntity
8
1
62
256
6
ByLayer
370
18
48
1
60
0
100
AcDbSpline
70
4
71
3
72
48
73
44
40
0
40
0
40
0
40
0
40
0.0624999999999978
40
0.0624999999999978
40
0.124999999999996
40
0.124999999999996
40
0.187499999999993
40
0.187499999999993
40
0.249999999999991
40
0.249999999999991
40
0.312499999999989
40
0.312499999999989
40
0.343749999999985
40
0.343749999999985
40
0.37499999999998
40
0.37499999999998
40
0.406249999999976
40
0.406249999999976
40
0.437499999999971
40
0.437499999999971
40
0.453124999999969
40
0.453124999999969
40
0.468749999999967
40
0.468749999999967
40
0.484374999999965
40
0.484374999999965
40
0.499999999999963
40
0.499999999999963
40
0.531249999999966
40
0.531249999999966
40
0.562499999999968
40
0.562499999999968
40
0.624999999999973
40
0.624999999999973
40
0.687499999999977
40
0.687499999999977
40
0.749999999999982
40
0.749999999999982
40
0.874999999999991
40
0.874999999999991
40
0.937499999999995
40
0.937499999999995
40
1
40
1
40
1
40
1
41
1
10
92.5351221303195
20
-4.28085712394701
30
0
41
1
10
92.3911734585772
20
-4.23700299188917
30
0
41
1
10
92.2473872639662
20
-4.18686907176337
30
0
41
1
10
91.9601392449282
20
-4.0740642301995
30
0
41
1
10
91.8161999718628
20
-4.01114960627621
30
0
41
1
10
91.5318683272758
20
-3.87324724807974
30
0
41
1
10
91.3913383491359
20
-3.79827359731758
30
0
41
1
10
91.1140063869817
20
-3.63460143151755
30
0
41
1
10
90.9771861855576
20
-3.54596998511451
30
0
41
1
10
90.7083661047064
20
-3.3509607485785
30
0
41
1
10
90.5765384766146
20
-3.24483487314421
30
0
41
1
10
90.3884507214411
20
-3.06869151749044
30
0
41
1
10
90.3273132254831
20
-3.00702225678987
30
0
41
1
10
90.2109824528442
20
-2.87749997749714
30
0
41
1
10
90.1555393655151
20
-2.80953398649609
30
0
41
1
10
90.0530276857994
20
-2.66374305382172
30
0
41
1
10
90.0057306131613
20
-2.58558126296518
30
0
41
1
10
89.9307923159637
20
-2.41983325071729
30
0
41
1
10
89.9033185384653
20
-2.33251790540695
30
0
41
1
10
89.892057655363
20
-2.20048370507331
30
0
41
1
10
89.8934958765113
20
-2.15798080571406
30
0
41
1
10
89.9077162559963
20
-2.07627100776082
30
0
41
1
10
89.9202981166615
20
-2.0386237928864
30
0
41
1
10
89.9544548504808
20
-1.97034140083608
30
0
41
1
10
89.9759297406836
20
-1.93994862408681
30
0
41
1
10
90.0239433873189
20
-1.88689534615526
30
0
41
1
10
90.0509279782871
20
-1.86367732107578
30
0
41
1
10
90.136665390074
20
-1.80308223850838
30
0
41
1
10
90.199313005331
20
-1.77459476354267
30
0
41
1
10
90.3307788112865
20
-1.73100701420177
30
0
41
1
10
90.3992229674037
20
-1.71636999682377
30
0
41
1
10
90.6057055378899
20
-1.68690515956706
30
0
41
1
10
90.7468780826143
20
-1.68560111862558
30
0
41
1
10
91.0331227690999
20
-1.70332437242615
30
0
41
1
10
91.178429301384
20
-1.72291978098738
30
0
41
1
10
91.4668756516056
20
-1.77629500672967
30
0
41
1
10
91.6107971897235
20
-1.8102126476262
30
0
41
1
10
92.0418425667862
20
-1.92920518576244
30
0
41
1
10
92.3282660468172
20
-2.03106719695194
30
0
41
1
10
92.7566296567214
20
-2.2143398206025
30
0
41
1
10
92.898962895162
20
-2.28057422764508
30
0
41
1
10
93.18060579631
20
-2.42327247689616
30
0
41
1
10
93.3201995785579
20
-2.49982190854013
30
0
41
1
10
93.4582909256404
20
-2.58273553804454
30
0
0
SPLINE
5
D9
100
AcDbEntity
8
1
62
256
6
ByLayer
370
18
48
1
60
0
100
AcDbSpline
70
4
71
3
72
8
73
4
40
0
40
0
40
0
40
0
40
1
40
1
40
1
40
1
41
1
10
94.967506966827
20
-0.0052617685795155
30
0
41
1
10
94.4498858512368
20
-0.851220929731085
30
0
41
1
10
93.9467341045435
20
-1.7103065201448
30
0
41
1
10
93.4582909256404
20
-2.58273553804452
30
0
0
SPLINE
5
DA
100
AcDbEntity
8
1
62
256
6
ByLayer
370
18
48
1
60
0
100
AcDbSpline
70
4
71
3
72
22
73
18
40
0
40
0
40
0
40
0
40
0.219226300443019
40
0.219226300443019
40
0.438452600886037
40
0.438452600886037
40
0.548065751107547
40
0.548065751107547
40
0.657678901329056
40
0.657678901329056
40
0.767292051550566
40
0.767292051550566
40
0.876905201772075
40
0.876905201772075
40
0.986518351993585
40
0.986518351993585
40
1
40
1
40
1
40
1
41
1
10
18.3741270563104
20
-7.55584010098093
30
0
41
1
10
19.0667265045342
20
-7.51828272958903
30
0
41
1
10
19.7583024308471
20
-7.4588398330423
30
0
41
1
10
21.1393370303432
20
-7.2970934050505
30
0
41
1
10
21.8287356139954
20
-7.19305271626911
30
0
41
1
10
22.8649870781011
20
-7.00797339796139
30
0
41
1
10
23.2106167336369
20
-6.94126068429213
30
0
41
1
10
23.9023006223693
20
-6.79697043264534
30
0
41
1
10
24.2485893562526
20
-6.71932630239414
30
0
41
1
10
24.9405356221154
20
-6.55445675773103
30
0
41
1
10
25.2863694078065
20
-6.46796098066338
30
0
41
1
10
25.9776125383732
20
-6.28487812463419
30
0
41
1
10
26.3229932325759
20
-6.18821980039459
30
0
41
1
10
27.0134622849985
20
-5.98608102259712
30
0
41
1
10
27.3585378670061
20
-5.88055652303996
30
0
41
1
10
27.7459547380791
20
-5.75768070991239
30
0
41
1
10
27.788387284518
20
-5.74416295179162
30
0
41
1
10
27.830821937196
20
-5.73058393842922
30
0
0
SPLINE
5
DB
100
AcDbEntity
8
1
62
256
6
ByLayer
370
18
48
1
60
0
100
AcDbSpline
70
4
71
3
72
42
73
38
40
0
40
0
40
0
40
0
40
0.011044088842043
40
0.011044088842043
40
0.0659860839063741
40
0.0659860839063741
40
0.120928078970705
40
0.120928078970705
40
0.175870074035036
40
0.175870074035036
40
0.230812069099367
40
0.230812069099367
40
0.285754064163698
40
0.285754064163698
40
0.340696059228029
40
0.340696059228029
40
0.395638054292359
40
0.395638054292359
40
0.450580049356691
40
0.450580049356691
40
0.505522044421022
40
0.505522044421022
40
0.560464039485352
40
0.560464039485352
40
0.670348029614014
40
0.670348029614014
40
0.725290024678345
40
0.725290024678345
40
0.780232019742676
40
0.780232019742676
40
0.835174014807007
40
0.835174014807007
40
0.890116009871338
40
0.890116009871338
40
0.945058004935669
40
0.945058004935669
40
1
40
1
40
1
40
1
41
1
10
65.8320749560694
20
7.62916674857416
30
0
41
1
10
65.9015945261953
20
7.62883859170805
30
0
41
1
10
65.9711012259676
20
7.62827961893979
30
0
41
1
10
66.3862611152772
20
7.62352796844633
30
0
41
1
10
66.7315182586104
20
7.61343600132241
30
0
41
1
10
67.4220217925392
20
7.58227832713598
30
0
41
1
10
67.767167493305
20
7.56136182524023
30
0
41
1
10
68.4572227812564
20
7.50917138131462
30
0
41
1
10
68.8021131039353
20
7.47781338070629
30
0
41
1
10
69.4916058360998
20
7.40281196907227
30
0
41
1
10
69.8363298194773
20
7.35937807134684
30
0
41
1
10
70.5267364025156
20
7.26222425009294
30
0
41
1
10
70.8722716647009
20
7.20852547266844
30
0
41
1
10
71.563960143701
20
7.09074854393319
30
0
41
1
10
71.9101709732273
20
7.0263220117447
30
0
41
1
10
72.6010318951487
20
6.88687320725873
30
0
41
1
10
72.9460071632095
20
6.8119950538582
30
0
41
1
10
73.6362660881835
20
6.65416157181082
30
0
41
1
10
73.9813949717926
20
6.57124453673296
30
0
41
1
10
74.6713405471947
20
6.39438351496423
30
0
41
1
10
75.0161829869911
20
6.30054998010888
30
0
41
1
10
75.7057659515144
20
6.10266584703211
30
0
41
1
10
76.0504673065914
20
5.9986260000874
30
0
41
1
10
77.0862755156076
20
5.67465028896351
30
0
41
1
10
77.7792969047537
20
5.44173732985621
30
0
41
1
10
78.8155391867956
20
5.0719039647951
30
0
41
1
10
79.1604771250187
20
4.94498533647695
30
0
41
1
10
79.8504224456995
20
4.68361766308198
30
0
41
1
10
80.1953628331937
20
4.54931136286058
30
0
41
1
10
80.8852443950611
20
4.27400694371835
30
0
41
1
10
81.2301876873469
20
4.13301159333633
30
0
41
1
10
81.9201318882564
20
3.84466823427115
30
0
41
1
10
82.2650033009045
20
3.69704517176828
30
0
41
1
10
82.9558544533658
20
3.39711633847455
30
0
41
1
10
83.3020993013514
20
3.2445309715884
30
0
41
1
10
83.993726816039
20
2.93557054421399
30
0
41
1
10
84.339001826867
20
2.77941228984255
30
0
41
1
10
84.683568890391
20
2.62111785160349
30
0
0
SPLINE
5
DC
100
AcDbEntity
8
1
62
256
6
ByLayer
370
18
48
1
60
0
100
AcDbSpline
70
4
71
3
72
8
73
4
40
0
40
0
40
0
40
0
40
1
40
1
40
1
40
1
41
1
10
4.00000040823207
20
-4.64079326739613
30
0
41
1
10
4.00000040823207
20
-4.56520920446195
30
0
41
1
10
4.00000040823204
20
-4.48943694501972
30
0
41
1
10
4.00000040823204
20
-4.41347543823355
30
0
0
SPLINE
5
DD
100
AcDbEntity
8
1
62
256
6
ByLayer
370
18
48
1
60
0
100
AcDbSpline
70
4
71
3
72
56
73
52
40
0
40
0
40
0
40
0
40
0.0551982984990521
40
0.0551982984990521
40
0.110396596998104
40
0.110396596998104
40
0.13799574624763
40
0.13799574624763
40
0.165594895497156
40
0.165594895497156
40
0.220793193996207
40
0.220793193996207
40
0.248392343245732
40
0.248392343245732
40
0.275991492495257
40
0.275991492495257
40
0.331189790994306
40
0.331189790994306
40
0.386388089493356
40
0.386388089493356
40
0.413987238742882
40
0.413987238742882
40
0.441586387992407
40
0.441586387992407
40
0.551982984990507
40
0.551982984990507
40
0.607181283489557
40
0.607181283489557
40
0.634780432739082
40
0.634780432739082
40
0.662379581988606
40
0.662379581988606
40
0.717577880487656
40
0.717577880487656
40
0.74517702973718
40
0.74517702973718
40
0.772776178986705
40
0.772776178986705
40
0.827974477485755
40
0.827974477485755
40
0.85557362673528
40
0.85557362673528
40
0.883172775984805
40
0.883172775984805
40
0.938371074483854
40
0.938371074483854
40
0.965970223733379
40
0.965970223733379
40
0.993569372982904
40
0.993569372982904
40
1
40
1
40
1
40
1
41
1
10
92.1704162937154
20
-8.03851142431193
30
0
41
1
10
91.2516379196203
20
-8.0630016929521
30
0
41
1
10
90.3316765538977
20
-8.04538940208585
30
0
41
1
10
88.4960176692639
20
-7.92719935679659
30
0
41
1
10
87.5795613821717
20
-7.82674429186727
30
0
41
1
10
86.2026033323147
20
-7.61573406451154
30
0
41
1
10
85.7427969255631
20
-7.53527047425948
30
0
41
1
10
84.8237125179621
20
-7.35507799321854
30
0
41
1
10
84.3647733569015
20
-7.25540346805502
30
0
41
1
10
82.9886050710076
20
-6.92873638203903
30
0
41
1
10
82.0719787715496
20
-6.67414321517938
30
0
41
1
10
80.6939396631706
20
-6.24133199494597
30
0
41
1
10
80.2338902371067
20
-6.0884974005865
30
0
41
1
10
79.3154892070236
20
-5.76812100542028
30
0
41
1
10
78.85675570583
20
-5.60038514673462
30
0
41
1
10
77.4808009311494
20
-5.07620257673869
30
0
41
1
10
76.5637813925292
20
-4.69883628476174
30
0
41
1
10
74.7243053771074
20
-3.89727072417114
30
0
41
1
10
73.8068815494521
20
-3.47496739593478
30
0
41
1
10
72.4309174081337
20
-2.81790864618028
30
0
41
1
10
71.9722022636964
20
-2.59496077262821
30
0
41
1
10
71.0538433557407
20
-2.14267967604312
30
0
41
1
10
70.5935504253959
20
-1.91295788024323
30
0
41
1
10
68.2976980708337
20
-0.756128288764444
30
0
41
1
10
66.4807857166604
20
0.193739390489071
30
0
41
1
10
63.7501284348971
20
1.58619082984154
30
0
41
1
10
62.8389471844969
20
2.04479845533822
30
0
41
1
10
61.4666229604266
20
2.71632597541515
30
0
41
1
10
61.0082275520437
20
2.93738242884794
30
0
41
1
10
60.0887625697563
20
3.37242544420548
30
0
41
1
10
59.6289853137874
20
3.58581691567102
30
0
41
1
10
58.2521732508056
20
4.21007418451077
30
0
41
1
10
57.336016994521
20
4.60560269354923
30
0
41
1
10
55.9599665060254
20
5.16083177076285
30
0
41
1
10
55.500981639126
20
5.33956666062647
30
0
41
1
10
54.5816191041017
20
5.68310721856545
30
0
41
1
10
54.1214991959593
20
5.84782142289694
30
0
41
1
10
52.7441066349813
20
6.31746753609804
30
0
41
1
10
51.8277694431662
20
6.59856193202017
30
0
41
1
10
50.4517569838956
20
6.96727985311333
30
0
41
1
10
49.9928286236627
20
7.08136082221861
30
0
41
1
10
49.073730285292
20
7.291085327161
30
0
41
1
10
48.6133817505485
20
7.38672088754151
30
0
41
1
10
47.235471462159
20
7.64378587954883
30
0
41
1
10
46.3189851359667
20
7.7758102993167
30
0
41
1
10
44.9430328718743
20
7.91270488436976
30
0
41
1
10
44.4841567162524
20
7.94814174592656
30
0
41
1
10
43.5652691890061
20
7.99832723450083
30
0
41
1
10
43.104853000183
20
8.01306147103548
30
0
41
1
10
42.5382959000123
20
8.01830016936802
30
0
41
1
10
42.4312651195979
20
8.01872289931879
30
0
41
1
10
42.3242614453354
20
8.0185794448615
30
0
0
SPLINE
5
DE
100
AcDbEntity
8
1
62
256
6
ByLayer
370
18
48
1
60
0
100
AcDbSpline
70
4
71
3
72
8
73
4
40
0
40
0
40
0
40
0
40
1
40
1
40
1
40
1
41
1
10
94.9999516828361
20
0.0642679875825252
30
0
41
1
10
94.990856931141
20
0.0388424066440223
30
0
41
1
10
94.9793046972603
20
0.014019512342486
30
0
41
1
10
94.967506966827
20
-0.0052617685794303
30
0
0
SPLINE
5
DF
100
AcDbEntity
8
1
62
256
6
ByLayer
370
18
48
1
60
0
100
AcDbSpline
70
4
71
3
72
10
73
6
40
0
40
0
40
0
40
0
40
0.5
40
0.5
40
1
40
1
40
1
40
1
41
1
10
94.9696236394606
20
0.232625515330085
30
0
41
1
10
94.9703248936087
20
0.20978250601587
30
0
41
1
10
94.9738366385341
20
0.182951386423156
30
0
41
1
10
94.9844043271512
20
0.125645777168614
30
0
41
1
10
94.9913846425896
20
0.095603198469064
30
0
41
1
10
94.999951682836
20
0.0642679875825536
30
0
0
SPLINE
5
E0
100
AcDbEntity
8
1
62
256
6
ByLayer
370
13
48
1
60
0
100
AcDbSpline
70
4
71
3
72
20
73
16
40
0
40
0
40
0
40
0
40
0.0824474174363966
40
0.0824474174363966
40
0.24717769578429
40
0.24717769578429
40
0.411907974132183
40
0.411907974132183
40
0.576638252480077
40
0.576638252480077
40
0.906098809175863
40
0.906098809175863
40
0.988463948349809
40
0.988463948349809
40
1
40
1
40
1
40
1
41
1
10
4.25031368099329
20
6.12445770923918
30
0
41
1
10
4.25032635927829
20
6.20269516225002
30
0
41
1
10
4.25033844807811
20
6.27803789012853
30
0
41
1
10
4.25037313767035
20
6.49530327091895
30
0
41
1
10
4.25039421259922
20
6.62879096411501
30
0
41
1
10
4.25043319265836
20
6.87173845881213
30
0
41
1
10
4.25045097293639
20
6.98040479928369
30
0
41
1
10
4.25048429885069
20
7.17230555944255
30
0
41
1
10
4.25049988968163
20
7.25569729207314
30
0
41
1
10
4.25054424805862
20
7.46379622570811
30
0
41
1
10
4.25057091448068
20
7.54845987067145
30
0
41
1
10
4.25060548019803
20
7.58729464754876
30
0
41
1
10
4.25061244962433
20
7.59167805765154
30
0
41
1
10
4.25062051811628
20
7.59274737930272
30
0
41
1
10
4.250621511736
20
7.59281073455216
30
0
41
1
10
4.25062250766328
20
7.592806079121
30
0
0
SPLINE
5
E1
100
AcDbEntity
8
1
62
256
6
ByLayer
370
18
48
1
60
0
100
AcDbSpline
70
4
71
3
72
98
73
94
40
0
40
0
40
0
40
0
40
0.0160852796268645
40
0.0160852796268645
40
0.0350761071399246
40
0.0350761071399246
40
0.0540669346529847
40
0.0540669346529847
40
0.0730577621660448
40
0.0730577621660448
40
0.0920485896791049
40
0.0920485896791049
40
0.111039417192165
40
0.111039417192165
40
0.149021072218286
40
0.149021072218286
40
0.168011899731346
40
0.168011899731346
40
0.187002727244406
40
0.187002727244406
40
0.205993554757467
40
0.205993554757467
40
0.224984382270527
40
0.224984382270527
40
0.262966037296648
40
0.262966037296648
40
0.281956864809708
40
0.281956864809708
40
0.300947692322769
40
0.300947692322769
40
0.319938519835829
40
0.319938519835829
40
0.338929347348889
40
0.338929347348889
40
0.35792017486195
40
0.35792017486195
40
0.37691100237501
40
0.37691100237501
40
0.414892657401131
40
0.414892657401131
40
0.433883484914191
40
0.433883484914191
40
0.452874312427252
40
0.452874312427252
40
0.471865139940313
40
0.471865139940313
40
0.490855967453373
40
0.490855967453373
40
0.509846794966434
40
0.509846794966434
40
0.528837622479495
40
0.528837622479495
40
0.566819277505616
40
0.566819277505616
40
0.585810105018677
40
0.585810105018677
40
0.604800932531738
40
0.604800932531738
40
0.623791760044799
40
0.623791760044799
40
0.64278258755786
40
0.64278258755786
40
0.680764242583982
40
0.680764242583982
40
0.699755070097043
40
0.699755070097043
40
0.718745897610103
40
0.718745897610103
40
0.737736725123164
40
0.737736725123164
40
0.756727552636225
40
0.756727552636225
40
0.775718380149286
40
0.775718380149286
40
0.794709207662347
40
0.794709207662347
40
0.832690862688468
40
0.832690862688468
40
0.851681690201528
40
0.851681690201528
40
0.870672517714589
40
0.870672517714589
40
0.889663345227649
40
0.889663345227649
40
0.908654172740709
40
0.908654172740709
40
0.94663582776683
40
0.94663582776683
40
0.984617482792951
40
0.984617482792951
40
0.994112896549482
40
0.994112896549482
40
1
40
1
40
1
40
1
41
1
10
27.8209830921924
20
5.72761927408914
30
0
41
1
10
28.1485327059893
20
5.84580294163652
30
0
41
1
10
28.4763751960798
20
5.96064467701947
30
0
41
1
10
29.1937423952799
20
6.20119751541188
30
0
41
1
10
29.5835621692036
20
6.32575042400438
30
0
41
1
10
30.3641754207119
20
6.56360953438818
30
0
41
1
10
30.7532874694375
20
6.67635772554604
30
0
41
1
10
31.5286850748885
20
6.88992123027461
30
0
41
1
10
31.9157459356863
20
6.98985036717446
30
0
41
1
10
32.6893774076734
20
7.17564929299533
30
0
41
1
10
33.0757359217576
20
7.2617479232039
30
0
41
1
10
33.8471832355392
20
7.42075238682881
30
0
41
1
10
34.232002148973
20
7.49383468655057
30
0
41
1
10
35.385730436865
20
7.69212408666212
30
0
41
1
10
36.1561567743278
20
7.79528585259672
30
0
41
1
10
37.3112829654085
20
7.90821977673679
30
0
41
1
10
37.6958382437503
20
7.9389110155735
30
0
41
1
10
38.4668855602735
20
7.9853320214508
30
0
41
1
10
38.8533185588584
20
8.00115864661839
30
0
41
1
10
39.6274673631929
20
8.01819278505107
30
0
41
1
10
40.0152123383421
20
8.01939640295311
30
0
41
1
10
40.7916379312721
20
8.00680344127983
30
0
41
1
10
41.1806604599224
20
7.99289062451578
30
0
41
1
10
42.3504098895678
20
7.92893866228977
30
0
41
1
10
43.1271968141535
20
7.85729287911954
30
0
41
1
10
44.2852698515037
20
7.70586120336304
30
0
41
1
10
44.6707996295798
20
7.64832211446247
30
0
41
1
10
45.4419153905123
20
7.52008201034417
30
0
41
1
10
45.8272549605753
20
7.44925070948446
30
0
41
1
10
46.5971176576982
20
7.2939471454736
30
0
41
1
10
46.9814304926515
20
7.20928019514864
30
0
41
1
10
47.7497664333828
20
7.02651156203061
30
0
41
1
10
48.1344759282418
20
6.92906873765062
30
0
41
1
10
48.9046324544221
20
6.72195905190199
30
0
41
1
10
49.2900227419751
20
6.6122315165895
30
0
41
1
10
50.0611459115365
20
6.37996632997067
30
0
41
1
10
50.4464537203427
20
6.25685750148906
30
0
41
1
10
51.6057475559322
20
5.87143591131911
30
0
41
1
10
52.3835885155463
20
5.59331396149213
30
0
41
1
10
53.5529960233186
20
5.14060620772486
30
0
41
1
10
53.9411365266035
20
4.98422669842464
30
0
41
1
10
54.7170557545847
20
4.6654514084461
30
0
41
1
10
55.1044978273569
20
4.50252944386989
30
0
41
1
10
55.877837440799
20
4.16885532001814
30
0
41
1
10
56.2637953311666
20
3.99820657620012
30
0
41
1
10
57.0337175731353
20
3.6482369164419
30
0
41
1
10
57.4182868170194
20
3.46996800610455
30
0
41
1
10
58.1880173180274
20
3.109436676212
30
0
41
1
10
58.5728926627858
20
2.92666942455423
30
0
41
1
10
59.3422576185616
20
2.55539381414013
30
0
41
1
10
59.7266058382177
20
2.36661339541268
30
0
41
1
10
60.8794485899127
20
1.79220195558304
30
0
41
1
10
61.6510571830496
20
1.40497877138299
30
0
41
1
10
62.8107397406843
20
0.813211207802453
30
0
41
1
10
63.1972817706081
20
0.613282578219184
30
0
41
1
10
63.9728958560224
20
0.213231341237275
30
0
41
1
10
64.3621260103278
20
0.013303132584241
30
0
41
1
10
65.1425707486813
20
-0.387184940477283
30
0
41
1
10
65.53170631213
20
-0.586665113761455
30
0
41
1
10
66.3074325266887
20
-0.984898625065597
30
0
41
1
10
66.6938011866953
20
-1.18407567490766
30
0
41
1
10
67.8530002391229
20
-1.7725994169343
30
0
41
1
10
68.6246315252533
20
-2.15577194836695
30
0
41
1
10
69.777539843664
20
-2.72224331706389
30
0
41
1
10
70.1615371006381
20
-2.90878786083394
30
0
41
1
10
70.930660717469
20
-3.27417064094411
30
0
41
1
10
71.3154629216841
20
-3.45362344275964
30
0
41
1
10
72.0851167386709
20
-3.80683025533185
30
0
41
1
10
72.4698901478767
20
-3.98071778281027
30
0
41
1
10
73.2395042563159
20
-4.32261277790391
30
0
41
1
10
73.6252298200931
20
-4.48910125792079
30
0
41
1
10
74.3983915894923
20
-4.81344581517843
30
0
41
1
10
74.7857350089083
20
-4.97145802502445
30
0
41
1
10
75.5616680336605
20
-5.2795223696111
30
0
41
1
10
75.9498645183953
20
-5.43017636270244
30
0
41
1
10
77.1186766859723
20
-5.86622054471243
30
0
41
1
10
77.8958114222087
20
-6.13187268171708
30
0
41
1
10
79.054834477181
20
-6.49699413760501
30
0
41
1
10
79.4398489705975
20
-6.61337187987311
30
0
41
1
10
80.2103343356141
20
-6.83195501703608
30
0
41
1
10
80.5955279276947
20
-6.9345496585434
30
0
41
1
10
81.3652654093983
20
-7.12710551412755
30
0
41
1
10
81.7498742076147
20
-7.21700408450695
30
0
41
1
10
82.5179977489606
20
-7.38435574232813
30
0
41
1
10
82.9018305858492
20
-7.4614839497392
30
0
41
1
10
84.055823183993
20
-7.67100396536389
30
0
41
1
10
84.8268972668027
20
-7.78305532968304
30
0
41
1
10
86.3699867437091
20
-7.95164931279601
30
0
41
1
10
87.1461199590026
20
-8.00642747759096
30
0
41
1
10
88.1206486373695
20
-8.03804865514405
30
0
41
1
10
88.3155352766181
20
-8.04250538583963
30
0
41
1
10
88.6306120848008
20
-8.04666892178005
30
0
41
1
10
88.7510697154833
20
-8.04753487618834
30
0
41
1
10
88.8714907668729
20
-8.04767420381151
30
0
0
SPLINE
5
E2
100
AcDbEntity
8
1
62
256
6
ByLayer
370
18
48
1
60
0
100
AcDbSpline
70
4
71
3
72
10
73
6
40
0
40
0
40
0
40
0
40
0.5
40
0.5
40
1
40
1
40
1
40
1
41
1
10
92.2935471039715
20
1.92664606215064
30
0
41
1
10
92.7264683744756
20
1.91222237315668
30
0
41
1
10
93.1594363719246
20
1.89728358146854
30
0
41
1
10
94.0252947788704
20
1.86826130252908
30
0
41
1
10
94.4581951475494
20
1.85406802848306
30
0
41
1
10
94.89091934076
20
1.84181685570215
30
0
0
SPLINE
5
E3
100
AcDbEntity
8
1
62
256
6
ByLayer
370
18
48
1
60
0
100
AcDbSpline
70
4
71
3
72
18
73
14
40
0
40
0
40
0
40
0
40
0.231760822560576
40
0.231760822560576
40
0.452170751243412
40
0.452170751243412
40
0.562375715584828
40
0.562375715584828
40
0.617478197755536
40
0.617478197755536
40
0.672580679926244
40
0.672580679926244
40
1
40
1
40
1
40
1
41
1
10
17.8534635569315
20
-0.0035323789716131
30
0
41
1
10
18.8134098015932
20
-0.477451621993595
30
0
41
1
10
19.7718296352302
20
-0.950747867005333
30
0
41
1
10
21.6449470648535
20
-1.86010216924689
30
0
41
1
10
22.5594578199408
20
-2.29691753995556
30
0
41
1
10
23.9375274642105
20
-2.93399665665925
30
0
41
1
10
24.3979106523264
20
-3.14338013111137
30
0
41
1
10
25.0906197698565
20
-3.45177962408201
30
0
41
1
10
25.3220615689136
20
-3.55371015151741
30
0
41
1
10
25.7840203997223
20
-3.75473732194925
30
0
41
1
10
26.0147054449064
20
-3.85390765039583
30
0
41
1
10
27.6142481003963
20
-4.53271704706668
30
0
41
1
10
28.9741463630297
20
-5.06426622604056
30
0
41
1
10
30.3339929944173
20
-5.53282013290058
30
0
0
SPLINE
5
E4
100
AcDbEntity
8
1
62
256
6
ByLayer
370
13
48
1
60
0
100
AcDbSpline
70
4
71
3
72
20
73
16
40
0
40
0
40
0
40
0
40
0.09988330233657
40
0.09988330233657
40
0.294020579513416
40
0.294020579513416
40
0.342554898807627
40
0.342554898807627
40
0.391089218101838
40
0.391089218101838
40
0.488157856690259
40
0.488157856690259
40
0.876432411043954
40
0.876432411043954
40
1
40
1
40
1
40
1
41
1
10
30.3339929941371
20
-5.53282013280401
30
0
41
1
10
30.8049711228249
20
-5.69510214104869
30
0
41
1
10
31.2759430580399
20
-5.8498274946169
30
0
41
1
10
32.6634195174251
20
-6.28138609588382
30
0
41
1
10
33.5808684446478
20
-6.53583364946857
30
0
41
1
10
34.7328792907976
20
-6.81095282554824
30
0
41
1
10
34.9635368777608
20
-6.86382772068802
30
0
41
1
10
35.4254629747378
20
-6.96516726823717
30
0
41
1
10
35.6568490025329
20
-7.01365126522504
30
0
41
1
10
36.3495432595525
20
-7.15182150071118
30
0
41
1
10
36.8101555376896
20
-7.23443150449378
30
0
41
1
10
39.1087929350972
20
-7.59926037559953
30
0
41
1
10
40.9341302460084
20
-7.73621378856086
30
0
41
1
10
43.3514668291065
20
-7.70542388099719
30
0
41
1
10
43.9359172133066
20
-7.68179395223936
30
0
41
1
10
44.5219406464258
20
-7.64186351775501
30
0
0
SPLINE
5
E5
100
AcDbEntity
8
1
62
256
6
ByLayer
370
18
48
1
60
0
100
AcDbSpline
70
4
71
3
72
12
73
8
40
0
40
0
40
0
40
0
40
0.250000000000011
40
0.250000000000011
40
0.500000000000022
40
0.500000000000022
40
1
40
1
40
1
40
1
41
1
10
4.13592335341156
20
6.15674801707496
30
0
41
1
10
4.11540504898812
20
6.16345032355574
30
0
41
1
10
4.09678963848322
20
6.17176022924659
30
0
41
1
10
4.06326597633867
20
6.19145444000469
30
0
41
1
10
4.04860983289504
20
6.20277755491639
30
0
41
1
10
4.01299429741212
20
6.2393853388148
30
0
41
1
10
4.00000040823204
20
6.26778811373367
30
0
41
1
10
4.00000040823204
20
6.29620796087011
30
0
0
SPLINE
5
E6
100
AcDbEntity
8
1
62
256
6
ByLayer
370
18
48
1
60
0
100
AcDbSpline
70
4
71
3
72
8
73
4
40
0
40
0
40
0
40
0
40
1
40
1
40
1
40
1
41
1
10
92.5351221303193
20
-4.28085712394707
30
0
41
1
10
92.2337921717556
20
-4.85190422371585
30
0
41
1
10
91.9385802200877
20
-5.42850150230137
30
0
41
1
10
91.6495406245388
20
-6.01069826463456
30
0
0
SPLINE
5
E7
100
AcDbEntity
8
1
62
256
6
ByLayer
370
18
48
1
60
0
100
AcDbSpline
70
4
71
3
72
25
73
21
40
0
40
0
40
0
40
0
40
0.0111918568370319
40
0.059853175349074
40
0.0989085716410159
40
0.130754231735267
40
0.173956486798318
40
0.241394051734879
40
0.295074276242503
40
0.352322336722448
40
0.414616362079783
40
0.490751541253755
40
0.571826599555944
40
0.641262104087723
40
0.692181876030263
40
0.740899337585137
40
0.806209056997826
40
0.863171058647439
40
0.934400609798097
40
1
40
1
40
1
40
1
41
1
10
16.7386554852723
20
7.60176075264241
30
0
41
1
10
16.6920356520016
20
7.601728870447
30
0
41
1
10
16.4428115266194
20
7.6015880918404
30
0
41
1
10
16.0339584703812
20
7.60219724110007
30
0
41
1
10
15.5365243786473
20
7.60213712063558
30
0
41
1
10
15.0613376473301
20
7.60179823710928
30
0
41
1
10
14.4680963365211
20
7.60092086166136
30
0
41
1
10
13.7838777099103
20
7.60061020837762
30
0
41
1
10
13.0411915925283
20
7.60076544924672
30
0
41
1
10
12.3199584176678
20
7.60029022141194
30
0
41
1
10
11.505250962126
20
7.59910168239944
30
0
41
1
10
10.5912509197194
20
7.59931838755824
30
0
41
1
10
9.64756054225535
20
7.59825301957952
30
0
41
1
10
8.80885949471394
20
7.59631746661125
30
0
41
1
10
8.10486262451201
20
7.59658119167639
30
0
41
1
10
7.41806103539381
20
7.59613906648366
30
0
41
1
10
6.70609075318401
20
7.59570807816525
30
0
41
1
10
5.90038374517627
20
7.59527848120476
30
0
41
1
10
5.09347077965907
20
7.59459893330489
30
0
41
1
10
4.52373966595701
20
7.59337370116978
30
0
41
1
10
4.25059585630476
20
7.59265882919993
30
0
0
SPLINE
5
E8
100
AcDbEntity
8
1
62
256
6
ByLayer
370
18
48
1
60
0
100
AcDbSpline
70
4
71
2
72
6
73
3
40
0
40
0
40
0
40
1
40
1
40
1
41
1
10
91.5818093855318
20
-7.64705454013975
30
0
41
1
10
91.9025908765148
20
-7.64659229617027
30
0
41
1
10
92.2233816810316
20
-7.64741073116261
30
0
0
SPLINE
5
E9
100
AcDbEntity
8
1
62
256
6
ByLayer
370
18
48
1
60
0
100
AcDbSpline
70
4
71
3
72
37
73
33
40
0
40
0
40
0
40
0
40
0.0339840558596268
40
0.0667367996032714
40
0.0957057950769633
40
0.123009374955796
40
0.149059126896235
40
0.175030384429521
40
0.209437336456912
40
0.244980252449181
40
0.277091242382093
40
0.315590940816175
40
0.354628967319878
40
0.383775071571248
40
0.424473048086103
40
0.4638286434144
40
0.489822952240746
40
0.516249898244794
40
0.547137959991694
40
0.587637659813522
40
0.623711011238277
40
0.662849623755164
40
0.704525248781768
40
0.740257583710366
40
0.775950923221932
40
0.817384922139537
40
0.858310497137825
40
0.89985161616495
40
0.922946178859603
40
0.94775731434999
40
0.974849946741679
40
1
40
1
40
1
40
1
41
1
10
42.5308421652472
20
-7.61580757170461
30
0
41
1
10
42.7862452880147
20
-7.61518978490238
30
0
41
1
10
43.29123736019
20
-7.61458802146927
30
0
41
1
10
44.0399978835572
20
-7.61287072446942
30
0
41
1
10
44.7187504004653
20
-7.61727058390099
30
0
41
1
10
45.3501160666486
20
-7.61806967864189
30
0
41
1
10
45.9649580875998
20
-7.61831322813734
30
0
41
1
10
46.6353651401615
20
-7.61866731366194
30
0
41
1
10
47.3792332760368
20
-7.61962919642829
30
0
41
1
10
48.1707495837243
20
-7.61996301704255
30
0
41
1
10
48.9940405002784
20
-7.61997911359109
30
0
41
1
10
49.8444287262497
20
-7.62113572192408
30
0
41
1
10
50.6718221242409
20
-7.62177753905107
30
0
41
1
10
51.5162697608401
20
-7.62146946544925
30
0
41
1
10
52.3631593862473
20
-7.62237603905106
30
0
41
1
10
53.1856342526573
20
-7.62297087278125
30
0
41
1
10
53.8973996418098
20
-7.62289628762986
30
0
41
1
10
54.5435102313477
20
-7.62277080121836
30
0
41
1
10
55.3021206574543
20
-7.62421030675424
30
0
41
1
10
56.1355457471136
20
-7.62462223390324
30
0
41
1
10
57.0329568536907
20
-7.62386542131114
30
0
41
1
10
57.9394883116057
20
-7.62568021549856
30
0
41
1
10
58.8433770648063
20
-7.62618145626425
30
0
41
1
10
59.7205391212447
20
-7.62524937938176
30
0
41
1
10
60.5958291183829
20
-7.62696350570027
30
0
41
1
10
61.5114062686495
20
-7.62733286217136
30
0
41
1
10
62.4723052367276
20
-7.62719888277769
30
0
41
1
10
63.2910570561239
20
-7.6288302982075
30
0
41
1
10
63.9846189884158
20
-7.62895737472456
30
0
41
1
10
64.5659808440502
20
-7.62868933183742
30
0
41
1
10
65.1628882970457
20
-7.62863282059459
30
0
41
1
10
65.5680885884375
20
-7.62909666605631
30
0
41
1
10
65.7632099744763
20
-7.62940842165662
30
0
0
SPLINE
5
EA
100
AcDbEntity
8
1
62
256
6
ByLayer
370
18
48
1
60
0
100
AcDbSpline
70
4
71
3
72
31
73
27
40
0
40
0
40
0
40
0
40
0.0240137397380859
40
0.0488907172347992
40
0.0727994581305466
40
0.0974640674305932
40
0.139890367540275
40
0.186797170179028
40
0.231000148474147
40
0.265301741986916
40
0.304968739952024
40
0.360852197022
40
0.423174902168092
40
0.485608822904288
40
0.548800767827451
40
0.59896773597507
40
0.647907231776755
40
0.688575986238321
40
0.724105847565038
40
0.770281810168134
40
0.811963719612729
40
0.846113591299884
40
0.894815559363265
40
0.941788538740696
40
0.986363401136881
40
1
40
1
40
1
40
1
41
1
10
65.832160910785
20
7.62913570107582
30
0
41
1
10
65.6842024212018
20
7.62915658959508
30
0
41
1
10
65.3820684882056
20
7.62915666184273
30
0
41
1
10
64.9287403477967
20
7.62875127320257
30
0
41
1
10
64.4700433650559
20
7.62876033805532
30
0
41
1
10
63.902100858405
20
7.62899050164029
30
0
41
1
10
63.1904552972061
20
7.62865108699415
30
0
41
1
10
62.3569885444168
20
7.6271875603862
30
0
41
1
10
61.573865805066
20
7.62722474035289
30
0
41
1
10
60.8377607933506
20
7.62730402234467
30
0
41
1
10
60.031602882756
20
7.62387926616168
30
0
41
1
10
59.0465142146045
20
7.62615813580095
30
0
41
1
10
57.9210685556379
20
7.6256464858894
30
0
41
1
10
56.7472480827091
20
7.62379919582401
30
0
41
1
10
55.6500841159966
20
7.62480839272621
30
0
41
1
10
54.6368989930172
20
7.62279020195206
30
0
41
1
10
53.7662926586012
20
7.62258902246242
30
0
41
1
10
52.9839388418178
20
7.62259462128281
30
0
41
1
10
52.2231878638935
20
7.62224856994007
30
0
41
1
10
51.4521031833037
20
7.62146012623703
30
0
41
1
10
50.6908057450983
20
7.62171576275921
30
0
41
1
10
49.9131012358673
20
7.621373091923
30
0
41
1
10
49.1059908316513
20
7.61938004625728
30
0
41
1
10
48.2290021178987
20
7.61971146091051
30
0
41
1
10
47.5753461864722
20
7.61985395845116
30
0
41
1
10
47.2142603024218
20
7.61927127903988
30
0
41
1
10
47.1296229502982
20
7.61912448349668
30
0
0
SPLINE
5
EB
100
AcDbEntity
8
1
62
256
6
ByLayer
370
18
48
1
60
0
100
AcDbSpline
70
4
71
3
72
27
73
23
40
0
40
0
40
0
40
0
40
0.0667021367384278
40
0.137778233539413
40
0.194617518328227
40
0.251499088410071
40
0.296174615792412
40
0.335159062122667
40
0.386652747743945
40
0.45164910861254
40
0.520596019211371
40
0.585366869096691
40
0.631018204224221
40
0.674157695481567
40
0.714462253640726
40
0.752985346208976
40
0.799159259662282
40
0.849095952206773
40
0.884279520390269
40
0.915536946135091
40
0.954367108297813
40
1
40
1
40
1
40
1
41
1
10
4.2350220325043
20
-7.59262617083047
30
0
41
1
10
4.51335710813134
20
-7.59335604896384
30
0
41
1
10
5.08827959950639
20
-7.59459199369772
30
0
41
1
10
5.90038338987588
20
-7.59527967137871
30
0
41
1
10
6.67150972396055
20
-7.5956875423592
30
0
41
1
10
7.33246512158144
20
-7.59609328215254
30
0
41
1
10
7.91892043944657
20
-7.59645185606502
30
0
41
1
10
8.48288368699451
20
-7.5965349932172
30
0
41
1
10
9.13165614330055
20
-7.59666146145895
30
0
41
1
10
9.90541647923419
20
-7.59888633928026
30
0
41
1
10
10.7346117707003
20
-7.59919036214794
30
0
41
1
10
11.4830935290871
20
-7.59920991401617
30
0
41
1
10
12.1238488304688
20
-7.59992063957574
30
0
41
1
10
12.6624944988284
20
-7.60061678881917
30
0
41
1
10
13.171430508517
20
-7.60070068388302
30
0
41
1
10
13.6930433142451
20
-7.60066008804148
30
0
41
1
10
14.2548330513791
20
-7.60077968584994
30
0
41
1
10
14.8027494411846
20
-7.60141133789821
30
0
41
1
10
15.2882420513181
20
-7.60201906210781
30
0
41
1
10
15.7277223076437
20
-7.60217818184822
30
0
41
1
10
16.2088225494896
20
-7.60197938623034
30
0
41
1
10
16.5602439871521
20
-7.60180382610957
30
0
41
1
10
16.74999898355
20
-7.60167266675714
30
0
0
SPLINE
5
EC
100
AcDbEntity
8
1
62
256
6
ByLayer
370
18
48
1
60
0
100
AcDbSpline
70
4
71
2
72
6
73
3
40
0
40
0
40
0
40
1
40
1
40
1
41
1
10
66.8465033035068
20
-7.74712544569E-05
30
0
41
1
10
66.8464876859458
20
-7.03582559538E-05
30
0
41
1
10
66.8464720683747
20
-6.29209513932E-05
30
0
0
LINE
5
7B
100
AcDbEntity
8
SK1
62
256
6
ByLayer
370
18
48
1
60
0
100
AcDbLine
10
-48
20
-5.485766
30
0
11
-48
21
-6.249299
31
0
39
0
210
0
220
0
230
1
0
LINE
5
7D
100
AcDbEntity
8
SK1
62
256
6
ByLayer
370
13
48
1
60
0
100
AcDbLine
10
-46.2
20
-7.266674
30
0
11
-46.2
21
-8.030336
31
0
39
0
210
0
220
0
230
1
0
LINE
5
7E
100
AcDbEntity
8
SK1
62
256
6
ByLayer
370
18
48
1
60
0
100
AcDbLine
10
-48
20
-6.25
30
0
11
-48
21
-6.249299
31
0
39
0
210
0
220
0
230
1
0
LINE
5
7F
100
AcDbEntity
8
SK1
62
256
6
ByLayer
370
18
48
1
60
0
100
AcDbLine
10
-45.25
20
9
30
0
11
-45.25
21
-9
31
0
39
0
210
0
220
0
230
1
0
LINE
5
80
100
AcDbEntity
8
SK1
62
256
6
ByLayer
370
18
48
1
60
0
100
AcDbLine
10
0
20
-9
30
0
11
0
21
9
31
0
39
0
210
0
220
0
230
1
0
LINE
5
81
100
AcDbEntity
8
SK1
62
256
6
ByLayer
370
18
48
1
60
0
100
AcDbLine
10
-46.1
20
-8.120779
30
0
11
-46.1
21
-7.408151
31
0
39
0
210
0
220
0
230
1
0
LINE
5
82
100
AcDbEntity
8
SK1
62
256
6
ByLayer
370
18
48
1
60
0
100
AcDbLine
10
-48
20
6.25
30
0
11
-48
21
-5.485769
31
0
39
0
210
0
220
0
230
1
0
LINE
5
83
100
AcDbEntity
8
1
62
256
6
ByLayer
370
13
48
1
60
0
100
AcDbLine
10
0.743013
20
8.496532
30
0
11
0.743013
21
-8.496532
31
0
39
0
210
0
220
0
230
1
0
LINE
5
84
100
AcDbEntity
8
1
62
256
6
ByLayer
370
18
48
1
60
0
100
AcDbLine
10
4
20
7.994635
30
0
11
4
21
6.296208
31
0
39
0
210
0
220
0
230
1
0
LINE
5
85
100
AcDbEntity
8
1
62
256
6
ByLayer
370
13
48
1
60
0
100
AcDbLine
10
1.486527
20
7.993064
30
0
11
1.486527
21
-7.993064
31
0
39
0
210
0
220
0
230
1
0
LINE
5
86
100
AcDbEntity
8
1
62
256
6
ByLayer
370
18
48
1
60
0
100
AcDbLine
10
4
20
-7.994635
30
0
11
4
21
-4.640793
31
0
39
0
210
0
220
0
230
1
0
LINE
5
87
100
AcDbEntity
8
1
62
256
6
ByLayer
370
18
48
1
60
0
100
AcDbLine
10
0
20
-9
30
0
11
0
21
9
31
0
39
0
210
0
220
0
230
1
0
LINE
5
88
100
AcDbEntity
8
1
62
256
6
ByLayer
370
13
48
1
60
0
100
AcDbLine
10
92.293547
20
1.926646
30
0
11
94.969624
21
0.232626
31
0
39
0
210
0
220
0
230
1
0
LINE
5
89
100
AcDbEntity
8
1
62
256
6
ByLayer
370
13
48
1
60
0
100
AcDbLine
10
92.118557
20
1.798192
30
0
11
94.967507
21
-0.005262
31
0
39
0
210
0
220
0
230
1
0
LINE
5
8A
100
AcDbEntity
8
80
62
256
6
ByLayer
370
18
48
1
60
0
100
AcDbLine
10
0
20
0
30
0
11
-5
21
0
31
0
39
0
210
0
220
0
230
1
0
LINE
5
8B
100
AcDbEntity
8
4
62
256
6
ByLayer
370
18
48
0.05
60
0
100
AcDbLine
10
95
20
0
30
0
11
0
21
0
31
0
39
0
210
0
220
0
230
1
0
LINE
5
8D
100
AcDbEntity
8
SK4
62
256
6
ByLayer
370
18
48
0.05
60
0
100
AcDbLine
10
100
20
0
30
0
11
-53
21
0
31
0
39
0
210
0
220
0
230
1
0
LINE
5
8F
100
AcDbEntity
8
SK1
62
256
6
ByLayer
370
18
48
1
60
0
100
AcDbLine
10
-45.25
20
-9
30
0
11
0
21
-9
31
0
39
0
210
0
220
0
230
1
0
LINE
5
90
100
AcDbEntity
8
SK1
62
256
6
ByLayer
370
18
48
1
60
0
100
AcDbLine
10
0
20
9
30
0
11
-45.25
21
9
31
0
39
0
210
0
220
0
230
1
0
LINE
5
91
100
AcDbEntity
8
SK1
62
256
6
ByLayer
370
18
48
1
60
0
100
AcDbLine
10
-48
20
-6.25
30
0
11
-45.25
21
-9
31
0
39
0
210
0
220
0
230
1
0
LINE
5
92
100
AcDbEntity
8
SK1
62
256
6
ByLayer
370
18
48
1
60
0
100
AcDbLine
10
-45.25
20
9
30
0
11
-48
21
6.25
31
0
39
0
210
0
220
0
230
1
0
LINE
5
93
100
AcDbEntity
8
1
62
256
6
ByLayer
370
18
48
1
60
0
100
AcDbLine
10
1.486527
20
-7.993064
30
0
11
4
21
-7.994635
31
0
39
0
210
0
220
0
230
1
0
LINE
5
94
100
AcDbEntity
8
1
62
256
6
ByLayer
370
18
48
1
60
0
100
AcDbLine
10
39.893249
20
-8.017068
30
0
11
42.34608
21
-8.018601
31
0
39
0
210
0
220
0
230
1
0
LINE
5
95
100
AcDbEntity
8
1
62
256
6
ByLayer
370
18
48
1
60
0
100
AcDbLine
10
88.888459
20
-8.04769
30
0
11
91.346685
21
-8.049227
31
0
39
0
210
0
220
0
230
1
0
LINE
5
96
100
AcDbEntity
8
1
62
256
6
ByLayer
370
18
48
1
60
0
100
AcDbLine
10
91.346742
20
8.049227
30
0
11
88.888459
21
8.04769
31
0
39
0
210
0
220
0
230
1
0
LINE
5
97
100
AcDbEntity
8
1
62
256
6
ByLayer
370
18
48
1
60
0
100
AcDbLine
10
42.346257
20
8.018602
30
0
11
39.893249
21
8.017068
31
0
39
0
210
0
220
0
230
1
0
LINE
5
98
100
AcDbEntity
8
1
62
256
6
ByLayer
370
18
48
1
60
0
100
AcDbLine
10
4
20
7.994635
30
0
11
1.486527
21
7.993064
31
0
39
0
210
0
220
0
230
1
0
LINE
5
99
100
AcDbEntity
8
81
62
256
6
ByLayer
370
18
48
1
60
0
100
AcDbLine
10
95
20
0
30
0
11
100
21
0
31
0
39
0
210
0
220
0
230
1
0
LINE
5
9A
100
AcDbEntity
8
SK2
62
256
6
ByLayer
370
13
48
1
60
0
100
AcDbLine
10
-56.625163
20
-9
30
0
11
-56.625163
21
39.857173
31
0
39
0
210
0
220
0
230
1
0
LINE
5
9C
100
AcDbEntity
8
SK2
62
256
6
ByLayer
370
13
48
1
60
0
100
AcDbLine
10
-49.5875
20
9
30
0
11
-58.625163
21
9
31
0
39
0
210
0
220
0
230
1
0
LINE
5
9D
100
AcDbEntity
8
SK2
62
256
6
ByLayer
370
13
48
1
60
0
100
AcDbLine
10
-49.5875
20
-9
30
0
11
-58.625163
21
-9
31
0
39
0
210
0
220
0
230
1
0
LINE
5
9E
100
AcDbEntity
8
1
62
256
6
ByLayer
370
18
48
1
60
1
100
AcDbLine
10
-56.625163
20
9
30
0
11
-56.164379
21
5.500002
31
0
39
0
210
0
220
0
230
1
0
LINE
5
9F
100
AcDbEntity
8
1
62
256
6
ByLayer
370
18
48
1
60
1
100
AcDbLine
10
-56.164379
20
5.500002
30
0
11
-57.085946
21
5.499998
31
0
39
0
210
0
220
0
230
1
0
LINE
5
A0
100
AcDbEntity
8
1
62
256
6
ByLayer
370
18
48
1
60
1
100
AcDbLine
10
-57.085946
20
5.499998
30
0
11
-56.625163
21
9
31
0
39
0
210
0
220
0
230
1
0
LINE
5
A1
100
AcDbEntity
8
1
62
256
6
ByLayer
370
18
48
1
60
1
100
AcDbLine
10
-56.625163
20
-9
30
0
11
-57.085946
21
-5.500002
31
0
39
0
210
0
220
0
230
1
0
LINE
5
A2
100
AcDbEntity
8
1
62
256
6
ByLayer
370
18
48
1
60
1
100
AcDbLine
10
-57.085946
20
-5.500002
30
0
11
-56.164379
21
-5.499998
31
0
39
0
210
0
220
0
230
1
0
LINE
5
A3
100
AcDbEntity
8
1
62
256
6
ByLayer
370
18
48
1
60
1
100
AcDbLine
10
-56.164379
20
-5.499998
30
0
11
-56.625163
21
-9
31
0
39
0
210
0
220
0
230
1
0
LINE
5
A4
100
AcDbEntity
8
2
62
256
6
ByLayer
370
13
48
1
60
0
100
AcDbLine
10
107.083343
20
-8.05
30
0
11
107.083343
21
36.625392
31
0
39
0
210
0
220
0
230
1
0
LINE
5
A6
100
AcDbEntity
8
2
62
256
6
ByLayer
370
13
48
1
60
0
100
AcDbLine
10
94.1842
20
8.05
30
0
11
109.083343
21
8.05
31
0
39
0
210
0
220
0
230
1
0
LINE
5
A7
100
AcDbEntity
8
2
62
256
6
ByLayer
370
13
48
1
60
0
100
AcDbLine
10
94.1842
20
-8.05
30
0
11
109.083343
21
-8.05
31
0
39
0
210
0
220
0
230
1
0
LINE
5
A8
100
AcDbEntity
8
1
62
256
6
ByLayer
370
18
48
1
60
1
100
AcDbLine
10
107.083343
20
8.05
30
0
11
107.544126
21
4.550002
31
0
39
0
210
0
220
0
230
1
0
LINE
5
A9
100
AcDbEntity
8
1
62
256
6
ByLayer
370
18
48
1
60
1
100
AcDbLine
10
107.544126
20
4.550002
30
0
11
106.622559
21
4.549998
31
0
39
0
210
0
220
0
230
1
0
LINE
5
AA
100
AcDbEntity
8
1
62
256
6
ByLayer
370
18
48
1
60
1
100
AcDbLine
10
106.622559
20
4.549998
30
0
11
107.083343
21
8.05
31
0
39
0
210
0
220
0
230
1
0
LINE
5
AB
100
AcDbEntity
8
1
62
256
6
ByLayer
370
18
48
1
60
1
100
AcDbLine
10
107.083343
20
-8.05
30
0
11
106.622559
21
-4.550002
31
0
39
0
210
0
220
0
230
1
0
LINE
5
AC
100
AcDbEntity
8
1
62
256
6
ByLayer
370
18
48
1
60
1
100
AcDbLine
10
106.622559
20
-4.550002
30
0
11
107.544126
21
-4.549998
31
0
39
0
210
0
220
0
230
1
0
LINE
5
AD
100
AcDbEntity
8
1
62
256
6
ByLayer
370
18
48
1
60
1
100
AcDbLine
10
107.544126
20
-4.549998
30
0
11
107.083343
21
-8.05
31
0
39
0
210
0
220
0
230
1
0
LINE
5
F3
100
AcDbEntity
8
1
62
256
6
ByLayer
370
18
48
1
60
1
100
AcDbLine
10
-56.625163
20
9
30
0
11
-56.164379
21
5.500002
31
0
39
0
210
0
220
0
230
1
0
LINE
5
F4
100
AcDbEntity
8
1
62
256
6
ByLayer
370
18
48
1
60
1
100
AcDbLine
10
-56.164379
20
5.500002
30
0
11
-57.085946
21
5.499998
31
0
39
0
210
0
220
0
230
1
0
LINE
5
F5
100
AcDbEntity
8
1
62
256
6
ByLayer
370
18
48
1
60
1
100
AcDbLine
10
-57.085946
20
5.499998
30
0
11
-56.625163
21
9
31
0
39
0
210
0
220
0
230
1
0
LINE
5
F7
100
AcDbEntity
8
1
62
256
6
ByLayer
370
18
48
1
60
1
100
AcDbLine
10
-56.625163
20
-9
30
0
11
-57.085946
21
-5.500002
31
0
39
0
210
0
220
0
230
1
0
LINE
5
F8
100
AcDbEntity
8
1
62
256
6
ByLayer
370
18
48
1
60
1
100
AcDbLine
10
-57.085946
20
-5.500002
30
0
11
-56.164379
21
-5.499998
31
0
39
0
210
0
220
0
230
1
0
LINE
5
F9
100
AcDbEntity
8
1
62
256
6
ByLayer
370
18
48
1
60
1
100
AcDbLine
10
-56.164379
20
-5.499998
30
0
11
-56.625163
21
-9
31
0
39
0
210
0
220
0
230
1
0
LINE
5
FD
100
AcDbEntity
8
1
62
256
6
ByLayer
370
18
48
1
60
1
100
AcDbLine
10
107.083343
20
8.05
30
0
11
107.544126
21
4.550002
31
0
39
0
210
0
220
0
230
1
0
LINE
5
FE
100
AcDbEntity
8
1
62
256
6
ByLayer
370
18
48
1
60
1
100
AcDbLine
10
107.544126
20
4.550002
30
0
11
106.622559
21
4.549998
31
0
39
0
210
0
220
0
230
1
0
LINE
5
FF
100
AcDbEntity
8
1
62
256
6
ByLayer
370
18
48
1
60
1
100
AcDbLine
10
106.622559
20
4.549998
30
0
11
107.083343
21
8.05
31
0
39
0
210
0
220
0
230
1
0
LINE
5
101
100
AcDbEntity
8
1
62
256
6
ByLayer
370
18
48
1
60
1
100
AcDbLine
10
107.083343
20
-8.05
30
0
11
106.622559
21
-4.550002
31
0
39
0
210
0
220
0
230
1
0
LINE
5
102
100
AcDbEntity
8
1
62
256
6
ByLayer
370
18
48
1
60
1
100
AcDbLine
10
106.622559
20
-4.550002
30
0
11
107.544126
21
-4.549998
31
0
39
0
210
0
220
0
230
1
0
LINE
5
103
100
AcDbEntity
8
1
62
256
6
ByLayer
370
18
48
1
60
1
100
AcDbLine
10
107.544126
20
-4.549998
30
0
11
107.083343
21
-8.05
31
0
39
0
210
0
220
0
230
1
0
MTEXT
5
ED
100
AcDbEntity
8
SK6
62
256
6
ByLayer
370
13
48
1
60
0
100
AcDbMText
10
-4.770327
20
40.590328
30
0
210
0
220
0
230
1
1
\W0.7456;462.1-1610-072A1-XM X2BM
40
3.5
41
0
44
1.084337
50
0
71
7
72
5
7
iso_b_vert
0
MTEXT
5
F1
100
AcDbEntity
8
SK2
62
256
6
ByLayer
370
18
48
1
60
0
100
AcDbMText
10
-58.189796
20
22.409024
30
0
210
0
220
0
230
1
1
%%c
40
3.5
41
0
44
1.084337
50
90
71
7
72
5
7
iso_b_vert
0
MTEXT
5
F2
100
AcDbEntity
8
SK2
62
256
6
ByLayer
370
18
48
1
60
0
100
AcDbMText
10
-58.189796
20
27.63168
30
0
210
0
220
0
230
1
1
\W0.6930;18,000
40
3.5
41
0
44
1.084337
50
90
71
7
72
5
7
iso_b_vert
0
MTEXT
5
FB
100
AcDbEntity
8
2
62
256
6
ByLayer
370
18
48
1
60
0
100
AcDbMText
10
105.518709
20
20.05211
30
0
210
0
220
0
230
1
1
%%c
40
3.5
41
0
44
1.084337
50
90
71
7
72
5
7
iso_b_vert
0
MTEXT
5
FC
100
AcDbEntity
8
2
62
256
6
ByLayer
370
18
48
1
60
0
100
AcDbMText
10
105.518709
20
25.274766
30
0
210
0
220
0
230
1
1
\W0.6440;16,100
40
3.5
41
0
44
1.084337
50
90
71
7
72
5
7
iso_b_vert
0
HATCH
5
F6
100
AcDbEntity
8
SK2
62
256
6
ByLayer
370
13
48
1
60
0
100
AcDbHatch
10
0
20
0
30
0
210
0
220
0
230
1
2
ANSI31
70
0
71
0
91
1
92
5
93
3
72
1
10
-56.6251625675374
20
9
11
-56.1643788259847
21
5.50000169255318
72
1
10
-56.1643788259847
20
5.50000169255318
11
-57.0859463090902
21
5.49999830744682
72
1
10
-57.0859463090902
20
5.49999830744682
11
-56.6251625675374
21
9
97
0
75
0
76
1
52
0
41
0.0062
77
0
78
1
53
45
43
0
44
0
45
-0.0139193969876572
46
0.0139193969876572
79
0
47
0
98
1
10
0
20
0
0
HATCH
5
FA
100
AcDbEntity
8
SK2
62
256
6
ByLayer
370
13
48
1
60
0
100
AcDbHatch
10
0
20
0
30
0
210
0
220
0
230
1
2
ANSI31
70
0
71
0
91
1
92
5
93
3
72
1
10
-56.6251625675374
20
-9
11
-57.0859463090902
21
-5.50000169255318
72
1
10
-57.0859463090902
20
-5.50000169255318
11
-56.1643788259847
21
-5.49999830744682
72
1
10
-56.1643788259847
20
-5.49999830744682
11
-56.6251625675374
21
-9
97
0
75
0
76
1
52
0
41
0.0062
77
0
78
1
53
45
43
0
44
0
45
-0.0139193969876572
46
0.0139193969876572
79
0
47
0
98
1
10
0
20
0
0
HATCH
5
100
100
AcDbEntity
8
2
62
256
6
ByLayer
370
13
48
1
60
0
100
AcDbHatch
10
0
20
0
30
0
210
0
220
0
230
1
2
ANSI31
70
0
71
0
91
1
92
5
93
3
72
1
10
107.083342615295
20
8.05000000000001
11
107.544126356848
21
4.5500016925532
72
1
10
107.544126356848
20
4.5500016925532
11
106.622558873742
21
4.54999830744683
72
1
10
106.622558873742
20
4.54999830744683
11
107.083342615295
21
8.05000000000001
97
0
75
0
76
1
52
0
41
0.0062
77
0
78
1
53
45
43
0
44
0
45
-0.0139193969876572
46
0.0139193969876572
79
0
47
0
98
1
10
0
20
0
0
HATCH
5
104
100
AcDbEntity
8
2
62
256
6
ByLayer
370
13
48
1
60
0
100
AcDbHatch
10
0
20
0
30
0
210
0
220
0
230
1
2
ANSI31
70
0
71
0
91
1
92
5
93
3
72
1
10
107.083342615295
20
-8.04999999999998
11
106.622558873742
21
-4.55000169255317
72
1
10
106.622558873742
20
-4.55000169255317
11
107.544126356848
21
-4.5499983074468
72
1
10
107.544126356848
20
-4.5499983074468
11
107.083342615295
21
-8.04999999999998
97
0
75
0
76
1
52
0
41
0.0062
77
0
78
1
53
45
43
0
44
0
45
-0.0139193969876572
46
0.0139193969876572
79
0
47
0
98
1
10
0
20
0
0
DIMENSION
5
106
100
AcDbEntity
8
SK2
62
256
6
ByLayer
370
13
48
1
60
0
100
AcDbDimension
2
_U0
10
92.5967
20
-18.263398
30
0
11
46.29835
21
-18.263398
31
0
70
32
71
1
72
1
41
1
210
0
220
0
230
1
3
Standard
100
AcDbAlignedDimension
13
0
23
0
33
0
14
92.5967
24
-8.05
34
0
50
0
100
AcDbRotatedDimension
1001
ACAD
1000
DSTYLE
1002
{
1070
   371
1070
    13
1070
   372
1070
    13
1070
   170
1070
     0
1070
   144
1040
1.0
1070
   277
1070
     2
1070
   278
1070
    44
1070
   146
1040
1.0
1070
   345
1005
16
1070
   347
1005
16
1070
   346
1005
16
1070
   344
1005
0
1070
   343
1005
0
1070
   172
1070
     1
1070
    76
1070
     0
1070
    75
1070
     0
1070
   282
1070
     0
1070
   281
1070
     0
1070
    71
1070
     0
1070
    74
1070
     0
1070
   279
1070
     0
1070
   173
1070
     1
1070
   340
1005
EE
1070
   271
1070
     2
1070
   272
1070
     2
1070
    77
1070
     1
1070
    73
1070
     1
1070
   171
1070
     3
1070
   274
1070
     4
1070
   177
1070
    35
1070
   176
1070
    35
1070
   178
1070
    35
1070
    48
1040
-0.1
1070
    41
1040
3.5
1070
   147
1040
1.75
1070
    42
1040
1.5875
1070
    44
1040
2.0
1070
   140
1040
3.5
1002
}
1001
ACAD_DSTYLE_DIM_LINETYPE
1070
   380
1005
16
1001
ACAD_DSTYLE_DIM_EXT1_LINETYPE
1070
   381
1005
16
1001
ACAD_DSTYLE_DIM_EXT2_LINETYPE
1070
   382
1005
16
0
DIMENSION
5
11F
100
AcDbEntity
8
SK2
62
256
6
ByLayer
370
13
48
1
60
0
100
AcDbDimension
2
_U1
10
95
20
-37.692985
30
0
11
23.5
21
-37.692985
31
0
70
32
71
1
72
1
41
1
210
0
220
0
230
1
3
Standard
100
AcDbAlignedDimension
13
-48
23
-9
33
0
14
95
24
0
34
0
50
0
100
AcDbRotatedDimension
1001
ACAD
1000
DSTYLE
1002
{
1070
   371
1070
    13
1070
   372
1070
    13
1070
   170
1070
     0
1070
   144
1040
1.0
1070
   277
1070
     2
1070
   278
1070
    44
1070
   146
1040
1.0
1070
   345
1005
16
1070
   347
1005
16
1070
   346
1005
16
1070
   344
1005
0
1070
   343
1005
0
1070
   172
1070
     1
1070
    76
1070
     0
1070
    75
1070
     0
1070
   282
1070
     0
1070
   281
1070
     0
1070
    71
1070
     0
1070
    74
1070
     0
1070
   279
1070
     0
1070
   173
1070
     1
1070
   340
1005
EE
1070
   271
1070
     2
1070
   272
1070
     2
1070
    77
1070
     1
1070
    73
1070
     1
1070
   171
1070
     3
1070
   274
1070
     4
1070
   177
1070
    35
1070
   176
1070
    35
1070
   178
1070
    35
1070
    48
1040
-0.1
1070
    41
1040
3.5
1070
   147
1040
1.75
1070
    42
1040
1.5875
1070
    44
1040
2.0
1070
   140
1040
3.5
1002
}
1001
ACAD_DSTYLE_DIM_LINETYPE
1070
   380
1005
16
1001
ACAD_DSTYLE_DIM_EXT1_LINETYPE
1070
   381
1005
16
1001
ACAD_DSTYLE_DIM_EXT2_LINETYPE
1070
   382
1005
16
0
DIMENSION
5
137
100
AcDbEntity
8
SK2
62
256
6
ByLayer
370
13
48
1
60
0
100
AcDbDimension
2
_U2
10
95
20
19.659119
30
0
11
56.55
21
19.659119
31
0
70
32
71
1
72
1
41
1
210
0
220
0
230
1
3
Standard
100
AcDbAlignedDimension
13
18.1
23
8.05
33
0
14
95
24
0
34
0
50
0
100
AcDbRotatedDimension
1001
ACAD
1000
DSTYLE
1002
{
1070
   371
1070
    13
1070
   372
1070
    13
1070
   170
1070
     0
1070
   144
1040
1.0
1070
   277
1070
     2
1070
   278
1070
    44
1070
   146
1040
1.0
1070
   345
1005
16
1070
   347
1005
16
1070
   346
1005
16
1070
   344
1005
0
1070
   343
1005
0
1070
   172
1070
     1
1070
    76
1070
     0
1070
    75
1070
     0
1070
   282
1070
     0
1070
   281
1070
     0
1070
    71
1070
     0
1070
    74
1070
     0
1070
   279
1070
     0
1070
   173
1070
     1
1070
   340
1005
EE
1070
   271
1070
     2
1070
   272
1070
     2
1070
    77
1070
     1
1070
    73
1070
     1
1070
   171
1070
     3
1070
   274
1070
     4
1070
   177
1070
    35
1070
   176
1070
    35
1070
   178
1070
    35
1070
    48
1040
-0.1
1070
    41
1040
3.5
1070
   147
1040
1.75
1070
    42
1040
1.5875
1070
    44
1040
2.0
1070
   140
1040
3.5
1002
}
1001
ACAD_DSTYLE_DIM_LINETYPE
1070
   380
1005
16
1001
ACAD_DSTYLE_DIM_EXT1_LINETYPE
1070
   381
1005
16
1001
ACAD_DSTYLE_DIM_EXT2_LINETYPE
1070
   382
1005
16
0
DIMENSION
5
14F
100
AcDbEntity
8
SK2
62
256
6
ByLayer
370
13
48
1
60
0
100
AcDbDimension
2
_U3
10
92.5967
20
-20.852503
30
0
11
112.583333
21
-20.852503
31
0
70
32
71
1
72
1
41
1
210
0
220
0
230
1
3
Standard
100
AcDbAlignedDimension
13
95
23
0
33
0
14
92.5967
24
-8.05
34
0
50
0
100
AcDbRotatedDimension
1001
ACAD
1000
DSTYLE
1002
{
1070
   371
1070
    13
1070
   372
1070
    13
1070
   170
1070
     0
1070
   144
1040
1.0
1070
   277
1070
     2
1070
   278
1070
    44
1070
   146
1040
1.0
1070
   345
1005
16
1070
   347
1005
16
1070
   346
1005
16
1070
   344
1005
0
1070
   343
1005
0
1070
   172
1070
     1
1070
    76
1070
     0
1070
    75
1070
     0
1070
   282
1070
     0
1070
   281
1070
     0
1070
    71
1070
     0
1070
    74
1070
     0
1070
   279
1070
     0
1070
   173
1070
     1
1070
   340
1005
EE
1070
   271
1070
     2
1070
   272
1070
     2
1070
    77
1070
     1
1070
    73
1070
     1
1070
   171
1070
     3
1070
   274
1070
     4
1070
   177
1070
    35
1070
   176
1070
    35
1070
   178
1070
    35
1070
    48
1040
-0.1
1070
    41
1040
3.5
1070
   147
1040
1.75
1070
    42
1040
1.5875
1070
    44
1040
2.0
1070
   140
1040
3.5
1002
}
1001
ACAD_DSTYLE_DIM_LINETYPE
1070
   380
1005
16
1001
ACAD_DSTYLE_DIM_EXT1_LINETYPE
1070
   381
1005
16
1001
ACAD_DSTYLE_DIM_EXT2_LINETYPE
1070
   382
1005
16
0
DIMENSION
5
169
100
AcDbEntity
8
SK2
62
256
6
ByLayer
370
13
48
1
60
0
100
AcDbDimension
2
_U4
10
92.5967
20
-27.343428
30
0
11
22.29835
21
-27.343428
31
0
70
32
71
1
72
1
41
1
210
0
220
0
230
1
3
Standard
100
AcDbAlignedDimension
13
-48
23
-9
33
0
14
92.5967
24
-8.05
34
0
50
0
100
AcDbRotatedDimension
1001
ACAD
1000
DSTYLE
1002
{
1070
   371
1070
    13
1070
   372
1070
    13
1070
   170
1070
     0
1070
   144
1040
1.0
1070
   277
1070
     2
1070
   278
1070
    44
1070
   146
1040
1.0
1070
   345
1005
16
1070
   347
1005
16
1070
   346
1005
16
1070
   344
1005
0
1070
   343
1005
0
1070
   172
1070
     1
1070
    76
1070
     0
1070
    75
1070
     0
1070
   282
1070
     0
1070
   281
1070
     0
1070
    71
1070
     0
1070
    74
1070
     0
1070
   279
1070
     0
1070
   173
1070
     1
1070
   340
1005
EE
1070
   271
1070
     2
1070
   272
1070
     2
1070
    77
1070
     1
1070
    73
1070
     1
1070
   171
1070
     3
1070
   274
1070
     4
1070
   177
1070
    35
1070
   176
1070
    35
1070
   178
1070
    35
1070
    48
1040
-0.1
1070
    41
1040
3.5
1070
   147
1040
1.75
1070
    42
1040
1.5875
1070
    44
1040
2.0
1070
   140
1040
3.5
1002
}
1001
ACAD_DSTYLE_DIM_LINETYPE
1070
   380
1005
16
1001
ACAD_DSTYLE_DIM_EXT1_LINETYPE
1070
   381
1005
16
1001
ACAD_DSTYLE_DIM_EXT2_LINETYPE
1070
   382
1005
16
0
ENDSEC
0
SECTION
2
OBJECTS
0
DICTIONARY
5
1f1
330
0
100
AcDbDictionary
280
0
281
1
3
ACAD_GROUP
350
1f2
3
ACAD_MLINESTYLE
350
1f3
0
DICTIONARY
5
1f2
330
0
100
AcDbDictionary
280
0
281
1
0
DICTIONARY
5
1f3
330
0
100
AcDbDictionary
280
0
281
1
3
Standard
350
18
0
MLINESTYLE
5
18
330
1f3
100
AcDbMlineStyle
2
Standard
70
0
3

62
256
51
90
52
90
71
2
49
-0.5
62
256
6
ByLayer
49
0.5
62
256
6
ByLayer
0
RASTERVARIABLES
5
1df
330

100
AcDbRasterVariables
90
0
70
1
71
1
72
1
0
ENDSEC
0
EOF
