0
SECTION
2
HEADER
9
$ACADVER
1
AC1015
9
$DWGCODEPAGE
3
ANSI_1252
9
$HANDSEED
5
1fe
9
$ANGBASE
50
0
9
$ANGDIR
70
0
9
$ATTMODE
70
1
9
$AUNITS
70
0
9
$AUPREC
70
0
9
$CECOLOR
62
256
9
$CELTSCALE
40
1
9
$CELTYPE
6
ByLayer
9
$CELWEIGHT
370
18
9
$CLAYER
8
0
9
$CMLJUST
70
0
9
$CMLSCALE
40
1
9
$CMLSTYLE
2
Standard
9
$DIMSTYLE
2
Standard
9
$TEXTSIZE
40
0.2
9
$TEXTSTYLE
7
Standard
9
$LUNITS
70
2
9
$LUPREC
70
4
9
$EXTNAMES
290
1
9
$INSUNITS
70
4
9
$LTSCALE
40
1
9
$LWDISPLAY
290
1
9
$PDMODE
70
0
9
$PDSIZE
40
0
9
$PLINEGEN
70
0
0
ENDSEC
0
SECTION
2
CLASSES
0
CLASS
1
RASTERVARIABLES
2
AcDbRasterVariables
3
ISM
90
0
280
0
281
0
0
ENDSEC
0
SECTION
2
TABLES
0
TABLE
2
VPORT
5
1f4
100
AcDbSymbolTable
0
VPORT
5
1
100
AcDbSymbolTableRecord
100
AcDbViewportTableRecord
2
*Active
70
0
10
0
20
0
11
1
21
1
12
-1
22
1
13
0
23
0
14
0.5
24
0.5
15
10
25
10
16
0
26
0
36
1
17
0
27
0
37
0
0
ENDTAB
0
TABLE
2
LTYPE
5
1f5
100
AcDbSymbolTable
0
LTYPE
5
14
100
AcDbSymbolTableRecord
100
AcDbLinetypeTableRecord
70
0
2
ByBlock
3

72
65
73
0
40
0
0
LTYPE
5
15
100
AcDbSymbolTableRecord
100
AcDbLinetypeTableRecord
70
0
2
ByLayer
3

72
65
73
0
40
0
0
LTYPE
5
16
100
AcDbSymbolTableRecord
100
AcDbLinetypeTableRecord
70
0
2
Continuous
3
Solid line
72
65
73
0
40
0
0
LTYPE
5
6E
100
AcDbSymbolTableRecord
100
AcDbLinetypeTableRecord
70
0
2
CENTER
3
____ _ ____ _ ____ _ ____
72
65
73
4
40
47.5
49
22
74
0
49
-8.5
74
0
49
8.5
74
0
49
-8.5
74
0
0
LTYPE
5
6F
100
AcDbSymbolTableRecord
100
AcDbLinetypeTableRecord
70
0
2
DASHED
3
__ __ __ __ __ __ __ __ __
72
65
73
2
40
25.72
49
12.86
74
0
49
-12.86
74
0
0
ENDTAB
0
TABLE
2
LAYER
5
1f6
100
AcDbSymbolTable
0
LAYER
5
10
100
AcDbSymbolTableRecord
100
AcDbLayerTableRecord
2
0
70
0
62
7
6
Continuous
290
1
370
-3
390
0
0
LAYER
5
71
100
AcDbSymbolTableRecord
100
AcDbLayerTableRecord
2
80
70
0
62
-6
6
Continuous
290
1
370
-3
390
0
0
LAYER
5
73
100
AcDbSymbolTableRecord
100
AcDbLayerTableRecord
2
81
70
0
62
-3
6
Continuous
290
1
370
-3
390
0
0
LAYER
5
75
100
AcDbSymbolTableRecord
100
AcDbLayerTableRecord
2
1
70
0
62
4
6
Continuous
290
1
370
-3
390
0
0
LAYER
5
86
100
AcDbSymbolTableRecord
100
AcDbLayerTableRecord
2
4
70
0
62
-2
6
CENTER
290
1
370
-3
390
0
0
LAYER
5
A3
100
AcDbSymbolTableRecord
100
AcDbLayerTableRecord
2
2
70
0
62
7
6
Continuous
290
1
370
-3
390
0
0
LAYER
5
109
100
AcDbSymbolTableRecord
100
AcDbLayerTableRecord
2
Defpoints
70
0
62
7
6
Continuous
290
0
370
-3
390
0
0
LAYER
5
1e0
100
AcDbSymbolTableRecord
100
AcDbLayerTableRecord
2
SK1
70
0
62
4
6
Continuous
290
1
370
-3
390
0
0
LAYER
5
1e1
100
AcDbSymbolTableRecord
100
AcDbLayerTableRecord
2
SK4
70
0
62
2
6
CENTER
290
1
370
-3
390
0
0
LAYER
5
1e2
100
AcDbSymbolTableRecord
100
AcDbLayerTableRecord
2
SK2
70
0
62
7
6
Continuous
290
1
370
-3
390
0
0
LAYER
5
1e3
100
AcDbSymbolTableRecord
100
AcDbLayerTableRecord
2
SK6
70
0
62
5
6
Continuous
290
1
370
-3
390
0
0
ENDTAB
0
TABLE
2
STYLE
5
1f7
100
AcDbSymbolTable
0
STYLE
5
11
100
AcDbSymbolTableRecord
100
AcDbTextStyleTableRecord
2
Standard
3
txt
70
0
71
0
40
0
41
1
42
0
50
0
0
STYLE
5
EE
100
AcDbSymbolTableRecord
100
AcDbTextStyleTableRecord
2
iso_b_vert
3
simplex.shx
70
0
71
0
40
0
41
1
42
0
50
0
0
STYLE
5
EF
100
AcDbSymbolTableRecord
100
AcDbTextStyleTableRecord
2
DWGDirectTextStyle
3
simplex
70
0
71
0
40
0
41
1
42
0
50
0
0
ENDTAB
0
TABLE
2
DIMSTYLE
5
1f8
100
AcDbSymbolTable
100
AcDbDimStyleTable
0
DIMSTYLE
105
27
100
AcDbSymbolTableRecord
100
AcDbDimStyleTableRecord
2
Standard
70
0
3
<>
41
0.18
42
0.0625
44
0.18
140
0.18
147
0.09
73
0
74
0
77
1
271
2
275
0
278
52
280
0
340
11
0
ENDTAB
0
TABLE
2
VIEW
5
1f9
100
AcDbSymbolTable
0
ENDTAB
0
TABLE
2
UCS
5
1fa
100
AcDbSymbolTable
0
ENDTAB
0
TABLE
2
APPID
5
1fb
100
AcDbSymbolTable
0
APPID
5
12
100
AcDbSymbolTableRecord
100
AcDbRegAppTableRecord
2
ACAD
70
0
0
APPID
5
105
100
AcDbSymbolTableRecord
100
AcDbRegAppTableRecord
2
ACAD_DSTYLE_DIMBREAK
70
0
0
APPID
5
19F
100
AcDbSymbolTableRecord
100
AcDbRegAppTableRecord
2
ACAD_DSTYLE_DIM_LINETYPE
70
0
0
APPID
5
1A0
100
AcDbSymbolTableRecord
100
AcDbRegAppTableRecord
2
ACAD_DSTYLE_DIM_EXT1_LINETYPE
70
0
0
APPID
5
1A1
100
AcDbSymbolTableRecord
100
AcDbRegAppTableRecord
2
ACAD_DSTYLE_DIM_EXT2_LINETYPE
70
0
0
APPID
5
1DC
100
AcDbSymbolTableRecord
100
AcDbRegAppTableRecord
2
ACAD_MLEADERVER
70
0
0
ENDTAB
0
TABLE
2
BLOCK_RECORD
5
1fc
100
AcDbSymbolTable
0
BLOCK_RECORD
5
1F
100
AcDbSymbolTableRecord
100
AcDbBlockTableRecord
2
*Model_Space
340
0
70
0
0
BLOCK_RECORD
5
1B
100
AcDbSymbolTableRecord
100
AcDbBlockTableRecord
2
*Paper_Space
340
0
70
0
0
BLOCK_RECORD
5
23
100
AcDbSymbolTableRecord
100
AcDbBlockTableRecord
2
*Paper_Space0
340
0
70
0
0
BLOCK_RECORD
5
10A
100
AcDbSymbolTableRecord
100
AcDbBlockTableRecord
2
*D1
340
0
70
0
0
BLOCK_RECORD
5
116
100
AcDbSymbolTableRecord
100
AcDbBlockTableRecord
2
_U0
340
0
70
0
0
BLOCK_RECORD
5
122
100
AcDbSymbolTableRecord
100
AcDbBlockTableRecord
2
*D3
340
0
70
0
0
BLOCK_RECORD
5
12E
100
AcDbSymbolTableRecord
100
AcDbBlockTableRecord
2
_U1
340
0
70
0
0
BLOCK_RECORD
5
13A
100
AcDbSymbolTableRecord
100
AcDbBlockTableRecord
2
*D5
340
0
70
0
0
BLOCK_RECORD
5
146
100
AcDbSymbolTableRecord
100
AcDbBlockTableRecord
2
_U2
340
0
70
0
0
BLOCK_RECORD
5
152
100
AcDbSymbolTableRecord
100
AcDbBlockTableRecord
2
*D7
340
0
70
0
0
BLOCK_RECORD
5
160
100
AcDbSymbolTableRecord
100
AcDbBlockTableRecord
2
_U3
340
0
70
0
0
BLOCK_RECORD
5
16C
100
AcDbSymbolTableRecord
100
AcDbBlockTableRecord
2
*D9
340
0
70
0
0
BLOCK_RECORD
5
178
100
AcDbSymbolTableRecord
100
AcDbBlockTableRecord
2
_U4
340
0
70
0
0
ENDTAB
0
ENDSEC
0
SECTION
2
BLOCKS
0
BLOCK
5
20
100
AcDbEntity
8
0
100
AcDbBlockBegin
2
*Model_Space
70
0
10
0
20
0
30
0
3
*Model_Space
0
ENDBLK
5
21
100
AcDbEntity
8
0
100
AcDbBlockEnd
0
BLOCK
5
1C
100
AcDbEntity
8
0
100
AcDbBlockBegin
2
*Paper_Space
70
0
10
0
20
0
30
0
3
*Paper_Space
0
ENDBLK
5
1D
100
AcDbEntity
8
0
100
AcDbBlockEnd
0
BLOCK
5
24
100
AcDbEntity
8
0
100
AcDbBlockBegin
2
*Paper_Space0
70
0
10
0
20
0
30
0
3
*Paper_Space0
0
ENDBLK
5
25
100
AcDbEntity
8
0
100
AcDbBlockEnd
0
BLOCK
5
10B
100
AcDbEntity
8
0
100
AcDbBlockBegin
2
*D1
70
1
10
0
20
0
30
0
3
*D1
0
LINE
5
10D
100
AcDbEntity
8
0
62
256
6
ByLayer
370
-2
48
1
60
0
100
AcDbLine
10
0
20
-1.5875
30
0
11
0
21
-15.063398
31
0
39
0
210
0
220
0
230
1
0
LINE
5
10E
100
AcDbEntity
8
0
62
256
6
ByLayer
370
-2
48
1
60
0
100
AcDbLine
10
45.164
20
-4.4375
30
0
11
45.164
21
-15.063398
31
0
39
0
210
0
220
0
230
1
0
LINE
5
10F
100
AcDbEntity
8
0
62
256
6
ByLayer
370
-2
48
1
60
0
100
AcDbLine
10
3.5
20
-13.063398
30
0
11
41.664
21
-13.063398
31
0
39
0
210
0
220
0
230
1
0
SOLID
5
110
100
AcDbEntity
8
0
62
256
6
ByLayer
370
-1
48
1
60
0
100
AcDbTrace
10
3.5
20
-12.480065
30
0
11
3.5
21
-13.646732
31
0
12
0
22
-13.063398
32
0
13
0
23
-13.063398
33
0
39
0
210
0
220
0
230
1
0
SOLID
5
111
100
AcDbEntity
8
0
62
256
6
ByLayer
370
-1
48
1
60
0
100
AcDbTrace
10
41.664
20
-13.646732
30
0
11
41.664
21
-12.480065
31
0
12
45.164
22
-13.063398
32
0
13
45.164
23
-13.063398
33
0
39
0
210
0
220
0
230
1
0
MTEXT
5
112
100
AcDbEntity
8
0
62
256
6
ByLayer
370
18
48
1
60
0
100
AcDbMText
10
22.582
20
-6.063398
30
0
210
0
220
0
230
1
1
\A1;45.16
40
3.5
41
0
44
1
50
0
71
5
72
5
7
iso_b_vert
0
POINT
5
113
100
AcDbEntity
8
Defpoints
62
0
6
ByLayer
370
-1
48
1
60
0
100
AcDbPoint
10
0
20
0
30
0
39
0
210
0
220
0
230
1
50
360
0
POINT
5
114
100
AcDbEntity
8
Defpoints
62
0
6
ByLayer
370
-1
48
1
60
0
100
AcDbPoint
10
45.164
20
-2.85
30
0
39
0
210
0
220
0
230
1
50
360
0
POINT
5
115
100
AcDbEntity
8
Defpoints
62
0
6
ByLayer
370
-1
48
1
60
0
100
AcDbPoint
10
45.164
20
-13.063398
30
0
39
0
210
0
220
0
230
1
50
360
0
ENDBLK
5
10C
100
AcDbEntity
8
0
100
AcDbBlockEnd
0
BLOCK
5
11D
100
AcDbEntity
8
0
100
AcDbBlockBegin
2
_U0
70
0
10
0
20
0
30
0
3
_U0
0
MTEXT
5
117
100
AcDbEntity
8
SK2
62
256
6
ByLayer
370
13
48
1
60
0
100
AcDbMText
10
17.697868
20
-12.030765
30
0
210
0
220
0
230
1
1
\W0.6977;45,16
40
3.5
41
0
44
1.084337
50
0
71
7
72
5
7
iso_b_vert
0
LINE
5
118
100
AcDbEntity
8
SK2
62
256
6
ByLayer
370
13
48
1
60
0
100
AcDbLine
10
0
20
-1.5875
30
0
11
0
21
-15.063398
31
0
39
0
210
0
220
0
230
1
0
LINE
5
119
100
AcDbEntity
8
SK2
62
256
6
ByLayer
370
13
48
1
60
0
100
AcDbLine
10
45.164
20
-4.4375
30
0
11
45.164
21
-15.063398
31
0
39
0
210
0
220
0
230
1
0
LINE
5
11A
100
AcDbEntity
8
SK2
62
256
6
ByLayer
370
13
48
1
60
0
100
AcDbLine
10
0
20
-13.063398
30
0
11
45.164
21
-13.063398
31
0
39
0
210
0
220
0
230
1
0
SOLID
5
11B
100
AcDbEntity
8
SK2
62
256
6
ByLayer
370
18
48
1
60
0
100
AcDbTrace
10
0
20
-13.063398
30
0
11
3.499998
21
-12.602615
31
0
12
3.500002
22
-13.524182
32
0
13
3.500002
23
-13.524182
33
0
39
0
210
0
220
0
230
1
0
SOLID
5
11C
100
AcDbEntity
8
SK2
62
256
6
ByLayer
370
18
48
1
60
0
100
AcDbTrace
10
45.164
20
-13.063398
30
0
11
41.664002
21
-13.524182
31
0
12
41.663998
22
-12.602615
32
0
13
41.663998
23
-12.602615
33
0
39
0
210
0
220
0
230
1
0
ENDBLK
5
11E
100
AcDbEntity
8
0
100
AcDbBlockEnd
0
BLOCK
5
123
100
AcDbEntity
8
0
100
AcDbBlockBegin
2
*D3
70
1
10
0
20
0
30
0
3
*D3
0
LINE
5
125
100
AcDbEntity
8
0
62
256
6
ByLayer
370
-2
48
1
60
0
100
AcDbLine
10
-36
20
-4.5875
30
0
11
-36
21
-33.692985
31
0
39
0
210
0
220
0
230
1
0
LINE
5
126
100
AcDbEntity
8
0
62
256
6
ByLayer
370
-2
48
1
60
0
100
AcDbLine
10
46
20
-1.5875
30
0
11
46
21
-33.692985
31
0
39
0
210
0
220
0
230
1
0
LINE
5
127
100
AcDbEntity
8
0
62
256
6
ByLayer
370
-2
48
1
60
0
100
AcDbLine
10
-32.5
20
-31.692985
30
0
11
42.5
21
-31.692985
31
0
39
0
210
0
220
0
230
1
0
SOLID
5
128
100
AcDbEntity
8
0
62
256
6
ByLayer
370
-1
48
1
60
0
100
AcDbTrace
10
-32.5
20
-31.109652
30
0
11
-32.5
21
-32.276319
31
0
12
-36
22
-31.692985
32
0
13
-36
23
-31.692985
33
0
39
0
210
0
220
0
230
1
0
SOLID
5
129
100
AcDbEntity
8
0
62
256
6
ByLayer
370
-1
48
1
60
0
100
AcDbTrace
10
42.5
20
-32.276319
30
0
11
42.5
21
-31.109652
31
0
12
46
22
-31.692985
32
0
13
46
23
-31.692985
33
0
39
0
210
0
220
0
230
1
0
MTEXT
5
12A
100
AcDbEntity
8
0
62
256
6
ByLayer
370
18
48
1
60
0
100
AcDbMText
10
5
20
-24.692985
30
0
210
0
220
0
230
1
1
\A1;82.00
40
3.5
41
0
44
1
50
0
71
5
72
5
7
iso_b_vert
0
POINT
5
12B
100
AcDbEntity
8
Defpoints
62
0
6
ByLayer
370
-1
48
1
60
0
100
AcDbPoint
10
-36
20
-3
30
0
39
0
210
0
220
0
230
1
50
360
0
POINT
5
12C
100
AcDbEntity
8
Defpoints
62
0
6
ByLayer
370
-1
48
1
60
0
100
AcDbPoint
10
46
20
0
30
0
39
0
210
0
220
0
230
1
50
360
0
POINT
5
12D
100
AcDbEntity
8
Defpoints
62
0
6
ByLayer
370
-1
48
1
60
0
100
AcDbPoint
10
46
20
-31.692985
30
0
39
0
210
0
220
0
230
1
50
360
0
ENDBLK
5
124
100
AcDbEntity
8
0
100
AcDbBlockEnd
0
BLOCK
5
135
100
AcDbEntity
8
0
100
AcDbBlockBegin
2
_U1
70
0
10
0
20
0
30
0
3
_U1
0
MTEXT
5
12F
100
AcDbEntity
8
SK2
62
256
6
ByLayer
370
13
48
1
60
0
100
AcDbMText
10
-0.137299
20
-30.660352
30
0
210
0
220
0
230
1
1
\W0.7317;82,00
40
3.5
41
0
44
1.084337
50
0
71
7
72
5
7
iso_b_vert
0
LINE
5
130
100
AcDbEntity
8
SK2
62
256
6
ByLayer
370
13
48
1
60
0
100
AcDbLine
10
-36
20
-4.5875
30
0
11
-36
21
-33.692985
31
0
39
0
210
0
220
0
230
1
0
LINE
5
131
100
AcDbEntity
8
SK2
62
256
6
ByLayer
370
13
48
1
60
0
100
AcDbLine
10
46
20
-1.5875
30
0
11
46
21
-33.692985
31
0
39
0
210
0
220
0
230
1
0
LINE
5
132
100
AcDbEntity
8
SK2
62
256
6
ByLayer
370
13
48
1
60
0
100
AcDbLine
10
-36
20
-31.692985
30
0
11
46
21
-31.692985
31
0
39
0
210
0
220
0
230
1
0
SOLID
5
133
100
AcDbEntity
8
SK2
62
256
6
ByLayer
370
18
48
1
60
0
100
AcDbTrace
10
-36
20
-31.692985
30
0
11
-32.500002
21
-31.232202
31
0
12
-32.499998
22
-32.153769
32
0
13
-32.499998
23
-32.153769
33
0
39
0
210
0
220
0
230
1
0
SOLID
5
134
100
AcDbEntity
8
SK2
62
256
6
ByLayer
370
18
48
1
60
0
100
AcDbTrace
10
46
20
-31.692985
30
0
11
42.500002
21
-32.153769
31
0
12
42.499998
22
-31.232202
32
0
13
42.499998
23
-31.232202
33
0
39
0
210
0
220
0
230
1
0
ENDBLK
5
136
100
AcDbEntity
8
0
100
AcDbBlockEnd
0
BLOCK
5
13B
100
AcDbEntity
8
0
100
AcDbBlockBegin
2
*D5
70
1
10
0
20
0
30
0
3
*D5
0
LINE
5
13D
100
AcDbEntity
8
0
62
256
6
ByLayer
370
-2
48
1
60
0
100
AcDbLine
10
16.66
20
4.4375
30
0
11
16.66
21
16.459119
31
0
39
0
210
0
220
0
230
1
0
LINE
5
13E
100
AcDbEntity
8
0
62
256
6
ByLayer
370
-2
48
1
60
0
100
AcDbLine
10
46
20
1.5875
30
0
11
46
21
16.459119
31
0
39
0
210
0
220
0
230
1
0
LINE
5
13F
100
AcDbEntity
8
0
62
256
6
ByLayer
370
-2
48
1
60
0
100
AcDbLine
10
20.16
20
14.459119
30
0
11
42.5
21
14.459119
31
0
39
0
210
0
220
0
230
1
0
SOLID
5
140
100
AcDbEntity
8
0
62
256
6
ByLayer
370
-1
48
1
60
0
100
AcDbTrace
10
20.16
20
15.042453
30
0
11
20.16
21
13.875786
31
0
12
16.66
22
14.459119
32
0
13
16.66
23
14.459119
33
0
39
0
210
0
220
0
230
1
0
SOLID
5
141
100
AcDbEntity
8
0
62
256
6
ByLayer
370
-1
48
1
60
0
100
AcDbTrace
10
42.5
20
13.875786
30
0
11
42.5
21
15.042453
31
0
12
46
22
14.459119
32
0
13
46
23
14.459119
33
0
39
0
210
0
220
0
230
1
0
MTEXT
5
142
100
AcDbEntity
8
0
62
256
6
ByLayer
370
18
48
1
60
0
100
AcDbMText
10
31.33
20
21.459119
30
0
210
0
220
0
230
1
1
\A1;29.34
40
3.5
41
0
44
1
50
0
71
5
72
5
7
iso_b_vert
0
POINT
5
143
100
AcDbEntity
8
Defpoints
62
0
6
ByLayer
370
-1
48
1
60
0
100
AcDbPoint
10
16.66
20
2.85
30
0
39
0
210
0
220
0
230
1
50
360
0
POINT
5
144
100
AcDbEntity
8
Defpoints
62
0
6
ByLayer
370
-1
48
1
60
0
100
AcDbPoint
10
46
20
0
30
0
39
0
210
0
220
0
230
1
50
360
0
POINT
5
145
100
AcDbEntity
8
Defpoints
62
0
6
ByLayer
370
-1
48
1
60
0
100
AcDbPoint
10
46
20
14.459119
30
0
39
0
210
0
220
0
230
1
50
360
0
ENDBLK
5
13C
100
AcDbEntity
8
0
100
AcDbBlockEnd
0
BLOCK
5
14D
100
AcDbEntity
8
0
100
AcDbBlockBegin
2
_U2
70
0
10
0
20
0
30
0
3
_U2
0
MTEXT
5
147
100
AcDbEntity
8
SK2
62
256
6
ByLayer
370
13
48
1
60
0
100
AcDbMText
10
26.008435
20
15.491753
30
0
210
0
220
0
230
1
1
\W0.7495;29,34
40
3.5
41
0
44
1.084337
50
0
71
7
72
5
7
iso_b_vert
0
LINE
5
148
100
AcDbEntity
8
SK2
62
256
6
ByLayer
370
13
48
1
60
0
100
AcDbLine
10
16.66
20
4.4375
30
0
11
16.66
21
16.459119
31
0
39
0
210
0
220
0
230
1
0
LINE
5
149
100
AcDbEntity
8
SK2
62
256
6
ByLayer
370
13
48
1
60
0
100
AcDbLine
10
46
20
1.5875
30
0
11
46
21
16.459119
31
0
39
0
210
0
220
0
230
1
0
LINE
5
14A
100
AcDbEntity
8
SK2
62
256
6
ByLayer
370
13
48
1
60
0
100
AcDbLine
10
16.66
20
14.459119
30
0
11
46
21
14.459119
31
0
39
0
210
0
220
0
230
1
0
SOLID
5
14B
100
AcDbEntity
8
SK2
62
256
6
ByLayer
370
18
48
1
60
0
100
AcDbTrace
10
16.66
20
14.459119
30
0
11
20.159998
21
14.919903
31
0
12
20.160002
22
13.998335
32
0
13
20.160002
23
13.998335
33
0
39
0
210
0
220
0
230
1
0
SOLID
5
14C
100
AcDbEntity
8
SK2
62
256
6
ByLayer
370
18
48
1
60
0
100
AcDbTrace
10
46
20
14.459119
30
0
11
42.500002
21
13.998335
31
0
12
42.499998
22
14.919903
32
0
13
42.499998
23
14.919903
33
0
39
0
210
0
220
0
230
1
0
ENDBLK
5
14E
100
AcDbEntity
8
0
100
AcDbBlockEnd
0
BLOCK
5
153
100
AcDbEntity
8
0
100
AcDbBlockBegin
2
*D7
70
1
10
0
20
0
30
0
3
*D7
0
LINE
5
155
100
AcDbEntity
8
0
62
256
6
ByLayer
370
-2
48
1
60
0
100
AcDbLine
10
46
20
-1.5875
30
0
11
46
21
-17.652503
31
0
39
0
210
0
220
0
230
1
0
LINE
5
156
100
AcDbEntity
8
0
62
256
6
ByLayer
370
-2
48
1
60
0
100
AcDbLine
10
45.164
20
-4.4375
30
0
11
45.164
21
-17.652503
31
0
39
0
210
0
220
0
230
1
0
LINE
5
157
100
AcDbEntity
8
0
62
256
6
ByLayer
370
-2
48
1
60
0
100
AcDbLine
10
46
20
-15.652503
30
0
11
74.333333
21
-15.652503
31
0
39
0
210
0
220
0
230
1
0
LINE
5
158
100
AcDbEntity
8
0
62
256
6
ByLayer
370
-2
48
1
60
0
100
AcDbLine
10
49.5
20
-15.652503
30
0
11
53
21
-15.652503
31
0
39
0
210
0
220
0
230
1
0
LINE
5
159
100
AcDbEntity
8
0
62
256
6
ByLayer
370
-2
48
1
60
0
100
AcDbLine
10
41.664
20
-15.652503
30
0
11
38.164
21
-15.652503
31
0
39
0
210
0
220
0
230
1
0
SOLID
5
15A
100
AcDbEntity
8
0
62
256
6
ByLayer
370
-1
48
1
60
0
100
AcDbTrace
10
49.5
20
-15.06917
30
0
11
49.5
21
-16.235837
31
0
12
46
22
-15.652503
32
0
13
46
23
-15.652503
33
0
39
0
210
0
220
0
230
1
0
SOLID
5
15B
100
AcDbEntity
8
0
62
256
6
ByLayer
370
-1
48
1
60
0
100
AcDbTrace
10
41.664
20
-16.235837
30
0
11
41.664
21
-15.06917
31
0
12
45.164
22
-15.652503
32
0
13
45.164
23
-15.652503
33
0
39
0
210
0
220
0
230
1
0
MTEXT
5
15C
100
AcDbEntity
8
0
62
256
6
ByLayer
370
18
48
1
60
0
100
AcDbMText
10
63.666667
20
-8.652503
30
0
210
0
220
0
230
1
1
\A1;0.84
40
3.5
41
0
44
1
50
0
71
5
72
5
7
iso_b_vert
0
POINT
5
15D
100
AcDbEntity
8
Defpoints
62
0
6
ByLayer
370
-1
48
1
60
0
100
AcDbPoint
10
46
20
0
30
0
39
0
210
0
220
0
230
1
50
360
0
POINT
5
15E
100
AcDbEntity
8
Defpoints
62
0
6
ByLayer
370
-1
48
1
60
0
100
AcDbPoint
10
45.164
20
-2.85
30
0
39
0
210
0
220
0
230
1
50
360
0
POINT
5
15F
100
AcDbEntity
8
Defpoints
62
0
6
ByLayer
370
-1
48
1
60
0
100
AcDbPoint
10
45.164
20
-15.652503
30
0
39
0
210
0
220
0
230
1
50
360
0
ENDBLK
5
154
100
AcDbEntity
8
0
100
AcDbBlockEnd
0
BLOCK
5
167
100
AcDbEntity
8
0
100
AcDbBlockBegin
2
_U3
70
0
10
0
20
0
30
0
3
_U3
0
MTEXT
5
161
100
AcDbEntity
8
SK2
62
256
6
ByLayer
370
13
48
1
60
0
100
AcDbMText
10
51.967593
20
-14.61987
30
0
210
0
220
0
230
1
1
\W0.7383;0,84
40
3.5
41
0
44
1.084337
50
0
71
7
72
5
7
iso_b_vert
0
LINE
5
162
100
AcDbEntity
8
SK2
62
256
6
ByLayer
370
13
48
1
60
0
100
AcDbLine
10
46
20
-1.5875
30
0
11
46
21
-17.652503
31
0
39
0
210
0
220
0
230
1
0
LINE
5
163
100
AcDbEntity
8
SK2
62
256
6
ByLayer
370
13
48
1
60
0
100
AcDbLine
10
45.164
20
-4.4375
30
0
11
45.164
21
-17.652503
31
0
39
0
210
0
220
0
230
1
0
LINE
5
164
100
AcDbEntity
8
SK2
62
256
6
ByLayer
370
13
48
1
60
0
100
AcDbLine
10
36.414
20
-15.652503
30
0
11
60.180758
21
-15.652503
31
0
39
0
210
0
220
0
230
1
0
SOLID
5
165
100
AcDbEntity
8
SK2
62
256
6
ByLayer
370
18
48
1
60
0
100
AcDbTrace
10
46
20
-15.652503
30
0
11
49.499998
21
-15.191719
31
0
12
49.500002
22
-16.113287
32
0
13
49.500002
23
-16.113287
33
0
39
0
210
0
220
0
230
1
0
SOLID
5
166
100
AcDbEntity
8
SK2
62
256
6
ByLayer
370
18
48
1
60
0
100
AcDbTrace
10
45.164
20
-15.652503
30
0
11
41.664002
21
-16.113287
31
0
12
41.663998
22
-15.191719
32
0
13
41.663998
23
-15.191719
33
0
39
0
210
0
220
0
230
1
0
ENDBLK
5
168
100
AcDbEntity
8
0
100
AcDbBlockEnd
0
BLOCK
5
16D
100
AcDbEntity
8
0
100
AcDbBlockBegin
2
*D9
70
1
10
0
20
0
30
0
3
*D9
0
LINE
5
16F
100
AcDbEntity
8
0
62
256
6
ByLayer
370
-2
48
1
60
0
100
AcDbLine
10
-36
20
-4.5875
30
0
11
-36
21
-23.343428
31
0
39
0
210
0
220
0
230
1
0
LINE
5
170
100
AcDbEntity
8
0
62
256
6
ByLayer
370
-2
48
1
60
0
100
AcDbLine
10
45.164
20
-4.4375
30
0
11
45.164
21
-23.343428
31
0
39
0
210
0
220
0
230
1
0
LINE
5
171
100
AcDbEntity
8
0
62
256
6
ByLayer
370
-2
48
1
60
0
100
AcDbLine
10
-32.5
20
-21.343428
30
0
11
41.664
21
-21.343428
31
0
39
0
210
0
220
0
230
1
0
SOLID
5
172
100
AcDbEntity
8
0
62
256
6
ByLayer
370
-1
48
1
60
0
100
AcDbTrace
10
-32.5
20
-20.760095
30
0
11
-32.5
21
-21.926762
31
0
12
-36
22
-21.343428
32
0
13
-36
23
-21.343428
33
0
39
0
210
0
220
0
230
1
0
SOLID
5
173
100
AcDbEntity
8
0
62
256
6
ByLayer
370
-1
48
1
60
0
100
AcDbTrace
10
41.664
20
-21.926762
30
0
11
41.664
21
-20.760095
31
0
12
45.164
22
-21.343428
32
0
13
45.164
23
-21.343428
33
0
39
0
210
0
220
0
230
1
0
MTEXT
5
174
100
AcDbEntity
8
0
62
256
6
ByLayer
370
18
48
1
60
0
100
AcDbMText
10
4.582
20
-14.343428
30
0
210
0
220
0
230
1
1
\A1;81.16
40
3.5
41
0
44
1
50
0
71
5
72
5
7
iso_b_vert
0
POINT
5
175
100
AcDbEntity
8
Defpoints
62
0
6
ByLayer
370
-1
48
1
60
0
100
AcDbPoint
10
-36
20
-3
30
0
39
0
210
0
220
0
230
1
50
360
0
POINT
5
176
100
AcDbEntity
8
Defpoints
62
0
6
ByLayer
370
-1
48
1
60
0
100
AcDbPoint
10
45.164
20
-2.85
30
0
39
0
210
0
220
0
230
1
50
360
0
POINT
5
177
100
AcDbEntity
8
Defpoints
62
0
6
ByLayer
370
-1
48
1
60
0
100
AcDbPoint
10
45.164
20
-21.343428
30
0
39
0
210
0
220
0
230
1
50
360
0
ENDBLK
5
16E
100
AcDbEntity
8
0
100
AcDbBlockEnd
0
BLOCK
5
17F
100
AcDbEntity
8
0
100
AcDbBlockBegin
2
_U4
70
0
10
0
20
0
30
0
3
_U4
0
MTEXT
5
179
100
AcDbEntity
8
SK2
62
256
6
ByLayer
370
13
48
1
60
0
100
AcDbMText
10
0.319568
20
-20.310795
30
0
210
0
220
0
230
1
1
\W0.6110;81,16
40
3.5
41
0
44
1.084337
50
0
71
7
72
5
7
iso_b_vert
0
LINE
5
17A
100
AcDbEntity
8
SK2
62
256
6
ByLayer
370
13
48
1
60
0
100
AcDbLine
10
-36
20
-4.5875
30
0
11
-36
21
-23.343428
31
0
39
0
210
0
220
0
230
1
0
LINE
5
17B
100
AcDbEntity
8
SK2
62
256
6
ByLayer
370
13
48
1
60
0
100
AcDbLine
10
45.164
20
-4.4375
30
0
11
45.164
21
-23.343428
31
0
39
0
210
0
220
0
230
1
0
LINE
5
17C
100
AcDbEntity
8
SK2
62
256
6
ByLayer
370
13
48
1
60
0
100
AcDbLine
10
-36
20
-21.343428
30
0
11
45.164
21
-21.343428
31
0
39
0
210
0
220
0
230
1
0
SOLID
5
17D
100
AcDbEntity
8
SK2
62
256
6
ByLayer
370
18
48
1
60
0
100
AcDbTrace
10
-36
20
-21.343428
30
0
11
-32.500002
21
-20.882645
31
0
12
-32.499998
22
-21.804212
32
0
13
-32.499998
23
-21.804212
33
0
39
0
210
0
220
0
230
1
0
SOLID
5
17E
100
AcDbEntity
8
SK2
62
256
6
ByLayer
370
18
48
1
60
0
100
AcDbTrace
10
45.164
20
-21.343428
30
0
11
41.664002
21
-21.804212
31
0
12
41.663998
22
-20.882645
32
0
13
41.663998
23
-20.882645
33
0
39
0
210
0
220
0
230
1
0
ENDBLK
5
180
100
AcDbEntity
8
0
100
AcDbBlockEnd
0
ENDSEC
0
SECTION
2
ENTITIES
0
ELLIPSE
5
AC
100
AcDbEntity
8
1
62
256
6
ByLayer
370
13
48
1
60
0
100
AcDbEllipse
10
4.17893
20
-0.151281
30
0
11
0.0440943139687544
21
0.0897535039740784
31
0
210
0
220
0
230
1
40
0.452696
41
1.73738343294383
42
3.05671203689984
0
ELLIPSE
5
AD
100
AcDbEntity
8
1
62
256
6
ByLayer
370
13
48
1
60
0
100
AcDbEllipse
10
4.250247
20
-0.187805
30
0
11
0.0470739912519359
21
0.0882272029909861
31
0
210
0
220
0
230
1
40
0.030626
41
1.50997576050574
42
3.05345835406137
0
POINT
5
70
100
AcDbEntity
8
80
62
256
6
ByLayer
370
18
48
1
60
0
100
AcDbPoint
10
0
20
0
30
0
39
0
210
0
220
0
230
1
50
360
0
POINT
5
72
100
AcDbEntity
8
81
62
256
6
ByLayer
370
18
48
1
60
0
100
AcDbPoint
10
46
20
0
30
0
39
0
210
0
220
0
230
1
50
360
0
POINT
5
74
100
AcDbEntity
8
1
62
256
6
ByLayer
370
18
48
1
60
1
100
AcDbPoint
10
45.164
20
-2.85
30
0
39
0
210
0
220
0
230
1
50
360
0
POINT
5
76
100
AcDbEntity
8
1
62
256
6
ByLayer
370
18
48
1
60
1
100
AcDbPoint
10
-36
20
-3
30
0
39
0
210
0
220
0
230
1
50
360
0
POINT
5
77
100
AcDbEntity
8
1
62
256
6
ByLayer
370
18
48
1
60
1
100
AcDbPoint
10
16.66
20
2.85
30
0
39
0
210
0
220
0
230
1
50
360
0
POINT
5
78
100
AcDbEntity
8
1
62
256
6
ByLayer
370
18
48
1
60
1
100
AcDbPoint
10
45.164
20
-2.85
30
0
39
0
210
0
220
0
230
1
50
360
0
POINT
5
79
100
AcDbEntity
8
1
62
256
6
ByLayer
370
18
48
1
60
1
100
AcDbPoint
10
-36
20
-3
30
0
39
0
210
0
220
0
230
1
50
360
0
POINT
5
7A
100
AcDbEntity
8
1
62
256
6
ByLayer
370
18
48
1
60
1
100
AcDbPoint
10
45.164
20
-2.85
30
0
39
0
210
0
220
0
230
1
50
360
0
SPLINE
5
AE
100
AcDbEntity
8
1
62
256
6
ByLayer
370
18
48
1
60
0
100
AcDbSpline
70
4
71
3
72
16
73
12
40
0
40
0
40
0
40
0
40
0.377358134452697
40
0.377358134452697
40
0.566037201679042
40
0.566037201679042
40
0.754716268905388
40
0.754716268905388
40
0.943395336131734
40
0.943395336131734
40
1
40
1
40
1
40
1
41
1
10
7.94293262395144
20
-2.34384854691515
30
0
41
1
10
8.33320558471772
20
-2.46432854477524
30
0
41
1
10
8.72306133437871
20
-2.5606729510333
30
0
41
1
10
9.30261966752587
20
-2.67519849896976
30
0
41
1
10
9.49539346980126
20
-2.70783561928664
30
0
41
1
10
9.88180542600219
20
-2.76134524900161
30
0
41
1
10
10.0751533246955
20
-2.78243216680141
30
0
41
1
10
10.4615725233622
20
-2.81333865331823
30
0
41
1
10
10.6544609666519
20
-2.82309078947713
30
0
41
1
10
10.90666576271
20
-2.82797972310459
30
0
41
1
10
10.9649385406817
20
-2.82858146436274
30
0
41
1
10
11.0232752471937
20
-2.82865368912997
30
0
0
SPLINE
5
AF
100
AcDbEntity
8
1
62
256
6
ByLayer
370
18
48
1
60
0
100
AcDbSpline
70
4
71
3
72
78
73
74
40
0
40
0
40
0
40
0
40
0.0048181623900759
40
0.0048181623900759
40
0.0336666132993214
40
0.0336666132993214
40
0.0625150642085671
40
0.0625150642085671
40
0.0913635151178127
40
0.0913635151178127
40
0.120211966027058
40
0.120211966027058
40
0.149060416936304
40
0.149060416936304
40
0.177908867845551
40
0.177908867845551
40
0.206757318754798
40
0.206757318754798
40
0.235605769664046
40
0.235605769664046
40
0.264454220573293
40
0.264454220573293
40
0.29330267148254
40
0.29330267148254
40
0.322151122391787
40
0.322151122391787
40
0.350999573301034
40
0.350999573301034
40
0.379848024210282
40
0.379848024210282
40
0.408696475119529
40
0.408696475119529
40
0.437544926028776
40
0.437544926028776
40
0.466393376938023
40
0.466393376938023
40
0.495241827847271
40
0.495241827847271
40
0.524090278756518
40
0.524090278756518
40
0.552938729665765
40
0.552938729665765
40
0.581787180575012
40
0.581787180575012
40
0.610635631484259
40
0.610635631484259
40
0.639484082393507
40
0.639484082393507
40
0.668332533302754
40
0.668332533302754
40
0.697180984212001
40
0.697180984212001
40
0.726029435121249
40
0.726029435121249
40
0.754877886030496
40
0.754877886030496
40
0.783726336939743
40
0.783726336939743
40
0.81257478784899
40
0.81257478784899
40
0.841423238758238
40
0.841423238758238
40
0.870271689667485
40
0.870271689667485
40
0.899120140576732
40
0.899120140576732
40
0.927968591485979
40
0.927968591485979
40
0.956817042395226
40
0.956817042395226
40
0.985665493304474
40
0.985665493304474
40
1
40
1
40
1
40
1
41
1
10
23.5532308523998
20
2.10425117176459
30
0
41
1
10
23.5857743095791
20
2.11618029032888
30
0
41
1
10
23.6183287823256
20
2.12796965359786
30
0
41
1
10
23.8459205172705
20
2.20931823453114
30
0
41
1
10
24.0411823025644
20
2.27427635674718
30
0
41
1
10
24.4316473941672
20
2.3952421696458
30
0
41
1
10
24.6269292522649
20
2.45159772618089
30
0
41
1
10
25.0166948940361
20
2.55204807985012
30
0
41
1
10
25.2111736886077
20
2.59654246968509
30
0
41
1
10
25.5987782030688
20
2.67482416779993
30
0
41
1
10
25.7915432171538
20
2.70876661777888
30
0
41
1
10
26.1772272360488
20
2.76485385169795
30
0
41
1
10
26.3703128295374
20
2.78701184377525
30
0
41
1
10
26.7564266069702
20
2.82000269576457
30
0
41
1
10
26.9492554872208
20
2.83085030144105
30
0
41
1
10
27.3352091252126
20
2.84072760006805
30
0
41
1
10
27.5289752202692
20
2.83973624102111
30
0
41
1
10
27.9178353492129
20
2.8260313182162
30
0
41
1
10
28.1130896416622
20
2.81329263352873
30
0
41
1
10
28.5033824977801
20
2.77546986075194
30
0
41
1
10
28.6983327249335
20
2.75068576238479
30
0
41
1
10
29.0885782988649
20
2.69008848714569
30
0
41
1
10
29.283712738534
20
2.65423802920674
30
0
41
1
10
29.6732376611212
20
2.57072121754444
30
0
41
1
10
29.8679294304267
20
2.52317871299482
30
0
41
1
10
30.2592774071918
20
2.41834273852623
30
0
41
1
10
30.4543083170749
20
2.36116447849634
30
0
41
1
10
30.8424814547532
20
2.2368831757417
30
0
41
1
10
31.0353953960695
20
2.16941981482785
30
0
41
1
10
31.4218021351038
20
2.0274851667391
30
0
41
1
10
31.6150014322698
20
1.95271987359382
30
0
41
1
10
32.0008401259055
20
1.79492843203695
30
0
41
1
10
32.1931065734032
20
1.71130968588343
30
0
41
1
10
32.5788282179364
20
1.53818701851756
30
0
41
1
10
32.7723320769603
20
1.44882696048865
30
0
41
1
10
33.160057629893
20
1.26362812587376
30
0
41
1
10
33.3540327616417
20
1.16733598677357
30
0
41
1
10
33.743411614558
20
0.96912268577961
30
0
41
1
10
33.9393683583659
20
0.868181289324156
30
0
41
1
10
34.3287264094609
20
0.664411602903641
30
0
41
1
10
34.5226183376502
20
0.561101474231435
30
0
41
1
10
34.9087038964775
20
0.3513993897906
30
0
41
1
10
35.1016336655181
20
0.246385436991659
30
0
41
1
10
35.4876378332725
20
0.0367216981992726
30
0
41
1
10
35.6806050519403
20
-0.0681288253983894
30
0
41
1
10
36.0657140554576
20
-0.27927762447635
30
0
41
1
10
36.2582685447455
20
-0.384804097262759
30
0
41
1
10
36.6451491837817
20
-0.592453563303906
30
0
41
1
10
36.8391723442906
20
-0.695142812157371
30
0
41
1
10
37.2278565467845
20
-0.899232642686599
30
0
41
1
10
37.4229057260609
20
-1.00125914503761
30
0
41
1
10
37.8130111068666
20
-1.197818483813
30
0
41
1
10
38.0075572328317
20
-1.29289057319968
30
0
41
1
10
38.3951260497552
20
-1.47768958867064
30
0
41
1
10
38.5877703312995
20
-1.56797158449686
30
0
41
1
10
38.9734325188503
20
-1.7400748322199
30
0
41
1
10
39.1664274252653
20
-1.8220060737452
30
0
41
1
10
39.552167935869
20
-1.9786002087985
30
0
41
1
10
39.7446391912433
20
-2.05360000996868
30
0
41
1
10
40.1301738233162
20
-2.19495315312435
30
0
41
1
10
40.3237098238026
20
-2.26075665269752
30
0
41
1
10
40.7118656613482
20
-2.38323713574795
30
0
41
1
10
40.9063769882034
20
-2.44002533042161
30
0
41
1
10
41.2963292053161
20
-2.54421406381437
30
0
41
1
10
41.4916132384987
20
-2.59065725013664
30
0
41
1
10
41.8818028286125
20
-2.67213523232439
30
0
41
1
10
42.0768054319193
20
-2.70732636040805
30
0
41
1
10
42.4658767553672
20
-2.76679892958478
30
0
41
1
10
42.6605020072927
20
-2.79072483088024
30
0
41
1
10
43.0514000290968
20
-2.82652273950293
30
0
41
1
10
43.2469998625954
20
-2.83848930146243
30
0
41
1
10
43.5378842509999
20
-2.84752040067784
30
0
41
1
10
43.6341943541414
20
-2.84903379184072
30
0
41
1
10
43.7304242252727
20
-2.84907768343189
30
0
0
SPLINE
5
B0
100
AcDbEntity
8
1
62
256
6
ByLayer
370
18
48
1
60
0
100
AcDbSpline
70
4
71
3
72
38
73
34
40
0
40
0
40
0
40
0
40
0.0759676662540802
40
0.0759676662540802
40
0.11395149938112
40
0.11395149938112
40
0.15193533250816
40
0.15193533250816
40
0.303870665016325
40
0.303870665016325
40
0.341854498143366
40
0.341854498143366
40
0.379838331270407
40
0.379838331270407
40
0.455805997524487
40
0.455805997524487
40
0.531773663778567
40
0.531773663778567
40
0.607741330032648
40
0.607741330032648
40
0.683708996286728
40
0.683708996286728
40
0.721692829413768
40
0.721692829413768
40
0.759676662540808
40
0.759676662540808
40
0.911611995048967
40
0.911611995048967
40
0.949595828176006
40
0.949595828176006
40
0.987579661303046
40
0.987579661303046
40
1
40
1
40
1
40
1
41
1
10
45.0240242826725
20
-2.83868271534271
30
0
41
1
10
44.5961821978248
20
-2.85923301571847
30
0
41
1
10
44.1693276800335
20
-2.85079542333804
30
0
41
1
10
43.5267378950973
20
-2.79513183060143
30
0
41
1
10
43.3117513858502
20
-2.76930455450616
30
0
41
1
10
42.8842940407922
20
-2.70412956410661
30
0
41
1
10
42.6714318903798
20
-2.66475897500075
30
0
41
1
10
41.6097880539745
20
-2.43557363348845
30
0
41
1
10
40.7681377260128
20
-2.14924772355638
30
0
41
1
10
39.6970316698496
20
-1.69222784211945
30
0
41
1
10
39.4822611891573
20
-1.59609014319113
30
0
41
1
10
39.0555766231304
20
-1.39755006571727
30
0
41
1
10
38.843026680918
20
-1.29484719904309
30
0
41
1
10
38.2066664225115
20
-0.978358595970661
30
0
41
1
10
37.783997789423
20
-0.756443358015304
30
0
41
1
10
36.9360750347397
20
-0.301055859931438
30
0
41
1
10
36.5108650292736
20
-0.0675077344877764
30
0
41
1
10
35.6522820898838
20
0.401118378270382
30
0
41
1
10
35.2265251259594
20
0.631404501837721
30
0
41
1
10
34.378420526318
20
1.07341274487362
30
0
41
1
10
33.9556032759633
20
1.28501384036639
30
0
41
1
10
33.3192277771032
20
1.5814819395857
30
0
41
1
10
33.106701392696
20
1.67674490332965
30
0
41
1
10
32.6801344758576
20
1.85895657614
30
0
41
1
10
32.4655876306387
20
1.94613163453465
30
0
41
1
10
31.3933948767607
20
2.35589881147126
30
0
41
1
10
30.5512401872919
20
2.59427439986479
30
0
41
1
10
29.4895530533524
20
2.75731354260148
30
0
41
1
10
29.276749914171
20
2.78317368515505
30
0
41
1
10
28.8494663956976
20
2.82086541374079
30
0
41
1
10
28.6343046471801
20
2.83270203916308
30
0
41
1
10
28.3502103402021
20
2.8387327274269
30
0
41
1
10
28.2803011786379
20
2.8394461279423
30
0
41
1
10
28.2104757118594
20
2.83939272947001
30
0
0
SPLINE
5
B1
100
AcDbEntity
8
1
62
256
6
ByLayer
370
18
48
1
60
0
100
AcDbSpline
70
4
71
3
72
26
73
22
40
0
40
0
40
0
40
0
40
0.0412286518766171
40
0.0412286518766171
40
0.109712319599717
40
0.109712319599717
40
0.178195987322817
40
0.178195987322817
40
0.452130658215211
40
0.452130658215211
40
0.520614325938309
40
0.520614325938309
40
0.589097993661407
40
0.589097993661407
40
0.726065329107604
40
0.726065329107604
40
0.863032664553802
40
0.863032664553802
40
0.931516332276901
40
0.931516332276901
40
1
40
1
40
1
40
1
41
1
10
13.4676102099126
20
-2.69650207251709
30
0
41
1
10
13.3399275478231
20
-2.71751757070379
30
0
41
1
10
13.2121565540291
20
-2.73610875107644
30
0
41
1
10
12.8716902903516
20
-2.77897457765962
30
0
41
1
10
12.6587681966812
20
-2.79892170076977
30
0
41
1
10
12.2312641576737
20
-2.82465583847539
30
0
41
1
10
12.0159658873541
20
-2.83042616338972
30
0
41
1
10
10.9442290319446
20
-2.8230375194548
30
0
41
1
10
10.1017543662115
20
-2.70186819009717
30
0
41
1
10
9.03817683457581
20
-2.4233637509582
30
0
41
1
10
8.82495386894476
20
-2.36131469601193
30
0
41
1
10
8.39672633419582
20
-2.2250478415811
30
0
41
1
10
8.18124408662391
20
-2.15062215899857
30
0
41
1
10
7.53911595091543
20
-1.9130049994738
30
0
41
1
10
7.11441160906188
20
-1.73495260734057
30
0
41
1
10
6.26605183169548
20
-1.34876605293712
30
0
41
1
10
5.84255945545351
20
-1.14035055878105
30
0
41
1
10
5.20366405892392
20
-0.812428396977765
30
0
41
1
10
4.99010058368683
20
-0.700558224744015
30
0
41
1
10
4.56107054535667
20
-0.47286941413978
30
0
41
1
10
4.3456940079065
20
-0.357100948567648
30
0
41
1
10
4.13069577577858
20
-0.240760905961537
30
0
0
SPLINE
5
B2
100
AcDbEntity
8
1
62
256
6
ByLayer
370
18
48
1
60
0
100
AcDbSpline
70
4
71
3
72
8
73
4
40
0
40
0
40
0
40
0
40
1
40
1
40
1
40
1
41
1
10
4.02508369066805
20
2.82382534945882
30
0
41
1
10
3.9989773906527
20
2.82410458977694
30
0
41
1
10
3.97288863422068
20
2.82424150754736
30
0
41
1
10
3.94681914440912
20
2.82423131860901
30
0
0
SPLINE
5
B3
100
AcDbEntity
8
1
62
256
6
ByLayer
370
18
48
1
60
0
100
AcDbSpline
70
4
71
3
72
8
73
4
40
0
40
0
40
0
40
0
40
1
40
1
40
1
40
1
41
1
10
7.11653297762811
20
2.12855860580944
30
0
41
1
10
7.39434034795048
20
2.20217171842077
30
0
41
1
10
7.66951590962054
20
2.27493189465386
30
0
41
1
10
7.94293262395144
20
2.34384854691515
30
0
0
SPLINE
5
B4
100
AcDbEntity
8
1
62
256
6
ByLayer
370
13
48
1
60
0
100
AcDbSpline
70
4
71
3
72
8
73
4
40
0
40
0
40
0
40
0
40
1
40
1
40
1
40
1
41
1
10
4.13154990460313
20
-0.146478646796794
30
0
41
1
10
4.16847282405826
20
-0.156566160287383
30
0
41
1
10
4.20896462717113
20
-0.16820973853487
30
0
41
1
10
4.25041110800245
20
-0.1810029179087
30
0
0
SPLINE
5
B5
100
AcDbEntity
8
1
62
256
6
ByLayer
370
18
48
1
60
0
100
AcDbSpline
70
4
71
3
72
14
73
10
40
0
40
0
40
0
40
0
40
0.33772587347988
40
0.33772587347988
40
0.506588810219816
40
0.506588810219816
40
0.675451746959751
40
0.675451746959751
40
1
40
1
40
1
40
1
41
1
10
45.0490230931657
20
-2.7036372193862
30
0
41
1
10
44.6221515119892
20
-2.7152786855537
30
0
41
1
10
44.1964899358652
20
-2.69937095622342
30
0
41
1
10
43.5563650579016
20
-2.63515178100144
30
0
41
1
10
43.3422851493671
20
-2.60696091518361
30
0
41
1
10
42.9148020993237
20
-2.5376562735085
30
0
41
1
10
42.7020253085429
20
-2.49665919990008
30
0
41
1
10
42.0822107831448
20
-2.3594258913574
30
0
41
1
10
41.6767748116728
20
-2.24706431270542
30
0
41
1
10
41.2712886330762
20
-2.11550121147823
30
0
0
SPLINE
5
B6
100
AcDbEntity
8
1
62
256
6
ByLayer
370
13
48
1
60
0
100
AcDbSpline
70
4
71
3
72
22
73
18
40
0
40
0
40
0
40
0
40
0.166255677261393
40
0.166255677261393
40
0.246261801613287
40
0.246261801613287
40
0.32626792596518
40
0.32626792596518
40
0.486280174668971
40
0.486280174668971
40
0.646292423372762
40
0.646292423372762
40
0.726298547724658
40
0.726298547724658
40
0.806304672076553
40
0.806304672076553
40
1
40
1
40
1
40
1
41
1
10
41.2712883211599
20
-2.11550111027458
30
0
41
1
10
40.8328743665698
20
-1.97325432889181
30
0
41
1
10
40.3944017188738
20
-1.80856085910722
30
0
41
1
10
39.7405214406618
20
-1.53678045731024
30
0
41
1
10
39.5272790552964
20
-1.44411939394811
30
0
41
1
10
39.0990897005078
20
-1.25117534510525
30
0
41
1
10
38.8860191550564
20
-1.15173284222755
30
0
41
1
10
38.2489037797477
20
-0.846421568103779
30
0
41
1
10
37.8268420681687
20
-0.633764781751751
30
0
41
1
10
36.9827140369049
20
-0.200653661983068
30
0
41
1
10
36.5606400261204
20
0.019810899874841
30
0
41
1
10
35.923878956925
20
0.349239560151318
30
0
41
1
10
35.710977176057
20
0.458751970384441
30
0
41
1
10
35.283163401655
20
0.675789822663887
30
0
41
1
10
35.0693116214295
20
0.782784415130806
30
0
41
1
10
34.3416178442155
20
1.13953571049319
30
0
41
1
10
33.830552520567
20
1.3766785950616
30
0
41
1
10
33.3188220694552
20
1.59099730674868
30
0
0
SPLINE
5
B7
100
AcDbEntity
8
1
62
256
6
ByLayer
370
18
48
1
60
0
100
AcDbSpline
70
4
71
3
72
16
73
12
40
0
40
0
40
0
40
0
40
0.0424741128622782
40
0.0424741128622782
40
0.218716499578689
40
0.218716499578689
40
0.394958886295099
40
0.394958886295099
40
0.74744365972792
40
0.74744365972792
40
1
40
1
40
1
40
1
41
1
10
12.0590912247034
20
-2.68679900443374
30
0
41
1
10
12.0078358511901
20
-2.68669213035852
30
0
41
1
10
11.9565444461516
20
-2.6861927680491
30
0
41
1
10
11.6922146492239
20
-2.68158962300242
30
0
41
1
10
11.4780773165458
20
-2.67107497972751
30
0
41
1
10
11.0498690928705
20
-2.6365860280458
30
0
41
1
10
10.8366926883538
20
-2.61268331683823
30
0
41
1
10
10.1989029857839
20
-2.52179275730907
30
0
41
1
10
9.77601255081183
20
-2.4356718213318
30
0
41
1
10
9.04967839105922
20
-2.24812334546257
30
0
41
1
10
8.74634650545332
20
-2.15795928364699
30
0
41
1
10
8.44191135872532
20
-2.05689610536706
30
0
0
SPLINE
5
B8
100
AcDbEntity
8
1
62
256
6
ByLayer
370
13
48
1
60
0
100
AcDbSpline
70
4
71
3
72
14
73
10
40
0
40
0
40
0
40
0
40
0.0863400054727457
40
0.0863400054727457
40
0.238616671227288
40
0.238616671227288
40
0.39089333698183
40
0.39089333698183
40
1
40
1
40
1
40
1
41
1
10
8.44191135914878
20
-2.05689610550763
30
0
41
1
10
8.32145614818731
20
-2.01690865139858
30
0
41
1
10
8.20082821830354
20
-1.97521490708027
30
0
41
1
10
7.86680916718495
20
-1.85543833535115
30
0
41
1
10
7.65231465370184
20
-1.77363177837228
30
0
41
1
10
7.22430879303872
20
-1.6018595303687
30
0
41
1
10
7.0111491281007
20
-1.5120594105685
30
0
41
1
10
5.94790127124429
20
-1.04645991897655
30
0
41
1
10
5.1056750024278
20
-0.620819993287995
30
0
41
1
10
4.25041110800248
20
-0.1810029179087
30
0
0
SPLINE
5
B9
100
AcDbEntity
8
1
62
256
6
ByLayer
370
18
48
1
60
0
100
AcDbSpline
70
4
71
3
72
8
73
4
40
0
40
0
40
0
40
0
40
1
40
1
40
1
40
1
41
1
10
45.9999658747505
20
0.0321370778560492
30
0
41
1
10
46.0000113793338
20
0.0107103574071061
30
0
41
1
10
46.0000113707935
20
-0.0107143787479629
30
0
41
1
10
45.9999658747506
20
-0.0321370778158041
30
0
0
SPLINE
5
BA
100
AcDbEntity
8
1
62
256
6
ByLayer
370
18
48
1
60
0
100
AcDbSpline
70
4
71
3
72
29
73
25
40
0
40
0
40
0
40
0
40
0.0625000000000002
40
0.0625000000000002
40
0.125
40
0.125
40
0.250000000000001
40
0.250000000000001
40
0.312500000000001
40
0.312500000000001
40
0.375000000000001
40
0.375000000000001
40
0.500000000000001
40
0.500000000000001
40
0.562500000000001
40
0.562500000000001
40
0.625000000000001
40
0.687500000000001
40
0.687500000000001
40
0.750000000000001
40
0.750000000000001
40
0.875
40
0.875
40
1
40
1
40
1
40
1
41
1
10
4.02450372098926
20
-0.0883511291116861
30
0
41
1
10
4.02452573713225
20
0.0053483412294497
30
0
41
1
10
4.02454668255854
20
0.0990070568429076
30
0
41
1
10
4.02458677874031
20
0.286242740959011
30
0
41
1
10
4.02460589925323
20
0.379715166204164
30
0
41
1
10
4.02466018849745
20
0.655273658319715
30
0
41
1
10
4.02469265956421
20
0.834148642139354
30
0
41
1
10
4.02473806149482
20
1.09521521989879
30
0
41
1
10
4.0247527159454
20
1.18148638882153
30
0
41
1
10
4.02478079929469
20
1.34887817903677
30
0
41
1
10
4.02479421828136
20
1.4299123796076
30
0
41
1
10
4.02483313571554
20
1.66524070505508
30
0
41
1
10
4.02485732750424
20
1.81183698492757
30
0
41
1
10
4.02489239623913
20
2.01575109569163
30
0
41
1
10
4.02490375793982
20
2.080347575167
30
0
41
1
10
4.02492575979502
20
2.20166561238489
30
0
41
1
10
4.02494711520819
20
2.31555015318742
30
0
41
1
10
4.02496733215452
20
2.41470673770672
30
0
41
1
10
4.02498696247199
20
2.50635119285607
30
0
41
1
10
4.02499652384861
20
2.54856219546971
30
0
41
1
10
4.02502360059677
20
2.66117756134759
30
0
41
1
10
4.02503972311499
20
2.71855226423526
30
0
41
1
10
4.02506661870223
20
2.79837136804795
30
0
41
1
10
4.02507737901124
20
2.82050521608446
30
0
41
1
10
4.02508369066805
20
2.82382534945882
30
0
0
SPLINE
5
BB
100
AcDbEntity
8
1
62
256
6
ByLayer
370
18
48
1
60
0
100
AcDbSpline
70
4
71
3
72
56
73
52
40
0
40
0
40
0
40
0
40
0.0624999999999882
40
0.0624999999999882
40
0.124999999999976
40
0.124999999999976
40
0.187499999999965
40
0.187499999999965
40
0.218749999999959
40
0.218749999999959
40
0.249999999999953
40
0.249999999999953
40
0.26562499999995
40
0.26562499999995
40
0.281249999999948
40
0.281249999999948
40
0.296874999999945
40
0.296874999999945
40
0.312499999999943
40
0.312499999999943
40
0.32812499999994
40
0.32812499999994
40
0.343749999999938
40
0.343749999999938
40
0.359374999999935
40
0.359374999999935
40
0.374999999999933
40
0.374999999999933
40
0.40624999999993
40
0.40624999999993
40
0.437499999999926
40
0.437499999999926
40
0.441406249999926
40
0.441406249999926
40
0.445312499999925
40
0.445312499999925
40
0.449218749999925
40
0.449218749999925
40
0.453124999999924
40
0.453124999999924
40
0.468749999999927
40
0.468749999999927
40
0.49999999999993
40
0.49999999999993
40
0.624999999999948
40
0.624999999999948
40
0.749999999999965
40
0.749999999999965
40
0.874999999999983
40
0.874999999999983
40
1
40
1
40
1
40
1
41
1
10
4.02508369066788
20
-2.82382534945882
30
0
41
1
10
3.853045675045
20
-2.8256655163988
30
0
41
1
10
3.68176952175946
20
-2.82132506524138
30
0
41
1
10
3.34172713287614
20
-2.79754467679214
30
0
41
1
10
3.17477172629214
20
-2.77827047366
30
0
41
1
10
2.85126931055601
20
-2.72075271415576
30
0
41
1
10
2.69436572117951
20
-2.68278481728737
30
0
41
1
10
2.47304633055205
20
-2.6035400209081
30
0
41
1
10
2.40226407210656
20
-2.57352504814023
30
0
41
1
10
2.27022848969676
20
-2.50397172892841
30
0
41
1
10
2.20870383427228
20
-2.46423083016504
30
0
41
1
10
2.13016397484301
20
-2.39582530542876
30
0
41
1
10
2.10620210102968
20
-2.37150182742735
30
0
41
1
10
2.06402553667786
20
-2.31905543265319
30
0
41
1
10
2.04576507665467
20
-2.29071996186647
30
0
41
1
10
2.01785176284972
20
-2.23119167270721
30
0
41
1
10
2.00802322381139
20
-2.19985845036553
30
0
41
1
10
1.99847272495168
20
-2.13354653545898
30
0
41
1
10
1.99895614109553
20
-2.09901323905277
30
0
41
1
10
2.0108475383239
20
-2.02947823800841
30
0
41
1
10
2.02232908573598
20
-1.9939196401389
30
0
41
1
10
2.05581637259544
20
-1.92294447713638
30
0
41
1
10
2.07736775807484
20
-1.88828535090298
30
0
41
1
10
2.12851665683508
20
-1.82049423774262
30
0
41
1
10
2.15828019923032
20
-1.78727034846361
30
0
41
1
10
2.22252778109453
20
-1.72415464868772
30
0
41
1
10
2.25722150113748
20
-1.69397413771563
30
0
41
1
10
2.36737514717029
20
-1.60681470800915
30
0
41
1
10
2.44919886321821
20
-1.5530219748446
30
0
41
1
10
2.61982324951083
20
-1.45432982758982
30
0
41
1
10
2.70932694246477
20
-1.40896684818162
30
0
41
1
10
2.81251698283461
20
-1.36169124031355
30
0
41
1
10
2.8240191243645
20
-1.35649051171848
30
0
41
1
10
2.8470937960841
20
-1.34618988886612
30
0
41
1
10
2.85840504143553
20
-1.34064751211534
30
0
41
1
10
2.88259782037119
20
-1.33220415621173
30
0
41
1
10
2.89540965301501
20
-1.32985691790083
30
0
41
1
10
2.92034131202186
20
-1.32773797307036
30
0
41
1
10
2.93276162140762
20
-1.32796966468149
30
0
41
1
10
2.9947691964301
20
-1.33179375145553
30
0
41
1
10
3.04434811303901
20
-1.33561961173842
30
0
41
1
10
3.19308149531218
20
-1.34717713517861
30
0
41
1
10
3.29209255058342
20
-1.35596035142746
30
0
41
1
10
3.78641907562363
20
-1.40507638963436
30
0
41
1
10
4.1795961323603
20
-1.46120605816972
30
0
41
1
10
4.95492345557602
20
-1.59922039797911
30
0
41
1
10
5.33796405418934
20
-1.68114940317449
30
0
41
1
10
6.09608956519889
20
-1.86054315359684
30
0
41
1
10
6.47190520991245
20
-1.95813121271786
30
0
41
1
10
7.21410632823677
20
-2.15415380184112
30
0
41
1
10
7.58006842210602
20
-2.2523860111377
30
0
41
1
10
7.94293262395144
20
-2.34384854691515
30
0
0
SPLINE
5
BC
100
AcDbEntity
8
1
62
256
6
ByLayer
370
18
48
1
60
0
100
AcDbSpline
70
4
71
3
72
8
73
4
40
0
40
0
40
0
40
0
40
1
40
1
40
1
40
1
41
1
10
45.9999658747535
20
0.032137077861023
30
0
41
1
10
45.994915993779
20
0.0145538246681269
30
0
41
1
10
45.9871837619133
20
-0.0039479999778393
30
0
41
1
10
45.9790534732988
20
-0.0172553892846281
30
0
0
SPLINE
5
BD
100
AcDbEntity
8
1
62
256
6
ByLayer
370
13
48
1
60
0
100
AcDbSpline
70
4
71
3
72
8
73
4
40
0
40
0
40
0
40
0
40
1
40
1
40
1
40
1
41
1
10
4.13069577577841
20
-0.240760905960627
30
0
41
1
10
4.13097959563862
20
-0.240181211800035
30
0
41
1
10
4.13126430494407
20
-0.239600581950583
30
0
41
1
10
4.13154990460311
20
-0.239019003650782
30
0
0
SPLINE
5
BE
100
AcDbEntity
8
1
62
256
6
ByLayer
370
18
48
1
60
0
100
AcDbSpline
70
4
71
3
72
8
73
4
40
0
40
0
40
0
40
0
40
1
40
1
40
1
40
1
41
1
10
45.1833498296902
20
2.73927100423452
30
0
41
1
10
45.1246079932306
20
2.78885575934061
30
0
41
1
10
45.0715911456537
20
2.82239816695545
30
0
41
1
10
45.0240242826725
20
2.83868271534274
30
0
0
SPLINE
5
BF
100
AcDbEntity
8
1
62
256
6
ByLayer
370
13
48
1
60
0
100
AcDbSpline
70
4
71
3
72
8
73
4
40
0
40
0
40
0
40
0
40
1
40
1
40
1
40
1
41
1
10
4.02450372098173
20
-0.0883511291361856
30
0
41
1
10
4.04628543327172
20
-0.112375464368398
30
0
41
1
10
4.08266790646712
20
-0.133123857332407
30
0
41
1
10
4.13154990460313
20
-0.146478646796794
30
0
0
SPLINE
5
C0
100
AcDbEntity
8
1
62
256
6
ByLayer
370
13
48
1
60
0
100
AcDbSpline
70
4
71
3
72
26
73
22
40
0
40
0
40
0
40
0
40
0.0625
40
0.0625
40
0.125
40
0.125
40
0.25
40
0.25
40
0.375
40
0.375
40
0.4375
40
0.4375
40
0.5
40
0.5
40
0.625
40
0.625
40
0.75
40
0.75
40
0.875
40
0.875
40
1
40
1
40
1
40
1
41
1
10
4.25041110800242
20
-0.1810029179087
30
0
41
1
10
4.25045120633118
20
-0.0915018360289253
30
0
41
1
10
4.25048948904112
20
-0.0015472472362603
30
0
41
1
10
4.25056215659896
20
0.176925734500571
30
0
41
1
10
4.25059654075255
20
0.265401731589549
30
0
41
1
10
4.25069503602037
20
0.528607888448818
30
0
41
1
10
4.25075451895012
20
0.701138316624679
30
0
41
1
10
4.25086639591703
20
1.04010198324886
30
0
41
1
10
4.25091724489147
20
1.2017335101111
30
0
41
1
10
4.25098913283628
20
1.4308374723613
30
0
41
1
10
4.25101238286965
20
1.50508345584589
30
0
41
1
10
4.25105790985307
20
1.64924096566915
30
0
41
1
10
4.25108026830981
20
1.71939322319005
30
0
41
1
10
4.25114499874365
20
1.91879722072255
30
0
41
1
10
4.25118554841987
20
2.03850885128668
30
0
41
1
10
4.25126284148553
20
2.25176523093938
30
0
41
1
10
4.25129988499279
20
2.34587263999677
30
0
41
1
10
4.25136609680371
20
2.49921193756231
30
0
41
1
10
4.25139539789328
20
2.55906516981642
30
0
41
1
10
4.25144355383492
20
2.64562410211147
30
0
41
1
10
4.25146237543294
20
2.67207913047383
30
0
41
1
10
4.25147275287836
20
2.68044116029998
30
0
0
SPLINE
5
C1
100
AcDbEntity
8
1
62
256
6
ByLayer
370
18
48
1
60
0
100
AcDbSpline
70
4
71
3
72
8
73
4
40
0
40
0
40
0
40
0
40
1
40
1
40
1
40
1
41
1
10
45.0240242826724
20
2.83868271534274
30
0
41
1
10
44.869456479091
20
2.8461069844937
30
0
41
1
10
44.7149580185107
20
2.84975063883357
30
0
41
1
10
44.560409392566
20
2.84961989901646
30
0
0
SPLINE
5
C2
100
AcDbEntity
8
1
62
256
6
ByLayer
370
18
48
1
60
0
100
AcDbSpline
70
4
71
3
72
42
73
38
40
0
40
0
40
0
40
0
40
0.008490133884203
40
0.008490133884203
40
0.0440141175435266
40
0.0440141175435266
40
0.0795381012028503
40
0.0795381012028503
40
0.150586068521497
40
0.150586068521497
40
0.221634035840145
40
0.221634035840145
40
0.257158019499468
40
0.257158019499468
40
0.292682003158792
40
0.292682003158792
40
0.434777937796088
40
0.434777937796088
40
0.470301921455412
40
0.470301921455412
40
0.505825905114736
40
0.505825905114736
40
0.576873872433382
40
0.576873872433382
40
0.647921839752029
40
0.647921839752029
40
0.683445823411353
40
0.683445823411353
40
0.718969807070677
40
0.718969807070677
40
0.86106574170797
40
0.86106574170797
40
0.896589725367293
40
0.896589725367293
40
0.932113709026616
40
0.932113709026616
40
1
40
1
40
1
40
1
41
1
10
29.852924515098
20
-2.7003665633377
30
0
41
1
10
29.8021502990185
20
-2.70893272207115
30
0
41
1
10
29.7513489226672
20
-2.71711752369211
30
0
41
1
10
29.4878210897607
20
-2.75754994263963
30
0
41
1
10
29.2745475699165
20
-2.78342943512328
30
0
41
1
10
28.8460883602478
20
-2.82110111685537
30
0
41
1
10
28.6309614299769
20
-2.83283625620933
30
0
41
1
10
27.9901925813837
20
-2.84624733364009
30
0
41
1
10
27.5661363549889
20
-2.82642654992975
30
0
41
1
10
26.7187273545995
20
-2.73157766543557
30
0
41
1
10
26.2952762281171
20
-2.65658113935569
30
0
41
1
10
25.656304644809
20
-2.50466367716191
30
0
41
1
10
25.4426910200465
20
-2.44744325439774
30
0
41
1
10
25.0134228678786
20
-2.32025781032814
30
0
41
1
10
24.7989045371746
20
-2.25061870828463
30
0
41
1
10
23.7321532886368
20
-1.87695636766517
30
0
41
1
10
22.8904129062682
20
-1.49437984007088
30
0
41
1
10
21.823930502569
20
-0.955591467502245
30
0
41
1
10
21.6096693734234
20
-0.844669282545311
30
0
41
1
10
21.1800787744173
20
-0.618466253913851
30
0
41
1
10
20.9663207116702
20
-0.504044053564286
30
0
41
1
10
20.3270119217764
20
-0.158966309493735
30
0
41
1
10
19.9032737401762
20
0.0732132991089429
30
0
41
1
10
19.0556964016664
20
0.532412748937872
30
0
41
1
10
18.6315627364508
20
0.758879826190196
30
0
41
1
10
17.9906758803089
20
1.08611332776638
30
0
41
1
10
17.775628281365
20
1.19349670651226
30
0
41
1
10
17.3467405945034
20
1.40097228176972
30
0
41
1
10
17.133222140205
20
1.50086905848599
30
0
41
1
10
16.0685266036215
20
1.97889316023014
30
0
41
1
10
15.2263934830636
20
2.29290348183673
30
0
41
1
10
14.1564647862433
20
2.56198506752207
30
0
41
1
10
13.9410502285668
20
2.60978370362966
30
0
41
1
10
13.5127813659638
20
2.69125129682124
30
0
41
1
10
13.2995025928345
20
2.72505675109642
30
0
41
1
10
12.6801423578908
20
2.80319496273111
30
0
41
1
10
12.2755330725404
20
2.82906363494067
30
0
41
1
10
11.8702289031336
20
2.82917552216818
30
0
0
SPLINE
5
C3
100
AcDbEntity
8
1
62
256
6
ByLayer
370
18
48
1
60
0
100
AcDbSpline
70
4
71
3
72
8
73
4
40
0
40
0
40
0
40
0
40
1
40
1
40
1
40
1
41
1
10
45.954103323284
20
0.771611636840902
30
0
41
1
10
45.9709891019412
20
0.545860407090032
30
0
41
1
10
45.9829934897494
20
0.320440951932966
30
0
41
1
10
45.9901183686068
20
0.0953531434622619
30
0
0
SPLINE
5
C4
100
AcDbEntity
8
1
62
256
6
ByLayer
370
18
48
1
60
0
100
AcDbSpline
70
4
71
3
72
31
73
27
40
0
40
0
40
0
40
0
40
0.249999999999994
40
0.249999999999994
40
0.374999999999987
40
0.374999999999987
40
0.49999999999998
40
0.49999999999998
40
0.562499999999976
40
0.562499999999976
40
0.624999999999972
40
0.624999999999972
40
0.749999999999956
40
0.749999999999956
40
0.812499999999952
40
0.812499999999952
40
0.84374999999995
40
0.84374999999995
40
0.851562499999952
40
0.851562499999952
40
0.859374999999954
40
0.859374999999954
40
0.867187499999955
40
0.867187499999955
40
0.874999999999957
40
1
40
1
40
1
40
1
41
1
10
42.3651422265952
20
1.12588135749428
30
0
41
1
10
42.5752327673802
20
0.935783237236535
30
0
41
1
10
42.7967854768897
20
0.769831577586217
30
0
41
1
10
43.1469716448481
20
0.558522261536552
30
0
41
1
10
43.2658750351223
20
0.495002700279287
30
0
41
1
10
43.5043508068034
20
0.384566180498752
30
0
41
1
10
43.6244837495526
20
0.337336798660942
30
0
41
1
10
43.8061953677705
20
0.27998998399147
30
0
41
1
10
43.8670158945181
20
0.263105654416876
30
0
41
1
10
43.9891947497769
20
0.234137173520452
30
0
41
1
10
44.050752177988
20
0.222025463768602
30
0
41
1
10
44.2343385558665
20
0.193826196600924
30
0
41
1
10
44.3554708982959
20
0.185645726439049
30
0
41
1
10
44.5349436257303
20
0.192154747419039
30
0
41
1
10
44.5942937100617
20
0.197491772088796
30
0
41
1
10
44.6819211439943
20
0.210701153933996
30
0
41
1
10
44.7110463643326
20
0.21554749269103
30
0
41
1
10
44.7467845070049
20
0.223737734508092
30
0
41
1
10
44.7538927194578
20
0.225749962527175
30
0
41
1
10
44.7662300083291
20
0.233537456812798
30
0
41
1
10
44.7715251065995
20
0.239485198630064
30
0
41
1
10
44.7770181729266
20
0.254924565631995
30
0
41
1
10
44.7778324843924
20
0.263873088792195
30
0
41
1
10
44.780645809996
20
0.280986098743568
30
0
41
1
10
44.803628085477
20
0.426872396696552
30
0
41
1
10
44.8111692738992
20
0.57939695635821
30
0
41
1
10
44.8088451947612
20
0.723514480938974
30
0
0
SPLINE
5
C5
100
AcDbEntity
8
1
62
256
6
ByLayer
370
18
48
1
60
0
100
AcDbSpline
70
4
71
3
72
70
73
66
40
0
40
0
40
0
40
0
40
0.0599054091291299
40
0.0599054091291299
40
0.0898581136936949
40
0.0898581136936949
40
0.11981081825826
40
0.11981081825826
40
0.149763522822825
40
0.149763522822825
40
0.17971622738739
40
0.17971622738739
40
0.209668931951955
40
0.209668931951955
40
0.23962163651652
40
0.23962163651652
40
0.269574341081085
40
0.269574341081085
40
0.29952704564565
40
0.29952704564565
40
0.329479750210215
40
0.329479750210215
40
0.35943245477478
40
0.35943245477478
40
0.389385159339345
40
0.389385159339345
40
0.41933786390391
40
0.41933786390391
40
0.449290568468475
40
0.449290568468475
40
0.479243273033039
40
0.479243273033039
40
0.509195977597604
40
0.509195977597604
40
0.539148682162169
40
0.539148682162169
40
0.569101386726734
40
0.569101386726734
40
0.5990540912913
40
0.5990540912913
40
0.629006795855864
40
0.629006795855864
40
0.658959500420429
40
0.658959500420429
40
0.718864909549559
40
0.718864909549559
40
0.748817614114124
40
0.748817614114124
40
0.778770318678688
40
0.778770318678688
40
0.808723023243253
40
0.808723023243253
40
0.838675727807818
40
0.838675727807818
40
0.868628432372382
40
0.868628432372382
40
0.898581136936947
40
0.898581136936947
40
0.928533841501511
40
0.928533841501511
40
0.958486546066076
40
0.958486546066076
40
0.988439250630641
40
0.988439250630641
40
1
40
1
40
1
40
1
41
1
10
7.94293262395144
20
2.34384854691515
30
0
41
1
10
8.33320558471772
20
2.46432854477524
30
0
41
1
10
8.72306133437868
20
2.5606729510333
30
0
41
1
10
9.30261966752587
20
2.67519849896973
30
0
41
1
10
9.49539346980123
20
2.70783561928664
30
0
41
1
10
9.88180542600216
20
2.76134524900161
30
0
41
1
10
10.0751533246955
20
2.78243216680141
30
0
41
1
10
10.4615725233622
20
2.8133386533182
30
0
41
1
10
10.6544609666518
20
2.82309078947713
30
0
41
1
10
11.04246685239
20
2.83061219688923
30
0
41
1
10
11.2372578221224
20
2.82852322161307
30
0
41
1
10
11.6278976010764
20
2.81242164078159
30
0
41
1
10
11.8233025650169
20
2.79819431250308
30
0
41
1
10
12.2124576891923
20
2.75838259456813
30
0
41
1
10
12.4067544467495
20
2.73288342301248
30
0
41
1
10
12.7942335755999
20
2.67075677228962
30
0
41
1
10
12.9871209690835
20
2.63389396141025
30
0
41
1
10
13.3727256563885
20
2.54944146532452
30
0
41
1
10
13.5658670284356
20
2.50223557674829
30
0
41
1
10
13.95235394606
20
2.39770408923906
30
0
41
1
10
14.1455825221237
20
2.34025180987027
30
0
41
1
10
14.5320980166342
20
2.21467459381736
30
0
41
1
10
14.7261166779373
20
2.14737408113899
30
0
41
1
10
15.1158440208177
20
2.00407817299754
30
0
41
1
10
15.3120474983182
20
1.92773629898667
30
0
41
1
10
15.7018120507991
20
1.76618895184396
30
0
41
1
10
15.8959096468345
20
1.68180061822145
30
0
41
1
10
16.2839359011102
20
1.50815595898877
30
0
41
1
10
16.4776162391249
20
1.41853301083631
30
0
41
1
10
16.8637076881545
20
1.23269765475834
30
0
41
1
10
17.0560489716027
20
1.13632451888654
30
0
41
1
10
17.4420317753358
20
0.941337196701426
30
0
41
1
10
17.6353232503336
20
0.842154625704609
30
0
41
1
10
18.0219844761136
20
0.639454772544099
30
0
41
1
10
18.2149896705348
20
0.535226730613601
30
0
41
1
10
18.6031468299486
20
0.326141340088213
30
0
41
1
10
18.7981867873905
20
0.221117320005448
30
0
41
1
10
19.1896288985884
20
0.0089607250787367
30
0
41
1
10
19.3843191365939
20
-0.0980496289760708
30
0
41
1
10
19.772414424679
20
-0.309792941473375
30
0
41
1
10
19.966303120151
20
-0.41404038279606
30
0
41
1
10
20.3532819936257
20
-0.620332503499526
30
0
41
1
10
20.5462161912671
20
-0.722657287586912
30
0
41
1
10
21.1239097901244
20
-1.0260290343958
30
0
41
1
10
21.5107550384149
20
-1.21790314676127
30
0
41
1
10
22.0909549447012
20
-1.4945945257528
30
0
41
1
10
22.284906923362
20
-1.58398486157321
30
0
41
1
10
22.675051518632
20
-1.75525767714296
30
0
41
1
10
22.8712772461743
20
-1.83760810546835
30
0
41
1
10
23.2614723557633
20
-1.99492017497289
30
0
41
1
10
23.4558801568376
20
-2.06990530797825
30
0
41
1
10
23.8459205172703
20
-2.20931823453108
30
0
41
1
10
24.0411823025641
20
-2.27427635674712
30
0
41
1
10
24.4316473941669
20
-2.39524216964574
30
0
41
1
10
24.6269292522647
20
-2.45159772618084
30
0
41
1
10
25.0166948940359
20
-2.5520480798501
30
0
41
1
10
25.2111736886075
20
-2.59654246968503
30
0
41
1
10
25.5987782030685
20
-2.67482416779987
30
0
41
1
10
25.7915432171536
20
-2.70876661777885
30
0
41
1
10
26.1772272360486
20
-2.76485385169792
30
0
41
1
10
26.3703128295371
20
-2.78701184377522
30
0
41
1
10
26.7564266069699
20
-2.82000269576457
30
0
41
1
10
26.9492554872205
20
-2.83085030144102
30
0
41
1
10
27.2167149504698
20
-2.83769510539952
30
0
41
1
10
27.2913151734671
20
-2.83871786452571
30
0
41
1
10
27.3660257703753
20
-2.83886119006397
30
0
0
SPLINE
5
C6
100
AcDbEntity
8
1
62
256
6
ByLayer
370
18
48
1
60
0
100
AcDbSpline
70
4
71
3
72
26
73
22
40
0
40
0
40
0
40
0
40
0.0057443155085431
40
0.0057443155085431
40
0.116217169340927
40
0.116217169340927
40
0.226690023173311
40
0.226690023173311
40
0.337162877005695
40
0.337162877005695
40
0.44763573083808
40
0.44763573083808
40
0.558108584670464
40
0.558108584670464
40
0.668581438502847
40
0.668581438502847
40
0.779054292335231
40
0.779054292335231
40
0.889527146167616
40
0.889527146167616
40
1
40
1
40
1
40
1
41
1
10
39.9073385382016
20
2.11321663766884
30
0
41
1
10
39.9173604592336
20
2.11691487837152
30
0
41
1
10
39.9273830830205
20
2.12060157441007
30
0
41
1
10
40.1301738233159
20
2.19495315312423
30
0
41
1
10
40.3237098238024
20
2.26075665269738
30
0
41
1
10
40.7118656613479
20
2.38323713574786
30
0
41
1
10
40.9063769882031
20
2.44002533042152
30
0
41
1
10
41.2963292053157
20
2.54421406381431
30
0
41
1
10
41.4916132384983
20
2.59065725013656
30
0
41
1
10
41.8818028286122
20
2.67213523232434
30
0
41
1
10
42.076805431919
20
2.70732636040799
30
0
41
1
10
42.4658767553669
20
2.76679892958475
30
0
41
1
10
42.6605020072923
20
2.79072483088018
30
0
41
1
10
43.0514000290964
20
2.82652273950293
30
0
41
1
10
43.2469998625952
20
2.83848930146243
30
0
41
1
10
43.6356515189247
20
2.85055578494678
30
0
41
1
10
43.8289710391477
20
2.85057659939986
30
0
41
1
10
44.2163399217859
20
2.83883736618739
30
0
41
1
10
44.4100336348685
20
2.82715179000817
30
0
41
1
10
44.7969123579213
20
2.79207470467429
30
0
41
1
10
44.9897285204033
20
2.76845358693916
30
0
41
1
10
45.1833498296903
20
2.73927100423415
30
0
0
SPLINE
5
C7
100
AcDbEntity
8
1
62
256
6
ByLayer
370
13
48
1
60
0
100
AcDbSpline
70
4
71
3
72
8
73
4
40
0
40
0
40
0
40
0
40
1
40
1
40
1
40
1
41
1
10
4.13154990460313
20
-0.23901900365081
30
0
41
1
10
4.15397541422294
20
-0.250010478981409
30
0
41
1
10
4.17829924313708
20
-0.262363118203552
30
0
41
1
10
4.20311772774227
20
-0.275562522742263
30
0
0
SPLINE
5
C8
100
AcDbEntity
8
1
62
256
6
ByLayer
370
18
48
1
60
0
100
AcDbSpline
70
4
71
3
72
14
73
10
40
0
40
0
40
0
40
0
40
0.25
40
0.25
40
0.5
40
0.5
40
0.75
40
0.75
40
1
40
1
40
1
40
1
41
1
10
4.25147275505594
20
2.68044116025067
30
0
41
1
10
4.55023184119796
20
2.67329738494721
30
0
41
1
10
4.85296531589464
20
2.6459567557873
30
0
41
1
10
5.46483820174115
20
2.55754130337823
30
0
41
1
10
5.77130238039467
20
2.49693825818341
30
0
41
1
10
6.38513816975865
20
2.34975598650598
30
0
41
1
10
6.69285282875052
20
2.26418186875779
30
0
41
1
10
7.31316847029979
20
2.06989969738007
30
0
41
1
10
7.62579035995569
20
1.96248495830164
30
0
41
1
10
7.94293262395144
20
1.84925266519011
30
0
0
SPLINE
5
C9
100
AcDbEntity
8
1
62
256
6
ByLayer
370
18
48
1
60
0
100
AcDbSpline
70
4
71
3
72
14
73
10
40
0
40
0
40
0
40
0
40
0.25
40
0.25
40
0.5
40
0.5
40
0.75
40
0.75
40
1
40
1
40
1
40
1
41
1
10
45.0490230931645
20
-2.70363721938622
30
0
41
1
10
45.0524901897079
20
-2.70290202569058
30
0
41
1
10
45.0553545067695
20
-2.7037754911791
30
0
41
1
10
45.0594751426638
20
-2.70977767398611
30
0
41
1
10
45.0606862262092
20
-2.71496861930382
30
0
41
1
10
45.0602468027184
20
-2.73094587265058
30
0
41
1
10
45.0585053382246
20
-2.74178654003589
30
0
41
1
10
45.051931017522
20
-2.76684366248941
30
0
41
1
10
45.0471552238777
20
-2.78085082004901
30
0
41
1
10
45.0418381995901
20
-2.79416224284589
30
0
0
SPLINE
5
CA
100
AcDbEntity
8
1
62
256
6
ByLayer
370
18
48
1
60
0
100
AcDbSpline
70
4
71
3
72
16
73
12
40
0
40
0
40
0
40
0
40
0.250000000000001
40
0.250000000000001
40
0.500000000000002
40
0.500000000000002
40
0.750000000000003
40
0.750000000000003
40
0.875000000000001
40
0.875000000000001
40
1
40
1
40
1
40
1
41
1
10
44.8137102739043
20
-2.12816874923342
30
0
41
1
10
44.813244830384
20
-2.22956788938646
30
0
41
1
10
44.8176259698591
20
-2.31821658216001
30
0
41
1
10
44.836395018549
20
-2.47045157308304
30
0
41
1
10
44.8510283885475
20
-2.53425660211025
30
0
41
1
10
44.8900890120604
20
-2.63155279412007
30
0
41
1
10
44.914511229577
20
-2.66586950335827
30
0
41
1
10
44.9591238553926
20
-2.69619243730284
30
0
41
1
10
44.9753985890869
20
-2.70274956068985
30
0
41
1
10
45.0103549426358
20
-2.70856658749892
30
0
41
1
10
45.0290552826597
20
-2.70787136983898
30
0
41
1
10
45.0490230931647
20
-2.7036372193862
30
0
0
SPLINE
5
CB
100
AcDbEntity
8
1
62
256
6
ByLayer
370
18
48
1
60
0
100
AcDbSpline
70
4
71
3
72
8
73
4
40
0
40
0
40
0
40
0
40
1
40
1
40
1
40
1
41
1
10
45.04183819959
20
-2.79416224284631
30
0
41
1
10
45.0359067615632
20
-2.80901187961644
30
0
41
1
10
45.0299686586619
20
-2.82385218828759
30
0
41
1
10
45.0240242826725
20
-2.83868271534274
30
0
0
SPLINE
5
CC
100
AcDbEntity
8
1
62
256
6
ByLayer
370
18
48
1
60
0
100
AcDbSpline
70
4
71
3
72
64
73
60
40
0
40
0
40
0
40
0
40
0.068889501155615
40
0.068889501155615
40
0.103334251733423
40
0.103334251733423
40
0.137779002311231
40
0.137779002311231
40
0.172223752889039
40
0.172223752889039
40
0.206668503466847
40
0.206668503466847
40
0.241113254044655
40
0.241113254044655
40
0.275558004622463
40
0.275558004622463
40
0.310002755200271
40
0.310002755200271
40
0.344447505778079
40
0.344447505778079
40
0.378892256355888
40
0.378892256355888
40
0.413337006933696
40
0.413337006933696
40
0.447781757511504
40
0.447781757511504
40
0.482226508089312
40
0.482226508089312
40
0.51667125866712
40
0.51667125866712
40
0.551116009244928
40
0.551116009244928
40
0.585560759822736
40
0.585560759822736
40
0.620005510400544
40
0.620005510400544
40
0.654450260978352
40
0.654450260978352
40
0.68889501155616
40
0.68889501155616
40
0.723339762133968
40
0.723339762133968
40
0.757784512711776
40
0.757784512711776
40
0.792229263289584
40
0.792229263289584
40
0.826674013867392
40
0.826674013867392
40
0.8611187644452
40
0.8611187644452
40
0.895563515023008
40
0.895563515023008
40
0.930008265600816
40
0.930008265600816
40
0.964453016178624
40
0.964453016178624
40
0.998897766756432
40
0.998897766756432
40
1
40
1
40
1
40
1
41
1
10
7.94293262395144
20
1.84925266519011
30
0
41
1
10
8.30453709623066
20
1.71407003832749
30
0
41
1
10
8.66349795761568
20
1.56656288398108
30
0
41
1
10
9.19958428767518
20
1.33098363097037
30
0
41
1
10
9.37788947346337
20
1.24991933762811
30
0
41
1
10
9.7346477857497
20
1.08423938623386
30
0
41
1
10
9.91298752468211
20
0.999498560524898
30
0
41
1
10
10.2695832014248
20
0.82652283422695
30
0
41
1
10
10.4477672848075
20
0.738101690950316
30
0
41
1
10
10.8049595102714
20
0.558951581071796
30
0
41
1
10
10.9840303687545
20
0.46835708193754
30
0
41
1
10
11.3429305265344
20
0.285278501463551
30
0
41
1
10
11.5227066787654
20
0.19276106576649
30
0
41
1
10
11.8835370938505
20
0.0058487028422007
30
0
41
1
10
12.0642024553398
20
-0.0876145805577266
30
0
41
1
10
12.4239375373954
20
-0.272552392853214
30
0
41
1
10
12.6033377453622
20
-0.364489365964658
30
0
41
1
10
12.9610979395353
20
-0.546979387413273
30
0
41
1
10
13.1394010131517
20
-0.637428793088361
30
0
41
1
10
13.4962366323118
20
-0.814741622856928
30
0
41
1
10
13.6746512229216
20
-0.90182910713807
30
0
41
1
10
14.0313335266658
20
-1.07342970242308
30
0
41
1
10
14.2095129242197
20
-1.15780520467618
30
0
41
1
10
14.5665124472043
20
-1.32173059755379
30
0
41
1
10
14.7454703366666
20
-1.40121817943427
30
0
41
1
10
15.1041541156718
20
-1.55589168637729
30
0
41
1
10
15.283794996272
20
-1.63135403276826
30
0
41
1
10
15.6442507216405
20
-1.77603254493872
30
0
41
1
10
15.825244460058
20
-1.84518388462175
30
0
41
1
10
16.1855092758913
20
-1.9759095249841
30
0
41
1
10
16.3651942212216
20
-2.03810207779901
30
0
41
1
10
16.7234622578665
20
-2.15511246099393
30
0
41
1
10
16.9018940848823
20
-2.20915415804467
30
0
41
1
10
17.2589273065213
20
-2.30907457317474
30
0
41
1
10
17.4374558319354
20
-2.35498921824458
30
0
41
1
10
17.7943447548882
20
-2.43994223481724
30
0
41
1
10
17.9726152837349
20
-2.47828458009471
30
0
41
1
10
18.329551694509
20
-2.54418983167295
30
0
41
1
10
18.5084420538117
20
-2.57264696469215
30
0
41
1
10
18.8670335864632
20
-2.62153866093115
30
0
41
1
10
19.0466175801664
20
-2.64246241046888
30
0
41
1
10
19.4068277041059
20
-2.67313265029799
30
0
41
1
10
19.5879323136049
20
-2.68282857757345
30
0
41
1
10
19.94871379648
20
-2.69322558679477
30
0
41
1
10
20.1286548266734
20
-2.69413984772814
30
0
41
1
10
20.4874634765574
20
-2.68697864031944
30
0
41
1
10
20.66614293944
20
-2.67783297758874
30
0
41
1
10
21.0234042430111
20
-2.64985975045246
30
0
41
1
10
21.2020437074586
20
-2.63152384513378
30
0
41
1
10
21.5591224394946
20
-2.58641198665544
30
0
41
1
10
21.7375185160868
20
-2.55930192690411
30
0
41
1
10
22.0944681535106
20
-2.4947039564068
30
0
41
1
10
22.2732810241557
20
-2.45758561150194
30
0
41
1
10
22.6317759348467
20
-2.37619363687676
30
0
41
1
10
22.8113339768838
20
-2.33166874564097
30
0
41
1
10
23.1713753606969
20
-2.23272806178139
30
0
41
1
10
23.3523599278508
20
-2.17803775465217
30
0
41
1
10
23.5388131357174
20
-2.11844054559745
30
0
41
1
10
23.5445942135115
20
-2.11658966100785
30
0
41
1
10
23.5503748601336
20
-2.114735840077
30
0
0
SPLINE
5
CD
100
AcDbEntity
8
1
62
256
6
ByLayer
370
18
48
1
60
0
100
AcDbSpline
70
4
71
3
72
26
73
22
40
0
40
0
40
0
40
0
40
0.0860066875861158
40
0.0860066875861158
40
0.177406018827506
40
0.177406018827506
40
0.268805350068895
40
0.268805350068895
40
0.360204681310285
40
0.360204681310285
40
0.451604012551675
40
0.451604012551675
40
0.634402675034453
40
0.634402675034453
40
0.72580200627584
40
0.72580200627584
40
0.817201337517226
40
0.817201337517226
40
0.908600668758613
40
0.908600668758613
40
1
40
1
40
1
40
1
41
1
10
36.4829231912494
20
2.70155459444072
30
0
41
1
10
36.6512588495798
20
2.70132059342657
30
0
41
1
10
36.8194094256907
20
2.69685353357386
30
0
41
1
10
37.165988794701
20
2.67750476427437
30
0
41
1
10
37.3444151511904
20
2.66233586158043
30
0
41
1
10
37.7022245056553
20
2.62280761457717
30
0
41
1
10
37.8815042642955
20
2.59837477788045
30
0
41
1
10
38.2406870376546
20
2.54032368366583
30
0
41
1
10
38.4205509551842
20
2.50665724758571
30
0
41
1
10
38.7815838231543
20
2.43103313874397
30
0
41
1
10
38.963112078281
20
2.38911942413427
30
0
41
1
10
39.504270769077
20
2.25049481222859
30
0
41
1
10
39.8617217362581
20
2.13976876358251
30
0
41
1
10
40.397783689274
20
1.95467661846789
30
0
41
1
10
40.5762822485688
20
1.88943741374325
30
0
41
1
10
40.9330094028217
20
1.75209497704958
30
0
41
1
10
41.1111965321313
20
1.6799914278524
30
0
41
1
10
41.4683630417288
20
1.53097657923726
30
0
41
1
10
41.6472890056073
20
1.45393614148128
30
0
41
1
10
42.0056849237711
20
1.29396255922441
30
0
41
1
10
42.1851403019057
20
1.21102469118799
30
0
41
1
10
42.3651422265949
20
1.12588135749414
30
0
0
SPLINE
5
CE
100
AcDbEntity
8
1
62
256
6
ByLayer
370
18
48
1
60
0
100
AcDbSpline
70
4
71
3
72
24
73
20
40
0
40
0
40
0
40
0
40
0.141232985117694
40
0.141232985117694
40
0.282465970235389
40
0.282465970235389
40
0.353082462794237
40
0.353082462794237
40
0.423698955353085
40
0.423698955353085
40
0.564931940470781
40
0.564931940470781
40
0.706164925588477
40
0.706164925588477
40
0.776781418147324
40
0.776781418147324
40
0.847397910706171
40
0.847397910706171
40
1
40
1
40
1
40
1
41
1
10
4.20311772774227
20
-0.275562522742263
30
0
41
1
10
4.63154150702124
20
-0.503414418885995
30
0
41
1
10
5.05658097959895
20
-0.726290605255144
30
0
41
1
10
5.90514644638421
20
-1.15323903694693
30
0
41
1
10
6.32866860394358
20
-1.35730945930501
30
0
41
1
10
6.96735219906864
20
-1.64124391288212
30
0
41
1
10
7.18078455557148
20
-1.73224461094642
30
0
41
1
10
7.60940189073182
20
-1.90578953924501
30
0
41
1
10
7.8241853359811
20
-1.98813434919404
30
0
41
1
10
8.46435531764695
20
-2.21792759266117
30
0
41
1
10
8.88806707788874
20
-2.34922874653589
30
0
41
1
10
9.7349473847392
20
-2.56289075941672
30
0
41
1
10
10.1581172731874
20
-2.64528357961393
30
0
41
1
10
10.7965716068816
20
-2.72870157919928
30
0
41
1
10
11.0100111459593
20
-2.74981759641432
30
0
41
1
10
11.4388471356335
20
-2.77809881811092
30
0
41
1
10
11.6532201343597
20
-2.7851826306424
30
0
41
1
10
12.3271863430543
20
-2.78530412019038
30
0
41
1
10
12.784471726745
20
-2.75252324420455
30
0
41
1
10
13.2418701628552
20
-2.68860801238483
30
0
0
SPLINE
5
CF
100
AcDbEntity
8
1
62
256
6
ByLayer
370
18
48
1
60
0
100
AcDbSpline
70
4
71
3
72
28
73
24
40
0
40
0
40
0
40
0
40
0.137652443978444
40
0.137652443978444
40
0.191549166229795
40
0.191549166229795
40
0.245445888481146
40
0.245445888481146
40
0.353239332983844
40
0.353239332983844
40
0.461032777486542
40
0.461032777486542
40
0.514929499737889
40
0.514929499737889
40
0.568826221989237
40
0.568826221989237
40
0.78441311099462
40
0.78441311099462
40
0.838309833245965
40
0.838309833245965
40
0.89220655549731
40
0.89220655549731
40
1
40
1
40
1
40
1
41
1
10
33.2162868799421
20
1.6015452791442
30
0
41
1
10
33.7565405591644
20
1.36348472225717
30
0
41
1
10
34.2958109380731
20
1.09991887991072
30
0
41
1
10
35.0528371927227
20
0.710555675245303
30
0
41
1
10
35.2671688999158
20
0.59829014221819
30
0
41
1
10
35.6953653626297
20
0.371479809737281
30
0
41
1
10
35.9084244475778
20
0.257345399916716
30
0
41
1
10
36.5455555674772
20
-0.0852233424159294
30
0
41
1
10
36.9677846117708
20
-0.313402879478332
30
0
41
1
10
37.8124333379541
20
-0.75957117279782
30
0
41
1
10
38.234825775578
20
-0.977632600399318
30
0
41
1
10
38.8727495566816
20
-1.28924581857828
30
0
41
1
10
39.0862811078099
20
-1.39052539022907
30
0
41
1
10
39.5150570456169
20
-1.58622136198602
30
0
41
1
10
39.72836132052
20
-1.67978043571355
30
0
41
1
10
40.7911800477618
20
-2.12417581749673
30
0
41
1
10
41.6300925011624
20
-2.40410654920262
30
0
41
1
10
42.6920248370081
20
-2.62769888668976
30
0
41
1
10
42.9051400920156
20
-2.66608839217201
30
0
41
1
10
43.3334559358179
20
-2.72949349079641
30
0
41
1
10
43.5476773930528
20
-2.75436223173344
30
0
41
1
10
44.1884526088879
20
-2.80776114436611
30
0
41
1
10
44.6144905875684
20
-2.81524155882755
30
0
41
1
10
45.0418381995889
20
-2.79416224284597
30
0
0
SPLINE
5
D0
100
AcDbEntity
8
1
62
256
6
ByLayer
370
18
48
1
60
0
100
AcDbSpline
70
4
71
3
72
14
73
10
40
0
40
0
40
0
40
0
40
0.25
40
0.25
40
0.5
40
0.5
40
0.75
40
0.75
40
1
40
1
40
1
40
1
41
1
10
4.25147275287841
20
-2.68044116030279
30
0
41
1
10
4.23031006509825
20
-2.6809471917216
30
0
41
1
10
4.20897540143795
20
-2.68393415107738
30
0
41
1
10
4.16590434747428
20
-2.69579950692454
30
0
41
1
10
4.14422203143846
20
-2.70477508813946
30
0
41
1
10
4.10332879372356
20
-2.7290290225703
30
0
41
1
10
4.08381493719696
20
-2.74457104745591
30
0
41
1
10
4.05028692044107
20
-2.7806513016196
30
0
41
1
10
4.03585026857604
20
-2.80169189507018
30
0
41
1
10
4.02508369066811
20
-2.82382534945882
30
0
0
SPLINE
5
D1
100
AcDbEntity
8
1
62
256
6
ByLayer
370
18
48
1
60
0
100
AcDbSpline
70
4
71
3
72
10
73
6
40
0
40
0
40
0
40
0
40
0.5
40
0.5
40
1
40
1
40
1
40
1
41
1
10
45.1833498296878
20
2.73927100424194
30
0
41
1
10
45.3037171365803
20
2.40837674106899
30
0
41
1
10
45.4288230557933
20
2.07911763396271
30
0
41
1
10
45.6863708712802
20
1.42321313060131
30
0
41
1
10
45.8189863458751
20
1.09628241370268
30
0
41
1
10
45.9541033232852
20
0.771611636837832
30
0
0
SPLINE
5
D2
100
AcDbEntity
8
1
62
256
6
ByLayer
370
18
48
1
60
0
100
AcDbSpline
70
4
71
3
72
24
73
20
40
0
40
0
40
0
40
0
40
0.0155664204049614
40
0.0155664204049614
40
0.156451398371953
40
0.156451398371953
40
0.297336376338944
40
0.297336376338944
40
0.367778865322439
40
0.367778865322439
40
0.438221354305935
40
0.438221354305935
40
0.719991310239923
40
0.719991310239923
40
0.790433799223419
40
0.790433799223419
40
0.860876288206915
40
0.860876288206915
40
1
40
1
40
1
40
1
41
1
10
15.5533205543526
20
2.11517678345879
30
0
41
1
10
15.6004729375162
20
2.09875475519485
30
0
41
1
10
15.6475868588411
20
2.08208748449673
30
0
41
1
10
16.1207216636786
20
1.91218098592222
30
0
41
1
10
16.5438889350515
20
1.73916063755018
30
0
41
1
10
17.3905330662778
20
1.36268287161914
30
0
41
1
10
17.8137565545316
20
1.15873466654543
30
0
41
1
10
18.4529497654442
20
0.836626116565697
30
0
41
1
10
18.6669885120396
20
0.726314599121451
30
0
41
1
10
19.095982807522
20
0.502138454506081
30
0
41
1
10
19.3094334981134
20
0.388927606322056
30
0
41
1
10
20.3734226735681
20
-0.179031973582965
30
0
41
1
10
21.2145570167191
20
-0.638642029428837
30
0
41
1
10
22.2808872897214
20
-1.16779049645439
30
0
41
1
10
22.4953984259138
20
-1.2715810413801
30
0
41
1
10
22.9240884006495
20
-1.47204635422119
30
0
41
1
10
23.1379473018455
20
-1.56856335265778
30
0
41
1
10
23.7737230829683
20
-1.84309609323947
30
0
41
1
10
24.195457509929
20
-2.00881916349084
30
0
41
1
10
24.6191216378874
20
-2.15382484597413
30
0
0
SPLINE
5
D3
100
AcDbEntity
8
1
62
256
6
ByLayer
370
13
48
1
60
0
100
AcDbSpline
70
4
71
3
72
16
73
12
40
0
40
0
40
0
40
0
40
0.0032338768052954
40
0.0032338768052954
40
0.520563829856186
40
0.520563829856186
40
0.649896318118907
40
0.649896318118907
40
0.779228806381627
40
0.779228806381627
40
1
40
1
40
1
40
1
41
1
10
24.6191206917383
20
-2.15382452213976
30
0
41
1
10
24.6244844730826
20
-2.15566036070601
30
0
41
1
10
24.629848563733
20
-2.15749287854138
30
0
41
1
10
25.4933678462251
20
-2.45194114722165
30
0
41
1
10
26.3372266924202
20
-2.65142173928072
30
0
41
1
10
27.4024321559578
20
-2.763726192164
30
0
41
1
10
27.6160278551548
20
-2.77935494787707
30
0
41
1
10
28.0449479586901
20
-2.79648810332202
30
0
41
1
10
28.2587104999322
20
-2.79792929087503
30
0
41
1
10
28.8349801727591
20
-2.78287054084899
30
0
41
1
10
29.1964018347181
20
-2.75296096961145
30
0
41
1
10
29.5574794384619
20
-2.70356610770722
30
0
0
SPLINE
5
D4
100
AcDbEntity
8
1
62
256
6
ByLayer
370
18
48
1
60
0
100
AcDbSpline
70
4
71
3
72
8
73
4
40
0
40
0
40
0
40
0
40
1
40
1
40
1
40
1
41
1
10
45.9901183686069
20
-0.0953531434621198
30
0
41
1
10
45.9906771051759
20
-0.0777016447711389
30
0
41
1
10
45.9944802082806
20
-0.0554224684341591
30
0
41
1
10
45.9999658747553
20
-0.0321370778306118
30
0
0
SPLINE
5
D5
100
AcDbEntity
8
1
62
256
6
ByLayer
370
18
48
1
60
0
100
AcDbSpline
70
4
71
3
72
8
73
4
40
0
40
0
40
0
40
0
40
1
40
1
40
1
40
1
41
1
10
45.9541033232841
20
-0.771611636840419
30
0
41
1
10
45.9709822260272
20
-0.545952333324578
30
0
41
1
10
45.9829905864968
20
-0.320532670932863
30
0
41
1
10
45.9901183686068
20
-0.0953531434622334
30
0
0
SPLINE
5
D6
100
AcDbEntity
8
1
62
256
6
ByLayer
370
18
48
1
60
0
100
AcDbSpline
70
4
71
3
72
8
73
4
40
0
40
0
40
0
40
0
40
1
40
1
40
1
40
1
41
1
10
4.07294615390069
20
-0.197689259653657
30
0
41
1
10
4.04382565466619
20
-0.168543570604584
30
0
41
1
10
4.02449399903279
20
-0.129727247879288
30
0
41
1
10
4.02450372098923
20
-0.0883511291240211
30
0
0
SPLINE
5
D7
100
AcDbEntity
8
1
62
256
6
ByLayer
370
18
48
1
60
0
100
AcDbSpline
70
4
71
3
72
12
73
8
40
0
40
0
40
0
40
0
40
0.249999999999928
40
0.249999999999928
40
0.499999999999856
40
0.499999999999856
40
1
40
1
40
1
40
1
41
1
10
44.8088451947609
20
0.723514480938945
30
0
41
1
10
44.8086847259488
20
0.733465247074719
30
0
41
1
10
44.8112649630466
20
0.743439904511405
30
0
41
1
10
44.8218406243856
20
0.760666460317651
30
0
41
1
10
44.8298184478323
20
0.767882054565007
30
0
41
1
10
44.8565900081057
20
0.783527793422877
30
0
41
1
10
44.8776774866642
20
0.78691798616822
30
0
41
1
10
44.8983064070908
20
0.786496267190074
30
0
0
SPLINE
5
D8
100
AcDbEntity
8
1
62
256
6
ByLayer
370
18
48
1
60
0
100
AcDbSpline
70
4
71
3
72
12
73
8
40
0
40
0
40
0
40
0
40
0.208788631519108
40
0.208788631519108
40
0.44000214965718
40
0.44000214965718
40
1
40
1
40
1
40
1
41
1
10
28.4319212052217
20
-2.69721394130897
30
0
41
1
10
28.239675561053
20
-2.69724987648613
30
0
41
1
10
28.0466912608099
20
-2.69175637112127
30
0
41
1
10
27.6392598432184
20
-2.66843227435186
30
0
41
1
10
27.4259605750154
20
-2.64942199122777
30
0
41
1
10
26.6978431250767
20
-2.5620591753335
30
0
41
1
10
26.1852597811341
20
-2.46184918792747
30
0
41
1
10
25.6707668659169
20
-2.32712997520241
30
0
0
SPLINE
5
D9
100
AcDbEntity
8
1
62
256
6
ByLayer
370
13
48
1
60
0
100
AcDbSpline
70
4
71
3
72
26
73
22
40
0
40
0
40
0
40
0
40
0.115452514720929
40
0.115452514720929
40
0.261779645712397
40
0.261779645712397
40
0.334943211208131
40
0.334943211208131
40
0.408106776703864
40
0.408106776703864
40
0.55443390769533
40
0.55443390769533
40
0.700761038686796
40
0.700761038686796
40
0.773924604182529
40
0.773924604182529
40
0.847088169678261
40
0.847088169678261
40
0.993415300669727
40
0.993415300669727
40
1
40
1
40
1
40
1
41
1
10
25.6707668657799
20
-2.32712997516657
30
0
41
1
10
25.3355585408563
20
-2.23935616857187
30
0
41
1
10
24.9995396158058
20
-2.1369334285836
30
0
41
1
10
24.2328774587078
20
-1.87390793679006
30
0
41
1
10
23.8064666868309
20
-1.70718483290759
30
0
41
1
10
23.1661214510303
20
-1.43360096039001
30
0
41
1
10
22.9525125803287
20
-1.33852916841295
30
0
41
1
10
22.524342205759
20
-1.14169796504967
30
0
41
1
10
22.3102125578749
20
-1.0401117053305
30
0
41
1
10
21.6712574972337
20
-0.729959515720282
30
0
41
1
10
21.2480671485252
20
-0.515261171731254
30
0
41
1
10
20.4021210846693
20
-0.0800509564539595
30
0
41
1
10
19.9791278213103
20
0.14000296297894
30
0
41
1
10
19.3412905029643
20
0.467197458555518
30
0
41
1
10
19.1280348400358
20
0.575611928197191
30
0
41
1
10
18.6995364986076
20
0.789760434415854
30
0
41
1
10
18.4858855075722
20
0.894866575244436
30
0
41
1
10
17.8474704211262
20
1.20126046313655
30
0
41
1
10
17.4245168197897
20
1.39429478037997
30
0
41
1
10
16.9824576623006
20
1.57949283560814
30
0
41
1
10
16.9634218349317
20
1.58743658001239
30
0
41
1
10
16.9443859066964
20
1.59534864832844
30
0
0
SPLINE
5
DA
100
AcDbEntity
8
1
62
256
6
ByLayer
370
18
48
1
60
0
100
AcDbSpline
70
4
71
3
72
16
73
12
40
0
40
0
40
0
40
0
40
0.0344980998171781
40
0.0344980998171781
40
0.195415083180984
40
0.195415083180984
40
0.356332066544789
40
0.356332066544789
40
0.678166033272395
40
0.678166033272395
40
1
40
1
40
1
40
1
41
1
10
7.10000772092513
20
-2.13635939745882
30
0
41
1
10
7.06649876494015
20
-2.14706133406227
30
0
41
1
10
7.03300953612259
20
-2.15765282722563
30
0
41
1
10
6.84340598975007
20
-2.21699067128029
30
0
41
1
10
6.68739362836607
20
-2.26311354486478
30
0
41
1
10
6.37711133103548
20
-2.34880139186862
30
0
41
1
10
6.22278343786826
20
-2.38880747448863
30
0
41
1
10
5.76177212779004
20
-2.49896624608985
30
0
41
1
10
5.45704065110527
20
-2.5588348184416
30
0
41
1
10
4.85126462178215
20
-2.64603309934569
30
0
41
1
10
4.5501865124362
20
-2.67329846888208
30
0
41
1
10
4.25147275380255
20
-2.68044116028068
30
0
0
SPLINE
5
DB
100
AcDbEntity
8
1
62
256
6
ByLayer
370
18
48
1
60
0
100
AcDbSpline
70
4
71
3
72
10
73
6
40
0
40
0
40
0
40
0
40
0.5
40
0.5
40
1
40
1
40
1
40
1
41
1
10
44.8983064070908
20
0.786496267190074
30
0
41
1
10
45.0744169818749
20
0.782896021995214
30
0
41
1
10
45.2504694830727
20
0.779836188718207
30
0
41
1
10
45.6025017286289
20
0.774393571151876
30
0
41
1
10
45.7784939528493
20
0.772156269641329
30
0
41
1
10
45.9541033232913
20
0.77161163684022
30
0
0
SPLINE
5
DC
100
AcDbEntity
8
1
62
256
6
ByLayer
370
18
48
1
60
0
100
AcDbSpline
70
4
71
3
72
38
73
34
40
0
40
0
40
0
40
0
40
0.0290830550661022
40
0.0290830550661022
40
0.10173519473556
40
0.10173519473556
40
0.174387334405018
40
0.174387334405018
40
0.319691613743933
40
0.319691613743933
40
0.464995893082848
40
0.464995893082848
40
0.537648032752306
40
0.537648032752306
40
0.573974102587035
40
0.573974102587035
40
0.578514861316376
40
0.578514861316376
40
0.583055620045717
40
0.583055620045717
40
0.592137137504399
40
0.592137137504399
40
0.610300172421763
40
0.610300172421763
40
0.682952312091221
40
0.682952312091221
40
0.755604451760679
40
0.755604451760679
40
0.900908731099594
40
0.900908731099594
40
0.973560870769052
40
0.973560870769052
40
1
40
1
40
1
40
1
41
1
10
7.94293262395144
20
2.34384854691544
30
0
41
1
10
7.94293262395144
20
2.30774972204637
30
0
41
1
10
7.94293262395144
20
2.27210894883086
30
0
41
1
10
7.94293262395144
20
2.14900781351258
30
0
41
1
10
7.94293262395144
20
2.06389650831687
30
0
41
1
10
7.94293262395144
20
1.89915915280301
30
0
41
1
10
7.94293262395144
20
1.81918748896015
30
0
41
1
10
7.94293262395144
20
1.59127765357215
30
0
41
1
10
7.94293262395144
20
1.45445367433228
30
0
41
1
10
7.94293262395144
20
1.20829893251857
30
0
41
1
10
7.94293262395144
20
1.09880616622621
30
0
41
1
10
7.94293262395144
20
0.955707465634532
30
0
41
1
10
7.94293262395144
20
0.911843188881193
30
0
41
1
10
7.94293262395144
20
0.851680723972862
30
0
41
1
10
7.94293262395141
20
0.832564298356431
30
0
41
1
10
7.94293262395141
20
0.812144183000242
30
0
41
1
10
7.94293262395144
20
0.809711650348845
30
0
41
1
10
7.94293262395144
20
0.807173574099693
30
0
41
1
10
7.94293262395144
20
0.80678435315545
30
0
41
1
10
7.94293262395144
20
0.80834017714173
30
0
41
1
10
7.94293262395144
20
0.813868760509962
30
0
41
1
10
7.94293262395144
20
0.828345965246797
30
0
41
1
10
7.94293262395144
20
0.838249341792334
30
0
41
1
10
7.94293262395144
20
0.889035988611283
30
0
41
1
10
7.94293262395146
20
0.933699830226914
30
0
41
1
10
7.94293262395146
20
1.03093733033742
30
0
41
1
10
7.94293262395144
20
1.08373328171729
30
0
41
1
10
7.94293262395144
20
1.25291627166305
30
0
41
1
10
7.94293262395144
20
1.38012305492347
30
0
41
1
10
7.94293262395144
20
1.59402614791512
30
0
41
1
10
7.94293262395144
20
1.66948634819164
30
0
41
1
10
7.94293262395144
20
1.77720993839046
30
0
41
1
10
7.94293262395149
20
1.80633167075226
30
0
41
1
10
7.94293262395152
20
1.83583366970439
30
0
0
SPLINE
5
DD
100
AcDbEntity
8
1
62
256
6
ByLayer
370
18
48
1
60
0
100
AcDbSpline
70
4
71
3
72
8
73
4
40
0
40
0
40
0
40
0
40
1
40
1
40
1
40
1
41
1
10
45.1833498296896
20
-2.73927100423498
30
0
41
1
10
45.1246079932303
20
-2.78885575934081
30
0
41
1
10
45.0715911456535
20
-2.82239816695548
30
0
41
1
10
45.0240242826725
20
-2.83868271534271
30
0
0
SPLINE
5
DE
100
AcDbEntity
8
1
62
256
6
ByLayer
370
18
48
1
60
0
100
AcDbSpline
70
4
71
3
72
8
73
4
40
0
40
0
40
0
40
0
40
1
40
1
40
1
40
1
41
1
10
45.9790534732988
20
-0.0172553892845997
30
0
41
1
10
45.5639785996224
20
-0.69663630641648
30
0
41
1
10
45.1752172810503
20
-1.3999884220942
30
0
41
1
10
44.8137102739044
20
-2.12816874923342
30
0
0
SPLINE
5
DF
100
AcDbEntity
8
1
62
256
6
ByLayer
370
18
48
1
60
0
100
AcDbSpline
70
4
71
3
72
78
73
74
40
0
40
0
40
0
40
0
40
0.0395229430948064
40
0.0395229430948064
40
0.0665931343340933
40
0.0665931343340933
40
0.0936633255733803
40
0.0936633255733803
40
0.120733516812667
40
0.120733516812667
40
0.147803708051954
40
0.147803708051954
40
0.174873899291241
40
0.174873899291241
40
0.201944090530528
40
0.201944090530528
40
0.229014281769815
40
0.229014281769815
40
0.256084473009102
40
0.256084473009102
40
0.283154664248389
40
0.283154664248389
40
0.310224855487676
40
0.310224855487676
40
0.337295046726963
40
0.337295046726963
40
0.36436523796625
40
0.36436523796625
40
0.418505620444822
40
0.418505620444822
40
0.445575811684108
40
0.445575811684108
40
0.472646002923394
40
0.472646002923394
40
0.49971619416268
40
0.49971619416268
40
0.526786385401967
40
0.526786385401967
40
0.553856576641253
40
0.553856576641253
40
0.580926767880539
40
0.580926767880539
40
0.607996959119825
40
0.607996959119825
40
0.635067150359111
40
0.635067150359111
40
0.662137341598397
40
0.662137341598397
40
0.689207532837683
40
0.689207532837683
40
0.71627772407697
40
0.71627772407697
40
0.743347915316256
40
0.743347915316256
40
0.770418106555542
40
0.770418106555542
40
0.797488297794828
40
0.797488297794828
40
0.824558489034114
40
0.824558489034114
40
0.8516286802734
40
0.8516286802734
40
0.878698871512686
40
0.878698871512686
40
0.905769062751972
40
0.905769062751972
40
0.932839253991259
40
0.932839253991259
40
0.959909445230545
40
0.959909445230545
40
0.986979636469831
40
0.986979636469831
40
1
40
1
40
1
40
1
41
1
10
39.9266293476077
20
-2.11437886450972
30
0
41
1
10
39.6655953748297
20
-2.19908064965077
30
0
41
1
10
39.4055564633627
20
-2.27573524078227
30
0
41
1
10
38.967179862971
20
-2.38810896539289
30
0
41
1
10
38.7890142471221
20
-2.42933018392927
30
0
41
1
10
38.4329125155643
20
-2.50420653108998
30
0
41
1
10
38.2548658266244
20
-2.53776670399932
30
0
41
1
10
37.8979102049973
20
-2.59596684290787
30
0
41
1
10
37.7190442405062
20
-2.62065115712605
30
0
41
1
10
37.3605976497132
20
-2.66082020023276
30
0
41
1
10
37.1811377002448
20
-2.67638720285021
30
0
41
1
10
36.8204275623897
20
-2.69704911262082
30
0
41
1
10
36.6398464815875
20
-2.70173067668384
30
0
41
1
10
36.2804728514903
20
-2.70139101051871
30
0
41
1
10
36.1013496822467
20
-2.69723815794529
30
0
41
1
10
35.74409569491
20
-2.67978061325718
30
0
41
1
10
35.5657408490659
20
-2.66639771386707
30
0
41
1
10
35.2091215135874
20
-2.62925454553462
30
0
41
1
10
35.0308605797223
20
-2.60602409955754
30
0
41
1
10
34.6747217160902
20
-2.55152525325755
30
0
41
1
10
34.4968000053749
20
-2.51982479082807
30
0
41
1
10
34.1400016034473
20
-2.44679476189776
30
0
41
1
10
33.9610938556139
20
-2.40504662096274
30
0
41
1
10
33.6027321814624
20
-2.31444385147219
30
0
41
1
10
33.4234417062392
20
-2.2652750493412
30
0
41
1
10
33.063370506176
20
-2.15809778630717
30
0
41
1
10
32.882335326725
20
-2.10002740260856
30
0
41
1
10
32.3423438670101
20
-1.91561438903645
30
0
41
1
10
31.9851205888057
20
-1.78010614386946
30
0
41
1
10
31.4498696337383
20
-1.55872175277497
30
0
41
1
10
31.2714977479536
20
-1.48213793213114
30
0
41
1
10
30.9151562338574
20
-1.32441992065654
30
0
41
1
10
30.7372180432446
20
-1.24280006817747
30
0
41
1
10
30.3805240441321
20
-1.07560669720257
30
0
41
1
10
30.2017663347601
20
-0.989902725136972
30
0
41
1
10
29.8435848023329
20
-0.815201279788369
30
0
41
1
10
29.6643722314121
20
-0.72598010963668
30
0
41
1
10
29.3047411823684
20
-0.544245767057106
30
0
41
1
10
29.1236745914595
20
-0.451867812293727
30
0
41
1
10
28.7630846556814
20
-0.267050436472829
30
0
41
1
10
28.5833333627624
20
-0.174404011372417
30
0
41
1
10
28.2250902157064
20
0.0116408629946818
30
0
41
1
10
28.0464798510347
20
0.104726382346143
30
0
41
1
10
27.6893730598422
20
0.289088066864338
30
0
41
1
10
27.5108937167355
20
0.380383480836286
30
0
41
1
10
27.154299795502
20
0.562179205071686
30
0
41
1
10
26.9762897084072
20
0.652760107308154
30
0
41
1
10
26.6196228196773
20
0.830691303211268
30
0
41
1
10
26.4409424150146
20
0.917961768802996
30
0
41
1
10
26.0828602331787
20
1.0893758542945
30
0
41
1
10
25.9036633046542
20
1.17401660141465
30
0
41
1
10
25.5443410504118
20
1.33950494842568
30
0
41
1
10
25.3634901659273
20
1.41995684656996
30
0
41
1
10
25.0022124703397
20
1.57467042024913
30
0
41
1
10
24.8221162653387
20
1.64915488364491
30
0
41
1
10
24.463230150683
20
1.79279649605084
30
0
41
1
10
24.2844110739937
20
1.86160334971322
30
0
41
1
10
23.9269298539855
20
1.99058023283851
30
0
41
1
10
23.7482934291091
20
2.05099178944391
30
0
41
1
10
23.3913545360426
20
2.16597291455557
30
0
41
1
10
23.213206630652
20
2.22036697351572
30
0
41
1
10
22.8564285510962
20
2.31995466522417
30
0
41
1
10
22.6777142946247
20
2.36503450867966
30
0
41
1
10
22.3196205868393
20
2.4476283198963
30
0
41
1
10
22.1403785460732
20
2.48549914905277
30
0
41
1
10
21.7811451572144
20
2.55210347225932
30
0
41
1
10
21.6007240031577
20
2.58041776095342
30
0
41
1
10
21.2387663139097
20
2.6274790114347
30
0
41
1
10
21.0583422669302
20
2.64649254500244
30
0
41
1
10
20.6988169100729
20
2.67579742270269
30
0
41
1
10
20.5197748851826
20
2.68567072779072
30
0
41
1
10
20.2547874571738
20
2.69185935514045
30
0
41
1
10
20.1687581603031
20
2.69279540741476
30
0
41
1
10
20.08276333401
20
2.69271872495383
30
0
0
SPLINE
5
E0
100
AcDbEntity
8
1
62
256
6
ByLayer
370
13
48
1
60
0
100
AcDbSpline
70
4
71
3
72
8
73
4
40
0
40
0
40
0
40
0
40
1
40
1
40
1
40
1
41
1
10
4.07294615390069
20
-0.197689259653686
30
0
41
1
10
4.0899123939752
20
-0.213805518209995
30
0
41
1
10
4.10931280331226
20
-0.227696541634572
30
0
41
1
10
4.13154990460313
20
-0.23901900365081
30
0
0
SPLINE
5
E1
100
AcDbEntity
8
1
62
256
6
ByLayer
370
18
48
1
60
0
100
AcDbSpline
70
4
71
3
72
14
73
10
40
0
40
0
40
0
40
0
40
0.25
40
0.25
40
0.5
40
0.5
40
0.75
40
0.75
40
1
40
1
40
1
40
1
41
1
10
4.02508369066805
20
2.82382534945882
30
0
41
1
10
4.03577598821147
20
2.80184459735628
30
0
41
1
10
4.05015170365709
20
2.78083134628221
30
0
41
1
10
4.08362294596861
20
2.74474345449656
30
0
41
1
10
4.10312646848695
20
2.72917904242934
30
0
41
1
10
4.14394583352478
20
2.70490923193216
30
0
41
1
10
4.16563592921949
20
2.69590116146389
30
0
41
1
10
4.20864058260531
20
2.68399906419506
30
0
41
1
10
4.23033530843085
20
2.6809465881158
30
0
41
1
10
4.25147275287836
20
2.68044116030274
30
0
0
SPLINE
5
E2
100
AcDbEntity
8
1
62
256
6
ByLayer
370
18
48
1
60
0
100
AcDbSpline
70
4
71
3
72
8
73
4
40
0
40
0
40
0
40
0
40
1
40
1
40
1
40
1
41
1
10
4.13069577577809
20
-0.240760905961281
30
0
41
1
10
4.1092722778838
20
-0.229168202927752
30
0
41
1
10
4.09003733234897
20
-0.214795222313626
30
0
41
1
10
4.0729461539006
20
-0.197689259653856
30
0
0
SPLINE
5
E3
100
AcDbEntity
8
1
62
256
6
ByLayer
370
18
48
1
60
0
100
AcDbSpline
70
4
71
3
72
8
73
4
40
0
40
0
40
0
40
0
40
1
40
1
40
1
40
1
41
1
10
45.9901183686068
20
0.0953531434622619
30
0
41
1
10
45.9906771051756
20
0.0777016447785002
30
0
41
1
10
45.9944802082777
20
0.0554224684521216
30
0
41
1
10
45.9999658747484
20
0.0321370778593746
30
0
0
SPLINE
5
E4
100
AcDbEntity
8
1
62
256
6
ByLayer
370
18
48
1
60
0
100
AcDbSpline
70
4
71
3
72
10
73
6
40
0
40
0
40
0
40
0
40
0.5
40
0.5
40
1
40
1
40
1
40
1
41
1
10
45.183349829685
20
-2.7392710042497
30
0
41
1
10
45.3036635379208
20
-2.40852408580378
30
0
41
1
10
45.4287711642896
20
-2.07925043638295
30
0
41
1
10
45.6863995989357
20
-1.42313932028412
30
0
41
1
10
45.8190266995499
20
-1.09618544839759
30
0
41
1
10
45.9541033232841
20
-0.771611636840447
30
0
0
SPLINE
5
E5
100
AcDbEntity
8
1
62
256
6
ByLayer
370
18
48
1
60
0
100
AcDbSpline
70
4
71
3
72
30
73
26
40
0
40
0
40
0
40
0
40
0.0625000000000013
40
0.0625000000000013
40
0.0937500000000021
40
0.0937500000000021
40
0.125000000000003
40
0.125000000000003
40
0.187500000000003
40
0.187500000000003
40
0.250000000000003
40
0.250000000000003
40
0.312500000000003
40
0.312500000000003
40
0.375000000000003
40
0.375000000000003
40
0.500000000000003
40
0.500000000000003
40
0.5625
40
0.5625
40
0.624999999999998
40
0.624999999999998
40
0.749999999999998
40
0.749999999999998
40
1
40
1
40
1
40
1
41
1
10
42.3651422265952
20
1.12588135749411
30
0
41
1
10
42.3523672294347
20
1.04025027352304
30
0
41
1
10
42.3461527714962
20
0.952153266889326
30
0
41
1
10
42.3471495348012
20
0.816129340948265
30
0
41
1
10
42.3492336776822
20
0.769897097511659
30
0
41
1
10
42.3568076900007
20
0.67774935931098
30
0
41
1
10
42.3622773647066
20
0.631757349900312
30
0
41
1
10
42.3834873591936
20
0.494014882785393
30
0
41
1
10
42.4040142835978
20
0.402497287322518
30
0
41
1
10
42.4569381749944
20
0.22003955890753
30
0
41
1
10
42.4894666466551
20
0.129079303134915
30
0
41
1
10
42.5630338533029
20
-0.0464642547448761
30
0
41
1
10
42.6042872748127
20
-0.131876919276323
30
0
41
1
10
42.6945779024489
20
-0.29859406369323
30
0
41
1
10
42.7438100083152
20
-0.38017052970082
30
0
41
1
10
42.9008872664368
20
-0.617448679212941
30
0
41
1
10
43.0157985940963
20
-0.762918616209845
30
0
41
1
10
43.1991466073931
20
-0.967425198558857
30
0
41
1
10
43.2621308368101
20
-1.0332635340047
30
0
41
1
10
43.3914495748975
20
-1.16076088455188
30
0
41
1
10
43.4580117083473
20
-1.22260803053175
30
0
41
1
10
43.6600825244513
20
-1.40048181130265
30
0
41
1
10
43.7981705671065
20
-1.5092457639677
30
0
41
1
10
44.2205548705525
20
-1.81190852026344
30
0
41
1
10
44.5130885878128
20
-1.98287900861337
30
0
41
1
10
44.8137102739044
20
-2.12816874923342
30
0
0
SPLINE
5
E6
100
AcDbEntity
8
1
62
256
6
ByLayer
370
18
48
1
60
0
100
AcDbSpline
70
4
71
1
72
4
73
2
40
0
40
0
40
1
40
1
41
1
10
44.686063008681
20
-2.70719804000638
30
0
41
1
10
44.983997414299
20
-2.70340555835364
30
0
0
SPLINE
5
E7
100
AcDbEntity
8
1
62
256
6
ByLayer
370
18
48
1
60
0
100
AcDbSpline
70
4
71
3
72
25
73
21
40
0
40
0
40
0
40
0
40
0.0910828989840637
40
0.166519820748187
40
0.231723482771305
40
0.28973161966022
40
0.341824542243937
40
0.40916554092452
40
0.499926631855258
40
0.56661361515415
40
0.611807614377694
40
0.649011496440256
40
0.697443449055567
40
0.756883525024571
40
0.794734058646306
40
0.828047234291784
40
0.856816686788523
40
0.890530638013048
40
0.952233917809739
40
1
40
1
40
1
40
1
41
1
10
12.0279016897935
20
-2.68677394751228
30
0
41
1
10
12.2663748013828
20
-2.68530894321884
30
0
41
1
10
12.7044938773108
20
-2.6839749183242
30
0
41
1
10
13.3339146369884
20
-2.68378228594165
30
0
41
1
10
13.8545589277378
20
-2.68890049368156
30
0
41
1
10
14.3220538055677
20
-2.68911249126009
30
0
41
1
10
14.7974655080358
20
-2.68790250903393
30
0
41
1
10
15.36264702545
20
-2.68982623078094
30
0
41
1
10
15.9659318683214
20
-2.68885751227268
30
0
41
1
10
16.5094732264642
20
-2.69131601914796
30
0
41
1
10
16.9099308397872
20
-2.69107861964198
30
0
41
1
10
17.2613907213429
20
-2.69032339075352
30
0
41
1
10
17.6511184580521
20
-2.69126474138952
30
0
41
1
10
18.0425853816098
20
-2.69288582313965
30
0
41
1
10
18.3934333855133
20
-2.69132040933198
30
0
41
1
10
18.6618845354692
20
-2.69129097996486
30
0
41
1
10
18.9191742346069
20
-2.69188275781656
30
0
41
1
10
19.2527227929539
20
-2.6937933349885
30
0
41
1
10
19.6374202492391
20
-2.69220661071884
30
0
41
1
10
19.9314339518432
20
-2.69287425278094
30
0
41
1
10
20.0597195755065
20
-2.6931664478569
30
0
0
SPLINE
5
E8
100
AcDbEntity
8
1
62
256
6
ByLayer
370
18
48
1
60
0
100
AcDbSpline
70
4
71
3
72
22
73
18
40
0
40
0
40
0
40
0
40
0.0999615521366789
40
0.220469788786434
40
0.321068119896168
40
0.396387843122091
40
0.447153589143421
40
0.51040022400217
40
0.575913151923197
40
0.65106732802707
40
0.716330695358322
40
0.770187596497446
40
0.801196237391844
40
0.846063710058804
40
0.910027926852026
40
0.993036069205141
40
1
40
1
40
1
40
1
41
1
10
36.4846433191668
20
2.70175766155367
30
0
41
1
10
36.2644770614249
20
2.70053191987842
30
0
41
1
10
35.7780123575015
20
2.6987932888722
30
0
41
1
10
35.0609098470108
20
2.69532000854741
30
0
41
1
10
34.4061410896314
20
2.70182650411024
30
0
41
1
10
33.9048080718693
20
2.69958382670222
30
0
41
1
10
33.4835168276634
20
2.69986018470431
30
0
41
1
10
33.0841269469457
20
2.70071487591241
30
0
41
1
10
32.6304713083309
20
2.69885190603671
30
0
41
1
10
32.1723329796603
20
2.69936431325115
30
0
41
1
10
31.7401093984705
20
2.6998106538683
30
0
41
1
10
31.4061330997564
20
2.69881730886985
30
0
41
1
10
31.1184056477555
20
2.69846362438173
30
0
41
1
10
30.8076210731599
20
2.69859512665897
30
0
41
1
10
30.3809816178496
20
2.69820628067615
30
0
41
1
10
30.0384755984231
20
2.69760116932486
30
0
41
1
10
29.838292406717
20
2.69748259091793
30
0
41
1
10
29.8227980864913
20
2.6974746825114
30
0
0
SPLINE
5
E9
100
AcDbEntity
8
1
62
256
6
ByLayer
370
18
48
1
60
0
100
AcDbSpline
70
4
71
1
72
4
73
2
40
0
40
0
40
1
40
1
41
1
10
4.28232899490561
20
-2.67716787315186
30
0
41
1
10
4.32998103841337
20
-2.67818979219754
30
0
0
SPLINE
5
EA
100
AcDbEntity
8
1
62
256
6
ByLayer
370
18
48
1
60
0
100
AcDbSpline
70
4
71
3
72
22
73
18
40
0
40
0
40
0
40
0
40
0.064716004594528
40
0.141342665967936
40
0.181711192549647
40
0.220703517120586
40
0.294781166424444
40
0.374181881490908
40
0.431411244075734
40
0.475583363988387
40
0.530475856729121
40
0.610682720767015
40
0.721510704813914
40
0.803740513323536
40
0.867350960638415
40
0.938184451109431
40
1
40
1
40
1
40
1
41
1
10
20.0600155546774
20
2.69322342135234
30
0
41
1
10
19.9176754479487
20
2.69295612325558
30
0
41
1
10
19.6067906256318
20
2.6923166229704
30
0
41
1
10
19.20696527186
20
2.6936380519995
30
0
41
1
10
18.863893275915
20
2.69164671003679
30
0
41
1
10
18.5263786142769
20
2.69103040596946
30
0
41
1
10
18.1029425005676
20
2.69296751278969
30
0
41
1
10
17.6393929581286
20
2.69116373652997
30
0
41
1
10
17.2416340009028
20
2.69035031465222
30
0
41
1
10
16.8977874147846
20
2.69111176417286
30
0
41
1
10
16.503450089584
20
2.69126668502847
30
0
41
1
10
15.9632408224637
20
2.68886960606926
30
0
41
1
10
15.362647060231
20
2.68982451537849
30
0
41
1
10
14.7974655019596
20
2.68790280783736
30
0
41
1
10
14.3220538071838
20
2.68911241116513
30
0
41
1
10
13.8934419530808
20
2.6889181428285
30
0
41
1
10
13.6081382584329
20
2.68643490970479
30
0
41
1
10
13.474048914512
20
2.68553974939067
30
0
0
SPLINE
5
EB
100
AcDbEntity
8
1
62
256
6
ByLayer
370
18
48
1
60
0
100
AcDbSpline
70
4
71
3
72
19
73
15
40
0
40
0
40
0
40
0
40
0.13160933945248
40
0.230120557254896
40
0.295810467778883
40
0.350484408914283
40
0.438543589595033
40
0.523060966993531
40
0.604562236459946
40
0.684499031636147
40
0.737542606105946
40
0.815043156527208
40
0.916765272064645
40
1
40
1
40
1
40
1
41
1
10
28.3810791379119
20
-2.69718099318953
30
0
41
1
10
28.733555019978
20
-2.69747610626666
30
0
41
1
10
29.3498543921478
20
-2.69801235240999
30
0
41
1
10
30.1419296493524
20
-2.69815521346516
30
0
41
1
10
30.7281509878083
20
-2.69901498988722
30
0
41
1
10
31.2860873540599
20
-2.69819745956499
30
0
41
1
10
31.8947976580415
20
-2.70032084589192
30
0
41
1
10
32.5751436652033
20
-2.69836283443132
30
0
41
1
10
33.2338579820892
20
-2.70106831551809
30
0
41
1
10
33.808260097135
20
-2.69906110695433
30
0
41
1
10
34.3719419290283
20
-2.70216263712791
30
0
41
1
10
34.9939191336758
20
-2.69970968483568
30
0
41
1
10
35.696831537525
20
-2.70113916879632
30
0
41
1
10
36.1921250364431
20
-2.70184705560396
30
0
41
1
10
36.4150153118669
20
-2.70234605237309
30
0
0
SPLINE
5
EC
100
AcDbEntity
8
1
62
256
6
ByLayer
370
18
48
1
60
0
100
AcDbSpline
70
4
71
1
72
4
73
2
40
0
40
0
40
1
40
1
41
1
10
4.32944658101229
20
2.67817833052439
30
0
41
1
10
4.25147080018303
20
2.67650610558601
30
0
0
LINE
5
7B
100
AcDbEntity
8
SK1
62
256
6
ByLayer
370
18
48
1
60
0
100
AcDbLine
10
-35.065
20
3
30
0
11
-35.065
21
-3
31
0
39
0
210
0
220
0
230
1
0
LINE
5
7D
100
AcDbEntity
8
SK1
62
256
6
ByLayer
370
18
48
1
60
0
100
AcDbLine
10
0
20
-3
30
0
11
0
21
3
31
0
39
0
210
0
220
0
230
1
0
LINE
5
7E
100
AcDbEntity
8
SK1
62
256
6
ByLayer
370
18
48
1
60
0
100
AcDbLine
10
-36
20
2.065
30
0
11
-36
21
-2.065
31
0
39
0
210
0
220
0
230
1
0
LINE
5
7F
100
AcDbEntity
8
1
62
256
6
ByLayer
370
18
48
1
60
0
100
AcDbLine
10
1.5
20
2.822698
30
0
11
1.5
21
-2.822698
31
0
39
0
210
0
220
0
230
1
0
LINE
5
80
100
AcDbEntity
8
1
62
256
6
ByLayer
370
13
48
1
60
0
100
AcDbLine
10
44.898306
20
0.786496
30
0
11
45.990118
21
0.095353
31
0
39
0
210
0
220
0
230
1
0
LINE
5
81
100
AcDbEntity
8
1
62
256
6
ByLayer
370
13
48
1
60
0
100
AcDbLine
10
4.251469
20
-2.676612
30
0
11
4.251473
21
-2.680441
31
0
39
0
210
0
220
0
230
1
0
LINE
5
82
100
AcDbEntity
8
1
62
256
6
ByLayer
370
18
48
1
60
0
100
AcDbLine
10
0
20
-3
30
0
11
0
21
3
31
0
39
0
210
0
220
0
230
1
0
LINE
5
83
100
AcDbEntity
8
1
62
256
6
ByLayer
370
13
48
1
60
0
100
AcDbLine
10
44.808845
20
0.723514
30
0
11
45.979053
21
-0.017255
31
0
39
0
210
0
220
0
230
1
0
LINE
5
84
100
AcDbEntity
8
80
62
256
6
ByLayer
370
18
48
1
60
0
100
AcDbLine
10
0
20
0
30
0
11
-5
21
0
31
0
39
0
210
0
220
0
230
1
0
LINE
5
85
100
AcDbEntity
8
4
62
256
6
ByLayer
370
18
48
0.05
60
0
100
AcDbLine
10
46
20
0
30
0
11
0
21
0
31
0
39
0
210
0
220
0
230
1
0
LINE
5
87
100
AcDbEntity
8
SK4
62
256
6
ByLayer
370
18
48
0.05
60
0
100
AcDbLine
10
51
20
0
30
0
11
-41
21
0
31
0
39
0
210
0
220
0
230
1
0
LINE
5
89
100
AcDbEntity
8
1
62
256
6
ByLayer
370
18
48
1
60
0
100
AcDbLine
10
27.378172
20
-2.838872
30
0
11
28.211654
21
-2.839393
31
0
39
0
210
0
220
0
230
1
0
LINE
5
8A
100
AcDbEntity
8
1
62
256
6
ByLayer
370
18
48
1
60
0
100
AcDbLine
10
28.211798
20
2.839393
30
0
11
27.378172
21
2.838872
31
0
39
0
210
0
220
0
230
1
0
LINE
5
8B
100
AcDbEntity
8
SK1
62
256
6
ByLayer
370
18
48
1
60
0
100
AcDbLine
10
-35.065
20
-3
30
0
11
0
21
-3
31
0
39
0
210
0
220
0
230
1
0
LINE
5
8C
100
AcDbEntity
8
SK1
62
256
6
ByLayer
370
18
48
1
60
0
100
AcDbLine
10
0
20
3
30
0
11
-35.065
21
3
31
0
39
0
210
0
220
0
230
1
0
LINE
5
8D
100
AcDbEntity
8
SK1
62
256
6
ByLayer
370
18
48
1
60
0
100
AcDbLine
10
-36
20
-2.065
30
0
11
-35.065
21
-3
31
0
39
0
210
0
220
0
230
1
0
LINE
5
8E
100
AcDbEntity
8
SK1
62
256
6
ByLayer
370
18
48
1
60
0
100
AcDbLine
10
-35.065
20
3
30
0
11
-36
21
2.065
31
0
39
0
210
0
220
0
230
1
0
LINE
5
8F
100
AcDbEntity
8
1
62
256
6
ByLayer
370
18
48
1
60
0
100
AcDbLine
10
1.5
20
2.822698
30
0
11
0
21
3
31
0
39
0
210
0
220
0
230
1
0
LINE
5
90
100
AcDbEntity
8
1
62
256
6
ByLayer
370
18
48
1
60
0
100
AcDbLine
10
0
20
-3
30
0
11
1.5
21
-2.822698
31
0
39
0
210
0
220
0
230
1
0
LINE
5
91
100
AcDbEntity
8
1
62
256
6
ByLayer
370
18
48
1
60
0
100
AcDbLine
10
1.5
20
-2.822698
30
0
11
3.948354
21
-2.824228
31
0
39
0
210
0
220
0
230
1
0
LINE
5
92
100
AcDbEntity
8
1
62
256
6
ByLayer
370
18
48
1
60
0
100
AcDbLine
10
11.029124
20
-2.828654
30
0
11
11.861944
21
-2.829174
31
0
39
0
210
0
220
0
230
1
0
LINE
5
93
100
AcDbEntity
8
1
62
256
6
ByLayer
370
18
48
1
60
0
100
AcDbLine
10
43.72854
20
-2.849091
30
0
11
44.563102
21
-2.849613
31
0
39
0
210
0
220
0
230
1
0
LINE
5
94
100
AcDbEntity
8
1
62
256
6
ByLayer
370
18
48
1
60
0
100
AcDbLine
10
44.562698
20
2.849612
30
0
11
43.72854
21
2.849091
31
0
39
0
210
0
220
0
230
1
0
LINE
5
95
100
AcDbEntity
8
1
62
256
6
ByLayer
370
18
48
1
60
0
100
AcDbLine
10
11.861898
20
2.829174
30
0
11
11.029124
21
2.828654
31
0
39
0
210
0
220
0
230
1
0
LINE
5
96
100
AcDbEntity
8
1
62
256
6
ByLayer
370
18
48
1
60
0
100
AcDbLine
10
3.948354
20
2.824228
30
0
11
1.5
21
2.822698
31
0
39
0
210
0
220
0
230
1
0
LINE
5
97
100
AcDbEntity
8
81
62
256
6
ByLayer
370
18
48
1
60
0
100
AcDbLine
10
46
20
0
30
0
11
51
21
0
31
0
39
0
210
0
220
0
230
1
0
LINE
5
98
100
AcDbEntity
8
SK2
62
256
6
ByLayer
370
13
48
1
60
0
100
AcDbLine
10
-44.625163
20
32.117107
30
0
11
-44.625163
21
-11.75
31
0
39
0
210
0
220
0
230
1
0
LINE
5
9A
100
AcDbEntity
8
SK2
62
256
6
ByLayer
370
13
48
1
60
0
100
AcDbLine
10
-37.5875
20
3
30
0
11
-46.625163
21
3
31
0
39
0
210
0
220
0
230
1
0
LINE
5
9B
100
AcDbEntity
8
SK2
62
256
6
ByLayer
370
13
48
1
60
0
100
AcDbLine
10
-37.5875
20
-3
30
0
11
-46.625163
21
-3
31
0
39
0
210
0
220
0
230
1
0
LINE
5
9C
100
AcDbEntity
8
1
62
256
6
ByLayer
370
18
48
1
60
1
100
AcDbLine
10
-44.625163
20
3
30
0
11
-45.085946
21
6.499998
31
0
39
0
210
0
220
0
230
1
0
LINE
5
9D
100
AcDbEntity
8
1
62
256
6
ByLayer
370
18
48
1
60
1
100
AcDbLine
10
-45.085946
20
6.499998
30
0
11
-44.164379
21
6.500002
31
0
39
0
210
0
220
0
230
1
0
LINE
5
9E
100
AcDbEntity
8
1
62
256
6
ByLayer
370
18
48
1
60
1
100
AcDbLine
10
-44.164379
20
6.500002
30
0
11
-44.625163
21
3
31
0
39
0
210
0
220
0
230
1
0
LINE
5
9F
100
AcDbEntity
8
1
62
256
6
ByLayer
370
18
48
1
60
1
100
AcDbLine
10
-44.625163
20
-3
30
0
11
-44.164379
21
-6.499998
31
0
39
0
210
0
220
0
230
1
0
LINE
5
A0
100
AcDbEntity
8
1
62
256
6
ByLayer
370
18
48
1
60
1
100
AcDbLine
10
-44.164379
20
-6.499998
30
0
11
-45.085946
21
-6.500002
31
0
39
0
210
0
220
0
230
1
0
LINE
5
A1
100
AcDbEntity
8
1
62
256
6
ByLayer
370
18
48
1
60
1
100
AcDbLine
10
-45.085946
20
-6.500002
30
0
11
-44.625163
21
-3
31
0
39
0
210
0
220
0
230
1
0
LINE
5
A2
100
AcDbEntity
8
2
62
256
6
ByLayer
370
13
48
1
60
0
100
AcDbLine
10
58.083343
20
30.560193
30
0
11
58.083343
21
-11.6
31
0
39
0
210
0
220
0
230
1
0
LINE
5
A4
100
AcDbEntity
8
2
62
256
6
ByLayer
370
13
48
1
60
0
100
AcDbLine
10
46.7515
20
2.85
30
0
11
60.083343
21
2.85
31
0
39
0
210
0
220
0
230
1
0
LINE
5
A5
100
AcDbEntity
8
2
62
256
6
ByLayer
370
13
48
1
60
0
100
AcDbLine
10
46.7515
20
-2.85
30
0
11
60.083343
21
-2.85
31
0
39
0
210
0
220
0
230
1
0
LINE
5
A6
100
AcDbEntity
8
1
62
256
6
ByLayer
370
18
48
1
60
1
100
AcDbLine
10
58.083343
20
2.85
30
0
11
57.622559
21
6.349998
31
0
39
0
210
0
220
0
230
1
0
LINE
5
A7
100
AcDbEntity
8
1
62
256
6
ByLayer
370
18
48
1
60
1
100
AcDbLine
10
57.622559
20
6.349998
30
0
11
58.544126
21
6.350002
31
0
39
0
210
0
220
0
230
1
0
LINE
5
A8
100
AcDbEntity
8
1
62
256
6
ByLayer
370
18
48
1
60
1
100
AcDbLine
10
58.544126
20
6.350002
30
0
11
58.083343
21
2.85
31
0
39
0
210
0
220
0
230
1
0
LINE
5
A9
100
AcDbEntity
8
1
62
256
6
ByLayer
370
18
48
1
60
1
100
AcDbLine
10
58.083343
20
-2.85
30
0
11
58.544126
21
-6.349998
31
0
39
0
210
0
220
0
230
1
0
LINE
5
AA
100
AcDbEntity
8
1
62
256
6
ByLayer
370
18
48
1
60
1
100
AcDbLine
10
58.544126
20
-6.349998
30
0
11
57.622559
21
-6.350002
31
0
39
0
210
0
220
0
230
1
0
LINE
5
AB
100
AcDbEntity
8
1
62
256
6
ByLayer
370
18
48
1
60
1
100
AcDbLine
10
57.622559
20
-6.350002
30
0
11
58.083343
21
-2.85
31
0
39
0
210
0
220
0
230
1
0
LINE
5
F3
100
AcDbEntity
8
1
62
256
6
ByLayer
370
18
48
1
60
1
100
AcDbLine
10
-44.625163
20
3
30
0
11
-45.085946
21
6.499998
31
0
39
0
210
0
220
0
230
1
0
LINE
5
F4
100
AcDbEntity
8
1
62
256
6
ByLayer
370
18
48
1
60
1
100
AcDbLine
10
-45.085946
20
6.499998
30
0
11
-44.164379
21
6.500002
31
0
39
0
210
0
220
0
230
1
0
LINE
5
F5
100
AcDbEntity
8
1
62
256
6
ByLayer
370
18
48
1
60
1
100
AcDbLine
10
-44.164379
20
6.500002
30
0
11
-44.625163
21
3
31
0
39
0
210
0
220
0
230
1
0
LINE
5
F7
100
AcDbEntity
8
1
62
256
6
ByLayer
370
18
48
1
60
1
100
AcDbLine
10
-44.625163
20
-3
30
0
11
-44.164379
21
-6.499998
31
0
39
0
210
0
220
0
230
1
0
LINE
5
F8
100
AcDbEntity
8
1
62
256
6
ByLayer
370
18
48
1
60
1
100
AcDbLine
10
-44.164379
20
-6.499998
30
0
11
-45.085946
21
-6.500002
31
0
39
0
210
0
220
0
230
1
0
LINE
5
F9
100
AcDbEntity
8
1
62
256
6
ByLayer
370
18
48
1
60
1
100
AcDbLine
10
-45.085946
20
-6.500002
30
0
11
-44.625163
21
-3
31
0
39
0
210
0
220
0
230
1
0
LINE
5
FD
100
AcDbEntity
8
1
62
256
6
ByLayer
370
18
48
1
60
1
100
AcDbLine
10
58.083343
20
2.85
30
0
11
57.622559
21
6.349998
31
0
39
0
210
0
220
0
230
1
0
LINE
5
FE
100
AcDbEntity
8
1
62
256
6
ByLayer
370
18
48
1
60
1
100
AcDbLine
10
57.622559
20
6.349998
30
0
11
58.544126
21
6.350002
31
0
39
0
210
0
220
0
230
1
0
LINE
5
FF
100
AcDbEntity
8
1
62
256
6
ByLayer
370
18
48
1
60
1
100
AcDbLine
10
58.544126
20
6.350002
30
0
11
58.083343
21
2.85
31
0
39
0
210
0
220
0
230
1
0
LINE
5
101
100
AcDbEntity
8
1
62
256
6
ByLayer
370
18
48
1
60
1
100
AcDbLine
10
58.083343
20
-2.85
30
0
11
58.544126
21
-6.349998
31
0
39
0
210
0
220
0
230
1
0
LINE
5
102
100
AcDbEntity
8
1
62
256
6
ByLayer
370
18
48
1
60
1
100
AcDbLine
10
58.544126
20
-6.349998
30
0
11
57.622559
21
-6.350002
31
0
39
0
210
0
220
0
230
1
0
LINE
5
103
100
AcDbEntity
8
1
62
256
6
ByLayer
370
18
48
1
60
1
100
AcDbLine
10
57.622559
20
-6.350002
30
0
11
58.083343
21
-2.85
31
0
39
0
210
0
220
0
230
1
0
MTEXT
5
ED
100
AcDbEntity
8
SK6
62
256
6
ByLayer
370
13
48
1
60
0
100
AcDbMText
10
-24.582626
20
35.390328
30
0
210
0
220
0
230
1
1
\W0.7776;462.1-0570-029A0-XM X2BM
40
3.5
41
0
44
1.084337
50
0
71
7
72
5
7
iso_b_vert
0
MTEXT
5
F1
100
AcDbEntity
8
SK2
62
256
6
ByLayer
370
18
48
1
60
0
100
AcDbMText
10
-46.189796
20
16.409024
30
0
210
0
220
0
230
1
1
%%c
40
3.5
41
0
44
1.084337
50
90
71
7
72
5
7
iso_b_vert
0
MTEXT
5
F2
100
AcDbEntity
8
SK2
62
256
6
ByLayer
370
18
48
1
60
0
100
AcDbMText
10
-46.189796
20
21.63168
30
0
210
0
220
0
230
1
1
\W0.7317;6,000
40
3.5
41
0
44
1.084337
50
90
71
7
72
5
7
iso_b_vert
0
MTEXT
5
FB
100
AcDbEntity
8
2
62
256
6
ByLayer
370
18
48
1
60
0
100
AcDbMText
10
56.518709
20
14.85211
30
0
210
0
220
0
230
1
1
%%c
40
3.5
41
0
44
1.084337
50
90
71
7
72
5
7
iso_b_vert
0
MTEXT
5
FC
100
AcDbEntity
8
2
62
256
6
ByLayer
370
18
48
1
60
0
100
AcDbMText
10
56.518709
20
20.074766
30
0
210
0
220
0
230
1
1
\W0.7317;5,700
40
3.5
41
0
44
1.084337
50
90
71
7
72
5
7
iso_b_vert
0
HATCH
5
F6
100
AcDbEntity
8
SK2
62
256
6
ByLayer
370
13
48
1
60
0
100
AcDbHatch
10
0
20
0
30
0
210
0
220
0
230
1
2
ANSI31
70
0
71
0
91
1
92
5
93
3
72
1
10
-44.6251625675374
20
3
11
-45.0859463090902
21
6.49999830744682
72
1
10
-45.0859463090902
20
6.49999830744682
11
-44.1643788259847
21
6.50000169255318
72
1
10
-44.1643788259847
20
6.50000169255318
11
-44.6251625675374
21
3
97
0
75
0
76
1
52
0
41
0.0062
77
0
78
1
53
45
43
0
44
0
45
-0.0139193969876572
46
0.0139193969876572
79
0
47
0
98
1
10
0
20
0
0
HATCH
5
FA
100
AcDbEntity
8
SK2
62
256
6
ByLayer
370
13
48
1
60
0
100
AcDbHatch
10
0
20
0
30
0
210
0
220
0
230
1
2
ANSI31
70
0
71
0
91
1
92
5
93
3
72
1
10
-44.6251625675374
20
-3
11
-44.1643788259847
21
-6.49999830744682
72
1
10
-44.1643788259847
20
-6.49999830744682
11
-45.0859463090902
21
-6.50000169255318
72
1
10
-45.0859463090902
20
-6.50000169255318
11
-44.6251625675374
21
-3
97
0
75
0
76
1
52
0
41
0.0062
77
0
78
1
53
45
43
0
44
0
45
-0.0139193969876572
46
0.0139193969876572
79
0
47
0
98
1
10
0
20
0
0
HATCH
5
100
100
AcDbEntity
8
2
62
256
6
ByLayer
370
13
48
1
60
0
100
AcDbHatch
10
0
20
0
30
0
210
0
220
0
230
1
2
ANSI31
70
0
71
0
91
1
92
5
93
3
72
1
10
58.083342615295
20
2.85000000000002
11
57.6225588737423
21
6.34999830744684
72
1
10
57.6225588737423
20
6.34999830744684
11
58.5441263568478
21
6.35000169255321
72
1
10
58.5441263568478
20
6.35000169255321
11
58.083342615295
21
2.85000000000002
97
0
75
0
76
1
52
0
41
0.0062
77
0
78
1
53
45
43
0
44
0
45
-0.0139193969876572
46
0.0139193969876572
79
0
47
0
98
1
10
0
20
0
0
HATCH
5
104
100
AcDbEntity
8
2
62
256
6
ByLayer
370
13
48
1
60
0
100
AcDbHatch
10
0
20
0
30
0
210
0
220
0
230
1
2
ANSI31
70
0
71
0
91
1
92
5
93
3
72
1
10
58.083342615295
20
-2.84999999999999
11
58.5441263568478
21
-6.34999830744681
72
1
10
58.5441263568478
20
-6.34999830744681
11
57.6225588737423
21
-6.35000169255318
72
1
10
57.6225588737423
20
-6.35000169255318
11
58.083342615295
21
-2.84999999999999
97
0
75
0
76
1
52
0
41
0.0062
77
0
78
1
53
45
43
0
44
0
45
-0.0139193969876572
46
0.0139193969876572
79
0
47
0
98
1
10
0
20
0
0
DIMENSION
5
106
100
AcDbEntity
8
SK2
62
256
6
ByLayer
370
13
48
1
60
0
100
AcDbDimension
2
_U0
10
45.164
20
-13.063398
30
0
11
22.582
21
-13.063398
31
0
70
32
71
1
72
1
41
1
210
0
220
0
230
1
3
Standard
100
AcDbAlignedDimension
13
0
23
0
33
0
14
45.164
24
-2.85
34
0
50
0
100
AcDbRotatedDimension
1001
ACAD
1000
DSTYLE
1002
{
1070
   371
1070
    13
1070
   372
1070
    13
1070
   170
1070
     0
1070
   144
1040
1.0
1070
   277
1070
     2
1070
   278
1070
    44
1070
   146
1040
1.0
1070
   345
1005
16
1070
   347
1005
16
1070
   346
1005
16
1070
   344
1005
0
1070
   343
1005
0
1070
   172
1070
     1
1070
    76
1070
     0
1070
    75
1070
     0
1070
   282
1070
     0
1070
   281
1070
     0
1070
    71
1070
     0
1070
    74
1070
     0
1070
   279
1070
     0
1070
   173
1070
     1
1070
   340
1005
EE
1070
   271
1070
     2
1070
   272
1070
     2
1070
    77
1070
     1
1070
    73
1070
     1
1070
   171
1070
     3
1070
   274
1070
     4
1070
   177
1070
    35
1070
   176
1070
    35
1070
   178
1070
    35
1070
    48
1040
-0.1
1070
    41
1040
3.5
1070
   147
1040
1.75
1070
    42
1040
1.5875
1070
    44
1040
2.0
1070
   140
1040
3.5
1002
}
1001
ACAD_DSTYLE_DIM_LINETYPE
1070
   380
1005
16
1001
ACAD_DSTYLE_DIM_EXT1_LINETYPE
1070
   381
1005
16
1001
ACAD_DSTYLE_DIM_EXT2_LINETYPE
1070
   382
1005
16
0
DIMENSION
5
11F
100
AcDbEntity
8
SK2
62
256
6
ByLayer
370
13
48
1
60
0
100
AcDbDimension
2
_U1
10
46
20
-31.692985
30
0
11
5
21
-31.692985
31
0
70
32
71
1
72
1
41
1
210
0
220
0
230
1
3
Standard
100
AcDbAlignedDimension
13
-36
23
-3
33
0
14
46
24
0
34
0
50
0
100
AcDbRotatedDimension
1001
ACAD
1000
DSTYLE
1002
{
1070
   371
1070
    13
1070
   372
1070
    13
1070
   170
1070
     0
1070
   144
1040
1.0
1070
   277
1070
     2
1070
   278
1070
    44
1070
   146
1040
1.0
1070
   345
1005
16
1070
   347
1005
16
1070
   346
1005
16
1070
   344
1005
0
1070
   343
1005
0
1070
   172
1070
     1
1070
    76
1070
     0
1070
    75
1070
     0
1070
   282
1070
     0
1070
   281
1070
     0
1070
    71
1070
     0
1070
    74
1070
     0
1070
   279
1070
     0
1070
   173
1070
     1
1070
   340
1005
EE
1070
   271
1070
     2
1070
   272
1070
     2
1070
    77
1070
     1
1070
    73
1070
     1
1070
   171
1070
     3
1070
   274
1070
     4
1070
   177
1070
    35
1070
   176
1070
    35
1070
   178
1070
    35
1070
    48
1040
-0.1
1070
    41
1040
3.5
1070
   147
1040
1.75
1070
    42
1040
1.5875
1070
    44
1040
2.0
1070
   140
1040
3.5
1002
}
1001
ACAD_DSTYLE_DIM_LINETYPE
1070
   380
1005
16
1001
ACAD_DSTYLE_DIM_EXT1_LINETYPE
1070
   381
1005
16
1001
ACAD_DSTYLE_DIM_EXT2_LINETYPE
1070
   382
1005
16
0
DIMENSION
5
137
100
AcDbEntity
8
SK2
62
256
6
ByLayer
370
13
48
1
60
0
100
AcDbDimension
2
_U2
10
46
20
14.459119
30
0
11
31.33
21
14.459119
31
0
70
32
71
1
72
1
41
1
210
0
220
0
230
1
3
Standard
100
AcDbAlignedDimension
13
16.66
23
2.85
33
0
14
46
24
0
34
0
50
0
100
AcDbRotatedDimension
1001
ACAD
1000
DSTYLE
1002
{
1070
   371
1070
    13
1070
   372
1070
    13
1070
   170
1070
     0
1070
   144
1040
1.0
1070
   277
1070
     2
1070
   278
1070
    44
1070
   146
1040
1.0
1070
   345
1005
16
1070
   347
1005
16
1070
   346
1005
16
1070
   344
1005
0
1070
   343
1005
0
1070
   172
1070
     1
1070
    76
1070
     0
1070
    75
1070
     0
1070
   282
1070
     0
1070
   281
1070
     0
1070
    71
1070
     0
1070
    74
1070
     0
1070
   279
1070
     0
1070
   173
1070
     1
1070
   340
1005
EE
1070
   271
1070
     2
1070
   272
1070
     2
1070
    77
1070
     1
1070
    73
1070
     1
1070
   171
1070
     3
1070
   274
1070
     4
1070
   177
1070
    35
1070
   176
1070
    35
1070
   178
1070
    35
1070
    48
1040
-0.1
1070
    41
1040
3.5
1070
   147
1040
1.75
1070
    42
1040
1.5875
1070
    44
1040
2.0
1070
   140
1040
3.5
1002
}
1001
ACAD_DSTYLE_DIM_LINETYPE
1070
   380
1005
16
1001
ACAD_DSTYLE_DIM_EXT1_LINETYPE
1070
   381
1005
16
1001
ACAD_DSTYLE_DIM_EXT2_LINETYPE
1070
   382
1005
16
0
DIMENSION
5
14F
100
AcDbEntity
8
SK2
62
256
6
ByLayer
370
13
48
1
60
0
100
AcDbDimension
2
_U3
10
45.164
20
-15.652503
30
0
11
63.666667
21
-15.652503
31
0
70
32
71
1
72
1
41
1
210
0
220
0
230
1
3
Standard
100
AcDbAlignedDimension
13
46
23
0
33
0
14
45.164
24
-2.85
34
0
50
0
100
AcDbRotatedDimension
1001
ACAD
1000
DSTYLE
1002
{
1070
   371
1070
    13
1070
   372
1070
    13
1070
   170
1070
     0
1070
   144
1040
1.0
1070
   277
1070
     2
1070
   278
1070
    44
1070
   146
1040
1.0
1070
   345
1005
16
1070
   347
1005
16
1070
   346
1005
16
1070
   344
1005
0
1070
   343
1005
0
1070
   172
1070
     1
1070
    76
1070
     0
1070
    75
1070
     0
1070
   282
1070
     0
1070
   281
1070
     0
1070
    71
1070
     0
1070
    74
1070
     0
1070
   279
1070
     0
1070
   173
1070
     1
1070
   340
1005
EE
1070
   271
1070
     2
1070
   272
1070
     2
1070
    77
1070
     1
1070
    73
1070
     1
1070
   171
1070
     3
1070
   274
1070
     4
1070
   177
1070
    35
1070
   176
1070
    35
1070
   178
1070
    35
1070
    48
1040
-0.1
1070
    41
1040
3.5
1070
   147
1040
1.75
1070
    42
1040
1.5875
1070
    44
1040
2.0
1070
   140
1040
3.5
1002
}
1001
ACAD_DSTYLE_DIM_LINETYPE
1070
   380
1005
16
1001
ACAD_DSTYLE_DIM_EXT1_LINETYPE
1070
   381
1005
16
1001
ACAD_DSTYLE_DIM_EXT2_LINETYPE
1070
   382
1005
16
0
DIMENSION
5
169
100
AcDbEntity
8
SK2
62
256
6
ByLayer
370
13
48
1
60
0
100
AcDbDimension
2
_U4
10
45.164
20
-21.343428
30
0
11
4.582
21
-21.343428
31
0
70
32
71
1
72
1
41
1
210
0
220
0
230
1
3
Standard
100
AcDbAlignedDimension
13
-36
23
-3
33
0
14
45.164
24
-2.85
34
0
50
0
100
AcDbRotatedDimension
1001
ACAD
1000
DSTYLE
1002
{
1070
   371
1070
    13
1070
   372
1070
    13
1070
   170
1070
     0
1070
   144
1040
1.0
1070
   277
1070
     2
1070
   278
1070
    44
1070
   146
1040
1.0
1070
   345
1005
16
1070
   347
1005
16
1070
   346
1005
16
1070
   344
1005
0
1070
   343
1005
0
1070
   172
1070
     1
1070
    76
1070
     0
1070
    75
1070
     0
1070
   282
1070
     0
1070
   281
1070
     0
1070
    71
1070
     0
1070
    74
1070
     0
1070
   279
1070
     0
1070
   173
1070
     1
1070
   340
1005
EE
1070
   271
1070
     2
1070
   272
1070
     2
1070
    77
1070
     1
1070
    73
1070
     1
1070
   171
1070
     3
1070
   274
1070
     4
1070
   177
1070
    35
1070
   176
1070
    35
1070
   178
1070
    35
1070
    48
1040
-0.1
1070
    41
1040
3.5
1070
   147
1040
1.75
1070
    42
1040
1.5875
1070
    44
1040
2.0
1070
   140
1040
3.5
1002
}
1001
ACAD_DSTYLE_DIM_LINETYPE
1070
   380
1005
16
1001
ACAD_DSTYLE_DIM_EXT1_LINETYPE
1070
   381
1005
16
1001
ACAD_DSTYLE_DIM_EXT2_LINETYPE
1070
   382
1005
16
0
ENDSEC
0
SECTION
2
OBJECTS
0
DICTIONARY
5
1f1
330
0
100
AcDbDictionary
280
0
281
1
3
ACAD_GROUP
350
1f2
3
ACAD_MLINESTYLE
350
1f3
0
DICTIONARY
5
1f2
330
0
100
AcDbDictionary
280
0
281
1
0
DICTIONARY
5
1f3
330
0
100
AcDbDictionary
280
0
281
1
3
Standard
350
18
0
MLINESTYLE
5
18
330
1f3
100
AcDbMlineStyle
2
Standard
70
0
3

62
256
51
90
52
90
71
2
49
-0.5
62
256
6
ByLayer
49
0.5
62
256
6
ByLayer
0
RASTERVARIABLES
5
1df
330

100
AcDbRasterVariables
90
0
70
1
71
1
72
1
0
ENDSEC
0
EOF
