0
SECTION
2
HEADER
9
$ACADVER
1
AC1015
9
$DWGCODEPAGE
3
ANSI_1252
9
$HANDSEED
5
205
9
$ANGBASE
50
0
9
$ANGDIR
70
0
9
$ATTMODE
70
1
9
$AUNITS
70
0
9
$AUPREC
70
0
9
$CECOLOR
62
256
9
$CELTSCALE
40
1
9
$CELTYPE
6
ByLayer
9
$CELWEIGHT
370
18
9
$CLAYER
8
0
9
$CMLJUST
70
0
9
$CMLSCALE
40
1
9
$CMLSTYLE
2
Standard
9
$DIMSTYLE
2
Standard
9
$TEXTSIZE
40
0.2
9
$TEXTSTYLE
7
Standard
9
$LUNITS
70
2
9
$LUPREC
70
4
9
$EXTNAMES
290
1
9
$INSUNITS
70
4
9
$LTSCALE
40
1
9
$LWDISPLAY
290
1
9
$PDMODE
70
0
9
$PDSIZE
40
0
9
$PLINEGEN
70
0
0
ENDSEC
0
SECTION
2
CLASSES
0
CLASS
1
RASTERVARIABLES
2
AcDbRasterVariables
3
ISM
90
0
280
0
281
0
0
ENDSEC
0
SECTION
2
TABLES
0
TABLE
2
VPORT
5
1fb
100
AcDbSymbolTable
0
VPORT
5
1
100
AcDbSymbolTableRecord
100
AcDbViewportTableRecord
2
*Active
70
0
10
0
20
0
11
1
21
1
12
-1
22
1
13
0
23
0
14
0.5
24
0.5
15
10
25
10
16
0
26
0
36
1
17
0
27
0
37
0
0
ENDTAB
0
TABLE
2
LTYPE
5
1fc
100
AcDbSymbolTable
0
LTYPE
5
14
100
AcDbSymbolTableRecord
100
AcDbLinetypeTableRecord
70
0
2
ByBlock
3

72
65
73
0
40
0
0
LTYPE
5
15
100
AcDbSymbolTableRecord
100
AcDbLinetypeTableRecord
70
0
2
ByLayer
3

72
65
73
0
40
0
0
LTYPE
5
16
100
AcDbSymbolTableRecord
100
AcDbLinetypeTableRecord
70
0
2
Continuous
3
Solid line
72
65
73
0
40
0
0
LTYPE
5
6E
100
AcDbSymbolTableRecord
100
AcDbLinetypeTableRecord
70
0
2
CENTER
3
____ _ ____ _ ____ _ ____
72
65
73
4
40
47.5
49
22
74
0
49
-8.5
74
0
49
8.5
74
0
49
-8.5
74
0
0
LTYPE
5
6F
100
AcDbSymbolTableRecord
100
AcDbLinetypeTableRecord
70
0
2
DASHED
3
__ __ __ __ __ __ __ __ __
72
65
73
2
40
25.72
49
12.86
74
0
49
-12.86
74
0
0
ENDTAB
0
TABLE
2
LAYER
5
1fd
100
AcDbSymbolTable
0
LAYER
5
10
100
AcDbSymbolTableRecord
100
AcDbLayerTableRecord
2
0
70
0
62
7
6
Continuous
290
1
370
-3
390
0
0
LAYER
5
71
100
AcDbSymbolTableRecord
100
AcDbLayerTableRecord
2
80
70
0
62
-6
6
Continuous
290
1
370
-3
390
0
0
LAYER
5
73
100
AcDbSymbolTableRecord
100
AcDbLayerTableRecord
2
81
70
0
62
-3
6
Continuous
290
1
370
-3
390
0
0
LAYER
5
75
100
AcDbSymbolTableRecord
100
AcDbLayerTableRecord
2
1
70
0
62
4
6
Continuous
290
1
370
-3
390
0
0
LAYER
5
8A
100
AcDbSymbolTableRecord
100
AcDbLayerTableRecord
2
4
70
0
62
-2
6
CENTER
290
1
370
-3
390
0
0
LAYER
5
A3
100
AcDbSymbolTableRecord
100
AcDbLayerTableRecord
2
2
70
0
62
7
6
Continuous
290
1
370
-3
390
0
0
LAYER
5
110
100
AcDbSymbolTableRecord
100
AcDbLayerTableRecord
2
Defpoints
70
0
62
7
6
Continuous
290
0
370
-3
390
0
0
LAYER
5
1e7
100
AcDbSymbolTableRecord
100
AcDbLayerTableRecord
2
SK1
70
0
62
4
6
Continuous
290
1
370
-3
390
0
0
LAYER
5
1e8
100
AcDbSymbolTableRecord
100
AcDbLayerTableRecord
2
SK4
70
0
62
2
6
CENTER
290
1
370
-3
390
0
0
LAYER
5
1e9
100
AcDbSymbolTableRecord
100
AcDbLayerTableRecord
2
SK2
70
0
62
7
6
Continuous
290
1
370
-3
390
0
0
LAYER
5
1ea
100
AcDbSymbolTableRecord
100
AcDbLayerTableRecord
2
SK6
70
0
62
5
6
Continuous
290
1
370
-3
390
0
0
ENDTAB
0
TABLE
2
STYLE
5
1fe
100
AcDbSymbolTable
0
STYLE
5
11
100
AcDbSymbolTableRecord
100
AcDbTextStyleTableRecord
2
Standard
3
txt
70
0
71
0
40
0
41
1
42
0
50
0
0
STYLE
5
F5
100
AcDbSymbolTableRecord
100
AcDbTextStyleTableRecord
2
iso_b_vert
3
simplex.shx
70
0
71
0
40
0
41
1
42
0
50
0
0
STYLE
5
F6
100
AcDbSymbolTableRecord
100
AcDbTextStyleTableRecord
2
DWGDirectTextStyle
3
simplex
70
0
71
0
40
0
41
1
42
0
50
0
0
ENDTAB
0
TABLE
2
DIMSTYLE
5
1ff
100
AcDbSymbolTable
100
AcDbDimStyleTable
0
DIMSTYLE
105
27
100
AcDbSymbolTableRecord
100
AcDbDimStyleTableRecord
2
Standard
70
0
3
<>
41
0.18
42
0.0625
44
0.18
140
0.18
147
0.09
73
0
74
0
77
1
271
2
275
0
278
52
280
0
340
11
0
ENDTAB
0
TABLE
2
VIEW
5
200
100
AcDbSymbolTable
0
ENDTAB
0
TABLE
2
UCS
5
201
100
AcDbSymbolTable
0
ENDTAB
0
TABLE
2
APPID
5
202
100
AcDbSymbolTable
0
APPID
5
12
100
AcDbSymbolTableRecord
100
AcDbRegAppTableRecord
2
ACAD
70
0
0
APPID
5
10C
100
AcDbSymbolTableRecord
100
AcDbRegAppTableRecord
2
ACAD_DSTYLE_DIMBREAK
70
0
0
APPID
5
1A6
100
AcDbSymbolTableRecord
100
AcDbRegAppTableRecord
2
ACAD_DSTYLE_DIM_LINETYPE
70
0
0
APPID
5
1A7
100
AcDbSymbolTableRecord
100
AcDbRegAppTableRecord
2
ACAD_DSTYLE_DIM_EXT1_LINETYPE
70
0
0
APPID
5
1A8
100
AcDbSymbolTableRecord
100
AcDbRegAppTableRecord
2
ACAD_DSTYLE_DIM_EXT2_LINETYPE
70
0
0
APPID
5
1E3
100
AcDbSymbolTableRecord
100
AcDbRegAppTableRecord
2
ACAD_MLEADERVER
70
0
0
ENDTAB
0
TABLE
2
BLOCK_RECORD
5
203
100
AcDbSymbolTable
0
BLOCK_RECORD
5
1F
100
AcDbSymbolTableRecord
100
AcDbBlockTableRecord
2
*Model_Space
340
0
70
0
0
BLOCK_RECORD
5
1B
100
AcDbSymbolTableRecord
100
AcDbBlockTableRecord
2
*Paper_Space
340
0
70
0
0
BLOCK_RECORD
5
23
100
AcDbSymbolTableRecord
100
AcDbBlockTableRecord
2
*Paper_Space0
340
0
70
0
0
BLOCK_RECORD
5
111
100
AcDbSymbolTableRecord
100
AcDbBlockTableRecord
2
*D1
340
0
70
0
0
BLOCK_RECORD
5
11D
100
AcDbSymbolTableRecord
100
AcDbBlockTableRecord
2
_U0
340
0
70
0
0
BLOCK_RECORD
5
129
100
AcDbSymbolTableRecord
100
AcDbBlockTableRecord
2
*D3
340
0
70
0
0
BLOCK_RECORD
5
135
100
AcDbSymbolTableRecord
100
AcDbBlockTableRecord
2
_U1
340
0
70
0
0
BLOCK_RECORD
5
141
100
AcDbSymbolTableRecord
100
AcDbBlockTableRecord
2
*D5
340
0
70
0
0
BLOCK_RECORD
5
14D
100
AcDbSymbolTableRecord
100
AcDbBlockTableRecord
2
_U2
340
0
70
0
0
BLOCK_RECORD
5
159
100
AcDbSymbolTableRecord
100
AcDbBlockTableRecord
2
*D7
340
0
70
0
0
BLOCK_RECORD
5
167
100
AcDbSymbolTableRecord
100
AcDbBlockTableRecord
2
_U3
340
0
70
0
0
BLOCK_RECORD
5
173
100
AcDbSymbolTableRecord
100
AcDbBlockTableRecord
2
*D9
340
0
70
0
0
BLOCK_RECORD
5
17F
100
AcDbSymbolTableRecord
100
AcDbBlockTableRecord
2
_U4
340
0
70
0
0
ENDTAB
0
ENDSEC
0
SECTION
2
BLOCKS
0
BLOCK
5
20
100
AcDbEntity
8
0
100
AcDbBlockBegin
2
*Model_Space
70
0
10
0
20
0
30
0
3
*Model_Space
0
ENDBLK
5
21
100
AcDbEntity
8
0
100
AcDbBlockEnd
0
BLOCK
5
1C
100
AcDbEntity
8
0
100
AcDbBlockBegin
2
*Paper_Space
70
0
10
0
20
0
30
0
3
*Paper_Space
0
ENDBLK
5
1D
100
AcDbEntity
8
0
100
AcDbBlockEnd
0
BLOCK
5
24
100
AcDbEntity
8
0
100
AcDbBlockBegin
2
*Paper_Space0
70
0
10
0
20
0
30
0
3
*Paper_Space0
0
ENDBLK
5
25
100
AcDbEntity
8
0
100
AcDbBlockEnd
0
BLOCK
5
112
100
AcDbEntity
8
0
100
AcDbBlockBegin
2
*D1
70
1
10
0
20
0
30
0
3
*D1
0
LINE
5
114
100
AcDbEntity
8
0
62
256
6
ByLayer
370
-2
48
1
60
0
100
AcDbLine
10
0
20
-1.5875
30
0
11
0
21
-16.886898
31
0
39
0
210
0
220
0
230
1
0
LINE
5
115
100
AcDbEntity
8
0
62
256
6
ByLayer
370
-2
48
1
60
0
100
AcDbLine
10
61.614
20
-6.261
30
0
11
61.614
21
-16.886898
31
0
39
0
210
0
220
0
230
1
0
LINE
5
116
100
AcDbEntity
8
0
62
256
6
ByLayer
370
-2
48
1
60
0
100
AcDbLine
10
3.5
20
-14.886898
30
0
11
58.114
21
-14.886898
31
0
39
0
210
0
220
0
230
1
0
SOLID
5
117
100
AcDbEntity
8
0
62
256
6
ByLayer
370
-1
48
1
60
0
100
AcDbTrace
10
3.5
20
-14.303565
30
0
11
3.5
21
-15.470232
31
0
12
0
22
-14.886898
32
0
13
0
23
-14.886898
33
0
39
0
210
0
220
0
230
1
0
SOLID
5
118
100
AcDbEntity
8
0
62
256
6
ByLayer
370
-1
48
1
60
0
100
AcDbTrace
10
58.114
20
-15.470232
30
0
11
58.114
21
-14.303565
31
0
12
61.614
22
-14.886898
32
0
13
61.614
23
-14.886898
33
0
39
0
210
0
220
0
230
1
0
MTEXT
5
119
100
AcDbEntity
8
0
62
256
6
ByLayer
370
18
48
1
60
0
100
AcDbMText
10
30.807
20
-7.886898
30
0
210
0
220
0
230
1
1
\A1;61.61
40
3.5
41
0
44
1
50
0
71
5
72
5
7
iso_b_vert
0
POINT
5
11A
100
AcDbEntity
8
Defpoints
62
0
6
ByLayer
370
-1
48
1
60
0
100
AcDbPoint
10
0
20
0
30
0
39
0
210
0
220
0
230
1
50
360
0
POINT
5
11B
100
AcDbEntity
8
Defpoints
62
0
6
ByLayer
370
-1
48
1
60
0
100
AcDbPoint
10
61.614
20
-4.6735
30
0
39
0
210
0
220
0
230
1
50
360
0
POINT
5
11C
100
AcDbEntity
8
Defpoints
62
0
6
ByLayer
370
-1
48
1
60
0
100
AcDbPoint
10
61.614
20
-14.886898
30
0
39
0
210
0
220
0
230
1
50
360
0
ENDBLK
5
113
100
AcDbEntity
8
0
100
AcDbBlockEnd
0
BLOCK
5
124
100
AcDbEntity
8
0
100
AcDbBlockBegin
2
_U0
70
0
10
0
20
0
30
0
3
_U0
0
MTEXT
5
11E
100
AcDbEntity
8
SK2
62
256
6
ByLayer
370
13
48
1
60
0
100
AcDbMText
10
26.544568
20
-13.854265
30
0
210
0
220
0
230
1
1
\W0.6563;61,61
40
3.5
41
0
44
1.084337
50
0
71
7
72
5
7
iso_b_vert
0
LINE
5
11F
100
AcDbEntity
8
SK2
62
256
6
ByLayer
370
13
48
1
60
0
100
AcDbLine
10
0
20
-1.5875
30
0
11
0
21
-16.886898
31
0
39
0
210
0
220
0
230
1
0
LINE
5
120
100
AcDbEntity
8
SK2
62
256
6
ByLayer
370
13
48
1
60
0
100
AcDbLine
10
61.614
20
-6.261
30
0
11
61.614
21
-16.886898
31
0
39
0
210
0
220
0
230
1
0
LINE
5
121
100
AcDbEntity
8
SK2
62
256
6
ByLayer
370
13
48
1
60
0
100
AcDbLine
10
0
20
-14.886898
30
0
11
61.614
21
-14.886898
31
0
39
0
210
0
220
0
230
1
0
SOLID
5
122
100
AcDbEntity
8
SK2
62
256
6
ByLayer
370
18
48
1
60
0
100
AcDbTrace
10
0
20
-14.886898
30
0
11
3.499998
21
-14.426115
31
0
12
3.500002
22
-15.347682
32
0
13
3.500002
23
-15.347682
33
0
39
0
210
0
220
0
230
1
0
SOLID
5
123
100
AcDbEntity
8
SK2
62
256
6
ByLayer
370
18
48
1
60
0
100
AcDbTrace
10
61.614
20
-14.886898
30
0
11
58.114002
21
-15.347682
31
0
12
58.113998
22
-14.426115
32
0
13
58.113998
23
-14.426115
33
0
39
0
210
0
220
0
230
1
0
ENDBLK
5
125
100
AcDbEntity
8
0
100
AcDbBlockEnd
0
BLOCK
5
12A
100
AcDbEntity
8
0
100
AcDbBlockBegin
2
*D3
70
1
10
0
20
0
30
0
3
*D3
0
LINE
5
12C
100
AcDbEntity
8
0
62
256
6
ByLayer
370
-2
48
1
60
0
100
AcDbLine
10
-40
20
-6.5875
30
0
11
-40
21
-35.692985
31
0
39
0
210
0
220
0
230
1
0
LINE
5
12D
100
AcDbEntity
8
0
62
256
6
ByLayer
370
-2
48
1
60
0
100
AcDbLine
10
63
20
-1.5875
30
0
11
63
21
-35.692985
31
0
39
0
210
0
220
0
230
1
0
LINE
5
12E
100
AcDbEntity
8
0
62
256
6
ByLayer
370
-2
48
1
60
0
100
AcDbLine
10
-36.5
20
-33.692985
30
0
11
59.5
21
-33.692985
31
0
39
0
210
0
220
0
230
1
0
SOLID
5
12F
100
AcDbEntity
8
0
62
256
6
ByLayer
370
-1
48
1
60
0
100
AcDbTrace
10
-36.5
20
-33.109652
30
0
11
-36.5
21
-34.276319
31
0
12
-40
22
-33.692985
32
0
13
-40
23
-33.692985
33
0
39
0
210
0
220
0
230
1
0
SOLID
5
130
100
AcDbEntity
8
0
62
256
6
ByLayer
370
-1
48
1
60
0
100
AcDbTrace
10
59.5
20
-34.276319
30
0
11
59.5
21
-33.109652
31
0
12
63
22
-33.692985
32
0
13
63
23
-33.692985
33
0
39
0
210
0
220
0
230
1
0
MTEXT
5
131
100
AcDbEntity
8
0
62
256
6
ByLayer
370
18
48
1
60
0
100
AcDbMText
10
11.5
20
-26.692985
30
0
210
0
220
0
230
1
1
\A1;103.00
40
3.5
41
0
44
1
50
0
71
5
72
5
7
iso_b_vert
0
POINT
5
132
100
AcDbEntity
8
Defpoints
62
0
6
ByLayer
370
-1
48
1
60
0
100
AcDbPoint
10
-40
20
-5
30
0
39
0
210
0
220
0
230
1
50
360
0
POINT
5
133
100
AcDbEntity
8
Defpoints
62
0
6
ByLayer
370
-1
48
1
60
0
100
AcDbPoint
10
63
20
0
30
0
39
0
210
0
220
0
230
1
50
360
0
POINT
5
134
100
AcDbEntity
8
Defpoints
62
0
6
ByLayer
370
-1
48
1
60
0
100
AcDbPoint
10
63
20
-33.692985
30
0
39
0
210
0
220
0
230
1
50
360
0
ENDBLK
5
12B
100
AcDbEntity
8
0
100
AcDbBlockEnd
0
BLOCK
5
13C
100
AcDbEntity
8
0
100
AcDbBlockBegin
2
_U1
70
0
10
0
20
0
30
0
3
_U1
0
MTEXT
5
136
100
AcDbEntity
8
SK2
62
256
6
ByLayer
370
13
48
1
60
0
100
AcDbMText
10
5.492401
20
-32.660352
30
0
210
0
220
0
230
1
1
\W0.6930;103,00
40
3.5
41
0
44
1.084337
50
0
71
7
72
5
7
iso_b_vert
0
LINE
5
137
100
AcDbEntity
8
SK2
62
256
6
ByLayer
370
13
48
1
60
0
100
AcDbLine
10
-40
20
-6.5875
30
0
11
-40
21
-35.692985
31
0
39
0
210
0
220
0
230
1
0
LINE
5
138
100
AcDbEntity
8
SK2
62
256
6
ByLayer
370
13
48
1
60
0
100
AcDbLine
10
63
20
-1.5875
30
0
11
63
21
-35.692985
31
0
39
0
210
0
220
0
230
1
0
LINE
5
139
100
AcDbEntity
8
SK2
62
256
6
ByLayer
370
13
48
1
60
0
100
AcDbLine
10
-40
20
-33.692985
30
0
11
63
21
-33.692985
31
0
39
0
210
0
220
0
230
1
0
SOLID
5
13A
100
AcDbEntity
8
SK2
62
256
6
ByLayer
370
18
48
1
60
0
100
AcDbTrace
10
-40
20
-33.692985
30
0
11
-36.500002
21
-33.232202
31
0
12
-36.499998
22
-34.153769
32
0
13
-36.499998
23
-34.153769
33
0
39
0
210
0
220
0
230
1
0
SOLID
5
13B
100
AcDbEntity
8
SK2
62
256
6
ByLayer
370
18
48
1
60
0
100
AcDbTrace
10
63
20
-33.692985
30
0
11
59.500002
21
-34.153769
31
0
12
59.499998
22
-33.232202
32
0
13
59.499998
23
-33.232202
33
0
39
0
210
0
220
0
230
1
0
ENDBLK
5
13D
100
AcDbEntity
8
0
100
AcDbBlockEnd
0
BLOCK
5
142
100
AcDbEntity
8
0
100
AcDbBlockBegin
2
*D5
70
1
10
0
20
0
30
0
3
*D5
0
LINE
5
144
100
AcDbEntity
8
0
62
256
6
ByLayer
370
-2
48
1
60
0
100
AcDbLine
10
14.86
20
6.261
30
0
11
14.86
21
18.282619
31
0
39
0
210
0
220
0
230
1
0
LINE
5
145
100
AcDbEntity
8
0
62
256
6
ByLayer
370
-2
48
1
60
0
100
AcDbLine
10
63
20
1.5875
30
0
11
63
21
18.282619
31
0
39
0
210
0
220
0
230
1
0
LINE
5
146
100
AcDbEntity
8
0
62
256
6
ByLayer
370
-2
48
1
60
0
100
AcDbLine
10
18.36
20
16.282619
30
0
11
59.5
21
16.282619
31
0
39
0
210
0
220
0
230
1
0
SOLID
5
147
100
AcDbEntity
8
0
62
256
6
ByLayer
370
-1
48
1
60
0
100
AcDbTrace
10
18.36
20
16.865953
30
0
11
18.36
21
15.699286
31
0
12
14.86
22
16.282619
32
0
13
14.86
23
16.282619
33
0
39
0
210
0
220
0
230
1
0
SOLID
5
148
100
AcDbEntity
8
0
62
256
6
ByLayer
370
-1
48
1
60
0
100
AcDbTrace
10
59.5
20
15.699286
30
0
11
59.5
21
16.865953
31
0
12
63
22
16.282619
32
0
13
63
23
16.282619
33
0
39
0
210
0
220
0
230
1
0
MTEXT
5
149
100
AcDbEntity
8
0
62
256
6
ByLayer
370
18
48
1
60
0
100
AcDbMText
10
38.93
20
23.282619
30
0
210
0
220
0
230
1
1
\A1;48.14
40
3.5
41
0
44
1
50
0
71
5
72
5
7
iso_b_vert
0
POINT
5
14A
100
AcDbEntity
8
Defpoints
62
0
6
ByLayer
370
-1
48
1
60
0
100
AcDbPoint
10
14.86
20
4.6735
30
0
39
0
210
0
220
0
230
1
50
360
0
POINT
5
14B
100
AcDbEntity
8
Defpoints
62
0
6
ByLayer
370
-1
48
1
60
0
100
AcDbPoint
10
63
20
0
30
0
39
0
210
0
220
0
230
1
50
360
0
POINT
5
14C
100
AcDbEntity
8
Defpoints
62
0
6
ByLayer
370
-1
48
1
60
0
100
AcDbPoint
10
63
20
16.282619
30
0
39
0
210
0
220
0
230
1
50
360
0
ENDBLK
5
143
100
AcDbEntity
8
0
100
AcDbBlockEnd
0
BLOCK
5
154
100
AcDbEntity
8
0
100
AcDbBlockBegin
2
_U2
70
0
10
0
20
0
30
0
3
_U2
0
MTEXT
5
14E
100
AcDbEntity
8
SK2
62
256
6
ByLayer
370
13
48
1
60
0
100
AcDbMText
10
33.861601
20
17.315253
30
0
210
0
220
0
230
1
1
\W0.7159;48,14
40
3.5
41
0
44
1.084337
50
0
71
7
72
5
7
iso_b_vert
0
LINE
5
14F
100
AcDbEntity
8
SK2
62
256
6
ByLayer
370
13
48
1
60
0
100
AcDbLine
10
14.86
20
6.261
30
0
11
14.86
21
18.282619
31
0
39
0
210
0
220
0
230
1
0
LINE
5
150
100
AcDbEntity
8
SK2
62
256
6
ByLayer
370
13
48
1
60
0
100
AcDbLine
10
63
20
1.5875
30
0
11
63
21
18.282619
31
0
39
0
210
0
220
0
230
1
0
LINE
5
151
100
AcDbEntity
8
SK2
62
256
6
ByLayer
370
13
48
1
60
0
100
AcDbLine
10
14.86
20
16.282619
30
0
11
63
21
16.282619
31
0
39
0
210
0
220
0
230
1
0
SOLID
5
152
100
AcDbEntity
8
SK2
62
256
6
ByLayer
370
18
48
1
60
0
100
AcDbTrace
10
14.86
20
16.282619
30
0
11
18.359998
21
16.743403
31
0
12
18.360002
22
15.821835
32
0
13
18.360002
23
15.821835
33
0
39
0
210
0
220
0
230
1
0
SOLID
5
153
100
AcDbEntity
8
SK2
62
256
6
ByLayer
370
18
48
1
60
0
100
AcDbTrace
10
63
20
16.282619
30
0
11
59.500002
21
15.821835
31
0
12
59.499998
22
16.743403
32
0
13
59.499998
23
16.743403
33
0
39
0
210
0
220
0
230
1
0
ENDBLK
5
155
100
AcDbEntity
8
0
100
AcDbBlockEnd
0
BLOCK
5
15A
100
AcDbEntity
8
0
100
AcDbBlockBegin
2
*D7
70
1
10
0
20
0
30
0
3
*D7
0
LINE
5
15C
100
AcDbEntity
8
0
62
256
6
ByLayer
370
-2
48
1
60
0
100
AcDbLine
10
63
20
-1.5875
30
0
11
63
21
-19.476003
31
0
39
0
210
0
220
0
230
1
0
LINE
5
15D
100
AcDbEntity
8
0
62
256
6
ByLayer
370
-2
48
1
60
0
100
AcDbLine
10
61.614
20
-6.261
30
0
11
61.614
21
-19.476003
31
0
39
0
210
0
220
0
230
1
0
LINE
5
15E
100
AcDbEntity
8
0
62
256
6
ByLayer
370
-2
48
1
60
0
100
AcDbLine
10
63
20
-17.476003
30
0
11
90.5
21
-17.476003
31
0
39
0
210
0
220
0
230
1
0
LINE
5
15F
100
AcDbEntity
8
0
62
256
6
ByLayer
370
-2
48
1
60
0
100
AcDbLine
10
66.5
20
-17.476003
30
0
11
70
21
-17.476003
31
0
39
0
210
0
220
0
230
1
0
LINE
5
160
100
AcDbEntity
8
0
62
256
6
ByLayer
370
-2
48
1
60
0
100
AcDbLine
10
58.114
20
-17.476003
30
0
11
54.614
21
-17.476003
31
0
39
0
210
0
220
0
230
1
0
SOLID
5
161
100
AcDbEntity
8
0
62
256
6
ByLayer
370
-1
48
1
60
0
100
AcDbTrace
10
66.5
20
-16.89267
30
0
11
66.5
21
-18.059337
31
0
12
63
22
-17.476003
32
0
13
63
23
-17.476003
33
0
39
0
210
0
220
0
230
1
0
SOLID
5
162
100
AcDbEntity
8
0
62
256
6
ByLayer
370
-1
48
1
60
0
100
AcDbTrace
10
58.114
20
-18.059337
30
0
11
58.114
21
-16.89267
31
0
12
61.614
22
-17.476003
32
0
13
61.614
23
-17.476003
33
0
39
0
210
0
220
0
230
1
0
MTEXT
5
163
100
AcDbEntity
8
0
62
256
6
ByLayer
370
18
48
1
60
0
100
AcDbMText
10
80.25
20
-10.476003
30
0
210
0
220
0
230
1
1
\A1;1.39
40
3.5
41
0
44
1
50
0
71
5
72
5
7
iso_b_vert
0
POINT
5
164
100
AcDbEntity
8
Defpoints
62
0
6
ByLayer
370
-1
48
1
60
0
100
AcDbPoint
10
63
20
0
30
0
39
0
210
0
220
0
230
1
50
360
0
POINT
5
165
100
AcDbEntity
8
Defpoints
62
0
6
ByLayer
370
-1
48
1
60
0
100
AcDbPoint
10
61.614
20
-4.6735
30
0
39
0
210
0
220
0
230
1
50
360
0
POINT
5
166
100
AcDbEntity
8
Defpoints
62
0
6
ByLayer
370
-1
48
1
60
0
100
AcDbPoint
10
61.614
20
-17.476003
30
0
39
0
210
0
220
0
230
1
50
360
0
ENDBLK
5
15B
100
AcDbEntity
8
0
100
AcDbBlockEnd
0
BLOCK
5
16E
100
AcDbEntity
8
0
100
AcDbBlockBegin
2
_U3
70
0
10
0
20
0
30
0
3
_U3
0
MTEXT
5
168
100
AcDbEntity
8
SK2
62
256
6
ByLayer
370
13
48
1
60
0
100
AcDbMText
10
69.589293
20
-16.44337
30
0
210
0
220
0
230
1
1
\W0.6463;1,39
40
3.5
41
0
44
1.084337
50
0
71
7
72
5
7
iso_b_vert
0
LINE
5
169
100
AcDbEntity
8
SK2
62
256
6
ByLayer
370
13
48
1
60
0
100
AcDbLine
10
63
20
-1.5875
30
0
11
63
21
-19.476003
31
0
39
0
210
0
220
0
230
1
0
LINE
5
16A
100
AcDbEntity
8
SK2
62
256
6
ByLayer
370
13
48
1
60
0
100
AcDbLine
10
61.614
20
-6.261
30
0
11
61.614
21
-19.476003
31
0
39
0
210
0
220
0
230
1
0
LINE
5
16B
100
AcDbEntity
8
SK2
62
256
6
ByLayer
370
13
48
1
60
0
100
AcDbLine
10
52.864
20
-17.476003
30
0
11
76.559058
21
-17.476003
31
0
39
0
210
0
220
0
230
1
0
SOLID
5
16C
100
AcDbEntity
8
SK2
62
256
6
ByLayer
370
18
48
1
60
0
100
AcDbTrace
10
63
20
-17.476003
30
0
11
66.499998
21
-17.015219
31
0
12
66.500002
22
-17.936787
32
0
13
66.500002
23
-17.936787
33
0
39
0
210
0
220
0
230
1
0
SOLID
5
16D
100
AcDbEntity
8
SK2
62
256
6
ByLayer
370
18
48
1
60
0
100
AcDbTrace
10
61.614
20
-17.476003
30
0
11
58.114002
21
-17.936787
31
0
12
58.113998
22
-17.015219
32
0
13
58.113998
23
-17.015219
33
0
39
0
210
0
220
0
230
1
0
ENDBLK
5
16F
100
AcDbEntity
8
0
100
AcDbBlockEnd
0
BLOCK
5
174
100
AcDbEntity
8
0
100
AcDbBlockBegin
2
*D9
70
1
10
0
20
0
30
0
3
*D9
0
LINE
5
176
100
AcDbEntity
8
0
62
256
6
ByLayer
370
-2
48
1
60
0
100
AcDbLine
10
-40
20
-6.5875
30
0
11
-40
21
-25.343428
31
0
39
0
210
0
220
0
230
1
0
LINE
5
177
100
AcDbEntity
8
0
62
256
6
ByLayer
370
-2
48
1
60
0
100
AcDbLine
10
61.614
20
-6.261
30
0
11
61.614
21
-25.343428
31
0
39
0
210
0
220
0
230
1
0
LINE
5
178
100
AcDbEntity
8
0
62
256
6
ByLayer
370
-2
48
1
60
0
100
AcDbLine
10
-36.5
20
-23.343428
30
0
11
58.114
21
-23.343428
31
0
39
0
210
0
220
0
230
1
0
SOLID
5
179
100
AcDbEntity
8
0
62
256
6
ByLayer
370
-1
48
1
60
0
100
AcDbTrace
10
-36.5
20
-22.760095
30
0
11
-36.5
21
-23.926762
31
0
12
-40
22
-23.343428
32
0
13
-40
23
-23.343428
33
0
39
0
210
0
220
0
230
1
0
SOLID
5
17A
100
AcDbEntity
8
0
62
256
6
ByLayer
370
-1
48
1
60
0
100
AcDbTrace
10
58.114
20
-23.926762
30
0
11
58.114
21
-22.760095
31
0
12
61.614
22
-23.343428
32
0
13
61.614
23
-23.343428
33
0
39
0
210
0
220
0
230
1
0
MTEXT
5
17B
100
AcDbEntity
8
0
62
256
6
ByLayer
370
18
48
1
60
0
100
AcDbMText
10
10.807
20
-16.343428
30
0
210
0
220
0
230
1
1
\A1;101.61
40
3.5
41
0
44
1
50
0
71
5
72
5
7
iso_b_vert
0
POINT
5
17C
100
AcDbEntity
8
Defpoints
62
0
6
ByLayer
370
-1
48
1
60
0
100
AcDbPoint
10
-40
20
-5
30
0
39
0
210
0
220
0
230
1
50
360
0
POINT
5
17D
100
AcDbEntity
8
Defpoints
62
0
6
ByLayer
370
-1
48
1
60
0
100
AcDbPoint
10
61.614
20
-4.6735
30
0
39
0
210
0
220
0
230
1
50
360
0
POINT
5
17E
100
AcDbEntity
8
Defpoints
62
0
6
ByLayer
370
-1
48
1
60
0
100
AcDbPoint
10
61.614
20
-23.343428
30
0
39
0
210
0
220
0
230
1
50
360
0
ENDBLK
5
175
100
AcDbEntity
8
0
100
AcDbBlockEnd
0
BLOCK
5
186
100
AcDbEntity
8
0
100
AcDbBlockBegin
2
_U4
70
0
10
0
20
0
30
0
3
_U4
0
MTEXT
5
180
100
AcDbEntity
8
SK2
62
256
6
ByLayer
370
13
48
1
60
0
100
AcDbMText
10
5.674268
20
-22.310795
30
0
210
0
220
0
230
1
1
\W0.6303;101,61
40
3.5
41
0
44
1.084337
50
0
71
7
72
5
7
iso_b_vert
0
LINE
5
181
100
AcDbEntity
8
SK2
62
256
6
ByLayer
370
13
48
1
60
0
100
AcDbLine
10
-40
20
-6.5875
30
0
11
-40
21
-25.343428
31
0
39
0
210
0
220
0
230
1
0
LINE
5
182
100
AcDbEntity
8
SK2
62
256
6
ByLayer
370
13
48
1
60
0
100
AcDbLine
10
61.614
20
-6.261
30
0
11
61.614
21
-25.343428
31
0
39
0
210
0
220
0
230
1
0
LINE
5
183
100
AcDbEntity
8
SK2
62
256
6
ByLayer
370
13
48
1
60
0
100
AcDbLine
10
-40
20
-23.343428
30
0
11
61.614
21
-23.343428
31
0
39
0
210
0
220
0
230
1
0
SOLID
5
184
100
AcDbEntity
8
SK2
62
256
6
ByLayer
370
18
48
1
60
0
100
AcDbTrace
10
-40
20
-23.343428
30
0
11
-36.500002
21
-22.882645
31
0
12
-36.499998
22
-23.804212
32
0
13
-36.499998
23
-23.804212
33
0
39
0
210
0
220
0
230
1
0
SOLID
5
185
100
AcDbEntity
8
SK2
62
256
6
ByLayer
370
18
48
1
60
0
100
AcDbTrace
10
61.614
20
-23.343428
30
0
11
58.114002
21
-23.804212
31
0
12
58.113998
22
-22.882645
32
0
13
58.113998
23
-22.882645
33
0
39
0
210
0
220
0
230
1
0
ENDBLK
5
187
100
AcDbEntity
8
0
100
AcDbBlockEnd
0
ENDSEC
0
SECTION
2
ENTITIES
0
ARC
5
AC
100
AcDbEntity
8
1
62
256
6
ByLayer
370
18
48
1
60
0
100
AcDbCircle
39
0
10
1.016461
20
-5.43564
30
0
40
0.799999999999999
210
0
220
0
230
1
100
AcDbArc
50
89.96419
51
129.441359
0
ARC
5
AD
100
AcDbEntity
8
1
62
256
6
ByLayer
370
18
48
1
60
0
100
AcDbCircle
39
0
10
1.016461
20
5.43564
30
0
40
0.799999999999999
210
0
220
0
230
1
100
AcDbArc
50
230.558641
51
270.03581
0
ARC
5
AE
100
AcDbEntity
8
1
62
256
6
ByLayer
370
18
48
1
60
0
100
AcDbCircle
39
0
10
0
20
-4.2
30
0
40
0.800000000000001
210
0
220
0
230
1
100
AcDbArc
50
270
51
309.441359
0
ARC
5
AF
100
AcDbEntity
8
1
62
256
6
ByLayer
370
18
48
1
60
0
100
AcDbCircle
39
0
10
0
20
4.2
30
0
40
0.800000000000001
210
0
220
0
230
1
100
AcDbArc
50
50.558641
51
90
0
ELLIPSE
5
B0
100
AcDbEntity
8
1
62
256
6
ByLayer
370
13
48
1
60
0
100
AcDbEllipse
10
4.250195
20
-4.315471
30
0
11
0.0148464922655789
21
0.0988917674400054
31
0
210
0
220
0
230
1
40
0.441957
41
0.324645593114317
42
1.87850674008322
0
ELLIPSE
5
B1
100
AcDbEntity
8
1
62
256
6
ByLayer
370
13
48
1
60
0
100
AcDbEllipse
10
4.180559
20
-4.321351
30
0
11
-0.0329323615032304
21
0.0944217113052954
31
0
210
0
220
0
230
1
40
0.51896
41
0.309536804034657
42
1.64858239066696
0
POINT
5
70
100
AcDbEntity
8
80
62
256
6
ByLayer
370
18
48
1
60
0
100
AcDbPoint
10
0
20
0
30
0
39
0
210
0
220
0
230
1
50
360
0
POINT
5
72
100
AcDbEntity
8
81
62
256
6
ByLayer
370
18
48
1
60
0
100
AcDbPoint
10
63
20
0
30
0
39
0
210
0
220
0
230
1
50
360
0
POINT
5
74
100
AcDbEntity
8
1
62
256
6
ByLayer
370
18
48
1
60
1
100
AcDbPoint
10
61.614
20
-4.6735
30
0
39
0
210
0
220
0
230
1
50
360
0
POINT
5
76
100
AcDbEntity
8
1
62
256
6
ByLayer
370
18
48
1
60
1
100
AcDbPoint
10
-40
20
-5
30
0
39
0
210
0
220
0
230
1
50
360
0
POINT
5
77
100
AcDbEntity
8
1
62
256
6
ByLayer
370
18
48
1
60
1
100
AcDbPoint
10
14.86
20
4.6735
30
0
39
0
210
0
220
0
230
1
50
360
0
POINT
5
78
100
AcDbEntity
8
1
62
256
6
ByLayer
370
18
48
1
60
1
100
AcDbPoint
10
61.614
20
-4.6735
30
0
39
0
210
0
220
0
230
1
50
360
0
POINT
5
79
100
AcDbEntity
8
1
62
256
6
ByLayer
370
18
48
1
60
1
100
AcDbPoint
10
-40
20
-5
30
0
39
0
210
0
220
0
230
1
50
360
0
POINT
5
7A
100
AcDbEntity
8
1
62
256
6
ByLayer
370
18
48
1
60
1
100
AcDbPoint
10
61.614
20
-4.6735
30
0
39
0
210
0
220
0
230
1
50
360
0
SPLINE
5
B2
100
AcDbEntity
8
SK1
62
256
6
ByLayer
370
18
48
1
60
0
100
AcDbSpline
70
4
71
3
72
12
73
8
40
0
40
0
40
0
40
0
40
0.25
40
0.25
40
0.5
40
0.5
40
1
40
1
40
1
40
1
41
1
10
-39.25
20
-4.39036800138376
30
0
41
1
10
-39.25
20
-4.38876363952488
30
0
41
1
10
-39.254235624227
20
-4.38286776259068
30
0
41
1
10
-39.2670201311554
20
-4.36711702333258
30
0
41
1
10
-39.2754786511825
20
-4.35733787160552
30
0
41
1
10
-39.3037388067419
20
-4.32570227408411
30
0
41
1
10
-39.3264172660865
20
-4.30152242287943
30
0
41
1
10
-39.35
20
-4.27742765447778
30
0
0
SPLINE
5
B3
100
AcDbEntity
8
SK1
62
256
6
ByLayer
370
18
48
1
60
0
100
AcDbSpline
70
4
71
3
72
8
73
4
40
0
40
0
40
0
40
0
40
1
40
1
40
1
40
1
41
1
10
-39.35
20
-4.27742765447775
30
0
41
1
10
-39.5672428771638
20
-4.05546794313253
30
0
41
1
10
-39.7840154924712
20
-3.83306617525116
30
0
41
1
10
-40
20
-3.60992356864344
30
0
0
SPLINE
5
B4
100
AcDbEntity
8
SK1
62
256
6
ByLayer
370
18
48
1
60
0
100
AcDbSpline
70
4
71
3
72
12
73
8
40
0
40
0
40
0
40
0
40
0.500000000000004
40
0.500000000000004
40
0.750000000000002
40
0.750000000000002
40
1
40
1
40
1
40
1
41
1
10
-39.35
20
4.05561962220344
30
0
41
1
10
-39.3264103729719
20
4.07972143338478
30
0
41
1
10
-39.3036886178189
20
4.10572893544369
30
0
41
1
10
-39.275599229617
20
4.14250360641836
30
0
41
1
10
-39.2670477807071
20
4.15467479212475
30
0
41
1
10
-39.2542670006876
20
4.17605513722728
30
0
41
1
10
-39.25
20
4.18544587554791
30
0
41
1
10
-39.25
20
4.19074077233685
30
0
0
SPLINE
5
B5
100
AcDbEntity
8
SK1
62
256
6
ByLayer
370
18
48
1
60
0
100
AcDbSpline
70
4
71
3
72
8
73
4
40
0
40
0
40
0
40
0
40
1
40
1
40
1
40
1
41
1
10
-40
20
3.3881155363691
30
0
41
1
10
-39.7840048128137
20
3.61126917657663
30
0
41
1
10
-39.5672338044727
20
3.83366918053793
30
0
41
1
10
-39.35
20
4.05561962220344
30
0
0
SPLINE
5
B6
100
AcDbEntity
8
SK1
62
256
6
ByLayer
370
18
48
1
60
0
100
AcDbSpline
70
4
71
3
72
12
73
8
40
0
40
0
40
0
40
0
40
0.25
40
0.25
40
0.5
40
0.5
40
1
40
1
40
1
40
1
41
1
10
-39.25
20
4.39036800138376
30
0
41
1
10
-39.25
20
4.38876363952488
30
0
41
1
10
-39.254235624227
20
4.38286776259068
30
0
41
1
10
-39.2670201311554
20
4.36711702333258
30
0
41
1
10
-39.2754786511825
20
4.35733787160552
30
0
41
1
10
-39.3037388067419
20
4.32570227408411
30
0
41
1
10
-39.3264172660865
20
4.30152242287946
30
0
41
1
10
-39.35
20
4.27742765447778
30
0
0
SPLINE
5
B7
100
AcDbEntity
8
SK1
62
256
6
ByLayer
370
18
48
1
60
0
100
AcDbSpline
70
4
71
3
72
8
73
4
40
0
40
0
40
0
40
0
40
1
40
1
40
1
40
1
41
1
10
-39.35
20
4.27742765447775
30
0
41
1
10
-39.5672428771638
20
4.05546794313253
30
0
41
1
10
-39.7840154924712
20
3.83306617525116
30
0
41
1
10
-40
20
3.60992356864344
30
0
0
SPLINE
5
B8
100
AcDbEntity
8
1
62
256
6
ByLayer
370
18
48
1
60
0
100
AcDbSpline
70
4
71
3
72
96
73
92
40
0
40
0
40
0
40
0
40
0.0043003449516969
40
0.0043003449516969
40
0.0468779695210438
40
0.0468779695210438
40
0.0681667818057168
40
0.0681667818057168
40
0.0894555940903898
40
0.0894555940903898
40
0.110744406375063
40
0.110744406375063
40
0.132033218659736
40
0.132033218659736
40
0.153322030944409
40
0.153322030944409
40
0.174610843229082
40
0.174610843229082
40
0.195899655513755
40
0.195899655513755
40
0.217188467798428
40
0.217188467798428
40
0.238477280083101
40
0.238477280083101
40
0.259766092367773
40
0.259766092367773
40
0.281054904652446
40
0.281054904652446
40
0.302343716937119
40
0.302343716937119
40
0.323632529221792
40
0.323632529221792
40
0.344921341506465
40
0.344921341506465
40
0.366210153791138
40
0.366210153791138
40
0.387498966075811
40
0.387498966075811
40
0.408787778360484
40
0.408787778360484
40
0.430076590645157
40
0.430076590645157
40
0.472654215214502
40
0.472654215214502
40
0.493943027499175
40
0.493943027499175
40
0.515231839783848
40
0.515231839783848
40
0.536520652068521
40
0.536520652068521
40
0.557809464353194
40
0.557809464353194
40
0.600387088922539
40
0.600387088922539
40
0.621675901207212
40
0.621675901207212
40
0.642964713491884
40
0.642964713491884
40
0.664253525776556
40
0.664253525776556
40
0.685542338061229
40
0.685542338061229
40
0.706831150345901
40
0.706831150345901
40
0.728119962630574
40
0.728119962630574
40
0.749408774915246
40
0.749408774915246
40
0.770697587199918
40
0.770697587199918
40
0.791986399484591
40
0.791986399484591
40
0.813275211769263
40
0.813275211769263
40
0.834564024053936
40
0.834564024053936
40
0.855852836338608
40
0.855852836338608
40
0.877141648623281
40
0.877141648623281
40
0.898430460907953
40
0.898430460907953
40
0.919719273192626
40
0.919719273192626
40
0.941008085477298
40
0.941008085477298
40
0.96229689776197
40
0.96229689776197
40
0.983585710046642
40
0.983585710046642
40
1
40
1
40
1
40
1
41
1
10
52.8909366932729
20
-3.35346042857961
30
0
41
1
10
52.8433756786585
20
-3.36924609784199
30
0
41
1
10
52.7958097949596
20
-3.38488289908594
30
0
41
1
10
52.2772481723006
20
-3.55375658449492
30
0
41
1
10
51.805363051156
20
-3.69409337432481
30
0
41
1
10
51.0989046339202
20
-3.878213276428
30
0
41
1
10
50.863594418289
20
-3.93535764511105
30
0
41
1
10
50.3934088501364
20
-4.04102129695536
30
0
41
1
10
50.1585638594444
20
-4.08953620506026
30
0
41
1
10
49.688095998029
20
-4.17603077512234
30
0
41
1
10
49.4525060473179
20
-4.21377730586613
30
0
41
1
10
48.9808573636901
20
-4.28118468409781
30
0
41
1
10
48.7446854925518
20
-4.31084334007818
30
0
41
1
10
48.273635984702
20
-4.36069498239402
30
0
41
1
10
48.0384052605059
20
-4.38070641212434
30
0
41
1
10
47.5677984811115
20
-4.41014737885067
30
0
41
1
10
47.3325007266061
20
-4.42016513259111
30
0
41
1
10
46.8620073139053
20
-4.43111060370896
30
0
41
1
10
46.6268964778312
20
-4.4318296987999
30
0
41
1
10
46.1562873325046
20
-4.4225837942422
30
0
41
1
10
45.9204281921838
20
-4.41238428091043
30
0
41
1
10
45.4483576363297
20
-4.38286763467772
30
0
41
1
10
45.212914979767
20
-4.36371415389988
30
0
41
1
10
44.7433811629467
20
-4.31602292497928
30
0
41
1
10
44.5094006431135
20
-4.28725081245568
30
0
41
1
10
44.0419143261012
20
-4.21958547747184
30
0
41
1
10
43.8084085367145
20
-4.18142528795082
30
0
41
1
10
43.3418192755955
20
-4.09725631401719
30
0
41
1
10
43.1087497080151
20
-4.05081728493241
30
0
41
1
10
42.6430679169013
20
-3.94829803970776
30
0
41
1
10
42.4104024011689
20
-3.89192533398244
30
0
41
1
10
41.9445467201437
20
-3.77205853945472
30
0
41
1
10
41.7114932606196
20
-3.70869393416876
30
0
41
1
10
41.2449124814526
20
-3.57350970591858
30
0
41
1
10
41.0114304411597
20
-3.50173405000462
30
0
41
1
10
40.5438545331413
20
-3.34923790262164
30
0
41
1
10
40.3096250934357
20
-3.26910510831621
30
0
41
1
10
39.8400322530166
20
-3.10276761461202
30
0
41
1
10
39.6046262568806
20
-3.01612942506759
30
0
41
1
10
39.1323927188843
20
-2.83516581780032
30
0
41
1
10
38.8966679491447
20
-2.74093800875326
30
0
41
1
10
38.1903933935938
20
-2.45015162895453
30
0
41
1
10
37.7198087510301
20
-2.24697906288196
30
0
41
1
10
37.0136396536689
20
-1.92610479533067
30
0
41
1
10
36.7783446350518
20
-1.81643040972568
30
0
41
1
10
36.3070395656117
20
-1.59399090006934
30
0
41
1
10
36.0707651014098
20
-1.48087628535521
30
0
41
1
10
35.5989404405193
20
-1.25201538375029
30
0
41
1
10
35.3632995488582
20
-1.1361828953886
30
0
41
1
10
34.8926500860382
20
-0.901806222414677
30
0
41
1
10
34.657626759603
20
-0.783364469944161
30
0
41
1
10
33.9518622046165
20
-0.42686643571983
30
0
41
1
10
33.4805339300324
20
-0.187254979776839
30
0
41
1
10
32.7729776289595
20
0.175307461919431
30
0
41
1
10
32.5371982721811
20
0.295949399421005
30
0
41
1
10
32.0660264679246
20
0.535175133859241
30
0
41
1
10
31.8305230320607
20
0.653848708273728
30
0
41
1
10
31.3598319978111
20
0.890042417736936
30
0
41
1
10
31.124798756513
20
1.00790559722731
30
0
41
1
10
30.6544028713619
20
1.24091781670964
30
0
41
1
10
30.4189113163701
20
1.35576855141858
30
0
41
1
10
29.9471906157352
20
1.58202029960722
30
0
41
1
10
29.7108131083357
20
1.69365560910919
30
0
41
1
10
29.2392582668226
20
1.91374495511906
30
0
41
1
10
29.0040156507253
20
2.02231543284952
30
0
41
1
10
28.5333011150722
20
2.23266665838366
30
0
41
1
10
28.2978905139908
20
2.33482723196107
30
0
41
1
10
27.8270547754401
20
2.53473340435332
30
0
41
1
10
27.5916507814222
20
2.63232377830892
30
0
41
1
10
27.1208587965196
20
2.822261968058
30
0
41
1
10
26.8852392216222
20
2.91384668271022
30
0
41
1
10
26.4128568146007
20
3.08973726287522
30
0
41
1
10
26.1772125048993
20
3.17441755121823
30
0
41
1
10
25.7071265089108
20
3.33668124134988
30
0
41
1
10
25.472760623505
20
3.41439765736234
30
0
41
1
10
25.0050510246385
20
3.56075572511429
30
0
41
1
10
24.7714484914405
20
3.62921706265755
30
0
41
1
10
24.3045505051099
20
3.75936832284074
30
0
41
1
10
24.071265644474
20
3.82068379867789
30
0
41
1
10
23.6051069399694
20
3.93502858361455
30
0
41
1
10
23.3723181507162
20
3.98775069734742
30
0
41
1
10
22.9062973400555
20
4.0833720923888
30
0
41
1
10
22.6730964451213
20
4.12703057289536
30
0
41
1
10
22.2062353253264
20
4.20597984602063
30
0
41
1
10
21.9726064738318
20
4.24139481843267
30
0
41
1
10
21.5047498448886
20
4.30200200236214
30
0
41
1
10
21.2704557611962
20
4.32667926100351
30
0
41
1
10
20.8006554810672
20
4.36806173617322
30
0
41
1
10
20.5651851907907
20
4.38445760825624
30
0
41
1
10
20.1469451901488
20
4.40495464751791
30
0
41
1
10
19.9649279893124
20
4.41082036000918
30
0
41
1
10
19.7831653605864
20
4.41341684398563
30
0
0
SPLINE
5
B9
100
AcDbEntity
8
1
62
256
6
ByLayer
370
18
48
1
60
0
100
AcDbSpline
70
4
71
3
72
32
73
28
40
0
40
0
40
0
40
0
40
0.0625000000000006
40
0.0625000000000006
40
0.0937500000000011
40
0.0937500000000011
40
0.125000000000002
40
0.125000000000002
40
0.187500000000003
40
0.187500000000003
40
0.250000000000004
40
0.250000000000004
40
0.375000000000003
40
0.375000000000003
40
0.437500000000001
40
0.437500000000001
40
0.5
40
0.5
40
0.625
40
0.625
40
0.6875
40
0.6875
40
0.75
40
0.75
40
0.875
40
0.875
40
1
40
1
40
1
40
1
41
1
10
56.9851546407532
20
1.66636376740709
30
0
41
1
10
56.9735812933955
20
1.52535241442445
30
0
41
1
10
56.9726023399493
20
1.38133097268826
30
0
41
1
10
56.9873397056582
20
1.16069440474254
30
0
41
1
10
56.9950140789698
20
1.08601517256852
30
0
41
1
10
57.0156148381694
20
0.936978181789215
30
0
41
1
10
57.0284788338401
20
0.862841233484858
30
0
41
1
10
57.074302240704
20
0.641506652369429
30
0
41
1
10
57.1144694174084
20
0.495381762842385
30
0
41
1
10
57.2122981589044
20
0.205735701583848
30
0
41
1
10
57.2704135611516
20
0.0614708097460834
30
0
41
1
10
57.4633125399671
20
-0.355758884633104
30
0
41
1
10
57.6172830096252
20
-0.61723810793967
30
0
41
1
10
57.8768414340664
20
-0.990659250897295
30
0
41
1
10
57.9680922913112
20
-1.11169630814669
30
0
41
1
10
58.1557363891623
20
-1.34357909821566
30
0
41
1
10
58.252577336302
20
-1.45505563092698
30
0
41
1
10
58.5510944527327
20
-1.77766192970731
30
0
41
1
10
58.7605871736817
20
-1.97723124407508
30
0
41
1
10
59.0872622836959
20
-2.25819269240509
30
0
41
1
10
59.1985305856279
20
-2.34891911031755
30
0
41
1
10
59.4225796417077
20
-2.52276398938034
30
0
41
1
10
59.53558475699
20
-2.60609625059237
30
0
41
1
10
59.877254902991
20
-2.84637313829032
30
0
41
1
10
60.1085580114762
20
-2.99365909373364
30
0
41
1
10
60.5772063208363
20
-3.26610937366098
30
0
41
1
10
60.8145484613593
20
-3.39128490286808
30
0
41
1
10
61.0546914467672
20
-3.50620582937719
30
0
0
SPLINE
5
BA
100
AcDbEntity
8
1
62
256
6
ByLayer
370
13
48
1
60
0
100
AcDbSpline
70
4
71
3
72
12
73
8
40
0
40
0
40
0
40
0
40
0.434121798494102
40
0.434121798494102
40
0.868243596988204
40
0.868243596988204
40
1
40
1
40
1
40
1
41
1
10
4.20404532852706
20
-4.33916948253537
30
0
41
1
10
4.80568884906791
20
-4.42346997746372
30
0
41
1
10
5.40823155015866
20
-4.47568421288256
30
0
41
1
10
6.60333137939443
20
-4.51522042679375
30
0
41
1
10
7.19746093156695
20
-4.50290405571562
30
0
41
1
10
7.97105156363097
20
-4.44585008552602
30
0
41
1
10
8.15110162656299
20
-4.42966553266697
30
0
41
1
10
8.33115724603121
20
-4.41061414753847
30
0
0
SPLINE
5
BB
100
AcDbEntity
8
1
62
256
6
ByLayer
370
18
48
1
60
0
100
AcDbSpline
70
4
71
3
72
16
73
12
40
0
40
0
40
0
40
0
40
0.472253828402576
40
0.472253828402576
40
0.725066415023484
40
0.725066415023484
40
0.85147270833394
40
0.85147270833394
40
0.977879001644397
40
0.977879001644397
40
1
40
1
40
1
40
1
41
1
10
47.3649509220803
20
-0.0084835492954198
30
0
41
1
10
48.4743114547051
20
-0.589005228713461
30
0
41
1
10
49.57441029661
20
-1.16451156401411
30
0
41
1
10
51.2754083116735
20
-1.98993620933922
30
0
41
1
10
51.8706747762549
20
-2.2670549217753
30
0
41
1
10
52.7709659953391
20
-2.65880925859437
30
0
41
1
10
53.0710786005676
20
-2.7847980985741
30
0
41
1
10
53.6681396881359
20
-3.02503377199955
30
0
41
1
10
53.9656691553806
20
-3.13956243119336
30
0
41
1
10
54.314465341456
20
-3.26715801405325
30
0
41
1
10
54.3663933564039
20
-3.28597888979473
30
0
41
1
10
54.418302966227
20
-3.30461523696101
30
0
0
SPLINE
5
BC
100
AcDbEntity
8
1
62
256
6
ByLayer
370
13
48
1
60
0
100
AcDbSpline
70
4
71
3
72
14
73
10
40
0
40
0
40
0
40
0
40
0.488817944589764
40
0.488817944589764
40
0.616613458442322
40
0.616613458442322
40
0.744408972294879
40
0.744408972294879
40
1
40
1
40
1
40
1
41
1
10
54.418302966239
20
-3.30461523696533
30
0
41
1
10
55.5529042470062
20
-3.71195452222827
30
0
41
1
10
56.6787126754986
20
-4.0311372468145
30
0
41
1
10
58.1107075151746
20
-4.29777059728019
30
0
41
1
10
58.4081805794139
20
-4.34566455384672
30
0
41
1
10
59.0051330565521
20
-4.42611439366974
30
0
41
1
10
59.3049563719717
20
-4.45871235274166
30
0
41
1
10
60.2058922001273
20
-4.53232415597654
30
0
41
1
10
60.8049505362915
20
-4.5489206713915
30
0
41
1
10
61.4048992639674
20
-4.53260369814765
30
0
0
SPLINE
5
BD
100
AcDbEntity
8
1
62
256
6
ByLayer
370
18
48
1
60
0
100
AcDbSpline
70
4
71
3
72
44
73
40
40
0
40
0
40
0
40
0
40
0.102061678024372
40
0.102061678024372
40
0.153092517036558
40
0.153092517036558
40
0.204123356048744
40
0.204123356048744
40
0.25515419506093
40
0.25515419506093
40
0.306185034073115
40
0.306185034073115
40
0.357215873085301
40
0.357215873085301
40
0.408246712097487
40
0.408246712097487
40
0.459277551109673
40
0.459277551109673
40
0.510308390121859
40
0.510308390121859
40
0.561339229134045
40
0.561339229134045
40
0.612370068146231
40
0.612370068146231
40
0.663400907158417
40
0.663400907158417
40
0.714431746170603
40
0.714431746170603
40
0.765462585182789
40
0.765462585182789
40
0.816493424194976
40
0.816493424194976
40
0.867524263207163
40
0.867524263207163
40
0.91855510221935
40
0.91855510221935
40
0.969585941231537
40
0.969585941231537
40
1
40
1
40
1
40
1
41
1
10
11.8655046182179
20
-2.79978107705685
30
0
41
1
10
12.3381123156675
20
-2.9858864771515
30
0
41
1
10
12.8084844346444
20
-3.1582378815979
30
0
41
1
10
13.5106466038814
20
-3.39462710030605
30
0
41
1
10
13.7441230361307
20
-3.46965266770599
30
0
41
1
10
14.2109296369063
20
-3.61171570911728
30
0
41
1
10
14.4442893244095
20
-3.67884146119462
30
0
41
1
10
14.9107446945734
20
-3.80496575669329
30
0
41
1
10
15.1438159936663
20
-3.8638469482168
30
0
41
1
10
15.6098160748584
20
-3.97308915677215
30
0
41
1
10
15.8427456803583
20
-4.02355769025894
30
0
41
1
10
16.3095035633862
20
-4.11584736961905
30
0
41
1
10
16.5432176785121
20
-4.15768701293092
30
0
41
1
10
17.0112264450125
20
-4.23198303931608
30
0
41
1
10
17.2455389028266
20
-4.26443047839791
30
0
41
1
10
17.7149264515551
20
-4.32072221622226
30
0
41
1
10
17.9501516597073
20
-4.34479230588792
30
0
41
1
10
18.4223708314999
20
-4.38161572967141
30
0
41
1
10
18.6589247429119
20
-4.39466293766614
30
0
41
1
10
19.1307604235183
20
-4.41154429112896
30
0
41
1
10
19.3663315585001
20
-4.41546927341685
30
0
41
1
10
19.837381806187
20
-4.4143636192029
30
0
41
1
10
20.0729472394573
20
-4.40829003201003
30
0
41
1
10
20.5443135272003
20
-4.38574743905497
30
0
41
1
10
20.7800980163209
20
-4.36962043124137
30
0
41
1
10
21.2519370545712
20
-4.3285425614431
30
0
41
1
10
21.4883099576302
20
-4.30389978398074
30
0
41
1
10
21.9599714743653
20
-4.24324961208765
30
0
41
1
10
22.1951672779418
20
-4.20772839605982
30
0
41
1
10
22.664653418876
20
-4.12857646085615
30
0
41
1
10
22.8989011598676
20
-4.08480337877288
30
0
41
1
10
23.3664964184939
20
-3.98902914672988
30
0
41
1
10
23.5997599321137
20
-3.9362779273263
30
0
41
1
10
24.0662472141127
20
-3.82197564218134
30
0
41
1
10
24.2994133581289
20
-3.7607414737854
30
0
41
1
10
24.7655640813762
20
-3.63091487676579
30
0
41
1
10
24.9985648747258
20
-3.56268558520753
30
0
41
1
10
25.3703147865666
20
-3.44651252844736
30
0
41
1
10
25.5091982457297
20
-3.40155845199405
30
0
41
1
10
25.6481927521068
20
-3.35527486231374
30
0
0
SPLINE
5
BE
100
AcDbEntity
8
1
62
256
6
ByLayer
370
18
48
1
60
0
100
AcDbSpline
70
4
71
3
72
32
73
28
40
0
40
0
40
0
40
0
40
0.0254140926391148
40
0.0254140926391148
40
0.0950273717363207
40
0.0950273717363207
40
0.164640650833527
40
0.164640650833527
40
0.234253929930732
40
0.234253929930732
40
0.303867209027938
40
0.303867209027938
40
0.373480488125144
40
0.373480488125144
40
0.44309376722235
40
0.44309376722235
40
0.582320325416762
40
0.582320325416762
40
0.651933604513969
40
0.651933604513969
40
0.721546883611176
40
0.721546883611176
40
0.860773441805588
40
0.860773441805588
40
0.930386720902794
40
0.930386720902794
40
1
40
1
40
1
40
1
41
1
10
46.8303089675559
20
4.42977494962366
30
0
41
1
10
46.9163421403855
20
4.42911989889009
30
0
41
1
10
47.0024701763008
20
4.427798593148
30
0
41
1
10
47.3248711687417
20
4.4204561597295
30
0
41
1
10
47.5608151337786
20
4.41048924911559
30
0
41
1
10
48.032132119785
20
4.38119122599153
30
0
41
1
10
48.2673935526145
20
4.36126717409999
30
0
41
1
10
48.737866118836
20
4.3116510710235
30
0
41
1
10
48.973274720596
20
4.28217544632679
30
0
41
1
10
49.4444654806641
20
4.21501636032005
30
0
41
1
10
49.6801897909197
20
4.17737437281997
30
0
41
1
10
50.1519047183449
20
4.09086707472622
30
0
41
1
10
50.3879679735533
20
4.04218515752544
30
0
41
1
10
50.8594656665063
20
3.93634316123988
30
0
41
1
10
51.0951172516155
20
3.87915546970058
30
0
41
1
10
51.801685234215
20
3.69514061489414
30
0
41
1
10
52.2717488598862
20
3.55544513476303
30
0
41
1
10
52.9788819965545
20
3.32531434272042
30
0
41
1
10
53.2149975771803
20
3.24487720333502
30
0
41
1
10
53.6873488679086
20
3.0757536265819
30
0
41
1
10
53.9230306781594
20
2.9873951686792
30
0
41
1
10
54.6291921900657
20
2.71258178992036
30
0
41
1
10
55.0999392717038
20
2.51803886066512
30
0
41
1
10
55.8062832802021
20
2.20924696952957
30
0
41
1
10
56.0416876279687
20
2.10346940513847
30
0
41
1
10
56.5132375139855
20
1.88772294277058
30
0
41
1
10
56.7496339497379
20
1.77781709022418
30
0
41
1
10
56.9851546407532
20
1.66636376740732
30
0
0
SPLINE
5
BF
100
AcDbEntity
8
1
62
256
6
ByLayer
370
18
48
1
60
0
100
AcDbSpline
70
4
71
3
72
46
73
42
40
0
40
0
40
0
40
0
40
0.0323750051861769
40
0.0323750051861769
40
0.0647500103723539
40
0.0647500103723539
40
0.129500020744707
40
0.129500020744707
40
0.161875025930883
40
0.161875025930883
40
0.194250031117059
40
0.194250031117059
40
0.259000041489412
40
0.259000041489412
40
0.291375046675588
40
0.291375046675588
40
0.323750051861765
40
0.323750051861765
40
0.388500062234116
40
0.388500062234116
40
0.453250072606468
40
0.453250072606468
40
0.485625077792644
40
0.485625077792644
40
0.518000082978819
40
0.518000082978819
40
0.582750093351171
40
0.582750093351171
40
0.615125098537347
40
0.615125098537347
40
0.647500103723523
40
0.647500103723523
40
0.777000124468228
40
0.777000124468228
40
0.809375129654405
40
0.809375129654405
40
0.841750134840581
40
0.841750134840581
40
0.906500145212934
40
0.906500145212934
40
1
40
1
40
1
40
1
41
1
10
61.3498202682443
20
-4.66833800301941
30
0
41
1
10
61.0507427067091
20
-4.67563471247112
30
0
41
1
10
60.7517851295889
20
-4.67454364079285
30
0
41
1
10
60.1534755455816
20
-4.6556580650381
30
0
41
1
10
59.8538015016546
20
-4.63783046541815
30
0
41
1
10
58.9557547178604
20
-4.55956754424113
30
0
41
1
10
58.3590949459934
20
-4.47454385315319
30
0
41
1
10
57.4630738029928
20
-4.3000060139251
30
0
41
1
10
57.1642054562731
20
-4.23400440429896
30
0
41
1
10
56.5653104052488
20
-4.08683458014838
30
0
41
1
10
56.265838869966
20
-4.00578951815393
30
0
41
1
10
55.369188524994
20
-3.74217418084024
30
0
41
1
10
54.7726625955279
20
-3.53877166568378
30
0
41
1
10
53.8753350186473
20
-3.19725674796999
30
0
41
1
10
53.5752630666081
20
-3.07713345011396
30
0
41
1
10
52.9779663801394
20
-2.82746029912289
30
0
41
1
10
52.6803943529343
20
-2.69776507363457
30
0
41
1
10
51.7897507820172
20
-2.29608877088199
30
0
41
1
10
51.198693864026
20
-2.01161219976205
30
0
41
1
10
50.0165168181953
20
-1.41891504466497
30
0
41
1
10
49.4254549766916
20
-1.11059087880307
30
0
41
1
10
48.5347728334118
20
-0.63745281985581
30
0
41
1
10
48.2371625224599
20
-0.47803213689491
30
0
41
1
10
47.639841982943
20
-0.156970710552031
30
0
41
1
10
47.3397454465801
20
0.0049236750218427
30
0
41
1
10
46.4422353263233
20
0.488164628656421
30
0
41
1
10
45.8454891924761
20
0.80798551091533
30
0
41
1
10
44.9487727059132
20
1.27685440617421
30
0
41
1
10
44.6491933801863
20
1.43136106031494
30
0
41
1
10
44.0501852987362
20
1.73461296248809
30
0
41
1
10
43.7518757959615
20
1.88282181642165
30
0
41
1
10
42.2643694974265
20
2.60379587127753
30
0
41
1
10
41.0872562884478
20
3.11620154105702
30
0
41
1
10
39.6045360828974
20
3.63606919109293
30
0
41
1
10
39.307436619877
20
3.7340300362635
30
0
41
1
10
38.7113465654822
20
3.91684288173775
30
0
41
1
10
38.4117407283752
20
4.00187747622448
30
0
41
1
10
37.5135955583662
20
4.23480034993671
30
0
41
1
10
36.9194233933874
20
4.35952664885053
30
0
41
1
10
35.4717034728725
20
4.58720615706326
30
0
41
1
10
34.6200756866543
20
4.65577284596603
30
0
41
1
10
33.7639031562288
20
4.65607708383789
30
0
0
SPLINE
5
C0
100
AcDbEntity
8
1
62
256
6
ByLayer
370
18
48
1
60
0
100
AcDbSpline
70
4
71
3
72
14
73
10
40
0
40
0
40
0
40
0
40
0.299597172915307
40
0.299597172915307
40
0.474697879686479
40
0.474697879686479
40
0.649798586457653
40
0.649798586457653
40
1
40
1
40
1
40
1
41
1
10
9.25099852877656
20
-4.41651439555309
30
0
41
1
10
8.74367706087889
20
-4.49972121686417
30
0
41
1
10
8.23492167776277
20
-4.56041299628254
30
0
41
1
10
7.42380718987687
20
-4.61869821063826
30
0
41
1
10
7.12336384977368
20
-4.63200429787335
30
0
41
1
10
6.52461470557935
20
-4.64183897755549
30
0
41
1
10
6.2256765266167
20
-4.6384272916051
30
0
41
1
10
5.32909140722518
20
-4.60340862219232
30
0
41
1
10
4.73163295459437
20
-4.54705407291044
30
0
41
1
10
4.13189187982667
20
-4.45813054916212
30
0
0
SPLINE
5
C1
100
AcDbEntity
8
1
62
256
6
ByLayer
370
18
48
1
60
0
100
AcDbSpline
70
4
71
3
72
62
73
58
40
0
40
0
40
0
40
0
40
0.0624999999999943
40
0.0624999999999943
40
0.093749999999992
40
0.093749999999992
40
0.12499999999999
40
0.12499999999999
40
0.156249999999987
40
0.156249999999987
40
0.187499999999985
40
0.187499999999985
40
0.203124999999984
40
0.203124999999984
40
0.218749999999983
40
0.218749999999983
40
0.234374999999982
40
0.234374999999982
40
0.249999999999981
40
0.249999999999981
40
0.26562499999998
40
0.26562499999998
40
0.281249999999978
40
0.281249999999978
40
0.296874999999977
40
0.296874999999977
40
0.312499999999976
40
0.312499999999976
40
0.343749999999974
40
0.343749999999974
40
0.374999999999972
40
0.374999999999972
40
0.39062499999997
40
0.39062499999997
40
0.39453124999997
40
0.39453124999997
40
0.39843749999997
40
0.39843749999997
40
0.402343749999971
40
0.402343749999971
40
0.406249999999971
40
0.406249999999971
40
0.421874999999972
40
0.421874999999972
40
0.437499999999973
40
0.437499999999973
40
0.499999999999976
40
0.499999999999976
40
0.56249999999998
40
0.56249999999998
40
0.624999999999983
40
0.624999999999983
40
0.749999999999989
40
0.749999999999989
40
0.874999999999994
40
0.874999999999994
40
1
40
1
40
1
40
1
41
1
10
4.00063515711946
20
1.42222440983645
30
0
41
1
10
3.75547307941662
20
1.59188907904618
30
0
41
1
10
3.5157979275715
20
1.76456242405104
30
0
41
1
10
3.16958374208096
20
2.03229453010366
30
0
41
1
10
3.05642514110261
20
2.12301584050556
30
0
41
1
10
2.8362925807503
20
2.30881037085811
30
0
41
1
10
2.72980637031583
20
2.40347261187105
30
0
41
1
10
2.52877907759768
20
2.59646753973789
30
0
41
1
10
2.43340993746557
20
2.69561768177846
30
0
41
1
10
2.26307992511519
20
2.89678998256167
30
0
41
1
10
2.18790147963443
20
2.99868840495086
30
0
41
1
10
2.09829154092256
20
3.15530255860878
30
0
41
1
10
2.07234981859804
20
3.20831446459957
30
0
41
1
10
2.03172600353224
20
3.31277399773728
30
0
41
1
10
2.01681069241636
20
3.36457811662987
30
0
41
1
10
1.99971484019116
20
3.46736042664028
30
0
41
1
10
1.9977234199954
20
3.5183568159481
30
0
41
1
10
2.00780282647935
20
3.6152161581762
30
0
41
1
10
2.01972982255009
20
3.66164270423298
30
0
41
1
10
2.0573391280775
20
3.75068566372479
30
0
41
1
10
2.08315018902297
20
3.79316769892785
30
0
41
1
10
2.14546142034024
20
3.87158643414321
30
0
41
1
10
2.1821225444757
20
3.90800414333566
30
0
41
1
10
2.26498490829223
20
3.97617600053755
30
0
41
1
10
2.31063061104649
20
4.00744861563379
30
0
41
1
10
2.40771491102041
20
4.06503977020446
30
0
41
1
10
2.45931662011077
20
4.09147506129176
30
0
41
1
10
2.62169509653432
20
4.1651487336427
30
0
41
1
10
2.7405447198795
20
4.20696614853097
30
0
41
1
10
2.987886055443
20
4.27927446581128
30
0
41
1
10
3.11693676862134
20
4.30999280379615
30
0
41
1
10
3.3161452990164
20
4.35045801754632
30
0
41
1
10
3.3833472664011
20
4.36296553552
30
0
41
1
10
3.46822346183745
20
4.37757654466313
30
0
41
1
10
3.48524252572673
20
4.38044736548807
30
0
41
1
10
3.51936559962377
20
4.38609058225478
30
0
41
1
10
3.53600940584522
20
4.38914614760202
30
0
41
1
10
3.57182031234936
20
4.39365983754277
30
0
41
1
10
3.59109548373897
20
4.39504914019497
30
0
41
1
10
3.62871718633841
20
4.39663277392597
30
0
41
1
10
3.64750901768312
20
4.39678307851568
30
0
41
1
10
3.74142214068891
20
4.39598952783805
30
0
41
1
10
3.81654060519188
20
4.39494801771659
30
0
41
1
10
3.96677616226691
20
4.39280961756043
30
0
41
1
10
4.04189389439333
20
4.39158309088918
30
0
41
1
10
4.41718399123033
20
4.38465662896402
30
0
41
1
10
4.71667752951339
20
4.37658817531235
30
0
41
1
10
5.31422731454313
20
4.35483854026657
30
0
41
1
10
5.61275952947233
20
4.34113067933961
30
0
41
1
10
6.20558424017597
20
4.30732289113496
30
0
41
1
10
6.49987329152475
20
4.28722783423379
30
0
41
1
10
7.37666773909595
20
4.21592003897186
30
0
41
1
10
7.95304931195483
20
4.15366224897508
30
0
41
1
10
9.09145766536585
20
3.99062335900993
30
0
41
1
10
9.65349718700617
20
3.8897628916107
30
0
41
1
10
10.7665613397736
20
3.64205851097722
30
0
41
1
10
11.317621996825
20
3.49519687519677
30
0
41
1
10
11.8655046182179
20
3.32390218402025
30
0
0
SPLINE
5
C2
100
AcDbEntity
8
1
62
256
6
ByLayer
370
18
48
1
60
0
100
AcDbSpline
70
4
71
3
72
12
73
8
40
0
40
0
40
0
40
0
40
0.249999999999999
40
0.249999999999999
40
0.499999999999998
40
0.499999999999998
40
1
40
1
40
1
40
1
41
1
10
4.13189187982658
20
-4.45813054916209
30
0
41
1
10
4.11389374969667
20
-4.45546196897081
30
0
41
1
10
4.09743013730383
20
-4.45222248897608
30
0
41
1
10
4.06746748072433
20
-4.44455534072358
30
0
41
1
10
4.05396945561336
20
-4.44008862634806
30
0
41
1
10
4.02020466843285
20
-4.42543550898645
30
0
41
1
10
4.00585117116847
20
-4.41364966878069
30
0
41
1
10
4.00146577654007
20
-4.40092224864432
30
0
0
SPLINE
5
C3
100
AcDbEntity
8
1
62
256
6
ByLayer
370
18
48
1
60
0
100
AcDbSpline
70
4
71
3
72
14
73
10
40
0
40
0
40
0
40
0
40
0.324097106478778
40
0.324097106478778
40
0.486145659718167
40
0.486145659718167
40
0.648194212957557
40
0.648194212957557
40
1
40
1
40
1
40
1
41
1
10
61.4142498310716
20
-4.43789253057406
30
0
41
1
10
60.8147966954805
20
-4.44649991332349
30
0
41
1
10
60.2161968391288
20
-4.42297158095229
30
0
41
1
10
59.3160261745403
20
-4.3402741664425
30
0
41
1
10
59.0166479225035
20
-4.30490005093358
30
0
41
1
10
58.4202887238029
20
-4.21934372491714
30
0
41
1
10
58.1230600356555
20
-4.16913932627301
30
0
41
1
10
57.1825974901616
20
-3.98735048657957
30
0
41
1
10
56.5415893169957
20
-3.82926367041583
30
0
41
1
10
55.9002400225667
20
-3.6412105675208
30
0
0
SPLINE
5
C4
100
AcDbEntity
8
1
62
256
6
ByLayer
370
13
48
1
60
0
100
AcDbSpline
70
4
71
3
72
22
73
18
40
0
40
0
40
0
40
0
40
0.132951095472802
40
0.132951095472802
40
0.205641309463186
40
0.205641309463186
40
0.278331523453569
40
0.278331523453569
40
0.423711951434337
40
0.423711951434337
40
0.71447280739587
40
0.71447280739587
40
0.787163021386254
40
0.787163021386254
40
0.859853235376638
40
0.859853235376638
40
1
40
1
40
1
40
1
41
1
10
55.9002396139431
20
-3.64121044770636
30
0
41
1
10
55.3599174618835
20
-3.48277998712146
30
0
41
1
10
54.8193531924453
20
-3.30308042116738
30
0
41
1
10
53.9798931745497
20
-2.99561884488824
30
0
41
1
10
53.6824950468778
20
-2.88125179057769
30
0
41
1
10
53.0857325167231
20
-2.64188277155427
30
0
41
1
10
52.7857172795639
20
-2.51658042680182
30
0
41
1
10
51.8864807650841
20
-2.12802263238447
30
0
41
1
10
51.2917049222175
20
-1.8539627085863
30
0
41
1
10
49.5135393842988
20
-1.00228171608242
30
0
41
1
10
48.3365105186008
20
-0.394602797147002
30
0
41
1
10
46.8506042475206
20
0.365100344280791
30
0
41
1
10
46.5526834592503
20
0.51702128591171
30
0
41
1
10
45.9546238435097
20
0.819373002596421
30
0
41
1
10
45.653836124615
20
0.970218026110445
30
0
41
1
10
44.7776483556403
20
1.40410035184115
30
0
41
1
10
44.2043114115043
20
1.68011239496275
30
0
41
1
10
43.6324407397972
20
1.94286250902749
30
0
0
SPLINE
5
C5
100
AcDbEntity
8
1
62
256
6
ByLayer
370
18
48
1
60
0
100
AcDbSpline
70
4
71
3
72
10
73
6
40
0
40
0
40
0
40
0
40
0.273780962518793
40
0.273780962518793
40
1
40
1
40
1
40
1
41
1
10
6.72449714429538
20
-4.40558794205467
30
0
41
1
10
6.50018106810549
20
-4.40491132597228
30
0
41
1
10
6.27553943129013
20
-4.39981212145165
30
0
41
1
10
5.45331661259038
20
-4.36493432128989
30
0
41
1
10
4.85137596132998
20
-4.30788645045021
30
0
41
1
10
4.25032495735383
20
-4.21965172731109
30
0
0
SPLINE
5
C6
100
AcDbEntity
8
1
62
256
6
ByLayer
370
18
48
1
60
0
100
AcDbSpline
70
4
71
3
72
24
73
20
40
0
40
0
40
0
40
0
40
0.125
40
0.125
40
0.1875
40
0.1875
40
0.25
40
0.25
40
0.375
40
0.375
40
0.5
40
0.5
40
0.625
40
0.625
40
0.75
40
0.75
40
0.875
40
0.875
40
1
40
1
40
1
40
1
41
1
10
4.2513389178813
20
1.34250656242511
30
0
41
1
10
4.54711290634898
20
1.13270598186082
30
0
41
1
10
4.85039565444705
20
0.930005489270116
30
0
41
1
10
5.31225563042241
20
0.631669970453828
30
0
41
1
10
5.4674050061821
20
0.533224398705386
30
0
41
1
10
5.7797159319083
20
0.337915738118142
30
0
41
1
10
5.9371313154538
20
0.240900696152096
30
0
41
1
10
6.40958087641445
20
-0.0466441510762081
30
0
41
1
10
6.72504157851512
20
-0.233873536632274
30
0
41
1
10
7.35678675503104
20
-0.600734228062009
30
0
41
1
10
7.67307081133265
20
-0.780622580412739
30
0
41
1
10
8.30699855993637
20
-1.13155125646389
30
0
41
1
10
8.62465142520909
20
-1.30271233947607
30
0
41
1
10
9.26237553304867
20
-1.63556611168241
30
0
41
1
10
9.58245244644934
20
-1.7971082407646
30
0
41
1
10
10.2266280811163
20
-2.10766596307485
30
0
41
1
10
10.5507218541129
20
-2.25682961741151
30
0
41
1
10
11.2046964992119
20
-2.5407498030942
30
0
41
1
10
11.5341312321522
20
-2.67500669904644
30
0
41
1
10
11.8655046182179
20
-2.79978107705685
30
0
0
SPLINE
5
C7
100
AcDbEntity
8
1
62
256
6
ByLayer
370
18
48
1
60
0
100
AcDbSpline
70
4
71
3
72
10
73
6
40
0
40
0
40
0
40
0
40
0.5
40
0.5
40
1
40
1
40
1
40
1
41
1
10
61.5918745539229
20
-4.54681656288557
30
0
41
1
10
61.5474129187825
20
-4.57990599925554
30
0
41
1
10
61.504969514934
20
-4.60684044383518
30
0
41
1
10
61.4240911872175
20
-4.64768700285944
30
0
41
1
10
61.3855411787956
20
-4.66155530537696
30
0
41
1
10
61.3498202682443
20
-4.66833800301941
30
0
0
SPLINE
5
C8
100
AcDbEntity
8
1
62
256
6
ByLayer
370
18
48
1
60
0
100
AcDbSpline
70
4
71
3
72
14
73
10
40
0
40
0
40
0
40
0
40
0.25
40
0.25
40
0.5
40
0.5
40
0.75
40
0.75
40
1
40
1
40
1
40
1
41
1
10
4.00063515712327
20
1.42222440983812
30
0
41
1
10
4.00265067152995
20
1.43150197334057
30
0
41
1
10
4.00960589405764
20
1.43838540548879
30
0
41
1
10
4.03597174488021
20
1.4436285345983
30
0
41
1
10
4.05589033640143
20
1.44176247114564
30
0
41
1
10
4.10647989460574
20
1.42628880719869
30
0
41
1
10
4.1360343801669
20
1.41300825619754
30
0
41
1
10
4.19509480345474
20
1.38054187925874
30
0
41
1
10
4.22388726910862
20
1.3619787678081
30
0
41
1
10
4.25133891734194
20
1.3425065628077
30
0
0
SPLINE
5
C9
100
AcDbEntity
8
1
62
256
6
ByLayer
370
18
48
1
60
0
100
AcDbSpline
70
4
71
3
72
86
73
82
40
0
40
0
40
0
40
0
40
0.0049987018410139
40
0.0049987018410139
40
0.0279270804902869
40
0.0279270804902869
40
0.0508554591395599
40
0.0508554591395599
40
0.096712216438106
40
0.096712216438106
40
0.119640595087379
40
0.119640595087379
40
0.142568973736653
40
0.142568973736653
40
0.165497352385926
40
0.165497352385926
40
0.1884257310352
40
0.1884257310352
40
0.211354109684474
40
0.211354109684474
40
0.234282488333747
40
0.234282488333747
40
0.257210866983021
40
0.257210866983021
40
0.280139245632294
40
0.280139245632294
40
0.325996002930841
40
0.325996002930841
40
0.348924381580114
40
0.348924381580114
40
0.371852760229387
40
0.371852760229387
40
0.39478113887866
40
0.39478113887866
40
0.417709517527933
40
0.417709517527933
40
0.440637896177206
40
0.440637896177206
40
0.463566274826479
40
0.463566274826479
40
0.486494653475752
40
0.486494653475752
40
0.509423032125025
40
0.509423032125025
40
0.555279789423573
40
0.555279789423573
40
0.578208168072846
40
0.578208168072846
40
0.60113654672212
40
0.60113654672212
40
0.624064925371393
40
0.624064925371393
40
0.646993304020667
40
0.646993304020667
40
0.66992168266994
40
0.66992168266994
40
0.692850061319214
40
0.692850061319214
40
0.715778439968487
40
0.715778439968487
40
0.738706818617761
40
0.738706818617761
40
0.784563575916308
40
0.784563575916308
40
0.807491954565581
40
0.807491954565581
40
0.830420333214855
40
0.830420333214855
40
0.853348711864128
40
0.853348711864128
40
0.876277090513402
40
0.876277090513402
40
0.899205469162675
40
0.899205469162675
40
0.922133847811949
40
0.922133847811949
40
0.945062226461222
40
0.945062226461222
40
0.967990605110496
40
0.967990605110496
40
1
40
1
40
1
40
1
41
1
10
25.6864802140323
20
3.3320006297663
30
0
41
1
10
25.7428547733456
20
3.3532268917325
30
0
41
1
10
25.7992229158163
20
3.37420747841742
30
0
41
1
10
26.1141857987564
20
3.48994822886991
30
0
41
1
10
26.3726222514887
20
3.57990107245797
30
0
41
1
10
26.8887221287963
20
3.75039110471317
30
0
41
1
10
27.1461938990212
20
3.83112154880408
30
0
41
1
10
27.9181573645646
20
4.05806480030665
30
0
41
1
10
28.4347652181827
20
4.18674298216823
30
0
41
1
10
29.2101361120414
20
4.34798372791821
30
0
41
1
10
29.4685992117305
20
4.39635100746531
30
0
41
1
10
29.9881213810797
20
4.480519932763
30
0
41
1
10
30.2488548903111
20
4.51659249800016
30
0
41
1
10
30.7718252969781
20
4.57678456061691
30
0
41
1
10
31.0324311987328
20
4.60079467576844
30
0
41
1
10
31.5530497908335
20
4.63610405751234
30
0
41
1
10
31.8136089121071
20
4.64732514339454
30
0
41
1
10
32.3348526507344
20
4.65725995542564
30
0
41
1
10
32.5955384830835
20
4.6559794618878
30
0
41
1
10
33.1164519949213
20
4.64066476612854
30
0
41
1
10
33.3769641633319
20
4.62654970512085
30
0
41
1
10
33.899534341196
20
4.58595052798719
30
0
41
1
10
34.1601550349443
20
4.55954388170562
30
0
41
1
10
34.67965541478
20
4.49459160968084
30
0
41
1
10
34.93823010454
20
4.45584813483816
30
0
41
1
10
35.7129677757423
20
4.32212969637186
30
0
41
1
10
36.2295978425369
20
4.21107014541874
30
0
41
1
10
37.0018674338791
20
4.00974027712331
30
0
41
1
10
37.2590828289493
20
3.93692868679227
30
0
41
1
10
37.7750894401727
20
3.78199159617478
30
0
41
1
10
38.0335662657508
20
3.69959080328206
30
0
41
1
10
38.5510374225642
20
3.52435013277449
30
0
41
1
10
38.8097122444026
20
3.43106111167052
30
0
41
1
10
39.3288282351247
20
3.23527201251014
30
0
41
1
10
39.5898376925537
20
3.13308142879296
30
0
41
1
10
40.112443758227
20
2.92026566905483
30
0
41
1
10
40.3728681177974
20
2.81017298495698
30
0
41
1
10
40.8913471349164
20
2.58164546092982
30
0
41
1
10
41.1497973930516
20
2.46382085346693
30
0
41
1
10
41.6668067093381
20
2.22393623657732
30
0
41
1
10
41.9250800349541
20
2.10142141295046
30
0
41
1
10
42.4407504858275
20
1.85057397552077
30
0
41
1
10
42.6977941859372
20
1.72160615307266
30
0
41
1
10
43.4697779464263
20
1.32966507812662
30
0
41
1
10
43.9862908456383
20
1.063153688992
30
0
41
1
10
44.7609335398329
20
0.649991909793016
30
0
41
1
10
45.01956474651
20
0.510824441997073
30
0
41
1
10
45.5391686686868
20
0.232528132558855
30
0
41
1
10
45.800053059658
20
0.0927748373470081
30
0
41
1
10
46.3224520364989
20
-0.188157905479983
30
0
41
1
10
46.582132579611
20
-0.329260096181173
30
0
41
1
10
47.1007955306034
20
-0.608121925317704
30
0
41
1
10
47.359863262738
20
-0.745745712787482
30
0
41
1
10
47.8770287946284
20
-1.01836115694056
30
0
41
1
10
48.1351425737757
20
-1.15332289653907
30
0
41
1
10
48.6498934170544
20
-1.42149121020884
30
0
41
1
10
48.9070912247776
20
-1.55365473929538
30
0
41
1
10
49.4223387151125
20
-1.81206407210124
30
0
41
1
10
49.6801440527347
20
-1.93875795432689
30
0
41
1
10
50.195722201112
20
-2.18778567958896
30
0
41
1
10
50.4531233928498
20
-2.31072509227937
30
0
41
1
10
51.2278843387833
20
-2.66845836205672
30
0
41
1
10
51.7479676685962
20
-2.89234379020061
30
0
41
1
10
52.5304208625337
20
-3.20957068520215
30
0
41
1
10
52.7904104391795
20
-3.31048372236879
30
0
41
1
10
53.3097566891596
20
-3.50165399385992
30
0
41
1
10
53.5688975638146
20
-3.59223652355658
30
0
41
1
10
54.0857356670704
20
-3.76397051810272
30
0
41
1
10
54.3430605729106
20
-3.84548491128706
30
0
41
1
10
54.8581736588716
20
-3.9968782613706
30
0
41
1
10
55.1159043825785
20
-4.06689581392317
30
0
41
1
10
55.6312244756208
20
-4.19621641535406
30
0
41
1
10
55.8888056041929
20
-4.25552361728256
30
0
41
1
10
56.4034533220165
20
-4.36343593194417
30
0
41
1
10
56.6611763162423
20
-4.41153077806169
30
0
41
1
10
57.1782187565305
20
-4.49561810093584
30
0
41
1
10
57.4373399255161
20
-4.53175653727266
30
0
41
1
10
57.9564117749727
20
-4.59219625369315
30
0
41
1
10
58.2160122132966
20
-4.61656173584166
30
0
41
1
10
58.8414392709776
20
-4.65946014890702
30
0
41
1
10
59.2051611526206
20
-4.67202392112932
30
0
41
1
10
59.5676710427248
20
-4.67228570998225
30
0
0
SPLINE
5
CA
100
AcDbEntity
8
1
62
256
6
ByLayer
370
18
48
1
60
0
100
AcDbSpline
70
4
71
3
72
16
73
12
40
0
40
0
40
0
40
0
40
0.268572883287376
40
0.268572883287376
40
0.515423358228025
40
0.515423358228025
40
0.638848595698349
40
0.638848595698349
40
0.762273833168673
40
0.762273833168673
40
1
40
1
40
1
40
1
41
1
10
20.1510339312332
20
-0.0012044048755797
30
0
41
1
10
20.797027332297
20
-0.337958917144391
30
0
41
1
10
21.4413885576838
20
-0.673995705877502
30
0
41
1
10
22.6815231740373
20
-1.3044890181271
30
0
41
1
10
23.2769281704363
20
-1.60026828523172
30
0
41
1
10
24.1762987719746
20
-2.02679941863102
30
0
41
1
10
24.4775200755027
20
-2.16623319286899
30
0
41
1
10
25.076478465043
20
-2.43520640727866
30
0
41
1
10
25.374945590316
20
-2.56514688535566
30
0
41
1
10
26.2463260007799
20
-2.93068416801836
30
0
41
1
10
26.8175012681711
20
-3.15252486668601
30
0
41
1
10
27.3886165570861
20
-3.35252004327037
30
0
0
SPLINE
5
CB
100
AcDbEntity
8
1
62
256
6
ByLayer
370
13
48
1
60
0
100
AcDbSpline
70
4
71
3
72
16
73
12
40
0
40
0
40
0
40
0
40
0.231700103502466
40
0.231700103502466
40
0.343420640791454
40
0.343420640791454
40
0.455141178080443
40
0.455141178080443
40
0.678582252658419
40
0.678582252658419
40
1
40
1
40
1
40
1
41
1
10
27.3886165569625
20
-3.35252004322712
30
0
41
1
10
28.003572470882
20
-3.56786748530229
30
0
41
1
10
28.6184588446197
20
-3.75788681525265
30
0
41
1
10
29.5340687004539
20
-3.99630205849937
30
0
41
1
10
29.8325865599845
20
-4.06708812325491
30
0
41
1
10
30.4316351443944
20
-4.19429468282195
30
0
41
1
10
30.7326218293088
20
-4.25077189198993
30
0
41
1
10
31.6337169068952
20
-4.39646014902485
30
0
41
1
10
32.2334142828956
20
-4.46235899554844
30
0
41
1
10
33.6996368948845
20
-4.54399666053976
30
0
41
1
10
34.5544978257248
20
-4.52417800900346
30
0
41
1
10
35.4072454397856
20
-4.4399304119973
30
0
0
SPLINE
5
CC
100
AcDbEntity
8
1
62
256
6
ByLayer
370
18
48
1
60
0
100
AcDbSpline
70
4
71
3
72
43
73
39
40
0
40
0
40
0
40
0
40
0.0732306939384381
40
0.0732306939384381
40
0.137522050085664
40
0.137522050085664
40
0.20181340623289
40
0.20181340623289
40
0.330396118527341
40
0.330396118527341
40
0.458978830821793
40
0.458978830821793
40
0.523270186969018
40
0.523270186969018
40
0.555415865042632
40
0.555415865042632
40
0.563452284561034
40
0.567470494320236
40
0.567470494320236
40
0.571488704079438
40
0.571488704079438
40
0.579525123597841
40
0.579525123597841
40
0.583543333357043
40
0.583543333357043
40
0.587561543116244
40
0.587561543116244
40
0.716144255410698
40
0.716144255410698
40
0.780435611557924
40
0.780435611557924
40
0.844726967705151
40
0.844726967705151
40
0.909018323852377
40
0.909018323852377
40
0.973309679999604
40
0.973309679999604
40
1
40
1
40
1
40
1
41
1
10
11.8655046182179
20
3.32390218402
30
0
41
1
10
11.8655046182179
20
3.20068005942119
30
0
41
1
10
11.8655046182179
20
3.07086592103957
30
0
41
1
10
11.8655046182179
20
2.81531599100717
30
0
41
1
10
11.8655046182179
20
2.69098528754773
30
0
41
1
10
11.8655046182179
20
2.43270740323766
30
0
41
1
10
11.8655046182179
20
2.29836331527366
30
0
41
1
10
11.8655046182179
20
1.88822485962399
30
0
41
1
10
11.8655046182179
20
1.60336314807031
30
0
41
1
10
11.8655046182179
20
1.01253785434977
30
0
41
1
10
11.8655046182179
20
0.706561835774352
30
0
41
1
10
11.8655046182179
20
0.231817186206143
30
0
41
1
10
11.8655046182179
20
0.0717293473077802
30
0
41
1
10
11.8655046182179
20
-0.170185836094362
30
0
41
1
10
11.8655046182179
20
-0.251193789914851
30
0
41
1
10
11.8655046182179
20
-0.352819606145942
30
0
41
1
10
11.8655046182179
20
-0.383330894391548
30
0
41
1
10
11.8655046182179
20
-0.413877427310069
30
0
41
1
10
11.8655046182179
20
-0.434249607958179
30
0
41
1
10
11.8655046182179
20
-0.444382782152928
30
0
41
1
10
11.8655046182179
20
-0.475633191897856
30
0
41
1
10
11.8655046182184
20
-0.496627693177203
30
0
41
1
10
11.8655046182184
20
-0.524353173729082
30
0
41
1
10
11.8655046182179
20
-0.533246703204242
30
0
41
1
10
11.8655046182179
20
-0.551304010398383
30
0
41
1
10
11.8655046182179
20
-0.560320688204826
30
0
41
1
10
11.8655046182179
20
-0.857475193335688
30
0
41
1
10
11.8655046182179
20
-1.13292367019233
30
0
41
1
10
11.8655046182179
20
-1.5207280703487
30
0
41
1
10
11.8655046182179
20
-1.64593238862551
30
0
41
1
10
11.8655046182179
20
-1.88513827172574
30
0
41
1
10
11.865504618218
20
-1.99952645753277
30
0
41
1
10
11.865504618218
20
-2.21764413286698
30
0
41
1
10
11.8655046182179
20
-2.32137516563498
30
0
41
1
10
11.8655046182179
20
-2.5176773878602
30
0
41
1
10
11.8655046182179
20
-2.61065474743583
30
0
41
1
10
11.8655046182179
20
-2.73218329460062
30
0
41
1
10
11.8655046182179
20
-2.76660372658267
30
0
41
1
10
11.8655046182179
20
-2.79978107705688
30
0
0
SPLINE
5
CD
100
AcDbEntity
8
1
62
256
6
ByLayer
370
18
48
1
60
0
100
AcDbSpline
70
4
71
3
72
8
73
4
40
0
40
0
40
0
40
0
40
1
40
1
40
1
40
1
41
1
10
61.3498202682443
20
4.66833800301941
30
0
41
1
10
61.2155359824814
20
4.67161418800674
30
0
41
1
10
61.081254801581
20
4.67319993851874
30
0
41
1
10
60.9469480026667
20
4.67309693253182
30
0
0
SPLINE
5
CE
100
AcDbEntity
8
1
62
256
6
ByLayer
370
18
48
1
60
0
100
AcDbSpline
70
4
71
3
72
50
73
46
40
0
40
0
40
0
40
0
40
0.0021575629747672
40
0.0021575629747672
40
0.0321237596400683
40
0.0321237596400683
40
0.0620899563053693
40
0.0620899563053693
40
0.122022349635972
40
0.122022349635972
40
0.151988546301274
40
0.151988546301274
40
0.181954742966576
40
0.181954742966576
40
0.211920939631877
40
0.211920939631877
40
0.241887136297179
40
0.241887136297179
40
0.361751922958389
40
0.361751922958389
40
0.421684316288994
40
0.421684316288994
40
0.451650512954295
40
0.451650512954295
40
0.481616709619597
40
0.481616709619597
40
0.541549102950202
40
0.541549102950202
40
0.601481496280806
40
0.601481496280806
40
0.631447692946108
40
0.631447692946108
40
0.66141388961141
40
0.66141388961141
40
0.721346282942014
40
0.721346282942014
40
0.841211069603223
40
0.841211069603223
40
0.871177266268525
40
0.871177266268525
40
0.901143462933827
40
0.901143462933827
40
0.96107585626443
40
0.96107585626443
40
1
40
1
40
1
40
1
41
1
10
36.3752819894692
20
-4.44503339888496
30
0
41
1
10
36.3538391864879
20
-4.4484670843527
30
0
41
1
10
36.3323919775548
20
-4.45186053737717
30
0
41
1
10
36.0129989195325
20
-4.50178445786105
30
0
41
1
10
35.7139515324796
20
-4.54059575129381
30
0
41
1
10
35.1142852470103
20
-4.60188497997149
30
0
41
1
10
34.8150286340234
20
-4.62424180203263
30
0
41
1
10
33.9179770503121
20
-4.66639315128683
30
0
41
1
10
33.3208817884301
20
-4.66124107424921
30
0
41
1
10
32.422245077298
20
-4.60352344938136
30
0
41
1
10
32.1221707487668
20
-4.57591805016287
30
0
41
1
10
31.5235806581687
20
-4.50456008644915
30
0
41
1
10
31.2246469511495
20
-4.46079543029552
30
0
41
1
10
30.6268052852097
20
-4.35752197335168
30
0
41
1
10
30.3279083600575
20
-4.29800566406857
30
0
41
1
10
29.7294363155141
20
-4.16366049417067
30
0
41
1
10
29.4292774082696
20
-4.08867864257877
30
0
41
1
10
27.9323540837634
20
-3.67883716064119
30
0
41
1
10
26.75262368542
20
-3.24114249929718
30
0
41
1
10
24.9765197103525
20
-2.46713271536984
30
0
41
1
10
24.3833328738919
20
-2.18969419141652
30
0
41
1
10
23.4878298137938
20
-1.75029119147652
30
0
41
1
10
23.1877375288475
20
-1.59968383768779
30
0
41
1
10
22.5883958939373
20
-1.29371915418596
30
0
41
1
10
22.2892261024641
20
-1.13840505960587
30
0
41
1
10
21.3920957782752
20
-0.667537898210838
30
0
41
1
10
20.7946427222083
20
-0.346820161205983
30
0
41
1
10
19.5949467474572
20
0.297022441414128
30
0
41
1
10
18.9967173793159
20
0.618365533595835
30
0
41
1
10
18.0995665528286
20
1.08982140820154
30
0
41
1
10
17.8004872700757
20
1.24540075934988
30
0
41
1
10
17.2014519844185
20
1.5519085045519
30
0
41
1
10
16.9010146492646
20
1.70305255331834
30
0
41
1
10
16.0040688947044
20
2.14418570882665
30
0
41
1
10
15.4102964730604
20
2.42301707100953
30
0
41
1
10
13.6327763869197
20
3.20070278190838
30
0
41
1
10
12.4532021568165
20
3.641231491377
30
0
41
1
10
10.9577014422436
20
4.05523530753709
30
0
41
1
10
10.6570319022791
20
4.13127587938763
30
0
41
1
10
10.0594909530089
20
4.26740247986044
30
0
41
1
10
9.76186602720631
20
4.32770320954171
30
0
41
1
10
8.87125619706271
20
4.48494478845271
30
0
41
1
10
8.2806077837684
20
4.55827915486691
30
0
41
1
10
7.3070267984962
20
4.62628966724932
30
0
41
1
10
6.92384390478824
20
4.63951475500667
30
0
41
1
10
6.54008162004223
20
4.63907716159977
30
0
0
SPLINE
5
CF
100
AcDbEntity
8
1
62
256
6
ByLayer
370
18
48
1
60
0
100
AcDbSpline
70
4
71
3
72
12
73
8
40
0
40
0
40
0
40
0
40
0.25
40
0.25
40
0.5
40
0.5
40
1
40
1
40
1
40
1
41
1
10
61.5918745539186
20
-4.54681656290029
30
0
41
1
10
61.6959731027101
20
-4.25235270558926
30
0
41
1
10
61.8026715935098
20
-3.95864498169851
30
0
41
1
10
62.0205257278251
20
-3.3725871057124
30
0
41
1
10
62.1316851685613
20
-3.08023778305122
30
0
41
1
10
62.4708859117085
20
-2.20499976561939
30
0
41
1
10
62.7050022065038
20
-1.62329586605782
30
0
41
1
10
62.9444903050185
20
-1.04630160385207
30
0
0
SPLINE
5
D0
100
AcDbEntity
8
1
62
256
6
ByLayer
370
18
48
1
60
0
100
AcDbSpline
70
4
71
3
72
8
73
4
40
0
40
0
40
0
40
0
40
1
40
1
40
1
40
1
41
1
10
4.00146577654047
20
-4.40092224863636
30
0
41
1
10
4.0008622832456
20
-4.39917077280285
30
0
41
1
10
4.00055745910959
20
-4.39739709670167
30
0
41
1
10
4.00055755859449
20
-4.39561655262477
30
0
0
SPLINE
5
D1
100
AcDbEntity
8
1
62
256
6
ByLayer
370
13
48
1
60
0
100
AcDbSpline
70
4
71
3
72
8
73
4
40
0
40
0
40
0
40
0
40
1
40
1
40
1
40
1
41
1
10
4.13189187982658
20
-4.45813054916124
30
0
41
1
10
4.13267634858181
20
-4.4206646479544
30
0
41
1
10
4.13346752209733
20
-4.38319682262352
30
0
41
1
10
4.13426541443883
20
-4.34572700407699
30
0
0
SPLINE
5
D2
100
AcDbEntity
8
1
62
256
6
ByLayer
370
18
48
1
60
0
100
AcDbSpline
70
4
71
3
72
14
73
10
40
0
40
0
40
0
40
0
40
0.25
40
0.25
40
0.5
40
0.5
40
0.75
40
0.75
40
1
40
1
40
1
40
1
41
1
10
61.3137462069444
20
0.996751799436993
30
0
41
1
10
61.3129709758721
20
1.01207593735614
30
0
41
1
10
61.3163743960325
20
1.02756489527297
30
0
41
1
10
61.3320462736623
20
1.05433580205124
30
0
41
1
10
61.3442673955464
20
1.06545851861816
30
0
41
1
10
61.3716311455947
20
1.08120704773046
30
0
41
1
10
61.3870156312647
20
1.08627503311655
30
0
41
1
10
61.4179365532285
20
1.09217822736522
30
0
41
1
10
61.4337944828102
20
1.09311628225848
30
0
41
1
10
61.4496145743217
20
1.09255664644556
30
0
0
SPLINE
5
D3
100
AcDbEntity
8
1
62
256
6
ByLayer
370
18
48
1
60
0
100
AcDbSpline
70
4
71
3
72
10
73
6
40
0
40
0
40
0
40
0
40
0.5
40
0.5
40
1
40
1
40
1
40
1
41
1
10
62.9999648388916
20
0.041773269339501
30
0
41
1
10
62.9962295242944
20
0.0264314043851357
30
0
41
1
10
62.9911258961113
20
0.0099834899708924
30
0
41
1
10
62.9788194768113
20
-0.0212420878401645
30
0
41
1
10
62.9715787615434
20
-0.0360456566747587
30
0
41
1
10
62.9642426319929
20
-0.0480519718330186
30
0
0
SPLINE
5
D4
100
AcDbEntity
8
1
62
256
6
ByLayer
370
18
48
1
60
0
100
AcDbSpline
70
4
71
3
72
10
73
6
40
0
40
0
40
0
40
0
40
0.5
40
0.5
40
1
40
1
40
1
40
1
41
1
10
61.5918745539227
20
4.54681656288577
30
0
41
1
10
61.5474129187822
20
4.57990599925569
30
0
41
1
10
61.5049695149338
20
4.60684044383527
30
0
41
1
10
61.4240911872174
20
4.64768700285947
30
0
41
1
10
61.3855411787955
20
4.66155530537696
30
0
41
1
10
61.3498202682443
20
4.66833800301941
30
0
0
SPLINE
5
D5
100
AcDbEntity
8
1
62
256
6
ByLayer
370
18
48
1
60
0
100
AcDbSpline
70
4
71
3
72
8
73
4
40
0
40
0
40
0
40
0
40
1
40
1
40
1
40
1
41
1
10
61.6692518849804
20
-2.31309863206585
30
0
41
1
10
61.4593599534489
20
-2.70622672800801
30
0
41
1
10
61.2544885561403
20
-3.10391285982891
30
0
41
1
10
61.0546914467672
20
-3.50620582937722
30
0
0
SPLINE
5
D6
100
AcDbEntity
8
1
62
256
6
ByLayer
370
18
48
1
60
0
100
AcDbSpline
70
4
71
3
72
8
73
4
40
0
40
0
40
0
40
0
40
1
40
1
40
1
40
1
41
1
10
62.9642426319929
20
-0.048051971833047
30
0
41
1
10
62.6994565830788
20
-0.481401019295788
30
0
41
1
10
62.4412015237373
20
-0.920679412814991
30
0
41
1
10
62.1895732559157
20
-1.36597412893406
30
0
0
SPLINE
5
D7
100
AcDbEntity
8
1
62
256
6
ByLayer
370
18
48
1
60
0
100
AcDbSpline
70
4
71
3
72
16
73
12
40
0
40
0
40
0
40
0
40
0.266144647550782
40
0.266144647550782
40
0.399216971326172
40
0.399216971326172
40
0.532289295101563
40
0.532289295101563
40
0.798433942652344
40
0.798433942652344
40
1
40
1
40
1
40
1
41
1
10
61.0546914467672
20
-3.50620582937725
30
0
41
1
10
61.054468104677
20
-3.66422447019895
30
0
41
1
10
61.0615439357429
20
-3.80296384321332
30
0
41
1
10
61.0834179084586
20
-3.98271149592978
30
0
41
1
10
61.092599992122
20
-4.0378740422
30
0
41
1
10
61.1149752211004
20
-4.13846132050276
30
0
41
1
10
61.1281131025607
20
-4.18351417051019
30
0
41
1
10
61.1729377177525
20
-4.30170328759027
30
0
41
1
10
61.2101598433071
20
-4.35878819588837
30
0
41
1
10
61.2894028688441
20
-4.42192449813706
30
0
41
1
10
61.3282477591149
20
-4.43682621586814
30
0
41
1
10
61.3714261757079
20
-4.43931991147198
30
0
0
SPLINE
5
D8
100
AcDbEntity
8
1
62
256
6
ByLayer
370
18
48
1
60
0
100
AcDbSpline
70
4
71
3
72
8
73
4
40
0
40
0
40
0
40
0
40
1
40
1
40
1
40
1
41
1
10
62.9895355303161
20
-0.117749795692504
30
0
41
1
10
62.9901947174539
20
-0.0960730332826643
30
0
41
1
10
62.9941553682414
20
-0.0696277427182963
30
0
41
1
10
62.9999648388853
20
-0.0417732693310882
30
0
0
SPLINE
5
D9
100
AcDbEntity
8
1
62
256
6
ByLayer
370
18
48
1
60
0
100
AcDbSpline
70
4
71
3
72
14
73
10
40
0
40
0
40
0
40
0
40
0.25
40
0.25
40
0.5
40
0.5
40
0.75
40
0.75
40
1
40
1
40
1
40
1
41
1
10
61.4142498310151
20
-4.43789253057489
30
0
41
1
10
61.4176027276259
20
-4.43749331633595
30
0
41
1
10
61.420317866806
20
-4.43876745913931
30
0
41
1
10
61.424061011957
20
-4.44572055972696
30
0
41
1
10
61.4250368279201
20
-4.45148000643349
30
0
41
1
10
61.4240793556901
20
-4.46851551331659
30
0
41
1
10
61.4220685148255
20
-4.47981734271985
30
0
41
1
10
61.415119445649
20
-4.5053599716864
30
0
41
1
10
61.4102536899507
20
-4.51936919507662
30
0
41
1
10
61.4048992640472
20
-4.53260369814546
30
0
0
SPLINE
5
DA
100
AcDbEntity
8
1
62
256
6
ByLayer
370
13
48
1
60
0
100
AcDbSpline
70
4
71
3
72
8
73
4
40
0
40
0
40
0
40
0
40
1
40
1
40
1
40
1
41
1
10
4.13426541443886
20
-4.2366226042501
30
0
41
1
10
4.17045846564668
20
-4.22175702948837
30
0
41
1
10
4.20991288319271
20
-4.21607155480143
30
0
41
1
10
4.25032495735377
20
-4.21965172731106
30
0
0
SPLINE
5
DB
100
AcDbEntity
8
1
62
256
6
ByLayer
370
13
48
1
60
0
100
AcDbSpline
70
4
71
3
72
30
73
26
40
0
40
0
40
0
40
0
40
0.125
40
0.125
40
0.1875
40
0.1875
40
0.25
40
0.312499999999999
40
0.312499999999999
40
0.374999999999999
40
0.374999999999999
40
0.499999999999999
40
0.499999999999999
40
0.562499999999999
40
0.562499999999999
40
0.624999999999999
40
0.624999999999999
40
0.6875
40
0.6875
40
0.75
40
0.8125
40
0.8125
40
0.875
40
0.875
40
1
40
1
40
1
40
1
41
1
10
4.2503249573538
20
-4.21965172731106
30
0
41
1
10
4.25039874477545
20
-4.13547492676503
30
0
41
1
10
4.25046521407964
20
-4.02427796768029
30
0
41
1
10
4.25055765644512
20
-3.81728615723173
30
0
41
1
10
4.25058718233169
20
-3.74160019492538
30
0
41
1
10
4.25064336292508
20
-3.57962683766553
30
0
41
1
10
4.2506969607598
20
-3.40643870854925
30
0
41
1
10
4.25074667933126
20
-3.21113156884138
30
0
41
1
10
4.25079501282295
20
-3.00459232243466
30
0
41
1
10
4.2508186143892
20
-2.89504107570107
30
0
41
1
10
4.25088692502788
20
-2.55464505928055
30
0
41
1
10
4.25092924570484
20
-2.31252710479868
30
0
41
1
10
4.25099038641295
20
-1.92706650478922
30
0
41
1
10
4.25101035920397
20
-1.79483864453041
30
0
41
1
10
4.25104971278361
20
-1.52264605159408
30
0
41
1
10
4.25106891152893
20
-1.38392688307621
30
0
41
1
10
4.25110629327386
20
-1.10267188457803
30
0
41
1
10
4.25112457321779
20
-0.959374236787397
30
0
41
1
10
4.25115981656745
20
-0.671320580151814
30
0
41
1
10
4.25119369220323
20
-0.382330548373091
30
0
41
1
10
4.25122464295964
20
-0.0915079562206529
30
0
41
1
10
4.25125387458326
20
0.200238173207708
30
0
41
1
10
4.25126769754374
20
0.347364737260762
30
0
41
1
10
4.25130540571979
20
0.783843227202283
30
0
41
1
10
4.25132553178901
20
1.06696622574896
30
0
41
1
10
4.25133891734191
20
1.3425065627647
30
0
0
SPLINE
5
DC
100
AcDbEntity
8
1
62
256
6
ByLayer
370
18
48
1
60
0
100
AcDbSpline
70
4
71
3
72
8
73
4
40
0
40
0
40
0
40
0
40
1
40
1
40
1
40
1
41
1
10
62.9444903050174
20
-1.04630160385489
30
0
41
1
10
62.9651139121148
20
-0.736498563459236
30
0
41
1
10
62.9801318506388
20
-0.426981148172018
30
0
41
1
10
62.9895355303159
20
-0.117749795692617
30
0
0
SPLINE
5
DD
100
AcDbEntity
8
1
62
256
6
ByLayer
370
18
48
1
60
0
100
AcDbSpline
70
4
71
3
72
8
73
4
40
0
40
0
40
0
40
0
40
1
40
1
40
1
40
1
41
1
10
61.404899264033
20
-4.53260369818048
30
0
41
1
10
61.3865691304666
20
-4.57791018169695
30
0
41
1
10
61.3682081069181
20
-4.62315644817369
30
0
41
1
10
61.3498202682443
20
-4.66833800301944
30
0
0
SPLINE
5
DE
100
AcDbEntity
8
1
62
256
6
ByLayer
370
18
48
1
60
0
100
AcDbSpline
70
4
71
3
72
30
73
26
40
0
40
0
40
0
40
0
40
0.0625
40
0.0625
40
0.125
40
0.125
40
0.1875
40
0.1875
40
0.25
40
0.25
40
0.3125
40
0.3125
40
0.375
40
0.375
40
0.5
40
0.5
40
0.625
40
0.625
40
0.75
40
0.75
40
0.875
40
0.875
40
0.9375
40
0.9375
40
1
40
1
40
1
40
1
41
1
10
62.1895732559157
20
-1.36597412893408
30
0
41
1
10
62.1863805935632
20
-1.39267020590779
30
0
41
1
10
62.181815679309
20
-1.42163340611
30
0
41
1
10
62.170271828394
20
-1.48148663162672
30
0
41
1
10
62.1633273453605
20
-1.5123633468254
30
0
41
1
10
62.147141509725
20
-1.57599979567331
30
0
41
1
10
62.1377984019668
20
-1.60904688527071
30
0
41
1
10
62.1175570949555
20
-1.67449758341246
30
0
41
1
10
62.1066109637148
20
-1.70714535382012
30
0
41
1
10
62.0831572537368
20
-1.77230026462863
30
0
41
1
10
62.0706673214204
20
-1.80471088252344
30
0
41
1
10
62.0450815165054
20
-1.86718423551005
30
0
41
1
10
62.0318805452291
20
-1.89754459053307
30
0
41
1
10
61.991132823725
20
-1.9861171238959
30
0
41
1
10
61.9633381625009
20
-2.03991971094999
30
0
41
1
10
61.9077313395724
20
-2.13625178938372
30
0
41
1
10
61.8799727654883
20
-2.17851142894742
30
0
41
1
10
61.8278751885779
20
-2.24727580101694
30
0
41
1
10
61.8030862288716
20
-2.27455941121875
30
0
41
1
10
61.7565558617875
20
-2.31408899660852
30
0
41
1
10
61.7356008740581
20
-2.32571333306217
30
0
41
1
10
61.7075793616097
20
-2.33075195367462
30
0
41
1
10
61.6987612473172
20
-2.33029709159982
30
0
41
1
10
61.6828095792262
20
-2.32497353472664
30
0
41
1
10
61.6756288349565
20
-2.32014515385495
30
0
41
1
10
61.6692518849803
20
-2.31309863206553
30
0
0
SPLINE
5
DF
100
AcDbEntity
8
1
62
256
6
ByLayer
370
18
48
1
60
0
100
AcDbSpline
70
4
71
3
72
8
73
4
40
0
40
0
40
0
40
0
40
1
40
1
40
1
40
1
41
1
10
62.9895355303159
20
0.117749795692731
30
0
41
1
10
62.9901947174536
20
0.0960730332834601
30
0
41
1
10
62.9941553682412
20
0.0696277427199732
30
0
41
1
10
62.9999648388847
20
0.0417732693336177
30
0
0
SPLINE
5
E0
100
AcDbEntity
8
1
62
256
6
ByLayer
370
18
48
1
60
0
100
AcDbSpline
70
4
71
3
72
8
73
4
40
0
40
0
40
0
40
0
40
1
40
1
40
1
40
1
41
1
10
62.9444903050174
20
1.04630160385497
30
0
41
1
10
62.9651180639713
20
0.736436195234461
30
0
41
1
10
62.9801337439515
20
0.426918888327975
30
0
41
1
10
62.9895355303159
20
0.117749795692731
30
0
0
SPLINE
5
E1
100
AcDbEntity
8
1
62
256
6
ByLayer
370
18
48
1
60
0
100
AcDbSpline
70
4
71
3
72
8
73
4
40
0
40
0
40
0
40
0
40
1
40
1
40
1
40
1
41
1
10
62.9999648388872
20
0.0417732693234143
30
0
41
1
10
63.0000117229782
20
0.0139228737427857
30
0
41
1
10
63.0000117172277
20
-0.013926289710497
30
0
41
1
10
62.9999648388872
20
-0.0417732693275639
30
0
0
SPLINE
5
E2
100
AcDbEntity
8
1
62
256
6
ByLayer
370
18
48
1
60
0
100
AcDbSpline
70
4
71
3
72
31
73
27
40
0
40
0
40
0
40
0
40
0.0624999999999999
40
0.0624999999999999
40
0.125
40
0.125
40
0.25
40
0.25
40
0.3125
40
0.3125
40
0.375
40
0.4375
40
0.4375
40
0.5
40
0.5
40
0.625
40
0.625
40
0.6875
40
0.6875
40
0.75
40
0.75
40
0.875
40
0.875
40
0.9375
40
0.9375
40
1
40
1
40
1
40
1
41
1
10
4.00055755859444
20
-4.3956165526248
30
0
41
1
10
4.00056026028165
20
-4.34726275731214
30
0
41
1
10
4.00056286633128
20
-4.29164346819056
30
0
41
1
10
4.00056784545268
20
-4.16774243962172
30
0
41
1
10
4.00057022181937
20
-4.09947634968023
30
0
41
1
10
4.00057707648139
20
-3.87618905370363
30
0
41
1
10
4.00058128135959
20
-3.70285579452863
30
0
41
1
10
4.00058726958895
20
-3.40477810882217
30
0
41
1
10
4.00058919029658
20
-3.30007971438852
30
0
41
1
10
4.00059289234184
20
-3.08204056140778
30
0
41
1
10
4.0005964656666
20
-2.85482567474563
30
0
41
1
10
4.00059985448502
20
-2.60942870350746
30
0
41
1
10
4.00060318043029
20
-2.35476547980704
30
0
41
1
10
4.00060481975598
20
-2.22209839946547
30
0
41
1
10
4.00060958427582
20
-1.81771410661042
30
0
41
1
10
4.00061258334171
20
-1.53827083217402
30
0
41
1
10
4.00061689903481
20
-1.10456880500271
30
0
41
1
10
4.00061830582797
20
-0.957561769005707
30
0
41
1
10
4.00062105392232
20
-0.658496655517666
30
0
41
1
10
4.00062237442728
20
-0.508689444509486
30
0
41
1
10
4.0006261581633
20
-0.0595397913394606
30
0
41
1
10
4.0006284540832
20
0.240009330152901
30
0
41
1
10
4.0006314230024
20
0.689509455828187
30
0
41
1
10
4.00063233434139
20
0.839962027947081
30
0
41
1
10
4.00063392247313
20
1.13469705429026
30
0
41
1
10
4.00063460433663
20
1.27964562984016
30
0
41
1
10
4.00063515712259
20
1.42222440984185
30
0
0
SPLINE
5
E3
100
AcDbEntity
8
1
62
256
6
ByLayer
370
18
48
1
60
0
100
AcDbSpline
70
4
71
3
72
44
73
40
40
0
40
0
40
0
40
0
40
0.062500000000008
40
0.062500000000008
40
0.125000000000016
40
0.125000000000016
40
0.250000000000032
40
0.250000000000032
40
0.31250000000004
40
0.31250000000004
40
0.343750000000044
40
0.343750000000044
40
0.375000000000048
40
0.375000000000048
40
0.406250000000052
40
0.406250000000052
40
0.437500000000056
40
0.437500000000056
40
0.453125000000058
40
0.453125000000058
40
0.468750000000061
40
0.468750000000061
40
0.484375000000063
40
0.484375000000063
40
0.500000000000065
40
0.500000000000065
40
0.531250000000065
40
0.531250000000065
40
0.562500000000065
40
0.562500000000065
40
0.625000000000057
40
0.625000000000057
40
0.68750000000005
40
0.68750000000005
40
0.750000000000043
40
0.750000000000043
40
0.875000000000021
40
0.875000000000021
40
1
40
1
40
1
40
1
41
1
10
61.66925188498
20
-2.31309863206545
30
0
41
1
10
61.5876465883418
20
-2.28965220444178
30
0
41
1
10
61.5061538673078
20
-2.26245846439744
30
0
41
1
10
61.3433896398109
20
-2.20070739859784
30
0
41
1
10
61.261892306978
20
-2.1660435170019
30
0
41
1
10
61.0193587405644
20
-2.05087463933845
30
0
41
1
10
60.8614032777203
20
-1.96062769867913
30
0
41
1
10
60.6326961988337
20
-1.79558423390011
30
0
41
1
10
60.5579065040047
20
-1.73551157522996
30
0
41
1
10
60.4514716702127
20
-1.63573096036947
30
0
41
1
10
60.4167629430485
20
-1.60063024269587
30
0
41
1
10
60.3508812283971
20
-1.52691321375554
30
0
41
1
10
60.319591476992
20
-1.4882652064928
30
0
41
1
10
60.2620058314537
20
-1.40555677627233
30
0
41
1
10
60.2353822476906
20
-1.36097805560976
30
0
41
1
10
60.193618160466
20
-1.26683851629679
30
0
41
1
10
60.1784508139889
20
-1.21710744817139
30
0
41
1
10
60.1726496606324
20
-1.14236961413826
30
0
41
1
10
60.1736492712243
20
-1.11815127528067
30
0
41
1
10
60.1818545626827
20
-1.07218594673765
30
0
41
1
10
60.1890849092541
20
-1.05062801065395
30
0
41
1
10
60.2083506657203
20
-1.01199635695809
30
0
41
1
10
60.2205196132643
20
-0.994598837098891
30
0
41
1
10
60.247594875701
20
-0.964323042111999
30
0
41
1
10
60.2626282938286
20
-0.951169831054301
30
0
41
1
10
60.3111407398883
20
-0.916237668000974
30
0
41
1
10
60.3465940170696
20
-0.899752493934926
30
0
41
1
10
60.4206273199085
20
-0.874506509952539
30
0
41
1
10
60.4595215619466
20
-0.86585656965903
30
0
41
1
10
60.5767670540437
20
-0.848360672722976
30
0
41
1
10
60.6566791310852
20
-0.847316552465372
30
0
41
1
10
60.8184218268292
20
-0.856881462038103
30
0
41
1
10
60.9006587921639
20
-0.867844109557751
30
0
41
1
10
61.0646601824793
20
-0.898242215398028
30
0
41
1
10
61.1463190226517
20
-0.91765415060749
30
0
41
1
10
61.3904819465598
20
-0.985916391108304
30
0
41
1
10
61.552194409
20
-1.04452231641142
30
0
41
1
10
61.8736819027005
20
-1.18561028366741
30
0
41
1
10
62.034392533676
20
-1.2685116466217
30
0
41
1
10
62.1895732559155
20
-1.36597412893408
30
0
0
SPLINE
5
E4
100
AcDbEntity
8
1
62
256
6
ByLayer
370
18
48
1
60
0
100
AcDbSpline
70
4
71
3
72
10
73
6
40
0
40
0
40
0
40
0
40
0.5
40
0.5
40
1
40
1
40
1
40
1
41
1
10
61.4496145743217
20
1.09255664644556
30
0
41
1
10
61.6988656075055
20
1.0837393899541
30
0
41
1
10
61.9480449491028
20
1.07567814478918
30
0
41
1
10
62.4462893401911
20
1.06076090226532
30
0
41
1
10
62.6954129858661
20
1.05328698889787
30
0
41
1
10
62.9444903050255
20
1.04630160385449
30
0
0
SPLINE
5
E5
100
AcDbEntity
8
1
62
256
6
ByLayer
370
18
48
1
60
0
100
AcDbSpline
70
4
71
3
72
42
73
38
40
0
40
0
40
0
40
0
40
0.124999999999999
40
0.124999999999999
40
0.187499999999998
40
0.187499999999998
40
0.249999999999997
40
0.249999999999997
40
0.375000000000001
40
0.375000000000001
40
0.500000000000004
40
0.500000000000004
40
0.625000000000008
40
0.625000000000008
40
0.750000000000011
40
0.750000000000011
40
0.812500000000013
40
0.812500000000013
40
0.843750000000014
40
0.843750000000014
40
0.859375000000012
40
0.859375000000012
40
0.867187500000011
40
0.867187500000011
40
0.87500000000001
40
0.87500000000001
40
0.87890625000001
40
0.87890625000001
40
0.882812500000009
40
0.882812500000009
40
0.890625000000008
40
0.890625000000008
40
0.906250000000007
40
0.906250000000007
40
0.937500000000005
40
0.937500000000005
40
1
40
1
40
1
40
1
41
1
10
56.9851546407533
20
1.66636376740726
30
0
41
1
10
57.1702909641918
20
1.50083448118008
30
0
41
1
10
57.3606646447909
20
1.34611725934136
30
0
41
1
10
57.6540691199642
20
1.13023458203827
30
0
41
1
10
57.7531803033193
20
1.06097743307694
30
0
41
1
10
57.9541085186699
20
0.928049122290332
30
0
41
1
10
58.0562195229865
20
0.864197342935
30
0
41
1
10
58.3648083781882
20
0.682967477574181
30
0
41
1
10
58.5719753252095
20
0.57662431379535
30
0
41
1
10
58.9891830085149
20
0.392808118890116
30
0
41
1
10
59.1992187412851
20
0.315284822380505
30
0
41
1
10
59.6224418267152
20
0.191899452908956
30
0
41
1
10
59.8359270616112
20
0.145798725457467
30
0
41
1
10
60.265584598041
20
0.0938202145751461
30
0
41
1
10
60.4769542659182
20
0.0884402938847302
30
0
41
1
10
60.7880578692992
20
0.115825891425658
30
0
41
1
10
60.8909628986591
20
0.130997928699969
30
0
41
1
10
61.0421169903915
20
0.163518267296325
30
0
41
1
10
61.0920411366226
20
0.175995116127268
30
0
41
1
10
61.1660493923084
20
0.197252251178554
30
0
41
1
10
61.1905732999304
20
0.204761701895961
30
0
41
1
10
61.2271202737047
20
0.216671616362021
30
0
41
1
10
61.2393914181811
20
0.22042288738723
30
0
41
1
10
61.2633979953708
20
0.229263519105814
30
0
41
1
10
61.2747963050786
20
0.235403530597466
30
0
41
1
10
61.2878498575217
20
0.250692112497745
30
0
41
1
10
61.2914058197965
20
0.256567200540843
30
0
41
1
10
61.2964617964423
20
0.27019206807762
30
0
41
1
10
61.2975329248252
20
0.277864847743501
30
0
41
1
10
61.2998848907912
20
0.301071769731607
30
0
41
1
10
61.3014853215286
20
0.316530963369957
30
0
41
1
10
61.3058701205679
20
0.363063672407009
30
0
41
1
10
61.308407760686
20
0.394214777111529
30
0
41
1
10
61.3149197638835
20
0.488010680852767
30
0
41
1
10
61.317797191161
20
0.551061138636157
30
0
41
1
10
61.3224357321934
20
0.741126309987209
30
0
41
1
10
61.320228140848
20
0.868622196954391
30
0
41
1
10
61.3137462069443
20
0.996751799436993
30
0
0
SPLINE
5
E6
100
AcDbEntity
8
1
62
256
6
ByLayer
370
13
48
1
60
0
100
AcDbSpline
70
4
71
3
72
12
73
8
40
0
40
0
40
0
40
0
40
0.500000000000019
40
0.500000000000019
40
0.75000000000001
40
0.75000000000001
40
1
40
1
40
1
40
1
41
1
10
4.0014657765401
20
-4.40092224863724
30
0
41
1
10
4.00573375109147
20
-4.39006312100588
30
0
41
1
10
4.01938579077103
20
-4.37928682567684
30
0
41
1
10
4.05278421899561
20
-4.3649514702457
30
0
41
1
10
4.06636691727536
20
-4.36037205066526
30
0
41
1
10
4.09739316216456
20
-4.35225080342823
30
0
41
1
10
4.11475569930988
20
-4.34869012317262
30
0
41
1
10
4.13426541443886
20
-4.34572700407699
30
0
0
SPLINE
5
E7
100
AcDbEntity
8
1
62
256
6
ByLayer
370
18
48
1
60
0
100
AcDbSpline
70
4
71
3
72
14
73
10
40
0
40
0
40
0
40
0
40
0.25
40
0.25
40
0.5
40
0.5
40
0.75
40
0.75
40
1
40
1
40
1
40
1
41
1
10
61.5918745539174
20
4.54681656290384
30
0
41
1
10
61.6957898549538
20
4.25287105903215
30
0
41
1
10
61.8024164346029
20
3.95934098806902
30
0
41
1
10
62.0203143660065
20
3.37314612539896
30
0
41
1
10
62.1315895625446
20
3.08048128895658
30
0
41
1
10
62.358107700573
20
2.49600402040357
30
0
41
1
10
62.4734065805523
20
2.20418267641384
30
0
41
1
10
62.7067432954774
20
1.62354502321094
30
0
41
1
10
62.8249076244498
20
1.33440995234739
30
0
41
1
10
62.9444903050187
20
1.04630160385165
30
0
0
SPLINE
5
E8
100
AcDbEntity
8
1
62
256
6
ByLayer
370
13
48
1
60
0
100
AcDbSpline
70
4
71
3
72
8
73
4
40
0
40
0
40
0
40
0
40
1
40
1
40
1
40
1
41
1
10
4.13426541443886
20
-4.34572700407699
30
0
41
1
10
4.15620011380153
20
-4.33790420441892
30
0
41
1
10
4.17987766259375
20
-4.33578318129571
30
0
41
1
10
4.20404532852709
20
-4.33916948253537
30
0
0
SPLINE
5
E9
100
AcDbEntity
8
1
62
256
6
ByLayer
370
13
48
1
60
0
100
AcDbSpline
70
4
71
3
72
12
73
8
40
0
40
0
40
0
40
0
40
0.499999999999985
40
0.499999999999985
40
0.749999999999992
40
0.749999999999992
40
1
40
1
40
1
40
1
41
1
10
4.00055755859438
20
-4.39561655262455
30
0
41
1
10
4.00330401980867
20
-4.36418741415238
30
0
41
1
10
4.01632118114725
20
-4.33290403277093
30
0
41
1
10
4.04996869228375
20
-4.29157525573444
30
0
41
1
10
4.063818712006
20
-4.27842426817
30
0
41
1
10
4.09587458079815
20
-4.2551234678665
30
0
41
1
10
4.11390850852015
20
-4.2449837978148
30
0
41
1
10
4.13426541443886
20
-4.2366226042501
30
0
0
SPLINE
5
EA
100
AcDbEntity
8
1
62
256
6
ByLayer
370
18
48
1
60
0
100
AcDbSpline
70
4
71
3
72
16
73
12
40
0
40
0
40
0
40
0
40
0.209463642271624
40
0.209463642271624
40
0.549772948421681
40
0.549772948421681
40
0.719927601496707
40
0.719927601496707
40
0.890082254571732
40
0.890082254571732
40
1
40
1
40
1
40
1
41
1
10
33.9662466659227
20
-4.42257810446716
30
0
41
1
10
33.5994209944237
20
-4.42238330192183
30
0
41
1
10
33.2314202876287
20
-4.41028523611345
30
0
41
1
10
32.2609108589166
20
-4.34665340711723
30
0
41
1
10
31.6617955587192
20
-4.27574600010865
30
0
41
1
10
30.7615155186958
20
-4.12391263588816
30
0
41
1
10
30.4608461395562
20
-4.06563968048695
30
0
41
1
10
29.8623531546787
20
-3.93535129373942
30
0
41
1
10
29.5640746742357
20
-3.86326344933806
30
0
41
1
10
29.0741509285907
20
-3.73383915678218
30
0
41
1
10
28.8821379157749
20
-3.68031794774072
30
0
41
1
10
28.6903035294528
20
-3.62418572013465
30
0
0
SPLINE
5
EB
100
AcDbEntity
8
1
62
256
6
ByLayer
370
13
48
1
60
0
100
AcDbSpline
70
4
71
3
72
22
73
18
40
0
40
0
40
0
40
0
40
0.240172549086574
40
0.240172549086574
40
0.311780074385387
40
0.311780074385387
40
0.3833875996842
40
0.3833875996842
40
0.526602650281824
40
0.526602650281824
40
0.813032751477068
40
0.813032751477068
40
0.884640276775879
40
0.884640276775879
40
0.95624780207469
40
0.95624780207469
40
1
40
1
40
1
40
1
41
1
10
28.690303529847
20
-3.62418572024998
30
0
41
1
10
27.6942855515136
20
-3.33274314351593
30
0
41
1
10
26.7030829171415
20
-2.97091373770672
30
0
41
1
10
25.4072025188036
20
-2.43092468603743
30
0
41
1
10
25.1089104761851
20
-2.3021547259878
30
0
41
1
10
24.5103696050502
20
-2.03604066176842
30
0
41
1
10
24.2094459654812
20
-1.89831318090603
30
0
41
1
10
23.3109452365332
20
-1.4775562399376
30
0
41
1
10
22.715918915847
20
-1.18650947596214
30
0
41
1
10
20.9351339633801
20
-0.296903969331282
30
0
41
1
10
19.7538139920874
20
0.318395352261092
30
0
41
1
10
18.2586607441013
20
1.06356657650554
30
0
41
1
10
17.9579662084799
20
1.21179360730213
30
0
41
1
10
17.3582305136857
20
1.50261176210574
30
0
41
1
10
17.0594233006816
20
1.64504313327134
30
0
41
1
10
16.5791846560604
20
1.86872336802233
30
0
41
1
10
16.3973204335445
20
1.95224276736909
30
0
41
1
10
16.2156566912997
20
2.03432628259515
30
0
0
SPLINE
5
EC
100
AcDbEntity
8
1
62
256
6
ByLayer
370
18
48
1
60
0
100
AcDbSpline
70
4
71
3
72
54
73
50
40
0
40
0
40
0
40
0
40
0.0758121660651232
40
0.0758121660651232
40
0.113718249097685
40
0.113718249097685
40
0.151624332130247
40
0.151624332130247
40
0.189530415162809
40
0.189530415162809
40
0.227436498195371
40
0.227436498195371
40
0.265342581227933
40
0.265342581227933
40
0.303248664260495
40
0.303248664260495
40
0.341154747293057
40
0.341154747293057
40
0.379060830325619
40
0.379060830325619
40
0.454872996390742
40
0.454872996390742
40
0.492779079423304
40
0.492779079423304
40
0.530685162455866
40
0.530685162455866
40
0.568591245488427
40
0.568591245488427
40
0.606497328520989
40
0.606497328520989
40
0.64440341155355
40
0.64440341155355
40
0.682309494586112
40
0.682309494586112
40
0.720215577618674
40
0.720215577618674
40
0.758121660651235
40
0.758121660651235
40
0.833933826716358
40
0.833933826716358
40
0.871839909748921
40
0.871839909748921
40
0.909745992781483
40
0.909745992781483
40
0.947652075814046
40
0.947652075814046
40
0.985558158846608
40
0.985558158846608
40
1
40
1
40
1
40
1
41
1
10
11.8655046182179
20
3.32390218402025
30
0
41
1
10
12.3871767490726
20
3.12654434173163
30
0
41
1
10
12.9078918032238
20
2.91624310034709
30
0
41
1
10
13.6841372241375
20
2.57729057634131
30
0
41
1
10
13.9417996335915
20
2.45986196679317
30
0
41
1
10
14.4578147159683
20
2.22076122771571
30
0
41
1
10
14.7159614083921
20
2.09879042010215
30
0
41
1
10
15.2320308568246
20
1.84922669349791
30
0
41
1
10
15.489880568439
20
1.72150110381699
30
0
41
1
10
16.0052788910817
20
1.46014353060426
30
0
41
1
10
16.2635436093544
20
1.32779566856558
30
0
41
1
10
16.7814393427997
20
1.0602736887713
30
0
41
1
10
17.0409534523405
20
0.924889431151655
30
0
41
1
10
17.5607166768946
20
0.649992833267163
30
0
41
1
10
17.8208758329181
20
0.509844457874351
30
0
41
1
10
18.3435125157481
20
0.230160948048592
30
0
41
1
10
18.6042521353656
20
0.0909734884018292
30
0
41
1
10
19.1241168175964
20
-0.187101849171143
30
0
41
1
10
19.3831227966172
20
-0.326217084056083
30
0
41
1
10
20.1579004050539
20
-0.742694414192925
30
0
41
1
10
20.6745108697934
20
-1.01336355571672
30
0
41
1
10
21.4475682076172
20
-1.41286450400187
30
0
41
1
10
21.7047037732642
20
-1.54534591758252
30
0
41
1
10
22.2206567616697
20
-1.80390756039213
30
0
41
1
10
22.4791950309723
20
-1.93051093535251
30
0
41
1
10
22.9969029008459
20
-2.17922684589621
30
0
41
1
10
23.2559306734619
20
-2.30157778056798
30
0
41
1
10
23.7748996442648
20
-2.54117152593119
30
0
41
1
10
24.0356473594921
20
-2.65736045347373
30
0
41
1
10
24.5586778412764
20
-2.88235675922257
30
0
41
1
10
24.8193571235386
20
-2.99059315060546
30
0
41
1
10
25.3385805277416
20
-3.19932110808509
30
0
41
1
10
25.5970112059428
20
-3.29989988117754
30
0
41
1
10
26.1141857987564
20
-3.48994822886991
30
0
41
1
10
26.3726222514887
20
-3.57990107245797
30
0
41
1
10
26.8887221287963
20
-3.75039110471314
30
0
41
1
10
27.1461938990212
20
-3.83112154880405
30
0
41
1
10
27.9181573645645
20
-4.05806480030671
30
0
41
1
10
28.4347652181826
20
-4.18674298216825
30
0
41
1
10
29.2101361120414
20
-4.34798372791818
30
0
41
1
10
29.4685992117305
20
-4.39635100746531
30
0
41
1
10
29.9881213810797
20
-4.480519932763
30
0
41
1
10
30.248854890311
20
-4.51659249800014
30
0
41
1
10
30.7718252969779
20
-4.57678456061691
30
0
41
1
10
31.0324311987327
20
-4.60079467576844
30
0
41
1
10
31.5530497908334
20
-4.63610405751234
30
0
41
1
10
31.813608912107
20
-4.64732514339457
30
0
41
1
10
32.173525125141
20
-4.65418508176589
30
0
41
1
10
32.2728287533155
20
-4.65517071005911
30
0
41
1
10
32.372125460271
20
-4.65524230282998
30
0
0
SPLINE
5
ED
100
AcDbEntity
8
1
62
256
6
ByLayer
370
18
48
1
60
0
100
AcDbSpline
70
4
71
3
72
28
73
24
40
0
40
0
40
0
40
0
40
0.0170680949218655
40
0.0170680949218655
40
0.106425540838059
40
0.106425540838059
40
0.195782986754253
40
0.195782986754253
40
0.285140432670446
40
0.285140432670446
40
0.37449787858664
40
0.37449787858664
40
0.463855324502834
40
0.463855324502834
40
0.553212770419028
40
0.553212770419028
40
0.642570216335221
40
0.642570216335221
40
0.821285108167609
40
0.821285108167609
40
0.910642554083805
40
0.910642554083805
40
1
40
1
40
1
40
1
41
1
10
52.9012454880346
20
3.35071625228201
30
0
41
1
10
52.9508721029964
20
3.36935919016216
30
0
41
1
10
53.0004836063759
20
3.38781121709408
30
0
41
1
10
53.3097566891595
20
3.50165399385989
30
0
41
1
10
53.5688975638145
20
3.59223652355655
30
0
41
1
10
54.0857356670704
20
3.7639705181027
30
0
41
1
10
54.3430605729105
20
3.84548491128703
30
0
41
1
10
54.8581736588715
20
3.99687826137057
30
0
41
1
10
55.1159043825784
20
4.06689581392317
30
0
41
1
10
55.6312244756207
20
4.19621641535403
30
0
41
1
10
55.8888056041927
20
4.25552361728256
30
0
41
1
10
56.4034533220163
20
4.36343593194414
30
0
41
1
10
56.6611763162422
20
4.41153077806166
30
0
41
1
10
57.1782187565303
20
4.49561810093584
30
0
41
1
10
57.437339925516
20
4.53175653727263
30
0
41
1
10
57.9564117749725
20
4.59219625369312
30
0
41
1
10
58.2160122132965
20
4.61656173584166
30
0
41
1
10
58.9990815373137
20
4.67027292551271
30
0
41
1
10
59.5197279099437
20
4.680567785954
30
0
41
1
10
60.296260578102
20
4.65830978791834
30
0
41
1
10
60.5551287961139
20
4.64458806347633
30
0
41
1
10
61.0734235352626
20
4.60494531268003
30
0
41
1
10
61.3326913107184
20
4.57900670670557
30
0
41
1
10
61.5918745539241
20
4.54681656288466
30
0
0
SPLINE
5
EE
100
AcDbEntity
8
1
62
256
6
ByLayer
370
18
48
1
60
0
100
AcDbSpline
70
4
71
3
72
31
73
27
40
0
40
0
40
0
40
0
40
0.0490035221422476
40
0.0883414481018266
40
0.124447884660249
40
0.158829089539344
40
0.196715443000699
40
0.238587623139334
40
0.275034155825203
40
0.313772528222885
40
0.36354107528862
40
0.407796738946145
40
0.445035199079074
40
0.494112223828644
40
0.547240556275715
40
0.591848948319662
40
0.647627217990867
40
0.698533524229592
40
0.746454234078876
40
0.813364189270267
40
0.874057315279397
40
0.893686519465851
40
0.913316908537273
40
0.940056663852048
40
0.977787257327236
40
1
40
1
40
1
40
1
41
1
10
33.8953792150159
20
-4.42253535105201
30
0
41
1
10
34.0976203943357
20
-4.42124319761461
30
0
41
1
10
34.4650178079388
20
-4.41994508369686
30
0
41
1
10
34.9991188779668
20
-4.42258823190969
30
0
41
1
10
35.4598948282104
20
-4.42375904618913
30
0
41
1
10
35.925263908393
20
-4.42393174629618
30
0
41
1
10
36.4133053464978
20
-4.42415372161315
30
0
41
1
10
36.9107655221331
20
-4.42424051268048
30
0
41
1
10
37.4117243014777
20
-4.424935772954
30
0
41
1
10
37.9465004062559
20
-4.42519949703319
30
0
41
1
10
38.5147037220078
20
-4.42485079202905
30
0
41
1
10
39.0764820690472
20
-4.42595122910714
30
0
41
1
10
39.6353011607355
20
-4.42625703397081
30
0
41
1
10
40.2321018677558
20
-4.42550670436987
30
0
41
1
10
40.8604351564616
20
-4.4270770072076
30
0
41
1
10
41.5174570184535
20
-4.427187664217
30
0
41
1
10
42.1649672071673
20
-4.42619392798491
30
0
41
1
10
42.8266512533954
20
-4.42864154351011
30
0
41
1
10
43.5359804694411
20
-4.42743411845098
30
0
41
1
10
44.2871969118444
20
-4.42860377550892
30
0
41
1
10
44.9173242270494
20
-4.42884601145263
30
0
41
1
10
45.345108309326
20
-4.4287287807727
30
0
41
1
10
45.6275700030251
20
-4.42897640331023
30
0
41
1
10
45.9875105025638
20
-4.42981284913975
30
0
41
1
10
46.3584955430834
20
-4.43048992606379
30
0
41
1
10
46.6150434578324
20
-4.43030269598347
30
0
41
1
10
46.7101104704819
20
-4.43017176846968
30
0
0
SPLINE
5
EF
100
AcDbEntity
8
1
62
256
6
ByLayer
370
18
48
1
60
0
100
AcDbSpline
70
4
71
3
72
24
73
20
40
0
40
0
40
0
40
0
40
0.033793456980639
40
0.0820568919402577
40
0.126495638151866
40
0.169421593740667
40
0.217645702854504
40
0.269297702292004
40
0.340195898372132
40
0.407430095172766
40
0.479711365952991
40
0.550308058204323
40
0.6247970820431
40
0.709378607988764
40
0.779456952015092
40
0.861978444926635
40
0.916524557696584
40
0.969199566490391
40
1
40
1
40
1
40
1
41
1
10
19.7847863113104
20
4.4132654591987
30
0
41
1
10
19.6655786683296
20
4.4128814810347
30
0
41
1
10
19.3772872991731
20
4.41229234365306
30
0
41
1
10
18.9463873892249
20
4.4144278115302
30
0
41
1
10
18.4708286902529
20
4.41465146234026
30
0
41
1
10
17.9957566562732
20
4.41491276495432
30
0
41
1
10
17.4953228289214
20
4.41308073937597
30
0
41
1
10
16.8968887011179
20
4.41320150311529
30
0
41
1
10
16.2318266610927
20
4.41203777915538
30
0
41
1
10
15.4944760361539
20
4.41169311445464
30
0
41
1
10
14.7581851752228
20
4.41173852518119
30
0
41
1
10
13.9964681842383
20
4.41041764866412
30
0
41
1
10
13.1916461755378
20
4.41091259158031
30
0
41
1
10
12.3886469718303
20
4.40946119965244
30
0
41
1
10
11.557493378419
20
4.40967774109004
30
0
41
1
10
10.8316048262373
20
4.4086379963162
30
0
41
1
10
10.1666975918931
20
4.40829935117148
30
0
41
1
10
9.68304002456119
20
4.40821648175725
30
0
41
1
10
9.39049745377267
20
4.40796285832718
30
0
41
1
10
9.28256234216022
20
4.40786207959846
30
0
0
SPLINE
5
F0
100
AcDbEntity
8
1
62
256
6
ByLayer
370
18
48
1
60
0
100
AcDbSpline
70
4
71
3
72
29
73
25
40
0
40
0
40
0
40
0
40
0.047279137548797
40
0.0935906032024375
40
0.131083742899066
40
0.161595626920104
40
0.20949902167069
40
0.267596236461401
40
0.31469231734507
40
0.351190523984705
40
0.398272283439815
40
0.449347022408427
40
0.48960013837636
40
0.526861056097939
40
0.575281280249102
40
0.629733233855865
40
0.671054869295439
40
0.71629868815756
40
0.773429637289358
40
0.822068803624938
40
0.862611167394641
40
0.915635395330908
40
0.96742360057682
40
1
40
1
40
1
40
1
41
1
10
46.862505097278
20
4.4294483449977
30
0
41
1
10
46.6972110862172
20
4.42964367197433
30
0
41
1
10
46.371089457157
20
4.42979589180098
30
0
41
1
10
45.9223725644787
20
4.4298494875211
30
0
41
1
10
45.52543095653
20
4.42861477298163
30
0
41
1
10
45.1223992987859
20
4.4286819098435
30
0
41
1
10
44.6479715983521
20
4.42923118981579
30
0
41
1
10
44.1153592254151
20
4.42772238979728
30
0
41
1
10
43.6225597496259
20
4.42757045460556
30
0
41
1
10
43.1680423834804
20
4.42819203683194
30
0
41
1
10
42.699692999313
20
4.42824069312863
30
0
41
1
10
42.2182846452336
20
4.42652806392974
30
0
41
1
10
41.7710317704007
20
4.42679809899758
30
0
41
1
10
41.3330124234837
20
4.42717705219545
30
0
41
1
10
40.8456068089138
20
4.42701882727783
30
0
41
1
10
40.3440777325827
20
4.42566926836386
30
0
41
1
10
39.8535979840808
20
4.42608593940062
30
0
41
1
10
39.3538009971638
20
4.4262187621722
30
0
41
1
10
38.8285502852737
20
4.42535406902658
30
0
41
1
10
38.3196520791764
20
4.42502486241682
30
0
41
1
10
37.8250366376668
20
4.42515735465949
30
0
41
1
10
37.3195232362806
20
4.42483697309174
30
0
41
1
10
36.8414706449067
20
4.424213921995
30
0
41
1
10
36.5483851089891
20
4.42411641386246
30
0
41
1
10
36.4351068539942
20
4.42408472051008
30
0
0
SPLINE
5
F1
100
AcDbEntity
8
1
62
256
6
ByLayer
370
18
48
1
60
0
100
AcDbSpline
70
4
71
1
72
4
73
2
40
0
40
0
40
1
40
1
41
1
10
61.1683200777579
20
-4.43952308118295
30
0
41
1
10
61.3734881986593
20
-4.43920039173159
30
0
0
SPLINE
5
F2
100
AcDbEntity
8
1
62
256
6
ByLayer
370
18
48
1
60
0
100
AcDbSpline
70
4
71
3
72
27
73
23
40
0
40
0
40
0
40
0
40
0.0595141398611329
40
0.10504632182268
40
0.136822916856978
40
0.161046233728744
40
0.184372422642728
40
0.20681987650142
40
0.257268260673839
40
0.308426559287008
40
0.374630726393655
40
0.430852181391535
40
0.498709042434719
40
0.558469034766215
40
0.631681022970424
40
0.702155579040135
40
0.773523331107665
40
0.845289061576608
40
0.884980577659975
40
0.923120711353206
40
0.96483359413945
40
1
40
1
40
1
40
1
41
1
10
6.69224538581483
20
-4.40558067942672
30
0
41
1
10
6.95220519603117
20
-4.4058076125643
30
0
41
1
10
7.41105582205395
20
-4.40620390871536
30
0
41
1
10
8.00860044483903
20
-4.40688375325303
30
0
41
1
10
8.45217635555116
20
-4.40716436032454
30
0
41
1
10
8.79839684236495
20
-4.40741564973121
30
0
41
1
10
9.10414192770335
20
-4.40768427502599
30
0
41
1
10
9.52443954608083
20
-4.40810839040492
30
0
41
1
10
10.0663039777413
20
-4.40830266219569
30
0
41
1
10
10.7992908181082
20
-4.40857780769974
30
0
41
1
10
11.5574935720613
20
-4.40968084743892
30
0
41
1
10
12.3886469827925
20
-4.40946124326183
30
0
41
1
10
13.191645851386
20
-4.41090800995275
30
0
41
1
10
14.0688675694855
20
-4.41039012688321
30
0
41
1
10
14.9575133921671
20
-4.41213240326132
30
0
41
1
10
15.8968888220503
20
-4.4114198984704
30
0
41
1
10
16.8298471127957
20
-4.41317865695214
30
0
41
1
10
17.6286800489347
20
-4.41355976351375
30
0
41
1
10
18.2815484105644
20
-4.41508031320657
30
0
41
1
10
18.8054697204887
20
-4.41446206125764
30
0
41
1
10
19.2967858020942
20
-4.41280927637121
30
0
41
1
10
19.6326879056193
20
-4.41304546557484
30
0
41
1
10
19.7867505414038
20
-4.41328528363505
30
0
0
SPLINE
5
F3
100
AcDbEntity
8
1
62
256
6
ByLayer
370
18
48
1
60
0
100
AcDbSpline
70
4
71
1
72
4
73
2
40
0
40
0
40
1
40
1
41
1
10
47.3487857837664
20
-2.65507825077E-05
30
0
41
1
10
47.3487769256532
20
-2.16437251765E-05
30
0
0
LINE
5
7B
100
AcDbEntity
8
SK1
62
256
6
ByLayer
370
18
48
1
60
0
100
AcDbLine
10
-40
20
3.609924
30
0
11
-40
21
3.388064
31
0
39
0
210
0
220
0
230
1
0
LINE
5
7D
100
AcDbEntity
8
SK1
62
256
6
ByLayer
370
18
48
1
60
0
100
AcDbLine
10
-40
20
3.388116
30
0
11
-40
21
-3.609924
31
0
39
0
210
0
220
0
230
1
0
LINE
5
7E
100
AcDbEntity
8
SK1
62
256
6
ByLayer
370
18
48
1
60
0
100
AcDbLine
10
-39.25
20
-4.390368
30
0
11
-39.25
21
-4.41
31
0
39
0
210
0
220
0
230
1
0
LINE
5
7F
100
AcDbEntity
8
SK1
62
256
6
ByLayer
370
13
48
1
60
0
100
AcDbLine
10
-39.35
20
4.277428
30
0
11
-39.35
21
4.05556
31
0
39
0
210
0
220
0
230
1
0
LINE
5
80
100
AcDbEntity
8
SK1
62
256
6
ByLayer
370
18
48
1
60
0
100
AcDbLine
10
0
20
-5
30
0
11
0
21
5
31
0
39
0
210
0
220
0
230
1
0
LINE
5
81
100
AcDbEntity
8
SK1
62
256
6
ByLayer
370
18
48
1
60
0
100
AcDbLine
10
-38.66
20
5
30
0
11
-38.66
21
-5
31
0
39
0
210
0
220
0
230
1
0
LINE
5
82
100
AcDbEntity
8
SK1
62
256
6
ByLayer
370
18
48
1
60
0
100
AcDbLine
10
-39.25
20
4.41
30
0
11
-39.25
21
4.190741
31
0
39
0
210
0
220
0
230
1
0
LINE
5
83
100
AcDbEntity
8
1
62
256
6
ByLayer
370
13
48
1
60
0
100
AcDbLine
10
61.313746
20
0.996752
30
0
11
62.964243
21
-0.048052
31
0
39
0
210
0
220
0
230
1
0
LINE
5
84
100
AcDbEntity
8
1
62
256
6
ByLayer
370
13
48
1
60
0
100
AcDbLine
10
61.449615
20
1.092557
30
0
11
62.989536
21
0.11775
31
0
39
0
210
0
220
0
230
1
0
LINE
5
85
100
AcDbEntity
8
1
62
256
6
ByLayer
370
13
48
1
60
0
100
AcDbLine
10
1.016961
20
4.63564
30
0
11
1.016961
21
-4.63564
31
0
39
0
210
0
220
0
230
1
0
LINE
5
86
100
AcDbEntity
8
1
62
256
6
ByLayer
370
13
48
1
60
0
100
AcDbLine
10
0.508231
20
4.81782
30
0
11
0.508231
21
-4.81782
31
0
39
0
210
0
220
0
230
1
0
LINE
5
87
100
AcDbEntity
8
1
62
256
6
ByLayer
370
18
48
1
60
0
100
AcDbLine
10
0
20
-5
30
0
11
0
21
5
31
0
39
0
210
0
220
0
230
1
0
LINE
5
88
100
AcDbEntity
8
80
62
256
6
ByLayer
370
18
48
1
60
0
100
AcDbLine
10
0
20
0
30
0
11
-5
21
0
31
0
39
0
210
0
220
0
230
1
0
LINE
5
89
100
AcDbEntity
8
4
62
256
6
ByLayer
370
18
48
0.05
60
0
100
AcDbLine
10
63
20
0
30
0
11
0
21
0
31
0
39
0
210
0
220
0
230
1
0
LINE
5
8B
100
AcDbEntity
8
SK4
62
256
6
ByLayer
370
18
48
0.05
60
0
100
AcDbLine
10
68
20
0
30
0
11
-45
21
0
31
0
39
0
210
0
220
0
230
1
0
LINE
5
8D
100
AcDbEntity
8
SK1
62
256
6
ByLayer
370
18
48
1
60
0
100
AcDbLine
10
-38.66
20
-5
30
0
11
0
21
-5
31
0
39
0
210
0
220
0
230
1
0
LINE
5
8E
100
AcDbEntity
8
SK1
62
256
6
ByLayer
370
18
48
1
60
0
100
AcDbLine
10
0
20
5
30
0
11
-38.66
21
5
31
0
39
0
210
0
220
0
230
1
0
LINE
5
8F
100
AcDbEntity
8
SK1
62
256
6
ByLayer
370
18
48
1
60
0
100
AcDbLine
10
-39.25
20
-4.41
30
0
11
-38.66
21
-5
31
0
39
0
210
0
220
0
230
1
0
LINE
5
90
100
AcDbEntity
8
SK1
62
256
6
ByLayer
370
18
48
1
60
0
100
AcDbLine
10
-38.66
20
5
30
0
11
-39.25
21
4.41
31
0
39
0
210
0
220
0
230
1
0
LINE
5
91
100
AcDbEntity
8
1
62
256
6
ByLayer
370
18
48
1
60
0
100
AcDbLine
10
1.016961
20
-4.63564
30
0
11
6.548325
21
-4.639098
31
0
39
0
210
0
220
0
230
1
0
LINE
5
92
100
AcDbEntity
8
1
62
256
6
ByLayer
370
18
48
1
60
0
100
AcDbLine
10
32.371509
20
-4.655237
30
0
11
33.748784
21
-4.656098
31
0
39
0
210
0
220
0
230
1
0
LINE
5
93
100
AcDbEntity
8
1
62
256
6
ByLayer
370
18
48
1
60
0
100
AcDbLine
10
59.570142
20
-4.672236
30
0
11
60.949266
21
-4.673098
31
0
39
0
210
0
220
0
230
1
0
LINE
5
94
100
AcDbEntity
8
1
62
256
6
ByLayer
370
18
48
1
60
0
100
AcDbLine
10
60.949124
20
4.673098
30
0
11
59.570142
21
4.672236
31
0
39
0
210
0
220
0
230
1
0
LINE
5
95
100
AcDbEntity
8
1
62
256
6
ByLayer
370
18
48
1
60
0
100
AcDbLine
10
33.74823
20
4.656098
30
0
11
32.371509
21
4.655237
31
0
39
0
210
0
220
0
230
1
0
LINE
5
96
100
AcDbEntity
8
1
62
256
6
ByLayer
370
18
48
1
60
0
100
AcDbLine
10
6.548135
20
4.639097
30
0
11
1.016961
21
4.63564
31
0
39
0
210
0
220
0
230
1
0
LINE
5
97
100
AcDbEntity
8
81
62
256
6
ByLayer
370
18
48
1
60
0
100
AcDbLine
10
63
20
0
30
0
11
68
21
0
31
0
39
0
210
0
220
0
230
1
0
LINE
5
98
100
AcDbEntity
8
SK2
62
256
6
ByLayer
370
13
48
1
60
0
100
AcDbLine
10
-48.625163
20
-5
30
0
11
-48.625163
21
35.857173
31
0
39
0
210
0
220
0
230
1
0
LINE
5
9A
100
AcDbEntity
8
SK2
62
256
6
ByLayer
370
13
48
1
60
0
100
AcDbLine
10
-41.5875
20
5
30
0
11
-50.625163
21
5
31
0
39
0
210
0
220
0
230
1
0
LINE
5
9B
100
AcDbEntity
8
SK2
62
256
6
ByLayer
370
13
48
1
60
0
100
AcDbLine
10
-41.5875
20
-5
30
0
11
-50.625163
21
-5
31
0
39
0
210
0
220
0
230
1
0
LINE
5
9C
100
AcDbEntity
8
1
62
256
6
ByLayer
370
18
48
1
60
1
100
AcDbLine
10
-48.625163
20
5
30
0
11
-48.164379
21
1.500002
31
0
39
0
210
0
220
0
230
1
0
LINE
5
9D
100
AcDbEntity
8
1
62
256
6
ByLayer
370
18
48
1
60
1
100
AcDbLine
10
-48.164379
20
1.500002
30
0
11
-49.085946
21
1.499998
31
0
39
0
210
0
220
0
230
1
0
LINE
5
9E
100
AcDbEntity
8
1
62
256
6
ByLayer
370
18
48
1
60
1
100
AcDbLine
10
-49.085946
20
1.499998
30
0
11
-48.625163
21
5
31
0
39
0
210
0
220
0
230
1
0
LINE
5
9F
100
AcDbEntity
8
1
62
256
6
ByLayer
370
18
48
1
60
1
100
AcDbLine
10
-48.625163
20
-5
30
0
11
-49.085946
21
-1.500002
31
0
39
0
210
0
220
0
230
1
0
LINE
5
A0
100
AcDbEntity
8
1
62
256
6
ByLayer
370
18
48
1
60
1
100
AcDbLine
10
-49.085946
20
-1.500002
30
0
11
-48.164379
21
-1.499998
31
0
39
0
210
0
220
0
230
1
0
LINE
5
A1
100
AcDbEntity
8
1
62
256
6
ByLayer
370
18
48
1
60
1
100
AcDbLine
10
-48.164379
20
-1.499998
30
0
11
-48.625163
21
-5
31
0
39
0
210
0
220
0
230
1
0
LINE
5
A2
100
AcDbEntity
8
2
62
256
6
ByLayer
370
13
48
1
60
0
100
AcDbLine
10
75.083343
20
-4.6735
30
0
11
75.083343
21
32.752227
31
0
39
0
210
0
220
0
230
1
0
LINE
5
A4
100
AcDbEntity
8
2
62
256
6
ByLayer
370
13
48
1
60
0
100
AcDbLine
10
63.2015
20
4.6735
30
0
11
77.083343
21
4.6735
31
0
39
0
210
0
220
0
230
1
0
LINE
5
A5
100
AcDbEntity
8
2
62
256
6
ByLayer
370
13
48
1
60
0
100
AcDbLine
10
63.2015
20
-4.6735
30
0
11
77.083343
21
-4.6735
31
0
39
0
210
0
220
0
230
1
0
LINE
5
A6
100
AcDbEntity
8
1
62
256
6
ByLayer
370
18
48
1
60
1
100
AcDbLine
10
75.083343
20
4.6735
30
0
11
75.544126
21
1.173502
31
0
39
0
210
0
220
0
230
1
0
LINE
5
A7
100
AcDbEntity
8
1
62
256
6
ByLayer
370
18
48
1
60
1
100
AcDbLine
10
75.544126
20
1.173502
30
0
11
74.622559
21
1.173498
31
0
39
0
210
0
220
0
230
1
0
LINE
5
A8
100
AcDbEntity
8
1
62
256
6
ByLayer
370
18
48
1
60
1
100
AcDbLine
10
74.622559
20
1.173498
30
0
11
75.083343
21
4.6735
31
0
39
0
210
0
220
0
230
1
0
LINE
5
A9
100
AcDbEntity
8
1
62
256
6
ByLayer
370
18
48
1
60
1
100
AcDbLine
10
75.083343
20
-4.6735
30
0
11
74.622559
21
-1.173502
31
0
39
0
210
0
220
0
230
1
0
LINE
5
AA
100
AcDbEntity
8
1
62
256
6
ByLayer
370
18
48
1
60
1
100
AcDbLine
10
74.622559
20
-1.173502
30
0
11
75.544126
21
-1.173498
31
0
39
0
210
0
220
0
230
1
0
LINE
5
AB
100
AcDbEntity
8
1
62
256
6
ByLayer
370
18
48
1
60
1
100
AcDbLine
10
75.544126
20
-1.173498
30
0
11
75.083343
21
-4.6735
31
0
39
0
210
0
220
0
230
1
0
LINE
5
FA
100
AcDbEntity
8
1
62
256
6
ByLayer
370
18
48
1
60
1
100
AcDbLine
10
-48.625163
20
5
30
0
11
-48.164379
21
1.500002
31
0
39
0
210
0
220
0
230
1
0
LINE
5
FB
100
AcDbEntity
8
1
62
256
6
ByLayer
370
18
48
1
60
1
100
AcDbLine
10
-48.164379
20
1.500002
30
0
11
-49.085946
21
1.499998
31
0
39
0
210
0
220
0
230
1
0
LINE
5
FC
100
AcDbEntity
8
1
62
256
6
ByLayer
370
18
48
1
60
1
100
AcDbLine
10
-49.085946
20
1.499998
30
0
11
-48.625163
21
5
31
0
39
0
210
0
220
0
230
1
0
LINE
5
FE
100
AcDbEntity
8
1
62
256
6
ByLayer
370
18
48
1
60
1
100
AcDbLine
10
-48.625163
20
-5
30
0
11
-49.085946
21
-1.500002
31
0
39
0
210
0
220
0
230
1
0
LINE
5
FF
100
AcDbEntity
8
1
62
256
6
ByLayer
370
18
48
1
60
1
100
AcDbLine
10
-49.085946
20
-1.500002
30
0
11
-48.164379
21
-1.499998
31
0
39
0
210
0
220
0
230
1
0
LINE
5
100
100
AcDbEntity
8
1
62
256
6
ByLayer
370
18
48
1
60
1
100
AcDbLine
10
-48.164379
20
-1.499998
30
0
11
-48.625163
21
-5
31
0
39
0
210
0
220
0
230
1
0
LINE
5
104
100
AcDbEntity
8
1
62
256
6
ByLayer
370
18
48
1
60
1
100
AcDbLine
10
75.083343
20
4.6735
30
0
11
75.544126
21
1.173502
31
0
39
0
210
0
220
0
230
1
0
LINE
5
105
100
AcDbEntity
8
1
62
256
6
ByLayer
370
18
48
1
60
1
100
AcDbLine
10
75.544126
20
1.173502
30
0
11
74.622559
21
1.173498
31
0
39
0
210
0
220
0
230
1
0
LINE
5
106
100
AcDbEntity
8
1
62
256
6
ByLayer
370
18
48
1
60
1
100
AcDbLine
10
74.622559
20
1.173498
30
0
11
75.083343
21
4.6735
31
0
39
0
210
0
220
0
230
1
0
LINE
5
108
100
AcDbEntity
8
1
62
256
6
ByLayer
370
18
48
1
60
1
100
AcDbLine
10
75.083343
20
-4.6735
30
0
11
74.622559
21
-1.173502
31
0
39
0
210
0
220
0
230
1
0
LINE
5
109
100
AcDbEntity
8
1
62
256
6
ByLayer
370
18
48
1
60
1
100
AcDbLine
10
74.622559
20
-1.173502
30
0
11
75.544126
21
-1.173498
31
0
39
0
210
0
220
0
230
1
0
LINE
5
10A
100
AcDbEntity
8
1
62
256
6
ByLayer
370
18
48
1
60
1
100
AcDbLine
10
75.544126
20
-1.173498
30
0
11
75.083343
21
-4.6735
31
0
39
0
210
0
220
0
230
1
0
MTEXT
5
F4
100
AcDbEntity
8
SK6
62
256
6
ByLayer
370
13
48
1
60
0
100
AcDbMText
10
-17.82946
20
37.213828
30
0
210
0
220
0
230
1
1
\W0.7716;462.1-0935-047A1-XM X2BM
40
3.5
41
0
44
1.084337
50
0
71
7
72
5
7
iso_b_vert
0
MTEXT
5
F8
100
AcDbEntity
8
SK2
62
256
6
ByLayer
370
18
48
1
60
0
100
AcDbMText
10
-50.189796
20
18.409024
30
0
210
0
220
0
230
1
1
%%c
40
3.5
41
0
44
1.084337
50
90
71
7
72
5
7
iso_b_vert
0
MTEXT
5
F9
100
AcDbEntity
8
SK2
62
256
6
ByLayer
370
18
48
1
60
0
100
AcDbMText
10
-50.189796
20
23.63168
30
0
210
0
220
0
230
1
1
\W0.6930;10,000
40
3.5
41
0
44
1.084337
50
90
71
7
72
5
7
iso_b_vert
0
MTEXT
5
102
100
AcDbEntity
8
2
62
256
6
ByLayer
370
18
48
1
60
0
100
AcDbMText
10
73.518709
20
16.67561
30
0
210
0
220
0
230
1
1
%%c
40
3.5
41
0
44
1.084337
50
90
71
7
72
5
7
iso_b_vert
0
MTEXT
5
103
100
AcDbEntity
8
2
62
256
6
ByLayer
370
18
48
1
60
0
100
AcDbMText
10
73.518709
20
21.898266
30
0
210
0
220
0
230
1
1
\W0.7581;9,347
40
3.5
41
0
44
1.084337
50
90
71
7
72
5
7
iso_b_vert
0
HATCH
5
FD
100
AcDbEntity
8
SK2
62
256
6
ByLayer
370
13
48
1
60
0
100
AcDbHatch
10
0
20
0
30
0
210
0
220
0
230
1
2
ANSI31
70
0
71
0
91
1
92
5
93
3
72
1
10
-48.6251625675374
20
5
11
-48.1643788259847
21
1.50000169255318
72
1
10
-48.1643788259847
20
1.50000169255318
11
-49.0859463090902
21
1.49999830744682
72
1
10
-49.0859463090902
20
1.49999830744682
11
-48.6251625675374
21
5
97
0
75
0
76
1
52
0
41
0.0062
77
0
78
1
53
45
43
0
44
0
45
-0.0139193969876572
46
0.0139193969876572
79
0
47
0
98
1
10
0
20
0
0
HATCH
5
101
100
AcDbEntity
8
SK2
62
256
6
ByLayer
370
13
48
1
60
0
100
AcDbHatch
10
0
20
0
30
0
210
0
220
0
230
1
2
ANSI31
70
0
71
0
91
1
92
5
93
3
72
1
10
-48.6251625675374
20
-5
11
-49.0859463090902
21
-1.50000169255318
72
1
10
-49.0859463090902
20
-1.50000169255318
11
-48.1643788259847
21
-1.49999830744682
72
1
10
-48.1643788259847
20
-1.49999830744682
11
-48.6251625675374
21
-5
97
0
75
0
76
1
52
0
41
0.0062
77
0
78
1
53
45
43
0
44
0
45
-0.0139193969876572
46
0.0139193969876572
79
0
47
0
98
1
10
0
20
0
0
HATCH
5
107
100
AcDbEntity
8
2
62
256
6
ByLayer
370
13
48
1
60
0
100
AcDbHatch
10
0
20
0
30
0
210
0
220
0
230
1
2
ANSI31
70
0
71
0
91
1
92
5
93
3
72
1
10
75.083342615295
20
4.67350000000002
11
75.5441263568477
21
1.1735016925532
72
1
10
75.5441263568477
20
1.1735016925532
11
74.6225588737422
21
1.17349830744684
72
1
10
74.6225588737422
20
1.17349830744684
11
75.083342615295
21
4.67350000000002
97
0
75
0
76
1
52
0
41
0.0062
77
0
78
1
53
45
43
0
44
0
45
-0.0139193969876572
46
0.0139193969876572
79
0
47
0
98
1
10
0
20
0
0
HATCH
5
10B
100
AcDbEntity
8
2
62
256
6
ByLayer
370
13
48
1
60
0
100
AcDbHatch
10
0
20
0
30
0
210
0
220
0
230
1
2
ANSI31
70
0
71
0
91
1
92
5
93
3
72
1
10
75.083342615295
20
-4.67349999999999
11
74.6225588737422
21
-1.17350169255317
72
1
10
74.6225588737422
20
-1.17350169255317
11
75.5441263568477
21
-1.17349830744681
72
1
10
75.5441263568477
20
-1.17349830744681
11
75.083342615295
21
-4.67349999999999
97
0
75
0
76
1
52
0
41
0.0062
77
0
78
1
53
45
43
0
44
0
45
-0.0139193969876572
46
0.0139193969876572
79
0
47
0
98
1
10
0
20
0
0
DIMENSION
5
10D
100
AcDbEntity
8
SK2
62
256
6
ByLayer
370
13
48
1
60
0
100
AcDbDimension
2
_U0
10
61.614
20
-14.886898
30
0
11
30.807
21
-14.886898
31
0
70
32
71
1
72
1
41
1
210
0
220
0
230
1
3
Standard
100
AcDbAlignedDimension
13
0
23
0
33
0
14
61.614
24
-4.6735
34
0
50
0
100
AcDbRotatedDimension
1001
ACAD
1000
DSTYLE
1002
{
1070
   371
1070
    13
1070
   372
1070
    13
1070
   170
1070
     0
1070
   144
1040
1.0
1070
   277
1070
     2
1070
   278
1070
    44
1070
   146
1040
1.0
1070
   345
1005
16
1070
   347
1005
16
1070
   346
1005
16
1070
   344
1005
0
1070
   343
1005
0
1070
   172
1070
     1
1070
    76
1070
     0
1070
    75
1070
     0
1070
   282
1070
     0
1070
   281
1070
     0
1070
    71
1070
     0
1070
    74
1070
     0
1070
   279
1070
     0
1070
   173
1070
     1
1070
   340
1005
F5
1070
   271
1070
     2
1070
   272
1070
     2
1070
    77
1070
     1
1070
    73
1070
     1
1070
   171
1070
     3
1070
   274
1070
     4
1070
   177
1070
    35
1070
   176
1070
    35
1070
   178
1070
    35
1070
    48
1040
-0.1
1070
    41
1040
3.5
1070
   147
1040
1.75
1070
    42
1040
1.5875
1070
    44
1040
2.0
1070
   140
1040
3.5
1002
}
1001
ACAD_DSTYLE_DIM_LINETYPE
1070
   380
1005
16
1001
ACAD_DSTYLE_DIM_EXT1_LINETYPE
1070
   381
1005
16
1001
ACAD_DSTYLE_DIM_EXT2_LINETYPE
1070
   382
1005
16
0
DIMENSION
5
126
100
AcDbEntity
8
SK2
62
256
6
ByLayer
370
13
48
1
60
0
100
AcDbDimension
2
_U1
10
63
20
-33.692985
30
0
11
11.5
21
-33.692985
31
0
70
32
71
1
72
1
41
1
210
0
220
0
230
1
3
Standard
100
AcDbAlignedDimension
13
-40
23
-5
33
0
14
63
24
0
34
0
50
0
100
AcDbRotatedDimension
1001
ACAD
1000
DSTYLE
1002
{
1070
   371
1070
    13
1070
   372
1070
    13
1070
   170
1070
     0
1070
   144
1040
1.0
1070
   277
1070
     2
1070
   278
1070
    44
1070
   146
1040
1.0
1070
   345
1005
16
1070
   347
1005
16
1070
   346
1005
16
1070
   344
1005
0
1070
   343
1005
0
1070
   172
1070
     1
1070
    76
1070
     0
1070
    75
1070
     0
1070
   282
1070
     0
1070
   281
1070
     0
1070
    71
1070
     0
1070
    74
1070
     0
1070
   279
1070
     0
1070
   173
1070
     1
1070
   340
1005
F5
1070
   271
1070
     2
1070
   272
1070
     2
1070
    77
1070
     1
1070
    73
1070
     1
1070
   171
1070
     3
1070
   274
1070
     4
1070
   177
1070
    35
1070
   176
1070
    35
1070
   178
1070
    35
1070
    48
1040
-0.1
1070
    41
1040
3.5
1070
   147
1040
1.75
1070
    42
1040
1.5875
1070
    44
1040
2.0
1070
   140
1040
3.5
1002
}
1001
ACAD_DSTYLE_DIM_LINETYPE
1070
   380
1005
16
1001
ACAD_DSTYLE_DIM_EXT1_LINETYPE
1070
   381
1005
16
1001
ACAD_DSTYLE_DIM_EXT2_LINETYPE
1070
   382
1005
16
0
DIMENSION
5
13E
100
AcDbEntity
8
SK2
62
256
6
ByLayer
370
13
48
1
60
0
100
AcDbDimension
2
_U2
10
63
20
16.282619
30
0
11
38.93
21
16.282619
31
0
70
32
71
1
72
1
41
1
210
0
220
0
230
1
3
Standard
100
AcDbAlignedDimension
13
14.86
23
4.6735
33
0
14
63
24
0
34
0
50
0
100
AcDbRotatedDimension
1001
ACAD
1000
DSTYLE
1002
{
1070
   371
1070
    13
1070
   372
1070
    13
1070
   170
1070
     0
1070
   144
1040
1.0
1070
   277
1070
     2
1070
   278
1070
    44
1070
   146
1040
1.0
1070
   345
1005
16
1070
   347
1005
16
1070
   346
1005
16
1070
   344
1005
0
1070
   343
1005
0
1070
   172
1070
     1
1070
    76
1070
     0
1070
    75
1070
     0
1070
   282
1070
     0
1070
   281
1070
     0
1070
    71
1070
     0
1070
    74
1070
     0
1070
   279
1070
     0
1070
   173
1070
     1
1070
   340
1005
F5
1070
   271
1070
     2
1070
   272
1070
     2
1070
    77
1070
     1
1070
    73
1070
     1
1070
   171
1070
     3
1070
   274
1070
     4
1070
   177
1070
    35
1070
   176
1070
    35
1070
   178
1070
    35
1070
    48
1040
-0.1
1070
    41
1040
3.5
1070
   147
1040
1.75
1070
    42
1040
1.5875
1070
    44
1040
2.0
1070
   140
1040
3.5
1002
}
1001
ACAD_DSTYLE_DIM_LINETYPE
1070
   380
1005
16
1001
ACAD_DSTYLE_DIM_EXT1_LINETYPE
1070
   381
1005
16
1001
ACAD_DSTYLE_DIM_EXT2_LINETYPE
1070
   382
1005
16
0
DIMENSION
5
156
100
AcDbEntity
8
SK2
62
256
6
ByLayer
370
13
48
1
60
0
100
AcDbDimension
2
_U3
10
61.614
20
-17.476003
30
0
11
80.25
21
-17.476003
31
0
70
32
71
1
72
1
41
1
210
0
220
0
230
1
3
Standard
100
AcDbAlignedDimension
13
63
23
0
33
0
14
61.614
24
-4.6735
34
0
50
0
100
AcDbRotatedDimension
1001
ACAD
1000
DSTYLE
1002
{
1070
   371
1070
    13
1070
   372
1070
    13
1070
   170
1070
     0
1070
   144
1040
1.0
1070
   277
1070
     2
1070
   278
1070
    44
1070
   146
1040
1.0
1070
   345
1005
16
1070
   347
1005
16
1070
   346
1005
16
1070
   344
1005
0
1070
   343
1005
0
1070
   172
1070
     1
1070
    76
1070
     0
1070
    75
1070
     0
1070
   282
1070
     0
1070
   281
1070
     0
1070
    71
1070
     0
1070
    74
1070
     0
1070
   279
1070
     0
1070
   173
1070
     1
1070
   340
1005
F5
1070
   271
1070
     2
1070
   272
1070
     2
1070
    77
1070
     1
1070
    73
1070
     1
1070
   171
1070
     3
1070
   274
1070
     4
1070
   177
1070
    35
1070
   176
1070
    35
1070
   178
1070
    35
1070
    48
1040
-0.1
1070
    41
1040
3.5
1070
   147
1040
1.75
1070
    42
1040
1.5875
1070
    44
1040
2.0
1070
   140
1040
3.5
1002
}
1001
ACAD_DSTYLE_DIM_LINETYPE
1070
   380
1005
16
1001
ACAD_DSTYLE_DIM_EXT1_LINETYPE
1070
   381
1005
16
1001
ACAD_DSTYLE_DIM_EXT2_LINETYPE
1070
   382
1005
16
0
DIMENSION
5
170
100
AcDbEntity
8
SK2
62
256
6
ByLayer
370
13
48
1
60
0
100
AcDbDimension
2
_U4
10
61.614
20
-23.343428
30
0
11
10.807
21
-23.343428
31
0
70
32
71
1
72
1
41
1
210
0
220
0
230
1
3
Standard
100
AcDbAlignedDimension
13
-40
23
-5
33
0
14
61.614
24
-4.6735
34
0
50
0
100
AcDbRotatedDimension
1001
ACAD
1000
DSTYLE
1002
{
1070
   371
1070
    13
1070
   372
1070
    13
1070
   170
1070
     0
1070
   144
1040
1.0
1070
   277
1070
     2
1070
   278
1070
    44
1070
   146
1040
1.0
1070
   345
1005
16
1070
   347
1005
16
1070
   346
1005
16
1070
   344
1005
0
1070
   343
1005
0
1070
   172
1070
     1
1070
    76
1070
     0
1070
    75
1070
     0
1070
   282
1070
     0
1070
   281
1070
     0
1070
    71
1070
     0
1070
    74
1070
     0
1070
   279
1070
     0
1070
   173
1070
     1
1070
   340
1005
F5
1070
   271
1070
     2
1070
   272
1070
     2
1070
    77
1070
     1
1070
    73
1070
     1
1070
   171
1070
     3
1070
   274
1070
     4
1070
   177
1070
    35
1070
   176
1070
    35
1070
   178
1070
    35
1070
    48
1040
-0.1
1070
    41
1040
3.5
1070
   147
1040
1.75
1070
    42
1040
1.5875
1070
    44
1040
2.0
1070
   140
1040
3.5
1002
}
1001
ACAD_DSTYLE_DIM_LINETYPE
1070
   380
1005
16
1001
ACAD_DSTYLE_DIM_EXT1_LINETYPE
1070
   381
1005
16
1001
ACAD_DSTYLE_DIM_EXT2_LINETYPE
1070
   382
1005
16
0
ENDSEC
0
SECTION
2
OBJECTS
0
DICTIONARY
5
1f8
330
0
100
AcDbDictionary
280
0
281
1
3
ACAD_GROUP
350
1f9
3
ACAD_MLINESTYLE
350
1fa
0
DICTIONARY
5
1f9
330
0
100
AcDbDictionary
280
0
281
1
0
DICTIONARY
5
1fa
330
0
100
AcDbDictionary
280
0
281
1
3
Standard
350
18
0
MLINESTYLE
5
18
330
1fa
100
AcDbMlineStyle
2
Standard
70
0
3

62
256
51
90
52
90
71
2
49
-0.5
62
256
6
ByLayer
49
0.5
62
256
6
ByLayer
0
RASTERVARIABLES
5
1e6
330

100
AcDbRasterVariables
90
0
70
1
71
1
72
1
0
ENDSEC
0
EOF
