0
SECTION
2
HEADER
9
$ACADVER
1
AC1015
9
$DWGCODEPAGE
3
ANSI_1252
9
$HANDSEED
5
204
9
$ANGBASE
50
0
9
$ANGDIR
70
0
9
$ATTMODE
70
1
9
$AUNITS
70
0
9
$AUPREC
70
0
9
$CECOLOR
62
256
9
$CELTSCALE
40
1
9
$CELTYPE
6
ByLayer
9
$CELWEIGHT
370
18
9
$CLAYER
8
0
9
$CMLJUST
70
0
9
$CMLSCALE
40
1
9
$CMLSTYLE
2
Standard
9
$DIMSTYLE
2
Standard
9
$TEXTSIZE
40
0.2
9
$TEXTSTYLE
7
Standard
9
$LUNITS
70
2
9
$LUPREC
70
4
9
$EXTNAMES
290
1
9
$INSUNITS
70
4
9
$LTSCALE
40
1
9
$LWDISPLAY
290
1
9
$PDMODE
70
0
9
$PDSIZE
40
0
9
$PLINEGEN
70
0
0
ENDSEC
0
SECTION
2
CLASSES
0
CLASS
1
RASTERVARIABLES
2
AcDbRasterVariables
3
ISM
90
0
280
0
281
0
0
ENDSEC
0
SECTION
2
TABLES
0
TABLE
2
VPORT
5
1fa
100
AcDbSymbolTable
0
VPORT
5
1
100
AcDbSymbolTableRecord
100
AcDbViewportTableRecord
2
*Active
70
0
10
0
20
0
11
1
21
1
12
-1
22
1
13
0
23
0
14
0.5
24
0.5
15
10
25
10
16
0
26
0
36
1
17
0
27
0
37
0
0
ENDTAB
0
TABLE
2
LTYPE
5
1fb
100
AcDbSymbolTable
0
LTYPE
5
14
100
AcDbSymbolTableRecord
100
AcDbLinetypeTableRecord
70
0
2
ByBlock
3

72
65
73
0
40
0
0
LTYPE
5
15
100
AcDbSymbolTableRecord
100
AcDbLinetypeTableRecord
70
0
2
ByLayer
3

72
65
73
0
40
0
0
LTYPE
5
16
100
AcDbSymbolTableRecord
100
AcDbLinetypeTableRecord
70
0
2
Continuous
3
Solid line
72
65
73
0
40
0
0
LTYPE
5
6E
100
AcDbSymbolTableRecord
100
AcDbLinetypeTableRecord
70
0
2
CENTER
3
____ _ ____ _ ____ _ ____
72
65
73
4
40
47.5
49
22
74
0
49
-8.5
74
0
49
8.5
74
0
49
-8.5
74
0
0
LTYPE
5
6F
100
AcDbSymbolTableRecord
100
AcDbLinetypeTableRecord
70
0
2
DASHED
3
__ __ __ __ __ __ __ __ __
72
65
73
2
40
25.72
49
12.86
74
0
49
-12.86
74
0
0
ENDTAB
0
TABLE
2
LAYER
5
1fc
100
AcDbSymbolTable
0
LAYER
5
10
100
AcDbSymbolTableRecord
100
AcDbLayerTableRecord
2
0
70
0
62
7
6
Continuous
290
1
370
-3
390
0
0
LAYER
5
71
100
AcDbSymbolTableRecord
100
AcDbLayerTableRecord
2
80
70
0
62
-6
6
Continuous
290
1
370
-3
390
0
0
LAYER
5
73
100
AcDbSymbolTableRecord
100
AcDbLayerTableRecord
2
81
70
0
62
-3
6
Continuous
290
1
370
-3
390
0
0
LAYER
5
75
100
AcDbSymbolTableRecord
100
AcDbLayerTableRecord
2
1
70
0
62
4
6
Continuous
290
1
370
-3
390
0
0
LAYER
5
8A
100
AcDbSymbolTableRecord
100
AcDbLayerTableRecord
2
4
70
0
62
-2
6
CENTER
290
1
370
-3
390
0
0
LAYER
5
A3
100
AcDbSymbolTableRecord
100
AcDbLayerTableRecord
2
2
70
0
62
7
6
Continuous
290
1
370
-3
390
0
0
LAYER
5
10F
100
AcDbSymbolTableRecord
100
AcDbLayerTableRecord
2
Defpoints
70
0
62
7
6
Continuous
290
0
370
-3
390
0
0
LAYER
5
1e6
100
AcDbSymbolTableRecord
100
AcDbLayerTableRecord
2
SK1
70
0
62
4
6
Continuous
290
1
370
-3
390
0
0
LAYER
5
1e7
100
AcDbSymbolTableRecord
100
AcDbLayerTableRecord
2
SK4
70
0
62
2
6
CENTER
290
1
370
-3
390
0
0
LAYER
5
1e8
100
AcDbSymbolTableRecord
100
AcDbLayerTableRecord
2
SK2
70
0
62
7
6
Continuous
290
1
370
-3
390
0
0
LAYER
5
1e9
100
AcDbSymbolTableRecord
100
AcDbLayerTableRecord
2
SK6
70
0
62
5
6
Continuous
290
1
370
-3
390
0
0
ENDTAB
0
TABLE
2
STYLE
5
1fd
100
AcDbSymbolTable
0
STYLE
5
11
100
AcDbSymbolTableRecord
100
AcDbTextStyleTableRecord
2
Standard
3
txt
70
0
71
0
40
0
41
1
42
0
50
0
0
STYLE
5
F4
100
AcDbSymbolTableRecord
100
AcDbTextStyleTableRecord
2
iso_b_vert
3
simplex.shx
70
0
71
0
40
0
41
1
42
0
50
0
0
STYLE
5
F5
100
AcDbSymbolTableRecord
100
AcDbTextStyleTableRecord
2
DWGDirectTextStyle
3
simplex
70
0
71
0
40
0
41
1
42
0
50
0
0
ENDTAB
0
TABLE
2
DIMSTYLE
5
1fe
100
AcDbSymbolTable
100
AcDbDimStyleTable
0
DIMSTYLE
105
27
100
AcDbSymbolTableRecord
100
AcDbDimStyleTableRecord
2
Standard
70
0
3
<>
41
0.18
42
0.0625
44
0.18
140
0.18
147
0.09
73
0
74
0
77
1
271
2
275
0
278
52
280
0
340
11
0
ENDTAB
0
TABLE
2
VIEW
5
1ff
100
AcDbSymbolTable
0
ENDTAB
0
TABLE
2
UCS
5
200
100
AcDbSymbolTable
0
ENDTAB
0
TABLE
2
APPID
5
201
100
AcDbSymbolTable
0
APPID
5
12
100
AcDbSymbolTableRecord
100
AcDbRegAppTableRecord
2
ACAD
70
0
0
APPID
5
10B
100
AcDbSymbolTableRecord
100
AcDbRegAppTableRecord
2
ACAD_DSTYLE_DIMBREAK
70
0
0
APPID
5
1A5
100
AcDbSymbolTableRecord
100
AcDbRegAppTableRecord
2
ACAD_DSTYLE_DIM_LINETYPE
70
0
0
APPID
5
1A6
100
AcDbSymbolTableRecord
100
AcDbRegAppTableRecord
2
ACAD_DSTYLE_DIM_EXT1_LINETYPE
70
0
0
APPID
5
1A7
100
AcDbSymbolTableRecord
100
AcDbRegAppTableRecord
2
ACAD_DSTYLE_DIM_EXT2_LINETYPE
70
0
0
APPID
5
1E2
100
AcDbSymbolTableRecord
100
AcDbRegAppTableRecord
2
ACAD_MLEADERVER
70
0
0
ENDTAB
0
TABLE
2
BLOCK_RECORD
5
202
100
AcDbSymbolTable
0
BLOCK_RECORD
5
1F
100
AcDbSymbolTableRecord
100
AcDbBlockTableRecord
2
*Model_Space
340
0
70
0
0
BLOCK_RECORD
5
1B
100
AcDbSymbolTableRecord
100
AcDbBlockTableRecord
2
*Paper_Space
340
0
70
0
0
BLOCK_RECORD
5
23
100
AcDbSymbolTableRecord
100
AcDbBlockTableRecord
2
*Paper_Space0
340
0
70
0
0
BLOCK_RECORD
5
110
100
AcDbSymbolTableRecord
100
AcDbBlockTableRecord
2
*D1
340
0
70
0
0
BLOCK_RECORD
5
11C
100
AcDbSymbolTableRecord
100
AcDbBlockTableRecord
2
_U0
340
0
70
0
0
BLOCK_RECORD
5
128
100
AcDbSymbolTableRecord
100
AcDbBlockTableRecord
2
*D3
340
0
70
0
0
BLOCK_RECORD
5
134
100
AcDbSymbolTableRecord
100
AcDbBlockTableRecord
2
_U1
340
0
70
0
0
BLOCK_RECORD
5
140
100
AcDbSymbolTableRecord
100
AcDbBlockTableRecord
2
*D5
340
0
70
0
0
BLOCK_RECORD
5
14C
100
AcDbSymbolTableRecord
100
AcDbBlockTableRecord
2
_U2
340
0
70
0
0
BLOCK_RECORD
5
158
100
AcDbSymbolTableRecord
100
AcDbBlockTableRecord
2
*D7
340
0
70
0
0
BLOCK_RECORD
5
166
100
AcDbSymbolTableRecord
100
AcDbBlockTableRecord
2
_U3
340
0
70
0
0
BLOCK_RECORD
5
172
100
AcDbSymbolTableRecord
100
AcDbBlockTableRecord
2
*D9
340
0
70
0
0
BLOCK_RECORD
5
17E
100
AcDbSymbolTableRecord
100
AcDbBlockTableRecord
2
_U4
340
0
70
0
0
ENDTAB
0
ENDSEC
0
SECTION
2
BLOCKS
0
BLOCK
5
20
100
AcDbEntity
8
0
100
AcDbBlockBegin
2
*Model_Space
70
0
10
0
20
0
30
0
3
*Model_Space
0
ENDBLK
5
21
100
AcDbEntity
8
0
100
AcDbBlockEnd
0
BLOCK
5
1C
100
AcDbEntity
8
0
100
AcDbBlockBegin
2
*Paper_Space
70
0
10
0
20
0
30
0
3
*Paper_Space
0
ENDBLK
5
1D
100
AcDbEntity
8
0
100
AcDbBlockEnd
0
BLOCK
5
24
100
AcDbEntity
8
0
100
AcDbBlockBegin
2
*Paper_Space0
70
0
10
0
20
0
30
0
3
*Paper_Space0
0
ENDBLK
5
25
100
AcDbEntity
8
0
100
AcDbBlockEnd
0
BLOCK
5
111
100
AcDbEntity
8
0
100
AcDbBlockBegin
2
*D1
70
1
10
0
20
0
30
0
3
*D1
0
LINE
5
113
100
AcDbEntity
8
0
62
256
6
ByLayer
370
-2
48
1
60
0
100
AcDbLine
10
0
20
-1.5875
30
0
11
0
21
-16.838398
31
0
39
0
210
0
220
0
230
1
0
LINE
5
114
100
AcDbEntity
8
0
62
256
6
ByLayer
370
-2
48
1
60
0
100
AcDbLine
10
61.629
20
-6.2125
30
0
11
61.629
21
-16.838398
31
0
39
0
210
0
220
0
230
1
0
LINE
5
115
100
AcDbEntity
8
0
62
256
6
ByLayer
370
-2
48
1
60
0
100
AcDbLine
10
3.5
20
-14.838398
30
0
11
58.129
21
-14.838398
31
0
39
0
210
0
220
0
230
1
0
SOLID
5
116
100
AcDbEntity
8
0
62
256
6
ByLayer
370
-1
48
1
60
0
100
AcDbTrace
10
3.5
20
-14.255065
30
0
11
3.5
21
-15.421732
31
0
12
0
22
-14.838398
32
0
13
0
23
-14.838398
33
0
39
0
210
0
220
0
230
1
0
SOLID
5
117
100
AcDbEntity
8
0
62
256
6
ByLayer
370
-1
48
1
60
0
100
AcDbTrace
10
58.129
20
-15.421732
30
0
11
58.129
21
-14.255065
31
0
12
61.629
22
-14.838398
32
0
13
61.629
23
-14.838398
33
0
39
0
210
0
220
0
230
1
0
MTEXT
5
118
100
AcDbEntity
8
0
62
256
6
ByLayer
370
18
48
1
60
0
100
AcDbMText
10
30.8145
20
-7.838398
30
0
210
0
220
0
230
1
1
\A1;61.63
40
3.5
41
0
44
1
50
0
71
5
72
5
7
iso_b_vert
0
POINT
5
119
100
AcDbEntity
8
Defpoints
62
0
6
ByLayer
370
-1
48
1
60
0
100
AcDbPoint
10
0
20
0
30
0
39
0
210
0
220
0
230
1
50
360
0
POINT
5
11A
100
AcDbEntity
8
Defpoints
62
0
6
ByLayer
370
-1
48
1
60
0
100
AcDbPoint
10
61.629
20
-4.625
30
0
39
0
210
0
220
0
230
1
50
360
0
POINT
5
11B
100
AcDbEntity
8
Defpoints
62
0
6
ByLayer
370
-1
48
1
60
0
100
AcDbPoint
10
61.629
20
-14.838398
30
0
39
0
210
0
220
0
230
1
50
360
0
ENDBLK
5
112
100
AcDbEntity
8
0
100
AcDbBlockEnd
0
BLOCK
5
123
100
AcDbEntity
8
0
100
AcDbBlockBegin
2
_U0
70
0
10
0
20
0
30
0
3
_U0
0
MTEXT
5
11D
100
AcDbEntity
8
SK2
62
256
6
ByLayer
370
13
48
1
60
0
100
AcDbMText
10
26.114635
20
-13.805765
30
0
210
0
220
0
230
1
1
\W0.6713;61,63
40
3.5
41
0
44
1.084337
50
0
71
7
72
5
7
iso_b_vert
0
LINE
5
11E
100
AcDbEntity
8
SK2
62
256
6
ByLayer
370
13
48
1
60
0
100
AcDbLine
10
0
20
-1.5875
30
0
11
0
21
-16.838398
31
0
39
0
210
0
220
0
230
1
0
LINE
5
11F
100
AcDbEntity
8
SK2
62
256
6
ByLayer
370
13
48
1
60
0
100
AcDbLine
10
61.629
20
-6.2125
30
0
11
61.629
21
-16.838398
31
0
39
0
210
0
220
0
230
1
0
LINE
5
120
100
AcDbEntity
8
SK2
62
256
6
ByLayer
370
13
48
1
60
0
100
AcDbLine
10
0
20
-14.838398
30
0
11
61.629
21
-14.838398
31
0
39
0
210
0
220
0
230
1
0
SOLID
5
121
100
AcDbEntity
8
SK2
62
256
6
ByLayer
370
18
48
1
60
0
100
AcDbTrace
10
0
20
-14.838398
30
0
11
3.499998
21
-14.377615
31
0
12
3.500002
22
-15.299182
32
0
13
3.500002
23
-15.299182
33
0
39
0
210
0
220
0
230
1
0
SOLID
5
122
100
AcDbEntity
8
SK2
62
256
6
ByLayer
370
18
48
1
60
0
100
AcDbTrace
10
61.629
20
-14.838398
30
0
11
58.129002
21
-15.299182
31
0
12
58.128998
22
-14.377615
32
0
13
58.128998
23
-14.377615
33
0
39
0
210
0
220
0
230
1
0
ENDBLK
5
124
100
AcDbEntity
8
0
100
AcDbBlockEnd
0
BLOCK
5
129
100
AcDbEntity
8
0
100
AcDbBlockBegin
2
*D3
70
1
10
0
20
0
30
0
3
*D3
0
LINE
5
12B
100
AcDbEntity
8
0
62
256
6
ByLayer
370
-2
48
1
60
0
100
AcDbLine
10
-40
20
-6.5875
30
0
11
-40
21
-35.692985
31
0
39
0
210
0
220
0
230
1
0
LINE
5
12C
100
AcDbEntity
8
0
62
256
6
ByLayer
370
-2
48
1
60
0
100
AcDbLine
10
63
20
-1.5875
30
0
11
63
21
-35.692985
31
0
39
0
210
0
220
0
230
1
0
LINE
5
12D
100
AcDbEntity
8
0
62
256
6
ByLayer
370
-2
48
1
60
0
100
AcDbLine
10
-36.5
20
-33.692985
30
0
11
59.5
21
-33.692985
31
0
39
0
210
0
220
0
230
1
0
SOLID
5
12E
100
AcDbEntity
8
0
62
256
6
ByLayer
370
-1
48
1
60
0
100
AcDbTrace
10
-36.5
20
-33.109652
30
0
11
-36.5
21
-34.276319
31
0
12
-40
22
-33.692985
32
0
13
-40
23
-33.692985
33
0
39
0
210
0
220
0
230
1
0
SOLID
5
12F
100
AcDbEntity
8
0
62
256
6
ByLayer
370
-1
48
1
60
0
100
AcDbTrace
10
59.5
20
-34.276319
30
0
11
59.5
21
-33.109652
31
0
12
63
22
-33.692985
32
0
13
63
23
-33.692985
33
0
39
0
210
0
220
0
230
1
0
MTEXT
5
130
100
AcDbEntity
8
0
62
256
6
ByLayer
370
18
48
1
60
0
100
AcDbMText
10
11.5
20
-26.692985
30
0
210
0
220
0
230
1
1
\A1;103.00
40
3.5
41
0
44
1
50
0
71
5
72
5
7
iso_b_vert
0
POINT
5
131
100
AcDbEntity
8
Defpoints
62
0
6
ByLayer
370
-1
48
1
60
0
100
AcDbPoint
10
-40
20
-5
30
0
39
0
210
0
220
0
230
1
50
360
0
POINT
5
132
100
AcDbEntity
8
Defpoints
62
0
6
ByLayer
370
-1
48
1
60
0
100
AcDbPoint
10
63
20
0
30
0
39
0
210
0
220
0
230
1
50
360
0
POINT
5
133
100
AcDbEntity
8
Defpoints
62
0
6
ByLayer
370
-1
48
1
60
0
100
AcDbPoint
10
63
20
-33.692985
30
0
39
0
210
0
220
0
230
1
50
360
0
ENDBLK
5
12A
100
AcDbEntity
8
0
100
AcDbBlockEnd
0
BLOCK
5
13B
100
AcDbEntity
8
0
100
AcDbBlockBegin
2
_U1
70
0
10
0
20
0
30
0
3
_U1
0
MTEXT
5
135
100
AcDbEntity
8
SK2
62
256
6
ByLayer
370
13
48
1
60
0
100
AcDbMText
10
5.492401
20
-32.660352
30
0
210
0
220
0
230
1
1
\W0.6930;103,00
40
3.5
41
0
44
1.084337
50
0
71
7
72
5
7
iso_b_vert
0
LINE
5
136
100
AcDbEntity
8
SK2
62
256
6
ByLayer
370
13
48
1
60
0
100
AcDbLine
10
-40
20
-6.5875
30
0
11
-40
21
-35.692985
31
0
39
0
210
0
220
0
230
1
0
LINE
5
137
100
AcDbEntity
8
SK2
62
256
6
ByLayer
370
13
48
1
60
0
100
AcDbLine
10
63
20
-1.5875
30
0
11
63
21
-35.692985
31
0
39
0
210
0
220
0
230
1
0
LINE
5
138
100
AcDbEntity
8
SK2
62
256
6
ByLayer
370
13
48
1
60
0
100
AcDbLine
10
-40
20
-33.692985
30
0
11
63
21
-33.692985
31
0
39
0
210
0
220
0
230
1
0
SOLID
5
139
100
AcDbEntity
8
SK2
62
256
6
ByLayer
370
18
48
1
60
0
100
AcDbTrace
10
-40
20
-33.692985
30
0
11
-36.500002
21
-33.232202
31
0
12
-36.499998
22
-34.153769
32
0
13
-36.499998
23
-34.153769
33
0
39
0
210
0
220
0
230
1
0
SOLID
5
13A
100
AcDbEntity
8
SK2
62
256
6
ByLayer
370
18
48
1
60
0
100
AcDbTrace
10
63
20
-33.692985
30
0
11
59.500002
21
-34.153769
31
0
12
59.499998
22
-33.232202
32
0
13
59.499998
23
-33.232202
33
0
39
0
210
0
220
0
230
1
0
ENDBLK
5
13C
100
AcDbEntity
8
0
100
AcDbBlockEnd
0
BLOCK
5
141
100
AcDbEntity
8
0
100
AcDbBlockBegin
2
*D5
70
1
10
0
20
0
30
0
3
*D5
0
LINE
5
143
100
AcDbEntity
8
0
62
256
6
ByLayer
370
-2
48
1
60
0
100
AcDbLine
10
15.38
20
6.2125
30
0
11
15.38
21
18.234119
31
0
39
0
210
0
220
0
230
1
0
LINE
5
144
100
AcDbEntity
8
0
62
256
6
ByLayer
370
-2
48
1
60
0
100
AcDbLine
10
63
20
1.5875
30
0
11
63
21
18.234119
31
0
39
0
210
0
220
0
230
1
0
LINE
5
145
100
AcDbEntity
8
0
62
256
6
ByLayer
370
-2
48
1
60
0
100
AcDbLine
10
18.88
20
16.234119
30
0
11
59.5
21
16.234119
31
0
39
0
210
0
220
0
230
1
0
SOLID
5
146
100
AcDbEntity
8
0
62
256
6
ByLayer
370
-1
48
1
60
0
100
AcDbTrace
10
18.88
20
16.817453
30
0
11
18.88
21
15.650786
31
0
12
15.38
22
16.234119
32
0
13
15.38
23
16.234119
33
0
39
0
210
0
220
0
230
1
0
SOLID
5
147
100
AcDbEntity
8
0
62
256
6
ByLayer
370
-1
48
1
60
0
100
AcDbTrace
10
59.5
20
15.650786
30
0
11
59.5
21
16.817453
31
0
12
63
22
16.234119
32
0
13
63
23
16.234119
33
0
39
0
210
0
220
0
230
1
0
MTEXT
5
148
100
AcDbEntity
8
0
62
256
6
ByLayer
370
18
48
1
60
0
100
AcDbMText
10
39.19
20
23.234119
30
0
210
0
220
0
230
1
1
\A1;47.62
40
3.5
41
0
44
1
50
0
71
5
72
5
7
iso_b_vert
0
POINT
5
149
100
AcDbEntity
8
Defpoints
62
0
6
ByLayer
370
-1
48
1
60
0
100
AcDbPoint
10
15.38
20
4.625
30
0
39
0
210
0
220
0
230
1
50
360
0
POINT
5
14A
100
AcDbEntity
8
Defpoints
62
0
6
ByLayer
370
-1
48
1
60
0
100
AcDbPoint
10
63
20
0
30
0
39
0
210
0
220
0
230
1
50
360
0
POINT
5
14B
100
AcDbEntity
8
Defpoints
62
0
6
ByLayer
370
-1
48
1
60
0
100
AcDbPoint
10
63
20
16.234119
30
0
39
0
210
0
220
0
230
1
50
360
0
ENDBLK
5
142
100
AcDbEntity
8
0
100
AcDbBlockEnd
0
BLOCK
5
153
100
AcDbEntity
8
0
100
AcDbBlockBegin
2
_U2
70
0
10
0
20
0
30
0
3
_U2
0
MTEXT
5
14D
100
AcDbEntity
8
SK2
62
256
6
ByLayer
370
13
48
1
60
0
100
AcDbMText
10
33.868435
20
17.266753
30
0
210
0
220
0
230
1
1
\W0.7581;47,62
40
3.5
41
0
44
1.084337
50
0
71
7
72
5
7
iso_b_vert
0
LINE
5
14E
100
AcDbEntity
8
SK2
62
256
6
ByLayer
370
13
48
1
60
0
100
AcDbLine
10
15.38
20
6.2125
30
0
11
15.38
21
18.234119
31
0
39
0
210
0
220
0
230
1
0
LINE
5
14F
100
AcDbEntity
8
SK2
62
256
6
ByLayer
370
13
48
1
60
0
100
AcDbLine
10
63
20
1.5875
30
0
11
63
21
18.234119
31
0
39
0
210
0
220
0
230
1
0
LINE
5
150
100
AcDbEntity
8
SK2
62
256
6
ByLayer
370
13
48
1
60
0
100
AcDbLine
10
15.38
20
16.234119
30
0
11
63
21
16.234119
31
0
39
0
210
0
220
0
230
1
0
SOLID
5
151
100
AcDbEntity
8
SK2
62
256
6
ByLayer
370
18
48
1
60
0
100
AcDbTrace
10
15.38
20
16.234119
30
0
11
18.879998
21
16.694903
31
0
12
18.880002
22
15.773335
32
0
13
18.880002
23
15.773335
33
0
39
0
210
0
220
0
230
1
0
SOLID
5
152
100
AcDbEntity
8
SK2
62
256
6
ByLayer
370
18
48
1
60
0
100
AcDbTrace
10
63
20
16.234119
30
0
11
59.500002
21
15.773335
31
0
12
59.499998
22
16.694903
32
0
13
59.499998
23
16.694903
33
0
39
0
210
0
220
0
230
1
0
ENDBLK
5
154
100
AcDbEntity
8
0
100
AcDbBlockEnd
0
BLOCK
5
159
100
AcDbEntity
8
0
100
AcDbBlockBegin
2
*D7
70
1
10
0
20
0
30
0
3
*D7
0
LINE
5
15B
100
AcDbEntity
8
0
62
256
6
ByLayer
370
-2
48
1
60
0
100
AcDbLine
10
63
20
-1.5875
30
0
11
63
21
-19.427503
31
0
39
0
210
0
220
0
230
1
0
LINE
5
15C
100
AcDbEntity
8
0
62
256
6
ByLayer
370
-2
48
1
60
0
100
AcDbLine
10
61.629
20
-6.2125
30
0
11
61.629
21
-19.427503
31
0
39
0
210
0
220
0
230
1
0
LINE
5
15D
100
AcDbEntity
8
0
62
256
6
ByLayer
370
-2
48
1
60
0
100
AcDbLine
10
63
20
-17.427503
30
0
11
90.666667
21
-17.427503
31
0
39
0
210
0
220
0
230
1
0
LINE
5
15E
100
AcDbEntity
8
0
62
256
6
ByLayer
370
-2
48
1
60
0
100
AcDbLine
10
66.5
20
-17.427503
30
0
11
70
21
-17.427503
31
0
39
0
210
0
220
0
230
1
0
LINE
5
15F
100
AcDbEntity
8
0
62
256
6
ByLayer
370
-2
48
1
60
0
100
AcDbLine
10
58.129
20
-17.427503
30
0
11
54.629
21
-17.427503
31
0
39
0
210
0
220
0
230
1
0
SOLID
5
160
100
AcDbEntity
8
0
62
256
6
ByLayer
370
-1
48
1
60
0
100
AcDbTrace
10
66.5
20
-16.84417
30
0
11
66.5
21
-18.010837
31
0
12
63
22
-17.427503
32
0
13
63
23
-17.427503
33
0
39
0
210
0
220
0
230
1
0
SOLID
5
161
100
AcDbEntity
8
0
62
256
6
ByLayer
370
-1
48
1
60
0
100
AcDbTrace
10
58.129
20
-18.010837
30
0
11
58.129
21
-16.84417
31
0
12
61.629
22
-17.427503
32
0
13
61.629
23
-17.427503
33
0
39
0
210
0
220
0
230
1
0
MTEXT
5
162
100
AcDbEntity
8
0
62
256
6
ByLayer
370
18
48
1
60
0
100
AcDbMText
10
80.333333
20
-10.427503
30
0
210
0
220
0
230
1
1
\A1;1.37
40
3.5
41
0
44
1
50
0
71
5
72
5
7
iso_b_vert
0
POINT
5
163
100
AcDbEntity
8
Defpoints
62
0
6
ByLayer
370
-1
48
1
60
0
100
AcDbPoint
10
63
20
0
30
0
39
0
210
0
220
0
230
1
50
360
0
POINT
5
164
100
AcDbEntity
8
Defpoints
62
0
6
ByLayer
370
-1
48
1
60
0
100
AcDbPoint
10
61.629
20
-4.625
30
0
39
0
210
0
220
0
230
1
50
360
0
POINT
5
165
100
AcDbEntity
8
Defpoints
62
0
6
ByLayer
370
-1
48
1
60
0
100
AcDbPoint
10
61.629
20
-17.427503
30
0
39
0
210
0
220
0
230
1
50
360
0
ENDBLK
5
15A
100
AcDbEntity
8
0
100
AcDbBlockEnd
0
BLOCK
5
16D
100
AcDbEntity
8
0
100
AcDbBlockBegin
2
_U3
70
0
10
0
20
0
30
0
3
_U3
0
MTEXT
5
167
100
AcDbEntity
8
SK2
62
256
6
ByLayer
370
13
48
1
60
0
100
AcDbMText
10
69.589293
20
-16.39487
30
0
210
0
220
0
230
1
1
\W0.6367;1,37
40
3.5
41
0
44
1.084337
50
0
71
7
72
5
7
iso_b_vert
0
LINE
5
168
100
AcDbEntity
8
SK2
62
256
6
ByLayer
370
13
48
1
60
0
100
AcDbLine
10
63
20
-1.5875
30
0
11
63
21
-19.427503
31
0
39
0
210
0
220
0
230
1
0
LINE
5
169
100
AcDbEntity
8
SK2
62
256
6
ByLayer
370
13
48
1
60
0
100
AcDbLine
10
61.629
20
-6.2125
30
0
11
61.629
21
-19.427503
31
0
39
0
210
0
220
0
230
1
0
LINE
5
16A
100
AcDbEntity
8
SK2
62
256
6
ByLayer
370
13
48
1
60
0
100
AcDbLine
10
52.879
20
-17.427503
30
0
11
76.559058
21
-17.427503
31
0
39
0
210
0
220
0
230
1
0
SOLID
5
16B
100
AcDbEntity
8
SK2
62
256
6
ByLayer
370
18
48
1
60
0
100
AcDbTrace
10
63
20
-17.427503
30
0
11
66.499998
21
-16.966719
31
0
12
66.500002
22
-17.888287
32
0
13
66.500002
23
-17.888287
33
0
39
0
210
0
220
0
230
1
0
SOLID
5
16C
100
AcDbEntity
8
SK2
62
256
6
ByLayer
370
18
48
1
60
0
100
AcDbTrace
10
61.629
20
-17.427503
30
0
11
58.129002
21
-17.888287
31
0
12
58.128998
22
-16.966719
32
0
13
58.128998
23
-16.966719
33
0
39
0
210
0
220
0
230
1
0
ENDBLK
5
16E
100
AcDbEntity
8
0
100
AcDbBlockEnd
0
BLOCK
5
173
100
AcDbEntity
8
0
100
AcDbBlockBegin
2
*D9
70
1
10
0
20
0
30
0
3
*D9
0
LINE
5
175
100
AcDbEntity
8
0
62
256
6
ByLayer
370
-2
48
1
60
0
100
AcDbLine
10
-40
20
-6.5875
30
0
11
-40
21
-25.343428
31
0
39
0
210
0
220
0
230
1
0
LINE
5
176
100
AcDbEntity
8
0
62
256
6
ByLayer
370
-2
48
1
60
0
100
AcDbLine
10
61.629
20
-6.2125
30
0
11
61.629
21
-25.343428
31
0
39
0
210
0
220
0
230
1
0
LINE
5
177
100
AcDbEntity
8
0
62
256
6
ByLayer
370
-2
48
1
60
0
100
AcDbLine
10
-36.5
20
-23.343428
30
0
11
58.129
21
-23.343428
31
0
39
0
210
0
220
0
230
1
0
SOLID
5
178
100
AcDbEntity
8
0
62
256
6
ByLayer
370
-1
48
1
60
0
100
AcDbTrace
10
-36.5
20
-22.760095
30
0
11
-36.5
21
-23.926762
31
0
12
-40
22
-23.343428
32
0
13
-40
23
-23.343428
33
0
39
0
210
0
220
0
230
1
0
SOLID
5
179
100
AcDbEntity
8
0
62
256
6
ByLayer
370
-1
48
1
60
0
100
AcDbTrace
10
58.129
20
-23.926762
30
0
11
58.129
21
-22.760095
31
0
12
61.629
22
-23.343428
32
0
13
61.629
23
-23.343428
33
0
39
0
210
0
220
0
230
1
0
MTEXT
5
17A
100
AcDbEntity
8
0
62
256
6
ByLayer
370
18
48
1
60
0
100
AcDbMText
10
10.8145
20
-16.343428
30
0
210
0
220
0
230
1
1
\A1;101.63
40
3.5
41
0
44
1
50
0
71
5
72
5
7
iso_b_vert
0
POINT
5
17B
100
AcDbEntity
8
Defpoints
62
0
6
ByLayer
370
-1
48
1
60
0
100
AcDbPoint
10
-40
20
-5
30
0
39
0
210
0
220
0
230
1
50
360
0
POINT
5
17C
100
AcDbEntity
8
Defpoints
62
0
6
ByLayer
370
-1
48
1
60
0
100
AcDbPoint
10
61.629
20
-4.625
30
0
39
0
210
0
220
0
230
1
50
360
0
POINT
5
17D
100
AcDbEntity
8
Defpoints
62
0
6
ByLayer
370
-1
48
1
60
0
100
AcDbPoint
10
61.629
20
-23.343428
30
0
39
0
210
0
220
0
230
1
50
360
0
ENDBLK
5
174
100
AcDbEntity
8
0
100
AcDbBlockEnd
0
BLOCK
5
185
100
AcDbEntity
8
0
100
AcDbBlockBegin
2
_U4
70
0
10
0
20
0
30
0
3
_U4
0
MTEXT
5
17F
100
AcDbEntity
8
SK2
62
256
6
ByLayer
370
13
48
1
60
0
100
AcDbMText
10
5.244335
20
-22.310795
30
0
210
0
220
0
230
1
1
\W0.6440;101,63
40
3.5
41
0
44
1.084337
50
0
71
7
72
5
7
iso_b_vert
0
LINE
5
180
100
AcDbEntity
8
SK2
62
256
6
ByLayer
370
13
48
1
60
0
100
AcDbLine
10
-40
20
-6.5875
30
0
11
-40
21
-25.343428
31
0
39
0
210
0
220
0
230
1
0
LINE
5
181
100
AcDbEntity
8
SK2
62
256
6
ByLayer
370
13
48
1
60
0
100
AcDbLine
10
61.629
20
-6.2125
30
0
11
61.629
21
-25.343428
31
0
39
0
210
0
220
0
230
1
0
LINE
5
182
100
AcDbEntity
8
SK2
62
256
6
ByLayer
370
13
48
1
60
0
100
AcDbLine
10
-40
20
-23.343428
30
0
11
61.629
21
-23.343428
31
0
39
0
210
0
220
0
230
1
0
SOLID
5
183
100
AcDbEntity
8
SK2
62
256
6
ByLayer
370
18
48
1
60
0
100
AcDbTrace
10
-40
20
-23.343428
30
0
11
-36.500002
21
-22.882645
31
0
12
-36.499998
22
-23.804212
32
0
13
-36.499998
23
-23.804212
33
0
39
0
210
0
220
0
230
1
0
SOLID
5
184
100
AcDbEntity
8
SK2
62
256
6
ByLayer
370
18
48
1
60
0
100
AcDbTrace
10
61.629
20
-23.343428
30
0
11
58.129002
21
-23.804212
31
0
12
58.128998
22
-22.882645
32
0
13
58.128998
23
-22.882645
33
0
39
0
210
0
220
0
230
1
0
ENDBLK
5
186
100
AcDbEntity
8
0
100
AcDbBlockEnd
0
ENDSEC
0
SECTION
2
ENTITIES
0
ARC
5
AC
100
AcDbEntity
8
1
62
256
6
ByLayer
370
18
48
1
60
0
100
AcDbCircle
39
0
10
1.072677
20
-5.387166
30
0
40
0.800000000000004
210
0
220
0
230
1
100
AcDbArc
50
89.96419
51
132.099736
0
ARC
5
AD
100
AcDbEntity
8
1
62
256
6
ByLayer
370
18
48
1
60
0
100
AcDbCircle
39
0
10
1.072677
20
5.387166
30
0
40
0.800000000000004
210
0
220
0
230
1
100
AcDbArc
50
227.900264
51
270.03581
0
ARC
5
AE
100
AcDbEntity
8
1
62
256
6
ByLayer
370
18
48
1
60
0
100
AcDbCircle
39
0
10
0
20
-4.2
30
0
40
0.799999999999999
210
0
220
0
230
1
100
AcDbArc
50
270
51
312.099736
0
ARC
5
AF
100
AcDbEntity
8
1
62
256
6
ByLayer
370
18
48
1
60
0
100
AcDbCircle
39
0
10
0
20
4.2
30
0
40
0.799999999999999
210
0
220
0
230
1
100
AcDbArc
50
47.900264
51
90
0
ELLIPSE
5
B0
100
AcDbEntity
8
1
62
256
6
ByLayer
370
13
48
1
60
0
100
AcDbEllipse
10
4.18112
20
-4.275129
30
0
11
-0.0325568138980728
21
0.0945518580928279
31
0
210
0
220
0
230
1
40
0.515799
41
0.311012875036026
42
1.65333612478437
0
ELLIPSE
5
B1
100
AcDbEntity
8
1
62
256
6
ByLayer
370
13
48
1
60
0
100
AcDbEllipse
10
4.250195
20
-4.269394
30
0
11
0.0147707053277217
21
0.0989031155430486
31
0
210
0
220
0
230
1
40
0.438188
41
0.325636899248515
42
1.87923820216946
0
POINT
5
70
100
AcDbEntity
8
80
62
256
6
ByLayer
370
18
48
1
60
0
100
AcDbPoint
10
0
20
0
30
0
39
0
210
0
220
0
230
1
50
360
0
POINT
5
72
100
AcDbEntity
8
81
62
256
6
ByLayer
370
18
48
1
60
0
100
AcDbPoint
10
63
20
0
30
0
39
0
210
0
220
0
230
1
50
360
0
POINT
5
74
100
AcDbEntity
8
1
62
256
6
ByLayer
370
18
48
1
60
1
100
AcDbPoint
10
61.629
20
-4.625
30
0
39
0
210
0
220
0
230
1
50
360
0
POINT
5
76
100
AcDbEntity
8
1
62
256
6
ByLayer
370
18
48
1
60
1
100
AcDbPoint
10
-40
20
-5
30
0
39
0
210
0
220
0
230
1
50
360
0
POINT
5
77
100
AcDbEntity
8
1
62
256
6
ByLayer
370
18
48
1
60
1
100
AcDbPoint
10
15.38
20
4.625
30
0
39
0
210
0
220
0
230
1
50
360
0
POINT
5
78
100
AcDbEntity
8
1
62
256
6
ByLayer
370
18
48
1
60
1
100
AcDbPoint
10
61.629
20
-4.625
30
0
39
0
210
0
220
0
230
1
50
360
0
POINT
5
79
100
AcDbEntity
8
1
62
256
6
ByLayer
370
18
48
1
60
1
100
AcDbPoint
10
-40
20
-5
30
0
39
0
210
0
220
0
230
1
50
360
0
POINT
5
7A
100
AcDbEntity
8
1
62
256
6
ByLayer
370
18
48
1
60
1
100
AcDbPoint
10
61.629
20
-4.625
30
0
39
0
210
0
220
0
230
1
50
360
0
SPLINE
5
B2
100
AcDbEntity
8
SK1
62
256
6
ByLayer
370
18
48
1
60
0
100
AcDbSpline
70
4
71
3
72
12
73
8
40
0
40
0
40
0
40
0
40
0.499999999999996
40
0.499999999999996
40
0.749999999999998
40
0.749999999999998
40
1
40
1
40
1
40
1
41
1
10
-39.35
20
4.05570554161915
30
0
41
1
10
-39.3264103729719
20
4.07980751118245
30
0
41
1
10
-39.3036886178189
20
4.10581470967568
30
0
41
1
10
-39.275599229617
20
4.14258819690428
30
0
41
1
10
-39.2670477807072
20
4.15475885131008
30
0
41
1
10
-39.2542670006876
20
4.17613783033914
30
0
41
1
10
-39.25
20
4.18552770784305
30
0
41
1
10
-39.25
20
4.19082165284095
30
0
0
SPLINE
5
B3
100
AcDbEntity
8
SK1
62
256
6
ByLayer
370
18
48
1
60
0
100
AcDbSpline
70
4
71
3
72
12
73
8
40
0
40
0
40
0
40
0
40
0.25
40
0.25
40
0.5
40
0.5
40
1
40
1
40
1
40
1
41
1
10
-39.25
20
4.39034351053877
30
0
41
1
10
-39.25
20
4.38873815050789
30
0
41
1
10
-39.254235624227
20
4.38284131828362
30
0
41
1
10
-39.2670201311554
20
4.36708896603875
30
0
41
1
10
-39.2754786511826
20
4.35730914367431
30
0
41
1
10
-39.3037388067419
20
4.32567190175669
30
0
41
1
10
-39.3264172660865
20
4.30149142135411
30
0
41
1
10
-39.35
20
4.27739649461674
30
0
0
SPLINE
5
B4
100
AcDbEntity
8
SK1
62
256
6
ByLayer
370
18
48
1
60
0
100
AcDbSpline
70
4
71
3
72
12
73
8
40
0
40
0
40
0
40
0
40
0.25
40
0.25
40
0.5
40
0.5
40
1
40
1
40
1
40
1
41
1
10
-39.25
20
-4.39034351053877
30
0
41
1
10
-39.25
20
-4.38873815050789
30
0
41
1
10
-39.254235624227
20
-4.38284131828362
30
0
41
1
10
-39.2670201311554
20
-4.36708896603875
30
0
41
1
10
-39.2754786511826
20
-4.35730914367431
30
0
41
1
10
-39.3037388067419
20
-4.32567190175669
30
0
41
1
10
-39.3264172660865
20
-4.30149142135411
30
0
41
1
10
-39.35
20
-4.27739649461674
30
0
0
SPLINE
5
B5
100
AcDbEntity
8
SK1
62
256
6
ByLayer
370
18
48
1
60
0
100
AcDbSpline
70
4
71
3
72
8
73
4
40
0
40
0
40
0
40
0
40
1
40
1
40
1
40
1
41
1
10
-39.35
20
4.27739649461674
30
0
41
1
10
-39.5672428771169
20
4.05543532473951
30
0
41
1
10
-39.7840154924161
20
3.83303209538249
30
0
41
1
10
-40
20
3.60988802236466
30
0
0
SPLINE
5
B6
100
AcDbEntity
8
SK1
62
256
6
ByLayer
370
18
48
1
60
0
100
AcDbSpline
70
4
71
3
72
8
73
4
40
0
40
0
40
0
40
0
40
1
40
1
40
1
40
1
41
1
10
-40
20
3.38819706936707
30
0
41
1
10
-39.7840048126553
20
3.61135217616388
30
0
41
1
10
-39.5672338043381
20
3.8337536415722
30
0
41
1
10
-39.35
20
4.05570554161915
30
0
0
SPLINE
5
B7
100
AcDbEntity
8
SK1
62
256
6
ByLayer
370
18
48
1
60
0
100
AcDbSpline
70
4
71
3
72
8
73
4
40
0
40
0
40
0
40
0
40
1
40
1
40
1
40
1
41
1
10
-39.35
20
-4.27739649461674
30
0
41
1
10
-39.5672428771169
20
-4.05543532473951
30
0
41
1
10
-39.7840154924161
20
-3.83303209538249
30
0
41
1
10
-40
20
-3.60988802236466
30
0
0
SPLINE
5
B8
100
AcDbEntity
8
1
62
256
6
ByLayer
370
18
48
1
60
0
100
AcDbSpline
70
4
71
3
72
8
73
4
40
0
40
0
40
0
40
0
40
1
40
1
40
1
40
1
41
1
10
61.4218217875854
20
-4.48642501385592
30
0
41
1
10
61.4038512893687
20
-4.53091648960051
30
0
41
1
10
61.3858506274533
20
-4.57535071987942
30
0
41
1
10
61.367823670238
20
-4.61972345443607
30
0
0
SPLINE
5
B9
100
AcDbEntity
8
1
62
256
6
ByLayer
370
18
48
1
60
0
100
AcDbSpline
70
4
71
3
72
88
73
84
40
0
40
0
40
0
40
0
40
0.0051355835217653
40
0.0051355835217653
40
0.0280608198115561
40
0.0280608198115561
40
0.050986056101347
40
0.050986056101347
40
0.0968365286809286
40
0.0968365286809286
40
0.119761764970719
40
0.119761764970719
40
0.14268700126051
40
0.14268700126051
40
0.165612237550301
40
0.165612237550301
40
0.188537473840092
40
0.188537473840092
40
0.211462710129883
40
0.211462710129883
40
0.234387946419674
40
0.234387946419674
40
0.257313182709465
40
0.257313182709465
40
0.280238418999256
40
0.280238418999256
40
0.326088891578836
40
0.326088891578836
40
0.349014127868627
40
0.349014127868627
40
0.371939364158417
40
0.371939364158417
40
0.394864600448207
40
0.394864600448207
40
0.417789836737998
40
0.417789836737998
40
0.440715073027788
40
0.440715073027788
40
0.463640309317578
40
0.463640309317578
40
0.486565545607369
40
0.486565545607369
40
0.509490781897159
40
0.509490781897159
40
0.55534125447674
40
0.55534125447674
40
0.57826649076653
40
0.57826649076653
40
0.601191727056321
40
0.601191727056321
40
0.624116963346111
40
0.624116963346111
40
0.647042199635901
40
0.647042199635901
40
0.669967435925692
40
0.669967435925692
40
0.692892672215482
40
0.692892672215482
40
0.715817908505272
40
0.715817908505272
40
0.738743144795063
40
0.738743144795063
40
0.784593617374645
40
0.784593617374645
40
0.807518853664435
40
0.807518853664435
40
0.830444089954226
40
0.830444089954226
40
0.853369326244017
40
0.853369326244017
40
0.876294562533808
40
0.876294562533808
40
0.899219798823599
40
0.899219798823599
40
0.92214503511339
40
0.92214503511339
40
0.945070271403181
40
0.945070271403181
40
0.967995507692971
40
0.967995507692971
40
0.990920743982762
40
0.990920743982762
40
1
40
1
40
1
40
1
41
1
10
25.688452186398
20
3.29255785118812
30
0
41
1
10
25.7464076813449
20
3.3141828156194
30
0
41
1
10
25.8043552346041
20
3.33555086579509
30
0
41
1
10
26.1210167165792
20
3.4507959162973
30
0
41
1
10
26.3795458897731
20
3.53993370759227
30
0
41
1
10
26.8957861275817
20
3.70889853233567
30
0
41
1
10
27.1532900087881
20
3.78893704567372
30
0
41
1
10
27.9254081951997
20
4.01382185591757
30
0
41
1
10
28.4420086721063
20
4.14133402529203
30
0
41
1
10
29.2171323214536
20
4.30122855438367
30
0
41
1
10
29.4755221345469
20
4.34917883389218
30
0
41
1
10
29.9948024872591
20
4.43265629697083
30
0
41
1
10
30.2553670159945
20
4.46845460372185
30
0
41
1
10
30.7779118961574
20
4.52824217216426
30
0
41
1
10
31.0389218120664
20
4.55219069496943
30
0
41
1
10
31.5597999486245
20
4.58739697965922
30
0
41
1
10
31.8204500803174
20
4.59862853353741
30
0
41
1
10
32.3417765376544
20
4.60871400265361
30
0
41
1
10
32.6024626806591
20
4.60757301013487
30
0
41
1
10
33.1232748442101
20
4.59266545600033
30
0
41
1
10
33.3836080211199
20
4.57884061843922
30
0
41
1
10
33.9062964461807
20
4.53892018054512
30
0
41
1
10
34.1674833206236
20
4.5128592561565
30
0
41
1
10
34.6875337567449
20
4.44872887037224
30
0
41
1
10
34.9463284790453
20
4.41042956053053
30
0
41
1
10
35.7217881277574
20
4.27831757205294
30
0
41
1
10
36.2386938683217
20
4.16854220005976
30
0
41
1
10
37.011059376248
20
3.96941445132597
30
0
41
1
10
37.2683376513289
20
3.89746869078672
30
0
41
1
10
37.784301907297
20
3.74434288459307
30
0
41
1
10
38.0426925246121
20
3.66289902916498
30
0
41
1
10
38.5598746065488
20
3.48968909385445
30
0
41
1
10
38.8183310471642
20
3.39744842474394
30
0
41
1
10
39.3370209421414
20
3.20408137535716
30
0
41
1
10
39.5974476657338
20
3.10328828402058
30
0
41
1
10
40.1200304046102
20
2.89284776379699
30
0
41
1
10
40.3812169637525
20
2.78361937682666
30
0
41
1
10
40.9003783343012
20
2.55718086047918
30
0
41
1
10
41.1591964738838
20
2.44056421744031
30
0
41
1
10
41.6767534893544
20
2.20306908605823
30
0
41
1
10
41.9352300775485
20
2.08176493120942
30
0
41
1
10
42.4511832613958
20
1.83338902329734
30
0
41
1
10
42.708296034159
20
1.70565595718563
30
0
41
1
10
43.4805118208825
20
1.31793418471486
30
0
41
1
10
43.9968565170983
20
1.05428615192125
30
0
41
1
10
44.7708404232518
20
0.645614513770084
30
0
41
1
10
45.0292696872705
20
0.508151699808792
30
0
41
1
10
45.5482319143262
20
0.233178143855383
30
0
41
1
10
45.8085163821875
20
0.0951928143113605
30
0
41
1
10
46.3303312389722
20
-0.182586591086533
30
0
41
1
10
46.5910867545263
20
-0.322893333531141
30
0
41
1
10
47.110754659834
20
-0.599267452294384
30
0
41
1
10
47.3702424598149
20
-0.73564910303611
30
0
41
1
10
47.8880781233073
20
-1.00581950114207
30
0
41
1
10
48.1464259714375
20
-1.13960713055349
30
0
41
1
10
48.6615592905416
20
-1.40531783639764
30
0
41
1
10
48.9189672113669
20
-1.53607269883315
30
0
41
1
10
49.4343776897747
20
-1.79183733453769
30
0
41
1
10
49.6921706377715
20
-1.9172357742774
30
0
41
1
10
50.2075463117798
20
-2.16371429443697
30
0
41
1
10
50.4647642982348
20
-2.28538971958744
30
0
41
1
10
51.2389256376774
20
-2.63900937059637
30
0
41
1
10
51.7580520270179
20
-2.86033581852442
30
0
41
1
10
52.5388940215285
20
-3.17389893555193
30
0
41
1
10
52.800219550383
20
-3.27423156635649
30
0
41
1
10
53.3207220920858
20
-3.46389284312426
30
0
41
1
10
53.5803433187985
20
-3.55375276853647
30
0
41
1
10
54.0979495423881
20
-3.72411270788706
30
0
41
1
10
54.3555907236571
20
-3.80494403861158
30
0
41
1
10
54.8712800633981
20
-3.95489088212309
30
0
41
1
10
55.1291933313032
20
-4.02423204929184
30
0
41
1
10
55.6446645587249
20
-4.15230704473279
30
0
41
1
10
55.9021836468121
20
-4.21106673220623
30
0
41
1
10
56.4166380308377
20
-4.31788507153553
30
0
41
1
10
56.6742660242451
20
-4.36541554678934
30
0
41
1
10
57.1907974803314
20
-4.44858859807024
30
0
41
1
10
57.4495476930924
20
-4.48434371775619
30
0
41
1
10
57.9676379662557
20
-4.54417314407053
30
0
41
1
10
58.2266657316444
20
-4.56829365247683
30
0
41
1
10
58.7474490788862
20
-4.60377432228191
30
0
41
1
10
59.0092309635439
20
-4.61525028633997
30
0
41
1
10
59.3731184124172
20
-4.62253449798047
30
0
41
1
10
59.4762378802313
20
-4.62362463363382
30
0
41
1
10
59.5792495321161
20
-4.62373295986961
30
0
0
SPLINE
5
BA
100
AcDbEntity
8
1
62
256
6
ByLayer
370
18
48
1
60
0
100
AcDbSpline
70
4
71
3
72
56
73
52
40
0
40
0
40
0
40
0
40
0.0624999999999869
40
0.0624999999999869
40
0.0937499999999797
40
0.0937499999999797
40
0.124999999999972
40
0.124999999999972
40
0.156249999999965
40
0.156249999999965
40
0.187499999999958
40
0.187499999999958
40
0.218749999999951
40
0.218749999999951
40
0.234374999999948
40
0.234374999999948
40
0.249999999999944
40
0.249999999999944
40
0.265624999999941
40
0.265624999999941
40
0.281249999999937
40
0.281249999999937
40
0.296874999999934
40
0.296874999999934
40
0.312499999999931
40
0.312499999999931
40
0.343749999999924
40
0.343749999999924
40
0.374999999999917
40
0.374999999999917
40
0.40624999999991
40
0.40624999999991
40
0.41015624999991
40
0.41015624999991
40
0.414062499999909
40
0.414062499999909
40
0.417968749999909
40
0.417968749999909
40
0.421874999999908
40
0.421874999999908
40
0.43749999999991
40
0.43749999999991
40
0.49999999999992
40
0.49999999999992
40
0.62499999999994
40
0.62499999999994
40
0.74999999999996
40
0.74999999999996
40
0.87499999999998
40
0.87499999999998
40
1
40
1
40
1
40
1
41
1
10
4.00082069637273
20
1.3952968583564
30
0
41
1
10
3.76327566924169
20
1.55840163572549
30
0
41
1
10
3.53086518590018
20
1.72439272341202
30
0
41
1
10
3.1944681412019
20
1.98149919068024
30
0
41
1
10
3.08439734590041
20
2.06857438469035
30
0
41
1
10
2.86984871265068
20
2.24669763021157
30
0
41
1
10
2.7657062884557
20
2.33747253583198
30
0
41
1
10
2.56813581296666
20
2.52232046311758
30
0
41
1
10
2.47396292991633
20
2.61707243162601
30
0
41
1
10
2.30275213810887
20
2.81015988387475
30
0
41
1
10
2.22610666194947
20
2.90785684910764
30
0
41
1
10
2.09937964202788
20
3.10742757422099
30
0
41
1
10
2.04930921663492
20
3.21044240130172
30
0
41
1
10
2.00911453207067
20
3.36051821175983
30
0
41
1
10
2.00132609556286
20
3.41044287964138
30
0
41
1
10
1.99898579602546
20
3.50789693241987
30
0
41
1
10
2.00438227425283
20
3.55462420021072
30
0
41
1
10
2.02816009639605
20
3.64430219558156
30
0
41
1
10
2.04670678050388
20
3.68751945380487
30
0
41
1
10
2.09597460026032
20
3.76915567868667
30
0
41
1
10
2.12623965417552
20
3.80702986509388
30
0
41
1
10
2.19638400110802
20
3.87791879286098
30
0
41
1
10
2.23656908203682
20
3.91112556975202
30
0
41
1
10
2.32360594133507
20
3.97227848082105
30
0
41
1
10
2.37037471492587
20
4.00027402811997
30
0
41
1
10
2.5185086557814
20
4.07823232947877
30
0
41
1
10
2.6279761558859
20
4.12235279736251
30
0
41
1
10
2.86020269007017
20
4.19952656260841
30
0
41
1
10
2.98182388152722
20
4.23221497259712
30
0
41
1
10
3.23300415384256
20
4.28973659933587
30
0
41
1
10
3.36263543425832
20
4.31451267471937
30
0
41
1
10
3.5107669320484
20
4.33902031186366
30
0
41
1
10
3.52692782077236
20
4.34192145936277
30
0
41
1
10
3.56084555268706
20
4.34661397419123
30
0
41
1
10
3.57900207500498
20
4.34814318933471
30
0
41
1
10
3.6170272260313
20
4.35006298569149
30
0
41
1
10
3.63652791223612
20
4.35038374429385
30
0
41
1
10
3.67484154429914
20
4.35021308848508
30
0
41
1
10
3.6939544716048
20
4.34991211749394
30
0
41
1
10
3.78961858781389
20
4.3488950204503
30
0
41
1
10
3.86611788093006
20
4.34792182486046
30
0
41
1
10
4.24845558892844
20
4.34224980276252
30
0
41
1
10
4.55381766237144
20
4.33514915874034
30
0
41
1
10
5.4684183763957
20
4.30538299396139
30
0
41
1
10
6.07206535303743
20
4.27449787993513
30
0
41
1
10
7.26450568276951
20
4.18328963004467
30
0
41
1
10
7.85389315141239
20
4.12285385831703
30
0
41
1
10
9.02073309858201
20
3.96236840412823
30
0
41
1
10
9.5981817724699
20
3.86220055747592
30
0
41
1
10
10.7441038139278
20
3.6134489458083
30
0
41
1
10
11.3094187380237
20
3.46554708242309
30
0
41
1
10
11.869173530254
20
3.29320823030352
30
0
0
SPLINE
5
BB
100
AcDbEntity
8
1
62
256
6
ByLayer
370
18
48
1
60
0
100
AcDbSpline
70
4
71
3
72
8
73
4
40
0
40
0
40
0
40
0
40
1
40
1
40
1
40
1
41
1
10
62.9449089664505
20
1.03675947039559
30
0
41
1
10
62.9653392586816
20
0.730078187277769
30
0
41
1
10
62.9802145637565
20
0.423742094681586
30
0
41
1
10
62.989533153993
20
0.117751299966358
30
0
0
SPLINE
5
BC
100
AcDbEntity
8
1
62
256
6
ByLayer
370
13
48
1
60
0
100
AcDbSpline
70
4
71
3
72
12
73
8
40
0
40
0
40
0
40
0
40
0.50000000000002
40
0.50000000000002
40
0.75000000000001
40
0.75000000000001
40
1
40
1
40
1
40
1
41
1
10
4.00192448420364
20
-4.3536086135332
30
0
41
1
10
4.00675274075053
20
-4.34295582985632
30
0
41
1
10
4.02070887037951
20
-4.33242079713676
30
0
41
1
10
4.0542313581318
20
-4.3184127163095
30
0
41
1
10
4.06780056035763
20
-4.31394108488743
30
0
41
1
10
4.0986596691464
20
-4.3060207069004
30
0
41
1
10
4.11588744806821
20
-4.30254901512069
30
0
41
1
10
4.13520079170115
20
-4.29966048824338
30
0
0
SPLINE
5
BD
100
AcDbEntity
8
1
62
256
6
ByLayer
370
18
48
1
60
0
100
AcDbSpline
70
4
71
3
72
18
73
14
40
0
40
0
40
0
40
0
40
0.048823906750298
40
0.048823906750298
40
0.217712074815969
40
0.217712074815969
40
0.555488410947309
40
0.555488410947309
40
0.724376579012979
40
0.724376579012979
40
0.893264747078649
40
0.893264747078649
40
1
40
1
40
1
40
1
41
1
10
34.0260997233009
20
-4.37647071942564
30
0
41
1
10
33.9393193252056
20
-4.37665998897944
30
0
41
1
10
33.8525027831295
20
-4.37619146170863
30
0
41
1
10
33.4653536622203
20
-4.37115583938385
30
0
41
1
10
33.1651174235641
20
-4.35935679936287
30
0
41
1
10
32.2638618863099
20
-4.30035546496231
30
0
41
1
10
31.66462435248
20
-4.22982425314999
30
0
41
1
10
30.7641766549467
20
-4.07902982001372
30
0
41
1
10
30.463465492437
20
-4.02118632459462
30
0
41
1
10
29.8648713261282
20
-3.89190116953409
30
0
41
1
10
29.5665337511155
20
-3.82038755484206
30
0
41
1
10
29.0806753858765
20
-3.69311581653264
30
0
41
1
10
28.8927776173005
20
-3.64124722199838
30
0
41
1
10
28.705052804438
20
-3.5869044823296
30
0
0
SPLINE
5
BE
100
AcDbEntity
8
1
62
256
6
ByLayer
370
13
48
1
60
0
100
AcDbSpline
70
4
71
3
72
22
73
18
40
0
40
0
40
0
40
0
40
0.239477356868283
40
0.239477356868283
40
0.31058082648302
40
0.31058082648302
40
0.381684296097756
40
0.381684296097756
40
0.523891235327229
40
0.523891235327229
40
0.808305113786173
40
0.808305113786173
40
0.879408583400909
40
0.879408583400909
40
0.950512053015645
40
0.950512053015645
40
1
40
1
40
1
40
1
41
1
10
28.705052804603
20
-3.58690448237738
30
0
41
1
10
27.704622855902
20
-3.29729916367373
30
0
41
1
10
26.7091049814371
20
-2.93742623528263
30
0
41
1
10
25.4090519539093
20
-2.40085636227604
30
0
41
1
10
25.1107768215434
20
-2.27333268295422
30
0
41
1
10
24.5123192619854
20
-2.00984062967564
30
0
41
1
10
24.2114124703326
20
-1.87347257734919
30
0
41
1
10
23.312423237844
20
-1.4566440100817
30
0
41
1
10
22.7171104186991
20
-1.16837120867518
30
0
41
1
10
20.9357036498275
20
-0.287493557560026
30
0
41
1
10
19.7542759423168
20
0.321431892837381
30
0
41
1
10
18.2598209676087
20
1.05825661728051
30
0
41
1
10
17.9594774866728
20
1.20471300600889
30
0
41
1
10
17.3591601161581
20
1.49264387759271
30
0
41
1
10
17.0600901671688
20
1.63363419457417
30
0
41
1
10
16.5541239639414
20
1.86668298205922
30
0
41
1
10
16.3468594157907
20
1.96061742284178
30
0
41
1
10
16.1398590835242
20
2.05267198710419
30
0
0
SPLINE
5
BF
100
AcDbEntity
8
1
62
256
6
ByLayer
370
18
48
1
60
0
100
AcDbSpline
70
4
71
3
72
8
73
4
40
0
40
0
40
0
40
0
40
1
40
1
40
1
40
1
41
1
10
62.9449089664505
20
-1.0367594703954
30
0
41
1
10
62.9653351017575
20
-0.730140587305897
30
0
41
1
10
62.980212666747
20
-0.42380438602089
30
0
41
1
10
62.9895331539931
20
-0.117751299966358
30
0
0
SPLINE
5
C0
100
AcDbEntity
8
1
62
256
6
ByLayer
370
18
48
1
60
0
100
AcDbSpline
70
4
71
3
72
14
73
10
40
0
40
0
40
0
40
0
40
0.25
40
0.25
40
0.5
40
0.5
40
0.75
40
0.75
40
1
40
1
40
1
40
1
41
1
10
61.4311910406668
20
-4.39177894732907
30
0
41
1
10
61.4345407829155
20
-4.39137405775372
30
0
41
1
10
61.4372497980326
20
-4.39264938198443
30
0
41
1
10
61.4409763982189
20
-4.39961341975388
30
0
41
1
10
61.4419412457301
20
-4.4053839979187
30
0
41
1
10
61.4409651060132
20
-4.42243036943836
30
0
41
1
10
61.438948400816
20
-4.4337254821699
30
0
41
1
10
61.4320124273013
20
-4.45922095516312
30
0
41
1
10
61.427162142719
20
-4.47320332806697
30
0
41
1
10
61.4218217875946
20
-4.48642501383316
30
0
0
SPLINE
5
C1
100
AcDbEntity
8
1
62
256
6
ByLayer
370
18
48
1
60
0
100
AcDbSpline
70
4
71
3
72
8
73
4
40
0
40
0
40
0
40
0
40
1
40
1
40
1
40
1
41
1
10
61.367823670238
20
4.61972345443607
30
0
41
1
10
61.2312407412289
20
4.62307729510604
30
0
41
1
10
61.0946612883967
20
4.62470044624755
30
0
41
1
10
60.9580555755547
20
4.62459468753815
30
0
0
SPLINE
5
C2
100
AcDbEntity
8
1
62
256
6
ByLayer
370
18
48
1
60
0
100
AcDbSpline
70
4
71
3
72
48
73
44
40
0
40
0
40
0
40
0
40
0.0022778839635202
40
0.0022778839635202
40
0.0622227364116528
40
0.0622227364116528
40
0.122167588859786
40
0.122167588859786
40
0.152140015083852
40
0.152140015083852
40
0.182112441307918
40
0.182112441307918
40
0.212084867531985
40
0.212084867531985
40
0.242057293756051
40
0.242057293756051
40
0.36194699865232
40
0.36194699865232
40
0.421891851100454
40
0.421891851100454
40
0.451864277324521
40
0.451864277324521
40
0.481836703548588
40
0.481836703548588
40
0.541781555996723
40
0.541781555996723
40
0.57175398222079
40
0.57175398222079
40
0.601726408444858
40
0.601726408444858
40
0.72161611334113
40
0.72161611334113
40
0.751588539565198
40
0.751588539565198
40
0.781560965789266
40
0.781560965789266
40
0.841505818237404
40
0.841505818237404
40
0.961395523133678
40
0.961395523133678
40
0.991367949357747
40
0.991367949357747
40
1
40
1
40
1
40
1
41
1
10
36.3707350902579
20
-4.40124115492932
30
0
41
1
10
36.3481235622133
20
-4.40480318065298
30
0
41
1
10
36.3255072757097
20
-4.40832087337296
30
0
41
1
10
35.7075861969716
20
-4.5031952776078
30
0
41
1
10
35.1070559721761
20
-4.5636680726297
30
0
41
1
10
33.9117285444483
20
-4.61793468693926
30
0
41
1
10
33.3150846069266
20
-4.6121916343387
30
0
41
1
10
32.4173279571813
20
-4.5542245405635
30
0
41
1
10
32.1174130586121
20
-4.52662955087794
30
0
41
1
10
31.5191122814952
20
-4.45547700128591
30
0
41
1
10
31.2203515143743
20
-4.41191461942066
30
0
41
1
10
30.6229267231145
20
-4.30925281422188
30
0
41
1
10
30.3242738072474
20
-4.25014562386002
30
0
41
1
10
29.7263729437621
20
-4.11683680873293
30
0
41
1
10
29.4267242437068
20
-4.04253768322718
30
0
41
1
10
27.9295345798703
20
-3.63579473888004
30
0
41
1
10
26.7500845382895
20
-3.20193735697632
30
0
41
1
10
24.9756946906129
20
-2.43592737507359
30
0
41
1
10
24.383296727185
20
-2.16153027031228
30
0
41
1
10
23.4893969458512
20
-1.72725831122975
30
0
41
1
10
23.1901267389752
20
-1.57857264856855
30
0
41
1
10
22.590834630181
20
-1.27572374594339
30
0
41
1
10
22.2917493437037
20
-1.1220307675872
30
0
41
1
10
21.3950695418719
20
-0.656211353859561
30
0
41
1
10
20.7981772427922
20
-0.339106448425554
30
0
41
1
10
19.8997240844885
20
0.138035963132495
30
0
41
1
10
19.5998267021777
20
0.29742804814407
30
0
41
1
10
19.0031149346189
20
0.612802537286882
30
0
41
1
10
18.7056923425015
20
0.769100813287338
30
0
41
1
10
17.2216561055507
20
1.54080365050049
30
0
41
1
10
16.0443884856018
20
2.12693183235476
30
0
41
1
10
14.5578722659933
20
2.7718943446489
30
0
41
1
10
14.2598121099004
20
2.89649374370438
30
0
41
1
10
13.6615632682766
20
3.1358196832941
30
0
41
1
10
13.3613918229637
20
3.25046879738733
30
0
41
1
10
12.4661297542627
20
3.57425971029809
30
0
41
1
10
11.873189542411
20
3.76473747331275
30
0
41
1
10
10.0976655244773
20
4.25236093250854
30
0
41
1
10
8.91862054586514
20
4.46578029628066
30
0
41
1
10
7.42346530088156
20
4.5710212670804
30
0
41
1
10
7.12315763546869
20
4.5839696826929
30
0
41
1
10
6.73770929242284
20
4.58996466673949
30
0
41
1
10
6.65155795577425
20
4.59062206815048
30
0
41
1
10
6.56543397298915
20
4.59059799298373
30
0
0
SPLINE
5
C3
100
AcDbEntity
8
1
62
256
6
ByLayer
370
18
48
1
60
0
100
AcDbSpline
70
4
71
3
72
98
73
94
40
0
40
0
40
0
40
0
40
0.0025576542663131
40
0.0025576542663131
40
0.0238714701481419
40
0.0238714701481419
40
0.0451852860299706
40
0.0451852860299706
40
0.0664991019117992
40
0.0664991019117992
40
0.087812917793628
40
0.087812917793628
40
0.109126733675457
40
0.109126733675457
40
0.130440549557285
40
0.130440549557285
40
0.151754365439114
40
0.151754365439114
40
0.173068181320943
40
0.173068181320943
40
0.194381997202771
40
0.194381997202771
40
0.2156958130846
40
0.2156958130846
40
0.237009628966429
40
0.237009628966429
40
0.258323444848258
40
0.258323444848258
40
0.279637260730086
40
0.279637260730086
40
0.300951076611915
40
0.300951076611915
40
0.322264892493744
40
0.322264892493744
40
0.343578708375572
40
0.343578708375572
40
0.364892524257401
40
0.364892524257401
40
0.38620634013923
40
0.38620634013923
40
0.407520156021059
40
0.407520156021059
40
0.428833971902887
40
0.428833971902887
40
0.471461603666546
40
0.471461603666546
40
0.492775419548375
40
0.492775419548375
40
0.514089235430205
40
0.514089235430205
40
0.535403051312035
40
0.535403051312035
40
0.556716867193864
40
0.556716867193864
40
0.599344498957525
40
0.599344498957525
40
0.620658314839355
40
0.620658314839355
40
0.641972130721185
40
0.641972130721185
40
0.663285946603016
40
0.663285946603016
40
0.684599762484846
40
0.684599762484846
40
0.705913578366676
40
0.705913578366676
40
0.727227394248506
40
0.727227394248506
40
0.748541210130336
40
0.748541210130336
40
0.769855026012167
40
0.769855026012167
40
0.791168841893997
40
0.791168841893997
40
0.812482657775827
40
0.812482657775827
40
0.833796473657657
40
0.833796473657657
40
0.855110289539488
40
0.855110289539488
40
0.876424105421318
40
0.876424105421318
40
0.897737921303148
40
0.897737921303148
40
0.919051737184978
40
0.919051737184978
40
0.940365553066808
40
0.940365553066808
40
0.961679368948639
40
0.961679368948639
40
0.982993184830469
40
0.982993184830469
40
1
40
1
40
1
40
1
41
1
10
52.8854731771963
20
-3.31611927194163
30
0
41
1
10
52.8571712124339
20
-3.32542215243996
30
0
41
1
10
52.8288676511833
20
-3.33467262836379
30
0
41
1
10
52.5646865181742
20
-3.42052757994478
30
0
41
1
10
52.3288364650587
20
-3.49386923641882
30
0
41
1
10
51.8565544309711
20
-3.63341674649936
30
0
41
1
10
51.6201605283047
20
-3.69931899951061
30
0
41
1
10
51.1481596841708
20
-3.82254837571145
30
0
41
1
10
50.9123478388886
20
-3.87995054392144
30
0
41
1
10
50.4411964187153
20
-3.98619259631917
30
0
41
1
10
50.2059380725441
20
-4.03508901412545
30
0
41
1
10
49.734782854274
20
-4.12248653966518
30
0
41
1
10
49.4988946669047
20
-4.16071208122844
30
0
41
1
10
49.0266554774133
20
-4.22892736862184
30
0
41
1
10
48.7900277528435
20
-4.25904259387209
30
0
41
1
10
48.3181492233883
20
-4.3099780120551
30
0
41
1
10
48.0829735738357
20
-4.3306174801034
30
0
41
1
10
47.6133133207043
20
-4.36131368034012
30
0
41
1
10
47.3788760159497
20
-4.37191986569982
30
0
41
1
10
46.9107996687802
20
-4.38434836813082
30
0
41
1
10
46.6772344314399
20
-4.38596046418715
30
0
41
1
10
46.2107599306627
20
-4.37864648047753
30
0
41
1
10
45.9775786251461
20
-4.36934030431365
30
0
41
1
10
45.5111413360178
20
-4.34236729992708
30
0
41
1
10
45.2779279651156
20
-4.32491344898986
30
0
41
1
10
44.8115033189888
20
-4.28023888234844
30
0
41
1
10
44.5784031097996
20
-4.25300651595887
30
0
41
1
10
44.111400455576
20
-4.18826609243629
30
0
41
1
10
43.877489672106
20
-4.15132923507053
30
0
41
1
10
43.4089768190648
20
-4.06970554032245
30
0
41
1
10
43.1743066964199
20
-4.02450244965553
30
0
41
1
10
42.7040044502739
20
-3.92410029097178
30
0
41
1
10
42.4682543209938
20
-3.86853036857894
30
0
41
1
10
41.995388969063
20
-3.74954021911157
30
0
41
1
10
41.7591828640251
20
-3.68666182867076
30
0
41
1
10
41.2871621936242
20
-3.55266305607046
30
0
41
1
10
41.0513760538601
20
-3.48158295069734
30
0
41
1
10
40.5801576740343
20
-3.33069062086858
30
0
41
1
10
40.3445918480126
20
-3.25130666918966
30
0
41
1
10
39.8729932866115
20
-3.0868659843872
30
0
41
1
10
39.6369885898488
20
-3.00133611512143
30
0
41
1
10
39.1644419665391
20
-2.82301585041739
30
0
41
1
10
38.9277856285787
20
-2.7298948790839
30
0
41
1
10
38.2194794923341
20
-2.4422441157642
30
0
41
1
10
37.7477868232207
20
-2.24126919002242
30
0
41
1
10
37.0403443806425
20
-1.92402432961987
30
0
41
1
10
36.8046898153812
20
-1.81556672207978
30
0
41
1
10
36.332853790352
20
-1.59554628443067
30
0
41
1
10
36.0966265853513
20
-1.48380101946634
30
0
41
1
10
35.6232991238724
20
-1.25692037850681
30
0
41
1
10
35.3869286941343
20
-1.1420988537825
30
0
41
1
10
34.9149722791028
20
-0.909817312878175
30
0
41
1
10
34.6793803600007
20
-0.792384080634974
30
0
41
1
10
33.9721296133071
20
-0.43900609341469
30
0
41
1
10
33.5000911855832
20
-0.201642089778261
30
0
41
1
10
32.7918592578668
20
0.157446184488492
30
0
41
1
10
32.5552727092993
20
0.277319848038473
30
0
41
1
10
32.0826774499482
20
0.514883377599176
30
0
41
1
10
31.8465465686496
20
0.632694187616465
30
0
41
1
10
31.3747168248252
20
0.867084905922241
30
0
41
1
10
31.1391641111431
20
0.984007444154116
30
0
41
1
10
30.667955796977
20
1.21522014685931
30
0
41
1
10
30.4321477167007
20
1.32915402086945
30
0
41
1
10
29.9599562972796
20
1.55352133837883
30
0
41
1
10
29.723606192408
20
1.66409622003664
30
0
41
1
10
29.2506805627335
20
1.88275752681221
30
0
41
1
10
29.0148709366416
20
1.99059836791241
30
0
41
1
10
28.544399842554
20
2.19900696059167
30
0
41
1
10
28.3096139746613
20
2.29999966867396
30
0
41
1
10
27.840757669637
20
2.49735830086252
30
0
41
1
10
27.6067376848174
20
2.59354467313602
30
0
41
1
10
27.1395961437236
20
2.78050951243344
30
0
41
1
10
26.9063622065983
20
2.87058494637034
30
0
41
1
10
26.4396589228803
20
3.04322743309481
30
0
41
1
10
26.2063147621794
20
3.1265777031856
30
0
41
1
10
25.7396496115156
20
3.2868058649704
30
0
41
1
10
25.5063936597204
20
3.36378509400777
30
0
41
1
10
25.0396013061722
20
3.50947047187682
30
0
41
1
10
24.8057952034297
20
3.57781246581112
30
0
41
1
10
24.3374831093093
20
3.70800092979548
30
0
41
1
10
24.1029495800083
20
3.76951999926735
30
0
41
1
10
23.6330769664879
20
3.88456810170612
30
0
41
1
10
23.3977830838116
20
3.93786615495557
30
0
41
1
10
22.9254777021271
20
4.03467085818079
30
0
41
1
10
22.6887042788145
20
4.07889052065207
30
0
41
1
10
22.2162142920387
20
4.15860654788051
30
0
41
1
10
21.9801892026813
20
4.1942747271066
30
0
41
1
10
21.5085888457619
20
4.25522317657436
30
0
41
1
10
21.2730014348443
20
4.27997906953271
30
0
41
1
10
20.8013690804376
20
4.3214817680682
30
0
41
1
10
20.5653953357896
20
4.33791075787573
30
0
41
1
10
20.140730691791
20
4.35881728281723
30
0
41
1
10
19.9519149455148
20
4.36486225892864
30
0
41
1
10
19.7632655803114
20
4.36742247729163
30
0
0
SPLINE
5
C4
100
AcDbEntity
8
1
62
256
6
ByLayer
370
18
48
1
60
0
100
AcDbSpline
70
4
71
3
72
8
73
4
40
0
40
0
40
0
40
0
40
1
40
1
40
1
40
1
41
1
10
62.9895331539931
20
-0.117751299966244
30
0
41
1
10
62.9901933090733
20
-0.0960740534632691
30
0
41
1
10
62.9941545700938
20
-0.0696283559592246
30
0
41
1
10
62.9999644699425
20
-0.0417734046378655
30
0
0
SPLINE
5
C5
100
AcDbEntity
8
1
62
256
6
ByLayer
370
13
48
1
60
0
100
AcDbSpline
70
4
71
3
72
30
73
26
40
0
40
0
40
0
40
0
40
0.125
40
0.125
40
0.1875
40
0.1875
40
0.25
40
0.3125
40
0.3125
40
0.375
40
0.375
40
0.499999999999999
40
0.499999999999999
40
0.562499999999999
40
0.562499999999999
40
0.624999999999999
40
0.624999999999999
40
0.6875
40
0.6875
40
0.75
40
0.8125
40
0.8125
40
0.875
40
0.875
40
1
40
1
40
1
40
1
41
1
10
4.25032482276015
20
-4.17361778558214
30
0
41
1
10
4.25039925231044
20
-4.09012006531032
30
0
41
1
10
4.25046652491005
20
-3.98003793469405
30
0
41
1
10
4.25056028365182
20
-3.77537102309105
30
0
41
1
10
4.25059027171017
20
-3.7005566790925
30
0
41
1
10
4.2506473754498
20
-3.54050578003955
30
0
41
1
10
4.25070189944478
20
-3.36942514900124
30
0
41
1
10
4.25075251339891
20
-3.17659484047172
30
0
41
1
10
4.25080170587779
20
-2.97272401650253
30
0
41
1
10
4.25082572078776
20
-2.86461670681311
30
0
41
1
10
4.25089520733573
20
-2.52859391455868
30
0
41
1
10
4.25093818003651
20
-2.2896529937575
30
0
41
1
10
4.25100004192853
20
-1.90936293435149
30
0
41
1
10
4.25102021252573
20
-1.77892666070329
30
0
41
1
10
4.25105986907266
20
-1.51046357609911
30
0
41
1
10
4.25107919145077
20
-1.37352374596034
30
0
41
1
10
4.25111670799086
20
-1.0960222380559
30
0
41
1
10
4.25113500474956
20
-0.954677858155577
30
0
41
1
10
4.25117022091689
20
-0.670338367838525
30
0
41
1
10
4.25120398151992
20
-0.385080508234722
30
0
41
1
10
4.25123466476964
20
-0.0980261646378437
30
0
41
1
10
4.25126356640197
20
0.189932986517164
30
0
41
1
10
4.25127719087843
20
0.335132395684241
30
0
41
1
10
4.25131426256189
20
0.766102561836476
30
0
41
1
10
4.25133388707684
20
1.04566120876538
30
0
41
1
10
4.25134678684924
20
1.31775220089108
30
0
0
SPLINE
5
C6
100
AcDbEntity
8
1
62
256
6
ByLayer
370
18
48
1
60
0
100
AcDbSpline
70
4
71
3
72
14
73
10
40
0
40
0
40
0
40
0
40
0.25
40
0.25
40
0.5
40
0.5
40
0.75
40
0.75
40
1
40
1
40
1
40
1
41
1
10
61.328086953156
20
0.987673763586571
30
0
41
1
10
61.3272788555948
20
1.00300446049843
30
0
41
1
10
61.3306429554607
20
1.01850901353552
30
0
41
1
10
61.3462642053183
20
1.04531938051179
30
0
41
1
10
61.3584750202047
20
1.05646076121761
30
0
41
1
10
61.3858318852074
20
1.07222553507927
30
0
41
1
10
61.4012192900381
20
1.07729406641704
30
0
41
1
10
61.4321437400681
20
1.08319128309202
30
0
41
1
10
61.448008558578
20
1.08412351600586
30
0
41
1
10
61.4638308188186
20
1.0835574231628
30
0
0
SPLINE
5
C7
100
AcDbEntity
8
1
62
256
6
ByLayer
370
18
48
1
60
0
100
AcDbSpline
70
4
71
3
72
16
73
12
40
0
40
0
40
0
40
0
40
0.266365796086105
40
0.266365796086105
40
0.399548694129157
40
0.399548694129157
40
0.532731592172209
40
0.532731592172209
40
0.799097388258313
40
0.799097388258313
40
1
40
1
40
1
40
1
41
1
10
61.0748867984184
20
-3.46970337088658
30
0
41
1
10
61.0746620594828
20
-3.62620377934706
30
0
41
1
10
61.0816710649567
20
-3.76359826933009
30
0
41
1
10
61.103344549234
20
-3.94158295095741
30
0
41
1
10
61.1124429886843
20
-3.99620043436383
30
0
41
1
10
61.1346156371245
20
-4.09578424980629
30
0
41
1
10
61.1476336226456
20
-4.14037706046716
30
0
41
1
10
61.1920513627462
20
-4.25734587098086
30
0
41
1
10
61.2289367536074
20
-4.31381400953865
30
0
41
1
10
61.3073283652632
20
-4.37608713308674
30
0
41
1
10
61.3456462378164
20
-4.39076231729678
30
0
41
1
10
61.3882244654173
20
-4.39324237691952
30
0
0
SPLINE
5
C8
100
AcDbEntity
8
1
62
256
6
ByLayer
370
18
48
1
60
0
100
AcDbSpline
70
4
71
3
72
50
73
46
40
0
40
0
40
0
40
0
40
0.0627310001634745
40
0.0627310001634745
40
0.192458166223488
40
0.192458166223488
40
0.257321749253495
40
0.257321749253495
40
0.322185332283503
40
0.322185332283503
40
0.451912498343517
40
0.451912498343517
40
0.516776081373523
40
0.516776081373523
40
0.549207872888527
40
0.549207872888527
40
0.565423768646029
40
0.565423768646029
40
0.57353171652478
40
0.57353171652478
40
0.577585690464155
40
0.577585690464155
40
0.581639664403531
40
0.581639664403531
40
0.585693638342906
40
0.585693638342906
40
0.589747612282281
40
0.589747612282281
40
0.597855560161033
40
0.597855560161033
40
0.614071455918534
40
0.614071455918534
40
0.646503247433538
40
0.646503247433538
40
0.711366830463546
40
0.711366830463546
40
0.776230413493553
40
0.776230413493553
40
0.841093996523561
40
0.841093996523561
40
0.905957579553569
40
0.905957579553569
40
0.970821162583577
40
0.970821162583577
40
1
40
1
40
1
40
1
41
1
10
11.869173530254
20
3.293208230304
30
0
41
1
10
11.869173530254
20
3.18930853856631
30
0
41
1
10
11.869173530254
20
3.08093768360783
30
0
41
1
10
11.869173530254
20
2.73546263456379
30
0
41
1
10
11.869173530254
20
2.48444497157453
30
0
41
1
10
11.869173530254
20
2.08133111821823
30
0
41
1
10
11.869173530254
20
1.94279145384442
30
0
41
1
10
11.869173530254
20
1.66180091972692
30
0
41
1
10
11.869173530254
20
1.51878325666831
30
0
41
1
10
11.869173530254
20
1.08246777261115
30
0
41
1
10
11.869173530254
20
0.781949116214122
30
0
41
1
10
11.869173530254
20
0.317078093406366
30
0
41
1
10
11.869173530254
20
0.15939472727436
30
0
41
1
10
11.869173530254
20
-0.0789670477731477
30
0
41
1
10
11.869173530254
20
-0.158740574628297
30
0
41
1
10
11.869173530254
20
-0.278876909847014
30
0
41
1
10
11.869173530254
20
-0.319008233406095
30
0
41
1
10
11.869173530254
20
-0.379301082432818
30
0
41
1
10
11.869173530254
20
-0.399412133637412
30
0
41
1
10
11.869173530254
20
-0.429598814015009
30
0
41
1
10
11.8691735302536
20
-0.439602208883429
30
0
41
1
10
11.8691735302536
20
-0.459949776789585
30
0
41
1
10
11.869173530254
20
-0.470490041794591
30
0
41
1
10
11.869173530254
20
-0.491009195253298
30
0
41
1
10
11.869173530254
20
-0.500965871193927
30
0
41
1
10
11.869173530254
20
-0.520222591687769
30
0
41
1
10
11.869173530254
20
-0.529169516632834
30
0
41
1
10
11.869173530254
20
-0.556618672446007
30
0
41
1
10
11.869173530254
20
-0.574867587390287
30
0
41
1
10
11.869173530254
20
-0.629462297776087
30
0
41
1
10
11.869173530254
20
-0.66566117252944
30
0
41
1
10
11.869173530254
20
-0.773593598186267
30
0
41
1
10
11.869173530254
20
-0.844669702019274
30
0
41
1
10
11.869173530254
20
-1.0552256683186
30
0
41
1
10
11.869173530254
20
-1.19168332391203
30
0
41
1
10
11.869173530254
20
-1.45614993758846
30
0
41
1
10
11.869173530254
20
-1.58450492345187
30
0
41
1
10
11.869173530254
20
-1.82986150837337
30
0
41
1
10
11.869173530254
20
-1.94715854610348
30
0
41
1
10
11.869173530254
20
-2.17080020074803
30
0
41
1
10
11.869173530254
20
-2.27714624746056
30
0
41
1
10
11.869173530254
20
-2.47841420877685
30
0
41
1
10
11.869173530254
20
-2.57363782979175
30
0
41
1
10
11.869173530254
20
-2.70183738244356
30
0
41
1
10
11.869173530254
20
-2.74012329483983
30
0
41
1
10
11.869173530254
20
-2.77690527246577
30
0
0
SPLINE
5
C9
100
AcDbEntity
8
1
62
256
6
ByLayer
370
18
48
1
60
0
100
AcDbSpline
70
4
71
3
72
12
73
8
40
0
40
0
40
0
40
0
40
0.249999999999999
40
0.249999999999999
40
0.499999999999999
40
0.499999999999999
40
1
40
1
40
1
40
1
41
1
10
4.13285405409451
20
-4.4099947847611
30
0
41
1
10
4.11502664027441
20
-4.40736825030083
30
0
41
1
10
4.09868986022639
20
-4.40418016902353
30
0
41
1
10
4.0688943046872
20
-4.39663707194779
30
0
41
1
10
4.05541963583141
20
-4.39223967856549
30
0
41
1
10
4.02155214876342
20
-4.37780745420343
30
0
41
1
10
4.00688148342277
20
-4.36617887480503
30
0
41
1
10
4.00192448420353
20
-4.35360861353647
30
0
0
SPLINE
5
CA
100
AcDbEntity
8
1
62
256
6
ByLayer
370
18
48
1
60
0
100
AcDbSpline
70
4
71
3
72
24
73
20
40
0
40
0
40
0
40
0
40
0.125
40
0.125
40
0.1875
40
0.1875
40
0.25
40
0.25
40
0.375
40
0.375
40
0.5
40
0.5
40
0.625
40
0.625
40
0.75
40
0.75
40
0.875
40
0.875
40
1
40
1
40
1
40
1
41
1
10
4.25134678738976
20
1.31775220055323
30
0
41
1
10
4.54736806424023
20
1.10945770158221
30
0
41
1
10
4.85083694776986
20
0.908368110507894
30
0
41
1
10
5.31292516931094
20
0.612585699324541
30
0
41
1
10
5.46814193986802
20
0.515014412018218
30
0
41
1
10
5.78057461410506
20
0.321500216127276
30
0
41
1
10
5.93804566178937
20
0.225405829851979
30
0
41
1
10
6.41076737555684
20
-0.0593943456873944
30
0
41
1
10
6.72640482867342
20
-0.24472499272855
30
0
41
1
10
7.35850984217154
20
-0.607663349562273
30
0
41
1
10
7.6749769360637
20
-0.785537748006135
30
0
41
1
10
8.30927143644593
20
-1.13230601087562
30
0
41
1
10
8.62710785888063
20
-1.30132955121792
30
0
41
1
10
9.26517431742417
20
-1.62984325259566
30
0
41
1
10
9.58541032804928
20
-1.78917690683082
30
0
41
1
10
10.2298325200448
20
-2.09530789610517
30
0
41
1
10
10.5540130537279
20
-2.24225957715308
30
0
41
1
10
11.2080288539253
20
-2.52183818861542
30
0
41
1
10
11.5376836981175
20
-2.65407305066699
30
0
41
1
10
11.869173530254
20
-2.77690527246574
30
0
0
SPLINE
5
CB
100
AcDbEntity
8
1
62
256
6
ByLayer
370
18
48
1
60
0
100
AcDbSpline
70
4
71
3
72
42
73
38
40
0
40
0
40
0
40
0
40
0.125000000000003
40
0.125000000000003
40
0.187500000000005
40
0.187500000000005
40
0.250000000000007
40
0.250000000000007
40
0.375000000000015
40
0.375000000000015
40
0.500000000000023
40
0.500000000000023
40
0.625000000000032
40
0.625000000000032
40
0.75000000000004
40
0.75000000000004
40
0.812500000000045
40
0.812500000000045
40
0.843750000000047
40
0.843750000000047
40
0.85937500000005
40
0.85937500000005
40
0.867187500000049
40
0.867187500000049
40
0.875000000000049
40
0.875000000000049
40
0.878906250000047
40
0.878906250000047
40
0.882812500000045
40
0.882812500000045
40
0.890625000000043
40
0.890625000000043
40
0.906250000000037
40
0.906250000000037
40
0.937500000000024
40
0.937500000000024
40
1
40
1
40
1
40
1
41
1
10
57.0452373366201
20
1.6148674888222
30
0
41
1
10
57.2295895117897
20
1.45269473710189
30
0
41
1
10
57.4189743985237
20
1.30117357901355
30
0
41
1
10
57.7106180149236
20
1.08990567576006
30
0
41
1
10
57.8090971745031
20
1.02215957594339
30
0
41
1
10
58.0086717283145
20
0.892204563969244
30
0
41
1
10
58.1100488943851
20
0.829860680257525
30
0
41
1
10
58.4165296980932
20
0.652932761484379
30
0
41
1
10
58.6221413113491
20
0.549235383035125
30
0
41
1
10
59.0359443393496
20
0.370323777306197
30
0
41
1
10
59.2441307886196
20
0.295054727062734
30
0
41
1
10
59.6633394774636
20
0.175826106888451
30
0
41
1
10
59.874346937404
20
0.13170335752659
30
0
41
1
10
60.2999515847608
20
0.0830914316998985
30
0
41
1
10
60.5093752560842
20
0.0790041568500612
30
0
41
1
10
60.8171400626305
20
0.107821187292018
30
0
41
1
10
60.9189355585162
20
0.123374185228556
30
0
41
1
10
61.0685055814328
20
0.156326207463564
30
0
41
1
10
61.1178827766136
20
0.168916433156738
30
0
41
1
10
61.1911143816185
20
0.190313104434154
30
0
41
1
10
61.2153749487083
20
0.197860683981332
30
0
41
1
10
61.2515356210386
20
0.209819562285645
30
0
41
1
10
61.2638256983764
20
0.213197029914284
30
0
41
1
10
61.2870369605805
20
0.223481323916303
30
0
41
1
10
61.297531100983
20
0.231362227111021
30
0
41
1
10
61.3082192827493
20
0.248603734135486
30
0
41
1
10
61.3109224232159
20
0.255335559607971
30
0
41
1
10
61.3139032692368
20
0.269841678356386
30
0
41
1
10
61.3144258950656
20
0.277592666841258
30
0
41
1
10
61.3164859089313
20
0.300564178940959
30
0
41
1
10
61.3181168439282
20
0.315786682962369
30
0
41
1
10
61.3222390794907
20
0.361728920021363
30
0
41
1
10
61.3246150236808
20
0.392499824608109
30
0
41
1
10
61.3306713002987
20
0.485085273046138
30
0
41
1
10
61.3332842235114
20
0.547190113405122
30
0
41
1
10
61.3372658540198
20
0.734536768551095
30
0
41
1
10
61.3347554274776
20
0.861163842511729
30
0
41
1
10
61.3280869531559
20
0.987673763586571
30
0
0
SPLINE
5
CC
100
AcDbEntity
8
1
62
256
6
ByLayer
370
18
48
1
60
0
100
AcDbSpline
70
4
71
3
72
8
73
4
40
0
40
0
40
0
40
0
40
1
40
1
40
1
40
1
41
1
10
61.6701104040211
20
-2.31326671207
30
0
41
1
10
61.4669209752152
20
-2.69440448258553
30
0
41
1
10
61.2684964733597
20
-3.07986826768382
30
0
41
1
10
61.0748867984185
20
-3.46970337088661
30
0
0
SPLINE
5
CD
100
AcDbEntity
8
1
62
256
6
ByLayer
370
18
48
1
60
0
100
AcDbSpline
70
4
71
3
72
8
73
4
40
0
40
0
40
0
40
0
40
1
40
1
40
1
40
1
41
1
10
62.9999644699406
20
0.04177340464841
30
0
41
1
10
63.0000118459927
20
0.0139229160652121
30
0
41
1
10
63.0000118401393
20
-0.0139263570507353
30
0
41
1
10
62.9999644699406
20
-0.0417734046403098
30
0
0
SPLINE
5
CE
100
AcDbEntity
8
1
62
256
6
ByLayer
370
13
48
1
60
0
100
AcDbSpline
70
4
71
3
72
8
73
4
40
0
40
0
40
0
40
0
40
1
40
1
40
1
40
1
41
1
10
4.13520079170115
20
-4.29966048824338
30
0
41
1
10
4.15698098585807
20
-4.29198865908026
30
0
41
1
10
4.18045442760322
20
-4.28991295751368
30
0
41
1
10
4.20441785745044
20
-4.29325140347669
30
0
0
SPLINE
5
CF
100
AcDbEntity
8
1
62
256
6
ByLayer
370
13
48
1
60
0
100
AcDbSpline
70
4
71
3
72
8
73
4
40
0
40
0
40
0
40
0
40
1
40
1
40
1
40
1
41
1
10
4.13520079170115
20
-4.19025278071766
30
0
41
1
10
4.17114936734265
20
-4.17565998500319
30
0
41
1
10
4.21026059731102
20
-4.17008765788921
30
0
41
1
10
4.25032482276015
20
-4.17361778558214
30
0
0
SPLINE
5
D0
100
AcDbEntity
8
1
62
256
6
ByLayer
370
18
48
1
60
0
100
AcDbSpline
70
4
71
3
72
8
73
4
40
0
40
0
40
0
40
0
40
1
40
1
40
1
40
1
41
1
10
4.00192448420211
20
-4.35360861352407
30
0
41
1
10
4.0011323840327
20
-4.35159995755163
30
0
41
1
10
4.00073117021242
20
-4.34955954339156
30
0
41
1
10
4.00073130381486
20
-4.34751045771867
30
0
0
SPLINE
5
D1
100
AcDbEntity
8
1
62
256
6
ByLayer
370
18
48
1
60
0
100
AcDbSpline
70
4
71
3
72
12
73
8
40
0
40
0
40
0
40
0
40
0.500000000000002
40
0.500000000000002
40
0.750000000000001
40
0.750000000000001
40
1
40
1
40
1
40
1
41
1
10
61.6064617739236
20
4.49965044970531
30
0
41
1
10
61.812403427433
20
3.91800029500416
30
0
41
1
10
62.0287516871219
20
3.33809420254892
30
0
41
1
10
62.3648832966332
20
2.4708753512933
30
0
41
1
10
62.4789345596454
20
2.1821596663593
30
0
41
1
10
62.7097441540628
20
1.60773765129719
30
0
41
1
10
62.8266305506012
20
1.32173251116694
30
0
41
1
10
62.9449089664517
20
1.03675947039267
30
0
0
SPLINE
5
D2
100
AcDbEntity
8
1
62
256
6
ByLayer
370
18
48
1
60
0
100
AcDbSpline
70
4
71
3
72
16
73
12
40
0
40
0
40
0
40
0
40
0.268937069787788
40
0.268937069787788
40
0.516920069816714
40
0.516920069816714
40
0.640911569831177
40
0.640911569831177
40
0.764903069845641
40
0.764903069845641
40
1
40
1
40
1
40
1
41
1
10
20.1580757923248
20
0.0009695560622447
30
0
41
1
10
20.8019585541798
20
-0.331256895539809
30
0
41
1
10
21.4443824445022
20
-0.662876501023078
30
0
41
1
10
22.6828673536409
20
-1.28626587155779
30
0
41
1
10
23.2785610108519
20
-1.57928162318174
30
0
41
1
10
24.1784272971136
20
-2.00190110251287
30
0
41
1
10
24.4796184617595
20
-2.13997258854161
30
0
41
1
10
25.0784860179801
20
-2.40632817834626
30
0
41
1
10
25.3769326337878
20
-2.5350253361361
30
0
41
1
10
26.2393724957591
20
-2.89340636425385
30
0
41
1
10
26.8017489091862
20
-3.11008240437101
30
0
41
1
10
27.3640614649331
20
-3.30587561780496
30
0
0
SPLINE
5
D3
100
AcDbEntity
8
1
62
256
6
ByLayer
370
13
48
1
60
0
100
AcDbSpline
70
4
71
3
72
20
73
16
40
0
40
0
40
0
40
0
40
0.229212453346306
40
0.229212453346306
40
0.338157511195459
40
0.338157511195459
40
0.447102569044612
40
0.447102569044612
40
0.664992684742922
40
0.664992684742922
40
0.773937742592075
40
0.773937742592075
40
0.882882800441227
40
0.882882800441227
40
1
40
1
40
1
40
1
41
1
10
27.3640614648861
20
-3.30587561778861
30
0
41
1
10
27.9880166705969
20
-3.52313236142186
30
0
41
1
10
28.6118932506302
20
-3.71467682752044
30
0
41
1
10
29.536624355827
20
-3.95343349998308
30
0
41
1
10
29.8351988306831
20
-4.02365020017558
30
0
41
1
10
30.4343434967985
20
-4.14986380021452
30
0
41
1
10
30.7353708208017
20
-4.20591730153083
30
0
41
1
10
31.6366311497266
20
-4.35058356246753
30
0
41
1
10
32.2363864304755
20
-4.41611406620143
30
0
41
1
10
33.1385372909997
20
-4.46627405134618
30
0
41
1
10
33.4390332445735
20
-4.47491601682174
30
0
41
1
10
34.0402555550724
20
-4.47602498824571
30
0
41
1
10
34.340738937842
20
-4.46847659924336
30
0
41
1
10
34.9614019156649
20
-4.43634100069065
30
0
41
1
10
35.2818643632508
20
-4.410520376987
30
0
41
1
10
35.6016473734096
20
-4.37581075018895
30
0
0
SPLINE
5
D4
100
AcDbEntity
8
1
62
256
6
ByLayer
370
18
48
1
60
0
100
AcDbSpline
70
4
71
3
72
10
73
6
40
0
40
0
40
0
40
0
40
0.5
40
0.5
40
1
40
1
40
1
40
1
41
1
10
62.999964469945
20
0.0417734046646387
30
0
41
1
10
62.996229342191
20
0.0264315177144852
30
0
41
1
10
62.9911258402216
20
0.0099835854348385
30
0
41
1
10
62.9788196531431
20
-0.0212421316361997
30
0
41
1
10
62.9715790707919
20
-0.0360457931250835
30
0
41
1
10
62.9642431142169
20
-0.0480522770878906
30
0
0
SPLINE
5
D5
100
AcDbEntity
8
1
62
256
6
ByLayer
370
18
48
1
60
0
100
AcDbSpline
70
4
71
3
72
30
73
26
40
0
40
0
40
0
40
0
40
0.0624999999999965
40
0.0624999999999965
40
0.124999999999993
40
0.124999999999993
40
0.18749999999999
40
0.18749999999999
40
0.249999999999986
40
0.249999999999986
40
0.312499999999983
40
0.312499999999983
40
0.374999999999979
40
0.374999999999979
40
0.499999999999982
40
0.499999999999982
40
0.624999999999985
40
0.624999999999985
40
0.749999999999988
40
0.749999999999988
40
0.874999999999991
40
0.874999999999991
40
0.937499999999995
40
0.937499999999995
40
1
40
1
40
1
40
1
41
1
10
62.1898170042728
20
-1.36615144849944
30
0
41
1
10
62.1866192552898
20
-1.39284149614571
30
0
41
1
10
62.1820509727095
20
-1.4217970109631
30
0
41
1
10
62.1705078064101
20
-1.48161789480619
30
0
41
1
10
62.1635658950214
20
-1.51247807256846
30
0
41
1
10
62.1473890467148
20
-1.5760813767381
30
0
41
1
10
62.1380531395811
20
-1.60910909276046
30
0
41
1
10
62.1178311369243
20
-1.67451843422211
30
0
41
1
10
62.1068962688453
20
-1.70714677229989
30
0
41
1
10
62.0834680355229
20
-1.77226524892035
30
0
41
1
10
62.0709932065577
20
-1.80465661622074
30
0
41
1
10
62.0454389185848
20
-1.86709687928033
30
0
41
1
10
62.0322546237678
20
-1.89744272537561
30
0
41
1
10
61.9915596814474
20
-1.98597735350725
30
0
41
1
10
61.9638022776242
20
-2.03976383459414
30
0
41
1
10
61.9082729293327
20
-2.1360797495914
30
0
41
1
10
61.8805521400411
20
-2.17834357125636
30
0
41
1
10
61.8285266006141
20
-2.24713127342065
30
0
41
1
10
61.8037764496912
20
-2.27443035994031
30
0
41
1
10
61.757308384041
20
-2.31401834535026
30
0
41
1
10
61.7363824045116
20
-2.32567727006432
30
0
41
1
10
61.7083984744916
20
-2.33078217419637
30
0
41
1
10
61.699591413254
20
-2.33035233683384
30
0
41
1
10
61.6836563479346
20
-2.32508198776969
30
0
41
1
10
61.6764824323643
20
-2.32028206011878
30
0
41
1
10
61.670110404021
20
-2.31326671206978
30
0
0
SPLINE
5
D6
100
AcDbEntity
8
1
62
256
6
ByLayer
370
18
48
1
60
0
100
AcDbSpline
70
4
71
3
72
44
73
40
40
0
40
0
40
0
40
0
40
0.102192044748059
40
0.102192044748059
40
0.153288067122088
40
0.153288067122088
40
0.204384089496117
40
0.204384089496117
40
0.255480111870147
40
0.255480111870147
40
0.306576134244176
40
0.306576134244176
40
0.357672156618205
40
0.357672156618205
40
0.408768178992235
40
0.408768178992235
40
0.459864201366264
40
0.459864201366264
40
0.510960223740293
40
0.510960223740293
40
0.562056246114323
40
0.562056246114323
40
0.613152268488352
40
0.613152268488352
40
0.664248290862381
40
0.664248290862381
40
0.715344313236411
40
0.715344313236411
40
0.76644033561044
40
0.76644033561044
40
0.817536357984471
40
0.817536357984471
40
0.868632380358501
40
0.868632380358501
40
0.919728402732532
40
0.919728402732532
40
0.970824425106562
40
0.970824425106562
40
1
40
1
40
1
40
1
41
1
10
11.869173530254
20
-2.77690527246574
30
0
41
1
10
12.3423479035349
20
-2.96100231932641
30
0
41
1
10
12.8133045207426
20
-3.13145251084171
30
0
41
1
10
13.5163524388828
20
-3.36510504063148
30
0
41
1
10
13.7501259491647
20
-3.43924397862162
30
0
41
1
10
14.2175270987023
20
-3.57958767507401
30
0
41
1
10
14.4511795858879
20
-3.64588398102092
30
0
41
1
10
14.9182105857093
20
-3.77039214893097
30
0
41
1
10
15.1515654719684
20
-3.82848481892731
30
0
41
1
10
15.6181241952173
20
-3.93621574130887
30
0
41
1
10
15.8513346476115
20
-3.98595819361037
30
0
41
1
10
16.3186321526607
20
-4.07685720429049
30
0
41
1
10
16.5526047293283
20
-4.11802983686519
30
0
41
1
10
17.0211094700593
20
-4.1910435857468
30
0
41
1
10
17.2556589912445
20
-4.2228859732657
30
0
41
1
10
17.7254999969065
20
-4.27804548370625
30
0
41
1
10
17.9609529271418
20
-4.30156413297976
30
0
41
1
10
18.4335804654695
20
-4.33736444768044
30
0
41
1
10
18.6705016159338
20
-4.34997457978238
30
0
41
1
10
19.1429813465207
20
-4.36604337445428
30
0
41
1
10
19.3788610390171
20
-4.36961515651333
30
0
41
1
10
19.8505336771981
20
-4.3678129132403
30
0
41
1
10
20.086396047663
20
-4.36139820320764
30
0
41
1
10
20.558322798952
20
-4.33835026879129
30
0
41
1
10
20.7943701691022
20
-4.3220149802118
30
0
41
1
10
21.2667045104294
20
-4.28061356958705
30
0
41
1
10
21.5032469494786
20
-4.25583865982713
30
0
41
1
10
21.9758222987625
20
-4.19491246257033
30
0
41
1
10
22.211461524456
20
-4.15933605363938
30
0
41
1
10
22.6817873225373
20
-4.08012809618276
30
0
41
1
10
22.9164378744619
20
-4.03637832394278
30
0
41
1
10
23.3847923137597
20
-3.94066743908291
30
0
41
1
10
23.6184312546559
20
-3.88796154845954
30
0
41
1
10
24.0856211006779
20
-3.773942692958
30
0
41
1
10
24.3191098857566
20
-3.71290091493805
30
0
41
1
10
24.7858555368008
20
-3.58354691025892
30
0
41
1
10
25.0191233062719
20
-3.51558573973517
30
0
41
1
10
25.3854454715787
20
-3.40167206265875
30
0
41
1
10
25.5186444400657
20
-3.35886728903068
30
0
41
1
10
25.6519345092524
20
-3.31485752403759
30
0
0
SPLINE
5
D7
100
AcDbEntity
8
1
62
256
6
ByLayer
370
18
48
1
60
0
100
AcDbSpline
70
4
71
3
72
32
73
28
40
0
40
0
40
0
40
0
40
0.0302037013737545
40
0.0302037013737545
40
0.0994748655613445
40
0.0994748655613445
40
0.168746029748934
40
0.168746029748934
40
0.238017193936525
40
0.238017193936525
40
0.307288358124114
40
0.307288358124114
40
0.376559522311705
40
0.376559522311705
40
0.445830686499295
40
0.445830686499295
40
0.584373014874471
40
0.584373014874471
40
0.653644179062059
40
0.653644179062059
40
0.722915343249647
40
0.722915343249647
40
0.861457671624824
40
0.861457671624824
40
0.930728835812412
40
0.930728835812412
40
1
40
1
40
1
40
1
41
1
10
46.8266927098684
20
4.38368672991146
30
0
41
1
10
46.9295423798723
20
4.38284923477855
30
0
41
1
10
47.0324578416145
20
4.38106144814574
30
0
41
1
10
47.3716740130192
20
4.37223282070752
30
0
41
1
10
47.6083878261366
20
4.36158375123475
30
0
41
1
10
48.0806545077131
20
4.33082011190865
30
0
41
1
10
48.3162762851912
20
4.3101511696355
30
0
41
1
10
48.7874830535874
20
4.25934601334868
30
0
41
1
10
49.0231856278018
20
4.22938418537794
30
0
41
1
10
49.4947563514611
20
4.16135355868866
30
0
41
1
10
49.7305730290869
20
4.1232092939114
30
0
41
1
10
50.2022790050602
20
4.03582494797254
30
0
41
1
10
50.4382268423171
20
3.98683595380601
30
0
41
1
10
50.9109786632765
20
3.88028531118536
30
0
41
1
10
51.1471623497445
20
3.82279649026969
30
0
41
1
10
51.8550336117896
20
3.6380230910157
30
0
41
1
10
52.3256626669954
20
3.49814339174486
30
0
41
1
10
53.0332917161794
20
3.26826921983616
30
0
41
1
10
53.2693589386718
20
3.18795984717218
30
0
41
1
10
53.7418486004885
20
3.01911235235471
30
0
41
1
10
53.9783513865693
20
2.9306123260391
30
0
41
1
10
54.6862544601194
20
2.65620364378853
30
0
41
1
10
55.1579080181536
20
2.46228896500165
30
0
41
1
10
55.8649517044615
20
2.15474841315196
30
0
41
1
10
56.1004955331615
20
2.04945954033411
30
0
41
1
10
56.5723246333268
20
1.83512983607102
30
0
41
1
10
56.808784914931
20
1.72598995720998
30
0
41
1
10
57.0452373366201
20
1.61486748882226
30
0
0
SPLINE
5
D8
100
AcDbEntity
8
1
62
256
6
ByLayer
370
18
48
1
60
0
100
AcDbSpline
70
4
71
3
72
10
73
6
40
0
40
0
40
0
40
0
40
0.5
40
0.5
40
1
40
1
40
1
40
1
41
1
10
61.4638308188186
20
1.0835574231628
30
0
41
1
10
61.7107740299978
20
1.07472222627152
30
0
41
1
10
61.9576388961852
20
1.06672468049282
30
0
41
1
10
62.4512915861699
20
1.05155331285542
30
0
41
1
10
62.6981233500331
20
1.04390969140559
30
0
41
1
10
62.9449089664576
20
1.03675947039517
30
0
0
SPLINE
5
D9
100
AcDbEntity
8
1
62
256
6
ByLayer
370
13
48
1
60
0
100
AcDbSpline
70
4
71
3
72
8
73
4
40
0
40
0
40
0
40
0
40
1
40
1
40
1
40
1
41
1
10
4.13285405409454
20
-4.40999478476024
30
0
41
1
10
4.13362982377228
20
-4.37321860049587
30
0
41
1
10
4.13441206614215
20
-4.33644052370835
30
0
41
1
10
4.13520079170112
20
-4.29966048824335
30
0
0
SPLINE
5
DA
100
AcDbEntity
8
1
62
256
6
ByLayer
370
18
48
1
60
0
100
AcDbSpline
70
4
71
3
72
8
73
4
40
0
40
0
40
0
40
0
40
1
40
1
40
1
40
1
41
1
10
62.9642431142169
20
-0.0480522770880043
30
0
41
1
10
62.6994692400807
20
-0.481397709422026
30
0
41
1
10
62.4412946119616
20
-0.920734510522522
30
0
41
1
10
62.1898170042747
20
-1.36615144849657
30
0
0
SPLINE
5
DB
100
AcDbEntity
8
1
62
256
6
ByLayer
370
18
48
1
60
0
100
AcDbSpline
70
4
71
3
72
10
73
6
40
0
40
0
40
0
40
0
40
0.5
40
0.5
40
1
40
1
40
1
40
1
41
1
10
61.6064617739292
20
-4.49965044968556
30
0
41
1
10
61.5626468672586
20
-4.53225677509445
30
0
41
1
10
61.520802480109
20
-4.558830409173
30
0
41
1
10
61.4410318498374
20
-4.59919940737771
30
0
41
1
10
61.4030365243021
20
-4.61293213336688
30
0
41
1
10
61.367823670238
20
-4.61972345443607
30
0
0
SPLINE
5
DC
100
AcDbEntity
8
1
62
256
6
ByLayer
370
13
48
1
60
0
100
AcDbSpline
70
4
71
3
72
14
73
10
40
0
40
0
40
0
40
0
40
0.21886660035912
40
0.21886660035912
40
0.437733200718241
40
0.437733200718241
40
0.875466401436482
40
0.875466401436482
40
1
40
1
40
1
40
1
41
1
10
4.20441785745044
20
-4.29325140347669
30
0
41
1
10
4.50530819732126
20
-4.33516969926544
30
0
41
1
10
4.80658648204155
20
-4.36920254214343
30
0
41
1
10
5.40731424670582
20
-4.42114558867269
30
0
41
1
10
5.70656548986253
20
-4.43906588679147
30
0
41
1
10
6.6019815637851
20
-4.46902609830178
30
0
41
1
10
7.1958255695204
20
-4.45731970535036
30
0
41
1
10
7.95811009060239
20
-4.40225766077492
30
0
41
1
10
8.12690968610838
20
-4.3875456538191
30
0
41
1
10
8.29573256200021
20
-4.37033749955418
30
0
0
SPLINE
5
DD
100
AcDbEntity
8
1
62
256
6
ByLayer
370
18
48
1
60
0
100
AcDbSpline
70
4
71
3
72
14
73
10
40
0
40
0
40
0
40
0
40
0.510676919457866
40
0.510676919457866
40
0.779595830367824
40
0.779595830367824
40
0.914055285822802
40
0.914055285822802
40
1
40
1
40
1
40
1
41
1
10
47.3268803626111
20
0.0171461142701048
30
0
41
1
10
48.4636459675567
20
-0.571610199643857
30
0
41
1
10
49.5848388690428
20
-1.15264438921213
30
0
41
1
10
51.3000000763629
20
-1.97591491333594
30
0
41
1
10
51.892209949633
20
-2.24854367027544
30
0
41
1
10
52.7853260127835
20
-2.63306455975839
30
0
41
1
10
53.0838567965841
20
-2.75713026658545
30
0
41
1
10
53.5751117062832
20
-2.95273564688313
30
0
41
1
10
53.7671874517362
20
-3.02708404183105
30
0
41
1
10
53.9589474910067
20
-3.09905143241252
30
0
0
SPLINE
5
DE
100
AcDbEntity
8
1
62
256
6
ByLayer
370
13
48
1
60
0
100
AcDbSpline
70
4
71
3
72
14
73
10
40
0
40
0
40
0
40
0
40
0.0431552715868264
40
0.0431552715868264
40
0.521577635793413
40
0.521577635793413
40
0.760788817896707
40
0.760788817896707
40
1
40
1
40
1
40
1
41
1
10
53.9589474903168
20
-3.09905143215354
30
0
41
1
10
54.0671936902314
20
-3.13967614509391
30
0
41
1
10
54.1753392914888
20
-3.17954215942194
30
0
41
1
10
55.4793726129739
20
-3.65120729287133
30
0
41
1
10
56.658819412422
20
-3.98556182502614
30
0
41
1
10
58.4339338009855
20
-4.31103498437716
30
0
41
1
10
59.0267636333965
20
-4.39024295826542
30
0
41
1
10
60.2195665263075
20
-4.48625230199477
30
0
41
1
10
60.8213232324811
20
-4.50279380458835
30
0
41
1
10
61.4218217875427
20
-4.48642501383461
30
0
0
SPLINE
5
DF
100
AcDbEntity
8
1
62
256
6
ByLayer
370
13
48
1
60
0
100
AcDbSpline
70
4
71
3
72
12
73
8
40
0
40
0
40
0
40
0
40
0.499999999999999
40
0.499999999999999
40
0.75
40
0.75
40
1
40
1
40
1
40
1
41
1
10
4.000731303809
20
-4.34751045773544
30
0
41
1
10
4.00385834661995
20
-4.31633594797143
30
0
41
1
10
4.01712751509251
20
-4.2853655189125
30
0
41
1
10
4.05097104570521
20
-4.24448960838333
30
0
41
1
10
4.06485796252394
20
-4.23149202611535
30
0
41
1
10
4.09691062969051
20
-4.20848926475236
30
0
41
1
10
4.11491264578956
20
-4.19848845524504
30
0
41
1
10
4.13520079170115
20
-4.19025278071766
30
0
0
SPLINE
5
E0
100
AcDbEntity
8
1
62
256
6
ByLayer
370
18
48
1
60
0
100
AcDbSpline
70
4
71
3
72
12
73
8
40
0
40
0
40
0
40
0
40
0.25
40
0.25
40
0.5
40
0.5
40
1
40
1
40
1
40
1
41
1
10
61.6064617739232
20
-4.49965044970622
30
0
41
1
10
61.7096555843444
20
-4.20819558968734
30
0
41
1
10
61.8153415157307
20
-3.91755951833824
30
0
41
1
10
62.0309971746452
20
-3.33772992500252
30
0
41
1
10
62.1409818085789
20
-3.04854125828302
30
0
41
1
10
62.4765053814465
20
-2.18288953558732
30
0
41
1
10
62.7079550565292
20
-1.6076622487943
30
0
41
1
10
62.9449089664505
20
-1.0367594703954
30
0
0
SPLINE
5
E1
100
AcDbEntity
8
1
62
256
6
ByLayer
370
18
48
1
60
0
100
AcDbSpline
70
4
71
3
72
46
73
42
40
0
40
0
40
0
40
0
40
0.0323771372419907
40
0.0323771372419907
40
0.0647542744839815
40
0.0647542744839815
40
0.129508548967963
40
0.129508548967963
40
0.161885686209954
40
0.161885686209954
40
0.194262823451944
40
0.194262823451944
40
0.259017097935926
40
0.259017097935926
40
0.291394235177917
40
0.291394235177917
40
0.323771372419907
40
0.323771372419907
40
0.388525646903888
40
0.388525646903888
40
0.453279921387868
40
0.453279921387868
40
0.485657058629857
40
0.485657058629857
40
0.518034195871847
40
0.518034195871847
40
0.647542744839804
40
0.647542744839804
40
0.712297019323783
40
0.712297019323783
40
0.744674156565772
40
0.744674156565772
40
0.777051293807761
40
0.777051293807761
40
0.906559842775717
40
0.906559842775717
40
0.938936980017706
40
0.938936980017706
40
0.971314117259695
40
0.971314117259695
40
1
40
1
40
1
40
1
41
1
10
61.3678236702381
20
-4.61972345443607
30
0
41
1
10
61.068658957271
20
-4.62706954657696
30
0
41
1
10
60.7696137856945
20
-4.62610989983838
30
0
41
1
10
60.1711377867057
20
-4.60765063613775
30
0
41
1
10
59.8713908632033
20
-4.59011908903651
30
0
41
1
10
58.9730920938531
20
-4.5129824242552
30
0
41
1
10
58.3762558486891
20
-4.42902615882144
30
0
41
1
10
57.4800247447101
20
-4.25655281765665
30
0
41
1
10
57.181096186268
20
-4.19131646474983
30
0
41
1
10
56.5821108259601
20
-4.04583343456275
30
0
41
1
10
56.2824917202151
20
-3.96567765155996
30
0
41
1
10
55.3855376706073
20
-3.70495327218813
30
0
41
1
10
54.7888536826619
20
-3.50374691497146
30
0
41
1
10
53.8914228092784
20
-3.16592764168041
30
0
41
1
10
53.5914778556384
20
-3.04716968990346
30
0
41
1
10
52.9928128601002
20
-2.79962079786677
30
0
41
1
10
52.6939713039439
20
-2.67076679825857
30
0
41
1
10
51.7977635062296
20
-2.27079265231765
30
0
41
1
10
51.2006653251465
20
-1.98633795836315
30
0
41
1
10
50.001608952294
20
-1.39095052628019
30
0
41
1
10
49.4043458288691
20
-1.08224083521694
30
0
41
1
10
48.5080446088089
20
-0.610750136224908
30
0
41
1
10
48.2091547183142
20
-0.452225176571346
30
0
41
1
10
47.6104681318808
20
-0.133680514673415
30
0
41
1
10
47.3103677899192
20
0.0265487731386145
30
0
41
1
10
45.8175598382352
20
0.82174156905171
30
0
41
1
10
44.6392002635627
20
1.44338147626786
30
0
41
1
10
42.8628726877203
20
2.29485438610533
30
0
41
1
10
42.2692462526093
20
2.56511129479125
30
0
41
1
10
41.3725995324911
20
2.94311148166256
30
0
41
1
10
41.0722975523355
20
3.06462912751931
30
0
41
1
10
40.4751460520382
20
3.29475118687381
30
0
41
1
10
40.177561814724
20
3.40372095431982
30
0
41
1
10
38.6930379011476
20
3.91660075366568
30
0
41
1
10
37.5158340078973
20
4.22382119713188
30
0
41
1
10
36.0304106293758
20
4.45404196123604
30
0
41
1
10
35.7326278809017
20
4.49240364120902
30
0
41
1
10
35.1349260984271
20
4.55315612832686
30
0
41
1
10
34.8346163600724
20
4.57554227029931
30
0
41
1
10
34.2700056843709
20
4.60206861630851
30
0
41
1
10
34.0051004489591
20
4.608050074228
30
0
41
1
10
33.7402786780569
20
4.60756751430631
30
0
0
SPLINE
5
E2
100
AcDbEntity
8
1
62
256
6
ByLayer
370
18
48
1
60
0
100
AcDbSpline
70
4
71
3
72
10
73
6
40
0
40
0
40
0
40
0
40
0.296888489285155
40
0.296888489285155
40
1
40
1
40
1
40
1
41
1
10
9.20336390947872
20
-4.37984898962719
30
0
41
1
10
8.70000276379864
20
-4.45979404178414
30
0
41
1
10
8.19893656679173
20
-4.51714774742504
30
0
41
1
10
6.51348138935893
20
-4.63333225726973
30
0
41
1
10
5.3320266829358
20
-4.58667033990679
30
0
41
1
10
4.13285405409459
20
-4.40999478476112
30
0
0
SPLINE
5
E3
100
AcDbEntity
8
1
62
256
6
ByLayer
370
18
48
1
60
0
100
AcDbSpline
70
4
71
3
72
8
73
4
40
0
40
0
40
0
40
0
40
1
40
1
40
1
40
1
41
1
10
62.989533153993
20
0.117751299966358
30
0
41
1
10
62.990193309073
20
0.0960740534687545
30
0
41
1
10
62.9941545700917
20
0.0696283559723554
30
0
41
1
10
62.9999644699381
20
0.0417734046586986
30
0
0
SPLINE
5
E4
100
AcDbEntity
8
1
62
256
6
ByLayer
370
18
48
1
60
0
100
AcDbSpline
70
4
71
3
72
31
73
27
40
0
40
0
40
0
40
0
40
0.0625
40
0.0625
40
0.125
40
0.125
40
0.25
40
0.25
40
0.3125
40
0.3125
40
0.375
40
0.437500000000001
40
0.437500000000001
40
0.500000000000001
40
0.500000000000001
40
0.625000000000001
40
0.625000000000001
40
0.6875
40
0.6875
40
0.75
40
0.75
40
0.875
40
0.875
40
0.9375
40
0.9375
40
1
40
1
40
1
40
1
41
1
10
4.00073130381486
20
-4.34751045771384
30
0
41
1
10
4.000734428398
20
-4.2995881491328
30
0
41
1
10
4.00073744558958
20
-4.2445191199987
30
0
41
1
10
4.0007432168149
20
-4.12190089217017
30
0
41
1
10
4.00074597381402
20
-4.05438278673915
30
0
41
1
10
4.00075393193407
20
-3.83365877822302
30
0
41
1
10
4.00075882144063
20
-3.66245571810612
30
0
41
1
10
4.00076578521896
20
-3.36827637490475
30
0
41
1
10
4.00076802191742
20
-3.26484363000571
30
0
41
1
10
4.00077232881102
20
-3.04960058955291
30
0
41
1
10
4.00077648407722
20
-2.82535128572337
30
0
41
1
10
4.00078041726857
20
-2.58326878354137
30
0
41
1
10
4.00078427188208
20
-2.33210603694772
30
0
41
1
10
4.00078616944623
20
-2.20125714640463
30
0
41
1
10
4.00079167842756
20
-1.80215841809729
30
0
41
1
10
4.00079513181697
20
-1.52645465985526
30
0
41
1
10
4.0008000773168
20
-1.09870929114436
30
0
41
1
10
4.00080168526253
20
-0.953746136283968
30
0
41
1
10
4.00080481799057
20
-0.658895905038889
30
0
41
1
10
4.00080632309812
20
-0.510831968250443
30
0
41
1
10
4.00081061876213
20
-0.0675039320599069
30
0
41
1
10
4.0008132090926
20
0.228086756840668
30
0
41
1
10
4.00081653960902
20
0.67153143095743
30
0
41
1
10
4.00081755909673
20
0.820052265870316
30
0
41
1
10
4.0008193303168
20
1.11125345024467
30
0
41
1
10
4.00082008688028
20
1.25445066467915
30
0
41
1
10
4.00082069637608
20
1.39529685836254
30
0
0
SPLINE
5
E5
100
AcDbEntity
8
1
62
256
6
ByLayer
370
18
48
1
60
0
100
AcDbSpline
70
4
71
3
72
44
73
40
40
0
40
0
40
0
40
0
40
0.062499999999998
40
0.062499999999998
40
0.124999999999996
40
0.124999999999996
40
0.249999999999999
40
0.249999999999999
40
0.312499999999997
40
0.312499999999997
40
0.343749999999999
40
0.343749999999999
40
0.375000000000001
40
0.375000000000001
40
0.406250000000003
40
0.406250000000003
40
0.437500000000005
40
0.437500000000005
40
0.453125000000006
40
0.453125000000006
40
0.468750000000008
40
0.468750000000008
40
0.484375000000009
40
0.484375000000009
40
0.50000000000001
40
0.50000000000001
40
0.531250000000008
40
0.531250000000008
40
0.562500000000005
40
0.562500000000005
40
0.625000000000006
40
0.625000000000006
40
0.687500000000007
40
0.687500000000007
40
0.750000000000009
40
0.750000000000009
40
0.875000000000004
40
0.875000000000004
40
1
40
1
40
1
40
1
41
1
10
61.6701104040208
20
-2.31326671206966
30
0
41
1
10
61.5884732962419
20
-2.28984436566745
30
0
41
1
10
61.5069493143482
20
-2.26267075413267
30
0
41
1
10
61.3441235441124
20
-2.20095557171663
30
0
41
1
10
61.262600442129
20
-2.16630978258991
30
0
41
1
10
61.0199488691418
20
-2.05117114023472
30
0
41
1
10
60.861918132797
20
-1.96093579932489
30
0
41
1
10
60.6330986322118
20
-1.79591611362804
30
0
41
1
10
60.5582661782087
20
-1.73584814544992
30
0
41
1
10
60.451766653867
20
-1.63608263046305
30
0
41
1
10
60.4170325340203
20
-1.60098514758994
30
0
41
1
10
60.3510942706192
20
-1.52727346688616
30
0
41
1
10
60.3197773877816
20
-1.48863157882968
30
0
41
1
10
60.2621346611365
20
-1.40595259016422
30
0
41
1
10
60.2354683398108
20
-1.36137931502728
30
0
41
1
10
60.1935961395624
20
-1.26724723900341
30
0
41
1
10
60.1783539577885
20
-1.21747234017482
30
0
41
1
10
60.17243022043
20
-1.14274751901303
30
0
41
1
10
60.1733871090058
20
-1.1184648520065
30
0
41
1
10
60.1815100632058
20
-1.07246391776829
30
0
41
1
10
60.1887117779759
20
-1.05085090422332
30
0
41
1
10
60.2079226958488
20
-1.01215796602503
30
0
41
1
10
60.2200768516383
20
-0.994720691022167
30
0
41
1
10
60.2471323114036
20
-0.964382381293404
30
0
41
1
10
60.2621566793133
20
-0.951207128575874
30
0
41
1
10
60.3106376846339
20
-0.916221561289177
30
0
41
1
10
60.3461297541407
20
-0.899687260665019
30
0
41
1
10
60.42017268836
20
-0.874398874991812
30
0
41
1
10
60.4590821064086
20
-0.865731778241553
30
0
41
1
10
60.5764049305834
20
-0.848197783411337
30
0
41
1
10
60.6563534112947
20
-0.847150720598478
30
0
41
1
10
60.8181489720176
20
-0.856714019284766
30
0
41
1
10
60.9003909984506
20
-0.867676450723479
30
0
41
1
10
61.0645096480824
20
-0.898101045826024
30
0
41
1
10
61.1462166427299
20
-0.917530243175833
30
0
41
1
10
61.3904997260214
20
-0.985846335198886
30
0
41
1
10
61.5522605279697
20
-1.04449107240396
30
0
41
1
10
61.8737885366981
20
-1.18564109528165
30
0
41
1
10
62.0345735810574
20
-1.2686039082399
30
0
41
1
10
62.1898170042733
20
-1.36615144850055
30
0
0
SPLINE
5
E6
100
AcDbEntity
8
1
62
256
6
ByLayer
370
18
48
1
60
0
100
AcDbSpline
70
4
71
3
72
10
73
6
40
0
40
0
40
0
40
0
40
0.5
40
0.5
40
1
40
1
40
1
40
1
41
1
10
61.6064617739293
20
4.49965044968547
30
0
41
1
10
61.5626468672587
20
4.5322567750944
30
0
41
1
10
61.5208024801091
20
4.55883040917297
30
0
41
1
10
61.4410318498375
20
4.59919940737768
30
0
41
1
10
61.4030365243021
20
4.61293213336688
30
0
41
1
10
61.367823670238
20
4.61972345443607
30
0
0
SPLINE
5
E7
100
AcDbEntity
8
1
62
256
6
ByLayer
370
18
48
1
60
0
100
AcDbSpline
70
4
71
3
72
14
73
10
40
0
40
0
40
0
40
0
40
0.148367728205596
40
0.148367728205596
40
0.296735456411192
40
0.296735456411192
40
0.593470912822384
40
0.593470912822384
40
1
40
1
40
1
40
1
41
1
10
61.4311910407256
20
-4.39177894732822
30
0
41
1
10
61.1311951029393
20
-4.39610960828628
30
0
41
1
10
60.8309847568328
20
-4.39247662993799
30
0
41
1
10
60.2310107664048
20
-4.36937841219526
30
0
41
1
10
59.9322041260586
20
-4.34996650715192
30
0
41
1
10
59.038415639096
20
-4.2689696487123
30
0
41
1
10
58.4459537416827
20
-4.1846437588153
30
0
41
1
10
57.0442273686546
20
-3.91764849552448
30
0
41
1
10
56.2356596972901
20
-3.70995326337538
30
0
41
1
10
55.4223991926024
20
-3.45525359438113
30
0
0
SPLINE
5
E8
100
AcDbEntity
8
1
62
256
6
ByLayer
370
13
48
1
60
0
100
AcDbSpline
70
4
71
3
72
24
73
20
40
0
40
0
40
0
40
0
40
0.0942401631494127
40
0.0942401631494127
40
0.16903453928299
40
0.16903453928299
40
0.243828915416567
40
0.243828915416567
40
0.393417667683721
40
0.393417667683721
40
0.692595172218029
40
0.692595172218029
40
0.767389548351604
40
0.767389548351604
40
0.842183924485179
40
0.842183924485179
40
0.991772676752327
40
0.991772676752327
40
1
40
1
40
1
40
1
41
1
10
55.4223993281942
20
-3.45525363684624
30
0
41
1
10
55.04842259063
20
-3.33813034261601
30
0
41
1
10
54.6734535029811
20
-3.21106745378179
30
0
41
1
10
53.997990103125
20
-2.96643977539819
30
0
41
1
10
53.6972724159226
20
-2.85202235122128
30
0
41
1
10
53.0985440319192
20
-2.61437484684728
30
0
41
1
10
52.8002815618612
20
-2.49107161991859
30
0
41
1
10
51.907848140654
20
-2.10956481225909
30
0
41
1
10
51.3159513777307
20
-1.83987899251497
30
0
41
1
10
49.5417894417714
20
-0.99940317340301
30
0
41
1
10
48.3612849999363
20
-0.396445838115937
30
0
41
1
10
46.8634281947146
20
0.36137070275575
30
0
41
1
10
46.5628387776308
20
0.51303183655159
30
0
41
1
10
45.9650602128258
20
0.812164688156514
30
0
41
1
10
45.6670947174404
20
0.960049747187696
30
0
41
1
10
44.7750501778665
20
1.39704953701062
30
0
41
1
10
44.1826835902358
20
1.67917509658338
30
0
41
1
10
43.5576687529363
20
1.96246568378075
30
0
41
1
10
43.5250846611937
20
1.97719250845577
30
0
41
1
10
43.4924995817949
20
1.99187684225004
30
0
0
SPLINE
5
E9
100
AcDbEntity
8
1
62
256
6
ByLayer
370
18
48
1
60
0
100
AcDbSpline
70
4
71
3
72
12
73
8
40
0
40
0
40
0
40
0
40
0.291280167733146
40
0.291280167733146
40
0.645640083866574
40
0.645640083866574
40
1
40
1
40
1
40
1
41
1
10
6.78357790662855
20
-4.35958772383873
30
0
41
1
10
6.53923065564658
20
-4.35950877330899
30
0
41
1
10
6.29456022787016
20
-4.35423716942057
30
0
41
1
10
5.75111834175687
20
-4.33098118951241
30
0
41
1
10
5.4520986238945
20
-4.31046601529573
30
0
41
1
10
4.8519047146662
20
-4.25373161490108
30
0
41
1
10
4.55092470857997
20
-4.21750531810144
30
0
41
1
10
4.25032482276012
20
-4.17361778558214
30
0
0
SPLINE
5
EA
100
AcDbEntity
8
1
62
256
6
ByLayer
370
18
48
1
60
0
100
AcDbSpline
70
4
71
3
72
32
73
28
40
0
40
0
40
0
40
0
40
0.0625000000000009
40
0.0625000000000009
40
0.0937500000000013
40
0.0937500000000013
40
0.125000000000002
40
0.125000000000002
40
0.187500000000003
40
0.187500000000003
40
0.250000000000003
40
0.250000000000003
40
0.375000000000002
40
0.375000000000002
40
0.437500000000004
40
0.437500000000004
40
0.500000000000005
40
0.500000000000005
40
0.625000000000004
40
0.625000000000004
40
0.687500000000003
40
0.687500000000003
40
0.750000000000002
40
0.750000000000002
40
0.875000000000001
40
0.875000000000001
40
1
40
1
40
1
40
1
41
1
10
57.0452373366201
20
1.61486748882203
30
0
41
1
10
57.0355438742511
20
1.47550554801941
30
0
41
1
10
57.0362540869443
20
1.3333903848399
30
0
41
1
10
57.0531349143227
20
1.11603223335609
30
0
41
1
10
57.0614522627904
20
1.04256820137158
30
0
41
1
10
57.0832345163694
20
0.89571986214753
30
0
41
1
10
57.0966163648272
20
0.822720384257138
30
0
41
1
10
57.1437696653283
20
0.604916839452301
30
0
41
1
10
57.1845255034979
20
0.461303676767244
30
0
41
1
10
57.2829048890388
20
0.176953456163375
30
0
41
1
10
57.3410176110453
20
0.03536063981457
30
0
41
1
10
57.5334061773194
20
-0.374439549232903
30
0
41
1
10
57.6860460893347
20
-0.630918126993038
30
0
41
1
10
57.9423616441575
20
-0.996874174305674
30
0
41
1
10
58.0326332161924
20
-1.11582128660243
30
0
41
1
10
58.2181252012235
20
-1.34361009077782
30
0
41
1
10
58.313769977022
20
-1.45305276623333
30
0
41
1
10
58.6082993308406
20
-1.76971693983856
30
0
41
1
10
58.8146068905075
20
-1.96553879825615
30
0
41
1
10
59.1358914559473
20
-2.24111439210344
30
0
41
1
10
59.2452719900523
20
-2.33011079270213
30
0
41
1
10
59.4663133731397
20
-2.50128316248126
30
0
41
1
10
59.5777768310692
20
-2.58333439891467
30
0
41
1
10
59.914719074614
20
-2.81991974834546
30
0
41
1
10
60.1427332668194
20
-2.96494723091465
30
0
41
1
10
60.6045661131469
20
-3.2332380835465
30
0
41
1
10
60.8383822471756
20
-3.35651090282241
30
0
41
1
10
61.0748867984186
20
-3.46970337088655
30
0
0
SPLINE
5
EB
100
AcDbEntity
8
1
62
256
6
ByLayer
370
18
48
1
60
0
100
AcDbSpline
70
4
71
3
72
14
73
10
40
0
40
0
40
0
40
0
40
0.25
40
0.25
40
0.5
40
0.5
40
0.75
40
0.75
40
1
40
1
40
1
40
1
41
1
10
4.0008206963771
20
1.39529685835834
30
0
41
1
10
4.00309557280187
20
1.40452958223267
30
0
41
1
10
4.01026337407853
20
1.41141938559949
30
0
41
1
10
4.03684899240352
20
1.41680929111249
30
0
41
1
10
4.05677951423198
20
1.41509859300177
30
0
41
1
10
4.10716670417349
20
1.40012269047421
30
0
41
1
10
4.13656880630811
20
1.38715512935664
30
0
41
1
10
4.19532846526766
20
1.35529039774872
30
0
41
1
10
4.2240144054756
20
1.33698455052985
30
0
41
1
10
4.25134678684924
20
1.31775220093354
30
0
0
SPLINE
5
EC
100
AcDbEntity
8
1
62
256
6
ByLayer
370
18
48
1
60
0
100
AcDbSpline
70
4
71
3
72
54
73
50
40
0
40
0
40
0
40
0
40
0.0757863171726443
40
0.0757863171726443
40
0.113679475758967
40
0.113679475758967
40
0.151572634345289
40
0.151572634345289
40
0.189465792931612
40
0.189465792931612
40
0.227358951517934
40
0.227358951517934
40
0.265252110104257
40
0.265252110104257
40
0.30314526869058
40
0.30314526869058
40
0.341038427276902
40
0.341038427276902
40
0.378931585863225
40
0.378931585863225
40
0.454717903035869
40
0.454717903035869
40
0.492611061622191
40
0.492611061622191
40
0.530504220208514
40
0.530504220208514
40
0.568397378794837
40
0.568397378794837
40
0.606290537381159
40
0.606290537381159
40
0.644183695967481
40
0.644183695967481
40
0.682076854553804
40
0.682076854553804
40
0.719970013140127
40
0.719970013140127
40
0.757863171726449
40
0.757863171726449
40
0.833649488899094
40
0.833649488899094
40
0.871542647485417
40
0.871542647485417
40
0.909435806071739
40
0.909435806071739
40
0.947328964658062
40
0.947328964658062
40
0.985222123244384
40
0.985222123244384
40
1
40
1
40
1
40
1
41
1
10
11.869173530254
20
3.29320823030267
30
0
41
1
10
12.3909369791039
20
3.09812866386511
30
0
41
1
10
12.9117361106217
20
2.89022460546477
30
0
41
1
10
13.6881362003081
20
2.55503890179546
30
0
41
1
10
13.9458604075493
20
2.4388989749869
30
0
41
1
10
14.4619785018355
20
2.20242336945444
30
0
41
1
10
14.7201679523301
20
2.08178783624311
30
0
41
1
10
15.2363088397507
20
1.83493677389688
30
0
41
1
10
15.494185604383
20
1.70858420703357
30
0
41
1
10
16.0096378825028
20
1.4500401707129
30
0
41
1
10
16.2679194825979
20
1.31912826879008
30
0
41
1
10
16.785804808508
20
1.05449800323385
30
0
41
1
10
17.0452959147964
20
0.920575109792793
30
0
41
1
10
17.5649791932715
20
0.648630275546537
30
0
41
1
10
17.8249234357586
20
0.510078452939609
30
0
41
1
10
18.3477742841835
20
0.233247141166288
30
0
41
1
10
18.6087072853385
20
0.0954225507569788
30
0
41
1
10
19.1288552542474
20
-0.179908089031358
30
0
41
1
10
19.3879921089972
20
-0.317679286034405
30
0
41
1
10
20.1631945233855
20
-0.730070044771679
30
0
41
1
10
20.6800459196018
20
-0.998042712079581
30
0
41
1
10
21.4533531780325
20
-1.39367756615383
30
0
41
1
10
21.7105771125955
20
-1.52486033130506
30
0
41
1
10
22.2266617631311
20
-1.78085532026154
30
0
41
1
10
22.4852384080624
20
-1.90620496017942
30
0
41
1
10
23.0029737729483
20
-2.15247165234388
30
0
41
1
10
23.2619803509145
20
-2.2736468710936
30
0
41
1
10
23.7809118295752
20
-2.51085009488031
30
0
41
1
10
24.0414763634926
20
-2.62579451468417
30
0
41
1
10
24.5646412290581
20
-2.84865935124714
30
0
41
1
10
24.8255494106735
20
-2.95595198990728
30
0
41
1
10
25.3450266074348
20
-3.16282911165791
30
0
41
1
10
25.6036020902849
20
-3.2624892287711
30
0
41
1
10
26.1210167165792
20
-3.4507959162973
30
0
41
1
10
26.3795458897731
20
-3.53993370759227
30
0
41
1
10
26.8957861275817
20
-3.70889853233564
30
0
41
1
10
27.153290008788
20
-3.78893704567375
30
0
41
1
10
27.9254081951997
20
-4.01382185591751
30
0
41
1
10
28.4420086721063
20
-4.141334025292
30
0
41
1
10
29.2171323214536
20
-4.30122855438367
30
0
41
1
10
29.4755221345468
20
-4.34917883389218
30
0
41
1
10
29.994802487259
20
-4.43265629697083
30
0
41
1
10
30.2553670159944
20
-4.46845460372185
30
0
41
1
10
30.7779118961573
20
-4.52824217216426
30
0
41
1
10
31.0389218120664
20
-4.55219069496943
30
0
41
1
10
31.5597999486245
20
-4.58739697965922
30
0
41
1
10
31.8204500803173
20
-4.59862853353741
30
0
41
1
10
32.1827688376272
20
-4.60563787401043
30
0
41
1
10
32.2844278513245
20
-4.60666399296352
30
0
41
1
10
32.3860723795303
20
-4.60674197010181
30
0
0
SPLINE
5
ED
100
AcDbEntity
8
1
62
256
6
ByLayer
370
18
48
1
60
0
100
AcDbSpline
70
4
71
3
72
28
73
24
40
0
40
0
40
0
40
0
40
0.0191645662850271
40
0.0191645662850271
40
0.108331423895479
40
0.108331423895479
40
0.197498281505931
40
0.197498281505931
40
0.286665139116383
40
0.286665139116383
40
0.375831996726835
40
0.375831996726835
40
0.464998854337287
40
0.464998854337287
40
0.55416571194774
40
0.55416571194774
40
0.643332569558192
40
0.643332569558192
40
0.732499427168644
40
0.732499427168644
40
0.821666284779096
40
0.821666284779096
40
1
40
1
40
1
40
1
41
1
10
52.892536151032
20
3.3071671245826
30
0
41
1
10
52.9485499727708
20
3.32804428555019
30
0
41
1
10
53.0045352094537
20
3.3486803262727
30
0
41
1
10
53.3207220920857
20
3.46389284312426
30
0
41
1
10
53.5803433187985
20
3.55375276853644
30
0
41
1
10
54.0979495423881
20
3.72411270788703
30
0
41
1
10
54.3555907236571
20
3.80494403861158
30
0
41
1
10
54.8712800633981
20
3.95489088212309
30
0
41
1
10
55.1291933313032
20
4.02423204929184
30
0
41
1
10
55.6446645587249
20
4.15230704473279
30
0
41
1
10
55.902183646812
20
4.21106673220623
30
0
41
1
10
56.4166380308377
20
4.3178850715355
30
0
41
1
10
56.674266024245
20
4.36541554678934
30
0
41
1
10
57.1907974803313
20
4.44858859807024
30
0
41
1
10
57.4495476930923
20
4.48434371775619
30
0
41
1
10
57.9676379662557
20
4.5441731440705
30
0
41
1
10
58.2266657316444
20
4.56829365247683
30
0
41
1
10
58.7474490788861
20
4.60377432228191
30
0
41
1
10
59.0092309635439
20
4.61525028633994
30
0
41
1
10
59.530545638264
20
4.62568583841443
30
0
41
1
10
59.790497545822
20
4.62467902971832
30
0
41
1
10
60.5683735492925
20
4.60271876371004
30
0
41
1
10
61.0876387532056
20
4.56345649668151
30
0
41
1
10
61.606461773931
20
4.49965044968425
30
0
0
SPLINE
5
EE
100
AcDbEntity
8
1
62
256
6
ByLayer
370
18
48
1
60
0
100
AcDbSpline
70
4
71
3
72
35
73
31
40
0
40
0
40
0
40
0
40
0.0444155280914827
40
0.0805969402966163
40
0.11355457274584
40
0.144794986401002
40
0.176584976392002
40
0.212894903826734
40
0.249731940253783
40
0.280824532493184
40
0.315279846754056
40
0.360569509358546
40
0.401545584055091
40
0.431358722437002
40
0.463813735306672
40
0.500301227140779
40
0.537982079811334
40
0.569544008182195
40
0.608194235778459
40
0.657353447655323
40
0.699607433961433
40
0.73965602112334
40
0.786405401036716
40
0.830664542504328
40
0.870678529678693
40
0.890905858595327
40
0.911431463534585
40
0.938279853307427
40
0.976181071911165
40
1
40
1
40
1
40
1
41
1
10
33.9085413968561
20
-4.37645881499006
30
0
41
1
10
34.0903419457983
20
-4.37539448306626
30
0
41
1
10
34.4234084205661
20
-4.37434290490094
30
0
41
1
10
34.9143465237794
20
-4.37567994531204
30
0
41
1
10
35.331541640084
20
-4.37760571190975
30
0
41
1
10
35.7422748349885
20
-4.37771342994225
30
0
41
1
10
36.1665886351297
20
-4.37801457750425
30
0
41
1
10
36.6150700553895
20
-4.37803374874181
30
0
41
1
10
37.0604749972831
20
-4.37837372365445
30
0
41
1
10
37.4979986182416
20
-4.37889055423165
30
0
41
1
10
37.9716178846239
20
-4.37910151723
30
0
41
1
10
38.4874917519534
20
-4.37879016709755
30
0
41
1
10
38.9835066159275
20
-4.37967861547486
30
0
41
1
10
39.4246936297372
20
-4.38006087729914
30
0
41
1
10
39.8466976145542
20
-4.38002508272058
30
0
41
1
10
40.3023228202992
20
-4.37957513212154
30
0
41
1
10
40.7541291219653
20
-4.38063958154703
30
0
41
1
10
41.2151800410971
20
-4.38114537631159
30
0
41
1
10
41.7252807966847
20
-4.38074125649592
30
0
41
1
10
42.2810694791792
20
-4.38055344432837
30
0
41
1
10
42.8428327049105
20
-4.38232471897607
30
0
41
1
10
43.3943006386119
20
-4.38189905027625
30
0
41
1
10
43.9543372285696
20
-4.38103965855333
30
0
41
1
10
44.5142238485562
20
-4.38308479633034
30
0
41
1
10
44.9607762054492
20
-4.38288367171373
30
0
41
1
10
45.3059124595081
20
-4.38263726441537
30
0
41
1
10
45.5947690808579
20
-4.38245526289299
30
0
41
1
10
45.9591736417547
20
-4.38324187712564
30
0
41
1
10
46.3376409340509
20
-4.38447077699121
30
0
41
1
10
46.6013826598759
20
-4.38426276107413
30
0
41
1
10
46.7031651643015
20
-4.38409977499774
30
0
0
SPLINE
5
EF
100
AcDbEntity
8
1
62
256
6
ByLayer
370
18
48
1
60
0
100
AcDbSpline
70
4
71
3
72
24
73
20
40
0
40
0
40
0
40
0
40
0.0331643976250249
40
0.0815104332080956
40
0.126437356107592
40
0.169943754661166
40
0.217668377480138
40
0.268605189835735
40
0.339901531562607
40
0.406468782722895
40
0.478487693518068
40
0.549038022073088
40
0.622924415654795
40
0.707354285483871
40
0.777086808221756
40
0.859173984952481
40
0.913688761118191
40
0.966123626288057
40
1
40
1
40
1
40
1
41
1
10
19.7799315617551
20
4.36705762955194
30
0
41
1
10
19.6626489670238
20
4.36667364245929
30
0
41
1
10
19.3755446317335
20
4.36608071910098
30
0
41
1
10
18.9437163184062
20
4.36835695502165
30
0
41
1
10
18.4629121801759
20
4.3685963406474
30
0
41
1
10
17.9846099356458
20
4.36877610491098
30
0
41
1
10
17.4851066438775
20
4.36700406466446
30
0
41
1
10
16.8879924943667
20
4.36714054118465
30
0
41
1
10
16.2246658367576
20
4.36595629461988
30
0
41
1
10
15.4872726787476
20
4.36564180774536
30
0
41
1
10
14.7525036602013
20
4.36566858703037
30
0
41
1
10
13.992016784158
20
4.36435798859998
30
0
41
1
10
13.1879244235122
20
4.36484835162787
30
0
41
1
10
12.3867114814045
20
4.36339430765119
30
0
41
1
10
11.5566801323244
20
4.36360844433597
30
0
41
1
10
10.8317635250482
20
4.36257201852556
30
0
41
1
10
10.1676139406003
20
4.36222549264585
30
0
41
1
10
9.67285269777778
20
4.3621379801487
30
0
41
1
10
9.36958589997761
20
4.36186692979052
30
0
41
1
10
9.25056589140036
20
4.36175423931192
30
0
0
SPLINE
5
F0
100
AcDbEntity
8
1
62
256
6
ByLayer
370
18
48
1
60
0
100
AcDbSpline
70
4
71
3
72
30
73
26
40
0
40
0
40
0
40
0
40
0.0436064784030759
40
0.0896252726193042
40
0.12711956806812
40
0.157383396636015
40
0.203165838422251
40
0.260268598650569
40
0.308511298924249
40
0.351653552500346
40
0.408482384334975
40
0.46569653888627
40
0.508884269098504
40
0.559161403874324
40
0.601484162166287
40
0.639260620114997
40
0.671128132598665
40
0.707273206408785
40
0.759062279702316
40
0.809152991651403
40
0.845058577371932
40
0.882501634139832
40
0.926222392289008
40
0.97581531409757
40
1
40
1
40
1
40
1
41
1
10
46.8604269703991
20
4.38331275696376
30
0
41
1
10
46.7086632647196
20
4.38349233004553
30
0
41
1
10
46.3978021485178
20
4.38362879133436
30
0
41
1
10
45.9645102849019
20
4.38351818142189
30
0
41
1
10
45.5719357697776
20
4.38224621283703
30
0
41
1
10
45.1785169797872
20
4.38270431930118
30
0
41
1
10
44.7180294605051
20
4.38317845051768
30
0
41
1
10
44.1945432474228
20
4.38188096933987
30
0
41
1
10
43.6804203322286
20
4.38132446764581
30
0
41
1
10
43.1671921031232
20
4.38220453725552
30
0
41
1
10
42.6229124307922
20
4.38195327730875
30
0
41
1
10
42.0784730422658
20
4.38023156535212
30
0
41
1
10
41.5567188523975
20
4.38100171152325
30
0
41
1
10
41.0865287952614
20
4.38114351880429
30
0
41
1
10
40.6350768259694
20
4.38026675111425
30
0
41
1
10
40.2473710030826
20
4.37969096543554
30
0
41
1
10
39.8810575887169
20
4.37997856524441
30
0
41
1
10
39.4662250787483
20
4.3800867685074
30
0
41
1
10
38.9882870368536
20
4.37967587648475
30
0
41
1
10
38.5111795335538
20
4.37887968252099
30
0
41
1
10
38.0837543305404
20
4.37906879730659
30
0
41
1
10
37.6783752632184
20
4.37897841142325
30
0
41
1
10
37.2256522462446
20
4.37861809278812
30
0
41
1
10
36.8186190396528
20
4.37814022954757
30
0
41
1
10
36.5634398287945
20
4.37803263357435
30
0
41
1
10
36.4797538553226
20
4.37800571895937
30
0
0
SPLINE
5
F1
100
AcDbEntity
8
1
62
256
6
ByLayer
370
18
48
1
60
0
100
AcDbSpline
70
4
71
1
72
4
73
2
40
0
40
0
40
1
40
1
41
1
10
61.1807589511256
20
-4.39344995006962
30
0
41
1
10
61.3902856382598
20
-4.39313331775963
30
0
0
SPLINE
5
F2
100
AcDbEntity
8
1
62
256
6
ByLayer
370
18
48
1
60
0
100
AcDbSpline
70
4
71
3
72
27
73
23
40
0
40
0
40
0
40
0
40
0.0590206836048313
40
0.104354985999596
40
0.136220432002727
40
0.160621492561688
40
0.183979937136415
40
0.206315073328725
40
0.25660021658285
40
0.307927240983448
40
0.374038143757856
40
0.430198925695511
40
0.49819657328937
40
0.557702776065443
40
0.631209615031855
40
0.701260855606322
40
0.773133937377655
40
0.844271271631708
40
0.884258177866769
40
0.92310074547263
40
0.965141919036563
40
1
40
1
40
1
40
1
41
1
10
6.70530888457722
20
-4.35950322115244
30
0
41
1
10
6.9627795339041
20
-4.35973020169106
30
0
41
1
10
7.41802193840061
20
-4.36012659758953
30
0
41
1
10
8.01216973647934
20
-4.36079551159429
30
0
41
1
10
8.4554791270115
20
-4.36108130063974
30
0
41
1
10
8.80253934185893
20
-4.36134004261046
30
0
41
1
10
9.10831642499193
20
-4.36161050795926
30
0
41
1
10
9.52701493509142
20
-4.36203305415575
30
0
41
1
10
10.0677190130559
20
-4.36222748258504
30
0
41
1
10
10.7993843116429
20
-4.36251186965512
30
0
41
1
10
11.5566803628304
20
-4.36361158767517
30
0
41
1
10
12.3867114772569
20
-4.3633941656841
30
0
41
1
10
13.187924118204
20
-4.36484458713562
30
0
41
1
10
14.0648151556646
20
-4.36432766063569
30
0
41
1
10
14.9506552755846
20
-4.36607099081346
30
0
41
1
10
15.8904700969142
20
-4.36534781962339
30
0
41
1
10
16.8198538837139
20
-4.36713120916056
30
0
41
1
10
17.6183993735353
20
-4.36741580979972
30
0
41
1
10
18.2720736104564
20
-4.36900909961014
30
0
41
1
10
18.8010632851738
20
-4.36840644285164
30
0
41
1
10
19.2948858728716
20
-4.36663290045573
30
0
41
1
10
19.6304250456665
20
-4.36684704542822
30
0
41
1
10
19.7829284478744
20
-4.36707421571913
30
0
0
LINE
5
7B
100
AcDbEntity
8
SK1
62
256
6
ByLayer
370
18
48
1
60
0
100
AcDbLine
10
-40
20
3.609888
30
0
11
-40
21
3.388136
31
0
39
0
210
0
220
0
230
1
0
LINE
5
7D
100
AcDbEntity
8
SK1
62
256
6
ByLayer
370
13
48
1
60
0
100
AcDbLine
10
-39.35
20
4.277396
30
0
11
-39.35
21
4.055658
31
0
39
0
210
0
220
0
230
1
0
LINE
5
7E
100
AcDbEntity
8
SK1
62
256
6
ByLayer
370
18
48
1
60
0
100
AcDbLine
10
-40
20
3.388197
30
0
11
-40
21
-3.609888
31
0
39
0
210
0
220
0
230
1
0
LINE
5
7F
100
AcDbEntity
8
SK1
62
256
6
ByLayer
370
18
48
1
60
0
100
AcDbLine
10
0
20
-5
30
0
11
0
21
5
31
0
39
0
210
0
220
0
230
1
0
LINE
5
80
100
AcDbEntity
8
SK1
62
256
6
ByLayer
370
18
48
1
60
0
100
AcDbLine
10
-39.25
20
-4.390344
30
0
11
-39.25
21
-4.41
31
0
39
0
210
0
220
0
230
1
0
LINE
5
81
100
AcDbEntity
8
SK1
62
256
6
ByLayer
370
18
48
1
60
0
100
AcDbLine
10
-38.66
20
5
30
0
11
-38.66
21
-5
31
0
39
0
210
0
220
0
230
1
0
LINE
5
82
100
AcDbEntity
8
SK1
62
256
6
ByLayer
370
18
48
1
60
0
100
AcDbLine
10
-39.25
20
4.41
30
0
11
-39.25
21
4.190822
31
0
39
0
210
0
220
0
230
1
0
LINE
5
83
100
AcDbEntity
8
1
62
256
6
ByLayer
370
13
48
1
60
0
100
AcDbLine
10
1.073177
20
4.587166
30
0
11
1.073177
21
-4.587166
31
0
39
0
210
0
220
0
230
1
0
LINE
5
84
100
AcDbEntity
8
1
62
256
6
ByLayer
370
13
48
1
60
0
100
AcDbLine
10
0.536339
20
4.793583
30
0
11
0.536339
21
-4.793583
31
0
39
0
210
0
220
0
230
1
0
LINE
5
85
100
AcDbEntity
8
1
62
256
6
ByLayer
370
18
48
1
60
0
100
AcDbLine
10
0
20
-5
30
0
11
0
21
5
31
0
39
0
210
0
220
0
230
1
0
LINE
5
86
100
AcDbEntity
8
1
62
256
6
ByLayer
370
13
48
1
60
0
100
AcDbLine
10
61.463831
20
1.083557
30
0
11
62.989533
21
0.117751
31
0
39
0
210
0
220
0
230
1
0
LINE
5
87
100
AcDbEntity
8
1
62
256
6
ByLayer
370
13
48
1
60
0
100
AcDbLine
10
61.328087
20
0.987674
30
0
11
62.964243
21
-0.048052
31
0
39
0
210
0
220
0
230
1
0
LINE
5
88
100
AcDbEntity
8
80
62
256
6
ByLayer
370
18
48
1
60
0
100
AcDbLine
10
0
20
0
30
0
11
-5
21
0
31
0
39
0
210
0
220
0
230
1
0
LINE
5
89
100
AcDbEntity
8
4
62
256
6
ByLayer
370
18
48
0.05
60
0
100
AcDbLine
10
63
20
0
30
0
11
0
21
0
31
0
39
0
210
0
220
0
230
1
0
LINE
5
8B
100
AcDbEntity
8
SK4
62
256
6
ByLayer
370
18
48
0.05
60
0
100
AcDbLine
10
68
20
0
30
0
11
-45
21
0
31
0
39
0
210
0
220
0
230
1
0
LINE
5
8D
100
AcDbEntity
8
SK1
62
256
6
ByLayer
370
18
48
1
60
0
100
AcDbLine
10
-38.66
20
-5
30
0
11
0
21
-5
31
0
39
0
210
0
220
0
230
1
0
LINE
5
8E
100
AcDbEntity
8
SK1
62
256
6
ByLayer
370
18
48
1
60
0
100
AcDbLine
10
0
20
5
30
0
11
-38.66
21
5
31
0
39
0
210
0
220
0
230
1
0
LINE
5
8F
100
AcDbEntity
8
SK1
62
256
6
ByLayer
370
18
48
1
60
0
100
AcDbLine
10
-39.25
20
-4.41
30
0
11
-38.66
21
-5
31
0
39
0
210
0
220
0
230
1
0
LINE
5
90
100
AcDbEntity
8
SK1
62
256
6
ByLayer
370
18
48
1
60
0
100
AcDbLine
10
-38.66
20
5
30
0
11
-39.25
21
4.41
31
0
39
0
210
0
220
0
230
1
0
LINE
5
91
100
AcDbEntity
8
1
62
256
6
ByLayer
370
18
48
1
60
0
100
AcDbLine
10
1.073177
20
-4.587166
30
0
11
6.559772
21
-4.590596
31
0
39
0
210
0
220
0
230
1
0
LINE
5
92
100
AcDbEntity
8
1
62
256
6
ByLayer
370
18
48
1
60
0
100
AcDbLine
10
32.386772
20
-4.606737
30
0
11
33.75996
21
-4.607596
31
0
39
0
210
0
220
0
230
1
0
LINE
5
93
100
AcDbEntity
8
1
62
256
6
ByLayer
370
18
48
1
60
0
100
AcDbLine
10
59.583847
20
-4.623736
30
0
11
60.96051
21
-4.624596
31
0
39
0
210
0
220
0
230
1
0
LINE
5
94
100
AcDbEntity
8
1
62
256
6
ByLayer
370
18
48
1
60
0
100
AcDbLine
10
60.960367
20
4.624596
30
0
11
59.583847
21
4.623736
31
0
39
0
210
0
220
0
230
1
0
LINE
5
95
100
AcDbEntity
8
1
62
256
6
ByLayer
370
18
48
1
60
0
100
AcDbLine
10
33.759331
20
4.607595
30
0
11
32.386772
21
4.606737
31
0
39
0
210
0
220
0
230
1
0
LINE
5
96
100
AcDbEntity
8
1
62
256
6
ByLayer
370
18
48
1
60
0
100
AcDbLine
10
6.559591
20
4.590595
30
0
11
1.073177
21
4.587166
31
0
39
0
210
0
220
0
230
1
0
LINE
5
97
100
AcDbEntity
8
81
62
256
6
ByLayer
370
18
48
1
60
0
100
AcDbLine
10
63
20
0
30
0
11
68
21
0
31
0
39
0
210
0
220
0
230
1
0
LINE
5
98
100
AcDbEntity
8
SK2
62
256
6
ByLayer
370
13
48
1
60
0
100
AcDbLine
10
-48.625163
20
-5
30
0
11
-48.625163
21
35.857173
31
0
39
0
210
0
220
0
230
1
0
LINE
5
9A
100
AcDbEntity
8
SK2
62
256
6
ByLayer
370
13
48
1
60
0
100
AcDbLine
10
-41.5875
20
5
30
0
11
-50.625163
21
5
31
0
39
0
210
0
220
0
230
1
0
LINE
5
9B
100
AcDbEntity
8
SK2
62
256
6
ByLayer
370
13
48
1
60
0
100
AcDbLine
10
-41.5875
20
-5
30
0
11
-50.625163
21
-5
31
0
39
0
210
0
220
0
230
1
0
LINE
5
9C
100
AcDbEntity
8
1
62
256
6
ByLayer
370
18
48
1
60
1
100
AcDbLine
10
-48.625163
20
5
30
0
11
-48.164379
21
1.500002
31
0
39
0
210
0
220
0
230
1
0
LINE
5
9D
100
AcDbEntity
8
1
62
256
6
ByLayer
370
18
48
1
60
1
100
AcDbLine
10
-48.164379
20
1.500002
30
0
11
-49.085946
21
1.499998
31
0
39
0
210
0
220
0
230
1
0
LINE
5
9E
100
AcDbEntity
8
1
62
256
6
ByLayer
370
18
48
1
60
1
100
AcDbLine
10
-49.085946
20
1.499998
30
0
11
-48.625163
21
5
31
0
39
0
210
0
220
0
230
1
0
LINE
5
9F
100
AcDbEntity
8
1
62
256
6
ByLayer
370
18
48
1
60
1
100
AcDbLine
10
-48.625163
20
-5
30
0
11
-49.085946
21
-1.500002
31
0
39
0
210
0
220
0
230
1
0
LINE
5
A0
100
AcDbEntity
8
1
62
256
6
ByLayer
370
18
48
1
60
1
100
AcDbLine
10
-49.085946
20
-1.500002
30
0
11
-48.164379
21
-1.499998
31
0
39
0
210
0
220
0
230
1
0
LINE
5
A1
100
AcDbEntity
8
1
62
256
6
ByLayer
370
18
48
1
60
1
100
AcDbLine
10
-48.164379
20
-1.499998
30
0
11
-48.625163
21
-5
31
0
39
0
210
0
220
0
230
1
0
LINE
5
A2
100
AcDbEntity
8
2
62
256
6
ByLayer
370
13
48
1
60
0
100
AcDbLine
10
75.083343
20
-4.625
30
0
11
75.083343
21
32.335193
31
0
39
0
210
0
220
0
230
1
0
LINE
5
A4
100
AcDbEntity
8
2
62
256
6
ByLayer
370
13
48
1
60
0
100
AcDbLine
10
63.2165
20
4.625
30
0
11
77.083343
21
4.625
31
0
39
0
210
0
220
0
230
1
0
LINE
5
A5
100
AcDbEntity
8
2
62
256
6
ByLayer
370
13
48
1
60
0
100
AcDbLine
10
63.2165
20
-4.625
30
0
11
77.083343
21
-4.625
31
0
39
0
210
0
220
0
230
1
0
LINE
5
A6
100
AcDbEntity
8
1
62
256
6
ByLayer
370
18
48
1
60
1
100
AcDbLine
10
75.083343
20
4.625
30
0
11
75.544126
21
1.125002
31
0
39
0
210
0
220
0
230
1
0
LINE
5
A7
100
AcDbEntity
8
1
62
256
6
ByLayer
370
18
48
1
60
1
100
AcDbLine
10
75.544126
20
1.125002
30
0
11
74.622559
21
1.124998
31
0
39
0
210
0
220
0
230
1
0
LINE
5
A8
100
AcDbEntity
8
1
62
256
6
ByLayer
370
18
48
1
60
1
100
AcDbLine
10
74.622559
20
1.124998
30
0
11
75.083343
21
4.625
31
0
39
0
210
0
220
0
230
1
0
LINE
5
A9
100
AcDbEntity
8
1
62
256
6
ByLayer
370
18
48
1
60
1
100
AcDbLine
10
75.083343
20
-4.625
30
0
11
74.622559
21
-1.125002
31
0
39
0
210
0
220
0
230
1
0
LINE
5
AA
100
AcDbEntity
8
1
62
256
6
ByLayer
370
18
48
1
60
1
100
AcDbLine
10
74.622559
20
-1.125002
30
0
11
75.544126
21
-1.124998
31
0
39
0
210
0
220
0
230
1
0
LINE
5
AB
100
AcDbEntity
8
1
62
256
6
ByLayer
370
18
48
1
60
1
100
AcDbLine
10
75.544126
20
-1.124998
30
0
11
75.083343
21
-4.625
31
0
39
0
210
0
220
0
230
1
0
LINE
5
F9
100
AcDbEntity
8
1
62
256
6
ByLayer
370
18
48
1
60
1
100
AcDbLine
10
-48.625163
20
5
30
0
11
-48.164379
21
1.500002
31
0
39
0
210
0
220
0
230
1
0
LINE
5
FA
100
AcDbEntity
8
1
62
256
6
ByLayer
370
18
48
1
60
1
100
AcDbLine
10
-48.164379
20
1.500002
30
0
11
-49.085946
21
1.499998
31
0
39
0
210
0
220
0
230
1
0
LINE
5
FB
100
AcDbEntity
8
1
62
256
6
ByLayer
370
18
48
1
60
1
100
AcDbLine
10
-49.085946
20
1.499998
30
0
11
-48.625163
21
5
31
0
39
0
210
0
220
0
230
1
0
LINE
5
FD
100
AcDbEntity
8
1
62
256
6
ByLayer
370
18
48
1
60
1
100
AcDbLine
10
-48.625163
20
-5
30
0
11
-49.085946
21
-1.500002
31
0
39
0
210
0
220
0
230
1
0
LINE
5
FE
100
AcDbEntity
8
1
62
256
6
ByLayer
370
18
48
1
60
1
100
AcDbLine
10
-49.085946
20
-1.500002
30
0
11
-48.164379
21
-1.499998
31
0
39
0
210
0
220
0
230
1
0
LINE
5
FF
100
AcDbEntity
8
1
62
256
6
ByLayer
370
18
48
1
60
1
100
AcDbLine
10
-48.164379
20
-1.499998
30
0
11
-48.625163
21
-5
31
0
39
0
210
0
220
0
230
1
0
LINE
5
103
100
AcDbEntity
8
1
62
256
6
ByLayer
370
18
48
1
60
1
100
AcDbLine
10
75.083343
20
4.625
30
0
11
75.544126
21
1.125002
31
0
39
0
210
0
220
0
230
1
0
LINE
5
104
100
AcDbEntity
8
1
62
256
6
ByLayer
370
18
48
1
60
1
100
AcDbLine
10
75.544126
20
1.125002
30
0
11
74.622559
21
1.124998
31
0
39
0
210
0
220
0
230
1
0
LINE
5
105
100
AcDbEntity
8
1
62
256
6
ByLayer
370
18
48
1
60
1
100
AcDbLine
10
74.622559
20
1.124998
30
0
11
75.083343
21
4.625
31
0
39
0
210
0
220
0
230
1
0
LINE
5
107
100
AcDbEntity
8
1
62
256
6
ByLayer
370
18
48
1
60
1
100
AcDbLine
10
75.083343
20
-4.625
30
0
11
74.622559
21
-1.125002
31
0
39
0
210
0
220
0
230
1
0
LINE
5
108
100
AcDbEntity
8
1
62
256
6
ByLayer
370
18
48
1
60
1
100
AcDbLine
10
74.622559
20
-1.125002
30
0
11
75.544126
21
-1.124998
31
0
39
0
210
0
220
0
230
1
0
LINE
5
109
100
AcDbEntity
8
1
62
256
6
ByLayer
370
18
48
1
60
1
100
AcDbLine
10
75.544126
20
-1.124998
30
0
11
75.083343
21
-4.625
31
0
39
0
210
0
220
0
230
1
0
MTEXT
5
F3
100
AcDbEntity
8
SK6
62
256
6
ByLayer
370
13
48
1
60
0
100
AcDbMText
10
-17.82946
20
37.165328
30
0
210
0
220
0
230
1
1
\W0.7716;462.1-0925-046A1-XM X2BM
40
3.5
41
0
44
1.084337
50
0
71
7
72
5
7
iso_b_vert
0
MTEXT
5
F7
100
AcDbEntity
8
SK2
62
256
6
ByLayer
370
18
48
1
60
0
100
AcDbMText
10
-50.189796
20
18.409024
30
0
210
0
220
0
230
1
1
%%c
40
3.5
41
0
44
1.084337
50
90
71
7
72
5
7
iso_b_vert
0
MTEXT
5
F8
100
AcDbEntity
8
SK2
62
256
6
ByLayer
370
18
48
1
60
0
100
AcDbMText
10
-50.189796
20
23.63168
30
0
210
0
220
0
230
1
1
\W0.6930;10,000
40
3.5
41
0
44
1.084337
50
90
71
7
72
5
7
iso_b_vert
0
MTEXT
5
101
100
AcDbEntity
8
2
62
256
6
ByLayer
370
18
48
1
60
0
100
AcDbMText
10
73.518709
20
16.62711
30
0
210
0
220
0
230
1
1
%%c
40
3.5
41
0
44
1.084337
50
90
71
7
72
5
7
iso_b_vert
0
MTEXT
5
102
100
AcDbEntity
8
2
62
256
6
ByLayer
370
18
48
1
60
0
100
AcDbMText
10
73.518709
20
21.849766
30
0
210
0
220
0
230
1
1
\W0.7317;9,250
40
3.5
41
0
44
1.084337
50
90
71
7
72
5
7
iso_b_vert
0
HATCH
5
FC
100
AcDbEntity
8
SK2
62
256
6
ByLayer
370
13
48
1
60
0
100
AcDbHatch
10
0
20
0
30
0
210
0
220
0
230
1
2
ANSI31
70
0
71
0
91
1
92
5
93
3
72
1
10
-48.6251625675374
20
5
11
-48.1643788259847
21
1.50000169255318
72
1
10
-48.1643788259847
20
1.50000169255318
11
-49.0859463090902
21
1.49999830744682
72
1
10
-49.0859463090902
20
1.49999830744682
11
-48.6251625675374
21
5
97
0
75
0
76
1
52
0
41
0.0062
77
0
78
1
53
45
43
0
44
0
45
-0.0139193969876572
46
0.0139193969876572
79
0
47
0
98
1
10
0
20
0
0
HATCH
5
100
100
AcDbEntity
8
SK2
62
256
6
ByLayer
370
13
48
1
60
0
100
AcDbHatch
10
0
20
0
30
0
210
0
220
0
230
1
2
ANSI31
70
0
71
0
91
1
92
5
93
3
72
1
10
-48.6251625675374
20
-5
11
-49.0859463090902
21
-1.50000169255318
72
1
10
-49.0859463090902
20
-1.50000169255318
11
-48.1643788259847
21
-1.49999830744682
72
1
10
-48.1643788259847
20
-1.49999830744682
11
-48.6251625675374
21
-5
97
0
75
0
76
1
52
0
41
0.0062
77
0
78
1
53
45
43
0
44
0
45
-0.0139193969876572
46
0.0139193969876572
79
0
47
0
98
1
10
0
20
0
0
HATCH
5
106
100
AcDbEntity
8
2
62
256
6
ByLayer
370
13
48
1
60
0
100
AcDbHatch
10
0
20
0
30
0
210
0
220
0
230
1
2
ANSI31
70
0
71
0
91
1
92
5
93
3
72
1
10
75.083342615295
20
4.625
11
75.5441263568477
21
1.12500169255318
72
1
10
75.5441263568477
20
1.12500169255318
11
74.6225588737422
21
1.12499830744682
72
1
10
74.6225588737422
20
1.12499830744682
11
75.083342615295
21
4.625
97
0
75
0
76
1
52
0
41
0.0062
77
0
78
1
53
45
43
0
44
0
45
-0.0139193969876572
46
0.0139193969876572
79
0
47
0
98
1
10
0
20
0
0
HATCH
5
10A
100
AcDbEntity
8
2
62
256
6
ByLayer
370
13
48
1
60
0
100
AcDbHatch
10
0
20
0
30
0
210
0
220
0
230
1
2
ANSI31
70
0
71
0
91
1
92
5
93
3
72
1
10
75.083342615295
20
-4.625
11
74.6225588737422
21
-1.12500169255318
72
1
10
74.6225588737422
20
-1.12500169255318
11
75.5441263568477
21
-1.12499830744682
72
1
10
75.5441263568477
20
-1.12499830744682
11
75.083342615295
21
-4.625
97
0
75
0
76
1
52
0
41
0.0062
77
0
78
1
53
45
43
0
44
0
45
-0.0139193969876572
46
0.0139193969876572
79
0
47
0
98
1
10
0
20
0
0
DIMENSION
5
10C
100
AcDbEntity
8
SK2
62
256
6
ByLayer
370
13
48
1
60
0
100
AcDbDimension
2
_U0
10
61.629
20
-14.838398
30
0
11
30.8145
21
-14.838398
31
0
70
32
71
1
72
1
41
1
210
0
220
0
230
1
3
Standard
100
AcDbAlignedDimension
13
0
23
0
33
0
14
61.629
24
-4.625
34
0
50
0
100
AcDbRotatedDimension
1001
ACAD
1000
DSTYLE
1002
{
1070
   371
1070
    13
1070
   372
1070
    13
1070
   170
1070
     0
1070
   144
1040
1.0
1070
   277
1070
     2
1070
   278
1070
    44
1070
   146
1040
1.0
1070
   345
1005
16
1070
   347
1005
16
1070
   346
1005
16
1070
   344
1005
0
1070
   343
1005
0
1070
   172
1070
     1
1070
    76
1070
     0
1070
    75
1070
     0
1070
   282
1070
     0
1070
   281
1070
     0
1070
    71
1070
     0
1070
    74
1070
     0
1070
   279
1070
     0
1070
   173
1070
     1
1070
   340
1005
F4
1070
   271
1070
     2
1070
   272
1070
     2
1070
    77
1070
     1
1070
    73
1070
     1
1070
   171
1070
     3
1070
   274
1070
     4
1070
   177
1070
    35
1070
   176
1070
    35
1070
   178
1070
    35
1070
    48
1040
-0.1
1070
    41
1040
3.5
1070
   147
1040
1.75
1070
    42
1040
1.5875
1070
    44
1040
2.0
1070
   140
1040
3.5
1002
}
1001
ACAD_DSTYLE_DIM_LINETYPE
1070
   380
1005
16
1001
ACAD_DSTYLE_DIM_EXT1_LINETYPE
1070
   381
1005
16
1001
ACAD_DSTYLE_DIM_EXT2_LINETYPE
1070
   382
1005
16
0
DIMENSION
5
125
100
AcDbEntity
8
SK2
62
256
6
ByLayer
370
13
48
1
60
0
100
AcDbDimension
2
_U1
10
63
20
-33.692985
30
0
11
11.5
21
-33.692985
31
0
70
32
71
1
72
1
41
1
210
0
220
0
230
1
3
Standard
100
AcDbAlignedDimension
13
-40
23
-5
33
0
14
63
24
0
34
0
50
0
100
AcDbRotatedDimension
1001
ACAD
1000
DSTYLE
1002
{
1070
   371
1070
    13
1070
   372
1070
    13
1070
   170
1070
     0
1070
   144
1040
1.0
1070
   277
1070
     2
1070
   278
1070
    44
1070
   146
1040
1.0
1070
   345
1005
16
1070
   347
1005
16
1070
   346
1005
16
1070
   344
1005
0
1070
   343
1005
0
1070
   172
1070
     1
1070
    76
1070
     0
1070
    75
1070
     0
1070
   282
1070
     0
1070
   281
1070
     0
1070
    71
1070
     0
1070
    74
1070
     0
1070
   279
1070
     0
1070
   173
1070
     1
1070
   340
1005
F4
1070
   271
1070
     2
1070
   272
1070
     2
1070
    77
1070
     1
1070
    73
1070
     1
1070
   171
1070
     3
1070
   274
1070
     4
1070
   177
1070
    35
1070
   176
1070
    35
1070
   178
1070
    35
1070
    48
1040
-0.1
1070
    41
1040
3.5
1070
   147
1040
1.75
1070
    42
1040
1.5875
1070
    44
1040
2.0
1070
   140
1040
3.5
1002
}
1001
ACAD_DSTYLE_DIM_LINETYPE
1070
   380
1005
16
1001
ACAD_DSTYLE_DIM_EXT1_LINETYPE
1070
   381
1005
16
1001
ACAD_DSTYLE_DIM_EXT2_LINETYPE
1070
   382
1005
16
0
DIMENSION
5
13D
100
AcDbEntity
8
SK2
62
256
6
ByLayer
370
13
48
1
60
0
100
AcDbDimension
2
_U2
10
63
20
16.234119
30
0
11
39.19
21
16.234119
31
0
70
32
71
1
72
1
41
1
210
0
220
0
230
1
3
Standard
100
AcDbAlignedDimension
13
15.38
23
4.625
33
0
14
63
24
0
34
0
50
0
100
AcDbRotatedDimension
1001
ACAD
1000
DSTYLE
1002
{
1070
   371
1070
    13
1070
   372
1070
    13
1070
   170
1070
     0
1070
   144
1040
1.0
1070
   277
1070
     2
1070
   278
1070
    44
1070
   146
1040
1.0
1070
   345
1005
16
1070
   347
1005
16
1070
   346
1005
16
1070
   344
1005
0
1070
   343
1005
0
1070
   172
1070
     1
1070
    76
1070
     0
1070
    75
1070
     0
1070
   282
1070
     0
1070
   281
1070
     0
1070
    71
1070
     0
1070
    74
1070
     0
1070
   279
1070
     0
1070
   173
1070
     1
1070
   340
1005
F4
1070
   271
1070
     2
1070
   272
1070
     2
1070
    77
1070
     1
1070
    73
1070
     1
1070
   171
1070
     3
1070
   274
1070
     4
1070
   177
1070
    35
1070
   176
1070
    35
1070
   178
1070
    35
1070
    48
1040
-0.1
1070
    41
1040
3.5
1070
   147
1040
1.75
1070
    42
1040
1.5875
1070
    44
1040
2.0
1070
   140
1040
3.5
1002
}
1001
ACAD_DSTYLE_DIM_LINETYPE
1070
   380
1005
16
1001
ACAD_DSTYLE_DIM_EXT1_LINETYPE
1070
   381
1005
16
1001
ACAD_DSTYLE_DIM_EXT2_LINETYPE
1070
   382
1005
16
0
DIMENSION
5
155
100
AcDbEntity
8
SK2
62
256
6
ByLayer
370
13
48
1
60
0
100
AcDbDimension
2
_U3
10
61.629
20
-17.427503
30
0
11
80.333333
21
-17.427503
31
0
70
32
71
1
72
1
41
1
210
0
220
0
230
1
3
Standard
100
AcDbAlignedDimension
13
63
23
0
33
0
14
61.629
24
-4.625
34
0
50
0
100
AcDbRotatedDimension
1001
ACAD
1000
DSTYLE
1002
{
1070
   371
1070
    13
1070
   372
1070
    13
1070
   170
1070
     0
1070
   144
1040
1.0
1070
   277
1070
     2
1070
   278
1070
    44
1070
   146
1040
1.0
1070
   345
1005
16
1070
   347
1005
16
1070
   346
1005
16
1070
   344
1005
0
1070
   343
1005
0
1070
   172
1070
     1
1070
    76
1070
     0
1070
    75
1070
     0
1070
   282
1070
     0
1070
   281
1070
     0
1070
    71
1070
     0
1070
    74
1070
     0
1070
   279
1070
     0
1070
   173
1070
     1
1070
   340
1005
F4
1070
   271
1070
     2
1070
   272
1070
     2
1070
    77
1070
     1
1070
    73
1070
     1
1070
   171
1070
     3
1070
   274
1070
     4
1070
   177
1070
    35
1070
   176
1070
    35
1070
   178
1070
    35
1070
    48
1040
-0.1
1070
    41
1040
3.5
1070
   147
1040
1.75
1070
    42
1040
1.5875
1070
    44
1040
2.0
1070
   140
1040
3.5
1002
}
1001
ACAD_DSTYLE_DIM_LINETYPE
1070
   380
1005
16
1001
ACAD_DSTYLE_DIM_EXT1_LINETYPE
1070
   381
1005
16
1001
ACAD_DSTYLE_DIM_EXT2_LINETYPE
1070
   382
1005
16
0
DIMENSION
5
16F
100
AcDbEntity
8
SK2
62
256
6
ByLayer
370
13
48
1
60
0
100
AcDbDimension
2
_U4
10
61.629
20
-23.343428
30
0
11
10.8145
21
-23.343428
31
0
70
32
71
1
72
1
41
1
210
0
220
0
230
1
3
Standard
100
AcDbAlignedDimension
13
-40
23
-5
33
0
14
61.629
24
-4.625
34
0
50
0
100
AcDbRotatedDimension
1001
ACAD
1000
DSTYLE
1002
{
1070
   371
1070
    13
1070
   372
1070
    13
1070
   170
1070
     0
1070
   144
1040
1.0
1070
   277
1070
     2
1070
   278
1070
    44
1070
   146
1040
1.0
1070
   345
1005
16
1070
   347
1005
16
1070
   346
1005
16
1070
   344
1005
0
1070
   343
1005
0
1070
   172
1070
     1
1070
    76
1070
     0
1070
    75
1070
     0
1070
   282
1070
     0
1070
   281
1070
     0
1070
    71
1070
     0
1070
    74
1070
     0
1070
   279
1070
     0
1070
   173
1070
     1
1070
   340
1005
F4
1070
   271
1070
     2
1070
   272
1070
     2
1070
    77
1070
     1
1070
    73
1070
     1
1070
   171
1070
     3
1070
   274
1070
     4
1070
   177
1070
    35
1070
   176
1070
    35
1070
   178
1070
    35
1070
    48
1040
-0.1
1070
    41
1040
3.5
1070
   147
1040
1.75
1070
    42
1040
1.5875
1070
    44
1040
2.0
1070
   140
1040
3.5
1002
}
1001
ACAD_DSTYLE_DIM_LINETYPE
1070
   380
1005
16
1001
ACAD_DSTYLE_DIM_EXT1_LINETYPE
1070
   381
1005
16
1001
ACAD_DSTYLE_DIM_EXT2_LINETYPE
1070
   382
1005
16
0
ENDSEC
0
SECTION
2
OBJECTS
0
DICTIONARY
5
1f7
330
0
100
AcDbDictionary
280
0
281
1
3
ACAD_GROUP
350
1f8
3
ACAD_MLINESTYLE
350
1f9
0
DICTIONARY
5
1f8
330
0
100
AcDbDictionary
280
0
281
1
0
DICTIONARY
5
1f9
330
0
100
AcDbDictionary
280
0
281
1
3
Standard
350
18
0
MLINESTYLE
5
18
330
1f9
100
AcDbMlineStyle
2
Standard
70
0
3

62
256
51
90
52
90
71
2
49
-0.5
62
256
6
ByLayer
49
0.5
62
256
6
ByLayer
0
RASTERVARIABLES
5
1e5
330

100
AcDbRasterVariables
90
0
70
1
71
1
72
1
0
ENDSEC
0
EOF
