0
SECTION
2
HEADER
9
$ACADVER
1
AC1015
9
$DWGCODEPAGE
3
ANSI_1252
9
$HANDSEED
5
208
9
$ANGBASE
50
0
9
$ANGDIR
70
0
9
$ATTMODE
70
1
9
$AUNITS
70
0
9
$AUPREC
70
0
9
$CECOLOR
62
256
9
$CELTSCALE
40
1
9
$CELTYPE
6
ByLayer
9
$CELWEIGHT
370
18
9
$CLAYER
8
0
9
$CMLJUST
70
0
9
$CMLSCALE
40
1
9
$CMLSTYLE
2
Standard
9
$DIMSTYLE
2
Standard
9
$TEXTSIZE
40
0.2
9
$TEXTSTYLE
7
Standard
9
$LUNITS
70
2
9
$LUPREC
70
4
9
$EXTNAMES
290
1
9
$INSUNITS
70
4
9
$LTSCALE
40
1
9
$LWDISPLAY
290
1
9
$PDMODE
70
0
9
$PDSIZE
40
0
9
$PLINEGEN
70
0
0
ENDSEC
0
SECTION
2
CLASSES
0
CLASS
1
RASTERVARIABLES
2
AcDbRasterVariables
3
ISM
90
0
280
0
281
0
0
ENDSEC
0
SECTION
2
TABLES
0
TABLE
2
VPORT
5
1fe
100
AcDbSymbolTable
0
VPORT
5
1
100
AcDbSymbolTableRecord
100
AcDbViewportTableRecord
2
*Active
70
0
10
0
20
0
11
1
21
1
12
-1
22
1
13
0
23
0
14
0.5
24
0.5
15
10
25
10
16
0
26
0
36
1
17
0
27
0
37
0
0
ENDTAB
0
TABLE
2
LTYPE
5
1ff
100
AcDbSymbolTable
0
LTYPE
5
14
100
AcDbSymbolTableRecord
100
AcDbLinetypeTableRecord
70
0
2
ByBlock
3

72
65
73
0
40
0
0
LTYPE
5
15
100
AcDbSymbolTableRecord
100
AcDbLinetypeTableRecord
70
0
2
ByLayer
3

72
65
73
0
40
0
0
LTYPE
5
16
100
AcDbSymbolTableRecord
100
AcDbLinetypeTableRecord
70
0
2
Continuous
3
Solid line
72
65
73
0
40
0
0
LTYPE
5
6E
100
AcDbSymbolTableRecord
100
AcDbLinetypeTableRecord
70
0
2
CENTER
3
____ _ ____ _ ____ _ ____
72
65
73
4
40
47.5
49
22
74
0
49
-8.5
74
0
49
8.5
74
0
49
-8.5
74
0
0
LTYPE
5
6F
100
AcDbSymbolTableRecord
100
AcDbLinetypeTableRecord
70
0
2
DASHED
3
__ __ __ __ __ __ __ __ __
72
65
73
2
40
25.72
49
12.86
74
0
49
-12.86
74
0
0
ENDTAB
0
TABLE
2
LAYER
5
200
100
AcDbSymbolTable
0
LAYER
5
10
100
AcDbSymbolTableRecord
100
AcDbLayerTableRecord
2
0
70
0
62
7
6
Continuous
290
1
370
-3
390
0
0
LAYER
5
71
100
AcDbSymbolTableRecord
100
AcDbLayerTableRecord
2
80
70
0
62
-6
6
Continuous
290
1
370
-3
390
0
0
LAYER
5
73
100
AcDbSymbolTableRecord
100
AcDbLayerTableRecord
2
81
70
0
62
-3
6
Continuous
290
1
370
-3
390
0
0
LAYER
5
75
100
AcDbSymbolTableRecord
100
AcDbLayerTableRecord
2
1
70
0
62
4
6
Continuous
290
1
370
-3
390
0
0
LAYER
5
8A
100
AcDbSymbolTableRecord
100
AcDbLayerTableRecord
2
4
70
0
62
-2
6
CENTER
290
1
370
-3
390
0
0
LAYER
5
A5
100
AcDbSymbolTableRecord
100
AcDbLayerTableRecord
2
2
70
0
62
7
6
Continuous
290
1
370
-3
390
0
0
LAYER
5
113
100
AcDbSymbolTableRecord
100
AcDbLayerTableRecord
2
Defpoints
70
0
62
7
6
Continuous
290
0
370
-3
390
0
0
LAYER
5
1ea
100
AcDbSymbolTableRecord
100
AcDbLayerTableRecord
2
SK1
70
0
62
4
6
Continuous
290
1
370
-3
390
0
0
LAYER
5
1eb
100
AcDbSymbolTableRecord
100
AcDbLayerTableRecord
2
SK4
70
0
62
2
6
CENTER
290
1
370
-3
390
0
0
LAYER
5
1ec
100
AcDbSymbolTableRecord
100
AcDbLayerTableRecord
2
SK2
70
0
62
7
6
Continuous
290
1
370
-3
390
0
0
LAYER
5
1ed
100
AcDbSymbolTableRecord
100
AcDbLayerTableRecord
2
SK6
70
0
62
5
6
Continuous
290
1
370
-3
390
0
0
ENDTAB
0
TABLE
2
STYLE
5
201
100
AcDbSymbolTable
0
STYLE
5
11
100
AcDbSymbolTableRecord
100
AcDbTextStyleTableRecord
2
Standard
3
txt
70
0
71
0
40
0
41
1
42
0
50
0
0
STYLE
5
F8
100
AcDbSymbolTableRecord
100
AcDbTextStyleTableRecord
2
iso_b_vert
3
simplex.shx
70
0
71
0
40
0
41
1
42
0
50
0
0
STYLE
5
F9
100
AcDbSymbolTableRecord
100
AcDbTextStyleTableRecord
2
DWGDirectTextStyle
3
simplex
70
0
71
0
40
0
41
1
42
0
50
0
0
ENDTAB
0
TABLE
2
DIMSTYLE
5
202
100
AcDbSymbolTable
100
AcDbDimStyleTable
0
DIMSTYLE
105
27
100
AcDbSymbolTableRecord
100
AcDbDimStyleTableRecord
2
Standard
70
0
3
<>
41
0.18
42
0.0625
44
0.18
140
0.18
147
0.09
73
0
74
0
77
1
271
2
275
0
278
52
280
0
340
11
0
ENDTAB
0
TABLE
2
VIEW
5
203
100
AcDbSymbolTable
0
ENDTAB
0
TABLE
2
UCS
5
204
100
AcDbSymbolTable
0
ENDTAB
0
TABLE
2
APPID
5
205
100
AcDbSymbolTable
0
APPID
5
12
100
AcDbSymbolTableRecord
100
AcDbRegAppTableRecord
2
ACAD
70
0
0
APPID
5
10F
100
AcDbSymbolTableRecord
100
AcDbRegAppTableRecord
2
ACAD_DSTYLE_DIMBREAK
70
0
0
APPID
5
1A9
100
AcDbSymbolTableRecord
100
AcDbRegAppTableRecord
2
ACAD_DSTYLE_DIM_LINETYPE
70
0
0
APPID
5
1AA
100
AcDbSymbolTableRecord
100
AcDbRegAppTableRecord
2
ACAD_DSTYLE_DIM_EXT1_LINETYPE
70
0
0
APPID
5
1AB
100
AcDbSymbolTableRecord
100
AcDbRegAppTableRecord
2
ACAD_DSTYLE_DIM_EXT2_LINETYPE
70
0
0
APPID
5
1E6
100
AcDbSymbolTableRecord
100
AcDbRegAppTableRecord
2
ACAD_MLEADERVER
70
0
0
ENDTAB
0
TABLE
2
BLOCK_RECORD
5
206
100
AcDbSymbolTable
0
BLOCK_RECORD
5
1F
100
AcDbSymbolTableRecord
100
AcDbBlockTableRecord
2
*Model_Space
340
0
70
0
0
BLOCK_RECORD
5
1B
100
AcDbSymbolTableRecord
100
AcDbBlockTableRecord
2
*Paper_Space
340
0
70
0
0
BLOCK_RECORD
5
23
100
AcDbSymbolTableRecord
100
AcDbBlockTableRecord
2
*Paper_Space0
340
0
70
0
0
BLOCK_RECORD
5
114
100
AcDbSymbolTableRecord
100
AcDbBlockTableRecord
2
*D1
340
0
70
0
0
BLOCK_RECORD
5
120
100
AcDbSymbolTableRecord
100
AcDbBlockTableRecord
2
_U0
340
0
70
0
0
BLOCK_RECORD
5
12C
100
AcDbSymbolTableRecord
100
AcDbBlockTableRecord
2
*D3
340
0
70
0
0
BLOCK_RECORD
5
138
100
AcDbSymbolTableRecord
100
AcDbBlockTableRecord
2
_U1
340
0
70
0
0
BLOCK_RECORD
5
144
100
AcDbSymbolTableRecord
100
AcDbBlockTableRecord
2
*D5
340
0
70
0
0
BLOCK_RECORD
5
150
100
AcDbSymbolTableRecord
100
AcDbBlockTableRecord
2
_U2
340
0
70
0
0
BLOCK_RECORD
5
15C
100
AcDbSymbolTableRecord
100
AcDbBlockTableRecord
2
*D7
340
0
70
0
0
BLOCK_RECORD
5
16A
100
AcDbSymbolTableRecord
100
AcDbBlockTableRecord
2
_U3
340
0
70
0
0
BLOCK_RECORD
5
176
100
AcDbSymbolTableRecord
100
AcDbBlockTableRecord
2
*D9
340
0
70
0
0
BLOCK_RECORD
5
182
100
AcDbSymbolTableRecord
100
AcDbBlockTableRecord
2
_U4
340
0
70
0
0
ENDTAB
0
ENDSEC
0
SECTION
2
BLOCKS
0
BLOCK
5
20
100
AcDbEntity
8
0
100
AcDbBlockBegin
2
*Model_Space
70
0
10
0
20
0
30
0
3
*Model_Space
0
ENDBLK
5
21
100
AcDbEntity
8
0
100
AcDbBlockEnd
0
BLOCK
5
1C
100
AcDbEntity
8
0
100
AcDbBlockBegin
2
*Paper_Space
70
0
10
0
20
0
30
0
3
*Paper_Space
0
ENDBLK
5
1D
100
AcDbEntity
8
0
100
AcDbBlockEnd
0
BLOCK
5
24
100
AcDbEntity
8
0
100
AcDbBlockBegin
2
*Paper_Space0
70
0
10
0
20
0
30
0
3
*Paper_Space0
0
ENDBLK
5
25
100
AcDbEntity
8
0
100
AcDbBlockEnd
0
BLOCK
5
115
100
AcDbEntity
8
0
100
AcDbBlockBegin
2
*D1
70
1
10
0
20
0
30
0
3
*D1
0
LINE
5
117
100
AcDbEntity
8
0
62
256
6
ByLayer
370
-2
48
1
60
0
100
AcDbLine
10
0
20
-1.5875
30
0
11
0
21
-15.663398
31
0
39
0
210
0
220
0
230
1
0
LINE
5
118
100
AcDbEntity
8
0
62
256
6
ByLayer
370
-2
48
1
60
0
100
AcDbLine
10
53.9832
20
-5.0375
30
0
11
53.9832
21
-15.663398
31
0
39
0
210
0
220
0
230
1
0
LINE
5
119
100
AcDbEntity
8
0
62
256
6
ByLayer
370
-2
48
1
60
0
100
AcDbLine
10
3.5
20
-13.663398
30
0
11
50.4832
21
-13.663398
31
0
39
0
210
0
220
0
230
1
0
SOLID
5
11A
100
AcDbEntity
8
0
62
256
6
ByLayer
370
-1
48
1
60
0
100
AcDbTrace
10
3.5
20
-13.080065
30
0
11
3.5
21
-14.246732
31
0
12
0
22
-13.663398
32
0
13
0
23
-13.663398
33
0
39
0
210
0
220
0
230
1
0
SOLID
5
11B
100
AcDbEntity
8
0
62
256
6
ByLayer
370
-1
48
1
60
0
100
AcDbTrace
10
50.4832
20
-14.246732
30
0
11
50.4832
21
-13.080065
31
0
12
53.9832
22
-13.663398
32
0
13
53.9832
23
-13.663398
33
0
39
0
210
0
220
0
230
1
0
MTEXT
5
11C
100
AcDbEntity
8
0
62
256
6
ByLayer
370
18
48
1
60
0
100
AcDbMText
10
26.9916
20
-6.663398
30
0
210
0
220
0
230
1
1
\A1;53.98
40
3.5
41
0
44
1
50
0
71
5
72
5
7
iso_b_vert
0
POINT
5
11D
100
AcDbEntity
8
Defpoints
62
0
6
ByLayer
370
-1
48
1
60
0
100
AcDbPoint
10
0
20
0
30
0
39
0
210
0
220
0
230
1
50
360
0
POINT
5
11E
100
AcDbEntity
8
Defpoints
62
0
6
ByLayer
370
-1
48
1
60
0
100
AcDbPoint
10
53.9832
20
-3.45
30
0
39
0
210
0
220
0
230
1
50
360
0
POINT
5
11F
100
AcDbEntity
8
Defpoints
62
0
6
ByLayer
370
-1
48
1
60
0
100
AcDbPoint
10
53.9832
20
-13.663398
30
0
39
0
210
0
220
0
230
1
50
360
0
ENDBLK
5
116
100
AcDbEntity
8
0
100
AcDbBlockEnd
0
BLOCK
5
127
100
AcDbEntity
8
0
100
AcDbBlockBegin
2
_U0
70
0
10
0
20
0
30
0
3
_U0
0
MTEXT
5
121
100
AcDbEntity
8
SK2
62
256
6
ByLayer
370
13
48
1
60
0
100
AcDbMText
10
21.854301
20
-12.630765
30
0
210
0
220
0
230
1
1
\W0.7317;53,98
40
3.5
41
0
44
1.084337
50
0
71
7
72
5
7
iso_b_vert
0
LINE
5
122
100
AcDbEntity
8
SK2
62
256
6
ByLayer
370
13
48
1
60
0
100
AcDbLine
10
0
20
-1.5875
30
0
11
0
21
-15.663398
31
0
39
0
210
0
220
0
230
1
0
LINE
5
123
100
AcDbEntity
8
SK2
62
256
6
ByLayer
370
13
48
1
60
0
100
AcDbLine
10
53.9832
20
-5.0375
30
0
11
53.9832
21
-15.663398
31
0
39
0
210
0
220
0
230
1
0
LINE
5
124
100
AcDbEntity
8
SK2
62
256
6
ByLayer
370
13
48
1
60
0
100
AcDbLine
10
0
20
-13.663398
30
0
11
53.9832
21
-13.663398
31
0
39
0
210
0
220
0
230
1
0
SOLID
5
125
100
AcDbEntity
8
SK2
62
256
6
ByLayer
370
18
48
1
60
0
100
AcDbTrace
10
0
20
-13.663398
30
0
11
3.499998
21
-13.202615
31
0
12
3.500002
22
-14.124182
32
0
13
3.500002
23
-14.124182
33
0
39
0
210
0
220
0
230
1
0
SOLID
5
126
100
AcDbEntity
8
SK2
62
256
6
ByLayer
370
18
48
1
60
0
100
AcDbTrace
10
53.9832
20
-13.663398
30
0
11
50.483202
21
-14.124182
31
0
12
50.483198
22
-13.202615
32
0
13
50.483198
23
-13.202615
33
0
39
0
210
0
220
0
230
1
0
ENDBLK
5
128
100
AcDbEntity
8
0
100
AcDbBlockEnd
0
BLOCK
5
12D
100
AcDbEntity
8
0
100
AcDbBlockBegin
2
*D3
70
1
10
0
20
0
30
0
3
*D3
0
LINE
5
12F
100
AcDbEntity
8
0
62
256
6
ByLayer
370
-2
48
1
60
0
100
AcDbLine
10
-36
20
-5.5875
30
0
11
-36
21
-34.692985
31
0
39
0
210
0
220
0
230
1
0
LINE
5
130
100
AcDbEntity
8
0
62
256
6
ByLayer
370
-2
48
1
60
0
100
AcDbLine
10
55
20
-1.5875
30
0
11
55
21
-34.692985
31
0
39
0
210
0
220
0
230
1
0
LINE
5
131
100
AcDbEntity
8
0
62
256
6
ByLayer
370
-2
48
1
60
0
100
AcDbLine
10
-32.5
20
-32.692985
30
0
11
51.5
21
-32.692985
31
0
39
0
210
0
220
0
230
1
0
SOLID
5
132
100
AcDbEntity
8
0
62
256
6
ByLayer
370
-1
48
1
60
0
100
AcDbTrace
10
-32.5
20
-32.109652
30
0
11
-32.5
21
-33.276319
31
0
12
-36
22
-32.692985
32
0
13
-36
23
-32.692985
33
0
39
0
210
0
220
0
230
1
0
SOLID
5
133
100
AcDbEntity
8
0
62
256
6
ByLayer
370
-1
48
1
60
0
100
AcDbTrace
10
51.5
20
-33.276319
30
0
11
51.5
21
-32.109652
31
0
12
55
22
-32.692985
32
0
13
55
23
-32.692985
33
0
39
0
210
0
220
0
230
1
0
MTEXT
5
134
100
AcDbEntity
8
0
62
256
6
ByLayer
370
18
48
1
60
0
100
AcDbMText
10
9.5
20
-25.692985
30
0
210
0
220
0
230
1
1
\A1;91.00
40
3.5
41
0
44
1
50
0
71
5
72
5
7
iso_b_vert
0
POINT
5
135
100
AcDbEntity
8
Defpoints
62
0
6
ByLayer
370
-1
48
1
60
0
100
AcDbPoint
10
-36
20
-4
30
0
39
0
210
0
220
0
230
1
50
360
0
POINT
5
136
100
AcDbEntity
8
Defpoints
62
0
6
ByLayer
370
-1
48
1
60
0
100
AcDbPoint
10
55
20
0
30
0
39
0
210
0
220
0
230
1
50
360
0
POINT
5
137
100
AcDbEntity
8
Defpoints
62
0
6
ByLayer
370
-1
48
1
60
0
100
AcDbPoint
10
55
20
-32.692985
30
0
39
0
210
0
220
0
230
1
50
360
0
ENDBLK
5
12E
100
AcDbEntity
8
0
100
AcDbBlockEnd
0
BLOCK
5
13F
100
AcDbEntity
8
0
100
AcDbBlockBegin
2
_U1
70
0
10
0
20
0
30
0
3
_U1
0
MTEXT
5
139
100
AcDbEntity
8
SK2
62
256
6
ByLayer
370
13
48
1
60
0
100
AcDbMText
10
4.800135
20
-31.660352
30
0
210
0
220
0
230
1
1
\W0.6713;91,00
40
3.5
41
0
44
1.084337
50
0
71
7
72
5
7
iso_b_vert
0
LINE
5
13A
100
AcDbEntity
8
SK2
62
256
6
ByLayer
370
13
48
1
60
0
100
AcDbLine
10
-36
20
-5.5875
30
0
11
-36
21
-34.692985
31
0
39
0
210
0
220
0
230
1
0
LINE
5
13B
100
AcDbEntity
8
SK2
62
256
6
ByLayer
370
13
48
1
60
0
100
AcDbLine
10
55
20
-1.5875
30
0
11
55
21
-34.692985
31
0
39
0
210
0
220
0
230
1
0
LINE
5
13C
100
AcDbEntity
8
SK2
62
256
6
ByLayer
370
13
48
1
60
0
100
AcDbLine
10
-36
20
-32.692985
30
0
11
55
21
-32.692985
31
0
39
0
210
0
220
0
230
1
0
SOLID
5
13D
100
AcDbEntity
8
SK2
62
256
6
ByLayer
370
18
48
1
60
0
100
AcDbTrace
10
-36
20
-32.692985
30
0
11
-32.500002
21
-32.232202
31
0
12
-32.499998
22
-33.153769
32
0
13
-32.499998
23
-33.153769
33
0
39
0
210
0
220
0
230
1
0
SOLID
5
13E
100
AcDbEntity
8
SK2
62
256
6
ByLayer
370
18
48
1
60
0
100
AcDbTrace
10
55
20
-32.692985
30
0
11
51.500002
21
-33.153769
31
0
12
51.499998
22
-32.232202
32
0
13
51.499998
23
-32.232202
33
0
39
0
210
0
220
0
230
1
0
ENDBLK
5
140
100
AcDbEntity
8
0
100
AcDbBlockEnd
0
BLOCK
5
145
100
AcDbEntity
8
0
100
AcDbBlockBegin
2
*D5
70
1
10
0
20
0
30
0
3
*D5
0
LINE
5
147
100
AcDbEntity
8
0
62
256
6
ByLayer
370
-2
48
1
60
0
100
AcDbLine
10
19.48
20
5.0375
30
0
11
19.48
21
17.059119
31
0
39
0
210
0
220
0
230
1
0
LINE
5
148
100
AcDbEntity
8
0
62
256
6
ByLayer
370
-2
48
1
60
0
100
AcDbLine
10
55
20
1.5875
30
0
11
55
21
17.059119
31
0
39
0
210
0
220
0
230
1
0
LINE
5
149
100
AcDbEntity
8
0
62
256
6
ByLayer
370
-2
48
1
60
0
100
AcDbLine
10
22.98
20
15.059119
30
0
11
51.5
21
15.059119
31
0
39
0
210
0
220
0
230
1
0
SOLID
5
14A
100
AcDbEntity
8
0
62
256
6
ByLayer
370
-1
48
1
60
0
100
AcDbTrace
10
22.98
20
15.642453
30
0
11
22.98
21
14.475786
31
0
12
19.48
22
15.059119
32
0
13
19.48
23
15.059119
33
0
39
0
210
0
220
0
230
1
0
SOLID
5
14B
100
AcDbEntity
8
0
62
256
6
ByLayer
370
-1
48
1
60
0
100
AcDbTrace
10
51.5
20
14.475786
30
0
11
51.5
21
15.642453
31
0
12
55
22
15.059119
32
0
13
55
23
15.059119
33
0
39
0
210
0
220
0
230
1
0
MTEXT
5
14C
100
AcDbEntity
8
0
62
256
6
ByLayer
370
18
48
1
60
0
100
AcDbMText
10
37.24
20
22.059119
30
0
210
0
220
0
230
1
1
\A1;35.52
40
3.5
41
0
44
1
50
0
71
5
72
5
7
iso_b_vert
0
POINT
5
14D
100
AcDbEntity
8
Defpoints
62
0
6
ByLayer
370
-1
48
1
60
0
100
AcDbPoint
10
19.48
20
3.45
30
0
39
0
210
0
220
0
230
1
50
360
0
POINT
5
14E
100
AcDbEntity
8
Defpoints
62
0
6
ByLayer
370
-1
48
1
60
0
100
AcDbPoint
10
55
20
0
30
0
39
0
210
0
220
0
230
1
50
360
0
POINT
5
14F
100
AcDbEntity
8
Defpoints
62
0
6
ByLayer
370
-1
48
1
60
0
100
AcDbPoint
10
55
20
15.059119
30
0
39
0
210
0
220
0
230
1
50
360
0
ENDBLK
5
146
100
AcDbEntity
8
0
100
AcDbBlockEnd
0
BLOCK
5
157
100
AcDbEntity
8
0
100
AcDbBlockBegin
2
_U2
70
0
10
0
20
0
30
0
3
_U2
0
MTEXT
5
151
100
AcDbEntity
8
SK2
62
256
6
ByLayer
370
13
48
1
60
0
100
AcDbMText
10
32.102701
20
16.091753
30
0
210
0
220
0
230
1
1
\W0.7317;35,52
40
3.5
41
0
44
1.084337
50
0
71
7
72
5
7
iso_b_vert
0
LINE
5
152
100
AcDbEntity
8
SK2
62
256
6
ByLayer
370
13
48
1
60
0
100
AcDbLine
10
19.48
20
5.0375
30
0
11
19.48
21
17.059119
31
0
39
0
210
0
220
0
230
1
0
LINE
5
153
100
AcDbEntity
8
SK2
62
256
6
ByLayer
370
13
48
1
60
0
100
AcDbLine
10
55
20
1.5875
30
0
11
55
21
17.059119
31
0
39
0
210
0
220
0
230
1
0
LINE
5
154
100
AcDbEntity
8
SK2
62
256
6
ByLayer
370
13
48
1
60
0
100
AcDbLine
10
19.48
20
15.059119
30
0
11
55
21
15.059119
31
0
39
0
210
0
220
0
230
1
0
SOLID
5
155
100
AcDbEntity
8
SK2
62
256
6
ByLayer
370
18
48
1
60
0
100
AcDbTrace
10
19.48
20
15.059119
30
0
11
22.979998
21
15.519903
31
0
12
22.980002
22
14.598335
32
0
13
22.980002
23
14.598335
33
0
39
0
210
0
220
0
230
1
0
SOLID
5
156
100
AcDbEntity
8
SK2
62
256
6
ByLayer
370
18
48
1
60
0
100
AcDbTrace
10
55
20
15.059119
30
0
11
51.500002
21
14.598335
31
0
12
51.499998
22
15.519903
32
0
13
51.499998
23
15.519903
33
0
39
0
210
0
220
0
230
1
0
ENDBLK
5
158
100
AcDbEntity
8
0
100
AcDbBlockEnd
0
BLOCK
5
15D
100
AcDbEntity
8
0
100
AcDbBlockBegin
2
*D7
70
1
10
0
20
0
30
0
3
*D7
0
LINE
5
15F
100
AcDbEntity
8
0
62
256
6
ByLayer
370
-2
48
1
60
0
100
AcDbLine
10
55
20
-1.5875
30
0
11
55
21
-18.252503
31
0
39
0
210
0
220
0
230
1
0
LINE
5
160
100
AcDbEntity
8
0
62
256
6
ByLayer
370
-2
48
1
60
0
100
AcDbLine
10
53.9832
20
-5.0375
30
0
11
53.9832
21
-18.252503
31
0
39
0
210
0
220
0
230
1
0
LINE
5
161
100
AcDbEntity
8
0
62
256
6
ByLayer
370
-2
48
1
60
0
100
AcDbLine
10
55
20
-16.252503
30
0
11
82.666667
21
-16.252503
31
0
39
0
210
0
220
0
230
1
0
LINE
5
162
100
AcDbEntity
8
0
62
256
6
ByLayer
370
-2
48
1
60
0
100
AcDbLine
10
58.5
20
-16.252503
30
0
11
62
21
-16.252503
31
0
39
0
210
0
220
0
230
1
0
LINE
5
163
100
AcDbEntity
8
0
62
256
6
ByLayer
370
-2
48
1
60
0
100
AcDbLine
10
50.4832
20
-16.252503
30
0
11
46.9832
21
-16.252503
31
0
39
0
210
0
220
0
230
1
0
SOLID
5
164
100
AcDbEntity
8
0
62
256
6
ByLayer
370
-1
48
1
60
0
100
AcDbTrace
10
58.5
20
-15.66917
30
0
11
58.5
21
-16.835837
31
0
12
55
22
-16.252503
32
0
13
55
23
-16.252503
33
0
39
0
210
0
220
0
230
1
0
SOLID
5
165
100
AcDbEntity
8
0
62
256
6
ByLayer
370
-1
48
1
60
0
100
AcDbTrace
10
50.4832
20
-16.835837
30
0
11
50.4832
21
-15.66917
31
0
12
53.9832
22
-16.252503
32
0
13
53.9832
23
-16.252503
33
0
39
0
210
0
220
0
230
1
0
MTEXT
5
166
100
AcDbEntity
8
0
62
256
6
ByLayer
370
18
48
1
60
0
100
AcDbMText
10
72.333333
20
-9.252503
30
0
210
0
220
0
230
1
1
\A1;1.02
40
3.5
41
0
44
1
50
0
71
5
72
5
7
iso_b_vert
0
POINT
5
167
100
AcDbEntity
8
Defpoints
62
0
6
ByLayer
370
-1
48
1
60
0
100
AcDbPoint
10
55
20
0
30
0
39
0
210
0
220
0
230
1
50
360
0
POINT
5
168
100
AcDbEntity
8
Defpoints
62
0
6
ByLayer
370
-1
48
1
60
0
100
AcDbPoint
10
53.9832
20
-3.45
30
0
39
0
210
0
220
0
230
1
50
360
0
POINT
5
169
100
AcDbEntity
8
Defpoints
62
0
6
ByLayer
370
-1
48
1
60
0
100
AcDbPoint
10
53.9832
20
-16.252503
30
0
39
0
210
0
220
0
230
1
50
360
0
ENDBLK
5
15E
100
AcDbEntity
8
0
100
AcDbBlockEnd
0
BLOCK
5
171
100
AcDbEntity
8
0
100
AcDbBlockBegin
2
_U3
70
0
10
0
20
0
30
0
3
_U3
0
MTEXT
5
16B
100
AcDbEntity
8
SK2
62
256
6
ByLayer
370
13
48
1
60
0
100
AcDbMText
10
61.589293
20
-15.21987
30
0
210
0
220
0
230
1
1
\W0.6367;1,02
40
3.5
41
0
44
1.084337
50
0
71
7
72
5
7
iso_b_vert
0
LINE
5
16C
100
AcDbEntity
8
SK2
62
256
6
ByLayer
370
13
48
1
60
0
100
AcDbLine
10
55
20
-1.5875
30
0
11
55
21
-18.252503
31
0
39
0
210
0
220
0
230
1
0
LINE
5
16D
100
AcDbEntity
8
SK2
62
256
6
ByLayer
370
13
48
1
60
0
100
AcDbLine
10
53.9832
20
-5.0375
30
0
11
53.9832
21
-18.252503
31
0
39
0
210
0
220
0
230
1
0
LINE
5
16E
100
AcDbEntity
8
SK2
62
256
6
ByLayer
370
13
48
1
60
0
100
AcDbLine
10
45.2332
20
-16.252503
30
0
11
68.559058
21
-16.252503
31
0
39
0
210
0
220
0
230
1
0
SOLID
5
16F
100
AcDbEntity
8
SK2
62
256
6
ByLayer
370
18
48
1
60
0
100
AcDbTrace
10
55
20
-16.252503
30
0
11
58.499998
21
-15.791719
31
0
12
58.500002
22
-16.713287
32
0
13
58.500002
23
-16.713287
33
0
39
0
210
0
220
0
230
1
0
SOLID
5
170
100
AcDbEntity
8
SK2
62
256
6
ByLayer
370
18
48
1
60
0
100
AcDbTrace
10
53.9832
20
-16.252503
30
0
11
50.483202
21
-16.713287
31
0
12
50.483198
22
-15.791719
32
0
13
50.483198
23
-15.791719
33
0
39
0
210
0
220
0
230
1
0
ENDBLK
5
172
100
AcDbEntity
8
0
100
AcDbBlockEnd
0
BLOCK
5
177
100
AcDbEntity
8
0
100
AcDbBlockBegin
2
*D9
70
1
10
0
20
0
30
0
3
*D9
0
LINE
5
179
100
AcDbEntity
8
0
62
256
6
ByLayer
370
-2
48
1
60
0
100
AcDbLine
10
-36
20
-5.5875
30
0
11
-36
21
-24.343428
31
0
39
0
210
0
220
0
230
1
0
LINE
5
17A
100
AcDbEntity
8
0
62
256
6
ByLayer
370
-2
48
1
60
0
100
AcDbLine
10
53.9832
20
-5.0375
30
0
11
53.9832
21
-24.343428
31
0
39
0
210
0
220
0
230
1
0
LINE
5
17B
100
AcDbEntity
8
0
62
256
6
ByLayer
370
-2
48
1
60
0
100
AcDbLine
10
-32.5
20
-22.343428
30
0
11
50.4832
21
-22.343428
31
0
39
0
210
0
220
0
230
1
0
SOLID
5
17C
100
AcDbEntity
8
0
62
256
6
ByLayer
370
-1
48
1
60
0
100
AcDbTrace
10
-32.5
20
-21.760095
30
0
11
-32.5
21
-22.926762
31
0
12
-36
22
-22.343428
32
0
13
-36
23
-22.343428
33
0
39
0
210
0
220
0
230
1
0
SOLID
5
17D
100
AcDbEntity
8
0
62
256
6
ByLayer
370
-1
48
1
60
0
100
AcDbTrace
10
50.4832
20
-22.926762
30
0
11
50.4832
21
-21.760095
31
0
12
53.9832
22
-22.343428
32
0
13
53.9832
23
-22.343428
33
0
39
0
210
0
220
0
230
1
0
MTEXT
5
17E
100
AcDbEntity
8
0
62
256
6
ByLayer
370
18
48
1
60
0
100
AcDbMText
10
8.9916
20
-15.343428
30
0
210
0
220
0
230
1
1
\A1;89.98
40
3.5
41
0
44
1
50
0
71
5
72
5
7
iso_b_vert
0
POINT
5
17F
100
AcDbEntity
8
Defpoints
62
0
6
ByLayer
370
-1
48
1
60
0
100
AcDbPoint
10
-36
20
-4
30
0
39
0
210
0
220
0
230
1
50
360
0
POINT
5
180
100
AcDbEntity
8
Defpoints
62
0
6
ByLayer
370
-1
48
1
60
0
100
AcDbPoint
10
53.9832
20
-3.45
30
0
39
0
210
0
220
0
230
1
50
360
0
POINT
5
181
100
AcDbEntity
8
Defpoints
62
0
6
ByLayer
370
-1
48
1
60
0
100
AcDbPoint
10
53.9832
20
-22.343428
30
0
39
0
210
0
220
0
230
1
50
360
0
ENDBLK
5
178
100
AcDbEntity
8
0
100
AcDbBlockEnd
0
BLOCK
5
189
100
AcDbEntity
8
0
100
AcDbBlockBegin
2
_U4
70
0
10
0
20
0
30
0
3
_U4
0
MTEXT
5
183
100
AcDbEntity
8
SK2
62
256
6
ByLayer
370
13
48
1
60
0
100
AcDbMText
10
3.854301
20
-21.310795
30
0
210
0
220
0
230
1
1
\W0.7317;89,98
40
3.5
41
0
44
1.084337
50
0
71
7
72
5
7
iso_b_vert
0
LINE
5
184
100
AcDbEntity
8
SK2
62
256
6
ByLayer
370
13
48
1
60
0
100
AcDbLine
10
-36
20
-5.5875
30
0
11
-36
21
-24.343428
31
0
39
0
210
0
220
0
230
1
0
LINE
5
185
100
AcDbEntity
8
SK2
62
256
6
ByLayer
370
13
48
1
60
0
100
AcDbLine
10
53.9832
20
-5.0375
30
0
11
53.9832
21
-24.343428
31
0
39
0
210
0
220
0
230
1
0
LINE
5
186
100
AcDbEntity
8
SK2
62
256
6
ByLayer
370
13
48
1
60
0
100
AcDbLine
10
-36
20
-22.343428
30
0
11
53.9832
21
-22.343428
31
0
39
0
210
0
220
0
230
1
0
SOLID
5
187
100
AcDbEntity
8
SK2
62
256
6
ByLayer
370
18
48
1
60
0
100
AcDbTrace
10
-36
20
-22.343428
30
0
11
-32.500002
21
-21.882645
31
0
12
-32.499998
22
-22.804212
32
0
13
-32.499998
23
-22.804212
33
0
39
0
210
0
220
0
230
1
0
SOLID
5
188
100
AcDbEntity
8
SK2
62
256
6
ByLayer
370
18
48
1
60
0
100
AcDbTrace
10
53.9832
20
-22.343428
30
0
11
50.483202
21
-22.804212
31
0
12
50.483198
22
-21.882645
32
0
13
50.483198
23
-21.882645
33
0
39
0
210
0
220
0
230
1
0
ENDBLK
5
18A
100
AcDbEntity
8
0
100
AcDbBlockEnd
0
ENDSEC
0
SECTION
2
ENTITIES
0
ARC
5
AE
100
AcDbEntity
8
1
62
256
6
ByLayer
370
18
48
1
60
0
100
AcDbCircle
39
0
10
1.235158
20
-4.217048
30
0
40
0.799999999999998
210
0
220
0
230
1
100
AcDbArc
50
89.96419
51
140.531441
0
ARC
5
AF
100
AcDbEntity
8
1
62
256
6
ByLayer
370
18
48
1
60
0
100
AcDbCircle
39
0
10
1.235158
20
4.217048
30
0
40
0.799999999999998
210
0
220
0
230
1
100
AcDbArc
50
219.468559
51
270.03581
0
ARC
5
B0
100
AcDbEntity
8
1
62
256
6
ByLayer
370
18
48
1
60
0
100
AcDbCircle
39
0
10
0
20
-3.2
30
0
40
0.799999999999998
210
0
220
0
230
1
100
AcDbArc
50
270
51
320.531441
0
ARC
5
B1
100
AcDbEntity
8
1
62
256
6
ByLayer
370
18
48
1
60
0
100
AcDbCircle
39
0
10
0
20
3.2
30
0
40
0.799999999999998
210
0
220
0
230
1
100
AcDbArc
50
39.468559
51
90
0
ELLIPSE
5
B2
100
AcDbEntity
8
1
62
256
6
ByLayer
370
13
48
1
60
0
100
AcDbEllipse
10
4.250223
20
-2.197882
30
0
11
0.0343276879397268
21
0.0939234254098132
31
0
210
0
220
0
230
1
40
0.285042
41
0.90500545190281
42
2.45217075004586
0
ELLIPSE
5
B3
100
AcDbEntity
8
1
62
256
6
ByLayer
370
13
48
1
60
0
100
AcDbEllipse
10
4.184472
20
-2.183917
30
0
11
0.00436368588888909
21
0.0999047458605602
31
0
210
0
220
0
230
1
40
0.559912
41
0.970273324887192
42
2.32702289271082
0
POINT
5
70
100
AcDbEntity
8
80
62
256
6
ByLayer
370
18
48
1
60
0
100
AcDbPoint
10
0
20
0
30
0
39
0
210
0
220
0
230
1
50
360
0
POINT
5
72
100
AcDbEntity
8
81
62
256
6
ByLayer
370
18
48
1
60
0
100
AcDbPoint
10
55
20
0
30
0
39
0
210
0
220
0
230
1
50
360
0
POINT
5
74
100
AcDbEntity
8
1
62
256
6
ByLayer
370
18
48
1
60
1
100
AcDbPoint
10
53.9832
20
-3.45
30
0
39
0
210
0
220
0
230
1
50
360
0
POINT
5
76
100
AcDbEntity
8
1
62
256
6
ByLayer
370
18
48
1
60
1
100
AcDbPoint
10
-36
20
-4
30
0
39
0
210
0
220
0
230
1
50
360
0
POINT
5
77
100
AcDbEntity
8
1
62
256
6
ByLayer
370
18
48
1
60
1
100
AcDbPoint
10
19.48
20
3.45
30
0
39
0
210
0
220
0
230
1
50
360
0
POINT
5
78
100
AcDbEntity
8
1
62
256
6
ByLayer
370
18
48
1
60
1
100
AcDbPoint
10
53.9832
20
-3.45
30
0
39
0
210
0
220
0
230
1
50
360
0
POINT
5
79
100
AcDbEntity
8
1
62
256
6
ByLayer
370
18
48
1
60
1
100
AcDbPoint
10
-36
20
-4
30
0
39
0
210
0
220
0
230
1
50
360
0
POINT
5
7A
100
AcDbEntity
8
1
62
256
6
ByLayer
370
18
48
1
60
1
100
AcDbPoint
10
53.9832
20
-3.45
30
0
39
0
210
0
220
0
230
1
50
360
0
SPLINE
5
B4
100
AcDbEntity
8
SK1
62
256
6
ByLayer
370
18
48
1
60
0
100
AcDbSpline
70
4
71
3
72
8
73
4
40
0
40
0
40
0
40
0
40
1
40
1
40
1
40
1
41
1
10
-35.5
20
-0.584114262701462
30
0
41
1
10
-35.6671095293969
20
-0.515306406701256
30
0
41
1
10
-35.8338592314218
20
-0.446361424969467
30
0
41
1
10
-36
20
-0.377184386282409
30
0
0
SPLINE
5
B5
100
AcDbEntity
8
SK1
62
256
6
ByLayer
370
18
48
1
60
0
100
AcDbSpline
70
4
71
3
72
12
73
8
40
0
40
0
40
0
40
0
40
0.250000000000001
40
0.250000000000001
40
0.500000000000001
40
0.500000000000001
40
1
40
1
40
1
40
1
41
1
10
-35.4
20
-0.725412356612964
30
0
41
1
10
-35.4
20
-0.708820764149806
30
0
41
1
10
-35.4042405317343
20
-0.69162336145888
30
0
41
1
10
-35.4170629445097
20
-0.660830341702109
30
0
41
1
10
-35.4255309618332
20
-0.647092257110728
30
0
41
1
10
-35.4538111153163
20
-0.611121870879799
30
0
41
1
10
-35.4764597265186
20
-0.593807041765274
30
0
41
1
10
-35.5
20
-0.584114262701377
30
0
0
SPLINE
5
B6
100
AcDbEntity
8
SK1
62
256
6
ByLayer
370
18
48
1
60
0
100
AcDbSpline
70
4
71
3
72
12
73
8
40
0
40
0
40
0
40
0
40
0.500000000000001
40
0.500000000000001
40
0.75
40
0.75
40
1
40
1
40
1
40
1
41
1
10
-35.5
20
-1.95842284049951
30
0
41
1
10
-35.4764535706458
20
-1.96811815426273
30
0
41
1
10
-35.4537583253671
20
-1.97091722626988
30
0
41
1
10
-35.4256589034923
20
-1.96260311070645
30
0
41
1
10
-35.4170915256394
20
-1.9575799616764
30
0
41
1
10
-35.4042768359918
20
-1.94167561527516
30
0
41
1
10
-35.4
20
-1.93041843404077
30
0
41
1
10
-35.4
20
-1.91647979070447
30
0
0
SPLINE
5
B7
100
AcDbEntity
8
SK1
62
256
6
ByLayer
370
18
48
1
60
0
100
AcDbSpline
70
4
71
3
72
8
73
4
40
0
40
0
40
0
40
0
40
1
40
1
40
1
40
1
41
1
10
-36
20
-1.75149296408031
30
0
41
1
10
-35.8338648220397
20
-1.82066767496792
30
0
41
1
10
-35.6671142650434
20
-1.88961303458237
30
0
41
1
10
-35.5
20
-1.9584228404994
30
0
0
SPLINE
5
B8
100
AcDbEntity
8
1
62
256
6
ByLayer
370
18
48
1
60
0
100
AcDbSpline
70
4
71
3
72
14
73
10
40
0
40
0
40
0
40
0
40
0.25
40
0.25
40
0.5
40
0.5
40
0.75
40
0.75
40
1
40
1
40
1
40
1
41
1
10
4.01289730374282
20
2.56058822973657
30
0
41
1
10
4.02107942646614
20
2.54884189179202
30
0
41
1
10
4.03331521439955
20
2.53582251747935
30
0
41
1
10
4.06582976963901
20
2.50808250452823
30
0
41
1
10
4.0860695558377
20
2.49346025243438
30
0
41
1
10
4.13081388024222
20
2.46506881729127
30
0
41
1
10
4.15533056173706
20
2.45126864031488
30
0
41
1
10
4.20388708975565
20
2.42637525805358
30
0
41
1
10
4.22820655703444
20
2.41510051982047
30
0
41
1
10
4.25156083600567
20
2.40519531134464
30
0
0
SPLINE
5
B9
100
AcDbEntity
8
1
62
256
6
ByLayer
370
18
48
1
60
0
100
AcDbSpline
70
4
71
3
72
8
73
4
40
0
40
0
40
0
40
0
40
1
40
1
40
1
40
1
41
1
10
54.9894550999684
20
0.117800710025079
30
0
41
1
10
54.9901470555093
20
0.0961075664250473
30
0
41
1
10
54.994128361081
20
0.0696485034802663
30
0
41
1
10
54.9999523589893
20
0.0417778468385279
30
0
0
SPLINE
5
BA
100
AcDbEntity
8
1
62
256
6
ByLayer
370
18
48
1
60
0
100
AcDbSpline
70
4
71
3
72
10
73
6
40
0
40
0
40
0
40
0
40
0.5
40
0.5
40
1
40
1
40
1
40
1
41
1
10
54.9999523589995
20
0.0417778468454344
30
0
41
1
10
54.9962233644316
20
0.0264352375527324
30
0
41
1
10
54.9911240057051
20
0.0099867195229706
30
0
41
1
10
54.9788254394779
20
-0.0212435709796353
30
0
41
1
10
54.9715892193754
20
-0.0360502717707902
30
0
41
1
10
54.9642589410652
20
-0.048062295870551
30
0
0
SPLINE
5
BB
100
AcDbEntity
8
1
62
256
6
ByLayer
370
18
48
1
60
0
100
AcDbSpline
70
4
71
3
72
8
73
4
40
0
40
0
40
0
40
0
40
1
40
1
40
1
40
1
41
1
10
53.9598935953935
20
3.35694443197906
30
0
41
1
10
53.8956206349826
20
3.40469275192916
30
0
41
1
10
53.8375208958532
20
3.43474842809883
30
0
41
1
10
53.7853873033744
20
3.44548593156156
30
0
0
SPLINE
5
BC
100
AcDbEntity
8
1
62
256
6
ByLayer
370
13
48
1
60
0
100
AcDbSpline
70
4
71
3
72
10
73
6
40
0
40
0
40
0
40
0
40
0.5
40
0.5
40
1
40
1
40
1
40
1
41
1
10
4.03450818808426
20
-2.21593526722137
30
0
41
1
10
4.04638119653512
20
-2.22315200443478
30
0
41
1
10
4.06154453364411
20
-2.22995416823693
30
0
41
1
10
4.09724204087297
20
-2.2417418403991
30
0
41
1
10
4.11755188467524
20
-2.2467347206732
30
0
41
1
10
4.14078656308419
20
-2.25069260297403
30
0
0
SPLINE
5
BD
100
AcDbEntity
8
1
62
256
6
ByLayer
370
18
48
1
60
0
100
AcDbSpline
70
4
71
3
72
8
73
4
40
0
40
0
40
0
40
0
40
1
40
1
40
1
40
1
41
1
10
53.7853873033745
20
3.44548593156151
30
0
41
1
10
53.6683646047678
20
3.44836424921701
30
0
41
1
10
53.551355316541
20
3.44975853727695
30
0
41
1
10
53.4343336484748
20
3.44967208716125
30
0
0
SPLINE
5
BE
100
AcDbEntity
8
1
62
256
6
ByLayer
370
18
48
1
60
0
100
AcDbSpline
70
4
71
3
72
42
73
38
40
0
40
0
40
0
40
0
40
0.0728503783749474
40
0.0728503783749474
40
0.105344197534608
40
0.105344197534608
40
0.137838016694268
40
0.137838016694268
40
0.202825655013589
40
0.202825655013589
40
0.267813293332909
40
0.267813293332909
40
0.30030711249257
40
0.30030711249257
40
0.332800931652231
40
0.332800931652231
40
0.397788569971552
40
0.397788569971552
40
0.462776208290872
40
0.462776208290872
40
0.592751484929514
40
0.592751484929514
40
0.625245304089174
40
0.625245304089174
40
0.657739123248834
40
0.657739123248834
40
0.722726761568154
40
0.722726761568154
40
0.852702038206795
40
0.852702038206795
40
0.885195857366455
40
0.885195857366455
40
0.917689676526115
40
0.917689676526115
40
0.982677314845435
40
0.982677314845435
40
1
40
1
40
1
40
1
41
1
10
33.7834742614423
20
-3.28067282293654
30
0
41
1
10
33.2078851838558
20
-3.36560465121792
30
0
41
1
10
32.6316528402154
20
-3.41664516425868
30
0
41
1
10
31.7924366947318
20
-3.43813465780269
30
0
41
1
10
31.5320952408397
20
-3.43755698938421
30
0
41
1
10
31.0124576541877
20
-3.4218592194664
30
0
41
1
10
30.7536232697941
20
-3.406800702656
30
0
41
1
10
29.9791907400035
20
-3.34062785406024
30
0
41
1
10
29.4656542188379
20
-3.26848229100963
30
0
41
1
10
28.4389502835783
20
-3.07205658808653
30
0
41
1
10
27.9258753430778
20
-2.94770213880668
30
0
41
1
10
27.1528338314083
20
-2.72540579329535
30
0
41
1
10
26.8946026655001
20
-2.64532843383643
30
0
41
1
10
26.3764033438304
20
-2.47383160858769
30
0
41
1
10
26.1158847238476
20
-2.38222235023233
30
0
41
1
10
25.3358206002168
20
-2.09347748225076
30
0
41
1
10
24.8175693713767
20
-1.88214716511146
30
0
41
1
10
23.7791270163491
20
-1.4311311076367
30
0
41
1
10
23.2573487381382
20
-1.19052337148781
30
0
41
1
10
21.70586079716
20
-0.451132712818065
30
0
41
1
10
20.6834876120527
20
0.0674237846705807
30
0
41
1
10
19.3954973989431
20
0.696022844700479
30
0
41
1
10
19.1374464308196
20
0.820862589367749
30
0
41
1
10
18.6197141298855
20
1.06728238893899
30
0
41
1
10
18.3594604449865
20
1.18907522402296
30
0
41
1
10
17.5792152786201
20
1.54582153144349
30
0
41
1
10
17.0632125788106
20
1.7707857095875
30
0
41
1
10
15.5195402907625
20
2.39383318988479
30
0
41
1
10
14.4968217101089
20
2.74091530105218
30
0
41
1
10
13.2013548150222
20
3.05258811987619
30
0
41
1
10
12.9408874236517
20
3.10893658489408
30
0
41
1
10
12.4204878340953
20
3.20804435086973
30
0
41
1
10
12.1607295942922
20
3.2508079182661
30
0
41
1
10
11.3818599687291
20
3.35824629926356
30
0
41
1
10
10.8631114510049
20
3.40202246021067
30
0
41
1
10
10.2034760381414
20
3.42077232647949
30
0
41
1
10
10.0648100269689
20
3.42264791999906
30
0
41
1
10
9.92637172933104
20
3.42247326435489
30
0
0
SPLINE
5
BF
100
AcDbEntity
8
1
62
256
6
ByLayer
370
18
48
1
60
0
100
AcDbSpline
70
4
71
3
72
36
73
32
40
0
40
0
40
0
40
0
40
0.24999999999998
40
0.24999999999998
40
0.312499999999977
40
0.312499999999977
40
0.374999999999973
40
0.374999999999973
40
0.499999999999974
40
0.499999999999974
40
0.562499999999978
40
0.562499999999978
40
0.624999999999982
40
0.624999999999982
40
0.74999999999999
40
0.74999999999999
40
0.812499999999994
40
0.812499999999994
40
0.843749999999996
40
0.843749999999996
40
0.851562499999997
40
0.851562499999997
40
0.859374999999997
40
0.859374999999997
40
0.867187499999998
40
0.867187499999998
40
0.871093749999998
40
0.871093749999998
40
0.874999999999998
40
0.874999999999998
40
1
40
1
40
1
40
1
41
1
10
50.5587376243797
20
1.09872280413344
30
0
41
1
10
50.8397388976889
20
0.871628668667228
30
0
41
1
10
51.1330036310717
20
0.675255907926555
30
0
41
1
10
51.5158999150966
20
0.47066182427821
30
0
41
1
10
51.5933069635158
20
0.431865204446638
30
0
41
1
10
51.7480024861153
20
0.359708476080982
30
0
41
1
10
51.825517545519
20
0.326207083388852
30
0
41
1
10
52.0585690239942
20
0.233501686731501
30
0
41
1
10
52.214609497851
20
0.18206187602172
30
0
41
1
10
52.449761851856
20
0.1217172546109
30
0
41
1
10
52.5283286582303
20
0.104416415852256
30
0
41
1
10
52.6858568710061
20
0.0758929484025828
30
0
41
1
10
52.7650734514052
20
0.0646454512197181
30
0
41
1
10
53.0011098109414
20
0.0412817569254855
30
0
41
1
10
53.1562751974137
20
0.0393481845597989
30
0
41
1
10
53.385085955995
20
0.0609502188696638
30
0
41
1
10
53.4606725643123
20
0.0722450810943656
30
0
41
1
10
53.5719721434327
20
0.0956966834013997
30
0
41
1
10
53.6087668892026
20
0.104606942180851
30
0
41
1
10
53.6542735067438
20
0.117147771494416
30
0
41
1
10
53.6633497474886
20
0.11972583915437
30
0
41
1
10
53.6814515730298
20
0.125023144806221
30
0
41
1
10
53.6906691697904
20
0.127727548177575
30
0
41
1
10
53.7060025370863
20
0.138673626072347
30
0
41
1
10
53.7125756434951
20
0.146796877919996
30
0
41
1
10
53.7165778298109
20
0.162656664024013
30
0
41
1
10
53.7169623829291
20
0.16829625717736
30
0
41
1
10
53.7177852517169
20
0.179555456246618
30
0
41
1
10
53.7182483641674
20
0.185165843493877
30
0
41
1
10
53.732161243241
20
0.370817883329835
30
0
41
1
10
53.7302367561891
20
0.555793101805222
30
0
41
1
10
53.7178553693883
20
0.740941020009956
30
0
0
SPLINE
5
C0
100
AcDbEntity
8
1
62
256
6
ByLayer
370
18
48
1
60
0
100
AcDbSpline
70
4
71
3
72
16
73
12
40
0
40
0
40
0
40
0
40
0.270228215983452
40
0.270228215983452
40
0.405342323975178
40
0.405342323975178
40
0.540456431966904
40
0.540456431966904
40
0.810684647950356
40
0.810684647950356
40
1
40
1
40
1
40
1
41
1
10
53.5639813587439
20
-2.58571588427654
30
0
41
1
10
53.5637371810119
20
-2.70181310294331
30
0
41
1
10
53.5688127316159
20
-2.80387260195096
30
0
41
1
10
53.5846275993411
20
-2.93631037015391
30
0
41
1
10
53.5912762692021
20
-2.9769953627721
30
0
41
1
10
53.6074924808934
20
-3.05127810697718
30
0
41
1
10
53.617028196834
20
-3.08463205497142
30
0
41
1
10
53.6495740225702
20
-3.17228199392287
30
0
41
1
10
53.6766201378408
20
-3.21488212804053
30
0
41
1
10
53.7323507213383
20
-3.26110964214684
30
0
41
1
10
53.7582393384956
20
-3.27248921730745
30
0
41
1
10
53.7868545011048
20
-3.27612893043178
30
0
0
SPLINE
5
C1
100
AcDbEntity
8
1
62
256
6
ByLayer
370
13
48
1
60
0
100
AcDbSpline
70
4
71
3
72
8
73
4
40
0
40
0
40
0
40
0
40
1
40
1
40
1
40
1
41
1
10
4.14078656308419
20
-2.25069260297403
30
0
41
1
10
4.16165373967141
20
-2.25145407029388
30
0
41
1
10
4.18393511014551
20
-2.25601190392464
30
0
41
1
10
4.20670627960749
20
-2.26413059975653
30
0
0
SPLINE
5
C2
100
AcDbEntity
8
1
62
256
6
ByLayer
370
18
48
1
60
0
100
AcDbSpline
70
4
71
3
72
80
73
76
40
0
40
0
40
0
40
0
40
0.0213461014930891
40
0.0213461014930891
40
0.0466676850484912
40
0.0466676850484912
40
0.0719892686038933
40
0.0719892686038933
40
0.0973108521592955
40
0.0973108521592955
40
0.122632435714698
40
0.122632435714698
40
0.1479540192701
40
0.1479540192701
40
0.198597186380903
40
0.198597186380903
40
0.223918769936305
40
0.223918769936305
40
0.249240353491707
40
0.249240353491707
40
0.274561937047109
40
0.274561937047109
40
0.299883520602511
40
0.299883520602511
40
0.325205104157913
40
0.325205104157913
40
0.350526687713316
40
0.350526687713316
40
0.375848271268718
40
0.375848271268718
40
0.40116985482412
40
0.40116985482412
40
0.426491438379522
40
0.426491438379522
40
0.451813021934924
40
0.451813021934924
40
0.502456189045728
40
0.502456189045728
40
0.52777777260113
40
0.52777777260113
40
0.553099356156532
40
0.553099356156532
40
0.578420939711935
40
0.578420939711935
40
0.603742523267337
40
0.603742523267337
40
0.629064106822739
40
0.629064106822739
40
0.654385690378141
40
0.654385690378141
40
0.679707273933543
40
0.679707273933543
40
0.705028857488945
40
0.705028857488945
40
0.730350441044347
40
0.730350441044347
40
0.75567202459975
40
0.75567202459975
40
0.780993608155152
40
0.780993608155152
40
0.806315191710554
40
0.806315191710554
40
0.856958358821357
40
0.856958358821357
40
0.882279942376759
40
0.882279942376759
40
0.907601525932161
40
0.907601525932161
40
0.932923109487563
40
0.932923109487563
40
0.958244693042965
40
0.958244693042965
40
0.983566276598367
40
0.983566276598367
40
1
40
1
40
1
40
1
41
1
10
25.2530072635696
20
2.45842934783883
30
0
41
1
10
25.4465595457499
20
2.52517307888195
30
0
41
1
10
25.6405754890466
20
2.58919908309394
30
0
41
1
10
26.0654676636248
20
2.72352617754632
30
0
41
1
10
26.2957052629455
20
2.7924737744049
30
0
41
1
10
26.7563536689063
20
2.91924818869106
30
0
41
1
10
26.9866916259028
20
2.97760523372412
30
0
41
1
10
27.4469197995746
20
3.08479472619348
30
0
41
1
10
27.676474753912
20
3.13386645870764
30
0
41
1
10
28.1366792066037
20
3.22090327488431
30
0
41
1
10
28.3675688028154
20
3.25892999415959
30
0
41
1
10
28.8292909171001
20
3.32424672284409
30
0
41
1
10
29.0591780720881
20
3.35145447835092
30
0
41
1
10
29.7460583872995
20
3.41649590597621
30
0
41
1
10
30.2033106057335
20
3.43691852737331
30
0
41
1
10
30.88609454803
20
3.43451786654552
30
0
41
1
10
31.1132417450207
20
3.42805404721531
30
0
41
1
10
31.5686478321803
20
3.40419022767392
30
0
41
1
10
31.7966130429131
20
3.38680674861192
30
0
41
1
10
32.2526586995346
20
3.34095934128777
30
0
41
1
10
32.4804086140558
20
3.31226664618424
30
0
41
1
10
32.937527009745
20
3.2442402322497
30
0
41
1
10
33.1669479604146
20
3.2050332559555
30
0
41
1
10
33.6270289003603
20
3.1158833943642
30
0
41
1
10
33.8581295278545
20
3.06567947335566
30
0
41
1
10
34.3178316109658
20
2.95499117787753
30
0
41
1
10
34.547229513103
20
2.89512718538873
30
0
41
1
10
35.0052510441875
20
2.7668466196485
30
0
41
1
10
35.2338073942144
20
2.69836250580877
30
0
41
1
10
35.6894777976069
20
2.5519749834281
30
0
41
1
10
35.9166819254904
20
2.47413269069366
30
0
41
1
10
36.3719383602659
20
2.31226813522144
30
0
41
1
10
36.5996788724209
20
2.22784066313844
30
0
41
1
10
37.0549411075183
20
2.05130555428889
30
0
41
1
10
37.2821369216601
20
1.95861143551662
30
0
41
1
10
37.9657201318574
20
1.67262151035067
30
0
41
1
10
38.4239848817234
20
1.47163669192369
30
0
41
1
10
39.1135295896552
20
1.15058461553951
30
0
41
1
10
39.3445882558905
20
1.04171101394874
30
0
41
1
10
39.8044663719463
20
0.822710799111093
30
0
41
1
10
40.0337907504274
20
0.712191133624145
30
0
41
1
10
40.4906122025815
20
0.487867764752707
30
0
41
1
10
40.7182784887937
20
0.374420085618482
30
0
41
1
10
41.174061695607
20
0.14896652303841
30
0
41
1
10
41.4018910015928
20
0.0363614383734614
30
0
41
1
10
41.8570215215352
20
-0.1894409082891
30
0
41
1
10
42.0839851594325
20
-0.303330171557008
30
0
41
1
10
42.5389226294532
20
-0.528525128210163
30
0
41
1
10
42.7669323270854
20
-0.639761340830063
30
0
41
1
10
43.223535877468
20
-0.860535158487494
30
0
41
1
10
43.4520247360205
20
-0.970286206770453
30
0
41
1
10
43.9096387956687
20
-1.1879617314508
30
0
41
1
10
44.1393617304974
20
-1.29467081818746
30
0
41
1
10
44.6007384077687
20
-1.50363484315207
30
0
41
1
10
44.8313348684004
20
-1.60558685831526
30
0
41
1
10
45.2897910652166
20
-1.8045348279598
30
0
41
1
10
45.5180677060744
20
-1.9014201346726
30
0
41
1
10
45.9747976850652
20
-2.08651673097458
30
0
41
1
10
46.2029441544574
20
-2.17531720890779
30
0
41
1
10
46.6583669091872
20
-2.34619435898682
30
0
41
1
10
46.885313092606
20
-2.42872010667961
30
0
41
1
10
47.5672153628033
20
-2.66246546901684
30
0
41
1
10
48.0230684691148
20
-2.80054712619847
30
0
41
1
10
48.7069472227077
20
-2.98272823365204
30
0
41
1
10
48.9356777689396
20
-3.03839468957878
30
0
41
1
10
49.3947464060202
20
-3.13964704217844
30
0
41
1
10
49.625374136532
20
-3.18537969122701
30
0
41
1
10
50.0859622742221
20
-3.26677951385315
30
0
41
1
10
50.3151531735704
20
-3.30208568910211
30
0
41
1
10
50.7732773517041
20
-3.3610034368497
30
0
41
1
10
51.0019276946686
20
-3.3848557503747
30
0
41
1
10
51.4580177719428
20
-3.42166194900844
30
0
41
1
10
51.6851178324121
20
-3.43463831305274
30
0
41
1
10
52.0598884257461
20
-3.44662872080042
30
0
41
1
10
52.2074708901054
20
-3.44898275326341
30
0
41
1
10
52.3550688151732
20
-3.44900035047928
30
0
0
SPLINE
5
C3
100
AcDbEntity
8
1
62
256
6
ByLayer
370
18
48
1
60
0
100
AcDbSpline
70
4
71
3
72
8
73
4
40
0
40
0
40
0
40
0
40
1
40
1
40
1
40
1
41
1
10
54.9554078263057
20
0.800006002428972
30
0
41
1
10
54.9708612477009
20
0.57233362732012
30
0
41
1
10
54.9822101994962
20
0.344931872378254
30
0
41
1
10
54.9894550999684
20
0.117800710025051
30
0
0
SPLINE
5
C4
100
AcDbEntity
8
1
62
256
6
ByLayer
370
18
48
1
60
0
100
AcDbSpline
70
4
71
3
72
8
73
4
40
0
40
0
40
0
40
0
40
1
40
1
40
1
40
1
41
1
10
53.8151954470859
20
-3.37118587598846
30
0
41
1
10
53.8052712960365
20
-3.39597352536714
30
0
41
1
10
53.7953348939633
20
-3.42074058842817
30
0
41
1
10
53.7853873033744
20
-3.44548593156151
30
0
0
SPLINE
5
C5
100
AcDbEntity
8
1
62
256
6
ByLayer
370
18
48
1
60
0
100
AcDbSpline
70
4
71
3
72
8
73
4
40
0
40
0
40
0
40
0
40
1
40
1
40
1
40
1
41
1
10
53.9598935953939
20
-3.35694443197875
30
0
41
1
10
53.8956206349829
20
-3.40469275192905
30
0
41
1
10
53.8375208958533
20
-3.4347484280988
30
0
41
1
10
53.7853873033745
20
-3.44548593156156
30
0
0
SPLINE
5
C6
100
AcDbEntity
8
1
62
256
6
ByLayer
370
18
48
1
60
0
100
AcDbSpline
70
4
71
3
72
37
73
33
40
0
40
0
40
0
40
0
40
0.0015152502886011
40
0.0015152502886011
40
0.0285839847004509
40
0.0285839847004509
40
0.0556527191123006
40
0.0556527191123006
40
0.109790187935998
40
0.109790187935998
40
0.163927656759696
40
0.163927656759696
40
0.218065125583394
40
0.218065125583394
40
0.221448717384875
40
0.221448717384875
40
0.224832309186355
40
0.224832309186355
40
0.231599492789317
40
0.231599492789317
40
0.238366676392279
40
0.238366676392279
40
0.245133859995241
40
0.272202594407083
40
0.272202594407083
40
0.380477532054448
40
0.380477532054448
40
0.597027407349177
40
0.597027407349177
40
0.813577282643905
40
0.813577282643905
40
1
40
1
40
1
40
1
41
1
10
2.07862287861576
20
-3.41701079113136
30
0
41
1
10
2.08007143898524
20
-3.41695232619938
30
0
41
1
10
2.08153703667793
20
-3.41688922788359
30
0
41
1
10
2.10949985493105
20
-3.41561255989237
30
0
41
1
10
2.14167320257636
20
-3.41295781244474
30
0
41
1
10
2.21425009201073
20
-3.40556410602923
30
0
41
1
10
2.25417749267453
20
-3.4008854035329
30
0
41
1
10
2.38226990304736
20
-3.38484447072179
30
0
41
1
10
2.47933913411671
20
-3.37141641733567
30
0
41
1
10
2.68392409092903
20
-3.34259442053374
30
0
41
1
10
2.79143808491892
20
-3.32717634105691
30
0
41
1
10
3.01362217658843
20
-3.29561716269742
30
0
41
1
10
3.12803508038385
20
-3.27950354038634
30
0
41
1
10
3.25163254498292
20
-3.26249165983217
30
0
41
1
10
3.25894712371508
20
-3.26151213522354
30
0
41
1
10
3.27434130236648
20
-3.26001062565823
30
0
41
1
10
3.2822394530404
20
-3.25942802410884
30
0
41
1
10
3.30563335681575
20
-3.25810012696289
30
0
41
1
10
3.32117749552424
20
-3.25771969473422
30
0
41
1
10
3.35218505873354
20
-3.25775446408932
30
0
41
1
10
3.36765100215715
20
-3.25814379587831
30
0
41
1
10
3.39860155271529
20
-3.25873797011448
30
0
41
1
10
3.47597465681528
20
-3.26025361913654
30
0
41
1
10
3.55333142126463
20
-3.26191895022203
30
0
41
1
10
3.86270643148123
20
-3.26903868049681
30
0
41
1
10
4.10963845001223
20
-3.27620383107595
30
0
41
1
10
4.84856519396163
20
-3.3010109245694
30
0
41
1
10
5.33911906430657
20
-3.32210289712742
30
0
41
1
10
6.30694341083586
20
-3.36412063332767
30
0
41
1
10
6.78534446670412
20
-3.38499473452509
30
0
41
1
10
7.66658727637946
20
-3.41287430085089
30
0
41
1
10
8.07068248758165
20
-3.42133895599818
30
0
41
1
10
8.47195773982969
20
-3.42156831269841
30
0
0
SPLINE
5
C7
100
AcDbEntity
8
1
62
256
6
ByLayer
370
18
48
1
60
0
100
AcDbSpline
70
4
71
3
72
8
73
4
40
0
40
0
40
0
40
0
40
1
40
1
40
1
40
1
41
1
10
54.0385050773397
20
-1.66589712483835
30
0
41
1
10
53.8762718912697
20
-1.9688157348576
30
0
41
1
10
53.7180821500889
20
-2.27540820612018
30
0
41
1
10
53.5639813587439
20
-2.58571588427657
30
0
0
SPLINE
5
C8
100
AcDbEntity
8
1
62
256
6
ByLayer
370
18
48
1
60
0
100
AcDbSpline
70
4
71
3
72
14
73
10
40
0
40
0
40
0
40
0
40
0.25
40
0.25
40
0.5
40
0.5
40
0.75
40
0.75
40
1
40
1
40
1
40
1
41
1
10
53.8250229340131
20
-3.27654837120014
30
0
41
1
10
53.8283005239868
20
-3.27623130364248
30
0
41
1
10
53.8309196936607
20
-3.27762719092183
30
0
41
1
10
53.8344420046545
20
-3.28485436426294
30
0
41
1
10
53.8352898303369
20
-3.29078062268428
30
0
41
1
10
53.8341191648137
20
-3.30798483035045
30
0
41
1
10
53.8320441324595
20
-3.31921936513928
30
0
41
1
10
53.8251819707618
20
-3.34433587784849
30
0
41
1
10
53.8204378239401
20
-3.35809193991992
30
0
41
1
10
53.8151954470859
20
-3.37118587598832
30
0
0
SPLINE
5
C9
100
AcDbEntity
8
1
62
256
6
ByLayer
370
18
48
1
60
0
100
AcDbSpline
70
4
71
3
72
8
73
4
40
0
40
0
40
0
40
0
40
1
40
1
40
1
40
1
41
1
10
4.0345081880871
20
-2.21593526722114
30
0
41
1
10
4.02048020638262
20
-2.19775926691781
30
0
41
1
10
4.01244529608985
20
-2.17711056899049
30
0
41
1
10
4.01244940173029
20
-2.1555977783018
30
0
0
SPLINE
5
CA
100
AcDbEntity
8
1
62
256
6
ByLayer
370
18
48
1
60
0
100
AcDbSpline
70
4
71
3
72
8
73
4
40
0
40
0
40
0
40
0
40
1
40
1
40
1
40
1
41
1
10
54.9999523589931
20
0.0417778468259939
30
0
41
1
10
55.0000158842066
20
0.0139242515303977
30
0
41
1
10
55.000015874305
20
-0.0139285930136737
30
0
41
1
10
54.9999523589932
20
-0.0417778468048482
30
0
0
SPLINE
5
CB
100
AcDbEntity
8
1
62
256
6
ByLayer
370
13
48
1
60
0
100
AcDbSpline
70
4
71
3
72
10
73
6
40
0
40
0
40
0
40
0
40
0.5
40
0.5
40
1
40
1
40
1
40
1
41
1
10
4.01244940172558
20
-2.15559777830453
30
0
41
1
10
4.02249861511234
20
-2.1496965669094
30
0
41
1
10
4.03819253998057
20
-2.14398252538589
30
0
41
1
10
4.08181016473347
20
-2.13342501296742
30
0
41
1
10
4.10867507730094
20
-2.12884612982404
30
0
41
1
10
4.14078656308419
20
-2.1254477546473
30
0
0
SPLINE
5
CC
100
AcDbEntity
8
1
62
256
6
ByLayer
370
18
48
1
60
0
100
AcDbSpline
70
4
71
3
72
54
73
50
40
0
40
0
40
0
40
0
40
0.0832327616817621
40
0.0832327616817621
40
0.124849142522643
40
0.124849142522643
40
0.166465523363524
40
0.166465523363524
40
0.208081904204405
40
0.208081904204405
40
0.249698285045286
40
0.249698285045286
40
0.291314665886167
40
0.291314665886167
40
0.332931046727048
40
0.332931046727048
40
0.37454742756793
40
0.37454742756793
40
0.416163808408811
40
0.416163808408811
40
0.457780189249692
40
0.457780189249692
40
0.499396570090573
40
0.499396570090573
40
0.541012950931454
40
0.541012950931454
40
0.582629331772335
40
0.582629331772335
40
0.624245712613216
40
0.624245712613216
40
0.665862093454097
40
0.665862093454097
40
0.707478474294978
40
0.707478474294978
40
0.749094855135859
40
0.749094855135859
40
0.79071123597674
40
0.79071123597674
40
0.832327616817621
40
0.832327616817621
40
0.873943997658503
40
0.873943997658503
40
0.915560378499383
40
0.915560378499383
40
0.957176759340265
40
0.957176759340265
40
0.998793140181146
40
0.998793140181146
40
1
40
1
40
1
40
1
41
1
10
10.05220714533
20
-0.296206599424124
30
0
41
1
10
10.4773761471412
20
-0.495248331066733
30
0
41
1
10
10.9014832005669
20
-0.691062323196888
30
0
41
1
10
11.5369081461211
20
-0.978877903629893
30
0
41
1
10
11.7485729342062
20
-1.07386900635407
30
0
41
1
10
12.1725466533453
20
-1.25982857516701
30
0
41
1
10
12.3847979839544
20
-1.35090997026833
30
0
41
1
10
12.8097229032115
20
-1.52970452674543
30
0
41
1
10
13.0222756818696
20
-1.61747810421951
30
0
41
1
10
13.4463810839196
20
-1.7880880071402
30
0
41
1
10
13.6583549860612
20
-1.87052956713632
30
0
41
1
10
14.0822397046014
20
-2.02962336777463
30
0
41
1
10
14.2941169474036
20
-2.10643199684793
30
0
41
1
10
14.7178440031784
20
-2.25467188279399
30
0
41
1
10
14.9296411640655
20
-2.32609092646717
30
0
41
1
10
15.3541462151176
20
-2.46139423373552
30
0
41
1
10
15.5670568799854
20
-2.52549673787542
30
0
41
1
10
15.9912214686448
20
-2.64691378280782
30
0
41
1
10
16.20266323573
20
-2.70433898471003
30
0
41
1
10
16.6242176780322
20
-2.81002221749398
30
0
41
1
10
16.8346736390578
20
-2.85844857671134
30
0
41
1
10
17.2552341708806
20
-2.94769451580584
30
0
41
1
10
17.4653136363008
20
-2.9888873784156
30
0
41
1
10
17.8849083460157
20
-3.06285662204655
30
0
41
1
10
18.0943204242275
20
-3.09491271816731
30
0
41
1
10
18.5136329707145
20
-3.15050732458519
30
0
41
1
10
18.7234814753976
20
-3.17402297689637
30
0
41
1
10
19.1433887028402
20
-3.21366916824374
30
0
41
1
10
19.3534138670124
20
-3.22932734636657
30
0
41
1
10
19.7739220495021
20
-3.24982867953668
30
0
41
1
10
19.9846531365238
20
-3.25541139300725
30
0
41
1
10
20.4072197883681
20
-3.25851846808385
30
0
41
1
10
20.6189349188974
20
-3.25656757841764
30
0
41
1
10
21.043505034256
20
-3.24199111016401
30
0
41
1
10
21.2556891913567
20
-3.22880198032047
30
0
41
1
10
21.6786461286916
20
-3.1947709723014
30
0
41
1
10
21.8897972121673
20
-3.17371354959576
30
0
41
1
10
22.3113520406045
20
-3.12432834404316
30
0
41
1
10
22.5215867869838
20
-3.0949273223861
30
0
41
1
10
22.9411450845855
20
-3.02601146626807
30
0
41
1
10
23.1508014830665
20
-2.9875638332357
30
0
41
1
10
23.5702156481098
20
-2.90349219398772
30
0
41
1
10
23.7799102111832
20
-2.85825148602476
30
0
41
1
10
24.1990910468527
20
-2.75825982668806
30
0
41
1
10
24.4085435409134
20
-2.70345004427514
30
0
41
1
10
24.8282060724011
20
-2.58761020877691
30
0
41
1
10
25.038432480335
20
-2.5265085356433
30
0
41
1
10
25.2550635741426
20
-2.46033651901018
30
0
41
1
10
25.26116900918
20
-2.45846823723087
30
0
41
1
10
25.2672747078306
20
-2.45659655914272
30
0
0
SPLINE
5
CD
100
AcDbEntity
8
1
62
256
6
ByLayer
370
18
48
1
60
0
100
AcDbSpline
70
4
71
3
72
32
73
28
40
0
40
0
40
0
40
0
40
0.0207170252509629
40
0.0207170252509629
40
0.0960464848470412
40
0.0960464848470412
40
0.17137594444312
40
0.17137594444312
40
0.246705404039199
40
0.246705404039199
40
0.322034863635278
40
0.322034863635278
40
0.397364323231357
40
0.397364323231357
40
0.472693782827436
40
0.472693782827436
40
0.548023242423514
40
0.548023242423514
40
0.698682161615676
40
0.698682161615676
40
0.774011621211757
40
0.774011621211757
40
0.849341080807838
40
0.849341080807838
40
0.924670540403919
40
0.924670540403919
40
1
40
1
40
1
40
1
41
1
10
42.1621627709319
20
3.26876757494418
30
0
41
1
10
42.2200930739856
20
3.26837896853789
30
0
41
1
10
42.2780679099082
20
3.26762650910882
30
0
41
1
10
42.5471058566581
20
3.26235460270181
30
0
41
1
10
42.7587692823192
20
3.25343466330833
30
0
41
1
10
43.1832066859825
20
3.22727410875314
30
0
41
1
10
43.3954703730544
20
3.21032909718608
30
0
41
1
10
43.8189730713502
20
3.16721380334536
30
0
41
1
10
44.0305619537965
20
3.14055625217341
30
0
41
1
10
44.4537800624698
20
3.0781252810502
30
0
41
1
10
44.6653439335106
20
3.04241260450263
30
0
41
1
10
45.0884856310398
20
2.96242780194066
30
0
41
1
10
45.3000142500721
20
2.91804307302661
30
0
41
1
10
45.72407358899
20
2.82186772682167
30
0
41
1
10
45.9366667421145
20
2.77004029191943
30
0
41
1
10
46.3600570290879
20
2.6597327009793
30
0
41
1
10
46.5711121288261
20
2.60104355350632
30
0
41
1
10
47.2024685577648
20
2.41307751905782
30
0
41
1
10
47.6221240625663
20
2.27402345112111
30
0
41
1
10
48.2504172900152
20
2.04794693687916
30
0
41
1
10
48.4595402969335
20
1.96927479040229
30
0
41
1
10
48.8782746088132
20
1.80735235101591
30
0
41
1
10
49.0878421944645
20
1.72412247318465
30
0
41
1
10
49.507241506591
20
1.55314893900069
30
0
41
1
10
49.7170620569426
20
1.4653098825811
30
0
41
1
10
50.1371660470496
20
1.28472138070728
30
0
41
1
10
50.3476466274142
20
1.19239311718053
30
0
41
1
10
50.5587376243797
20
1.09872280413333
30
0
0
SPLINE
5
CE
100
AcDbEntity
8
1
62
256
6
ByLayer
370
13
48
1
60
0
100
AcDbSpline
70
4
71
3
72
8
73
4
40
0
40
0
40
0
40
0
40
1
40
1
40
1
40
1
41
1
10
4.13923253985115
20
-2.28923572164251
30
0
41
1
10
4.1397479312092
20
-2.27639033567021
30
0
41
1
10
4.14026593972392
20
-2.2635426459567
30
0
41
1
10
4.14078656308419
20
-2.25069260297403
30
0
0
SPLINE
5
CF
100
AcDbEntity
8
1
62
256
6
ByLayer
370
13
48
1
60
0
100
AcDbSpline
70
4
71
3
72
18
73
14
40
0
40
0
40
0
40
0
40
0.105999583099142
40
0.105999583099142
40
0.211999166198285
40
0.211999166198285
40
0.423998332396569
40
0.423998332396569
40
0.847996664793138
40
0.847996664793138
40
0.95399624789228
40
0.95399624789228
40
1
40
1
40
1
40
1
41
1
10
4.20670627960743
20
-2.26413059975653
30
0
41
1
10
4.46751602633924
20
-2.35711813854957
30
0
41
1
10
4.72820963749871
20
-2.44509703522002
30
0
41
1
10
5.24990787801974
20
-2.61039431701474
30
0
41
1
10
5.51059730458348
20
-2.68758869095075
30
0
41
1
10
6.28899333626407
20
-2.90081985700962
30
0
41
1
10
6.80459510811056
20
-3.01904097973642
30
0
41
1
10
8.34899320738907
20
-3.29538599072165
30
0
41
1
10
9.37493492563925
20
-3.37540689556522
30
0
41
1
10
10.6769061333185
20
-3.3324496773468
30
0
41
1
10
10.9378229639499
20
-3.31670516265072
30
0
41
1
10
11.3098543760987
20
-3.28429817911862
30
0
41
1
10
11.4222929928949
20
-3.27319603995665
30
0
41
1
10
11.5346006365184
20
-3.2608204951068
30
0
0
SPLINE
5
D0
100
AcDbEntity
8
1
62
256
6
ByLayer
370
18
48
1
60
0
100
AcDbSpline
70
4
71
3
72
16
73
12
40
0
40
0
40
0
40
0
40
0.325856517857408
40
0.325856517857408
40
0.454755524943937
40
0.454755524943937
40
0.583654532030464
40
0.583654532030464
40
0.841452546203521
40
0.841452546203521
40
1
40
1
40
1
40
1
41
1
10
42.5656183788063
20
-0.0025712778669345
30
0
41
1
10
43.2137918301684
20
-0.318019783586266
30
0
41
1
10
43.8613461970485
20
-0.633214631977012
30
0
41
1
10
44.7709005967756
20
-1.05854208030041
30
0
41
1
10
45.0293548930424
20
-1.17749528545193
30
0
41
1
10
45.5481607467436
20
-1.41090826664066
30
0
41
1
10
45.8091790793712
20
-1.52564005448807
30
0
41
1
10
46.5878848802287
20
-1.85760635956836
30
0
41
1
10
47.1031210201376
20
-2.06321078384903
30
0
41
1
10
47.9326145433412
20
-2.36449596859481
30
0
41
1
10
48.2479044014427
20
-2.47199119302053
30
0
41
1
10
48.56315637623
20
-2.5715110299067
30
0
0
SPLINE
5
D1
100
AcDbEntity
8
1
62
256
6
ByLayer
370
13
48
1
60
0
100
AcDbSpline
70
4
71
3
72
14
73
10
40
0
40
0
40
0
40
0
40
0.40915691607338
40
0.40915691607338
40
0.556867687055036
40
0.556867687055036
40
0.70457845803669
40
0.70457845803669
40
1
40
1
40
1
40
1
41
1
10
48.5631563762374
20
-2.571511029909
30
0
41
1
10
49.2731032440431
20
-2.79562951966454
30
0
41
1
10
49.9828579867826
20
-2.97930086563267
30
0
41
1
10
50.9571241422758
20
-3.16274414856997
30
0
41
1
10
51.2163948508448
20
-3.20502686968169
30
0
41
1
10
51.7371730797747
20
-3.27617553915766
30
0
41
1
10
51.9973507964447
20
-3.30487046201651
30
0
41
1
10
52.7766612218395
20
-3.36978347650367
30
0
41
1
10
53.295292316629
20
-3.38489137556925
30
0
41
1
10
53.8151954470854
20
-3.37118587598835
30
0
0
SPLINE
5
D2
100
AcDbEntity
8
1
62
256
6
ByLayer
370
18
48
1
60
0
100
AcDbSpline
70
4
71
3
72
29
73
25
40
0
40
0
40
0
40
0
40
0.125
40
0.125
40
0.25
40
0.25
40
0.3125
40
0.3125
40
0.375
40
0.4375
40
0.4375
40
0.5
40
0.5
40
0.625
40
0.625
40
0.6875
40
0.6875
40
0.75
40
0.75
40
0.875
40
0.875
40
0.9375
40
0.9375
40
1
40
1
40
1
40
1
41
1
10
4.01244940173027
20
-2.15559777829375
30
0
41
1
10
4.01248185885311
20
-1.98552850327999
30
0
41
1
10
4.01251241525551
20
-1.80150539447078
30
0
41
1
10
4.01256913958611
20
-1.41763112684131
30
0
41
1
10
4.01259549168287
20
-1.21703208203894
30
0
41
1
10
4.01263296004419
20
-0.902845185166001
30
0
41
1
10
4.01264500767419
20
-0.796661847795605
30
0
41
1
10
4.01266813402918
20
-0.583814376952631
30
0
41
1
10
4.01269037835178
20
-0.369759067846559
30
0
41
1
10
4.01271116693837
20
-0.153314963640184
30
0
41
1
10
4.01273134416121
20
0.0643428412974174
30
0
41
1
10
4.01274117767346
20
0.174376175495723
30
0
41
1
10
4.01276943489816
20
0.501115972674711
30
0
41
1
10
4.01278664955953
20
0.714351981081677
30
0
41
1
10
4.01281045446834
20
1.02748607918869
30
0
41
1
10
4.01281804677086
20
1.13073652272394
30
0
41
1
10
4.01283253825434
20
1.33491609288353
30
0
41
1
10
4.01283939924417
20
1.43534814208687
30
0
41
1
10
4.01285848673984
20
1.7269187244263
30
0
41
1
10
4.01286938668187
20
1.91036433217957
30
0
41
1
10
4.0128825743688
20
2.16911276751051
30
0
41
1
10
4.01288645169279
20
2.25301391867276
30
0
41
1
10
4.01289289214992
20
2.41294110381762
30
0
41
1
10
4.01289545278547
20
2.48877359450265
30
0
41
1
10
4.01289730374268
20
2.5605882297366
30
0
0
SPLINE
5
D3
100
AcDbEntity
8
1
62
256
6
ByLayer
370
18
48
1
60
0
100
AcDbSpline
70
4
71
3
72
16
73
12
40
0
40
0
40
0
40
0
40
0.125000000000001
40
0.125000000000001
40
0.250000000000002
40
0.250000000000002
40
0.500000000000001
40
0.500000000000001
40
0.750000000000001
40
0.750000000000001
40
1
40
1
40
1
40
1
41
1
10
4.25156083811896
20
2.40519531044834
30
0
41
1
10
4.48269512934539
20
2.30716473782377
30
0
41
1
10
4.71713850480788
20
2.20577536448107
30
0
41
1
10
5.19067892974689
20
1.99659894117073
30
0
41
1
10
5.43025299432088
20
1.88860767036917
30
0
41
1
10
6.15158108295577
20
1.55760741077347
30
0
41
1
10
6.63269832949368
20
1.32874698143036
30
0
41
1
10
7.59772971604772
20
0.863638306079139
30
0
41
1
10
8.0816677433354
20
0.626129202272409
30
0
41
1
10
9.05831135806841
20
0.156623204922397
30
0
41
1
10
9.55116562945111
20
-0.0757641428693319
30
0
41
1
10
10.05220714533
20
-0.296206599424124
30
0
0
SPLINE
5
D4
100
AcDbEntity
8
1
62
256
6
ByLayer
370
18
48
1
60
0
100
AcDbSpline
70
4
71
3
72
26
73
22
40
0
40
0
40
0
40
0
40
0.0625000000000014
40
0.0625000000000014
40
0.125000000000003
40
0.125000000000003
40
0.187500000000004
40
0.187500000000004
40
0.250000000000006
40
0.250000000000006
40
0.375000000000008
40
0.375000000000008
40
0.437500000000007
40
0.437500000000007
40
0.500000000000007
40
0.500000000000007
40
0.625000000000005
40
0.625000000000005
40
0.750000000000003
40
0.750000000000003
40
1
40
1
40
1
40
1
41
1
10
50.5587376243796
20
1.09872280413336
30
0
41
1
10
50.5567927575303
20
0.995651009441218
30
0
41
1
10
50.5622913784796
20
0.891224385210904
30
0
41
1
10
50.5879799670148
20
0.679697085160996
30
0
41
1
10
50.6084761899668
20
0.57172616936532
30
0
41
1
10
50.6621734908973
20
0.360458520570745
30
0
41
1
10
50.6953380154089
20
0.256485946631528
30
0
41
1
10
50.7728835444721
20
0.0514910448262924
30
0
41
1
10
50.817576673092
20
-0.0501208983484389
30
0
41
1
10
50.9649340699907
20
-0.346451621537511
30
0
41
1
10
51.0793578645965
20
-0.530877804436926
30
0
41
1
10
51.2692171575138
20
-0.792736423604453
30
0
41
1
10
51.3357377011464
20
-0.877717906008144
30
0
41
1
10
51.4735849993253
20
-1.04239222642624
30
0
41
1
10
51.5443392194848
20
-1.12144559431854
30
0
41
1
10
51.7613070571517
20
-1.35016525831387
30
0
41
1
10
51.9121901657857
20
-1.49145513061353
30
0
41
1
10
52.22394520687
20
-1.75611630136569
30
0
41
1
10
52.3851182469423
20
-1.87963088264473
30
0
41
1
10
52.8799311598201
20
-2.22556632290585
30
0
41
1
10
53.2185117897728
20
-2.41997167795157
30
0
41
1
10
53.5639813587439
20
-2.58571588427654
30
0
0
SPLINE
5
D5
100
AcDbEntity
8
1
62
256
6
ByLayer
370
18
48
1
60
0
100
AcDbSpline
70
4
71
3
72
18
73
14
40
0
40
0
40
0
40
0
40
0.0764883904502132
40
0.0764883904502132
40
0.204609929838622
40
0.204609929838622
40
0.332731469227031
40
0.332731469227031
40
0.845217626780665
40
0.845217626780665
40
0.973339166169073
40
0.973339166169073
40
1
40
1
40
1
40
1
41
1
10
20.8030247987244
20
0.0034571094927287
30
0
41
1
10
20.9577802181636
20
-0.0715522826949382
30
0
41
1
10
21.11282311339
20
-0.146698907466202
30
0
41
1
10
21.5285269290602
20
-0.347691625369947
30
0
41
1
10
21.7893810273228
20
-0.473388450571036
30
0
41
1
10
22.3080662419746
20
-0.720957019883144
30
0
41
1
10
22.5665934498995
20
-0.84308790181646
30
0
41
1
10
23.8566382186092
20
-1.44259285843501
30
0
41
1
10
24.8803696974702
20
-1.88619884000579
30
0
41
1
10
26.1736214828707
20
-2.35111108384288
30
0
41
1
10
26.4329342911382
20
-2.43964114794451
30
0
41
1
10
26.7473995628893
20
-2.54053743457371
30
0
41
1
10
26.8015897070192
20
-2.55769210780196
30
0
41
1
10
26.8557936523225
20
-2.57461457433885
30
0
0
SPLINE
5
D6
100
AcDbEntity
8
1
62
256
6
ByLayer
370
13
48
1
60
0
100
AcDbSpline
70
4
71
3
72
14
73
10
40
0
40
0
40
0
40
0
40
0.0953429402726769
40
0.0953429402726769
40
0.336134986195249
40
0.336134986195249
40
0.817719078040394
40
0.817719078040394
40
1
40
1
40
1
40
1
41
1
10
26.8557926978053
20
-2.57461427633865
30
0
41
1
10
27.0620720300889
20
-2.63901467470549
30
0
41
1
10
27.2685512415726
20
-2.70005209307033
30
0
41
1
10
27.9951513121487
20
-2.90187467205664
30
0
41
1
10
28.5150932226858
20
-3.02295844182527
30
0
41
1
10
30.0788822387692
20
-3.30730321556891
30
0
41
1
10
31.1044338983627
20
-3.38731755414804
30
0
41
1
10
32.5214551473042
20
-3.34378473323161
30
0
41
1
10
32.9108719171933
20
-3.31591400994734
30
0
41
1
10
33.3016631746263
20
-3.27223812744583
30
0
0
SPLINE
5
D7
100
AcDbEntity
8
1
62
256
6
ByLayer
370
18
48
1
60
0
100
AcDbSpline
70
4
71
3
72
60
73
56
40
0
40
0
40
0
40
0
40
0.0668069661055305
40
0.0668069661055305
40
0.100210449158296
40
0.100210449158296
40
0.133613932211061
40
0.133613932211061
40
0.167017415263826
40
0.167017415263826
40
0.200420898316592
40
0.200420898316592
40
0.233824381369357
40
0.233824381369357
40
0.267227864422122
40
0.267227864422122
40
0.300631347474887
40
0.300631347474887
40
0.334034830527653
40
0.334034830527653
40
0.367438313580418
40
0.367438313580418
40
0.400841796633183
40
0.400841796633183
40
0.467648762738714
40
0.467648762738714
40
0.50105224579148
40
0.50105224579148
40
0.534455728844245
40
0.534455728844245
40
0.56785921189701
40
0.56785921189701
40
0.601262694949776
40
0.601262694949776
40
0.634666178002541
40
0.634666178002541
40
0.668069661055306
40
0.668069661055306
40
0.701473144108071
40
0.701473144108071
40
0.734876627160837
40
0.734876627160837
40
0.768280110213602
40
0.768280110213602
40
0.801683593266367
40
0.801683593266367
40
0.835087076319132
40
0.835087076319132
40
0.868490559371898
40
0.868490559371898
40
0.901894042424663
40
0.901894042424663
40
0.935297525477428
40
0.935297525477428
40
1
40
1
40
1
40
1
41
1
10
10.05220714533
20
3.37116632269942
30
0
41
1
10
10.5129904556942
20
3.33159542610565
30
0
41
1
10
10.9729827305832
20
3.2708724213785
30
0
41
1
10
11.6581765109598
20
3.14774848726955
30
0
41
1
10
11.8857940255572
20
3.10119866085779
30
0
41
1
10
12.3417284039433
20
2.99916520660264
30
0
41
1
10
12.5697545098517
20
2.94348550325137
30
0
41
1
10
13.0254933591115
20
2.82239619026163
30
0
41
1
10
13.2528911640887
20
2.75656682841441
30
0
41
1
10
13.7086532270311
20
2.61646027232857
30
0
41
1
10
13.9371793269067
20
2.54246183600984
30
0
41
1
10
14.3950532726729
20
2.38602001791079
30
0
41
1
10
14.6243342744263
20
2.30346738704887
30
0
41
1
10
15.0835585225225
20
2.12923734310357
30
0
41
1
10
15.3146657306372
20
2.03832576038192
30
0
41
1
10
15.7757528972351
20
1.85139972032087
30
0
41
1
10
16.0056347087499
20
1.75521062756781
30
0
41
1
10
16.4636027839694
20
1.55651750837865
30
0
41
1
10
16.6916452088522
20
1.45390580048033
30
0
41
1
10
17.1481796639554
20
1.24663246970221
30
0
41
1
10
17.3763670855834
20
1.14140987400174
30
0
41
1
10
17.8321232198015
20
0.92691951044506
30
0
41
1
10
18.0593752065213
20
0.817004573238819
30
0
41
1
10
18.7422421936688
20
0.485174407683132
30
0
41
1
10
19.1993225474478
20
0.262055730625434
30
0
41
1
10
19.8855568429646
20
-0.080155439663514
30
0
41
1
10
20.1151130253295
20
-0.193994323199007
30
0
41
1
10
20.5761557881025
20
-0.42051366209796
30
0
41
1
10
20.8075189065668
20
-0.533421885369904
30
0
41
1
10
21.2669631971189
20
-0.757529965227036
30
0
41
1
10
21.4956326770895
20
-0.868895398815397
30
0
41
1
10
21.9530463734584
20
-1.08584691035043
30
0
41
1
10
22.1815015037795
20
-1.19206505390085
30
0
41
1
10
22.6374957943128
20
-1.4008639346676
30
0
41
1
10
22.8647087559512
20
-1.50403309732812
30
0
41
1
10
23.3195840318533
20
-1.7040670403745
30
0
41
1
10
23.5473639440772
20
-1.80075809957842
30
0
41
1
10
24.0031293384027
20
-1.98842908193393
30
0
41
1
10
24.2310391405396
20
-2.07953226922706
30
0
41
1
10
24.686930839763
20
-2.25605731445924
30
0
41
1
10
24.9155262079047
20
-2.34047441831785
30
0
41
1
10
25.3743043082962
20
-2.50123514463959
30
0
41
1
10
25.6043801813792
20
-2.57775615521089
30
0
41
1
10
26.0654676636248
20
-2.72352617754632
30
0
41
1
10
26.2957052629455
20
-2.7924737744049
30
0
41
1
10
26.7563536689063
20
-2.91924818869106
30
0
41
1
10
26.9866916259029
20
-2.97760523372412
30
0
41
1
10
27.4469197995746
20
-3.08479472619351
30
0
41
1
10
27.676474753912
20
-3.13386645870767
30
0
41
1
10
28.1366792066038
20
-3.22090327488434
30
0
41
1
10
28.3675688028155
20
-3.25892999415959
30
0
41
1
10
28.8292909171001
20
-3.32424672284409
30
0
41
1
10
29.0591780720881
20
-3.35145447835092
30
0
41
1
10
29.7316334061323
20
-3.41512998916684
30
0
41
1
10
30.1745020654593
20
-3.43560909599398
30
0
41
1
10
30.6154769398135
20
-3.43540374338352
30
0
0
SPLINE
5
D8
100
AcDbEntity
8
1
62
256
6
ByLayer
370
18
48
1
60
0
100
AcDbSpline
70
4
71
3
72
24
73
20
40
0
40
0
40
0
40
0
40
0.0139036857166447
40
0.0139036857166447
40
0.21112294857331
40
0.21112294857331
40
0.309732580001646
40
0.309732580001646
40
0.408342211429982
40
0.408342211429982
40
0.506951842858317
40
0.506951842858317
40
0.605561474286653
40
0.605561474286653
40
0.704171105714989
40
0.704171105714989
40
0.802780737143324
40
0.802780737143324
40
1
40
1
40
1
40
1
41
1
10
47.0164855205603
20
2.47340755504535
30
0
41
1
10
47.0485233403376
20
2.48457193344777
30
0
41
1
10
47.0805650703401
20
2.49564941059481
30
0
41
1
10
47.5672153628032
20
2.66246546901687
30
0
41
1
10
48.0230684691148
20
2.80054712619847
30
0
41
1
10
48.7069472227077
20
2.98272823365204
30
0
41
1
10
48.9356777689397
20
3.03839468957878
30
0
41
1
10
49.3947464060202
20
3.13964704217847
30
0
41
1
10
49.625374136532
20
3.18537969122701
30
0
41
1
10
50.0859622742221
20
3.26677951385318
30
0
41
1
10
50.3151531735704
20
3.30208568910211
30
0
41
1
10
50.7732773517041
20
3.3610034368497
30
0
41
1
10
51.0019276946686
20
3.3848557503747
30
0
41
1
10
51.4580177719429
20
3.42166194900844
30
0
41
1
10
51.6851178324121
20
3.43463831305274
30
0
41
1
10
52.1396605281694
20
3.44918094888863
30
0
41
1
10
52.3671294509477
20
3.45083724486878
30
0
41
1
10
53.0493853296474
20
3.43927518129971
30
0
41
1
10
53.5030615395842
20
3.40896584465125
30
0
41
1
10
53.9598935953946
20
3.35694443197823
30
0
0
SPLINE
5
D9
100
AcDbEntity
8
1
62
256
6
ByLayer
370
18
48
1
60
0
100
AcDbSpline
70
4
71
3
72
10
73
6
40
0
40
0
40
0
40
0
40
0.651416168525929
40
0.651416168525929
40
1
40
1
40
1
40
1
41
1
10
31.8389492486167
20
-3.26356094563457
30
0
41
1
10
30.9175341937984
20
-3.2581910961286
30
0
41
1
10
29.9962923201629
20
-3.1658813445265
30
0
41
1
10
28.56207798681
20
-2.89438769125138
30
0
41
1
10
28.0634723047013
20
-2.776654640001
30
0
41
1
10
27.5643444610835
20
-2.63820345872233
30
0
0
SPLINE
5
DA
100
AcDbEntity
8
1
62
256
6
ByLayer
370
13
48
1
60
0
100
AcDbSpline
70
4
71
3
72
22
73
18
40
0
40
0
40
0
40
0
40
0.0059249795013689
40
0.0059249795013689
40
0.0799880589936286
40
0.0799880589936286
40
0.154051138485888
40
0.154051138485888
40
0.450303456454924
40
0.450303456454924
40
0.524366535947183
40
0.524366535947183
40
0.598429615439442
40
0.598429615439442
40
0.746555774423959
40
0.746555774423959
40
1
40
1
40
1
40
1
41
1
10
27.5643444609429
20
-2.63820345868334
30
0
41
1
10
27.5435477119073
20
-2.63243472726987
30
0
41
1
10
27.5227500563626
20
-2.62663002772621
30
0
41
1
10
27.2419647182173
20
-2.54778251116014
30
0
41
1
10
26.981365593384
20
-2.46904013525955
30
0
41
1
10
26.4613675675972
20
-2.30184719812192
30
0
41
1
10
26.2023041055366
20
-2.21351786651803
30
0
41
1
10
24.910146878752
20
-1.75092531066804
30
0
41
1
10
23.8866020931178
20
-1.31375524456453
30
0
41
1
10
22.5972769414547
20
-0.727385733816448
30
0
41
1
10
22.3389056505754
20
-0.608157457629886
30
0
41
1
10
21.8205953314216
20
-0.366942379680154
30
0
41
1
10
21.5599964393566
20
-0.244670180090026
30
0
41
1
10
20.7799967539429
20
0.121961884800328
30
0
41
1
10
20.2637535442164
20
0.365727579056085
30
0
41
1
10
18.8678194960105
20
1.01054480589522
30
0
41
1
10
17.9909845199276
20
1.4008957640639
30
0
41
1
10
17.1067763483905
20
1.75094544256311
30
0
0
SPLINE
5
DB
100
AcDbEntity
8
1
62
256
6
ByLayer
370
18
48
1
60
0
100
AcDbSpline
70
4
71
3
72
8
73
4
40
0
40
0
40
0
40
0
40
1
40
1
40
1
40
1
41
1
10
54.9554078263058
20
-0.80000600242883
30
0
41
1
10
54.9708570207164
20
-0.572395902695234
30
0
41
1
10
54.9822082167764
20
-0.344994031608962
30
0
41
1
10
54.9894550999684
20
-0.117800710025023
30
0
0
SPLINE
5
DC
100
AcDbEntity
8
1
62
256
6
ByLayer
370
18
48
1
60
0
100
AcDbSpline
70
4
71
3
72
8
73
4
40
0
40
0
40
0
40
0
40
1
40
1
40
1
40
1
41
1
10
54.9642589410652
20
-0.0480622958706078
30
0
41
1
10
54.7864524521735
20
-0.339431291600221
30
0
41
1
10
54.6126420275736
20
-0.6344310987119
30
0
41
1
10
54.4428812989057
20
-0.933110446744536
30
0
0
SPLINE
5
DD
100
AcDbEntity
8
1
62
256
6
ByLayer
370
18
48
1
60
0
100
AcDbSpline
70
4
71
3
72
35
73
31
40
0
40
0
40
0
40
0
40
0.010999966425064
40
0.010999966425064
40
0.0853316040407832
40
0.0853316040407832
40
0.159663241656502
40
0.159663241656502
40
0.308326516887941
40
0.308326516887941
40
0.456989792119379
40
0.456989792119379
40
0.531321429735098
40
0.531321429735098
40
0.568487248542958
40
0.568487248542958
40
0.587070157946888
40
0.59171588529787
40
0.59171588529787
40
0.596361612648852
40
0.596361612648852
40
0.605653067350817
40
0.605653067350817
40
0.754316342582256
40
0.754316342582256
40
0.902979617813695
40
0.902979617813695
40
0.977311255429414
40
0.977311255429414
40
1
40
1
40
1
40
1
41
1
10
10.05220714533
20
3.371166322666
30
0
41
1
10
10.05220714533
20
3.35167016199716
30
0
41
1
10
10.05220714533
20
3.33214515480233
30
0
41
1
10
10.05220714533
20
3.18045858359463
30
0
41
1
10
10.05220714533
20
3.04700820342356
30
0
41
1
10
10.05220714533
20
2.77749046731179
30
0
41
1
10
10.05220714533
20
2.64081664535246
30
0
41
1
10
10.05220714533
20
2.23134947940559
30
0
41
1
10
10.05220714533
20
1.96126539510152
30
0
41
1
10
10.05220714533
20
1.42638970232244
30
0
41
1
10
10.05220714533
20
1.16160178215478
30
0
41
1
10
10.05220714533
20
0.768347384403683
30
0
41
1
10
10.05220714533
20
0.637843693545733
30
0
41
1
10
10.05220714533
20
0.4450669287707
30
0
41
1
10
10.05220714533
20
0.381220843763231
30
0
41
1
10
10.05220714533
20
0.286067578947012
30
0
41
1
10
10.05220714533
20
0.246554909093675
30
0
41
1
10
10.05220714533
20
0.207231102954978
30
0
41
1
10
10.05220714533
20
0.191515786806491
30
0
41
1
10
10.0522071453299
20
0.183513584022961
30
0
41
1
10
10.0522071453299
20
0.162063261033126
30
0
41
1
10
10.05220714533
20
0.150339194407849
30
0
41
1
10
10.05220714533
20
0.0268339998581553
30
0
41
1
10
10.05220714533
20
-0.0689637275740438
30
0
41
1
10
10.05220714533
20
-0.213408202458652
30
0
41
1
10
10.05220714533
20
-0.262784845932146
30
0
41
1
10
10.05220714533
20
-0.300019541521806
30
0
41
1
10
10.05220714533
20
-0.306206747159024
30
0
41
1
10
10.05220714533
20
-0.305709439775882
30
0
41
1
10
10.05220714533
20
-0.304990190172475
30
0
41
1
10
10.05220714533
20
-0.303665967533362
30
0
0
SPLINE
5
DE
100
AcDbEntity
8
1
62
256
6
ByLayer
370
18
48
1
60
0
100
AcDbSpline
70
4
71
3
72
90
73
86
40
0
40
0
40
0
40
0
40
0.009150190308667
40
0.009150190308667
40
0.0331044989231051
40
0.0331044989231051
40
0.0570588075375432
40
0.0570588075375432
40
0.0810131161519812
40
0.0810131161519812
40
0.104967424766419
40
0.104967424766419
40
0.128921733380857
40
0.128921733380857
40
0.152876041995295
40
0.152876041995295
40
0.176830350609733
40
0.176830350609733
40
0.200784659224171
40
0.200784659224171
40
0.248693276453048
40
0.248693276453048
40
0.272647585067486
40
0.272647585067486
40
0.296601893681925
40
0.296601893681925
40
0.320556202296364
40
0.320556202296364
40
0.344510510910802
40
0.344510510910802
40
0.368464819525241
40
0.368464819525241
40
0.39241912813968
40
0.39241912813968
40
0.416373436754119
40
0.416373436754119
40
0.440327745368558
40
0.440327745368558
40
0.464282053982996
40
0.464282053982996
40
0.488236362597435
40
0.488236362597435
40
0.512190671211874
40
0.512190671211874
40
0.536144979826312
40
0.536144979826312
40
0.560099288440751
40
0.560099288440751
40
0.58405359705519
40
0.58405359705519
40
0.608007905669628
40
0.608007905669628
40
0.631962214284067
40
0.631962214284067
40
0.655916522898506
40
0.655916522898506
40
0.679870831512945
40
0.679870831512945
40
0.703825140127383
40
0.703825140127383
40
0.727779448741822
40
0.727779448741822
40
0.751733757356261
40
0.751733757356261
40
0.7756880659707
40
0.7756880659707
40
0.799642374585138
40
0.799642374585138
40
0.823596683199577
40
0.823596683199577
40
0.847550991814016
40
0.847550991814016
40
0.871505300428455
40
0.871505300428455
40
0.895459609042893
40
0.895459609042893
40
0.919413917657332
40
0.919413917657332
40
0.943368226271771
40
0.943368226271771
40
0.967322534886209
40
0.967322534886209
40
0.991276843500648
40
0.991276843500648
40
1
40
1
40
1
40
1
41
1
10
46.9994218950741
20
-2.47229881021633
30
0
41
1
10
46.918617177885
20
-2.4972763205578
30
0
41
1
10
46.8378231594407
20
-2.52173916890664
30
0
41
1
10
46.5455472145735
20
-2.60832763641378
30
0
41
1
10
46.3338149681399
20
-2.66685650531096
30
0
41
1
10
45.9097329726579
20
-2.77673218070078
30
0
41
1
10
45.697164277966
20
-2.82826354380688
30
0
41
1
10
45.2727613469907
20
-2.92389118605047
30
0
41
1
10
45.0614030221956
20
-2.96788368899198
30
0
41
1
10
44.6393592555186
20
-3.04694266851334
30
0
41
1
10
44.4287280104455
20
-3.08214082282143
30
0
41
1
10
44.0081866899333
20
-3.14349872932789
30
0
41
1
10
43.7983525321998
20
-3.1695817342038
30
0
41
1
10
43.3792246543861
20
-3.21168962853
30
0
41
1
10
43.1697303116015
20
-3.22824009961829
30
0
41
1
10
42.7506658339713
20
-3.25379160990718
30
0
41
1
10
42.5411083360305
20
-3.26253966791907
30
0
41
1
10
42.1219706644394
20
-3.27061627049145
30
0
41
1
10
41.9124335551638
20
-3.26964439711256
30
0
41
1
10
41.2826400169834
20
-3.25446024699366
30
0
41
1
10
40.8614205478654
20
-3.22793603796555
30
0
41
1
10
40.2262353728224
20
-3.15655929644635
30
0
41
1
10
40.013548531588
20
-3.1286025967467
30
0
41
1
10
39.5896753165024
20
-3.06508308296506
30
0
41
1
10
39.3782709938603
20
-3.02921015286597
30
0
41
1
10
38.9566286617826
20
-2.94834915586725
30
0
41
1
10
38.7464758898934
20
-2.90306275613327
30
0
41
1
10
38.326458468164
20
-2.80655063756464
30
0
41
1
10
38.1166325056468
20
-2.75492311165783
30
0
41
1
10
37.6972360038766
20
-2.64381824309515
30
0
41
1
10
37.4876995065203
20
-2.5842090398603
30
0
41
1
10
37.0688522978903
20
-2.45738025897066
30
0
41
1
10
36.8594586511291
20
-2.39098735897519
30
0
41
1
10
36.4401205107392
20
-2.25221480071005
30
0
41
1
10
36.2302019511835
20
-2.17970183099391
30
0
41
1
10
35.8097734599486
20
-2.02781034811932
30
0
41
1
10
35.5993431307768
20
-1.94822139331092
30
0
41
1
10
35.1776260540524
20
-1.78472308777509
30
0
41
1
10
34.9662284048638
20
-1.70056676874052
30
0
41
1
10
34.5419864675138
20
-1.52701500789101
30
0
41
1
10
34.3291958645372
20
-1.43749951059428
30
0
41
1
10
33.9051331133042
20
-1.25464247970891
30
0
41
1
10
33.6933901702188
20
-1.16154614689884
30
0
41
1
10
33.2697609455661
20
-0.972930399453787
30
0
41
1
10
33.0579235671875
20
-0.877335178729169
30
0
41
1
10
32.6341517612657
20
-0.683485250705161
30
0
41
1
10
32.4223554500363
20
-0.585045984106245
30
0
41
1
10
31.9982837643513
20
-0.38690962723129
30
0
41
1
10
31.78552608727
20
-0.287140830451989
30
0
41
1
10
31.3613714389151
20
-0.0879861103701103
30
0
41
1
10
31.1499428549984
20
0.0114262778135696
30
0
41
1
10
30.7282655039626
20
0.210401385481504
30
0
41
1
10
30.5179342010754
20
0.309824124917185
30
0
41
1
10
30.0976138834831
20
0.506367830180437
30
0
41
1
10
29.8876617427603
20
0.60352851621937
30
0
41
1
10
29.4681526809113
20
0.795993946173809
30
0
41
1
10
29.2587246836579
20
0.89167463664856
30
0
41
1
10
28.8398897332241
20
1.0805457803863
30
0
41
1
10
28.6303573418057
20
1.17337790095223
30
0
41
1
10
28.2107553651262
20
1.35483536982437
30
0
41
1
10
28.0007148627649
20
1.44361951091466
30
0
41
1
10
27.5805237424576
20
1.61865543735493
30
0
41
1
10
27.3703105763836
20
1.70470973478135
30
0
41
1
10
26.9484698756672
20
1.87093871952507
30
0
41
1
10
26.7368601652117
20
1.95110536837899
30
0
41
1
10
26.3125471247696
20
2.10665942489814
30
0
41
1
10
26.0998944987631
20
2.18246674608781
30
0
41
1
10
25.6766652302568
20
2.32744536285742
30
0
41
1
10
25.4655510076401
20
2.39597649683293
30
0
41
1
10
25.0440617730274
20
2.52485189197992
30
0
41
1
10
24.8336621183327
20
2.58604957621173
30
0
41
1
10
24.4137469377598
20
2.70206697208974
30
0
41
1
10
24.2042189936892
20
2.75695657629254
30
0
41
1
10
23.7850126212972
20
2.857112450264
30
0
41
1
10
23.5753662876817
20
2.90239896026691
30
0
41
1
10
23.1561286683398
20
2.98655528451707
30
0
41
1
10
22.9466039080218
20
3.02503607712612
30
0
41
1
10
22.5274270885052
20
3.09404464186366
30
0
41
1
10
22.3174518497785
20
3.12353042860934
30
0
41
1
10
21.896515073289
20
3.1730073774234
30
0
41
1
10
21.6857132553639
20
3.19410360712573
30
0
41
1
10
21.2635575248578
20
3.22826420838243
30
0
41
1
10
21.0522708957343
20
3.24152850411286
30
0
41
1
10
20.7625924924822
20
3.25168992994497
30
0
41
1
10
20.6852031917493
20
3.25368816484388
30
0
41
1
10
20.6078004824076
20
3.25506129967653
30
0
0
SPLINE
5
DF
100
AcDbEntity
8
1
62
256
6
ByLayer
370
18
48
1
60
0
100
AcDbSpline
70
4
71
3
72
8
73
4
40
0
40
0
40
0
40
0
40
1
40
1
40
1
40
1
41
1
10
4.13923253985104
20
-2.2892357216447
30
0
41
1
10
4.09545303650253
20
-2.27314691784096
30
0
41
1
10
4.0589741956363
20
-2.24763577625166
30
0
41
1
10
4.03450818808423
20
-2.2159352672214
30
0
0
SPLINE
5
E0
100
AcDbEntity
8
1
62
256
6
ByLayer
370
18
48
1
60
0
100
AcDbSpline
70
4
71
3
72
32
73
28
40
0
40
0
40
0
40
0
40
0.111457775800669
40
0.111457775800669
40
0.222915551601337
40
0.222915551601337
40
0.334373327402006
40
0.334373327402006
40
0.445831103202675
40
0.445831103202675
40
0.557288879003343
40
0.557288879003343
40
0.613017766903678
40
0.613017766903678
40
0.668746654804012
40
0.668746654804012
40
0.724475542704346
40
0.724475542704346
40
0.780204430604681
40
0.780204430604681
40
0.835933318505015
40
0.835933318505015
40
0.891662206405349
40
0.891662206405349
40
0.947391094305684
40
0.947391094305684
40
1
40
1
40
1
40
1
41
1
10
4.01289730374219
20
2.56058822973759
30
0
41
1
10
3.90520715174466
20
2.60558684882042
30
0
41
1
10
3.79766493001233
20
2.65008607966121
30
0
41
1
10
3.58506383128019
20
2.73727781526912
30
0
41
1
10
3.47991345233083
20
2.78000947640217
30
0
41
1
10
3.27248296617813
20
2.86367554787233
30
0
41
1
10
3.17019646868326
20
2.90461089935863
30
0
41
1
10
2.96937813770984
20
2.98456988070072
30
0
41
1
10
2.87055596093475
20
3.02370454319575
30
0
41
1
10
2.67962033405919
20
3.09928337479485
30
0
41
1
10
2.5876202379639
20
3.13567626726695
30
0
41
1
10
2.45713344796795
20
3.18778758555553
30
0
41
1
10
2.41490253894531
20
3.20474282655581
30
0
41
1
10
2.33361506543704
20
3.23771446213195
30
0
41
1
10
2.29440924569778
20
3.25379119954712
30
0
41
1
10
2.22113763363697
20
3.28443118014934
30
0
41
1
10
2.18700945174925
20
3.29901696243039
30
0
41
1
10
2.1251389523795
20
3.32647901986744
30
0
41
1
10
2.09724214065213
20
3.33942908976192
30
0
41
1
10
2.05062773255415
20
3.36290795664684
30
0
41
1
10
2.03208269537259
20
3.37334070242576
30
0
41
1
10
2.00661589438431
20
3.39125839084699
30
0
41
1
10
1.99976580362812
20
3.3987910107582
30
0
41
1
10
2.0002394717896
20
3.40997502439939
30
0
41
1
10
2.00735281222691
20
3.41372553278302
30
0
41
1
10
2.03461059063105
20
3.4176649651817
30
0
41
1
10
2.05419377080497
20
3.41799675043322
30
0
41
1
10
2.07862232507398
20
3.41701081347253
30
0
0
SPLINE
5
E1
100
AcDbEntity
8
1
62
256
6
ByLayer
370
18
48
1
60
0
100
AcDbSpline
70
4
71
3
72
37
73
33
40
0
40
0
40
0
40
0
40
0.0043692000327764
40
0.0043692000327764
40
0.0264943289209335
40
0.0264943289209335
40
0.0707445866972459
40
0.0707445866972459
40
0.114994844473558
40
0.114994844473558
40
0.159245102249871
40
0.159245102249871
40
0.16201074336089
40
0.16201074336089
40
0.16477638447191
40
0.16477638447191
40
0.170307666693948
40
0.170307666693948
40
0.175838948915987
40
0.175838948915987
40
0.181370231138026
40
0.203495360026186
40
0.203495360026186
40
0.291995875578833
40
0.291995875578833
40
0.468996906684125
40
0.468996906684125
40
0.645997937789417
40
0.645997937789417
40
0.822998968894708
40
0.822998968894708
40
1
40
1
40
1
40
1
41
1
10
2.15695684840063
20
3.41132606184416
30
0
41
1
10
2.16378987099483
20
3.41068040575124
30
0
41
1
10
2.17079552073389
20
3.40999100204169
30
0
41
1
10
2.21425009201505
20
3.40556410602875
30
0
41
1
10
2.25417749267916
20
3.40088540353236
30
0
41
1
10
2.3822699030529
20
3.38484447072105
30
0
41
1
10
2.47933913412277
20
3.37141641733484
30
0
41
1
10
2.68392409093593
20
3.34259442053275
30
0
41
1
10
2.79143808492626
20
3.32717634105586
30
0
41
1
10
3.0136221765965
20
3.29561716269629
30
0
41
1
10
3.12803508039224
20
3.27950354038518
30
0
41
1
10
3.25163254499168
20
3.26249165983097
30
0
41
1
10
3.25894712372411
20
3.26151213522252
30
0
41
1
10
3.274341302376
20
3.26001062565746
30
0
41
1
10
3.28223945304984
20
3.25942802410819
30
0
41
1
10
3.3056333568251
20
3.25810012696257
30
0
41
1
10
3.32117749553353
20
3.25771969473408
30
0
41
1
10
3.35218505874275
20
3.25775446408949
30
0
41
1
10
3.36765100216633
20
3.25814379587851
30
0
41
1
10
3.39860155272447
20
3.25873797011465
30
0
41
1
10
3.47597465682435
20
3.26025361913673
30
0
41
1
10
3.55333142127358
20
3.26191895022222
30
0
41
1
10
3.86270643148981
20
3.26903868049706
30
0
41
1
10
4.1096384500205
20
3.2762038310762
30
0
41
1
10
4.84856519396894
20
3.30101092456968
30
0
41
1
10
5.33911906431317
20
3.32210289712771
30
0
41
1
10
6.306943410841
20
3.36412063332787
30
0
41
1
10
6.78534446670855
20
3.38499473452526
30
0
41
1
10
7.7324710158565
20
3.41495864135766
30
0
41
1
10
8.20119785431393
20
3.42395907144282
30
0
41
1
10
9.1313747762598
20
3.41807737683263
30
0
41
1
10
9.59281590780745
20
3.40313173516498
30
0
41
1
10
10.05220714533
20
3.37116632269945
30
0
0
SPLINE
5
E2
100
AcDbEntity
8
1
62
256
6
ByLayer
370
18
48
1
60
0
100
AcDbSpline
70
4
71
3
72
8
73
4
40
0
40
0
40
0
40
0
40
1
40
1
40
1
40
1
41
1
10
54.9894550999685
20
-0.117800710024966
30
0
41
1
10
54.9901470555097
20
-0.0961075664145312
30
0
41
1
10
54.9941283610848
20
-0.0696485034549426
30
0
41
1
10
54.9999523589978
20
-0.0417778467982544
30
0
0
SPLINE
5
E3
100
AcDbEntity
8
1
62
256
6
ByLayer
370
18
48
1
60
0
100
AcDbSpline
70
4
71
3
72
8
73
4
40
0
40
0
40
0
40
0
40
1
40
1
40
1
40
1
41
1
10
53.8520361353412
20
0.837814159142368
30
0
41
1
10
54.2199098206108
20
0.82434037194102
30
0
41
1
10
54.5878138201066
20
0.810548908501687
30
0
41
1
10
54.9554078263128
20
0.800006002428518
30
0
0
SPLINE
5
E4
100
AcDbEntity
8
1
62
256
6
ByLayer
370
13
48
1
60
0
100
AcDbSpline
70
4
71
3
72
29
73
25
40
0
40
0
40
0
40
0
40
0.125
40
0.125
40
0.1875
40
0.1875
40
0.25
40
0.25
40
0.375
40
0.375
40
0.4375
40
0.4375
40
0.5
40
0.5625
40
0.5625
40
0.625
40
0.625
40
0.75
40
0.75
40
0.875
40
0.875
40
0.9375
40
0.9375
40
1
40
1
40
1
40
1
41
1
10
4.25037272801458
20
-2.1321722164715
30
0
41
1
10
4.25046079457096
20
-1.97275934263166
30
0
41
1
10
4.25054204951522
20
-1.80188250052626
30
0
41
1
10
4.25065668587393
20
-1.52868251606969
30
0
41
1
10
4.25069385074892
20
-1.43430802634532
30
0
41
1
10
4.25076509274771
20
-1.24270107511776
30
0
41
1
10
4.25079921896258
20
-1.14541718841272
30
0
41
1
10
4.25089794116144
20
-0.849233123142909
30
0
41
1
10
4.25095891880039
20
-0.646041413528764
30
0
41
1
10
4.25104557377063
20
-0.332345432073282
30
0
41
1
10
4.25107337739706
20
-0.227237254089999
30
0
41
1
10
4.25112665452747
20
-0.0181827734649289
30
0
41
1
10
4.25117779502824
20
0.190411639374389
30
0
41
1
10
4.25122528574434
20
0.398095361038401
30
0
41
1
10
4.25127113386174
20
0.605315606477234
30
0
41
1
10
4.25129331484908
20
0.70908425205883
30
0
41
1
10
4.25135666342419
20
1.01565865493674
30
0
41
1
10
4.25139503124342
20
1.21546690550892
30
0
41
1
10
4.25146151249939
20
1.59260492820019
30
0
41
1
10
4.2514899061141
20
1.7711302664577
30
0
41
1
10
4.25152394588619
20
2.02368302297631
30
0
41
1
10
4.2515338756393
20
2.10566543676498
30
0
41
1
10
4.25155008712278
20
2.26122188243755
30
0
41
1
10
4.25155642236459
20
2.33511081295845
30
0
41
1
10
4.25156083600587
20
2.40519531132202
30
0
0
SPLINE
5
E5
100
AcDbEntity
8
1
62
256
6
ByLayer
370
18
48
1
60
0
100
AcDbSpline
70
4
71
3
72
14
73
10
40
0
40
0
40
0
40
0
40
0.25
40
0.25
40
0.5
40
0.5
40
0.75
40
0.75
40
1
40
1
40
1
40
1
41
1
10
53.7178553693884
20
0.740941020009956
30
0
41
1
10
53.7168296443272
20
0.756279435875513
30
0
41
1
10
53.7198926507423
20
0.77185494016814
30
0
41
1
10
53.7349964228728
20
0.798946483618096
30
0
41
1
10
53.7470212749348
20
0.810285819835542
30
0
41
1
10
53.7741725427372
20
0.82632359561444
30
0
41
1
10
53.7895150141226
20
0.831476020409866
30
0
41
1
10
53.8203709975461
20
0.837456154814987
30
0
41
1
10
53.8362350798969
20
0.838392890558879
30
0
41
1
10
53.8520361353411
20
0.837814159143363
30
0
0
SPLINE
5
E6
100
AcDbEntity
8
1
62
256
6
ByLayer
370
18
48
1
60
0
100
AcDbSpline
70
4
71
3
72
40
73
36
40
0
40
0
40
0
40
0
40
0.0624999999999869
40
0.0624999999999869
40
0.124999999999974
40
0.124999999999974
40
0.249999999999948
40
0.249999999999948
40
0.312499999999939
40
0.312499999999939
40
0.37499999999993
40
0.37499999999993
40
0.406249999999926
40
0.406249999999926
40
0.437499999999921
40
0.437499999999921
40
0.453124999999919
40
0.453124999999919
40
0.468749999999917
40
0.468749999999917
40
0.499999999999917
40
0.499999999999917
40
0.531249999999917
40
0.531249999999917
40
0.562499999999918
40
0.562499999999918
40
0.624999999999927
40
0.624999999999927
40
0.687499999999936
40
0.687499999999936
40
0.749999999999945
40
0.749999999999945
40
0.874999999999972
40
0.874999999999972
40
1
40
1
40
1
40
1
41
1
10
54.0385050773397
20
-1.66589712483835
30
0
41
1
10
53.9791652916867
20
-1.64900622175884
30
0
41
1
10
53.9198935089316
20
-1.62929607439779
30
0
41
1
10
53.801485027753
20
-1.58427549291468
30
0
41
1
10
53.7421285474598
20
-1.55885792399943
30
0
41
1
10
53.5660638410459
20
-1.47428780823449
30
0
41
1
10
53.4515279659266
20
-1.40767827047779
30
0
41
1
10
53.286181681683
20
-1.28450932408381
30
0
41
1
10
53.2324006421567
20
-1.23964179696884
30
0
41
1
10
53.1309648645671
20
-1.13968471875731
30
0
41
1
10
53.0832680894154
20
-1.08505343330475
30
0
41
1
10
53.0239295990474
20
-0.991421878882591
30
0
41
1
10
53.0061628941622
20
-0.957937858931984
30
0
41
1
10
52.9798504179093
20
-0.887742350919694
30
0
41
1
10
52.9714853531152
20
-0.851318028945116
30
0
41
1
10
52.9708783875179
20
-0.79747750510424
30
0
41
1
10
52.972669691657
20
-0.780424162889233
30
0
41
1
10
52.9801152925533
20
-0.748048786279867
30
0
41
1
10
52.9858811499262
20
-0.732616175974243
30
0
41
1
10
53.0075797375438
20
-0.691061869931019
30
0
41
1
10
53.028060033833
20
-0.66882830512526
30
0
41
1
10
53.0736556829982
20
-0.633665815635652
30
0
41
1
10
53.0993175480506
20
-0.620213840801199
30
0
41
1
10
53.1521383222975
20
-0.599400910395957
30
0
41
1
10
53.17959117197
20
-0.591872951030211
30
0
41
1
10
53.2640787223636
20
-0.575167790463411
30
0
41
1
10
53.3226792976291
20
-0.571915214148902
30
0
41
1
10
53.4399565008638
20
-0.574491652132082
30
0
41
1
10
53.499172541385
20
-0.58042111323121
30
0
41
1
10
53.6184389881931
20
-0.598986361410482
30
0
41
1
10
53.6785845584336
20
-0.611704968941979
30
0
41
1
10
53.8580958985664
20
-0.657897119540962
30
0
41
1
10
53.9776789410467
20
-0.699439495465725
30
0
41
1
10
54.2138148715391
20
-0.801271273539214
30
0
41
1
10
54.329793442706
20
-0.861055858523258
30
0
41
1
10
54.4428812989047
20
-0.933110446748287
30
0
0
SPLINE
5
E7
100
AcDbEntity
8
1
62
256
6
ByLayer
370
18
48
1
60
0
100
AcDbSpline
70
4
71
3
72
44
73
40
40
0
40
0
40
0
40
0
40
0.0701631341063741
40
0.0701631341063741
40
0.140326268212748
40
0.140326268212748
40
0.175407835265936
40
0.175407835265936
40
0.210489402319124
40
0.210489402319124
40
0.280652536425499
40
0.280652536425499
40
0.315734103478687
40
0.315734103478687
40
0.350815670531874
40
0.350815670531874
40
0.420978804638249
40
0.420978804638249
40
0.491141938744625
40
0.491141938744625
40
0.526223505797813
40
0.526223505797813
40
0.561305072851002
40
0.561305072851002
40
0.631468206957379
40
0.631468206957379
40
0.666549774010567
40
0.666549774010567
40
0.701631341063756
40
0.701631341063756
40
0.841957609276509
40
0.841957609276509
40
0.877039176329697
40
0.877039176329697
40
0.912120743382884
40
0.912120743382884
40
0.982283877489258
40
0.982283877489258
40
1
40
1
40
1
40
1
41
1
10
53.7853873033744
20
-3.44548593156154
30
0
41
1
10
53.266529888917
20
-3.45824786983928
30
0
41
1
10
52.7483130091611
20
-3.4418488815312
30
0
41
1
10
51.7086788154176
20
-3.35137231113808
30
0
41
1
10
51.1904595922374
20
-3.27756980392741
30
0
41
1
10
50.4132463664266
20
-3.12664325299983
30
0
41
1
10
50.1541005586769
20
-3.06963688392193
30
0
41
1
10
49.6349584090121
20
-2.94278844502244
30
0
41
1
10
49.3747850817367
20
-2.87288423587842
30
0
41
1
10
48.596299860942
20
-2.64606489538505
30
0
41
1
10
48.0787422076216
20
-2.47167054025775
30
0
41
1
10
47.3005987067189
20
-2.1807259678786
30
0
41
1
10
47.040569182626
20
-2.07874157631167
30
0
41
1
10
46.5210021811784
20
-1.86659970977695
30
0
41
1
10
46.2617021791362
20
-1.75652050284194
30
0
41
1
10
45.4842155491529
20
-1.41610583218127
30
0
41
1
10
44.9663733800113
20
-1.1757118315391
30
0
41
1
10
43.9265239637653
20
-0.677497053118088
30
0
41
1
10
43.408142309782
20
-0.421309794469011
30
0
41
1
10
42.6306610860142
20
-0.034957815673323
30
0
41
1
10
42.3713958372669
20
0.0941501366185662
30
0
41
1
10
41.8520482532957
20
0.35178572265329
30
0
41
1
10
41.5918220563364
20
0.480423179639217
30
0
41
1
10
40.8131796792022
20
0.861398577463405
30
0
41
1
10
40.2954387481641
20
1.10944066699156
30
0
41
1
10
39.5170932997933
20
1.46531106172205
30
0
41
1
10
39.2568297716381
20
1.58141024803618
30
0
41
1
10
38.7376760194095
20
1.80580847047219
30
0
41
1
10
38.4790931863684
20
1.91401277446755
30
0
41
1
10
37.1894823732659
20
2.43258302316741
30
0
41
1
10
36.1683363982254
20
2.77528334881865
30
0
41
1
10
34.8804378684953
20
3.0805019005476
30
0
41
1
10
34.6222988217764
20
3.13541715178241
30
0
41
1
10
34.1041864732716
20
3.23215198127957
30
0
41
1
10
33.8435962942975
20
3.27404930948057
30
0
41
1
10
33.0659045590696
20
3.37817785299546
30
0
41
1
10
32.5511316532863
20
3.4192047084571
30
0
41
1
10
31.9079086356826
20
3.43504371371216
30
0
41
1
10
31.7783143402155
20
3.43642156064263
30
0
41
1
10
31.6487571861701
20
3.43599211117515
30
0
0
SPLINE
5
E8
100
AcDbEntity
8
1
62
256
6
ByLayer
370
18
48
1
60
0
100
AcDbSpline
70
4
71
3
72
20
73
16
40
0
40
0
40
0
40
0
40
0.0195117497867179
40
0.0195117497867179
40
0.215609399829373
40
0.215609399829373
40
0.411707049872029
40
0.411707049872029
40
0.509755874893357
40
0.509755874893357
40
0.607804699914684
40
0.607804699914684
40
0.803902349957342
40
0.803902349957342
40
1
40
1
40
1
40
1
41
1
10
12.0448310752611
20
-3.26608838549862
30
0
41
1
10
11.9933583719485
20
-3.2736942988017
30
0
41
1
10
11.9419164512684
20
-3.28102485090415
30
0
41
1
10
11.3737848012333
20
-3.35898053598899
30
0
41
1
10
10.859885487562
20
-3.40196543013502
30
0
41
1
10
9.83280777324393
20
-3.4314559794415
30
0
41
1
10
9.31962024193601
20
-3.41796009438133
30
0
41
1
10
8.54669772215138
20
-3.35535799881069
30
0
41
1
10
8.28853721486246
20
-3.32743239394503
30
0
41
1
10
7.77051014155779
20
-3.25755370770355
30
0
41
1
10
7.51006599331302
20
-3.2154871423742
30
0
41
1
10
6.73003106594425
20
-3.0693101001163
30
0
41
1
10
6.21255586529264
20
-2.94545712915289
30
0
41
1
10
5.17728176338653
20
-2.65098173933214
30
0
41
1
10
4.65947620353489
20
-2.48042332303254
30
0
41
1
10
4.13923253985138
20
-2.28923572164484
30
0
0
SPLINE
5
E9
100
AcDbEntity
8
1
62
256
6
ByLayer
370
13
48
1
60
0
100
AcDbSpline
70
4
71
3
72
8
73
4
40
0
40
0
40
0
40
0
40
1
40
1
40
1
40
1
41
1
10
4.14078656308419
20
-2.12544775464732
30
0
41
1
10
4.17526831378515
20
-2.12179853310579
30
0
41
1
10
4.21235981552198
20
-2.12406988417635
30
0
41
1
10
4.25037272801461
20
-2.1321722164715
30
0
0
SPLINE
5
EA
100
AcDbEntity
8
1
62
256
6
ByLayer
370
18
48
1
60
0
100
AcDbSpline
70
4
71
3
72
26
73
22
40
0
40
0
40
0
40
0
40
0.0625
40
0.0625
40
0.125
40
0.125
40
0.1875
40
0.1875
40
0.250000000000001
40
0.250000000000001
40
0.375
40
0.375
40
0.5
40
0.5
40
0.625
40
0.625
40
0.75
40
0.75
40
0.875
40
0.875
40
1
40
1
40
1
40
1
41
1
10
54.442881298904
20
-0.933110446747122
30
0
41
1
10
54.4403879272083
20
-0.953916517390951
30
0
41
1
10
54.4368138499827
20
-0.976493391379194
30
0
41
1
10
54.4278173441914
20
-1.02297300940012
30
0
41
1
10
54.4224009998495
20
-1.0469821111767
30
0
41
1
10
54.4097603299548
20
-1.09653345950389
30
0
41
1
10
54.4024810103761
20
-1.1222074021338
30
0
41
1
10
54.3867333538919
20
-1.17302063499702
30
0
41
1
10
54.3782085253233
20
-1.19840829020435
30
0
41
1
10
54.3507710352323
20
-1.2745264124475
30
0
41
1
10
54.3306191758029
20
-1.32349900422398
30
0
41
1
10
54.2882221055829
20
-1.41563377397773
30
0
41
1
10
54.266621979297
20
-1.45745299319222
30
0
41
1
10
54.223188318222
20
-1.53268521737925
30
0
41
1
10
54.2015559627553
20
-1.56559405482972
30
0
41
1
10
54.1609115393063
20
-1.61909358307219
30
0
41
1
10
54.141527508321
20
-1.64028409954105
30
0
41
1
10
54.105405919618
20
-1.67044833900414
30
0
41
1
10
54.0891778745013
20
-1.67906475512072
30
0
41
1
10
54.0603809525572
20
-1.6829545796439
30
0
41
1
10
54.0480580697849
20
-1.67798204282326
30
0
41
1
10
54.0385050773397
20
-1.66589712483838
30
0
0
SPLINE
5
EB
100
AcDbEntity
8
1
62
256
6
ByLayer
370
18
48
1
60
0
100
AcDbSpline
70
4
71
3
72
14
73
10
40
0
40
0
40
0
40
0
40
0.352177343431328
40
0.352177343431328
40
0.528266015146992
40
0.528266015146992
40
0.704354686862656
40
0.704354686862656
40
1
40
1
40
1
40
1
41
1
10
53.8250229340248
20
-3.27654837120002
30
0
41
1
10
53.3055779066407
20
-3.28205063247899
30
0
41
1
10
52.7873405008446
20
-3.25965353758127
30
0
41
1
10
52.0086916584265
20
-3.18534179685417
30
0
41
1
10
51.7486516878221
20
-3.15375634108318
30
0
41
1
10
51.2286121692091
20
-3.07742553449668
30
0
41
1
10
50.9696406800655
20
-3.03283850330047
30
0
41
1
10
50.2779672018913
20
-2.89709565050998
30
0
41
1
10
49.846581190357
20
-2.79484840818697
30
0
41
1
10
49.4159630138329
20
-2.67732972055023
30
0
0
SPLINE
5
EC
100
AcDbEntity
8
1
62
256
6
ByLayer
370
13
48
1
60
0
100
AcDbSpline
70
4
71
3
72
22
73
18
40
0
40
0
40
0
40
0
40
0.164822838217004
40
0.164822838217004
40
0.306847655575991
40
0.306847655575991
40
0.377860064255484
40
0.377860064255484
40
0.448872472934977
40
0.448872472934977
40
0.73292210765295
40
0.73292210765295
40
0.803934516332446
40
0.803934516332446
40
0.874946925011942
40
0.874946925011942
40
1
40
1
40
1
40
1
41
1
10
49.4159628644255
20
-2.67732967977591
30
0
41
1
10
48.8206628118802
20
-2.51486816079961
30
0
41
1
10
48.2268301810794
20
-2.32322113348482
30
0
41
1
10
47.1174830699651
20
-1.92146114024405
30
0
41
1
10
46.602427280295
20
-1.71760898160426
30
0
41
1
10
45.824198467372
20
-1.39025069680886
30
0
41
1
10
45.5635222791523
20
-1.2774276570479
30
0
41
1
10
45.0453133385405
20
-1.04832788915229
30
0
41
1
10
44.7871011954441
20
-0.931775632893931
30
0
41
1
10
43.4990595922194
20
-0.342143765329553
30
0
41
1
10
42.4783951257782
20
0.151791438931497
30
0
41
1
10
41.1922487091967
20
0.747883587347047
30
0
41
1
10
40.9344960231484
20
0.866018604245482
30
0
41
1
10
40.4173460094332
20
1.09881854827066
30
0
41
1
10
40.1576800903843
20
1.21360261580315
30
0
41
1
10
39.4393433860538
20
1.523502366684
30
0
41
1
10
38.9841936009097
20
1.7109681488719
30
0
41
1
10
38.530537274568
20
1.88571446756788
30
0
0
SPLINE
5
ED
100
AcDbEntity
8
1
62
256
6
ByLayer
370
18
48
1
60
0
100
AcDbSpline
70
4
71
3
72
12
73
8
40
0
40
0
40
0
40
0
40
0.566659188490931
40
0.566659188490931
40
0.880684538163404
40
0.880684538163404
40
1
40
1
40
1
40
1
41
1
10
10.1508725050288
20
-3.25024292159827
30
0
41
1
10
9.21458834439451
20
-3.24871400052993
30
0
41
1
10
8.28891884117203
20
-3.15786323834479
30
0
41
1
10
6.84584746542896
20
-2.89013089147983
30
0
41
1
10
6.33052051469764
20
-2.76964725701149
30
0
41
1
10
5.61504410039149
20
-2.57199889066189
30
0
41
1
10
5.41737096193597
20
-2.51421345903847
30
0
41
1
10
5.21947168593539
20
-2.45335623071412
30
0
0
SPLINE
5
EE
100
AcDbEntity
8
1
62
256
6
ByLayer
370
13
48
1
60
0
100
AcDbSpline
70
4
71
3
72
10
73
6
40
0
40
0
40
0
40
0
40
0.19360708079271
40
0.19360708079271
40
1
40
1
40
1
40
1
41
1
10
5.2194716858474
20
-2.45335623068704
30
0
41
1
10
5.15694625082384
20
-2.43412864808914
30
0
41
1
10
5.09439824236236
20
-2.41459443347202
30
0
41
1
10
4.771288002364
20
-2.31216226497631
30
0
41
1
10
4.51088506052241
20
-2.22452149433076
30
0
41
1
10
4.25037272801458
20
-2.1321722164715
30
0
0
SPLINE
5
EF
100
AcDbEntity
8
1
62
256
6
ByLayer
370
18
48
1
60
0
100
AcDbSpline
70
4
71
3
72
10
73
6
40
0
40
0
40
0
40
0
40
0.5
40
0.5
40
1
40
1
40
1
40
1
41
1
10
53.9598935953908
20
-3.35694443198847
30
0
41
1
10
54.11644416507
20
-2.9248887680539
30
0
41
1
10
54.2780475095041
20
-2.49629762346373
30
0
41
1
10
54.6102081745023
20
-1.64440615475911
30
0
41
1
10
54.7808318937485
20
-1.22115652386316
30
0
41
1
10
54.9554078263067
20
-0.8000060024265
30
0
0
SPLINE
5
F0
100
AcDbEntity
8
1
62
256
6
ByLayer
370
18
48
1
60
0
100
AcDbSpline
70
4
71
3
72
10
73
6
40
0
40
0
40
0
40
0
40
0.5
40
0.5
40
1
40
1
40
1
40
1
41
1
10
53.9598935953885
20
3.35694443199489
30
0
41
1
10
54.1156153184227
20
2.92717625821911
30
0
41
1
10
54.2770089240372
20
2.49900665361923
30
0
41
1
10
54.6096721848661
20
1.6457356469233
30
0
41
1
10
54.7808007177854
20
1.22123173338906
30
0
41
1
10
54.9554078263068
20
0.800006002426016
30
0
0
SPLINE
5
F1
100
AcDbEntity
8
1
62
256
6
ByLayer
370
18
48
1
60
0
100
AcDbSpline
70
4
71
3
72
25
73
21
40
0
40
0
40
0
40
0
40
0.0959608744362753
40
0.171967136509405
40
0.22803666445708
40
0.264135651853495
40
0.291672437878616
40
0.328989935081058
40
0.375911595785513
40
0.435578368954307
40
0.481775127962307
40
0.527440895676044
40
0.578144608911134
40
0.645085118295407
40
0.70715225230426
40
0.767318230564748
40
0.827638772300677
40
0.893233241830647
40
0.966898812732681
40
1
40
1
40
1
40
1
41
1
10
31.8600763317704
20
-3.26377565619256
30
0
41
1
10
32.1896721793012
20
-3.26399935715008
30
0
41
1
10
32.7803295355053
20
-3.26436355717524
30
0
41
1
10
33.5637291588494
20
-3.26488608871878
30
0
41
1
10
34.1412896595911
20
-3.26505962672152
30
0
41
1
10
34.5525524138637
20
-3.26562905034851
30
0
41
1
10
34.8992263786483
20
-3.26576574110794
30
0
41
1
10
35.283196693782
20
-3.26560474807496
30
0
41
1
10
35.7775431400946
20
-3.26589887860334
30
0
41
1
10
36.3023806800252
20
-3.2668847745029
30
0
41
1
10
36.8229058338509
20
-3.26617017337134
30
0
41
1
10
37.3126490736424
20
-3.26661739682351
30
0
41
1
10
37.8736512061131
20
-3.2680715584919
30
0
41
1
10
38.4909834961663
20
-3.26619471999487
30
0
41
1
10
39.1408706875488
20
-3.26860429820221
30
0
41
1
10
39.7678324532136
20
-3.26771573340866
30
0
41
1
10
40.407588814143
20
-3.26842702942329
30
0
41
1
10
41.0908945966747
20
-3.26963536411705
30
0
41
1
10
41.6834198741748
20
-3.26725748089558
30
0
41
1
10
42.0484468899265
20
-3.26797227745206
30
0
41
1
10
42.1615481209485
20
-3.26825455570486
30
0
0
SPLINE
5
F2
100
AcDbEntity
8
1
62
256
6
ByLayer
370
18
48
1
60
0
100
AcDbSpline
70
4
71
1
72
4
73
2
40
0
40
0
40
1
40
1
41
1
10
42.5617909490967
20
-0.0006460682057821
30
0
41
1
10
42.5617812938339
20
-0.0006417654670088
30
0
0
SPLINE
5
F3
100
AcDbEntity
8
1
62
256
6
ByLayer
370
18
48
1
60
0
100
AcDbSpline
70
4
71
3
72
22
73
18
40
0
40
0
40
0
40
0
40
0.0302570611810221
40
0.103659082063649
40
0.186066763766649
40
0.269787455430931
40
0.336112343368256
40
0.384941023801114
40
0.430933933912705
40
0.489607490041672
40
0.557568260287353
40
0.657691272435166
40
0.74763600450501
40
0.818659142235516
40
0.89832487147445
40
0.99642443426274
40
1
40
1
40
1
40
1
41
1
10
20.5857982716028
20
3.25340934336623
30
0
41
1
10
20.5057981336478
20
3.2520479329722
30
0
41
1
10
20.2282099698978
20
3.24803898396814
30
0
41
1
10
19.6874281346093
20
3.24247333070412
30
0
41
1
10
19.0066306926327
20
3.24965906656706
30
0
41
1
10
18.3577160648799
20
3.25554532385476
30
0
41
1
10
17.7947567270227
20
3.25746801780895
30
0
41
1
10
17.3341072311247
20
3.25528725019939
30
0
41
1
10
16.8956450928164
20
3.25521919718057
30
0
41
1
10
16.4022889261548
20
3.25611253445283
30
0
41
1
10
15.754317026841
20
3.25435328369926
30
0
41
1
10
15.0170132703458
20
3.2542452501892
30
0
41
1
10
14.270787292311
20
3.25324409542461
30
0
41
1
10
13.5839568366803
20
3.25273035931073
30
0
41
1
10
12.8717713352982
20
3.25285440646806
30
0
41
1
10
12.3618513595725
20
3.25103453382744
30
0
41
1
10
12.072824735968
20
3.25010231762565
30
0
41
1
10
12.062657011734
20
3.25006966638332
30
0
0
SPLINE
5
F4
100
AcDbEntity
8
1
62
256
6
ByLayer
370
18
48
1
60
0
100
AcDbSpline
70
4
71
3
72
23
73
19
40
0
40
0
40
0
40
0
40
0.0411248900703077
40
0.1326399681217
40
0.214128279768415
40
0.289064766647567
40
0.36380923858772
40
0.44091552505832
40
0.524076028230258
40
0.588152701956612
40
0.645741576062356
40
0.704781806637663
40
0.781379282005642
40
0.858339668736807
40
0.89560096154834
40
0.926361452293787
40
0.974105787114536
40
1
40
1
40
1
40
1
41
1
10
42.1615739944285
20
3.26825459495467
30
0
41
1
10
42.0484641531619
20
3.26797228938793
30
0
41
1
10
41.6834285211525
20
3.26725747054087
30
0
41
1
10
41.0908946036546
20
3.26963534809957
30
0
41
1
10
40.4075888128042
20
3.26842705830748
30
0
41
1
10
39.7678324537504
20
3.26771564040931
30
0
41
1
10
39.1408706877343
20
3.268604648425
30
0
41
1
10
38.4909834957962
20
3.26619332186485
30
0
41
1
10
37.8706449126735
20
3.26808581407275
30
0
41
1
10
37.3042635905554
20
3.26657520079109
30
0
41
1
10
36.8045795278601
20
3.26619214261379
30
0
41
1
10
36.2702804074204
20
3.26691189183237
30
0
41
1
10
35.6824250393548
20
3.26562710299254
30
0
41
1
10
35.1547497516651
20
3.26573225367579
30
0
41
1
10
34.7539104538807
20
3.26572008254615
30
0
41
1
10
34.4338493046782
20
3.26551698502095
30
0
41
1
10
34.1451720073443
20
3.265078447273
30
0
41
1
10
33.9415761273013
20
3.26496818997981
30
0
41
1
10
33.8699844723776
20
3.2649407694619
30
0
0
SPLINE
5
F5
100
AcDbEntity
8
1
62
256
6
ByLayer
370
18
48
1
60
0
100
AcDbSpline
70
4
71
3
72
23
73
19
40
0
40
0
40
0
40
0
40
0.0993813225730001
40
0.189472826187864
40
0.269279532082383
40
0.33408980485566
40
0.391869090548796
40
0.465041616255441
40
0.546494454143379
40
0.597300465875802
40
0.642049002931658
40
0.678305815236147
40
0.71145519759595
40
0.755726125010944
40
0.828037127323061
40
0.906649333913515
40
0.975397129345877
40
1
40
1
40
1
40
1
41
1
10
10.1063259559111
20
-3.25020517881944
30
0
41
1
10
10.4507979546193
20
-3.24873404047625
30
0
41
1
10
11.1088702850687
20
-3.24722670177471
30
0
41
1
10
12.0605061587076
20
-3.24995914633749
30
0
41
1
10
12.8717713512263
20
-3.25285412213446
30
0
41
1
10
13.5839567914512
20
-3.25273116607937
30
0
41
1
10
14.2707874584809
20
-3.25324113158416
30
0
41
1
10
15.017012420178
20
-3.25426041860661
30
0
41
1
10
15.738577500741
20
-3.25429788654023
30
0
41
1
10
16.3603148136533
20
-3.25609804710393
30
0
41
1
10
16.8233931113582
20
-3.25531908289457
30
0
41
1
10
17.2241623390447
20
-3.2551611272967
30
0
41
1
10
17.6239491101381
20
-3.25665972537703
30
0
41
1
10
18.146873798916
20
-3.25691970038176
30
0
41
1
10
18.8198034471828
20
-3.25195008663911
30
0
41
1
10
19.5804052743927
20
-3.24243885036449
30
0
41
1
10
20.1984252941776
20
-3.24754521436057
30
0
41
1
10
20.5056194639437
20
-3.2520299319377
30
0
41
1
10
20.5856784439883
20
-3.25340756394763
30
0
0
SPLINE
5
F6
100
AcDbEntity
8
1
62
256
6
ByLayer
370
18
48
1
60
0
100
AcDbSpline
70
4
71
1
72
4
73
2
40
0
40
0
40
1
40
1
41
1
10
53.5271695567827
20
-3.27664413841404
30
0
41
1
10
53.7883791826422
20
-3.276183726196
30
0
0
LINE
5
7B
100
AcDbEntity
8
SK1
62
256
6
ByLayer
370
18
48
1
60
0
100
AcDbLine
10
-36
20
2.76
30
0
11
-36
21
-0.377184
31
0
39
0
210
0
220
0
230
1
0
LINE
5
7D
100
AcDbEntity
8
SK1
62
256
6
ByLayer
370
18
48
1
60
0
100
AcDbLine
10
-36
20
-0.377199
30
0
11
-36
21
-1.751493
31
0
39
0
210
0
220
0
230
1
0
LINE
5
7E
100
AcDbEntity
8
SK1
62
256
6
ByLayer
370
18
48
1
60
0
100
AcDbLine
10
-34.76
20
4
30
0
11
-34.76
21
-4
31
0
39
0
210
0
220
0
230
1
0
LINE
5
7F
100
AcDbEntity
8
SK1
62
256
6
ByLayer
370
18
48
1
60
0
100
AcDbLine
10
0
20
-4
30
0
11
0
21
4
31
0
39
0
210
0
220
0
230
1
0
LINE
5
80
100
AcDbEntity
8
SK1
62
256
6
ByLayer
370
18
48
1
60
0
100
AcDbLine
10
-35.4
20
-1.91648
30
0
11
-35.4
21
-0.725412
31
0
39
0
210
0
220
0
230
1
0
LINE
5
81
100
AcDbEntity
8
SK1
62
256
6
ByLayer
370
13
48
1
60
0
100
AcDbLine
10
-35.5
20
-0.584142
30
0
11
-35.5
21
-1.958423
31
0
39
0
210
0
220
0
230
1
0
LINE
5
82
100
AcDbEntity
8
SK1
62
256
6
ByLayer
370
18
48
1
60
0
100
AcDbLine
10
-36
20
-2.76
30
0
11
-36
21
-1.751493
31
0
39
0
210
0
220
0
230
1
0
LINE
5
83
100
AcDbEntity
8
1
62
256
6
ByLayer
370
13
48
1
60
0
100
AcDbLine
10
1.235658
20
3.417048
30
0
11
1.235658
21
-3.417048
31
0
39
0
210
0
220
0
230
1
0
LINE
5
84
100
AcDbEntity
8
1
62
256
6
ByLayer
370
18
48
1
60
0
100
AcDbLine
10
0
20
-4
30
0
11
0
21
4
31
0
39
0
210
0
220
0
230
1
0
LINE
5
85
100
AcDbEntity
8
1
62
256
6
ByLayer
370
13
48
1
60
0
100
AcDbLine
10
53.852036
20
0.837814
30
0
11
54.989455
21
0.117801
31
0
39
0
210
0
220
0
230
1
0
LINE
5
86
100
AcDbEntity
8
1
62
256
6
ByLayer
370
13
48
1
60
0
100
AcDbLine
10
0.617579
20
3.708524
30
0
11
0.617579
21
-3.708524
31
0
39
0
210
0
220
0
230
1
0
LINE
5
87
100
AcDbEntity
8
1
62
256
6
ByLayer
370
13
48
1
60
0
100
AcDbLine
10
53.717855
20
0.740941
30
0
11
54.964259
21
-0.048062
31
0
39
0
210
0
220
0
230
1
0
LINE
5
88
100
AcDbEntity
8
80
62
256
6
ByLayer
370
18
48
1
60
0
100
AcDbLine
10
0
20
0
30
0
11
-5
21
0
31
0
39
0
210
0
220
0
230
1
0
LINE
5
89
100
AcDbEntity
8
4
62
256
6
ByLayer
370
18
48
0.05
60
0
100
AcDbLine
10
55
20
0
30
0
11
0
21
0
31
0
39
0
210
0
220
0
230
1
0
LINE
5
8B
100
AcDbEntity
8
SK4
62
256
6
ByLayer
370
18
48
0.05
60
0
100
AcDbLine
10
60
20
0
30
0
11
-41
21
0
31
0
39
0
210
0
220
0
230
1
0
LINE
5
8D
100
AcDbEntity
8
SK1
62
256
6
ByLayer
370
18
48
1
60
0
100
AcDbLine
10
-34.76
20
-4
30
0
11
0
21
-4
31
0
39
0
210
0
220
0
230
1
0
LINE
5
8E
100
AcDbEntity
8
SK1
62
256
6
ByLayer
370
18
48
1
60
0
100
AcDbLine
10
0
20
4
30
0
11
-34.76
21
4
31
0
39
0
210
0
220
0
230
1
0
LINE
5
8F
100
AcDbEntity
8
SK1
62
256
6
ByLayer
370
18
48
1
60
0
100
AcDbLine
10
-36
20
-2.76
30
0
11
-34.76
21
-4
31
0
39
0
210
0
220
0
230
1
0
LINE
5
90
100
AcDbEntity
8
SK1
62
256
6
ByLayer
370
18
48
1
60
0
100
AcDbLine
10
-34.76
20
4
30
0
11
-36
21
2.76
31
0
39
0
210
0
220
0
230
1
0
LINE
5
91
100
AcDbEntity
8
1
62
256
6
ByLayer
370
18
48
1
60
0
100
AcDbLine
10
30.598593
20
-3.4354
30
0
11
31.684883
21
-3.436078
31
0
39
0
210
0
220
0
230
1
0
LINE
5
92
100
AcDbEntity
8
1
62
256
6
ByLayer
370
18
48
1
60
0
100
AcDbLine
10
31.684891
20
3.436078
30
0
11
30.598593
21
3.4354
31
0
39
0
210
0
220
0
230
1
0
LINE
5
93
100
AcDbEntity
8
1
62
256
6
ByLayer
370
18
48
1
60
0
100
AcDbLine
10
1.235658
20
-3.417048
30
0
11
2.060203
21
-3.417563
31
0
39
0
210
0
220
0
230
1
0
LINE
5
94
100
AcDbEntity
8
1
62
256
6
ByLayer
370
18
48
1
60
0
100
AcDbLine
10
8.447706
20
-3.421555
30
0
11
9.935627
21
-3.422485
31
0
39
0
210
0
220
0
230
1
0
LINE
5
95
100
AcDbEntity
8
1
62
256
6
ByLayer
370
18
48
1
60
0
100
AcDbLine
10
52.348825
20
-3.448993
30
0
11
53.436164
21
-3.449673
31
0
39
0
210
0
220
0
230
1
0
LINE
5
96
100
AcDbEntity
8
1
62
256
6
ByLayer
370
18
48
1
60
0
100
AcDbLine
10
53.435936
20
3.449673
30
0
11
52.348825
21
3.448993
31
0
39
0
210
0
220
0
230
1
0
LINE
5
97
100
AcDbEntity
8
1
62
256
6
ByLayer
370
18
48
1
60
0
100
AcDbLine
10
9.935577
20
3.422485
30
0
11
8.447706
21
3.421555
31
0
39
0
210
0
220
0
230
1
0
LINE
5
98
100
AcDbEntity
8
1
62
256
6
ByLayer
370
18
48
1
60
0
100
AcDbLine
10
2.060203
20
3.417563
30
0
11
1.235658
21
3.417048
31
0
39
0
210
0
220
0
230
1
0
LINE
5
99
100
AcDbEntity
8
81
62
256
6
ByLayer
370
18
48
1
60
0
100
AcDbLine
10
55
20
0
30
0
11
60
21
0
31
0
39
0
210
0
220
0
230
1
0
LINE
5
9A
100
AcDbEntity
8
SK2
62
256
6
ByLayer
370
13
48
1
60
0
100
AcDbLine
10
-44.625163
20
-4
30
0
11
-44.625163
21
33.117107
31
0
39
0
210
0
220
0
230
1
0
LINE
5
9C
100
AcDbEntity
8
SK2
62
256
6
ByLayer
370
13
48
1
60
0
100
AcDbLine
10
-37.5875
20
4
30
0
11
-46.625163
21
4
31
0
39
0
210
0
220
0
230
1
0
LINE
5
9D
100
AcDbEntity
8
SK2
62
256
6
ByLayer
370
13
48
1
60
0
100
AcDbLine
10
-37.5875
20
-4
30
0
11
-46.625163
21
-4
31
0
39
0
210
0
220
0
230
1
0
LINE
5
9E
100
AcDbEntity
8
1
62
256
6
ByLayer
370
18
48
1
60
1
100
AcDbLine
10
-44.625163
20
4
30
0
11
-44.164379
21
0.500002
31
0
39
0
210
0
220
0
230
1
0
LINE
5
9F
100
AcDbEntity
8
1
62
256
6
ByLayer
370
18
48
1
60
1
100
AcDbLine
10
-44.164379
20
0.500002
30
0
11
-45.085946
21
0.499998
31
0
39
0
210
0
220
0
230
1
0
LINE
5
A0
100
AcDbEntity
8
1
62
256
6
ByLayer
370
18
48
1
60
1
100
AcDbLine
10
-45.085946
20
0.499998
30
0
11
-44.625163
21
4
31
0
39
0
210
0
220
0
230
1
0
LINE
5
A1
100
AcDbEntity
8
1
62
256
6
ByLayer
370
18
48
1
60
1
100
AcDbLine
10
-44.625163
20
-4
30
0
11
-45.085946
21
-0.500002
31
0
39
0
210
0
220
0
230
1
0
LINE
5
A2
100
AcDbEntity
8
1
62
256
6
ByLayer
370
18
48
1
60
1
100
AcDbLine
10
-45.085946
20
-0.500002
30
0
11
-44.164379
21
-0.499998
31
0
39
0
210
0
220
0
230
1
0
LINE
5
A3
100
AcDbEntity
8
1
62
256
6
ByLayer
370
18
48
1
60
1
100
AcDbLine
10
-44.164379
20
-0.499998
30
0
11
-44.625163
21
-4
31
0
39
0
210
0
220
0
230
1
0
LINE
5
A4
100
AcDbEntity
8
2
62
256
6
ByLayer
370
13
48
1
60
0
100
AcDbLine
10
67.083343
20
31.160193
30
0
11
67.083343
21
-12.2
31
0
39
0
210
0
220
0
230
1
0
LINE
5
A6
100
AcDbEntity
8
2
62
256
6
ByLayer
370
13
48
1
60
0
100
AcDbLine
10
55.5707
20
3.45
30
0
11
69.083343
21
3.45
31
0
39
0
210
0
220
0
230
1
0
LINE
5
A7
100
AcDbEntity
8
2
62
256
6
ByLayer
370
13
48
1
60
0
100
AcDbLine
10
55.5707
20
-3.45
30
0
11
69.083343
21
-3.45
31
0
39
0
210
0
220
0
230
1
0
LINE
5
A8
100
AcDbEntity
8
1
62
256
6
ByLayer
370
18
48
1
60
1
100
AcDbLine
10
67.083343
20
3.45
30
0
11
66.622559
21
6.949998
31
0
39
0
210
0
220
0
230
1
0
LINE
5
A9
100
AcDbEntity
8
1
62
256
6
ByLayer
370
18
48
1
60
1
100
AcDbLine
10
66.622559
20
6.949998
30
0
11
67.544126
21
6.950002
31
0
39
0
210
0
220
0
230
1
0
LINE
5
AA
100
AcDbEntity
8
1
62
256
6
ByLayer
370
18
48
1
60
1
100
AcDbLine
10
67.544126
20
6.950002
30
0
11
67.083343
21
3.45
31
0
39
0
210
0
220
0
230
1
0
LINE
5
AB
100
AcDbEntity
8
1
62
256
6
ByLayer
370
18
48
1
60
1
100
AcDbLine
10
67.083343
20
-3.45
30
0
11
67.544126
21
-6.949998
31
0
39
0
210
0
220
0
230
1
0
LINE
5
AC
100
AcDbEntity
8
1
62
256
6
ByLayer
370
18
48
1
60
1
100
AcDbLine
10
67.544126
20
-6.949998
30
0
11
66.622559
21
-6.950002
31
0
39
0
210
0
220
0
230
1
0
LINE
5
AD
100
AcDbEntity
8
1
62
256
6
ByLayer
370
18
48
1
60
1
100
AcDbLine
10
66.622559
20
-6.950002
30
0
11
67.083343
21
-3.45
31
0
39
0
210
0
220
0
230
1
0
LINE
5
FD
100
AcDbEntity
8
1
62
256
6
ByLayer
370
18
48
1
60
1
100
AcDbLine
10
-44.625163
20
4
30
0
11
-44.164379
21
0.500002
31
0
39
0
210
0
220
0
230
1
0
LINE
5
FE
100
AcDbEntity
8
1
62
256
6
ByLayer
370
18
48
1
60
1
100
AcDbLine
10
-44.164379
20
0.500002
30
0
11
-45.085946
21
0.499998
31
0
39
0
210
0
220
0
230
1
0
LINE
5
FF
100
AcDbEntity
8
1
62
256
6
ByLayer
370
18
48
1
60
1
100
AcDbLine
10
-45.085946
20
0.499998
30
0
11
-44.625163
21
4
31
0
39
0
210
0
220
0
230
1
0
LINE
5
101
100
AcDbEntity
8
1
62
256
6
ByLayer
370
18
48
1
60
1
100
AcDbLine
10
-44.625163
20
-4
30
0
11
-45.085946
21
-0.500002
31
0
39
0
210
0
220
0
230
1
0
LINE
5
102
100
AcDbEntity
8
1
62
256
6
ByLayer
370
18
48
1
60
1
100
AcDbLine
10
-45.085946
20
-0.500002
30
0
11
-44.164379
21
-0.499998
31
0
39
0
210
0
220
0
230
1
0
LINE
5
103
100
AcDbEntity
8
1
62
256
6
ByLayer
370
18
48
1
60
1
100
AcDbLine
10
-44.164379
20
-0.499998
30
0
11
-44.625163
21
-4
31
0
39
0
210
0
220
0
230
1
0
LINE
5
107
100
AcDbEntity
8
1
62
256
6
ByLayer
370
18
48
1
60
1
100
AcDbLine
10
67.083343
20
3.45
30
0
11
66.622559
21
6.949998
31
0
39
0
210
0
220
0
230
1
0
LINE
5
108
100
AcDbEntity
8
1
62
256
6
ByLayer
370
18
48
1
60
1
100
AcDbLine
10
66.622559
20
6.949998
30
0
11
67.544126
21
6.950002
31
0
39
0
210
0
220
0
230
1
0
LINE
5
109
100
AcDbEntity
8
1
62
256
6
ByLayer
370
18
48
1
60
1
100
AcDbLine
10
67.544126
20
6.950002
30
0
11
67.083343
21
3.45
31
0
39
0
210
0
220
0
230
1
0
LINE
5
10B
100
AcDbEntity
8
1
62
256
6
ByLayer
370
18
48
1
60
1
100
AcDbLine
10
67.083343
20
-3.45
30
0
11
67.544126
21
-6.949998
31
0
39
0
210
0
220
0
230
1
0
LINE
5
10C
100
AcDbEntity
8
1
62
256
6
ByLayer
370
18
48
1
60
1
100
AcDbLine
10
67.544126
20
-6.949998
30
0
11
66.622559
21
-6.950002
31
0
39
0
210
0
220
0
230
1
0
LINE
5
10D
100
AcDbEntity
8
1
62
256
6
ByLayer
370
18
48
1
60
1
100
AcDbLine
10
66.622559
20
-6.950002
30
0
11
67.083343
21
-3.45
31
0
39
0
210
0
220
0
230
1
0
MTEXT
5
F7
100
AcDbEntity
8
SK6
62
256
6
ByLayer
370
13
48
1
60
0
100
AcDbMText
10
-19.645193
20
35.990328
30
0
210
0
220
0
230
1
1
\W0.7670;462.1-0690-035A1-XM X2BM
40
3.5
41
0
44
1.084337
50
0
71
7
72
5
7
iso_b_vert
0
MTEXT
5
FB
100
AcDbEntity
8
SK2
62
256
6
ByLayer
370
18
48
1
60
0
100
AcDbMText
10
-46.189796
20
17.409024
30
0
210
0
220
0
230
1
1
%%c
40
3.5
41
0
44
1.084337
50
90
71
7
72
5
7
iso_b_vert
0
MTEXT
5
FC
100
AcDbEntity
8
SK2
62
256
6
ByLayer
370
18
48
1
60
0
100
AcDbMText
10
-46.189796
20
22.63168
30
0
210
0
220
0
230
1
1
\W0.7317;8,000
40
3.5
41
0
44
1.084337
50
90
71
7
72
5
7
iso_b_vert
0
MTEXT
5
105
100
AcDbEntity
8
2
62
256
6
ByLayer
370
18
48
1
60
0
100
AcDbMText
10
65.518709
20
15.45211
30
0
210
0
220
0
230
1
1
%%c
40
3.5
41
0
44
1.084337
50
90
71
7
72
5
7
iso_b_vert
0
MTEXT
5
106
100
AcDbEntity
8
2
62
256
6
ByLayer
370
18
48
1
60
0
100
AcDbMText
10
65.518709
20
20.674766
30
0
210
0
220
0
230
1
1
\W0.7317;6,900
40
3.5
41
0
44
1.084337
50
90
71
7
72
5
7
iso_b_vert
0
HATCH
5
100
100
AcDbEntity
8
SK2
62
256
6
ByLayer
370
13
48
1
60
0
100
AcDbHatch
10
0
20
0
30
0
210
0
220
0
230
1
2
ANSI31
70
0
71
0
91
1
92
5
93
3
72
1
10
-44.6251625675374
20
4
11
-44.1643788259847
21
0.500001692553184
72
1
10
-44.1643788259847
20
0.500001692553184
11
-45.0859463090902
21
0.499998307446816
72
1
10
-45.0859463090902
20
0.499998307446816
11
-44.6251625675374
21
4
97
0
75
0
76
1
52
0
41
0.0062
77
0
78
1
53
45
43
0
44
0
45
-0.0139193969876572
46
0.0139193969876572
79
0
47
0
98
1
10
0
20
0
0
HATCH
5
104
100
AcDbEntity
8
SK2
62
256
6
ByLayer
370
13
48
1
60
0
100
AcDbHatch
10
0
20
0
30
0
210
0
220
0
230
1
2
ANSI31
70
0
71
0
91
1
92
5
93
3
72
1
10
-44.6251625675374
20
-4
11
-45.0859463090902
21
-0.500001692553184
72
1
10
-45.0859463090902
20
-0.500001692553184
11
-44.1643788259847
21
-0.499998307446816
72
1
10
-44.1643788259847
20
-0.499998307446816
11
-44.6251625675374
21
-4
97
0
75
0
76
1
52
0
41
0.0062
77
0
78
1
53
45
43
0
44
0
45
-0.0139193969876572
46
0.0139193969876572
79
0
47
0
98
1
10
0
20
0
0
HATCH
5
10A
100
AcDbEntity
8
2
62
256
6
ByLayer
370
13
48
1
60
0
100
AcDbHatch
10
0
20
0
30
0
210
0
220
0
230
1
2
ANSI31
70
0
71
0
91
1
92
5
93
3
72
1
10
67.083342615295
20
3.45000000000002
11
66.6225588737423
21
6.94999830744683
72
1
10
66.6225588737423
20
6.94999830744683
11
67.5441263568478
21
6.9500016925532
72
1
10
67.5441263568478
20
6.9500016925532
11
67.083342615295
21
3.45000000000002
97
0
75
0
76
1
52
0
41
0.0062
77
0
78
1
53
45
43
0
44
0
45
-0.0139193969876572
46
0.0139193969876572
79
0
47
0
98
1
10
0
20
0
0
HATCH
5
10E
100
AcDbEntity
8
2
62
256
6
ByLayer
370
13
48
1
60
0
100
AcDbHatch
10
0
20
0
30
0
210
0
220
0
230
1
2
ANSI31
70
0
71
0
91
1
92
5
93
3
72
1
10
67.083342615295
20
-3.44999999999999
11
67.5441263568478
21
-6.9499983074468
72
1
10
67.5441263568478
20
-6.9499983074468
11
66.6225588737423
21
-6.95000169255317
72
1
10
66.6225588737423
20
-6.95000169255317
11
67.083342615295
21
-3.44999999999999
97
0
75
0
76
1
52
0
41
0.0062
77
0
78
1
53
45
43
0
44
0
45
-0.0139193969876572
46
0.0139193969876572
79
0
47
0
98
1
10
0
20
0
0
DIMENSION
5
110
100
AcDbEntity
8
SK2
62
256
6
ByLayer
370
13
48
1
60
0
100
AcDbDimension
2
_U0
10
53.9832
20
-13.663398
30
0
11
26.9916
21
-13.663398
31
0
70
32
71
1
72
1
41
1
210
0
220
0
230
1
3
Standard
100
AcDbAlignedDimension
13
0
23
0
33
0
14
53.9832
24
-3.45
34
0
50
0
100
AcDbRotatedDimension
1001
ACAD
1000
DSTYLE
1002
{
1070
   371
1070
    13
1070
   372
1070
    13
1070
   170
1070
     0
1070
   144
1040
1.0
1070
   277
1070
     2
1070
   278
1070
    44
1070
   146
1040
1.0
1070
   345
1005
16
1070
   347
1005
16
1070
   346
1005
16
1070
   344
1005
0
1070
   343
1005
0
1070
   172
1070
     1
1070
    76
1070
     0
1070
    75
1070
     0
1070
   282
1070
     0
1070
   281
1070
     0
1070
    71
1070
     0
1070
    74
1070
     0
1070
   279
1070
     0
1070
   173
1070
     1
1070
   340
1005
F8
1070
   271
1070
     2
1070
   272
1070
     2
1070
    77
1070
     1
1070
    73
1070
     1
1070
   171
1070
     3
1070
   274
1070
     4
1070
   177
1070
    35
1070
   176
1070
    35
1070
   178
1070
    35
1070
    48
1040
-0.1
1070
    41
1040
3.5
1070
   147
1040
1.75
1070
    42
1040
1.5875
1070
    44
1040
2.0
1070
   140
1040
3.5
1002
}
1001
ACAD_DSTYLE_DIM_LINETYPE
1070
   380
1005
16
1001
ACAD_DSTYLE_DIM_EXT1_LINETYPE
1070
   381
1005
16
1001
ACAD_DSTYLE_DIM_EXT2_LINETYPE
1070
   382
1005
16
0
DIMENSION
5
129
100
AcDbEntity
8
SK2
62
256
6
ByLayer
370
13
48
1
60
0
100
AcDbDimension
2
_U1
10
55
20
-32.692985
30
0
11
9.5
21
-32.692985
31
0
70
32
71
1
72
1
41
1
210
0
220
0
230
1
3
Standard
100
AcDbAlignedDimension
13
-36
23
-4
33
0
14
55
24
0
34
0
50
0
100
AcDbRotatedDimension
1001
ACAD
1000
DSTYLE
1002
{
1070
   371
1070
    13
1070
   372
1070
    13
1070
   170
1070
     0
1070
   144
1040
1.0
1070
   277
1070
     2
1070
   278
1070
    44
1070
   146
1040
1.0
1070
   345
1005
16
1070
   347
1005
16
1070
   346
1005
16
1070
   344
1005
0
1070
   343
1005
0
1070
   172
1070
     1
1070
    76
1070
     0
1070
    75
1070
     0
1070
   282
1070
     0
1070
   281
1070
     0
1070
    71
1070
     0
1070
    74
1070
     0
1070
   279
1070
     0
1070
   173
1070
     1
1070
   340
1005
F8
1070
   271
1070
     2
1070
   272
1070
     2
1070
    77
1070
     1
1070
    73
1070
     1
1070
   171
1070
     3
1070
   274
1070
     4
1070
   177
1070
    35
1070
   176
1070
    35
1070
   178
1070
    35
1070
    48
1040
-0.1
1070
    41
1040
3.5
1070
   147
1040
1.75
1070
    42
1040
1.5875
1070
    44
1040
2.0
1070
   140
1040
3.5
1002
}
1001
ACAD_DSTYLE_DIM_LINETYPE
1070
   380
1005
16
1001
ACAD_DSTYLE_DIM_EXT1_LINETYPE
1070
   381
1005
16
1001
ACAD_DSTYLE_DIM_EXT2_LINETYPE
1070
   382
1005
16
0
DIMENSION
5
141
100
AcDbEntity
8
SK2
62
256
6
ByLayer
370
13
48
1
60
0
100
AcDbDimension
2
_U2
10
55
20
15.059119
30
0
11
37.24
21
15.059119
31
0
70
32
71
1
72
1
41
1
210
0
220
0
230
1
3
Standard
100
AcDbAlignedDimension
13
19.48
23
3.45
33
0
14
55
24
0
34
0
50
0
100
AcDbRotatedDimension
1001
ACAD
1000
DSTYLE
1002
{
1070
   371
1070
    13
1070
   372
1070
    13
1070
   170
1070
     0
1070
   144
1040
1.0
1070
   277
1070
     2
1070
   278
1070
    44
1070
   146
1040
1.0
1070
   345
1005
16
1070
   347
1005
16
1070
   346
1005
16
1070
   344
1005
0
1070
   343
1005
0
1070
   172
1070
     1
1070
    76
1070
     0
1070
    75
1070
     0
1070
   282
1070
     0
1070
   281
1070
     0
1070
    71
1070
     0
1070
    74
1070
     0
1070
   279
1070
     0
1070
   173
1070
     1
1070
   340
1005
F8
1070
   271
1070
     2
1070
   272
1070
     2
1070
    77
1070
     1
1070
    73
1070
     1
1070
   171
1070
     3
1070
   274
1070
     4
1070
   177
1070
    35
1070
   176
1070
    35
1070
   178
1070
    35
1070
    48
1040
-0.1
1070
    41
1040
3.5
1070
   147
1040
1.75
1070
    42
1040
1.5875
1070
    44
1040
2.0
1070
   140
1040
3.5
1002
}
1001
ACAD_DSTYLE_DIM_LINETYPE
1070
   380
1005
16
1001
ACAD_DSTYLE_DIM_EXT1_LINETYPE
1070
   381
1005
16
1001
ACAD_DSTYLE_DIM_EXT2_LINETYPE
1070
   382
1005
16
0
DIMENSION
5
159
100
AcDbEntity
8
SK2
62
256
6
ByLayer
370
13
48
1
60
0
100
AcDbDimension
2
_U3
10
53.9832
20
-16.252503
30
0
11
72.333333
21
-16.252503
31
0
70
32
71
1
72
1
41
1
210
0
220
0
230
1
3
Standard
100
AcDbAlignedDimension
13
55
23
0
33
0
14
53.9832
24
-3.45
34
0
50
0
100
AcDbRotatedDimension
1001
ACAD
1000
DSTYLE
1002
{
1070
   371
1070
    13
1070
   372
1070
    13
1070
   170
1070
     0
1070
   144
1040
1.0
1070
   277
1070
     2
1070
   278
1070
    44
1070
   146
1040
1.0
1070
   345
1005
16
1070
   347
1005
16
1070
   346
1005
16
1070
   344
1005
0
1070
   343
1005
0
1070
   172
1070
     1
1070
    76
1070
     0
1070
    75
1070
     0
1070
   282
1070
     0
1070
   281
1070
     0
1070
    71
1070
     0
1070
    74
1070
     0
1070
   279
1070
     0
1070
   173
1070
     1
1070
   340
1005
F8
1070
   271
1070
     2
1070
   272
1070
     2
1070
    77
1070
     1
1070
    73
1070
     1
1070
   171
1070
     3
1070
   274
1070
     4
1070
   177
1070
    35
1070
   176
1070
    35
1070
   178
1070
    35
1070
    48
1040
-0.1
1070
    41
1040
3.5
1070
   147
1040
1.75
1070
    42
1040
1.5875
1070
    44
1040
2.0
1070
   140
1040
3.5
1002
}
1001
ACAD_DSTYLE_DIM_LINETYPE
1070
   380
1005
16
1001
ACAD_DSTYLE_DIM_EXT1_LINETYPE
1070
   381
1005
16
1001
ACAD_DSTYLE_DIM_EXT2_LINETYPE
1070
   382
1005
16
0
DIMENSION
5
173
100
AcDbEntity
8
SK2
62
256
6
ByLayer
370
13
48
1
60
0
100
AcDbDimension
2
_U4
10
53.9832
20
-22.343428
30
0
11
8.9916
21
-22.343428
31
0
70
32
71
1
72
1
41
1
210
0
220
0
230
1
3
Standard
100
AcDbAlignedDimension
13
-36
23
-4
33
0
14
53.9832
24
-3.45
34
0
50
0
100
AcDbRotatedDimension
1001
ACAD
1000
DSTYLE
1002
{
1070
   371
1070
    13
1070
   372
1070
    13
1070
   170
1070
     0
1070
   144
1040
1.0
1070
   277
1070
     2
1070
   278
1070
    44
1070
   146
1040
1.0
1070
   345
1005
16
1070
   347
1005
16
1070
   346
1005
16
1070
   344
1005
0
1070
   343
1005
0
1070
   172
1070
     1
1070
    76
1070
     0
1070
    75
1070
     0
1070
   282
1070
     0
1070
   281
1070
     0
1070
    71
1070
     0
1070
    74
1070
     0
1070
   279
1070
     0
1070
   173
1070
     1
1070
   340
1005
F8
1070
   271
1070
     2
1070
   272
1070
     2
1070
    77
1070
     1
1070
    73
1070
     1
1070
   171
1070
     3
1070
   274
1070
     4
1070
   177
1070
    35
1070
   176
1070
    35
1070
   178
1070
    35
1070
    48
1040
-0.1
1070
    41
1040
3.5
1070
   147
1040
1.75
1070
    42
1040
1.5875
1070
    44
1040
2.0
1070
   140
1040
3.5
1002
}
1001
ACAD_DSTYLE_DIM_LINETYPE
1070
   380
1005
16
1001
ACAD_DSTYLE_DIM_EXT1_LINETYPE
1070
   381
1005
16
1001
ACAD_DSTYLE_DIM_EXT2_LINETYPE
1070
   382
1005
16
0
ENDSEC
0
SECTION
2
OBJECTS
0
DICTIONARY
5
1fb
330
0
100
AcDbDictionary
280
0
281
1
3
ACAD_GROUP
350
1fc
3
ACAD_MLINESTYLE
350
1fd
0
DICTIONARY
5
1fc
330
0
100
AcDbDictionary
280
0
281
1
0
DICTIONARY
5
1fd
330
0
100
AcDbDictionary
280
0
281
1
3
Standard
350
18
0
MLINESTYLE
5
18
330
1fd
100
AcDbMlineStyle
2
Standard
70
0
3

62
256
51
90
52
90
71
2
49
-0.5
62
256
6
ByLayer
49
0.5
62
256
6
ByLayer
0
RASTERVARIABLES
5
1e9
330

100
AcDbRasterVariables
90
0
70
1
71
1
72
1
0
ENDSEC
0
EOF
