0
SECTION
2
HEADER
9
$ACADVER
1
AC1015
9
$DWGCODEPAGE
3
ANSI_1252
9
$HANDSEED
5
1fc
9
$ANGBASE
50
0
9
$ANGDIR
70
0
9
$ATTMODE
70
1
9
$AUNITS
70
0
9
$AUPREC
70
0
9
$CECOLOR
62
256
9
$CELTSCALE
40
1
9
$CELTYPE
6
ByLayer
9
$CELWEIGHT
370
18
9
$CLAYER
8
0
9
$CMLJUST
70
0
9
$CMLSCALE
40
1
9
$CMLSTYLE
2
Standard
9
$DIMSTYLE
2
Standard
9
$TEXTSIZE
40
0.2
9
$TEXTSTYLE
7
Standard
9
$LUNITS
70
2
9
$LUPREC
70
4
9
$EXTNAMES
290
1
9
$INSUNITS
70
4
9
$LTSCALE
40
1
9
$LWDISPLAY
290
1
9
$PDMODE
70
0
9
$PDSIZE
40
0
9
$PLINEGEN
70
0
0
ENDSEC
0
SECTION
2
CLASSES
0
CLASS
1
RASTERVARIABLES
2
AcDbRasterVariables
3
ISM
90
0
280
0
281
0
0
ENDSEC
0
SECTION
2
TABLES
0
TABLE
2
VPORT
5
1f2
100
AcDbSymbolTable
0
VPORT
5
1
100
AcDbSymbolTableRecord
100
AcDbViewportTableRecord
2
*Active
70
0
10
0
20
0
11
1
21
1
12
-1
22
1
13
0
23
0
14
0.5
24
0.5
15
10
25
10
16
0
26
0
36
1
17
0
27
0
37
0
0
ENDTAB
0
TABLE
2
LTYPE
5
1f3
100
AcDbSymbolTable
0
LTYPE
5
14
100
AcDbSymbolTableRecord
100
AcDbLinetypeTableRecord
70
0
2
ByBlock
3

72
65
73
0
40
0
0
LTYPE
5
15
100
AcDbSymbolTableRecord
100
AcDbLinetypeTableRecord
70
0
2
ByLayer
3

72
65
73
0
40
0
0
LTYPE
5
16
100
AcDbSymbolTableRecord
100
AcDbLinetypeTableRecord
70
0
2
Continuous
3
Solid line
72
65
73
0
40
0
0
LTYPE
5
6E
100
AcDbSymbolTableRecord
100
AcDbLinetypeTableRecord
70
0
2
CENTER
3
____ _ ____ _ ____ _ ____
72
65
73
4
40
47.5
49
22
74
0
49
-8.5
74
0
49
8.5
74
0
49
-8.5
74
0
0
LTYPE
5
6F
100
AcDbSymbolTableRecord
100
AcDbLinetypeTableRecord
70
0
2
DASHED
3
__ __ __ __ __ __ __ __ __
72
65
73
2
40
25.72
49
12.86
74
0
49
-12.86
74
0
0
ENDTAB
0
TABLE
2
LAYER
5
1f4
100
AcDbSymbolTable
0
LAYER
5
10
100
AcDbSymbolTableRecord
100
AcDbLayerTableRecord
2
0
70
0
62
7
6
Continuous
290
1
370
-3
390
0
0
LAYER
5
71
100
AcDbSymbolTableRecord
100
AcDbLayerTableRecord
2
80
70
0
62
-6
6
Continuous
290
1
370
-3
390
0
0
LAYER
5
73
100
AcDbSymbolTableRecord
100
AcDbLayerTableRecord
2
81
70
0
62
-3
6
Continuous
290
1
370
-3
390
0
0
LAYER
5
75
100
AcDbSymbolTableRecord
100
AcDbLayerTableRecord
2
1
70
0
62
4
6
Continuous
290
1
370
-3
390
0
0
LAYER
5
8C
100
AcDbSymbolTableRecord
100
AcDbLayerTableRecord
2
4
70
0
62
-2
6
CENTER
290
1
370
-3
390
0
0
LAYER
5
A5
100
AcDbSymbolTableRecord
100
AcDbLayerTableRecord
2
2
70
0
62
7
6
Continuous
290
1
370
-3
390
0
0
LAYER
5
107
100
AcDbSymbolTableRecord
100
AcDbLayerTableRecord
2
Defpoints
70
0
62
7
6
Continuous
290
0
370
-3
390
0
0
LAYER
5
1de
100
AcDbSymbolTableRecord
100
AcDbLayerTableRecord
2
SK1
70
0
62
4
6
Continuous
290
1
370
-3
390
0
0
LAYER
5
1df
100
AcDbSymbolTableRecord
100
AcDbLayerTableRecord
2
SK4
70
0
62
2
6
CENTER
290
1
370
-3
390
0
0
LAYER
5
1e0
100
AcDbSymbolTableRecord
100
AcDbLayerTableRecord
2
SK2
70
0
62
7
6
Continuous
290
1
370
-3
390
0
0
LAYER
5
1e1
100
AcDbSymbolTableRecord
100
AcDbLayerTableRecord
2
SK6
70
0
62
5
6
Continuous
290
1
370
-3
390
0
0
ENDTAB
0
TABLE
2
STYLE
5
1f5
100
AcDbSymbolTable
0
STYLE
5
11
100
AcDbSymbolTableRecord
100
AcDbTextStyleTableRecord
2
Standard
3
txt
70
0
71
0
40
0
41
1
42
0
50
0
0
STYLE
5
EC
100
AcDbSymbolTableRecord
100
AcDbTextStyleTableRecord
2
iso_b_vert
3
simplex.shx
70
0
71
0
40
0
41
1
42
0
50
0
0
STYLE
5
ED
100
AcDbSymbolTableRecord
100
AcDbTextStyleTableRecord
2
DWGDirectTextStyle
3
simplex
70
0
71
0
40
0
41
1
42
0
50
0
0
ENDTAB
0
TABLE
2
DIMSTYLE
5
1f6
100
AcDbSymbolTable
100
AcDbDimStyleTable
0
DIMSTYLE
105
27
100
AcDbSymbolTableRecord
100
AcDbDimStyleTableRecord
2
Standard
70
0
3
<>
41
0.18
42
0.0625
44
0.18
140
0.18
147
0.09
73
0
74
0
77
1
271
2
275
0
278
52
280
0
340
11
0
ENDTAB
0
TABLE
2
VIEW
5
1f7
100
AcDbSymbolTable
0
ENDTAB
0
TABLE
2
UCS
5
1f8
100
AcDbSymbolTable
0
ENDTAB
0
TABLE
2
APPID
5
1f9
100
AcDbSymbolTable
0
APPID
5
12
100
AcDbSymbolTableRecord
100
AcDbRegAppTableRecord
2
ACAD
70
0
0
APPID
5
103
100
AcDbSymbolTableRecord
100
AcDbRegAppTableRecord
2
ACAD_DSTYLE_DIMBREAK
70
0
0
APPID
5
19D
100
AcDbSymbolTableRecord
100
AcDbRegAppTableRecord
2
ACAD_DSTYLE_DIM_LINETYPE
70
0
0
APPID
5
19E
100
AcDbSymbolTableRecord
100
AcDbRegAppTableRecord
2
ACAD_DSTYLE_DIM_EXT1_LINETYPE
70
0
0
APPID
5
19F
100
AcDbSymbolTableRecord
100
AcDbRegAppTableRecord
2
ACAD_DSTYLE_DIM_EXT2_LINETYPE
70
0
0
APPID
5
1DA
100
AcDbSymbolTableRecord
100
AcDbRegAppTableRecord
2
ACAD_MLEADERVER
70
0
0
ENDTAB
0
TABLE
2
BLOCK_RECORD
5
1fa
100
AcDbSymbolTable
0
BLOCK_RECORD
5
1F
100
AcDbSymbolTableRecord
100
AcDbBlockTableRecord
2
*Model_Space
340
0
70
0
0
BLOCK_RECORD
5
1B
100
AcDbSymbolTableRecord
100
AcDbBlockTableRecord
2
*Paper_Space
340
0
70
0
0
BLOCK_RECORD
5
23
100
AcDbSymbolTableRecord
100
AcDbBlockTableRecord
2
*Paper_Space0
340
0
70
0
0
BLOCK_RECORD
5
108
100
AcDbSymbolTableRecord
100
AcDbBlockTableRecord
2
*D1
340
0
70
0
0
BLOCK_RECORD
5
114
100
AcDbSymbolTableRecord
100
AcDbBlockTableRecord
2
_U0
340
0
70
0
0
BLOCK_RECORD
5
120
100
AcDbSymbolTableRecord
100
AcDbBlockTableRecord
2
*D3
340
0
70
0
0
BLOCK_RECORD
5
12C
100
AcDbSymbolTableRecord
100
AcDbBlockTableRecord
2
_U1
340
0
70
0
0
BLOCK_RECORD
5
138
100
AcDbSymbolTableRecord
100
AcDbBlockTableRecord
2
*D5
340
0
70
0
0
BLOCK_RECORD
5
144
100
AcDbSymbolTableRecord
100
AcDbBlockTableRecord
2
_U2
340
0
70
0
0
BLOCK_RECORD
5
150
100
AcDbSymbolTableRecord
100
AcDbBlockTableRecord
2
*D7
340
0
70
0
0
BLOCK_RECORD
5
15E
100
AcDbSymbolTableRecord
100
AcDbBlockTableRecord
2
_U3
340
0
70
0
0
BLOCK_RECORD
5
16A
100
AcDbSymbolTableRecord
100
AcDbBlockTableRecord
2
*D9
340
0
70
0
0
BLOCK_RECORD
5
176
100
AcDbSymbolTableRecord
100
AcDbBlockTableRecord
2
_U4
340
0
70
0
0
ENDTAB
0
ENDSEC
0
SECTION
2
BLOCKS
0
BLOCK
5
20
100
AcDbEntity
8
0
100
AcDbBlockBegin
2
*Model_Space
70
0
10
0
20
0
30
0
3
*Model_Space
0
ENDBLK
5
21
100
AcDbEntity
8
0
100
AcDbBlockEnd
0
BLOCK
5
1C
100
AcDbEntity
8
0
100
AcDbBlockBegin
2
*Paper_Space
70
0
10
0
20
0
30
0
3
*Paper_Space
0
ENDBLK
5
1D
100
AcDbEntity
8
0
100
AcDbBlockEnd
0
BLOCK
5
24
100
AcDbEntity
8
0
100
AcDbBlockBegin
2
*Paper_Space0
70
0
10
0
20
0
30
0
3
*Paper_Space0
0
ENDBLK
5
25
100
AcDbEntity
8
0
100
AcDbBlockEnd
0
BLOCK
5
109
100
AcDbEntity
8
0
100
AcDbBlockBegin
2
*D1
70
1
10
0
20
0
30
0
3
*D1
0
LINE
5
10B
100
AcDbEntity
8
0
62
256
6
ByLayer
370
-2
48
1
60
0
100
AcDbLine
10
0
20
-1.5875
30
0
11
0
21
-18.513398
31
0
39
0
210
0
220
0
230
1
0
LINE
5
10C
100
AcDbEntity
8
0
62
256
6
ByLayer
370
-2
48
1
60
0
100
AcDbLine
10
77.1242
20
-7.8875
30
0
11
77.1242
21
-18.513398
31
0
39
0
210
0
220
0
230
1
0
LINE
5
10D
100
AcDbEntity
8
0
62
256
6
ByLayer
370
-2
48
1
60
0
100
AcDbLine
10
3.5
20
-16.513398
30
0
11
73.6242
21
-16.513398
31
0
39
0
210
0
220
0
230
1
0
SOLID
5
10E
100
AcDbEntity
8
0
62
256
6
ByLayer
370
-1
48
1
60
0
100
AcDbTrace
10
3.5
20
-15.930065
30
0
11
3.5
21
-17.096732
31
0
12
0
22
-16.513398
32
0
13
0
23
-16.513398
33
0
39
0
210
0
220
0
230
1
0
SOLID
5
10F
100
AcDbEntity
8
0
62
256
6
ByLayer
370
-1
48
1
60
0
100
AcDbTrace
10
73.6242
20
-17.096732
30
0
11
73.6242
21
-15.930065
31
0
12
77.1242
22
-16.513398
32
0
13
77.1242
23
-16.513398
33
0
39
0
210
0
220
0
230
1
0
MTEXT
5
110
100
AcDbEntity
8
0
62
256
6
ByLayer
370
18
48
1
60
0
100
AcDbMText
10
38.5621
20
-9.513398
30
0
210
0
220
0
230
1
1
\A1;77.12
40
3.5
41
0
44
1
50
0
71
5
72
5
7
iso_b_vert
0
POINT
5
111
100
AcDbEntity
8
Defpoints
62
0
6
ByLayer
370
-1
48
1
60
0
100
AcDbPoint
10
0
20
0
30
0
39
0
210
0
220
0
230
1
50
360
0
POINT
5
112
100
AcDbEntity
8
Defpoints
62
0
6
ByLayer
370
-1
48
1
60
0
100
AcDbPoint
10
77.1242
20
-6.3
30
0
39
0
210
0
220
0
230
1
50
360
0
POINT
5
113
100
AcDbEntity
8
Defpoints
62
0
6
ByLayer
370
-1
48
1
60
0
100
AcDbPoint
10
77.1242
20
-16.513398
30
0
39
0
210
0
220
0
230
1
50
360
0
ENDBLK
5
10A
100
AcDbEntity
8
0
100
AcDbBlockEnd
0
BLOCK
5
11B
100
AcDbEntity
8
0
100
AcDbBlockBegin
2
_U0
70
0
10
0
20
0
30
0
3
_U0
0
MTEXT
5
115
100
AcDbEntity
8
SK2
62
256
6
ByLayer
370
13
48
1
60
0
100
AcDbMText
10
33.862235
20
-15.480765
30
0
210
0
220
0
230
1
1
\W0.6713;77,12
40
3.5
41
0
44
1.084337
50
0
71
7
72
5
7
iso_b_vert
0
LINE
5
116
100
AcDbEntity
8
SK2
62
256
6
ByLayer
370
13
48
1
60
0
100
AcDbLine
10
0
20
-1.5875
30
0
11
0
21
-18.513398
31
0
39
0
210
0
220
0
230
1
0
LINE
5
117
100
AcDbEntity
8
SK2
62
256
6
ByLayer
370
13
48
1
60
0
100
AcDbLine
10
77.1242
20
-7.8875
30
0
11
77.1242
21
-18.513398
31
0
39
0
210
0
220
0
230
1
0
LINE
5
118
100
AcDbEntity
8
SK2
62
256
6
ByLayer
370
13
48
1
60
0
100
AcDbLine
10
0
20
-16.513398
30
0
11
77.1242
21
-16.513398
31
0
39
0
210
0
220
0
230
1
0
SOLID
5
119
100
AcDbEntity
8
SK2
62
256
6
ByLayer
370
18
48
1
60
0
100
AcDbTrace
10
0
20
-16.513398
30
0
11
3.499998
21
-16.052615
31
0
12
3.500002
22
-16.974182
32
0
13
3.500002
23
-16.974182
33
0
39
0
210
0
220
0
230
1
0
SOLID
5
11A
100
AcDbEntity
8
SK2
62
256
6
ByLayer
370
18
48
1
60
0
100
AcDbTrace
10
77.1242
20
-16.513398
30
0
11
73.624202
21
-16.974182
31
0
12
73.624198
22
-16.052615
32
0
13
73.624198
23
-16.052615
33
0
39
0
210
0
220
0
230
1
0
ENDBLK
5
11C
100
AcDbEntity
8
0
100
AcDbBlockEnd
0
BLOCK
5
121
100
AcDbEntity
8
0
100
AcDbBlockBegin
2
*D3
70
1
10
0
20
0
30
0
3
*D3
0
LINE
5
123
100
AcDbEntity
8
0
62
256
6
ByLayer
370
-2
48
1
60
0
100
AcDbLine
10
-45
20
-8.5875
30
0
11
-45
21
-37.692985
31
0
39
0
210
0
220
0
230
1
0
LINE
5
124
100
AcDbEntity
8
0
62
256
6
ByLayer
370
-2
48
1
60
0
100
AcDbLine
10
79
20
-1.5875
30
0
11
79
21
-37.692985
31
0
39
0
210
0
220
0
230
1
0
LINE
5
125
100
AcDbEntity
8
0
62
256
6
ByLayer
370
-2
48
1
60
0
100
AcDbLine
10
-41.5
20
-35.692985
30
0
11
75.5
21
-35.692985
31
0
39
0
210
0
220
0
230
1
0
SOLID
5
126
100
AcDbEntity
8
0
62
256
6
ByLayer
370
-1
48
1
60
0
100
AcDbTrace
10
-41.5
20
-35.109652
30
0
11
-41.5
21
-36.276319
31
0
12
-45
22
-35.692985
32
0
13
-45
23
-35.692985
33
0
39
0
210
0
220
0
230
1
0
SOLID
5
127
100
AcDbEntity
8
0
62
256
6
ByLayer
370
-1
48
1
60
0
100
AcDbTrace
10
75.5
20
-36.276319
30
0
11
75.5
21
-35.109652
31
0
12
79
22
-35.692985
32
0
13
79
23
-35.692985
33
0
39
0
210
0
220
0
230
1
0
MTEXT
5
128
100
AcDbEntity
8
0
62
256
6
ByLayer
370
18
48
1
60
0
100
AcDbMText
10
17
20
-28.692985
30
0
210
0
220
0
230
1
1
\A1;124.00
40
3.5
41
0
44
1
50
0
71
5
72
5
7
iso_b_vert
0
POINT
5
129
100
AcDbEntity
8
Defpoints
62
0
6
ByLayer
370
-1
48
1
60
0
100
AcDbPoint
10
-45
20
-7
30
0
39
0
210
0
220
0
230
1
50
360
0
POINT
5
12A
100
AcDbEntity
8
Defpoints
62
0
6
ByLayer
370
-1
48
1
60
0
100
AcDbPoint
10
79
20
0
30
0
39
0
210
0
220
0
230
1
50
360
0
POINT
5
12B
100
AcDbEntity
8
Defpoints
62
0
6
ByLayer
370
-1
48
1
60
0
100
AcDbPoint
10
79
20
-35.692985
30
0
39
0
210
0
220
0
230
1
50
360
0
ENDBLK
5
122
100
AcDbEntity
8
0
100
AcDbBlockEnd
0
BLOCK
5
133
100
AcDbEntity
8
0
100
AcDbBlockBegin
2
_U1
70
0
10
0
20
0
30
0
3
_U1
0
MTEXT
5
12D
100
AcDbEntity
8
SK2
62
256
6
ByLayer
370
13
48
1
60
0
100
AcDbMText
10
10.808135
20
-34.660352
30
0
210
0
220
0
230
1
1
\W0.7145;124,00
40
3.5
41
0
44
1.084337
50
0
71
7
72
5
7
iso_b_vert
0
LINE
5
12E
100
AcDbEntity
8
SK2
62
256
6
ByLayer
370
13
48
1
60
0
100
AcDbLine
10
-45
20
-8.5875
30
0
11
-45
21
-37.692985
31
0
39
0
210
0
220
0
230
1
0
LINE
5
12F
100
AcDbEntity
8
SK2
62
256
6
ByLayer
370
13
48
1
60
0
100
AcDbLine
10
79
20
-1.5875
30
0
11
79
21
-37.692985
31
0
39
0
210
0
220
0
230
1
0
LINE
5
130
100
AcDbEntity
8
SK2
62
256
6
ByLayer
370
13
48
1
60
0
100
AcDbLine
10
-45
20
-35.692985
30
0
11
79
21
-35.692985
31
0
39
0
210
0
220
0
230
1
0
SOLID
5
131
100
AcDbEntity
8
SK2
62
256
6
ByLayer
370
18
48
1
60
0
100
AcDbTrace
10
-45
20
-35.692985
30
0
11
-41.500002
21
-35.232202
31
0
12
-41.499998
22
-36.153769
32
0
13
-41.499998
23
-36.153769
33
0
39
0
210
0
220
0
230
1
0
SOLID
5
132
100
AcDbEntity
8
SK2
62
256
6
ByLayer
370
18
48
1
60
0
100
AcDbTrace
10
79
20
-35.692985
30
0
11
75.500002
21
-36.153769
31
0
12
75.499998
22
-35.232202
32
0
13
75.499998
23
-35.232202
33
0
39
0
210
0
220
0
230
1
0
ENDBLK
5
134
100
AcDbEntity
8
0
100
AcDbBlockEnd
0
BLOCK
5
139
100
AcDbEntity
8
0
100
AcDbBlockBegin
2
*D5
70
1
10
0
20
0
30
0
3
*D5
0
LINE
5
13B
100
AcDbEntity
8
0
62
256
6
ByLayer
370
-2
48
1
60
0
100
AcDbLine
10
17.12
20
7.8875
30
0
11
17.12
21
19.909119
31
0
39
0
210
0
220
0
230
1
0
LINE
5
13C
100
AcDbEntity
8
0
62
256
6
ByLayer
370
-2
48
1
60
0
100
AcDbLine
10
79
20
1.5875
30
0
11
79
21
19.909119
31
0
39
0
210
0
220
0
230
1
0
LINE
5
13D
100
AcDbEntity
8
0
62
256
6
ByLayer
370
-2
48
1
60
0
100
AcDbLine
10
20.62
20
17.909119
30
0
11
75.5
21
17.909119
31
0
39
0
210
0
220
0
230
1
0
SOLID
5
13E
100
AcDbEntity
8
0
62
256
6
ByLayer
370
-1
48
1
60
0
100
AcDbTrace
10
20.62
20
18.492453
30
0
11
20.62
21
17.325786
31
0
12
17.12
22
17.909119
32
0
13
17.12
23
17.909119
33
0
39
0
210
0
220
0
230
1
0
SOLID
5
13F
100
AcDbEntity
8
0
62
256
6
ByLayer
370
-1
48
1
60
0
100
AcDbTrace
10
75.5
20
17.325786
30
0
11
75.5
21
18.492453
31
0
12
79
22
17.909119
32
0
13
79
23
17.909119
33
0
39
0
210
0
220
0
230
1
0
MTEXT
5
140
100
AcDbEntity
8
0
62
256
6
ByLayer
370
18
48
1
60
0
100
AcDbMText
10
48.06
20
24.909119
30
0
210
0
220
0
230
1
1
\A1;61.88
40
3.5
41
0
44
1
50
0
71
5
72
5
7
iso_b_vert
0
POINT
5
141
100
AcDbEntity
8
Defpoints
62
0
6
ByLayer
370
-1
48
1
60
0
100
AcDbPoint
10
17.12
20
6.3
30
0
39
0
210
0
220
0
230
1
50
360
0
POINT
5
142
100
AcDbEntity
8
Defpoints
62
0
6
ByLayer
370
-1
48
1
60
0
100
AcDbPoint
10
79
20
0
30
0
39
0
210
0
220
0
230
1
50
360
0
POINT
5
143
100
AcDbEntity
8
Defpoints
62
0
6
ByLayer
370
-1
48
1
60
0
100
AcDbPoint
10
79
20
17.909119
30
0
39
0
210
0
220
0
230
1
50
360
0
ENDBLK
5
13A
100
AcDbEntity
8
0
100
AcDbBlockEnd
0
BLOCK
5
14B
100
AcDbEntity
8
0
100
AcDbBlockBegin
2
_U2
70
0
10
0
20
0
30
0
3
_U2
0
MTEXT
5
145
100
AcDbEntity
8
SK2
62
256
6
ByLayer
370
13
48
1
60
0
100
AcDbMText
10
43.360135
20
18.941753
30
0
210
0
220
0
230
1
1
\W0.6713;61,88
40
3.5
41
0
44
1.084337
50
0
71
7
72
5
7
iso_b_vert
0
LINE
5
146
100
AcDbEntity
8
SK2
62
256
6
ByLayer
370
13
48
1
60
0
100
AcDbLine
10
17.12
20
7.8875
30
0
11
17.12
21
19.909119
31
0
39
0
210
0
220
0
230
1
0
LINE
5
147
100
AcDbEntity
8
SK2
62
256
6
ByLayer
370
13
48
1
60
0
100
AcDbLine
10
79
20
1.5875
30
0
11
79
21
19.909119
31
0
39
0
210
0
220
0
230
1
0
LINE
5
148
100
AcDbEntity
8
SK2
62
256
6
ByLayer
370
13
48
1
60
0
100
AcDbLine
10
17.12
20
17.909119
30
0
11
79
21
17.909119
31
0
39
0
210
0
220
0
230
1
0
SOLID
5
149
100
AcDbEntity
8
SK2
62
256
6
ByLayer
370
18
48
1
60
0
100
AcDbTrace
10
17.12
20
17.909119
30
0
11
20.619998
21
18.369903
31
0
12
20.620002
22
17.448335
32
0
13
20.620002
23
17.448335
33
0
39
0
210
0
220
0
230
1
0
SOLID
5
14A
100
AcDbEntity
8
SK2
62
256
6
ByLayer
370
18
48
1
60
0
100
AcDbTrace
10
79
20
17.909119
30
0
11
75.500002
21
17.448335
31
0
12
75.499998
22
18.369903
32
0
13
75.499998
23
18.369903
33
0
39
0
210
0
220
0
230
1
0
ENDBLK
5
14C
100
AcDbEntity
8
0
100
AcDbBlockEnd
0
BLOCK
5
151
100
AcDbEntity
8
0
100
AcDbBlockBegin
2
*D7
70
1
10
0
20
0
30
0
3
*D7
0
LINE
5
153
100
AcDbEntity
8
0
62
256
6
ByLayer
370
-2
48
1
60
0
100
AcDbLine
10
79
20
-1.5875
30
0
11
79
21
-21.102503
31
0
39
0
210
0
220
0
230
1
0
LINE
5
154
100
AcDbEntity
8
0
62
256
6
ByLayer
370
-2
48
1
60
0
100
AcDbLine
10
77.1242
20
-7.8875
30
0
11
77.1242
21
-21.102503
31
0
39
0
210
0
220
0
230
1
0
LINE
5
155
100
AcDbEntity
8
0
62
256
6
ByLayer
370
-2
48
1
60
0
100
AcDbLine
10
79
20
-19.102503
30
0
11
106.666667
21
-19.102503
31
0
39
0
210
0
220
0
230
1
0
LINE
5
156
100
AcDbEntity
8
0
62
256
6
ByLayer
370
-2
48
1
60
0
100
AcDbLine
10
82.5
20
-19.102503
30
0
11
86
21
-19.102503
31
0
39
0
210
0
220
0
230
1
0
LINE
5
157
100
AcDbEntity
8
0
62
256
6
ByLayer
370
-2
48
1
60
0
100
AcDbLine
10
73.6242
20
-19.102503
30
0
11
70.1242
21
-19.102503
31
0
39
0
210
0
220
0
230
1
0
SOLID
5
158
100
AcDbEntity
8
0
62
256
6
ByLayer
370
-1
48
1
60
0
100
AcDbTrace
10
82.5
20
-18.51917
30
0
11
82.5
21
-19.685837
31
0
12
79
22
-19.102503
32
0
13
79
23
-19.102503
33
0
39
0
210
0
220
0
230
1
0
SOLID
5
159
100
AcDbEntity
8
0
62
256
6
ByLayer
370
-1
48
1
60
0
100
AcDbTrace
10
73.6242
20
-19.685837
30
0
11
73.6242
21
-18.51917
31
0
12
77.1242
22
-19.102503
32
0
13
77.1242
23
-19.102503
33
0
39
0
210
0
220
0
230
1
0
MTEXT
5
15A
100
AcDbEntity
8
0
62
256
6
ByLayer
370
18
48
1
60
0
100
AcDbMText
10
96.333333
20
-12.102503
30
0
210
0
220
0
230
1
1
\A1;1.88
40
3.5
41
0
44
1
50
0
71
5
72
5
7
iso_b_vert
0
POINT
5
15B
100
AcDbEntity
8
Defpoints
62
0
6
ByLayer
370
-1
48
1
60
0
100
AcDbPoint
10
79
20
0
30
0
39
0
210
0
220
0
230
1
50
360
0
POINT
5
15C
100
AcDbEntity
8
Defpoints
62
0
6
ByLayer
370
-1
48
1
60
0
100
AcDbPoint
10
77.1242
20
-6.3
30
0
39
0
210
0
220
0
230
1
50
360
0
POINT
5
15D
100
AcDbEntity
8
Defpoints
62
0
6
ByLayer
370
-1
48
1
60
0
100
AcDbPoint
10
77.1242
20
-19.102503
30
0
39
0
210
0
220
0
230
1
50
360
0
ENDBLK
5
152
100
AcDbEntity
8
0
100
AcDbBlockEnd
0
BLOCK
5
165
100
AcDbEntity
8
0
100
AcDbBlockBegin
2
_U3
70
0
10
0
20
0
30
0
3
_U3
0
MTEXT
5
15F
100
AcDbEntity
8
SK2
62
256
6
ByLayer
370
13
48
1
60
0
100
AcDbMText
10
85.589293
20
-18.06987
30
0
210
0
220
0
230
1
1
\W0.6367;1,88
40
3.5
41
0
44
1.084337
50
0
71
7
72
5
7
iso_b_vert
0
LINE
5
160
100
AcDbEntity
8
SK2
62
256
6
ByLayer
370
13
48
1
60
0
100
AcDbLine
10
79
20
-1.5875
30
0
11
79
21
-21.102503
31
0
39
0
210
0
220
0
230
1
0
LINE
5
161
100
AcDbEntity
8
SK2
62
256
6
ByLayer
370
13
48
1
60
0
100
AcDbLine
10
77.1242
20
-7.8875
30
0
11
77.1242
21
-21.102503
31
0
39
0
210
0
220
0
230
1
0
LINE
5
162
100
AcDbEntity
8
SK2
62
256
6
ByLayer
370
13
48
1
60
0
100
AcDbLine
10
68.3742
20
-19.102503
30
0
11
92.559058
21
-19.102503
31
0
39
0
210
0
220
0
230
1
0
SOLID
5
163
100
AcDbEntity
8
SK2
62
256
6
ByLayer
370
18
48
1
60
0
100
AcDbTrace
10
79
20
-19.102503
30
0
11
82.499998
21
-18.641719
31
0
12
82.500002
22
-19.563287
32
0
13
82.500002
23
-19.563287
33
0
39
0
210
0
220
0
230
1
0
SOLID
5
164
100
AcDbEntity
8
SK2
62
256
6
ByLayer
370
18
48
1
60
0
100
AcDbTrace
10
77.1242
20
-19.102503
30
0
11
73.624202
21
-19.563287
31
0
12
73.624198
22
-18.641719
32
0
13
73.624198
23
-18.641719
33
0
39
0
210
0
220
0
230
1
0
ENDBLK
5
166
100
AcDbEntity
8
0
100
AcDbBlockEnd
0
BLOCK
5
16B
100
AcDbEntity
8
0
100
AcDbBlockBegin
2
*D9
70
1
10
0
20
0
30
0
3
*D9
0
LINE
5
16D
100
AcDbEntity
8
0
62
256
6
ByLayer
370
-2
48
1
60
0
100
AcDbLine
10
-45
20
-8.5875
30
0
11
-45
21
-27.343428
31
0
39
0
210
0
220
0
230
1
0
LINE
5
16E
100
AcDbEntity
8
0
62
256
6
ByLayer
370
-2
48
1
60
0
100
AcDbLine
10
77.1242
20
-7.8875
30
0
11
77.1242
21
-27.343428
31
0
39
0
210
0
220
0
230
1
0
LINE
5
16F
100
AcDbEntity
8
0
62
256
6
ByLayer
370
-2
48
1
60
0
100
AcDbLine
10
-41.5
20
-25.343428
30
0
11
73.6242
21
-25.343428
31
0
39
0
210
0
220
0
230
1
0
SOLID
5
170
100
AcDbEntity
8
0
62
256
6
ByLayer
370
-1
48
1
60
0
100
AcDbTrace
10
-41.5
20
-24.760095
30
0
11
-41.5
21
-25.926762
31
0
12
-45
22
-25.343428
32
0
13
-45
23
-25.343428
33
0
39
0
210
0
220
0
230
1
0
SOLID
5
171
100
AcDbEntity
8
0
62
256
6
ByLayer
370
-1
48
1
60
0
100
AcDbTrace
10
73.6242
20
-25.926762
30
0
11
73.6242
21
-24.760095
31
0
12
77.1242
22
-25.343428
32
0
13
77.1242
23
-25.343428
33
0
39
0
210
0
220
0
230
1
0
MTEXT
5
172
100
AcDbEntity
8
0
62
256
6
ByLayer
370
18
48
1
60
0
100
AcDbMText
10
16.0621
20
-18.343428
30
0
210
0
220
0
230
1
1
\A1;122.12
40
3.5
41
0
44
1
50
0
71
5
72
5
7
iso_b_vert
0
POINT
5
173
100
AcDbEntity
8
Defpoints
62
0
6
ByLayer
370
-1
48
1
60
0
100
AcDbPoint
10
-45
20
-7
30
0
39
0
210
0
220
0
230
1
50
360
0
POINT
5
174
100
AcDbEntity
8
Defpoints
62
0
6
ByLayer
370
-1
48
1
60
0
100
AcDbPoint
10
77.1242
20
-6.3
30
0
39
0
210
0
220
0
230
1
50
360
0
POINT
5
175
100
AcDbEntity
8
Defpoints
62
0
6
ByLayer
370
-1
48
1
60
0
100
AcDbPoint
10
77.1242
20
-25.343428
30
0
39
0
210
0
220
0
230
1
50
360
0
ENDBLK
5
16C
100
AcDbEntity
8
0
100
AcDbBlockEnd
0
BLOCK
5
17D
100
AcDbEntity
8
0
100
AcDbBlockBegin
2
_U4
70
0
10
0
20
0
30
0
3
_U4
0
MTEXT
5
177
100
AcDbEntity
8
SK2
62
256
6
ByLayer
370
13
48
1
60
0
100
AcDbMText
10
10.491935
20
-24.310795
30
0
210
0
220
0
230
1
1
\W0.6440;122,12
40
3.5
41
0
44
1.084337
50
0
71
7
72
5
7
iso_b_vert
0
LINE
5
178
100
AcDbEntity
8
SK2
62
256
6
ByLayer
370
13
48
1
60
0
100
AcDbLine
10
-45
20
-8.5875
30
0
11
-45
21
-27.343428
31
0
39
0
210
0
220
0
230
1
0
LINE
5
179
100
AcDbEntity
8
SK2
62
256
6
ByLayer
370
13
48
1
60
0
100
AcDbLine
10
77.1242
20
-7.8875
30
0
11
77.1242
21
-27.343428
31
0
39
0
210
0
220
0
230
1
0
LINE
5
17A
100
AcDbEntity
8
SK2
62
256
6
ByLayer
370
13
48
1
60
0
100
AcDbLine
10
-45
20
-25.343428
30
0
11
77.1242
21
-25.343428
31
0
39
0
210
0
220
0
230
1
0
SOLID
5
17B
100
AcDbEntity
8
SK2
62
256
6
ByLayer
370
18
48
1
60
0
100
AcDbTrace
10
-45
20
-25.343428
30
0
11
-41.500002
21
-24.882645
31
0
12
-41.499998
22
-25.804212
32
0
13
-41.499998
23
-25.804212
33
0
39
0
210
0
220
0
230
1
0
SOLID
5
17C
100
AcDbEntity
8
SK2
62
256
6
ByLayer
370
18
48
1
60
0
100
AcDbTrace
10
77.1242
20
-25.343428
30
0
11
73.624202
21
-25.804212
31
0
12
73.624198
22
-24.882645
32
0
13
73.624198
23
-24.882645
33
0
39
0
210
0
220
0
230
1
0
ENDBLK
5
17E
100
AcDbEntity
8
0
100
AcDbBlockEnd
0
ENDSEC
0
SECTION
2
ENTITIES
0
ARC
5
AE
100
AcDbEntity
8
1
62
256
6
ByLayer
370
18
48
1
60
0
100
AcDbCircle
39
0
10
1.353876
20
7.052655
30
0
40
0.799999999999999
210
0
220
0
230
1
100
AcDbArc
50
212.202224
51
270.03581
0
ARC
5
AF
100
AcDbEntity
8
1
62
256
6
ByLayer
370
18
48
1
60
0
100
AcDbCircle
39
0
10
0
20
-6.2
30
0
40
0.8
210
0
220
0
230
1
100
AcDbArc
50
270
51
327.797776
0
ARC
5
B0
100
AcDbEntity
8
1
62
256
6
ByLayer
370
18
48
1
60
0
100
AcDbCircle
39
0
10
1.353876
20
-7.052655
30
0
40
0.799999999999999
210
0
220
0
230
1
100
AcDbArc
50
89.96419
51
147.797776
0
ARC
5
B1
100
AcDbEntity
8
1
62
256
6
ByLayer
370
18
48
1
60
0
100
AcDbCircle
39
0
10
0
20
6.2
30
0
40
0.8
210
0
220
0
230
1
100
AcDbArc
50
32.202224
51
90
0
ELLIPSE
5
B2
100
AcDbEntity
8
1
62
256
6
ByLayer
370
18
48
1
60
0
100
AcDbEllipse
10
4.25
20
6.189945
30
0
11
-0.25
21
3.06151588455594E-17
31
0
210
0
220
0
230
1
40
0.999999
41
0.00329232286764179
42
1.5838562709259
0
ELLIPSE
5
B3
100
AcDbEntity
8
1
62
256
6
ByLayer
370
18
48
1
60
0
100
AcDbEllipse
10
4.25
20
-6.189945
30
0
11
-0.25
21
3.06151588455594E-17
31
0
210
0
220
0
230
1
40
0.999999
41
-1.56254661121896
42
-0.00329232286751389
0
POINT
5
70
100
AcDbEntity
8
80
62
256
6
ByLayer
370
18
48
1
60
0
100
AcDbPoint
10
0
20
0
30
0
39
0
210
0
220
0
230
1
50
360
0
POINT
5
72
100
AcDbEntity
8
81
62
256
6
ByLayer
370
18
48
1
60
0
100
AcDbPoint
10
79
20
0
30
0
39
0
210
0
220
0
230
1
50
360
0
POINT
5
74
100
AcDbEntity
8
1
62
256
6
ByLayer
370
18
48
1
60
1
100
AcDbPoint
10
77.1242
20
-6.3
30
0
39
0
210
0
220
0
230
1
50
360
0
POINT
5
76
100
AcDbEntity
8
1
62
256
6
ByLayer
370
18
48
1
60
1
100
AcDbPoint
10
-45
20
-7
30
0
39
0
210
0
220
0
230
1
50
360
0
POINT
5
77
100
AcDbEntity
8
1
62
256
6
ByLayer
370
18
48
1
60
1
100
AcDbPoint
10
17.12
20
6.3
30
0
39
0
210
0
220
0
230
1
50
360
0
POINT
5
78
100
AcDbEntity
8
1
62
256
6
ByLayer
370
18
48
1
60
1
100
AcDbPoint
10
77.1242
20
-6.3
30
0
39
0
210
0
220
0
230
1
50
360
0
POINT
5
79
100
AcDbEntity
8
1
62
256
6
ByLayer
370
18
48
1
60
1
100
AcDbPoint
10
-45
20
-7
30
0
39
0
210
0
220
0
230
1
50
360
0
POINT
5
7A
100
AcDbEntity
8
1
62
256
6
ByLayer
370
18
48
1
60
1
100
AcDbPoint
10
77.1242
20
-6.3
30
0
39
0
210
0
220
0
230
1
50
360
0
SPLINE
5
B4
100
AcDbEntity
8
SK1
62
256
6
ByLayer
370
18
48
1
60
0
100
AcDbSpline
70
4
71
3
72
12
73
8
40
0
40
0
40
0
40
0
40
0.499999999999996
40
0.499999999999996
40
0.749999999999998
40
0.749999999999998
40
1
40
1
40
1
40
1
41
1
10
-44
20
-2.50005653261087
30
0
41
1
10
-43.9765248032774
20
-2.50523820208142
30
0
41
1
10
-43.9537853574511
20
-2.50286198418908
30
0
41
1
10
-43.9256353788013
20
-2.48663248294861
30
0
41
1
10
-43.9170526356788
20
-2.47887812659644
30
0
41
1
10
-43.9042470853815
20
-2.45791059364331
30
0
41
1
10
-43.9
20
-2.44427882691227
30
0
41
1
10
-43.9
20
-2.42877487256502
30
0
0
SPLINE
5
B5
100
AcDbEntity
8
SK1
62
256
6
ByLayer
370
18
48
1
60
0
100
AcDbSpline
70
4
71
3
72
8
73
4
40
0
40
0
40
0
40
0
40
1
40
1
40
1
40
1
41
1
10
-44.2668607364883
20
9.59306886728E-05
30
0
41
1
10
-44.5116968445084
20
-0.054058822276744
30
0
41
1
10
-44.756138059542
20
-0.108295201556558
30
0
41
1
10
-45
20
-0.162651319728269
30
0
0
SPLINE
5
B6
100
AcDbEntity
8
SK1
62
256
6
ByLayer
370
18
48
1
60
0
100
AcDbSpline
70
4
71
3
72
12
73
8
40
0
40
0
40
0
40
0
40
0.250000000000002
40
0.250000000000002
40
0.500000000000004
40
0.500000000000004
40
1
40
1
40
1
40
1
41
1
10
-43.9
20
-0.183057326842288
30
0
41
1
10
-43.9
20
-0.166167919372498
30
0
41
1
10
-43.9042016956282
20
-0.149507717932522
30
0
41
1
10
-43.9170234176167
20
-0.120628950889795
30
0
41
1
10
-43.9254954864758
20
-0.108318313097641
30
0
41
1
10
-43.9538426693661
20
-0.0772879503645356
30
0
41
1
10
-43.9765304760167
20
-0.064239617632893
30
0
41
1
10
-44
20
-0.0590592003034942
30
0
0
SPLINE
5
B7
100
AcDbEntity
8
SK1
62
256
6
ByLayer
370
18
48
1
60
0
100
AcDbSpline
70
4
71
3
72
8
73
4
40
0
40
0
40
0
40
0
40
1
40
1
40
1
40
1
41
1
10
-45
20
-2.27834601257908
30
0
41
1
10
-44.667584969072
20
-2.35244035739254
30
0
41
1
10
-44.334096360293
20
-2.42631159531336
30
0
41
1
10
-44
20
-2.50005653261084
30
0
0
SPLINE
5
B8
100
AcDbEntity
8
SK1
62
256
6
ByLayer
370
18
48
1
60
0
100
AcDbSpline
70
4
71
3
72
8
73
4
40
0
40
0
40
0
40
0
40
1
40
1
40
1
40
1
41
1
10
-44
20
-0.0590592003035226
30
0
41
1
10
-44.334098344153
20
0.0146861748904996
30
0
41
1
10
-44.6675873445997
20
0.0885575044129894
30
0
41
1
10
-45
20
0.162651319728269
30
0
0
SPLINE
5
B9
100
AcDbEntity
8
1
62
256
6
ByLayer
370
18
48
1
60
0
100
AcDbSpline
70
4
71
3
72
18
73
14
40
0
40
0
40
0
40
0
40
0.0484602792560118
40
0.0484602792560118
40
0.105072790499487
40
0.105072790499487
40
0.331522835473382
40
0.331522835473382
40
0.784422925421172
40
0.784422925421172
40
0.897647947908121
40
0.897647947908121
40
1
40
1
40
1
40
1
41
1
10
19.060945384355
20
-0.0285683307094473
30
0
41
1
10
19.2236331079769
20
-0.10968704886713
30
0
41
1
10
19.3865254020951
20
-0.190895818670697
30
0
41
1
10
19.7402057681707
20
-0.367072785079898
30
0
41
1
10
19.9312403405106
20
-0.462138494027641
30
0
41
1
10
20.8839806968377
20
-0.935344405973012
30
0
41
1
10
21.6411770146738
20
-1.30830234793672
30
0
41
1
10
23.9062173639527
20
-2.39420771353946
30
0
41
1
10
25.4066921046188
20
-3.0755262008214
30
0
41
1
10
27.2966168136431
20
-3.82540828813933
30
0
41
1
10
27.6752539247963
20
-3.97039855197485
30
0
41
1
10
28.3981982821824
20
-4.23561706887156
30
0
41
1
10
28.7428179907341
20
-4.35707554888717
30
0
41
1
10
29.0874818132353
20
-4.473165246912
30
0
0
SPLINE
5
BA
100
AcDbEntity
8
1
62
256
6
ByLayer
370
13
48
1
60
0
100
AcDbSpline
70
4
71
3
72
16
73
12
40
0
40
0
40
0
40
0
40
0.0099875520375327
40
0.0099875520375327
40
0.217995300810857
40
0.217995300810857
40
0.634010798357506
40
0.634010798357506
40
0.842018547130831
40
0.842018547130831
40
1
40
1
40
1
40
1
41
1
10
29.0874808655132
20
-4.47316492770017
30
0
41
1
10
29.1240951960968
20
-4.48549737069149
30
0
41
1
10
29.1607100245306
20
-4.49776922569933
30
0
41
1
10
29.9598668334741
20
-4.76427716936811
30
0
41
1
10
30.7173553912008
20
-4.99011269869649
30
0
41
1
10
32.982445137191
20
-5.5755197027498
30
0
41
1
10
34.4827512746359
20
-5.84246429801496
30
0
41
1
10
36.7492897874681
20
-6.03546704790341
30
0
41
1
10
37.5078720106438
20
-6.06527044739468
30
0
41
1
10
38.8505978728274
20
-6.05424279698761
30
0
41
1
10
39.4294324499073
20
-6.02874408711293
30
0
41
1
10
40.0086698362545
20
-5.98273311335538
30
0
0
SPLINE
5
BB
100
AcDbEntity
8
1
62
256
6
ByLayer
370
18
48
1
60
0
100
AcDbSpline
70
4
71
3
72
8
73
4
40
0
40
0
40
0
40
0
40
1
40
1
40
1
40
1
41
1
10
76.7831330028126
20
6.2915203542388
30
0
41
1
10
76.5753700155354
20
6.29692597322548
30
0
41
1
10
76.367503310218
20
6.29954389686043
30
0
41
1
10
76.1596072396399
20
6.29938680917044
30
0
0
SPLINE
5
BC
100
AcDbEntity
8
1
62
256
6
ByLayer
370
18
48
1
60
0
100
AcDbSpline
70
4
71
3
72
52
73
48
40
0
40
0
40
0
40
0
40
0.0346033244325903
40
0.0346033244325903
40
0.0647719705440727
40
0.0647719705440727
40
0.094940616655555
40
0.094940616655555
40
0.155277908878519
40
0.155277908878519
40
0.215615201101483
40
0.215615201101483
40
0.245783847212966
40
0.245783847212966
40
0.275952493324448
40
0.275952493324448
40
0.336289785547412
40
0.336289785547412
40
0.366458431658894
40
0.366458431658894
40
0.396627077770376
40
0.396627077770376
40
0.45696436999334
40
0.45696436999334
40
0.487133016104821
40
0.487133016104821
40
0.517301662216303
40
0.517301662216303
40
0.577638954439267
40
0.577638954439267
40
0.607807600550748
40
0.607807600550748
40
0.63797624666223
40
0.63797624666223
40
0.698313538885193
40
0.698313538885193
40
0.728482184996674
40
0.728482184996674
40
0.758650831108155
40
0.758650831108155
40
0.818988123331117
40
0.818988123331117
40
0.849156769442597
40
0.849156769442597
40
0.879325415554078
40
0.879325415554078
40
1
40
1
40
1
40
1
41
1
10
41.7709699335944
20
-5.98572561431186
30
0
41
1
10
41.3372687530364
20
-6.05315226813374
30
0
41
1
10
40.9032540528293
20
-6.1091442642973
30
0
41
1
10
40.0892645393636
20
-6.1918823726939
30
0
41
1
10
39.7102870975078
20
-6.22136237450397
30
0
41
1
10
38.9535656715101
20
-6.26201164659875
30
0
41
1
10
38.5755757864869
20
-6.27320484891857
30
0
41
1
10
37.4416151878123
20
-6.27935073731814
30
0
41
1
10
36.6855711412187
20
-6.24685441137345
30
0
41
1
10
35.1684334445627
20
-6.10888540886776
30
0
41
1
10
34.4125212943784
20
-6.00389668529704
30
0
41
1
10
33.2784282042429
20
-5.79514369099797
30
0
41
1
10
32.9003638408677
20
-5.71701550919548
30
0
41
1
10
32.143489669913
20
-5.54414159998518
30
0
41
1
10
31.7643595246809
20
-5.44931414974141
30
0
41
1
10
30.6269082512047
20
-5.14131457295824
30
0
41
1
10
29.8710664859652
20
-4.90535386994728
30
0
41
1
10
28.736840673923
20
-4.51070940399487
30
0
41
1
10
28.3586570407506
20
-4.3724228324505
30
0
41
1
10
27.6014960532978
20
-4.08311588389824
30
0
41
1
10
27.222075032532
20
-3.93191260275677
30
0
41
1
10
26.0849133526033
20
-3.46245533879428
30
0
41
1
10
25.329195198603
20
-3.12821145369179
30
0
41
1
10
24.1947723367692
20
-2.60247244895407
30
0
41
1
10
23.8165190840804
20
-2.42311747983948
30
0
41
1
10
23.0590603990186
20
-2.05745127214851
30
0
41
1
10
22.6794147098565
20
-1.87095028235129
30
0
41
1
10
21.5425553197212
20
-1.30524632572354
30
0
41
1
10
20.7868976100712
20
-0.919119728359902
30
0
41
1
10
19.6522741121579
20
-0.335132106354024
30
0
41
1
10
19.273875685185
20
-0.13967370834996
30
0
41
1
10
18.5160838129889
20
0.251647687078417
30
0
41
1
10
18.1364039937569
20
0.44763651471817
30
0
41
1
10
16.9999012728405
20
1.03126354199239
30
0
41
1
10
16.2441815999834
20
1.41555933586551
30
0
41
1
10
15.1092817343218
20
1.97676825119765
30
0
41
1
10
14.730755189267
20
2.16128811756238
30
0
41
1
10
13.9726135611965
20
2.5240285972599
30
0
41
1
10
13.5929969902237
20
2.70221740621508
30
0
41
1
10
12.4567463704913
20
3.22275417336843
30
0
41
1
10
11.7009897536923
20
3.55207531871406
30
0
41
1
10
10.5657846167252
20
4.01274397843619
30
0
41
1
10
10.1871303906511
20
4.16076430496506
30
0
41
1
10
9.42862128353008
20
4.44462755915472
30
0
41
1
10
9.04924017846994
20
4.58025484869083
30
0
41
1
10
7.15718871323028
20
5.22201350828848
30
0
41
1
10
5.65260512428699
20
5.62197471700767
30
0
41
1
10
4.13536184615529
20
5.88585660113137
30
0
0
SPLINE
5
BD
100
AcDbEntity
8
1
62
256
6
ByLayer
370
18
48
1
60
0
100
AcDbSpline
70
4
71
3
72
8
73
4
40
0
40
0
40
0
40
0
40
1
40
1
40
1
40
1
41
1
10
78.9891103087347
20
0.134073116133919
30
0
41
1
10
78.9898504681984
20
0.109237121271065
30
0
41
1
10
78.9939102924828
20
0.0796305096767469
30
0
41
1
10
78.9999652779276
20
0.0481969027091225
30
0
0
SPLINE
5
BE
100
AcDbEntity
8
1
62
256
6
ByLayer
370
18
48
1
60
0
100
AcDbSpline
70
4
71
3
72
12
73
8
40
0
40
0
40
0
40
0
40
0.305128631322756
40
0.305128631322756
40
0.924994993661411
40
0.924994993661411
40
1
40
1
40
1
40
1
41
1
10
38.263191538
20
-5.96059371170929
30
0
41
1
10
37.5125413115397
20
-5.9596055699391
30
0
41
1
10
36.7662950915799
20
-5.92433842464575
30
0
41
1
10
34.5125718449393
20
-5.71803977600746
30
0
41
1
10
33.012598601728
20
-5.44436859656051
30
0
41
1
10
31.320473509839
20
-5.00289420958484
30
0
41
1
10
31.1376814873103
20
-4.95349241996584
30
0
41
1
10
30.9547118836593
20
-4.90237382504978
30
0
0
SPLINE
5
BF
100
AcDbEntity
8
1
62
256
6
ByLayer
370
13
48
1
60
0
100
AcDbSpline
70
4
71
3
72
24
73
20
40
0
40
0
40
0
40
0
40
0.107296515107377
40
0.107296515107377
40
0.17807293491584
40
0.17807293491584
40
0.248849354724302
40
0.248849354724302
40
0.531955033958151
40
0.531955033958151
40
0.673507873575075
40
0.673507873575075
40
0.708896083479307
40
0.708896083479307
40
0.744284293383539
40
0.744284293383539
40
0.815060713192004
40
0.815060713192004
40
1
40
1
40
1
40
1
41
1
10
30.9547118837781
20
-4.90237382508298
30
0
41
1
10
30.3816206044555
20
-4.74226187002245
30
0
41
1
10
29.8067871712965
20
-4.5653072523225
30
0
41
1
10
28.8480989056509
20
-4.24529967230927
30
0
41
1
10
28.4670215082103
20
-4.11167575315821
30
0
41
1
10
27.7080801433997
20
-3.83386873198236
30
0
41
1
10
27.3296481338117
20
-3.68946383979474
30
0
41
1
10
25.4406553023646
20
-2.94341860857358
30
0
41
1
10
23.9405194404835
20
-2.26832255057798
30
0
41
1
10
21.6763672178035
20
-1.19594799819626
30
0
41
1
10
20.9194984351625
20
-0.828265844850876
30
0
41
1
10
19.9673425288812
20
-0.362497246044995
30
0
41
1
10
19.7764466167523
20
-0.268972931000832
30
0
41
1
10
19.3955938620155
20
-0.0822705340334835
30
0
41
1
10
19.20546856772
20
0.0109899651309604
30
0
41
1
10
18.6358915765817
20
0.290293915189182
30
0
41
1
10
18.2572355670903
20
0.475853740796424
30
0
41
1
10
16.8916884977069
20
1.141261702235
30
0
41
1
10
15.9090412021833
20
1.61331709972498
30
0
41
1
10
14.9257822649896
20
2.06517116303982
30
0
0
SPLINE
5
C0
100
AcDbEntity
8
1
62
256
6
ByLayer
370
18
48
1
60
0
100
AcDbSpline
70
4
71
3
72
8
73
4
40
0
40
0
40
0
40
0
40
1
40
1
40
1
40
1
41
1
10
78.9504649730153
20
-0.0806906490740573
30
0
41
1
10
78.5788481463762
20
-0.6888523063094
30
0
41
1
10
78.2167672272854
20
-1.30568263220548
30
0
41
1
10
77.8643682803165
20
-1.93131440755784
30
0
0
SPLINE
5
C1
100
AcDbEntity
8
1
62
256
6
ByLayer
370
18
48
1
60
0
100
AcDbSpline
70
4
71
3
72
104
73
100
40
0
40
0
40
0
40
0
40
0.0215337096866071
40
0.0215337096866071
40
0.040258544611012
40
0.040258544611012
40
0.0589833795354168
40
0.0589833795354168
40
0.0777082144598217
40
0.0777082144598217
40
0.0964330493842266
40
0.0964330493842266
40
0.133882719233036
40
0.133882719233036
40
0.152607554157441
40
0.152607554157441
40
0.171332389081845
40
0.171332389081845
40
0.208782058930654
40
0.208782058930654
40
0.227506893855058
40
0.227506893855058
40
0.246231728779462
40
0.246231728779462
40
0.264956563703866
40
0.264956563703866
40
0.28368139862827
40
0.28368139862827
40
0.302406233552674
40
0.302406233552674
40
0.321131068477078
40
0.321131068477078
40
0.339855903401482
40
0.339855903401482
40
0.358580738325886
40
0.358580738325886
40
0.396030408174695
40
0.396030408174695
40
0.4147552430991
40
0.4147552430991
40
0.433480078023505
40
0.433480078023505
40
0.452204912947909
40
0.452204912947909
40
0.470929747872314
40
0.470929747872314
40
0.489654582796718
40
0.489654582796718
40
0.508379417721123
40
0.508379417721123
40
0.545829087569931
40
0.545829087569931
40
0.564553922494335
40
0.564553922494335
40
0.583278757418739
40
0.583278757418739
40
0.602003592343143
40
0.602003592343143
40
0.620728427267547
40
0.620728427267547
40
0.639453262191951
40
0.639453262191951
40
0.658178097116355
40
0.658178097116355
40
0.67690293204076
40
0.67690293204076
40
0.695627766965164
40
0.695627766965164
40
0.714352601889568
40
0.714352601889568
40
0.733077436813972
40
0.733077436813972
40
0.751802271738376
40
0.751802271738376
40
0.77052710666278
40
0.77052710666278
40
0.789251941587184
40
0.789251941587184
40
0.807976776511588
40
0.807976776511588
40
0.826701611435992
40
0.826701611435992
40
0.845426446360396
40
0.845426446360396
40
0.882876116209204
40
0.882876116209204
40
0.901600951133608
40
0.901600951133608
40
0.920325786058012
40
0.920325786058012
40
0.939050620982416
40
0.939050620982416
40
0.95777545590682
40
0.95777545590682
40
0.976500290831225
40
0.976500290831225
40
0.995225125755629
40
0.995225125755629
40
1
40
1
40
1
40
1
41
1
10
64.9030995349647
20
-4.51620469401851
30
0
41
1
10
64.5700199445566
20
-4.62327507751002
30
0
41
1
10
64.2368640294521
20
-4.72570956346283
30
0
41
1
10
63.6139187252533
20
-4.90808331868533
30
0
41
1
10
63.3236719026641
20
-4.98897064007426
30
0
41
1
10
62.7432149424372
20
-5.14135477506207
30
0
41
1
10
62.453248910446
20
-5.21280268680383
30
0
41
1
10
61.8737473013416
20
-5.34543427564236
30
0
41
1
10
61.5842050142798
20
-5.40635706712217
30
0
41
1
10
61.0056499865896
20
-5.52058299907563
30
0
41
1
10
60.7163766628745
20
-5.57354749422544
30
0
41
1
10
59.8479491129609
20
-5.71814782478427
30
0
41
1
10
59.2681842589802
20
-5.79422549529414
30
0
41
1
10
58.3976649054147
20
-5.88054625475368
30
0
41
1
10
58.1077572594078
20
-5.90435670830277
30
0
41
1
10
57.5281827736226
20
-5.94079556591035
30
0
41
1
10
57.2385027810848
20
-5.95307157648352
30
0
41
1
10
56.3699524923322
20
-5.97659255467028
30
0
41
1
10
55.7921692344349
20
-5.97419803540956
30
0
41
1
10
54.9229178717708
20
-5.9361494968891
30
0
41
1
10
54.6328568880575
20
-5.91833571180905
30
0
41
1
10
54.0523865614037
20
-5.87390852742678
30
0
41
1
10
53.7621477081264
20
-5.84682021970178
30
0
41
1
10
53.1828315734862
20
-5.78198180251732
30
0
41
1
10
52.8932697265287
20
-5.74406763575055
30
0
41
1
10
52.3142033269315
20
-5.65882465790782
30
0
41
1
10
52.0247428750468
20
-5.61209186072659
30
0
41
1
10
51.4459729571931
20
-5.50894900901312
30
0
41
1
10
51.1567541846896
20
-5.45245801442636
30
0
41
1
10
50.5779543817591
20
-5.32934014010476
30
0
41
1
10
50.2881578014664
20
-5.26283110186125
30
0
41
1
10
49.7080050364358
20
-5.12233794888073
30
0
41
1
10
49.4174256908364
20
-5.04789362104063
30
0
41
1
10
48.837448614551
20
-4.8900926034122
30
0
41
1
10
48.5479663846949
20
-4.80652827072757
30
0
41
1
10
47.6798547514304
20
-4.54337025047698
30
0
41
1
10
47.1011521692775
20
-4.35441913743341
30
0
41
1
10
46.2327057114952
20
-4.04738488077888
30
0
41
1
10
45.9432468380924
20
-3.94077379863504
30
0
41
1
10
45.3637591377307
20
-3.7216444457901
30
0
41
1
10
45.0734116999356
20
-3.60914051943018
30
0
41
1
10
44.4930881517054
20
-3.37823567797423
30
0
41
1
10
44.2032096427736
20
-3.25995120882291
30
0
41
1
10
43.6240240096127
20
-3.01754695442875
30
0
41
1
10
43.3348480558748
20
-2.89337524741623
30
0
41
1
10
42.7564580279344
20
-2.64111848270957
30
0
41
1
10
42.4671845584922
20
-2.51293689537783
30
0
41
1
10
41.8882677759953
20
-2.25233738092038
30
0
41
1
10
41.5985893278859
20
-2.11990180383774
30
0
41
1
10
40.729332782566
20
-1.71691558194075
30
0
41
1
10
40.1489420685331
20
-1.44003198606885
30
0
41
1
10
39.279755620759
20
-1.02163113890106
30
0
41
1
10
38.9901921671808
20
-0.881417831784802
30
0
41
1
10
38.4115568078149
20
-0.599254362285023
30
0
41
1
10
38.1226013696095
20
-0.457045392885476
30
0
41
1
10
37.5441649725821
20
-0.172785436485555
30
0
41
1
10
37.2546784909172
20
-0.0307304381706501
30
0
41
1
10
36.6752715168852
20
0.253263078448327
30
0
41
1
10
36.3853767783522
20
0.395246882529364
30
0
41
1
10
35.8052429400215
20
0.679325088261976
30
0
41
1
10
35.5153356086564
20
0.821451855652754
30
0
41
1
10
34.9360336289102
20
1.10231535260377
30
0
41
1
10
34.6464878495101
20
1.24147221754586
30
0
41
1
10
34.0676099837765
20
1.51755967596748
30
0
41
1
10
33.778292083197
20
1.65450416738616
30
0
41
1
10
33.1998834555343
20
1.925732470301
30
0
41
1
10
32.9107982197471
20
2.05979635138337
30
0
41
1
10
32.3319011814135
20
2.32383416485666
30
0
41
1
10
32.0422136169035
20
2.45412249402742
30
0
41
1
10
31.4622202355894
20
2.71061059689495
30
0
41
1
10
31.1717750634257
20
2.83693552560186
30
0
41
1
10
30.5922209670794
20
3.0835479829405
30
0
41
1
10
30.3029303098136
20
3.20425125317607
30
0
41
1
10
29.7242418804876
20
3.44011177833858
30
0
41
1
10
29.4349396343014
20
3.55519456061066
30
0
41
1
10
28.8563320305119
20
3.77891646304613
30
0
41
1
10
28.5670047628643
20
3.88730498462331
30
0
41
1
10
27.9883168031107
20
4.09732654246116
30
0
41
1
10
27.6990581363903
20
4.19955235312042
30
0
41
1
10
27.119614843475
20
4.39667348353638
30
0
41
1
10
26.8292751909134
20
4.49187630026722
30
0
41
1
10
26.2492053611247
20
4.67333758073778
30
0
41
1
10
25.9594829065889
20
4.7590320078381
30
0
41
1
10
25.0913966959679
20
5.00636022121813
30
0
41
1
10
24.5136170792129
20
5.1569243136876
30
0
41
1
10
23.645397623742
20
5.35076938541229
30
0
41
1
10
23.355884288686
20
5.41090709275474
30
0
41
1
10
22.7768775800887
20
5.52347880872193
30
0
41
1
10
22.4872096938382
20
5.57555077783817
30
0
41
1
10
21.9070078726329
20
5.66922008808606
30
0
41
1
10
21.6170556708726
20
5.71039516447104
30
0
41
1
10
21.037414772566
20
5.78318873230646
30
0
41
1
10
20.7477697051028
20
5.81521210182467
30
0
41
1
10
20.168841979294
20
5.86928932868759
30
0
41
1
10
19.8794411382456
20
5.89113457620832
30
0
41
1
10
19.2998814649574
20
5.92447891044327
30
0
41
1
10
19.0097652075506
20
5.93616889826637
30
0
41
1
10
18.6455529493279
20
5.94475158109418
30
0
41
1
10
18.5715702188218
20
5.94617144029252
30
0
41
1
10
18.4976085079927
20
5.94726052484333
30
0
0
SPLINE
5
C2
100
AcDbEntity
8
1
62
256
6
ByLayer
370
18
48
1
60
0
100
AcDbSpline
70
4
71
3
72
96
73
92
40
0
40
0
40
0
40
0
40
0.0005095392424592
40
0.0005095392424592
40
0.0208910823917657
40
0.0208910823917657
40
0.041272625541072
40
0.041272625541072
40
0.0616541686903784
40
0.0616541686903784
40
0.0820357118396849
40
0.0820357118396849
40
0.122798798138298
40
0.122798798138298
40
0.143180341287604
40
0.143180341287604
40
0.16356188443691
40
0.16356188443691
40
0.183943427586217
40
0.183943427586217
40
0.204324970735523
40
0.204324970735523
40
0.22470651388483
40
0.22470651388483
40
0.245088057034136
40
0.245088057034136
40
0.285851143332749
40
0.285851143332749
40
0.306232686482055
40
0.306232686482055
40
0.326614229631362
40
0.326614229631362
40
0.346995772780668
40
0.346995772780668
40
0.367377315929975
40
0.367377315929975
40
0.387758859079281
40
0.387758859079281
40
0.408140402228587
40
0.408140402228587
40
0.448903488527201
40
0.448903488527201
40
0.469285031676507
40
0.469285031676507
40
0.489666574825813
40
0.489666574825813
40
0.51004811797512
40
0.51004811797512
40
0.530429661124426
40
0.530429661124426
40
0.550811204273733
40
0.550811204273733
40
0.571192747423039
40
0.571192747423039
40
0.611955833721651
40
0.611955833721651
40
0.632337376870957
40
0.632337376870957
40
0.652718920020263
40
0.652718920020263
40
0.673100463169569
40
0.673100463169569
40
0.693482006318875
40
0.693482006318875
40
0.713863549468181
40
0.713863549468181
40
0.734245092617487
40
0.734245092617487
40
0.775008178916099
40
0.775008178916099
40
0.795389722065404
40
0.795389722065404
40
0.81577126521471
40
0.81577126521471
40
0.836152808364016
40
0.836152808364016
40
0.856534351513322
40
0.856534351513322
40
0.876915894662627
40
0.876915894662627
40
0.897297437811933
40
0.897297437811933
40
0.938060524110545
40
0.938060524110545
40
0.958442067259851
40
0.958442067259851
40
0.978823610409157
40
0.978823610409157
40
0.999205153558463
40
0.999205153558463
40
1
40
1
40
1
40
1
41
1
10
26.8224879017167
20
4.50613493624013
30
0
41
1
10
26.8305447714565
20
4.50902284378381
30
0
41
1
10
26.838601714558
20
4.51190784091884
30
0
41
1
10
27.1689388134612
20
4.63007350616925
30
0
41
1
10
27.4913639382241
20
4.74066616288519
30
0
41
1
10
28.135967374486
20
4.95297698045721
30
0
41
1
10
28.4586220912157
20
5.054546037454
30
0
41
1
10
29.1042323444095
20
5.24502492971837
30
0
41
1
10
29.4268956533975
20
5.33440631947778
30
0
41
1
10
30.0714894729876
20
5.50203411879767
30
0
41
1
10
30.3933021402119
20
5.58037642073555
30
0
41
1
10
31.357875301133
20
5.79810964229921
30
0
41
1
10
32.0029551349487
20
5.91780168880447
30
0
41
1
10
32.9715954917419
20
6.06079253172931
30
0
41
1
10
33.2939152542465
20
6.10238959407599
30
0
41
1
10
33.9383861847759
20
6.17186701835348
30
0
41
1
10
34.2607214983618
20
6.19990697849897
30
0
41
1
10
34.9050898739383
20
6.24297183233054
30
0
41
1
10
35.2271706375745
20
6.25798703218558
30
0
41
1
10
35.8705288647736
20
6.27484310104552
30
0
41
1
10
36.1921344209697
20
6.27658727684735
30
0
41
1
10
36.8371316580494
20
6.26679246622879
30
0
41
1
10
37.1605133420582
20
6.2552753692745
30
0
41
1
10
37.8063448030361
20
6.21900473210397
30
0
41
1
10
38.1284593900686
20
6.1942036475676
30
0
41
1
10
39.0936046950491
20
6.09990009402006
30
0
41
1
10
39.7381551898742
20
6.01185748312227
30
0
41
1
10
40.7043500288733
20
5.84132349738337
30
0
41
1
10
41.0259665352974
20
5.77769704596966
30
0
41
1
10
41.6711898257197
20
5.63890378010103
30
0
41
1
10
41.9945228275083
20
5.56369031161893
30
0
41
1
10
42.6397297411516
20
5.40189485914738
30
0
41
1
10
42.9619722425604
20
5.31529359511472
30
0
41
1
10
43.6051468432431
20
5.12991914298735
30
0
41
1
10
43.9265622282858
20
5.03162384407858
30
0
41
1
10
44.5705812377949
20
4.8257380948362
30
0
41
1
10
44.8928986219305
20
4.7178429346057
30
0
41
1
10
45.5377437506053
20
4.49159765993693
30
0
41
1
10
45.8602718765639
20
4.37278418546302
30
0
41
1
10
46.8275782544613
20
4.00249029339238
30
0
41
1
10
47.4725923676241
20
3.74114682616855
30
0
41
1
10
48.4379097680546
20
3.32410822473193
30
0
41
1
10
48.7590291421342
20
3.18038043334977
30
0
41
1
10
49.4028754846992
20
2.88832331892235
30
0
41
1
10
49.7253648840395
20
2.73963731338077
30
0
41
1
10
50.37095672545
20
2.43607173832976
30
0
41
1
10
50.6941746917965
20
2.28120735306811
30
0
41
1
10
51.3381941006217
20
1.96563299159325
30
0
41
1
10
51.6599221755222
20
1.80588074404247
30
0
41
1
10
52.3039705103399
20
1.48465659263485
30
0
41
1
10
52.6260440552717
20
1.32273063074231
30
0
41
1
10
53.2699060568352
20
0.995523924573945
30
0
41
1
10
53.5913852916531
20
0.829642209952794
30
0
41
1
10
54.5569902807214
20
0.329935600380765
30
0
41
1
10
55.2045977360372
20
-0.0033692673503936
30
0
41
1
10
56.1705348217408
20
-0.503965115268954
30
0
41
1
10
56.4916725856405
20
-0.671473091163051
30
0
41
1
10
57.1351457339083
20
-1.00221531998906
30
0
41
1
10
57.457192189129
20
-1.16601774006355
30
0
41
1
10
58.1013918356351
20
-1.49147880313865
30
0
41
1
10
58.4235578242434
20
-1.65311267386775
30
0
41
1
10
59.0676627060799
20
-1.97481320991503
30
0
41
1
10
59.3905027286072
20
-2.13366667705247
30
0
41
1
10
60.0356098361401
20
-2.44457164007619
30
0
41
1
10
60.3579512700934
20
-2.59715214521594
30
0
41
1
10
61.0018502876562
20
-2.89722679916113
30
0
41
1
10
61.3230515554513
20
-3.04531340678037
30
0
41
1
10
62.2874873693224
20
-3.47834366157019
30
0
41
1
10
62.9325146660573
20
-3.75070353396524
30
0
41
1
10
63.9005722258672
20
-4.13876842237732
30
0
41
1
10
64.2222845582897
20
-4.2644069436291
30
0
41
1
10
64.8664128815049
20
-4.50430977895655
30
0
41
1
10
65.1885254773824
20
-4.61909503520769
30
0
41
1
10
65.8323533487555
20
-4.83909115704114
30
0
41
1
10
66.1540490153452
20
-4.94432108607208
30
0
41
1
10
66.7968183824107
20
-5.14524068861655
30
0
41
1
10
67.1186513657133
20
-5.24003702988261
30
0
41
1
10
67.7636568575242
20
-5.41797688944638
30
0
41
1
10
68.0869569336335
20
-5.50136817232729
30
0
41
1
10
68.7319085764579
20
-5.65652651759885
30
0
41
1
10
69.0533586099128
20
-5.72863827338523
30
0
41
1
10
70.0181502760699
20
-5.9255455210716
30
0
41
1
10
70.6624190065538
20
-6.03106796666322
30
0
41
1
10
71.6277467260661
20
-6.15235854639877
30
0
41
1
10
71.9493423279846
20
-6.18648666002423
30
0
41
1
10
72.594757481094
20
-6.24112976515596
30
0
41
1
10
72.9176786664312
20
-6.26177761882531
30
0
41
1
10
73.5625544576823
20
-6.2898996111104
30
0
41
1
10
73.8845910055464
20
-6.29738247428233
30
0
41
1
10
74.2188017390957
20
-6.29818121920692
30
0
41
1
10
74.2313468182278
20
-6.29820097836821
30
0
41
1
10
74.2438925281132
20
-6.29821052384173
30
0
0
SPLINE
5
C3
100
AcDbEntity
8
1
62
256
6
ByLayer
370
18
48
1
60
0
100
AcDbSpline
70
4
71
3
72
32
73
28
40
0
40
0
40
0
40
0
40
0.15021775214035
40
0.15021775214035
40
0.225326628210526
40
0.225326628210526
40
0.300435504280702
40
0.300435504280702
40
0.375544380350878
40
0.375544380350878
40
0.450653256421054
40
0.450653256421054
40
0.52576213249123
40
0.52576213249123
40
0.600871008561406
40
0.600871008561406
40
0.675979884631582
40
0.675979884631582
40
0.751088760701758
40
0.751088760701758
40
0.826197636771934
40
0.826197636771934
40
0.90130651284211
40
0.90130651284211
40
0.976415388912286
40
0.976415388912286
40
1
40
1
40
1
40
1
41
1
10
15.2424748454415
20
-5.78009887868748
30
0
41
1
10
15.8230416189698
20
-5.84795420387562
30
0
41
1
10
16.4025321722397
20
-5.89451770610248
30
0
41
1
10
17.2705822554477
20
-5.93573885590479
30
0
41
1
10
17.55972127678
20
-5.9446149362916
30
0
41
1
10
18.1381183782026
20
-5.95169758675158
30
0
41
1
10
18.4275466038301
20
-5.9498620830559
30
0
41
1
10
19.0068813737246
20
-5.93626346998116
30
0
41
1
10
19.2967725520082
20
-5.92462520780043
30
0
41
1
10
19.8769972548655
20
-5.89130744270383
30
0
41
1
10
20.1671251352145
20
-5.86943232273222
30
0
41
1
10
20.7464679866219
20
-5.81535097926934
30
0
41
1
10
21.0360546127011
20
-5.78334245659323
30
0
41
1
10
21.6151123197452
20
-5.7106562107644
30
0
41
1
10
21.9045204573852
20
-5.66958142793007
30
0
41
1
10
22.4830354092606
20
-5.5762644597487
30
0
41
1
10
22.7720770117628
20
-5.5243638919834
30
0
41
1
10
23.3507750170312
20
-5.41194788249803
30
0
41
1
10
23.6404854553927
20
-5.35181697203146
30
0
41
1
10
24.220497291053
20
-5.22241681158368
30
0
41
1
10
24.5109965615237
20
-5.15222913909145
30
0
41
1
10
25.0907846906798
20
-5.00314142311433
30
0
41
1
10
25.380156606915
20
-4.92408489777992
30
0
41
1
10
25.9590146275443
20
-4.75916956658079
30
0
41
1
10
26.2485119977891
20
-4.67354046819926
30
0
41
1
10
26.6287601281578
20
-4.55460710634603
30
0
41
1
10
26.7196220487449
20
-4.52575844827854
30
0
41
1
10
26.8104812038943
20
-4.49650637451907
30
0
0
SPLINE
5
C4
100
AcDbEntity
8
1
62
256
6
ByLayer
370
18
48
1
60
0
100
AcDbSpline
70
4
71
3
72
32
73
28
40
0
40
0
40
0
40
0
40
0.0249872411834679
40
0.0249872411834679
40
0.0859255386095022
40
0.0859255386095022
40
0.146863836035536
40
0.146863836035536
40
0.268740430887603
40
0.268740430887603
40
0.329678728313636
40
0.329678728313636
40
0.390617025739669
40
0.390617025739669
40
0.512493620591735
40
0.512493620591735
40
0.634370215443802
40
0.634370215443802
40
0.695308512869835
40
0.695308512869835
40
0.756246810295868
40
0.756246810295868
40
0.878123405147934
40
0.878123405147934
40
0.939061702573967
40
0.939061702573967
40
1
40
1
40
1
40
1
41
1
10
56.5952757434479
20
5.96819412977433
30
0
41
1
10
56.7142141653679
20
5.96653059832366
30
0
41
1
10
56.8331496642113
20
5.96406156900616
30
0
41
1
10
57.2420933452382
20
5.95294271267431
30
0
41
1
10
57.5319609282922
20
5.94060308453004
30
0
41
1
10
58.1110700570251
20
5.90410281400807
30
0
41
1
10
58.4003452187713
20
5.88029935383872
30
0
41
1
10
59.2679384344974
20
5.79421194551927
30
0
41
1
10
59.8472494166923
20
5.71827521653688
30
0
41
1
10
60.7174627631513
20
5.57336119940007
30
0
41
1
10
61.0078876297133
20
5.52016804801519
30
0
41
1
10
61.5877438871224
20
5.40563127381301
30
0
41
1
10
61.8776252636953
20
5.34459044202305
30
0
41
1
10
62.746606448206
20
5.14557310416086
30
0
41
1
10
63.3249866294374
20
4.99266977724034
30
0
41
1
10
64.4821670142611
20
4.65389598340869
30
0
41
1
10
65.0627271464446
20
4.46912537090793
30
0
41
1
10
65.9333885934743
20
4.17153383827019
30
0
41
1
10
66.2230788035176
20
4.06864686608222
30
0
41
1
10
66.8019767891156
20
3.8554577120932
30
0
41
1
10
67.0913599676929
20
3.74544990635115
30
0
41
1
10
67.9594672648946
20
3.40627258754586
30
0
41
1
10
68.5377569153309
20
3.16733590120017
30
0
41
1
10
69.4063486287724
20
2.7928332786993
30
0
41
1
10
69.6963168238079
20
2.66577919908326
30
0
41
1
10
70.2770400308146
20
2.40757640533144
30
0
41
1
10
70.5671302590857
20
2.27665731059253
30
0
41
1
10
70.8568403695123
20
2.14339846275863
30
0
0
SPLINE
5
C5
100
AcDbEntity
8
1
62
256
6
ByLayer
370
18
48
1
60
0
100
AcDbSpline
70
4
71
3
72
8
73
4
40
0
40
0
40
0
40
0
40
1
40
1
40
1
40
1
41
1
10
4.0000003616255
20
-1.75819348108985
30
0
41
1
10
4.0000003616255
20
-1.73300219104439
30
0
41
1
10
4.00000036162547
20
-1.70770718019668
30
0
41
1
10
4.00000036162547
20
-1.68230832939471
30
0
0
SPLINE
5
C6
100
AcDbEntity
8
1
62
256
6
ByLayer
370
18
48
1
60
0
100
AcDbSpline
70
4
71
3
72
48
73
44
40
0
40
0
40
0
40
0
40
0.124999999999996
40
0.124999999999996
40
0.187499999999994
40
0.187499999999994
40
0.249999999999991
40
0.249999999999991
40
0.312499999999989
40
0.312499999999989
40
0.374999999999987
40
0.374999999999987
40
0.406249999999986
40
0.406249999999986
40
0.437499999999985
40
0.437499999999985
40
0.453124999999985
40
0.453124999999985
40
0.468749999999984
40
0.468749999999984
40
0.484374999999984
40
0.484374999999984
40
0.499999999999983
40
0.499999999999983
40
0.515624999999982
40
0.515624999999982
40
0.531249999999982
40
0.531249999999982
40
0.562499999999981
40
0.562499999999981
40
0.624999999999984
40
0.624999999999984
40
0.687499999999986
40
0.687499999999986
40
0.749999999999989
40
0.749999999999989
40
0.812499999999992
40
0.812499999999992
40
0.874999999999995
40
0.874999999999995
40
0.937499999999997
40
0.937499999999997
40
1
40
1
40
1
40
1
41
1
10
77.1537982586856
20
-3.22953320922076
30
0
41
1
10
76.9243737093027
20
-3.16694143167612
30
0
41
1
10
76.6956826834861
20
-3.08322224825667
30
0
41
1
10
76.3537834449495
20
-2.92488623971462
30
0
41
1
10
76.2411157943567
20
-2.86702805011399
30
0
41
1
10
76.0190338843158
20
-2.74013162919363
30
0
41
1
10
75.9095516980572
20
-2.67111837822063
30
0
41
1
10
75.6945832971114
20
-2.51882565268326
30
0
41
1
10
75.5889603284566
20
-2.43551104208018
30
0
41
1
10
75.3884457931507
20
-2.25124304849476
30
0
41
1
10
75.2921711568186
20
-2.14968761273684
30
0
41
1
10
75.1686636805841
20
-1.97754087522415
30
0
41
1
10
75.1303985966038
20
-1.9157508744278
30
0
41
1
10
75.0691410183708
20
-1.78495540712186
30
0
41
1
10
75.0459760383715
20
-1.71504661195843
30
0
41
1
10
75.034483363565
20
-1.6109451273449
30
0
41
1
10
75.0346418529383
20
-1.57594054809215
30
0
41
1
10
75.0438427158906
20
-1.51067492398462
30
0
41
1
10
75.053005039353
20
-1.47949402406334
30
0
41
1
10
75.0783977268969
20
-1.42388554275266
30
0
41
1
10
75.0948343865592
20
-1.39875361128873
30
0
41
1
10
75.1320445323918
20
-1.35487065875418
30
0
41
1
10
75.1527891623988
20
-1.33594131283962
30
0
41
1
10
75.1974323196764
20
-1.30252276879514
30
0
41
1
10
75.2213853747483
20
-1.28806574219775
30
0
41
1
10
75.2704741586432
20
-1.26322938304105
30
0
41
1
10
75.2957824194557
20
-1.25272351019029
30
0
41
1
10
75.373453397535
20
-1.22557740332735
30
0
41
1
10
75.4278658370758
20
-1.21320221498226
30
0
41
1
10
75.5931755532991
20
-1.1880580680756
30
0
41
1
10
75.7055181675838
20
-1.18667521160995
30
0
41
1
10
75.9324851041969
20
-1.2003375008903
30
0
41
1
10
76.0471697457766
20
-1.21581693742772
30
0
41
1
10
76.2782654783332
20
-1.25920602241894
30
0
41
1
10
76.3937698825565
20
-1.28702409065446
30
0
41
1
10
76.6241480456293
20
-1.35238552901413
30
0
41
1
10
76.7391255336086
20
-1.38997919914729
30
0
41
1
10
76.9686929711027
20
-1.47416472204824
30
0
41
1
10
77.0832057929676
20
-1.52075668524657
30
0
41
1
10
77.309883085659
20
-1.62222140424745
30
0
41
1
10
77.4222931626083
20
-1.67716997975128
30
0
41
1
10
77.645032489781
20
-1.79651522908486
30
0
41
1
10
77.7553713755214
20
-1.86086815236084
30
0
41
1
10
77.8643682803157
20
-1.93131440756173
30
0
0
SPLINE
5
C7
100
AcDbEntity
8
1
62
256
6
ByLayer
370
18
48
1
60
0
100
AcDbSpline
70
4
71
3
72
8
73
4
40
0
40
0
40
0
40
0
40
1
40
1
40
1
40
1
41
1
10
78.9999652779277
20
0.048196902709094
30
0
41
1
10
79.0000115762023
20
0.0160641217882187
30
0
41
1
10
79.000011571483
20
-0.0160673971817857
30
0
41
1
10
78.9999652779277
20
-0.0481969027091793
30
0
0
SPLINE
5
C8
100
AcDbEntity
8
1
62
256
6
ByLayer
370
18
48
1
60
0
100
AcDbSpline
70
4
71
3
72
14
73
10
40
0
40
0
40
0
40
0
40
0.25
40
0.25
40
0.5
40
0.5
40
0.75
40
0.75
40
1
40
1
40
1
40
1
41
1
10
76.8797678643397
20
-5.97989953912546
30
0
41
1
10
76.8831729537266
20
-5.97933525071682
30
0
41
1
10
76.8859269712903
20
-5.9804842386576
30
0
41
1
10
76.8897280253058
20
-5.98725739762514
30
0
41
1
10
76.8907192197743
20
-5.99296956151775
30
0
41
1
10
76.8897847111252
20
-6.00993111025707
30
0
41
1
10
76.887787046145
20
-6.02119247814096
30
0
41
1
10
76.8809101259816
20
-6.04662611618804
30
0
41
1
10
76.8760961167663
20
-6.06059549480156
30
0
41
1
10
76.8707767523924
20
-6.07385231279048
30
0
0
SPLINE
5
C9
100
AcDbEntity
8
1
62
256
6
ByLayer
370
18
48
1
60
0
100
AcDbSpline
70
4
71
3
72
16
73
12
40
0
40
0
40
0
40
0
40
0.190777836666069
40
0.190777836666069
40
0.730079512289501
40
0.730079512289501
40
0.864904931195359
40
0.864904931195359
40
0.999730350101217
40
0.999730350101217
40
1
40
1
40
1
40
1
41
1
10
57.1364870995445
20
-0.0140072992480782
30
0
41
1
10
57.6715542339293
20
-0.281861896790844
30
0
41
1
10
58.2048422333053
20
-0.548775025799614
30
0
41
1
10
60.2422980476998
20
-1.55973131010782
30
0
41
1
10
61.7401055126043
20
-2.28495733464561
30
0
41
1
10
63.6295324158187
20
-3.1127433225889
30
0
41
1
10
64.0082429467468
20
-3.27443735882323
30
0
41
1
10
64.7679738620596
20
-3.58881471310488
30
0
41
1
10
65.1498859067181
20
-3.74182891333254
30
0
41
1
10
65.5309566615949
20
-3.88878629130201
30
0
41
1
10
65.5317172742879
20
-3.88907959339971
30
0
41
1
10
65.5324778820507
20
-3.88937287051189
30
0
0
SPLINE
5
CA
100
AcDbEntity
8
1
62
256
6
ByLayer
370
13
48
1
60
0
100
AcDbSpline
70
4
71
3
72
16
73
12
40
0
40
0
40
0
40
0
40
0.199839968508837
40
0.199839968508837
40
0.599919984254418
40
0.599919984254418
40
0.799959992127209
40
0.799959992127209
40
0.899979996063604
40
0.899979996063604
40
1
40
1
40
1
40
1
41
1
10
65.532477882652
20
-3.88937287074367
30
0
41
1
10
66.2923276863033
20
-4.18235772702539
30
0
41
1
10
67.0472571858148
20
-4.45040682935402
30
0
41
1
10
69.3065689561115
20
-5.17145704779418
30
0
41
1
10
70.8037344998943
20
-5.54085331283449
30
0
41
1
10
73.0658510715996
20
-5.89614756140233
30
0
41
1
10
73.8227167219983
20
-5.98150699584372
30
0
41
1
10
74.9660388452625
20
-6.05659774094957
30
0
41
1
10
75.3472790288084
20
-6.07269620621855
30
0
41
1
10
76.1090373302811
20
-6.086822111179
30
0
41
1
10
76.4898067161782
20
-6.08486478094204
30
0
41
1
10
76.8707767522274
20
-6.07385231279525
30
0
0
SPLINE
5
CB
100
AcDbEntity
8
1
62
256
6
ByLayer
370
18
48
1
60
0
100
AcDbSpline
70
4
71
3
72
12
73
8
40
0
40
0
40
0
40
0
40
0.25000000000001
40
0.25000000000001
40
0.50000000000002
40
0.50000000000002
40
1
40
1
40
1
40
1
41
1
10
4.13536184615532
20
5.88585660113137
30
0
41
1
10
4.11491574745719
20
5.88941262614409
30
0
41
1
10
4.09637061872883
20
5.89380039545139
30
0
41
1
10
4.06298313561393
20
5.90410685467376
30
0
41
1
10
4.04838676398444
20
5.90999352559174
30
0
41
1
10
4.01292928239042
20
5.92882864664568
30
0
41
1
10
4.00000036162544
20
5.94318443037062
30
0
41
1
10
4.0000003616255
20
5.9571985135388
30
0
0
SPLINE
5
CC
100
AcDbEntity
8
1
62
256
6
ByLayer
370
18
48
1
60
0
100
AcDbSpline
70
4
71
3
72
62
73
58
40
0
40
0
40
0
40
0
40
0.0312500000000015
40
0.0312500000000015
40
0.0625000000000029
40
0.0625000000000029
40
0.0937500000000044
40
0.0937500000000044
40
0.109375000000005
40
0.109375000000005
40
0.125000000000006
40
0.125000000000006
40
0.156250000000007
40
0.156250000000007
40
0.171875000000007
40
0.171875000000007
40
0.187500000000008
40
0.187500000000008
40
0.203125000000008
40
0.203125000000008
40
0.218750000000009
40
0.218750000000009
40
0.234375000000009
40
0.234375000000009
40
0.250000000000009
40
0.250000000000009
40
0.28125000000001
40
0.28125000000001
40
0.31250000000001
40
0.31250000000001
40
0.34375000000001
40
0.34375000000001
40
0.35156250000001
40
0.35156250000001
40
0.355468750000009
40
0.355468750000009
40
0.359375000000009
40
0.359375000000009
40
0.363281250000009
40
0.363281250000009
40
0.367187500000008
40
0.367187500000008
40
0.375000000000009
40
0.375000000000009
40
0.437500000000008
40
0.437500000000008
40
0.500000000000008
40
0.500000000000008
40
0.625000000000006
40
0.625000000000006
40
0.750000000000003
40
0.750000000000003
40
0.875000000000001
40
0.875000000000001
40
0.937500000000001
40
0.937500000000001
40
1
40
1
40
1
40
1
41
1
10
4.00000036163775
20
-1.75819348109351
30
0
41
1
10
3.84938801957233
20
-1.64230835768149
30
0
41
1
10
3.70124407524409
20
-1.52242409524021
30
0
41
1
10
3.41135943875293
20
-1.27247623069059
30
0
41
1
10
3.26920674300086
20
-1.14201355845074
30
0
41
1
10
2.99661660076632
20
-0.870534969160786
30
0
41
1
10
2.86594964808288
20
-0.729431857310828
30
0
41
1
10
2.68155137039321
20
-0.506792417740911
30
0
41
1
10
2.62203424038745
20
-0.430734237502634
30
0
41
1
10
2.50771100923623
20
-0.274170975581711
30
0
41
1
10
2.4527682029929
20
-0.193418527607122
30
0
41
1
10
2.2988066284087
20
0.0534862922070261
30
0
41
1
10
2.20973745154109
20
0.22489211137335
30
0
41
1
10
2.10605950300356
20
0.497023965673833
30
0
41
1
10
2.07666012318407
20
0.590331540349297
30
0
41
1
10
2.03155775006454
20
0.777494141328731
30
0
41
1
10
2.01558655956598
20
0.871955713878776
30
0
41
1
10
1.99856780830453
20
1.06290359122212
30
0
41
1
10
1.99770519861551
20
1.16007562481138
30
0
41
1
10
2.01207842281116
20
1.34927280965505
30
0
41
1
10
2.02712969738627
20
1.44207853076458
30
0
41
1
10
2.07249101135437
20
1.62426140941548
30
0
41
1
10
2.10320058001724
20
1.71441510068851
30
0
41
1
10
2.17729217004876
20
1.88651148592783
30
0
41
1
10
2.22053219968245
20
1.96865425704891
30
0
41
1
10
2.36604076361837
20
2.20522240036132
30
0
41
1
10
2.48532626343817
20
2.35092873909326
30
0
41
1
10
2.7452794300836
20
2.61317497092673
30
0
41
1
10
2.88664310256013
20
2.73118757032123
30
0
41
1
10
3.18564483742529
20
2.94888816539324
30
0
41
1
10
3.34371774767897
20
3.04864681444215
30
0
41
1
10
3.54701461233185
20
3.16338490155394
30
0
41
1
10
3.58800522870601
20
3.18585758341388
30
0
41
1
10
3.64985091607304
20
3.21884653163494
30
0
41
1
10
3.67020931086054
20
3.23024260525938
30
0
41
1
10
3.71551558417198
20
3.24544816865154
30
0
41
1
10
3.7399231992606
20
3.25051926961387
30
0
41
1
10
3.78805170720818
20
3.25676109735946
30
0
41
1
10
3.81219409820341
20
3.25758778337985
30
0
41
1
10
3.86050956241286
20
3.25834194435745
30
0
41
1
10
3.88467376149441
20
3.2585292881451
30
0
41
1
10
3.95717074382992
20
3.2589626901885
30
0
41
1
10
4.00550156024298
20
3.25926642674079
30
0
41
1
10
4.44052690550009
20
3.26059211939335
30
0
41
1
10
4.82714976614318
20
3.25350914835943
30
0
41
1
10
5.59922444738908
20
3.22323446176887
30
0
41
1
10
5.98529375015579
20
3.19999095128642
30
0
41
1
10
7.13900420331515
20
3.10637299492873
30
0
41
1
10
7.89970152803204
20
3.01239148782065
30
0
41
1
10
9.40554727873456
20
2.76219577085175
30
0
41
1
10
10.1506535806706
20
2.60578884364446
30
0
41
1
10
11.6270922634861
20
2.23162184069221
30
0
41
1
10
12.35841904117
20
2.01379543896039
30
0
41
1
10
13.447285429801
20
1.64469714216085
30
0
41
1
10
13.8092268046092
20
1.51452580192887
30
0
41
1
10
14.5287804147715
20
1.2421434851108
30
0
41
1
10
14.8864751730879
20
1.09991134908734
30
0
41
1
10
15.2424748454414
20
0.952394105868791
30
0
0
SPLINE
5
CD
100
AcDbEntity
8
1
62
256
6
ByLayer
370
18
48
1
60
0
100
AcDbSpline
70
4
71
3
72
32
73
28
40
0
40
0
40
0
40
0
40
0.0625000000000019
40
0.0625000000000019
40
0.0937500000000029
40
0.0937500000000029
40
0.125000000000004
40
0.125000000000004
40
0.187500000000007
40
0.187500000000007
40
0.218750000000007
40
0.218750000000007
40
0.250000000000008
40
0.250000000000008
40
0.375000000000008
40
0.375000000000008
40
0.437500000000008
40
0.437500000000008
40
0.500000000000007
40
0.500000000000007
40
0.625000000000005
40
0.625000000000005
40
0.750000000000003
40
0.750000000000003
40
0.875000000000002
40
0.875000000000002
40
1
40
1
40
1
40
1
41
1
10
70.8568403695224
20
2.14339846275365
30
0
41
1
10
70.8464119565385
20
1.95324148025989
30
0
41
1
10
70.8501260463631
20
1.75967896838978
30
0
41
1
10
70.8770440023163
20
1.46419486384727
30
0
41
1
10
70.8896351156851
20
1.3645204822792
30
0
41
1
10
70.9218173152175
20
1.16486914491838
30
0
41
1
10
70.9412516469437
20
1.06570378012401
30
0
41
1
10
71.0089335001624
20
0.770060053894241
30
0
41
1
10
71.066528664979
20
0.575427895560097
30
0
41
1
10
71.169750860648
20
0.286803552524219
30
0
41
1
10
71.2069715837913
20
0.191151082890371
30
0
41
1
10
71.2868142512148
20
0.0009129099580605
30
0
41
1
10
71.3292895629532
20
-0.0932811143364347
30
0
41
1
10
71.5512969683044
20
-0.555377501589447
30
0
41
1
10
71.761137538816
20
-0.90177434498267
30
0
41
1
10
72.1119016348256
20
-1.39536761773067
30
0
41
1
10
72.2354118047963
20
-1.55600849602371
30
0
41
1
10
72.4890220708666
20
-1.86418265133526
30
0
41
1
10
72.6195174230805
20
-2.01234904747562
30
0
41
1
10
73.0208469586418
20
-2.44105510794012
30
0
41
1
10
73.3016251872112
20
-2.70564029317288
30
0
41
1
10
73.8839220411681
20
-3.20153424342942
30
0
41
1
10
74.1867076942576
20
-3.43349117341606
30
0
41
1
10
74.7988199532477
20
-3.86057544896221
30
0
41
1
10
75.1093262846098
20
-4.0568138953432
30
0
41
1
10
75.7379597723325
20
-4.41965878311328
30
0
41
1
10
76.0560862120787
20
-4.58626801091057
30
0
41
1
10
76.3777139097209
20
-4.73926332007431
30
0
0
SPLINE
5
CE
100
AcDbEntity
8
1
62
256
6
ByLayer
370
18
48
1
60
0
100
AcDbSpline
70
4
71
3
72
58
73
54
40
0
40
0
40
0
40
0
40
0.0292997361665455
40
0.0292997361665455
40
0.058599472333091
40
0.058599472333091
40
0.117198944666182
40
0.117198944666182
40
0.146498680832727
40
0.146498680832727
40
0.175798416999273
40
0.175798416999273
40
0.234397889332365
40
0.234397889332365
40
0.26369762549891
40
0.26369762549891
40
0.292997361665456
40
0.292997361665456
40
0.351596833998548
40
0.351596833998548
40
0.410196306331639
40
0.410196306331639
40
0.468795778664731
40
0.468795778664731
40
0.498095514831277
40
0.498095514831277
40
0.527395250997824
40
0.527395250997824
40
0.585994723330917
40
0.585994723330917
40
0.615294459497464
40
0.615294459497464
40
0.644594195664011
40
0.644594195664011
40
0.703193667997105
40
0.703193667997105
40
0.732493404163651
40
0.732493404163651
40
0.761793140330198
40
0.761793140330198
40
0.820392612663291
40
0.820392612663291
40
0.849692348829838
40
0.849692348829838
40
0.878992084996384
40
0.878992084996384
40
0.937591557329478
40
0.937591557329478
40
0.966891293496025
40
0.966891293496025
40
0.996191029662571
40
0.996191029662571
40
1
40
1
40
1
40
1
41
1
10
76.7831330028126
20
-6.2915203542388
30
0
41
1
10
76.4045747997453
20
-6.30136975733453
30
0
41
1
10
76.0260726082808
20
-6.30199943307486
30
0
41
1
10
75.2685522054176
20
-6.28484815964174
30
0
41
1
10
74.8894532415553
20
-6.26704080364516
30
0
41
1
10
73.7545780626601
20
-6.18641298095437
30
0
41
1
10
72.9997797891657
20
-6.09639856881464
30
0
41
1
10
71.86623585699
20
-5.90892702379122
30
0
41
1
10
71.4881416766398
20
-5.83770684122575
30
0
41
1
10
70.730716712702
20
-5.67823183271423
30
0
41
1
10
70.35167956293
20
-5.58998412367734
30
0
41
1
10
69.2171022908222
20
-5.30175803810764
30
0
41
1
10
68.4623079638764
20
-5.07804070262179
30
0
41
1
10
67.3283621582921
20
-4.69981761584481
30
0
41
1
10
66.9501018305211
20
-4.56662002784469
30
0
41
1
10
66.192331270708
20
-4.28677708593366
30
0
41
1
10
65.8136158182858
20
-4.14036874027394
30
0
41
1
10
64.6793010368402
20
-3.68453776640831
30
0
41
1
10
63.9244236696779
20
-3.35820506065505
30
0
41
1
10
62.4119275788498
20
-2.66947447851931
30
0
41
1
10
61.6531085126384
20
-2.3061457784984
30
0
41
1
10
60.1409047125246
20
-1.55927832286548
30
0
41
1
10
59.3859537979366
20
-1.1755025531597
30
0
41
1
10
58.2512789696428
20
-0.591863718426737
30
0
41
1
10
57.8723827931519
20
-0.395823755792918
30
0
41
1
10
57.1144866090154
20
-0.0031592751866469
30
0
41
1
10
56.736172646029
20
0.193142036046339
30
0
41
1
10
55.6021034267506
20
0.77996548041375
30
0
41
1
10
54.8470650469038
20
1.16810463313226
30
0
41
1
10
53.7120193951453
20
1.73802295898156
30
0
41
1
10
53.3328319700591
20
1.92617866965321
30
0
41
1
10
52.5751809223885
20
2.29576650351493
30
0
41
1
10
52.1969175271237
20
2.47714326583002
30
0
41
1
10
51.0628783997375
20
3.00941717446801
30
0
41
1
10
50.3077405239441
20
3.34825024656192
30
0
41
1
10
49.1722502497991
20
3.82549283001714
30
0
41
1
10
48.7928605627678
20
3.97957443818768
30
0
41
1
10
48.0354280232912
20
4.2749898658534
30
0
41
1
10
47.6572361369466
20
4.41642966588552
30
0
41
1
10
46.5232502204007
20
4.82067862712466
30
0
41
1
10
45.7679667171614
20
5.0633011650342
30
0
41
1
10
44.6319840495916
20
5.3817753516615
30
0
41
1
10
44.2525172887646
20
5.48040924240772
30
0
41
1
10
43.4952778722617
20
5.66088051583736
30
0
41
1
10
43.1171333387309
20
5.74284061412257
30
0
41
1
10
41.9831365063391
20
5.96322156369979
30
0
41
1
10
41.2277071770119
20
6.07611315546635
30
0
41
1
10
40.0911940707686
20
6.19171216765184
30
0
41
1
10
39.7117641611541
20
6.22126199352419
30
0
41
1
10
38.9547035563582
20
6.26197148623851
30
0
41
1
10
38.5766245032308
20
6.27318237866192
30
0
41
1
10
38.1494889714516
20
6.27551632873846
30
0
41
1
10
38.1003509322327
20
6.27563025498148
30
0
41
1
10
38.0512136322657
20
6.2755896458242
30
0
0
SPLINE
5
CF
100
AcDbEntity
8
1
62
256
6
ByLayer
370
18
48
1
60
0
100
AcDbSpline
70
4
71
3
72
8
73
4
40
0
40
0
40
0
40
0
40
1
40
1
40
1
40
1
41
1
10
77.1537982586856
20
-3.22953320922073
30
0
41
1
10
76.8891278237799
20
-3.72734438060417
30
0
41
1
10
76.6304130532536
20
-4.23056958110863
30
0
41
1
10
76.3777139097208
20
-4.7392633200744
30
0
0
SPLINE
5
D0
100
AcDbEntity
8
1
62
256
6
ByLayer
370
18
48
1
60
0
100
AcDbSpline
70
4
71
3
72
8
73
4
40
0
40
0
40
0
40
0
40
1
40
1
40
1
40
1
41
1
10
76.8707767523639
20
-6.07385231286139
30
0
41
1
10
76.8416198707995
20
-6.14651653453365
30
0
41
1
10
76.8124039209655
20
-6.21907191209539
30
0
41
1
10
76.7831330028125
20
-6.29152035423883
30
0
0
SPLINE
5
D1
100
AcDbEntity
8
1
62
256
6
ByLayer
370
18
48
1
60
0
100
AcDbSpline
70
4
71
3
72
36
73
32
40
0
40
0
40
0
40
0
40
0.249999999999993
40
0.249999999999993
40
0.374999999999991
40
0.374999999999991
40
0.49999999999999
40
0.49999999999999
40
0.562499999999989
40
0.562499999999989
40
0.624999999999988
40
0.624999999999988
40
0.749999999999982
40
0.749999999999982
40
0.812499999999979
40
0.812499999999979
40
0.84374999999998
40
0.84374999999998
40
0.851562499999981
40
0.851562499999981
40
0.859374999999982
40
0.859374999999982
40
0.863281249999982
40
0.863281249999982
40
0.867187499999983
40
0.867187499999983
40
0.874999999999984
40
0.874999999999984
40
0.937499999999992
40
0.937499999999992
40
1
40
1
40
1
40
1
41
1
10
70.8568403695225
20
2.14339846275391
30
0
41
1
10
71.3657796375887
20
1.70590171518998
30
0
41
1
10
71.900125373579
20
1.32508616893747
30
0
41
1
10
72.7440689865218
20
0.848511994829465
30
0
41
1
10
73.0274464388051
20
0.708245767024323
30
0
41
1
10
73.5978586214795
20
0.465856347347625
30
0
41
1
10
73.8849547900717
20
0.363412110111739
30
0
41
1
10
74.3189039298213
20
0.24253181651261
30
0
41
1
10
74.4641110973137
20
0.207768598680815
30
0
41
1
10
74.755705639775
20
0.149950387056776
30
0
41
1
10
74.9020928848996
20
0.126974407628552
30
0
41
1
10
75.3373040391004
20
0.077924110124286
30
0
41
1
10
75.6243174122084
20
0.0710632443849306
30
0
41
1
10
76.0481129439181
20
0.10731494599645
30
0
41
1
10
76.187569413153
20
0.127151182576711
30
0
41
1
10
76.3931075464677
20
0.169676211682741
30
0
41
1
10
76.4609957619985
20
0.185981407978858
30
0
41
1
10
76.5449140508004
20
0.209142941615369
30
0
41
1
10
76.5617952736869
20
0.213527793247977
30
0
41
1
10
76.594732584081
20
0.22449525953246
30
0
41
1
10
76.6103013030654
20
0.232863499714767
30
0
41
1
10
76.6280108831667
20
0.253463911730279
30
0
41
1
10
76.6328353341052
20
0.261454545669494
30
0
41
1
10
76.6395540812847
20
0.279982667394051
30
0
41
1
10
76.6407943906815
20
0.290130441189888
30
0
41
1
10
76.6446666458994
20
0.320510654696307
30
0
41
1
10
76.6465382853803
20
0.341060164813939
30
0
41
1
10
76.6655528001555
20
0.525100901506931
30
0
41
1
10
76.6747451475011
20
0.691476931371341
30
0
41
1
10
76.6797217981324
20
1.02733974095543
30
0
41
1
10
76.6756424994211
20
1.1960115921602
30
0
41
1
10
76.6662301622243
20
1.36528470025777
30
0
0
SPLINE
5
D2
100
AcDbEntity
8
1
62
256
6
ByLayer
370
18
48
1
60
0
100
AcDbSpline
70
4
71
3
72
30
73
26
40
0
40
0
40
0
40
0
40
0.0625000000000002
40
0.0625000000000002
40
0.125
40
0.125
40
0.187500000000001
40
0.187500000000001
40
0.250000000000001
40
0.250000000000001
40
0.312500000000001
40
0.312500000000001
40
0.375000000000001
40
0.375000000000001
40
0.500000000000002
40
0.500000000000002
40
0.625000000000003
40
0.625000000000003
40
0.750000000000004
40
0.750000000000004
40
0.875000000000005
40
0.875000000000005
40
0.937500000000002
40
0.937500000000002
40
1
40
1
40
1
40
1
41
1
10
77.8643682803148
20
-1.93131440756045
30
0
41
1
10
77.8594383792733
20
-1.96832636525099
30
0
41
1
10
77.8526799632003
20
-2.00825271510965
30
0
41
1
10
77.8361396121378
20
-2.08995563930944
30
0
41
1
10
77.8263352351887
20
-2.13206385899045
30
0
41
1
10
77.8036849767879
20
-2.21880235637232
30
0
41
1
10
77.7907661155767
20
-2.26358045963261
30
0
41
1
10
77.7629853142182
20
-2.35205810928281
30
0
41
1
10
77.7480154307049
20
-2.39620674541465
30
0
41
1
10
77.7160149478499
20
-2.48434030152632
30
0
41
1
10
77.6991036417166
20
-2.52795006931376
30
0
41
1
10
77.6644525966134
20
-2.61220929367102
30
0
41
1
10
77.6465909684778
20
-2.65319554795008
30
0
41
1
10
77.5914938573295
20
-2.77286371268968
30
0
41
1
10
77.5540530601431
20
-2.84550242120039
30
0
41
1
10
77.4790351410587
20
-2.97614200416567
30
0
41
1
10
77.4415562435198
20
-3.03371826613847
30
0
41
1
10
77.3710860179233
20
-3.12803101088989
30
0
41
1
10
77.3376379771319
20
-3.16567313586964
30
0
41
1
10
77.2742699605593
20
-3.22159351639132
30
0
41
1
10
77.2456565453969
20
-3.23871623975916
30
0
41
1
10
77.207210276513
20
-3.24812949393458
30
0
41
1
10
77.1950683166846
20
-3.24848953629632
30
0
41
1
10
77.1728547376611
20
-3.24334032822216
30
0
41
1
10
77.1628006542943
20
-3.23789126575099
30
0
41
1
10
77.1537982586856
20
-3.22953320922076
30
0
0
SPLINE
5
D3
100
AcDbEntity
8
1
62
256
6
ByLayer
370
18
48
1
60
0
100
AcDbSpline
70
4
71
3
72
42
73
38
40
0
40
0
40
0
40
0
40
0.0925243480849015
40
0.0925243480849015
40
0.138786522127352
40
0.138786522127352
40
0.185048696169803
40
0.185048696169803
40
0.231310870212254
40
0.231310870212254
40
0.277573044254704
40
0.277573044254704
40
0.370097392339606
40
0.370097392339606
40
0.462621740424507
40
0.462621740424507
40
0.508883914466957
40
0.508883914466957
40
0.555146088509407
40
0.555146088509407
40
0.601408262551857
40
0.601408262551857
40
0.647670436594307
40
0.647670436594307
40
0.693932610636757
40
0.693932610636757
40
0.740194784679207
40
0.740194784679207
40
0.832719132764107
40
0.832719132764107
40
0.878981306806557
40
0.878981306806557
40
0.925243480849006
40
0.925243480849006
40
0.971505654891456
40
0.971505654891456
40
1
40
1
40
1
40
1
41
1
10
15.2424748454414
20
0.952394105868791
30
0
41
1
10
15.8873368987211
20
0.619917916815155
30
0
41
1
10
16.5330080294348
20
0.289768491172339
30
0
41
1
10
17.4995013231859
20
-0.208308972429904
30
0
41
1
10
17.8209299563796
20
-0.375585849491387
30
0
41
1
10
18.4647554384284
20
-0.707889293479667
30
0
41
1
10
18.7872722213428
20
-0.872684793317347
30
0
41
1
10
19.4330526928766
20
-1.20046281365049
30
0
41
1
10
19.7566192310154
20
-1.36355639480553
30
0
41
1
10
20.4017128255617
20
-1.68759365540757
30
0
41
1
10
20.7234236528593
20
-1.84861828279318
30
0
41
1
10
21.6899555537432
20
-2.32147327772361
30
0
41
1
10
22.3346129065683
20
-2.62617002131205
30
0
41
1
10
23.6220795533899
20
-3.2185111562795
30
0
41
1
10
24.2698128767961
20
-3.50004693065205
30
0
41
1
10
25.237106206019
20
-3.89955091171438
30
0
41
1
10
25.5585827139646
20
-4.02961252307995
30
0
41
1
10
26.2022098340854
20
-4.27957628005231
30
0
41
1
10
26.5243786409576
20
-4.39950636178639
30
0
41
1
10
27.1689388134612
20
-4.63007350616925
30
0
41
1
10
27.491363938224
20
-4.74066616288519
30
0
41
1
10
28.135967374486
20
-4.95297698045724
30
0
41
1
10
28.4586220912157
20
-5.054546037454
30
0
41
1
10
29.1042323444094
20
-5.2450249297184
30
0
41
1
10
29.4268956533974
20
-5.33440631947781
30
0
41
1
10
30.0714894729876
20
-5.50203411879767
30
0
41
1
10
30.3933021402119
20
-5.58037642073552
30
0
41
1
10
31.3578753011329
20
-5.79810964229929
30
0
41
1
10
32.0029551349487
20
-5.91780168880447
30
0
41
1
10
32.9715954917419
20
-6.06079253172933
30
0
41
1
10
33.2939152542465
20
-6.10238959407599
30
0
41
1
10
33.938386184776
20
-6.17186701835348
30
0
41
1
10
34.2607214983618
20
-6.19990697849897
30
0
41
1
10
34.9050898739383
20
-6.24297183233051
30
0
41
1
10
35.2271706375745
20
-6.25798703218558
30
0
41
1
10
35.7469821534409
20
-6.27160616121074
30
0
41
1
10
35.9450866500878
20
-6.27426158693495
30
0
41
1
10
36.1433891085336
20
-6.274391222661
30
0
0
SPLINE
5
D4
100
AcDbEntity
8
1
62
256
6
ByLayer
370
18
48
1
60
0
100
AcDbSpline
70
4
71
3
72
30
73
26
40
0
40
0
40
0
40
0
40
0.0495049335414743
40
0.0495049335414743
40
0.128712855746349
40
0.128712855746349
40
0.207920777951225
40
0.207920777951225
40
0.287128700156101
40
0.287128700156101
40
0.366336622360976
40
0.366336622360976
40
0.52475246677073
40
0.52475246677073
40
0.603960388975608
40
0.603960388975608
40
0.683168311180487
40
0.683168311180487
40
0.762376233385365
40
0.762376233385365
40
0.841584155590243
40
0.841584155590243
40
0.920792077795122
40
0.920792077795122
40
1
40
1
40
1
40
1
41
1
10
64.9066785221163
20
4.51714429481072
30
0
41
1
10
65.107969536861
20
4.58972557268871
30
0
41
1
10
65.3092432757555
20
4.66034433282155
30
0
41
1
10
65.8323533487555
20
4.83909115704117
30
0
41
1
10
66.1540490153452
20
4.94432108607205
30
0
41
1
10
66.7968183824107
20
5.14524068861655
30
0
41
1
10
67.1186513657133
20
5.24003702988261
30
0
41
1
10
67.7636568575242
20
5.41797688944638
30
0
41
1
10
68.0869569336335
20
5.50136817232729
30
0
41
1
10
68.7319085764579
20
5.65652651759888
30
0
41
1
10
69.0533586099128
20
5.72863827338523
30
0
41
1
10
70.0181502760699
20
5.9255455210716
30
0
41
1
10
70.6624190065538
20
6.03106796666322
30
0
41
1
10
71.6277467260661
20
6.15235854639877
30
0
41
1
10
71.9493423279847
20
6.18648666002423
30
0
41
1
10
72.5947574810939
20
6.24112976515596
30
0
41
1
10
72.9176786664312
20
6.26177761882531
30
0
41
1
10
73.5625544576823
20
6.28989961111037
30
0
41
1
10
73.8845910055465
20
6.29738247428233
30
0
41
1
10
74.5279235677451
20
6.29892000305478
30
0
41
1
10
74.8500019035819
20
6.29296802784435
30
0
41
1
10
75.4951199717315
20
6.26788188621569
30
0
41
1
10
75.8182901276107
20
6.2487177069803
30
0
41
1
10
76.4633347764851
20
6.19711656714677
30
0
41
1
10
76.7848880237682
20
6.1644938985358
30
0
41
1
10
77.1067797928337
20
6.12551245788589
30
0
0
SPLINE
5
D5
100
AcDbEntity
8
1
62
256
6
ByLayer
370
18
48
1
60
0
100
AcDbSpline
70
4
71
3
72
8
73
4
40
0
40
0
40
0
40
0
40
1
40
1
40
1
40
1
41
1
10
78.9891103087348
20
-0.134073116133749
30
0
41
1
10
78.9898504681984
20
-0.109237121270951
30
0
41
1
10
78.993910292483
20
-0.0796305096767469
30
0
41
1
10
78.9999652779277
20
-0.0481969027092362
30
0
0
SPLINE
5
D6
100
AcDbEntity
8
1
62
256
6
ByLayer
370
18
48
1
60
0
100
AcDbSpline
70
4
71
3
72
14
73
10
40
0
40
0
40
0
40
0
40
0.25
40
0.25
40
0.5
40
0.5
40
0.75
40
0.75
40
1
40
1
40
1
40
1
41
1
10
76.6662301622245
20
1.36528470025777
30
0
41
1
10
76.6651094460401
20
1.38543985490759
30
0
41
1
10
76.6694332219091
20
1.40584489278544
30
0
41
1
10
76.689775616679
20
1.44119435999207
30
0
41
1
10
76.7057482897079
20
1.45592581467429
30
0
41
1
10
76.7416173167214
20
1.47679762491435
30
0
41
1
10
76.7618181581931
20
1.48352445760776
30
0
41
1
10
76.8024348902625
20
1.49137973020382
30
0
41
1
10
76.8232813316097
20
1.4926457598967
30
0
41
1
10
76.8440721017599
20
1.49193368108462
30
0
0
SPLINE
5
D7
100
AcDbEntity
8
1
62
256
6
ByLayer
370
18
48
1
60
0
100
AcDbSpline
70
4
71
3
72
52
73
48
40
0
40
0
40
0
40
0
40
0.0662435441585254
40
0.0662435441585254
40
0.0983253034468743
40
0.0983253034468743
40
0.130407062735223
40
0.130407062735223
40
0.194570581311921
40
0.194570581311921
40
0.322897618465316
40
0.322897618465316
40
0.387061137042014
40
0.387061137042014
40
0.451224655618712
40
0.51538817419541
40
0.51538817419541
40
0.547469933483759
40
0.547469933483759
40
0.563510813127933
40
0.571531252950021
40
0.571531252950021
40
0.579551692772108
40
0.579551692772108
40
0.583561912683152
40
0.583561912683152
40
0.587572132594195
40
0.587572132594195
40
0.591582352505239
40
0.591582352505239
40
0.595592572416283
40
0.595592572416283
40
0.611633452060457
40
0.611633452060457
40
0.643715211348806
40
0.643715211348806
40
0.707878729925504
40
0.707878729925504
40
0.8362057670789
40
0.8362057670789
40
0.900369285655599
40
0.900369285655599
40
0.932451044943948
40
0.932451044943948
40
0.964532804232297
40
0.964532804232297
40
1
40
1
40
1
40
1
41
1
10
15.2424748454414
20
0.952394105868791
30
0
41
1
10
15.2424748454414
20
0.930992591818693
30
0
41
1
10
15.2424748454414
20
0.900035536865914
30
0
41
1
10
15.2424748454414
20
0.839975139873445
30
0
41
1
10
15.2424748454414
20
0.818134078146755
30
0
41
1
10
15.2424748454414
20
0.770447231858128
30
0
41
1
10
15.2424748454414
20
0.744556722111867
30
0
41
1
10
15.2424748454414
20
0.660916888217628
30
0
41
1
10
15.2424748454414
20
0.597209308454751
30
0
41
1
10
15.2424748454414
20
0.383224209640673
30
0
41
1
10
15.2424748454414
20
0.210212731079395
30
0
41
1
10
15.2424748454414
20
-0.0935490186153061
30
0
41
1
10
15.2424748454414
20
-0.202494788226971
30
0
41
1
10
15.2424748454414
20
-0.434032438870162
30
0
41
1
10
15.2424748454414
20
-0.678345978502847
30
0
41
1
10
15.2424748454414
20
-0.947565737638598
30
0
41
1
10
15.2424748454414
20
-1.15874114020858
30
0
41
1
10
15.2424748454414
20
-1.23072111995896
30
0
41
1
10
15.2424748454414
20
-1.3407838882091
30
0
41
1
10
15.2424748454414
20
-1.3963442038926
30
0
41
1
10
15.2424748454414
20
-1.45269556918441
30
0
41
1
10
15.2424748454414
20
-1.49043875919207
30
0
41
1
10
15.2424748454414
20
-1.50911905879693
30
0
41
1
10
15.2424748454414
20
-1.53810767932157
30
0
41
1
10
15.2424748454414
20
-1.54892691354647
30
0
41
1
10
15.2424748454414
20
-1.5729151143025
30
0
41
1
10
15.2424748454414
20
-1.58618296605573
30
0
41
1
10
15.2424748454414
20
-1.61287060641712
30
0
41
1
10
15.2424748454414
20
-1.62669258776367
30
0
41
1
10
15.2424748454414
20
-1.65433032484498
30
0
41
1
10
15.2424748454414
20
-1.66815573491357
30
0
41
1
10
15.2424748454414
20
-1.73731557840225
30
0
41
1
10
15.2424748454414
20
-1.79269616475804
30
0
41
1
10
15.2424748454414
20
-1.95899068339571
30
0
41
1
10
15.2424748454414
20
-2.0699940428284
30
0
41
1
10
15.2424748454414
20
-2.40306442424335
30
0
41
1
10
15.2424748454414
20
-2.62533706088496
30
0
41
1
10
15.2424748454414
20
-3.29285174803019
30
0
41
1
10
15.2424748454414
20
-3.73225757860328
30
0
41
1
10
15.2424748454414
20
-4.38086514064059
30
0
41
1
10
15.2424748454414
20
-4.59541269879378
30
0
41
1
10
15.2424748454414
20
-4.91464151394763
30
0
41
1
10
15.2424748454414
20
-5.02061838881451
30
0
41
1
10
15.2424748454414
20
-5.23167968602328
30
0
41
1
10
15.2424748454414
20
-5.33679039011855
30
0
41
1
10
15.2424748454414
20
-5.55511909865706
30
0
41
1
10
15.2424748454414
20
-5.66832970703351
30
0
41
1
10
15.2424748454414
20
-5.78009887868353
30
0
0
SPLINE
5
D8
100
AcDbEntity
8
1
62
256
6
ByLayer
370
18
48
1
60
0
100
AcDbSpline
70
4
71
3
72
8
73
4
40
0
40
0
40
0
40
0
40
1
40
1
40
1
40
1
41
1
10
77.1067797928326
20
-6.12551245788671
30
0
41
1
10
76.9872126366504
20
-6.21518750414072
30
0
41
1
10
76.8795044801839
20
-6.27140744398471
30
0
41
1
10
76.7831330028125
20
-6.2915203542388
30
0
0
SPLINE
5
D9
100
AcDbEntity
8
1
62
256
6
ByLayer
370
18
48
1
60
0
100
AcDbSpline
70
4
71
3
72
18
73
14
40
0
40
0
40
0
40
0
40
0.25
40
0.25
40
0.5
40
0.5
40
0.625
40
0.625
40
0.75
40
0.75
40
0.875
40
0.875
40
1
40
1
40
1
40
1
41
1
10
4.0000003616255
20
-1.68230832939469
30
0
41
1
10
4.00000036162552
20
-1.64955283760716
30
0
41
1
10
4.00412191903197
20
-1.6185218816411
30
0
41
1
10
4.02488385281964
20
-1.56192384229416
30
0
41
1
10
4.04222776715375
20
-1.53660079709408
30
0
41
1
10
4.07970528352402
20
-1.51536306039486
30
0
41
1
10
4.094424837242
20
-1.5110349502551
30
0
41
1
10
4.12540514819511
20
-1.50930029461571
30
0
41
1
10
4.14204834584933
20
-1.51180323541891
30
0
41
1
10
4.17472438023495
20
-1.52203429848552
30
0
41
1
10
4.19103901658772
20
-1.52976850950515
30
0
41
1
10
4.22197462954944
20
-1.54813695937443
30
0
41
1
10
4.23685489574018
20
-1.55885834693268
30
0
41
1
10
4.25129717716197
20
-1.57073665160672
30
0
0
SPLINE
5
DA
100
AcDbEntity
8
1
62
256
6
ByLayer
370
18
48
1
60
0
100
AcDbSpline
70
4
71
3
72
26
73
22
40
0
40
0
40
0
40
0
40
0.0625
40
0.0625
40
0.125
40
0.125
40
0.1875
40
0.1875
40
0.25
40
0.25
40
0.375
40
0.375
40
0.5
40
0.5
40
0.625
40
0.625
40
0.75
40
0.75
40
0.875
40
0.875
40
1
40
1
40
1
40
1
41
1
10
4.25129717718011
20
-1.57073665162247
30
0
41
1
10
4.45452517607387
20
-1.73788504173083
30
0
41
1
10
4.66293072301548
20
-1.89513809885665
30
0
41
1
10
5.08702115424452
20
-2.19520269802206
30
0
41
1
10
5.30273992184334
20
-2.33795425861874
30
0
41
1
10
5.73975689066515
20
-2.61198239787518
30
0
41
1
10
5.96106508284151
20
-2.74324155737881
30
0
41
1
10
6.40815639472004
20
-2.99623202245368
30
0
41
1
10
6.63440453633746
20
-3.11819152368645
30
0
41
1
10
7.31463381349957
20
-3.46949704507384
30
0
41
1
10
7.77018220835865
20
-3.68433996967272
30
0
41
1
10
8.68400205303607
20
-4.08537617561007
30
0
41
1
10
9.14233557409449
20
-4.27036149618763
30
0
41
1
10
10.0621312064438
20
-4.60989511139925
30
0
41
1
10
10.5235608079174
20
-4.7654579115775
30
0
41
1
10
11.4508170999065
20
-5.0477612540339
30
0
41
1
10
11.9167191052728
20
-5.1734685710411
30
0
41
1
10
12.855000273406
20
-5.39733708558964
30
0
41
1
10
13.3278542530375
20
-5.49510420267006
30
0
41
1
10
14.2809881517347
20
-5.65947270774925
30
0
41
1
10
14.7598210440317
20
-5.72669048931485
30
0
41
1
10
15.2424748454415
20
-5.78009887868748
30
0
0
SPLINE
5
DB
100
AcDbEntity
8
1
62
256
6
ByLayer
370
18
48
1
60
0
100
AcDbSpline
70
4
71
3
72
14
73
10
40
0
40
0
40
0
40
0
40
0.25
40
0.25
40
0.5
40
0.5
40
0.75
40
0.75
40
1
40
1
40
1
40
1
41
1
10
77.106779792827
20
6.12551245790479
30
0
41
1
10
77.2476573872199
20
5.73031542009616
30
0
41
1
10
77.3916447824272
20
5.33579768641664
30
0
41
1
10
77.6851656229627
20
4.54810969702362
30
0
41
1
10
77.8347229506491
20
4.15494468249551
30
0
41
1
10
78.1389748570489
20
3.36996847899383
30
0
41
1
10
78.2938446117136
20
2.97781919601536
30
0
41
1
10
78.6073941009221
20
2.19728198686605
30
0
41
1
10
78.7661296580455
20
1.80872179403187
30
0
41
1
10
78.9267610845503
20
1.42166262580551
30
0
0
SPLINE
5
DC
100
AcDbEntity
8
1
62
256
6
ByLayer
370
18
48
1
60
0
100
AcDbSpline
70
4
71
3
72
8
73
4
40
0
40
0
40
0
40
0
40
1
40
1
40
1
40
1
41
1
10
78.9267610845503
20
-1.42166262580545
30
0
41
1
10
78.955544229012
20
-0.99205988209269
30
0
41
1
10
78.9763315570574
20
-0.562863162886998
30
0
41
1
10
78.9891103087348
20
-0.134073116133862
30
0
0
SPLINE
5
DD
100
AcDbEntity
8
1
62
256
6
ByLayer
370
18
48
1
60
0
100
AcDbSpline
70
4
71
3
72
12
73
8
40
0
40
0
40
0
40
0
40
0.25
40
0.25
40
0.5
40
0.5
40
1
40
1
40
1
40
1
41
1
10
77.1067797928257
20
-6.12551245790837
30
0
41
1
10
77.2485937654957
20
-5.72768864383352
30
0
41
1
10
77.3931705982267
20
-5.33163556980932
30
0
41
1
10
77.6872835450999
20
-4.54249437592722
30
0
41
1
10
77.8368411489424
20
-4.1494201536625
30
0
41
1
10
78.2924549265599
20
-2.97410689874559
30
0
41
1
10
78.6054956429601
20
-2.19578719972944
30
0
41
1
10
78.9267610845503
20
-1.42166262580543
30
0
0
SPLINE
5
DE
100
AcDbEntity
8
1
62
256
6
ByLayer
370
13
48
1
60
0
100
AcDbSpline
70
4
71
3
72
30
73
26
40
0
40
0
40
0
40
0
40
0.0578112635151358
40
0.0578112635151358
40
0.214842719595947
40
0.214842719595947
40
0.254100583616149
40
0.254100583616149
40
0.293358447636352
40
0.293358447636352
40
0.371874175676757
40
0.450389903717162
40
0.450389903717162
40
0.528905631757568
40
0.528905631757568
40
0.607421359797973
40
0.607421359797973
40
0.685937087838378
40
0.764452815878783
40
0.764452815878783
40
0.803710679898986
40
0.803710679898986
40
0.842968543919189
40
0.842968543919189
40
1
40
1
40
1
40
1
41
1
10
4.25060566982
20
-5.93994905294034
30
0
41
1
10
4.25062670862584
20
-5.94011024829433
30
0
41
1
10
4.25064705768082
20
-5.93460196254819
30
0
41
1
10
4.25072059567805
20
-5.8935590110446
30
0
41
1
10
4.25077024695926
20
-5.82303406579689
30
0
41
1
10
4.25082959930415
20
-5.68266747907484
30
0
41
1
10
4.25084133026854
20
-5.65193616548467
30
0
41
1
10
4.25086429580207
20
-5.58591120845432
30
0
41
1
10
4.2508755656396
20
-5.55053986660479
30
0
41
1
10
4.25090881829294
20
-5.43746728975404
30
0
41
1
10
4.25095167903157
20
-5.26818329698494
30
0
41
1
10
4.25099222927219
20
-5.06222338486339
30
0
41
1
10
4.25103180627417
20
-4.83752919271294
30
0
41
1
10
4.2510511496543
20
-4.71544840963821
30
0
41
1
10
4.2510883815882
20
-4.45553376659547
30
0
41
1
10
4.25110633617177
20
-4.31725232269741
30
0
41
1
10
4.25114038972578
20
-4.02858459877942
30
0
41
1
10
4.25117273018998
20
-3.72687606626172
30
0
41
1
10
4.25120142007464
20
-3.39949311227144
30
0
41
1
10
4.25122135812563
20
-3.14417681330284
30
0
41
1
10
4.25122773958492
20
-3.05743839211979
30
0
41
1
10
4.2512399209179
20
-2.88063038025106
30
0
41
1
10
4.25124571464775
20
-2.79060408363378
30
0
41
1
10
4.25127277559477
20
-2.33736407425178
30
0
41
1
10
4.25128871092787
20
-1.96087159699752
30
0
41
1
10
4.25129717716197
20
-1.57073665178999
30
0
0
SPLINE
5
DF
100
AcDbEntity
8
1
62
256
6
ByLayer
370
18
48
1
60
0
100
AcDbSpline
70
4
71
3
72
8
73
4
40
0
40
0
40
0
40
0
40
1
40
1
40
1
40
1
41
1
10
77.1067797928328
20
6.1255124578866
30
0
41
1
10
76.9872126366504
20
6.21518750414069
30
0
41
1
10
76.879504480184
20
6.27140744398471
30
0
41
1
10
76.7831330028126
20
6.2915203542388
30
0
0
SPLINE
5
E0
100
AcDbEntity
8
1
62
256
6
ByLayer
370
18
48
1
60
0
100
AcDbSpline
70
4
71
3
72
10
73
6
40
0
40
0
40
0
40
0
40
0.5
40
0.5
40
1
40
1
40
1
40
1
41
1
10
76.8440721017599
20
1.49193368108459
30
0
41
1
10
77.1912039132072
20
1.48004450111927
30
0
41
1
10
77.5383561193049
20
1.46794233378682
30
0
41
1
10
78.2326459144191
20
1.44389064962658
30
0
41
1
10
78.5797709784785
20
1.43207193462825
30
0
41
1
10
78.9267610845501
20
1.42166262580543
30
0
0
SPLINE
5
E1
100
AcDbEntity
8
1
62
256
6
ByLayer
370
18
48
1
60
0
100
AcDbSpline
70
4
71
3
72
18
73
14
40
0
40
0
40
0
40
0
40
0.250000000000001
40
0.250000000000001
40
0.375000000000002
40
0.375000000000002
40
0.500000000000002
40
0.500000000000002
40
0.750000000000002
40
0.750000000000002
40
0.875000000000001
40
0.875000000000001
40
1
40
1
40
1
40
1
41
1
10
76.3777139097209
20
-4.73926332007434
30
0
41
1
10
76.3778160847733
20
-4.95398246670311
30
0
41
1
10
76.3880072800755
20
-5.14199101209741
30
0
41
1
10
76.4188805075153
20
-5.38471267814114
30
0
41
1
10
76.4317891931997
20
-5.45903387185462
30
0
41
1
10
76.4631690760006
20
-5.59417278160157
30
0
41
1
10
76.4815282899814
20
-5.65437083728233
30
0
41
1
10
76.5441092400981
20
-5.8116947577918
30
0
41
1
10
76.5959734720561
20
-5.88661653581167
30
0
41
1
10
76.6901478419526
20
-5.95510439217455
30
0
41
1
10
76.7243978888943
20
-5.97059464047314
30
0
41
1
10
76.798229778999
20
-5.98646508064888
30
0
41
1
10
76.8376853148503
20
-5.98687342209749
30
0
41
1
10
76.8797678643664
20
-5.97989953912102
30
0
0
SPLINE
5
E2
100
AcDbEntity
8
1
62
256
6
ByLayer
370
18
48
1
60
0
100
AcDbSpline
70
4
71
3
72
8
73
4
40
0
40
0
40
0
40
0
40
1
40
1
40
1
40
1
41
1
10
78.9267610845503
20
1.42166262580543
30
0
41
1
10
78.955548537222
20
0.991995579916818
30
0
41
1
10
78.9763334702023
20
0.562798967454398
30
0
41
1
10
78.9891103087348
20
0.134073116133919
30
0
0
SPLINE
5
E3
100
AcDbEntity
8
1
62
256
6
ByLayer
370
18
48
1
60
0
100
AcDbSpline
70
4
71
3
72
10
73
6
40
0
40
0
40
0
40
0
40
0.5
40
0.5
40
1
40
1
40
1
40
1
41
1
10
78.9999652779277
20
0.0481969027091225
30
0
41
1
10
78.9952268343084
20
0.0266010321729482
30
0
41
1
10
78.9884110720122
20
0.0031327424063363
30
0
41
1
10
78.971343617911
20
-0.0418617548275222
30
0
41
1
10
78.9609787534283
20
-0.0634845441254015
30
0
41
1
10
78.9504649730152
20
-0.0806906490739721
30
0
0
SPLINE
5
E4
100
AcDbEntity
8
1
62
256
6
ByLayer
370
18
48
1
60
0
100
AcDbSpline
70
4
71
3
72
14
73
10
40
0
40
0
40
0
40
0
40
0.154344696915263
40
0.154344696915263
40
0.308689393830527
40
0.308689393830527
40
0.617378787661058
40
0.617378787661058
40
1
40
1
40
1
40
1
41
1
10
76.8797678644993
20
-5.9798995391223
30
0
41
1
10
76.4990288838895
20
-5.98739470707349
30
0
41
1
10
76.1184842955894
20
-5.98599905306506
30
0
41
1
10
75.357184304911
20
-5.96550055667484
30
0
41
1
10
74.9761116776972
20
-5.94637631728654
30
0
41
1
10
73.8338014819329
20
-5.86279186639581
30
0
41
1
10
73.0774239847668
20
-5.77251556624486
30
0
41
1
10
71.3895651305046
20
-5.49801837643741
30
0
41
1
10
70.4594087569667
20
-5.29636105486344
30
0
41
1
10
69.52854133631
20
-5.05005832891351
30
0
0
SPLINE
5
E5
100
AcDbEntity
8
1
62
256
6
ByLayer
370
13
48
1
60
0
100
AcDbSpline
70
4
71
3
72
24
73
20
40
0
40
0
40
0
40
0
40
0.104910720089003
40
0.104910720089003
40
0.242860775921911
40
0.242860775921911
40
0.311835803838367
40
0.311835803838367
40
0.380810831754822
40
0.380810831754822
40
0.656710943420643
40
0.656710943420643
40
0.794660999253554
40
0.794660999253554
40
0.86363602717001
40
0.86363602717001
40
0.932611055086465
40
0.932611055086465
40
1
40
1
40
1
40
1
41
1
10
69.5285416520475
20
-5.05005841245602
30
0
41
1
10
68.9574070369135
20
-4.89893914055043
30
0
41
1
10
68.38600475199
20
-4.73101333805559
30
0
41
1
10
67.0600967973473
20
-4.30609027241505
30
0
41
1
10
66.3046355693015
20
-4.03765069996132
30
0
41
1
10
65.1641870482484
20
-3.59893547041568
30
0
41
1
10
64.7825995483988
20
-3.4466238059623
30
0
41
1
10
64.0234359780413
20
-3.13403110475434
30
0
41
1
10
63.644971962114
20
-2.97341852219148
30
0
41
1
10
61.756630961107
20
-2.1519594457186
30
0
41
1
10
60.2591324867809
20
-1.43491791571984
30
0
41
1
10
58.002206936138
20
-0.330976121358759
30
0
41
1
10
57.2481439008748
20
0.0417683125900794
30
0
41
1
10
56.110754118252
20
0.600556317185351
30
0
41
1
10
55.7299730515079
20
0.787054414309978
30
0
41
1
10
54.9682886185016
20
1.156956800139
30
0
41
1
10
54.5886569387004
20
1.33976471472118
30
0
41
1
10
53.8400261364371
20
1.69604643385378
30
0
41
1
10
53.4709362882269
20
1.86953097867129
30
0
41
1
10
53.1024280840822
20
2.03990296952506
30
0
0
SPLINE
5
E6
100
AcDbEntity
8
1
62
256
6
ByLayer
370
18
48
1
60
0
100
AcDbSpline
70
4
71
3
72
32
73
28
40
0
40
0
40
0
40
0
40
0.0212149228816187
40
0.0700724888009001
40
0.115945657405207
40
0.158015421866093
40
0.195757360996308
40
0.235431499765559
40
0.282838931715318
40
0.323457849137008
40
0.359022133291356
40
0.399040779005022
40
0.451665763534477
40
0.508693975972303
40
0.558801536083997
40
0.613769733546831
40
0.665238792836721
40
0.70476063257561
40
0.741353462648837
40
0.786040486536595
40
0.827946211091085
40
0.84608122859272
40
0.862325934758955
40
0.882612611462565
40
0.91514367947561
40
0.960076046478794
40
1
40
1
40
1
40
1
41
1
10
18.4974537740502
20
5.94700970759396
30
0
41
1
10
18.398042060987
20
5.94763268906701
30
0
41
1
10
18.0692695622316
20
5.94934676505119
30
0
41
1
10
17.5258949261101
20
5.94960501932752
30
0
41
1
10
16.8744849304016
20
5.94851551742485
30
0
41
1
10
16.2773611220706
20
5.94845794160815
30
0
41
1
10
15.7093673666774
20
5.94847238824497
30
0
41
1
10
15.1160826311953
20
5.94783353812215
30
0
41
1
10
14.5090968959503
20
5.94706346705721
30
0
41
1
10
13.9216535562213
20
5.9470317809355
30
0
41
1
10
13.3693279819604
20
5.94693081075101
30
0
41
1
10
12.7599367762601
20
5.9461288675727
30
0
41
1
10
12.0485246782939
20
5.94546500157927
30
0
41
1
10
11.2891569789137
20
5.94632201203251
30
0
41
1
10
10.5186521070004
20
5.94520063023438
30
0
41
1
10
9.7745719748481
20
5.94484224658996
30
0
41
1
10
9.08080543025423
20
5.94471363883642
30
0
41
1
10
8.47438273660049
20
5.94348075755073
30
0
41
1
10
7.90019692102206
20
5.94255480681849
30
0
41
1
10
7.31467604297936
20
5.94267585838094
30
0
41
1
10
6.81688978089272
20
5.94257801692081
30
0
41
1
10
6.45429329857728
20
5.94251135478621
30
0
41
1
10
6.19445693813458
20
5.94244302811407
30
0
41
1
10
5.86621292003383
20
5.94231420586104
30
0
41
1
10
5.40160831349326
20
5.94198913273519
30
0
41
1
10
4.84363183421257
20
5.94126363183645
30
0
41
1
10
4.44032532273238
20
5.94036249123911
30
0
41
1
10
4.25057773817161
20
5.93986366070777
30
0
0
SPLINE
5
E7
100
AcDbEntity
8
1
62
256
6
ByLayer
370
18
48
1
60
0
100
AcDbSpline
70
4
71
3
72
35
73
31
40
0
40
0
40
0
40
0
40
0.0425946809552823
40
0.0823500185987947
40
0.11421217023378
40
0.152775783603562
40
0.18287727873298
40
0.210384148244531
40
0.245572023826615
40
0.275490352992922
40
0.299604131135151
40
0.318303789126213
40
0.339957522964229
40
0.380662909200891
40
0.428107551868101
40
0.472267949990012
40
0.513678985265
40
0.559032135763193
40
0.604303590224657
40
0.639602455284267
40
0.678903405739321
40
0.720645103539793
40
0.753315138259205
40
0.78558963554236
40
0.82749703575158
40
0.869345443465177
40
0.906598672586831
40
0.945468106191665
40
0.971407730318425
40
1
40
1
40
1
40
1
41
1
10
38.2733212686563
20
-5.96059514864174
30
0
41
1
10
38.5298175380196
20
-5.96072117527106
30
0
41
1
10
39.0258489092246
20
-5.96103825193887
30
0
41
1
10
39.7137192299801
20
-5.96156043761252
30
0
41
1
10
40.3783975415114
20
-5.96242826754317
30
0
41
1
10
40.9735969982734
20
-5.96121076775665
30
0
41
1
10
41.5575220526177
20
-5.96166469863627
30
0
41
1
10
42.1076290855199
20
-5.96365253583471
30
0
41
1
10
42.6677992278599
20
-5.96365953713902
30
0
41
1
10
43.2047688104809
20
-5.9636382016788
30
0
41
1
10
43.6430748801074
20
-5.96391490653807
30
0
41
1
10
44.0314052282794
20
-5.9643890278584
30
0
41
1
10
44.5197847073307
20
-5.9647512360099
30
0
41
1
10
45.1812686628682
20
-5.96471627915011
30
0
41
1
10
45.9783677427163
20
-5.96502936663944
30
0
41
1
10
46.7797799792189
20
-5.9662397330608
30
0
41
1
10
47.5683842762935
20
-5.96567432045876
30
0
41
1
10
48.363882057543
20
-5.96666537455798
30
0
41
1
10
49.1225246639358
20
-5.9675466598232
30
0
41
1
10
49.8447126034208
20
-5.96678624432715
30
0
41
1
10
50.5456311700479
20
-5.96762417383439
30
0
41
1
10
51.2307117007362
20
-5.96872630101382
30
0
41
1
10
51.8734639188815
20
-5.9682945234687
30
0
41
1
10
52.5172100293689
20
-5.96805797858215
30
0
41
1
10
53.2162714242727
20
-5.97023897084213
30
0
41
1
10
53.945229245916
20
-5.9697272296217
30
0
41
1
10
54.65490612319
20
-5.96865720962845
30
0
41
1
10
55.270088959117
20
-5.97098099338828
30
0
41
1
10
55.8290842578034
20
-5.97095573852059
30
0
41
1
10
56.1577588419815
20
-5.97082339801946
30
0
41
1
10
56.330346703626
20
-5.97063842269822
30
0
0
SPLINE
5
E8
100
AcDbEntity
8
1
62
256
6
ByLayer
370
18
48
1
60
0
100
AcDbSpline
70
4
71
3
72
28
73
24
40
0
40
0
40
0
40
0
40
0.0337685889029938
40
0.0719034753618574
40
0.108436822319776
40
0.161205193666306
40
0.222994121388757
40
0.280496372001113
40
0.347384387905001
40
0.41188936276123
40
0.479721778024823
40
0.536189867126687
40
0.568655565588958
40
0.613438766405356
40
0.659443470031411
40
0.699741725301224
40
0.734341009340793
40
0.774161426207976
40
0.811648002519842
40
0.847998431453652
40
0.898738266461549
40
0.955895350556958
40
1
40
1
40
1
40
1
41
1
10
56.6020319847963
20
5.96803360627257
30
0
41
1
10
56.4385735762053
20
5.96902253584224
30
0
41
1
10
56.0892250419127
20
5.97058647957343
30
0
41
1
10
55.5586843404784
20
5.97127334533809
30
0
41
1
10
54.929020250745
20
5.96980072445191
30
0
41
1
10
54.1834793399203
20
5.96911204424788
30
0
41
1
10
53.3341191636779
20
5.97056461094937
30
0
41
1
10
52.415157607998
20
5.96761667879596
30
0
41
1
10
51.4827739213479
20
5.96897478914505
30
0
41
1
10
50.4993483033614
20
5.96743037695819
30
0
41
1
10
49.5676362535034
20
5.96695975287815
30
0
41
1
10
48.7937717274913
20
5.96745894983709
30
0
41
1
10
48.1340096132742
20
5.96614064933479
30
0
41
1
10
47.5255919044004
20
5.96581666392777
30
0
41
1
10
46.8785653960429
20
5.9661280960521
30
0
41
1
10
46.2817862779062
20
5.96572663421111
30
0
41
1
10
45.7155399537405
20
5.96473994397226
30
0
41
1
10
45.1631714197981
20
5.96480866341943
30
0
41
1
10
44.6021544978212
20
5.96477647501041
30
0
41
1
10
43.9872537521654
20
5.96438764570993
30
0
41
1
10
43.2752466701058
20
5.96351792048767
30
0
41
1
10
42.5249600054949
20
5.9637694416102
30
0
41
1
10
42.025148282547
20
5.96331442939581
30
0
41
1
10
41.8074531423269
20
5.96308979458263
30
0
0
SPLINE
5
E9
100
AcDbEntity
8
1
62
256
6
ByLayer
370
18
48
1
60
0
100
AcDbSpline
70
4
71
3
72
29
73
25
40
0
40
0
40
0
40
0
40
0.0398618305057889
40
0.0847242812343072
40
0.117204729811482
40
0.152994106328585
40
0.190103770267011
40
0.234064121209432
40
0.274622844362827
40
0.30708655181403
40
0.341135480492958
40
0.392065036173703
40
0.444417258007766
40
0.492448977763496
40
0.547480925073173
40
0.609714808978307
40
0.654668332690108
40
0.700287328451388
40
0.756334255677374
40
0.809152044071003
40
0.875359221575965
40
0.952413813852574
40
0.994206664605946
40
1
40
1
40
1
40
1
41
1
10
4.25057773817159
20
-5.93986366070777
30
0
41
1
10
4.44032532272675
20
-5.94036249123911
30
0
41
1
10
4.84363150434979
20
-5.9412636362153
30
0
41
1
10
5.4016094670107
20
-5.94198911742146
30
0
41
1
10
5.94015897932945
20
-5.94236598768873
30
0
41
1
10
6.441805788149
20
-5.94251724177405
30
0
41
1
10
6.99812798027043
20
-5.9426083863134
30
0
41
1
10
7.57714525100099
20
-5.94265528749995
30
0
41
1
10
8.13405100016621
20
-5.94273772400402
30
0
41
1
10
8.64376552914541
20
-5.94393880058649
30
0
41
1
10
9.20285616500399
20
-5.9447449700352
30
0
41
1
10
9.85662711296658
20
-5.94484701314798
30
0
41
1
10
10.5769631273799
20
-5.94530655852361
30
0
41
1
10
11.3168298408349
20
-5.94629525758484
30
0
41
1
10
12.1037388611913
20
-5.94540600485649
30
0
41
1
10
12.8759940518015
20
-5.94633781895081
30
0
41
1
10
13.6034335346126
20
-5.94708420317403
30
0
41
1
10
14.301441301718
20
-5.94694900690595
30
0
41
1
10
15.0367920287893
20
-5.94769150163421
30
0
41
1
10
15.8705413488644
20
-5.94871097131309
30
0
41
1
10
16.8024575124606
20
-5.94799471294803
30
0
41
1
10
17.6892185382275
20
-5.95068359499442
30
0
41
1
10
18.2662216607825
20
-5.94793929121647
30
0
41
1
10
18.491292927749
20
-5.94703026531042
30
0
41
1
10
18.5187102645406
20
-5.94691586531076
30
0
0
SPLINE
5
EA
100
AcDbEntity
8
1
62
256
6
ByLayer
370
18
48
1
60
0
100
AcDbSpline
70
4
71
1
72
4
73
2
40
0
40
0
40
1
40
1
41
1
10
76.3610037348776
20
-5.98450979624579
30
0
41
1
10
76.8011166934875
20
-5.98386544685394
30
0
0
LINE
5
7B
100
AcDbEntity
8
SK1
62
256
6
ByLayer
370
13
48
1
60
0
100
AcDbLine
10
-44
20
-0.05906
30
0
11
-44
21
-2.500057
31
0
39
0
210
0
220
0
230
1
0
LINE
5
7D
100
AcDbEntity
8
SK1
62
256
6
ByLayer
370
18
48
1
60
0
100
AcDbLine
10
-45
20
-5.055
30
0
11
-45
21
-2.278346
31
0
39
0
210
0
220
0
230
1
0
LINE
5
7E
100
AcDbEntity
8
SK1
62
256
6
ByLayer
370
18
48
1
60
0
100
AcDbLine
10
-45
20
-0.162651
30
0
11
-45
21
-2.278346
31
0
39
0
210
0
220
0
230
1
0
LINE
5
7F
100
AcDbEntity
8
SK1
62
256
6
ByLayer
370
18
48
1
60
0
100
AcDbLine
10
-43.9
20
-2.428775
30
0
11
-43.9
21
-0.183057
31
0
39
0
210
0
220
0
230
1
0
LINE
5
80
100
AcDbEntity
8
SK1
62
256
6
ByLayer
370
18
48
1
60
0
100
AcDbLine
10
-45
20
5.055
30
0
11
-45
21
0.162651
31
0
39
0
210
0
220
0
230
1
0
LINE
5
81
100
AcDbEntity
8
SK1
62
256
6
ByLayer
370
18
48
1
60
0
100
AcDbLine
10
-43.055
20
7
30
0
11
-43.055
21
-7
31
0
39
0
210
0
220
0
230
1
0
LINE
5
82
100
AcDbEntity
8
SK1
62
256
6
ByLayer
370
18
48
1
60
0
100
AcDbLine
10
0
20
-7
30
0
11
0
21
7
31
0
39
0
210
0
220
0
230
1
0
LINE
5
83
100
AcDbEntity
8
1
62
256
6
ByLayer
370
13
48
1
60
0
100
AcDbLine
10
76.844072
20
1.491934
30
0
11
78.98911
21
0.134073
31
0
39
0
210
0
220
0
230
1
0
LINE
5
84
100
AcDbEntity
8
1
62
256
6
ByLayer
370
13
48
1
60
0
100
AcDbLine
10
1.354376
20
6.252655
30
0
11
1.354376
21
-6.252655
31
0
39
0
210
0
220
0
230
1
0
LINE
5
85
100
AcDbEntity
8
1
62
256
6
ByLayer
370
18
48
1
60
0
100
AcDbLine
10
4
20
-6.254308
30
0
11
4
21
-1.758193
31
0
39
0
210
0
220
0
230
1
0
LINE
5
86
100
AcDbEntity
8
1
62
256
6
ByLayer
370
13
48
1
60
0
100
AcDbLine
10
0.676938
20
6.626327
30
0
11
0.676938
21
-6.626327
31
0
39
0
210
0
220
0
230
1
0
LINE
5
87
100
AcDbEntity
8
1
62
256
6
ByLayer
370
18
48
1
60
0
100
AcDbLine
10
4
20
6.254308
30
0
11
4
21
5.957199
31
0
39
0
210
0
220
0
230
1
0
LINE
5
88
100
AcDbEntity
8
1
62
256
6
ByLayer
370
13
48
1
60
0
100
AcDbLine
10
76.66623
20
1.365285
30
0
11
78.950465
21
-0.080691
31
0
39
0
210
0
220
0
230
1
0
LINE
5
89
100
AcDbEntity
8
1
62
256
6
ByLayer
370
18
48
1
60
0
100
AcDbLine
10
0
20
-7
30
0
11
0
21
7
31
0
39
0
210
0
220
0
230
1
0
LINE
5
8A
100
AcDbEntity
8
80
62
256
6
ByLayer
370
18
48
1
60
0
100
AcDbLine
10
0
20
0
30
0
11
-5
21
0
31
0
39
0
210
0
220
0
230
1
0
LINE
5
8B
100
AcDbEntity
8
4
62
256
6
ByLayer
370
18
48
0.05
60
0
100
AcDbLine
10
79
20
0
30
0
11
0
21
0
31
0
39
0
210
0
220
0
230
1
0
LINE
5
8D
100
AcDbEntity
8
SK4
62
256
6
ByLayer
370
18
48
0.05
60
0
100
AcDbLine
10
84
20
0
30
0
11
-50
21
0
31
0
39
0
210
0
220
0
230
1
0
LINE
5
8F
100
AcDbEntity
8
SK1
62
256
6
ByLayer
370
18
48
1
60
0
100
AcDbLine
10
-45
20
-5.055
30
0
11
-43.055
21
-7
31
0
39
0
210
0
220
0
230
1
0
LINE
5
90
100
AcDbEntity
8
SK1
62
256
6
ByLayer
370
18
48
1
60
0
100
AcDbLine
10
-43.055
20
7
30
0
11
-45
21
5.055
31
0
39
0
210
0
220
0
230
1
0
LINE
5
91
100
AcDbEntity
8
SK1
62
256
6
ByLayer
370
18
48
1
60
0
100
AcDbLine
10
-43.055
20
-7
30
0
11
0
21
-7
31
0
39
0
210
0
220
0
230
1
0
LINE
5
92
100
AcDbEntity
8
SK1
62
256
6
ByLayer
370
18
48
1
60
0
100
AcDbLine
10
0
20
7
30
0
11
-43.055
21
7
31
0
39
0
210
0
220
0
230
1
0
LINE
5
93
100
AcDbEntity
8
1
62
256
6
ByLayer
370
18
48
1
60
0
100
AcDbLine
10
1.354376
20
-6.252655
30
0
11
4
21
-6.254308
31
0
39
0
210
0
220
0
230
1
0
LINE
5
94
100
AcDbEntity
8
1
62
256
6
ByLayer
370
18
48
1
60
0
100
AcDbLine
10
36.145973
20
-6.2744
30
0
11
38.056096
21
-6.275593
31
0
39
0
210
0
220
0
230
1
0
LINE
5
95
100
AcDbEntity
8
1
62
256
6
ByLayer
370
18
48
1
60
0
100
AcDbLine
10
74.247829
20
-6.298213
30
0
11
76.161477
21
-6.299409
31
0
39
0
210
0
220
0
230
1
0
LINE
5
96
100
AcDbEntity
8
1
62
256
6
ByLayer
370
18
48
1
60
0
100
AcDbLine
10
76.161454
20
6.299409
30
0
11
74.247829
21
6.298213
31
0
39
0
210
0
220
0
230
1
0
LINE
5
97
100
AcDbEntity
8
1
62
256
6
ByLayer
370
18
48
1
60
0
100
AcDbLine
10
38.055499
20
6.275593
30
0
11
36.145973
21
6.2744
31
0
39
0
210
0
220
0
230
1
0
LINE
5
98
100
AcDbEntity
8
1
62
256
6
ByLayer
370
18
48
1
60
0
100
AcDbLine
10
4
20
6.254308
30
0
11
1.354376
21
6.252655
31
0
39
0
210
0
220
0
230
1
0
LINE
5
99
100
AcDbEntity
8
81
62
256
6
ByLayer
370
18
48
1
60
0
100
AcDbLine
10
79
20
0
30
0
11
84
21
0
31
0
39
0
210
0
220
0
230
1
0
LINE
5
9A
100
AcDbEntity
8
SK2
62
256
6
ByLayer
370
13
48
1
60
0
100
AcDbLine
10
-53.625163
20
-7
30
0
11
-53.625163
21
38.225706
31
0
39
0
210
0
220
0
230
1
0
LINE
5
9C
100
AcDbEntity
8
SK2
62
256
6
ByLayer
370
13
48
1
60
0
100
AcDbLine
10
-46.5875
20
7
30
0
11
-55.625163
21
7
31
0
39
0
210
0
220
0
230
1
0
LINE
5
9D
100
AcDbEntity
8
SK2
62
256
6
ByLayer
370
13
48
1
60
0
100
AcDbLine
10
-46.5875
20
-7
30
0
11
-55.625163
21
-7
31
0
39
0
210
0
220
0
230
1
0
LINE
5
9E
100
AcDbEntity
8
1
62
256
6
ByLayer
370
18
48
1
60
1
100
AcDbLine
10
-53.625163
20
7
30
0
11
-53.164379
21
3.500002
31
0
39
0
210
0
220
0
230
1
0
LINE
5
9F
100
AcDbEntity
8
1
62
256
6
ByLayer
370
18
48
1
60
1
100
AcDbLine
10
-53.164379
20
3.500002
30
0
11
-54.085946
21
3.499998
31
0
39
0
210
0
220
0
230
1
0
LINE
5
A0
100
AcDbEntity
8
1
62
256
6
ByLayer
370
18
48
1
60
1
100
AcDbLine
10
-54.085946
20
3.499998
30
0
11
-53.625163
21
7
31
0
39
0
210
0
220
0
230
1
0
LINE
5
A1
100
AcDbEntity
8
1
62
256
6
ByLayer
370
18
48
1
60
1
100
AcDbLine
10
-53.625163
20
-7
30
0
11
-54.085946
21
-3.500002
31
0
39
0
210
0
220
0
230
1
0
LINE
5
A2
100
AcDbEntity
8
1
62
256
6
ByLayer
370
18
48
1
60
1
100
AcDbLine
10
-54.085946
20
-3.500002
30
0
11
-53.164379
21
-3.499998
31
0
39
0
210
0
220
0
230
1
0
LINE
5
A3
100
AcDbEntity
8
1
62
256
6
ByLayer
370
18
48
1
60
1
100
AcDbLine
10
-53.164379
20
-3.499998
30
0
11
-53.625163
21
-7
31
0
39
0
210
0
220
0
230
1
0
LINE
5
A4
100
AcDbEntity
8
2
62
256
6
ByLayer
370
13
48
1
60
0
100
AcDbLine
10
91.083343
20
-6.3
30
0
11
91.083343
21
35.750259
31
0
39
0
210
0
220
0
230
1
0
LINE
5
A6
100
AcDbEntity
8
2
62
256
6
ByLayer
370
13
48
1
60
0
100
AcDbLine
10
78.7117
20
6.3
30
0
11
93.083343
21
6.3
31
0
39
0
210
0
220
0
230
1
0
LINE
5
A7
100
AcDbEntity
8
2
62
256
6
ByLayer
370
13
48
1
60
0
100
AcDbLine
10
78.7117
20
-6.3
30
0
11
93.083343
21
-6.3
31
0
39
0
210
0
220
0
230
1
0
LINE
5
A8
100
AcDbEntity
8
1
62
256
6
ByLayer
370
18
48
1
60
1
100
AcDbLine
10
91.083343
20
6.3
30
0
11
91.544126
21
2.800002
31
0
39
0
210
0
220
0
230
1
0
LINE
5
A9
100
AcDbEntity
8
1
62
256
6
ByLayer
370
18
48
1
60
1
100
AcDbLine
10
91.544126
20
2.800002
30
0
11
90.622559
21
2.799998
31
0
39
0
210
0
220
0
230
1
0
LINE
5
AA
100
AcDbEntity
8
1
62
256
6
ByLayer
370
18
48
1
60
1
100
AcDbLine
10
90.622559
20
2.799998
30
0
11
91.083343
21
6.3
31
0
39
0
210
0
220
0
230
1
0
LINE
5
AB
100
AcDbEntity
8
1
62
256
6
ByLayer
370
18
48
1
60
1
100
AcDbLine
10
91.083343
20
-6.3
30
0
11
90.622559
21
-2.800002
31
0
39
0
210
0
220
0
230
1
0
LINE
5
AC
100
AcDbEntity
8
1
62
256
6
ByLayer
370
18
48
1
60
1
100
AcDbLine
10
90.622559
20
-2.800002
30
0
11
91.544126
21
-2.799998
31
0
39
0
210
0
220
0
230
1
0
LINE
5
AD
100
AcDbEntity
8
1
62
256
6
ByLayer
370
18
48
1
60
1
100
AcDbLine
10
91.544126
20
-2.799998
30
0
11
91.083343
21
-6.3
31
0
39
0
210
0
220
0
230
1
0
LINE
5
F1
100
AcDbEntity
8
1
62
256
6
ByLayer
370
18
48
1
60
1
100
AcDbLine
10
-53.625163
20
7
30
0
11
-53.164379
21
3.500002
31
0
39
0
210
0
220
0
230
1
0
LINE
5
F2
100
AcDbEntity
8
1
62
256
6
ByLayer
370
18
48
1
60
1
100
AcDbLine
10
-53.164379
20
3.500002
30
0
11
-54.085946
21
3.499998
31
0
39
0
210
0
220
0
230
1
0
LINE
5
F3
100
AcDbEntity
8
1
62
256
6
ByLayer
370
18
48
1
60
1
100
AcDbLine
10
-54.085946
20
3.499998
30
0
11
-53.625163
21
7
31
0
39
0
210
0
220
0
230
1
0
LINE
5
F5
100
AcDbEntity
8
1
62
256
6
ByLayer
370
18
48
1
60
1
100
AcDbLine
10
-53.625163
20
-7
30
0
11
-54.085946
21
-3.500002
31
0
39
0
210
0
220
0
230
1
0
LINE
5
F6
100
AcDbEntity
8
1
62
256
6
ByLayer
370
18
48
1
60
1
100
AcDbLine
10
-54.085946
20
-3.500002
30
0
11
-53.164379
21
-3.499998
31
0
39
0
210
0
220
0
230
1
0
LINE
5
F7
100
AcDbEntity
8
1
62
256
6
ByLayer
370
18
48
1
60
1
100
AcDbLine
10
-53.164379
20
-3.499998
30
0
11
-53.625163
21
-7
31
0
39
0
210
0
220
0
230
1
0
LINE
5
FB
100
AcDbEntity
8
1
62
256
6
ByLayer
370
18
48
1
60
1
100
AcDbLine
10
91.083343
20
6.3
30
0
11
91.544126
21
2.800002
31
0
39
0
210
0
220
0
230
1
0
LINE
5
FC
100
AcDbEntity
8
1
62
256
6
ByLayer
370
18
48
1
60
1
100
AcDbLine
10
91.544126
20
2.800002
30
0
11
90.622559
21
2.799998
31
0
39
0
210
0
220
0
230
1
0
LINE
5
FD
100
AcDbEntity
8
1
62
256
6
ByLayer
370
18
48
1
60
1
100
AcDbLine
10
90.622559
20
2.799998
30
0
11
91.083343
21
6.3
31
0
39
0
210
0
220
0
230
1
0
LINE
5
FF
100
AcDbEntity
8
1
62
256
6
ByLayer
370
18
48
1
60
1
100
AcDbLine
10
91.083343
20
-6.3
30
0
11
90.622559
21
-2.800002
31
0
39
0
210
0
220
0
230
1
0
LINE
5
100
100
AcDbEntity
8
1
62
256
6
ByLayer
370
18
48
1
60
1
100
AcDbLine
10
90.622559
20
-2.800002
30
0
11
91.544126
21
-2.799998
31
0
39
0
210
0
220
0
230
1
0
LINE
5
101
100
AcDbEntity
8
1
62
256
6
ByLayer
370
18
48
1
60
1
100
AcDbLine
10
91.544126
20
-2.799998
30
0
11
91.083343
21
-6.3
31
0
39
0
210
0
220
0
230
1
0
MTEXT
5
EB
100
AcDbEntity
8
SK6
62
256
6
ByLayer
370
13
48
1
60
0
100
AcDbMText
10
-11.70776
20
38.840328
30
0
210
0
220
0
230
1
1
\W0.7563;462.1-1260-063A1-XM X2BM
40
3.5
41
0
44
1.084337
50
0
71
7
72
5
7
iso_b_vert
0
MTEXT
5
EF
100
AcDbEntity
8
SK2
62
256
6
ByLayer
370
18
48
1
60
0
100
AcDbMText
10
-55.189796
20
20.409024
30
0
210
0
220
0
230
1
1
%%c
40
3.5
41
0
44
1.084337
50
90
71
7
72
5
7
iso_b_vert
0
MTEXT
5
F0
100
AcDbEntity
8
SK2
62
256
6
ByLayer
370
18
48
1
60
0
100
AcDbMText
10
-55.189796
20
25.63168
30
0
210
0
220
0
230
1
1
\W0.7145;14,000
40
3.5
41
0
44
1.084337
50
90
71
7
72
5
7
iso_b_vert
0
MTEXT
5
F9
100
AcDbEntity
8
2
62
256
6
ByLayer
370
18
48
1
60
0
100
AcDbMText
10
89.518709
20
18.30211
30
0
210
0
220
0
230
1
1
%%c
40
3.5
41
0
44
1.084337
50
90
71
7
72
5
7
iso_b_vert
0
MTEXT
5
FA
100
AcDbEntity
8
2
62
256
6
ByLayer
370
18
48
1
60
0
100
AcDbMText
10
89.518709
20
23.524766
30
0
210
0
220
0
230
1
1
\W0.6930;12,600
40
3.5
41
0
44
1.084337
50
90
71
7
72
5
7
iso_b_vert
0
HATCH
5
F4
100
AcDbEntity
8
SK2
62
256
6
ByLayer
370
13
48
1
60
0
100
AcDbHatch
10
0
20
0
30
0
210
0
220
0
230
1
2
ANSI31
70
0
71
0
91
1
92
5
93
3
72
1
10
-53.6251625675374
20
7
11
-53.1643788259847
21
3.50000169255318
72
1
10
-53.1643788259847
20
3.50000169255318
11
-54.0859463090902
21
3.49999830744682
72
1
10
-54.0859463090902
20
3.49999830744682
11
-53.6251625675374
21
7
97
0
75
0
76
1
52
0
41
0.0062
77
0
78
1
53
45
43
0
44
0
45
-0.0139193969876572
46
0.0139193969876572
79
0
47
0
98
1
10
0
20
0
0
HATCH
5
F8
100
AcDbEntity
8
SK2
62
256
6
ByLayer
370
13
48
1
60
0
100
AcDbHatch
10
0
20
0
30
0
210
0
220
0
230
1
2
ANSI31
70
0
71
0
91
1
92
5
93
3
72
1
10
-53.6251625675374
20
-7
11
-54.0859463090902
21
-3.50000169255318
72
1
10
-54.0859463090902
20
-3.50000169255318
11
-53.1643788259847
21
-3.49999830744682
72
1
10
-53.1643788259847
20
-3.49999830744682
11
-53.6251625675374
21
-7
97
0
75
0
76
1
52
0
41
0.0062
77
0
78
1
53
45
43
0
44
0
45
-0.0139193969876572
46
0.0139193969876572
79
0
47
0
98
1
10
0
20
0
0
HATCH
5
FE
100
AcDbEntity
8
2
62
256
6
ByLayer
370
13
48
1
60
0
100
AcDbHatch
10
0
20
0
30
0
210
0
220
0
230
1
2
ANSI31
70
0
71
0
91
1
92
5
93
3
72
1
10
91.083342615295
20
6.30000000000001
11
91.5441263568478
21
2.8000016925532
72
1
10
91.5441263568478
20
2.8000016925532
11
90.6225588737423
21
2.79999830744683
72
1
10
90.6225588737423
20
2.79999830744683
11
91.083342615295
21
6.30000000000001
97
0
75
0
76
1
52
0
41
0.0062
77
0
78
1
53
45
43
0
44
0
45
-0.0139193969876572
46
0.0139193969876572
79
0
47
0
98
1
10
0
20
0
0
HATCH
5
102
100
AcDbEntity
8
2
62
256
6
ByLayer
370
13
48
1
60
0
100
AcDbHatch
10
0
20
0
30
0
210
0
220
0
230
1
2
ANSI31
70
0
71
0
91
1
92
5
93
3
72
1
10
91.083342615295
20
-6.29999999999998
11
90.6225588737423
21
-2.80000169255317
72
1
10
90.6225588737423
20
-2.80000169255317
11
91.5441263568478
21
-2.7999983074468
72
1
10
91.5441263568478
20
-2.7999983074468
11
91.083342615295
21
-6.29999999999998
97
0
75
0
76
1
52
0
41
0.0062
77
0
78
1
53
45
43
0
44
0
45
-0.0139193969876572
46
0.0139193969876572
79
0
47
0
98
1
10
0
20
0
0
DIMENSION
5
104
100
AcDbEntity
8
SK2
62
256
6
ByLayer
370
13
48
1
60
0
100
AcDbDimension
2
_U0
10
77.1242
20
-16.513398
30
0
11
38.5621
21
-16.513398
31
0
70
32
71
1
72
1
41
1
210
0
220
0
230
1
3
Standard
100
AcDbAlignedDimension
13
0
23
0
33
0
14
77.1242
24
-6.3
34
0
50
0
100
AcDbRotatedDimension
1001
ACAD
1000
DSTYLE
1002
{
1070
   371
1070
    13
1070
   372
1070
    13
1070
   170
1070
     0
1070
   144
1040
1.0
1070
   277
1070
     2
1070
   278
1070
    44
1070
   146
1040
1.0
1070
   345
1005
16
1070
   347
1005
16
1070
   346
1005
16
1070
   344
1005
0
1070
   343
1005
0
1070
   172
1070
     1
1070
    76
1070
     0
1070
    75
1070
     0
1070
   282
1070
     0
1070
   281
1070
     0
1070
    71
1070
     0
1070
    74
1070
     0
1070
   279
1070
     0
1070
   173
1070
     1
1070
   340
1005
EC
1070
   271
1070
     2
1070
   272
1070
     2
1070
    77
1070
     1
1070
    73
1070
     1
1070
   171
1070
     3
1070
   274
1070
     4
1070
   177
1070
    35
1070
   176
1070
    35
1070
   178
1070
    35
1070
    48
1040
-0.1
1070
    41
1040
3.5
1070
   147
1040
1.75
1070
    42
1040
1.5875
1070
    44
1040
2.0
1070
   140
1040
3.5
1002
}
1001
ACAD_DSTYLE_DIM_LINETYPE
1070
   380
1005
16
1001
ACAD_DSTYLE_DIM_EXT1_LINETYPE
1070
   381
1005
16
1001
ACAD_DSTYLE_DIM_EXT2_LINETYPE
1070
   382
1005
16
0
DIMENSION
5
11D
100
AcDbEntity
8
SK2
62
256
6
ByLayer
370
13
48
1
60
0
100
AcDbDimension
2
_U1
10
79
20
-35.692985
30
0
11
17
21
-35.692985
31
0
70
32
71
1
72
1
41
1
210
0
220
0
230
1
3
Standard
100
AcDbAlignedDimension
13
-45
23
-7
33
0
14
79
24
0
34
0
50
0
100
AcDbRotatedDimension
1001
ACAD
1000
DSTYLE
1002
{
1070
   371
1070
    13
1070
   372
1070
    13
1070
   170
1070
     0
1070
   144
1040
1.0
1070
   277
1070
     2
1070
   278
1070
    44
1070
   146
1040
1.0
1070
   345
1005
16
1070
   347
1005
16
1070
   346
1005
16
1070
   344
1005
0
1070
   343
1005
0
1070
   172
1070
     1
1070
    76
1070
     0
1070
    75
1070
     0
1070
   282
1070
     0
1070
   281
1070
     0
1070
    71
1070
     0
1070
    74
1070
     0
1070
   279
1070
     0
1070
   173
1070
     1
1070
   340
1005
EC
1070
   271
1070
     2
1070
   272
1070
     2
1070
    77
1070
     1
1070
    73
1070
     1
1070
   171
1070
     3
1070
   274
1070
     4
1070
   177
1070
    35
1070
   176
1070
    35
1070
   178
1070
    35
1070
    48
1040
-0.1
1070
    41
1040
3.5
1070
   147
1040
1.75
1070
    42
1040
1.5875
1070
    44
1040
2.0
1070
   140
1040
3.5
1002
}
1001
ACAD_DSTYLE_DIM_LINETYPE
1070
   380
1005
16
1001
ACAD_DSTYLE_DIM_EXT1_LINETYPE
1070
   381
1005
16
1001
ACAD_DSTYLE_DIM_EXT2_LINETYPE
1070
   382
1005
16
0
DIMENSION
5
135
100
AcDbEntity
8
SK2
62
256
6
ByLayer
370
13
48
1
60
0
100
AcDbDimension
2
_U2
10
79
20
17.909119
30
0
11
48.06
21
17.909119
31
0
70
32
71
1
72
1
41
1
210
0
220
0
230
1
3
Standard
100
AcDbAlignedDimension
13
17.12
23
6.3
33
0
14
79
24
0
34
0
50
0
100
AcDbRotatedDimension
1001
ACAD
1000
DSTYLE
1002
{
1070
   371
1070
    13
1070
   372
1070
    13
1070
   170
1070
     0
1070
   144
1040
1.0
1070
   277
1070
     2
1070
   278
1070
    44
1070
   146
1040
1.0
1070
   345
1005
16
1070
   347
1005
16
1070
   346
1005
16
1070
   344
1005
0
1070
   343
1005
0
1070
   172
1070
     1
1070
    76
1070
     0
1070
    75
1070
     0
1070
   282
1070
     0
1070
   281
1070
     0
1070
    71
1070
     0
1070
    74
1070
     0
1070
   279
1070
     0
1070
   173
1070
     1
1070
   340
1005
EC
1070
   271
1070
     2
1070
   272
1070
     2
1070
    77
1070
     1
1070
    73
1070
     1
1070
   171
1070
     3
1070
   274
1070
     4
1070
   177
1070
    35
1070
   176
1070
    35
1070
   178
1070
    35
1070
    48
1040
-0.1
1070
    41
1040
3.5
1070
   147
1040
1.75
1070
    42
1040
1.5875
1070
    44
1040
2.0
1070
   140
1040
3.5
1002
}
1001
ACAD_DSTYLE_DIM_LINETYPE
1070
   380
1005
16
1001
ACAD_DSTYLE_DIM_EXT1_LINETYPE
1070
   381
1005
16
1001
ACAD_DSTYLE_DIM_EXT2_LINETYPE
1070
   382
1005
16
0
DIMENSION
5
14D
100
AcDbEntity
8
SK2
62
256
6
ByLayer
370
13
48
1
60
0
100
AcDbDimension
2
_U3
10
77.1242
20
-19.102503
30
0
11
96.333333
21
-19.102503
31
0
70
32
71
1
72
1
41
1
210
0
220
0
230
1
3
Standard
100
AcDbAlignedDimension
13
79
23
0
33
0
14
77.1242
24
-6.3
34
0
50
0
100
AcDbRotatedDimension
1001
ACAD
1000
DSTYLE
1002
{
1070
   371
1070
    13
1070
   372
1070
    13
1070
   170
1070
     0
1070
   144
1040
1.0
1070
   277
1070
     2
1070
   278
1070
    44
1070
   146
1040
1.0
1070
   345
1005
16
1070
   347
1005
16
1070
   346
1005
16
1070
   344
1005
0
1070
   343
1005
0
1070
   172
1070
     1
1070
    76
1070
     0
1070
    75
1070
     0
1070
   282
1070
     0
1070
   281
1070
     0
1070
    71
1070
     0
1070
    74
1070
     0
1070
   279
1070
     0
1070
   173
1070
     1
1070
   340
1005
EC
1070
   271
1070
     2
1070
   272
1070
     2
1070
    77
1070
     1
1070
    73
1070
     1
1070
   171
1070
     3
1070
   274
1070
     4
1070
   177
1070
    35
1070
   176
1070
    35
1070
   178
1070
    35
1070
    48
1040
-0.1
1070
    41
1040
3.5
1070
   147
1040
1.75
1070
    42
1040
1.5875
1070
    44
1040
2.0
1070
   140
1040
3.5
1002
}
1001
ACAD_DSTYLE_DIM_LINETYPE
1070
   380
1005
16
1001
ACAD_DSTYLE_DIM_EXT1_LINETYPE
1070
   381
1005
16
1001
ACAD_DSTYLE_DIM_EXT2_LINETYPE
1070
   382
1005
16
0
DIMENSION
5
167
100
AcDbEntity
8
SK2
62
256
6
ByLayer
370
13
48
1
60
0
100
AcDbDimension
2
_U4
10
77.1242
20
-25.343428
30
0
11
16.0621
21
-25.343428
31
0
70
32
71
1
72
1
41
1
210
0
220
0
230
1
3
Standard
100
AcDbAlignedDimension
13
-45
23
-7
33
0
14
77.1242
24
-6.3
34
0
50
0
100
AcDbRotatedDimension
1001
ACAD
1000
DSTYLE
1002
{
1070
   371
1070
    13
1070
   372
1070
    13
1070
   170
1070
     0
1070
   144
1040
1.0
1070
   277
1070
     2
1070
   278
1070
    44
1070
   146
1040
1.0
1070
   345
1005
16
1070
   347
1005
16
1070
   346
1005
16
1070
   344
1005
0
1070
   343
1005
0
1070
   172
1070
     1
1070
    76
1070
     0
1070
    75
1070
     0
1070
   282
1070
     0
1070
   281
1070
     0
1070
    71
1070
     0
1070
    74
1070
     0
1070
   279
1070
     0
1070
   173
1070
     1
1070
   340
1005
EC
1070
   271
1070
     2
1070
   272
1070
     2
1070
    77
1070
     1
1070
    73
1070
     1
1070
   171
1070
     3
1070
   274
1070
     4
1070
   177
1070
    35
1070
   176
1070
    35
1070
   178
1070
    35
1070
    48
1040
-0.1
1070
    41
1040
3.5
1070
   147
1040
1.75
1070
    42
1040
1.5875
1070
    44
1040
2.0
1070
   140
1040
3.5
1002
}
1001
ACAD_DSTYLE_DIM_LINETYPE
1070
   380
1005
16
1001
ACAD_DSTYLE_DIM_EXT1_LINETYPE
1070
   381
1005
16
1001
ACAD_DSTYLE_DIM_EXT2_LINETYPE
1070
   382
1005
16
0
ENDSEC
0
SECTION
2
OBJECTS
0
DICTIONARY
5
1ef
330
0
100
AcDbDictionary
280
0
281
1
3
ACAD_GROUP
350
1f0
3
ACAD_MLINESTYLE
350
1f1
0
DICTIONARY
5
1f0
330
0
100
AcDbDictionary
280
0
281
1
0
DICTIONARY
5
1f1
330
0
100
AcDbDictionary
280
0
281
1
3
Standard
350
18
0
MLINESTYLE
5
18
330
1f1
100
AcDbMlineStyle
2
Standard
70
0
3

62
256
51
90
52
90
71
2
49
-0.5
62
256
6
ByLayer
49
0.5
62
256
6
ByLayer
0
RASTERVARIABLES
5
1dd
330

100
AcDbRasterVariables
90
0
70
1
71
1
72
1
0
ENDSEC
0
EOF
