0
SECTION
2
HEADER
9
$ACADVER
1
AC1015
9
$DWGCODEPAGE
3
ANSI_1252
9
$HANDSEED
5
207
9
$ANGBASE
50
0
9
$ANGDIR
70
0
9
$ATTMODE
70
1
9
$AUNITS
70
0
9
$AUPREC
70
0
9
$CECOLOR
62
256
9
$CELTSCALE
40
1
9
$CELTYPE
6
ByLayer
9
$CELWEIGHT
370
18
9
$CLAYER
8
0
9
$CMLJUST
70
0
9
$CMLSCALE
40
1
9
$CMLSTYLE
2
Standard
9
$DIMSTYLE
2
Standard
9
$TEXTSIZE
40
0.2
9
$TEXTSTYLE
7
Standard
9
$LUNITS
70
2
9
$LUPREC
70
4
9
$EXTNAMES
290
1
9
$INSUNITS
70
4
9
$LTSCALE
40
1
9
$LWDISPLAY
290
1
9
$PDMODE
70
0
9
$PDSIZE
40
0
9
$PLINEGEN
70
0
0
ENDSEC
0
SECTION
2
CLASSES
0
CLASS
1
RASTERVARIABLES
2
AcDbRasterVariables
3
ISM
90
0
280
0
281
0
0
ENDSEC
0
SECTION
2
TABLES
0
TABLE
2
VPORT
5
1fd
100
AcDbSymbolTable
0
VPORT
5
1
100
AcDbSymbolTableRecord
100
AcDbViewportTableRecord
2
*Active
70
0
10
0
20
0
11
1
21
1
12
-1
22
1
13
0
23
0
14
0.5
24
0.5
15
10
25
10
16
0
26
0
36
1
17
0
27
0
37
0
0
ENDTAB
0
TABLE
2
LTYPE
5
1fe
100
AcDbSymbolTable
0
LTYPE
5
14
100
AcDbSymbolTableRecord
100
AcDbLinetypeTableRecord
70
0
2
ByBlock
3

72
65
73
0
40
0
0
LTYPE
5
15
100
AcDbSymbolTableRecord
100
AcDbLinetypeTableRecord
70
0
2
ByLayer
3

72
65
73
0
40
0
0
LTYPE
5
16
100
AcDbSymbolTableRecord
100
AcDbLinetypeTableRecord
70
0
2
Continuous
3
Solid line
72
65
73
0
40
0
0
LTYPE
5
6E
100
AcDbSymbolTableRecord
100
AcDbLinetypeTableRecord
70
0
2
CENTER
3
____ _ ____ _ ____ _ ____
72
65
73
4
40
47.5
49
22
74
0
49
-8.5
74
0
49
8.5
74
0
49
-8.5
74
0
0
LTYPE
5
6F
100
AcDbSymbolTableRecord
100
AcDbLinetypeTableRecord
70
0
2
DASHED
3
__ __ __ __ __ __ __ __ __
72
65
73
2
40
25.72
49
12.86
74
0
49
-12.86
74
0
0
ENDTAB
0
TABLE
2
LAYER
5
1ff
100
AcDbSymbolTable
0
LAYER
5
10
100
AcDbSymbolTableRecord
100
AcDbLayerTableRecord
2
0
70
0
62
7
6
Continuous
290
1
370
-3
390
0
0
LAYER
5
71
100
AcDbSymbolTableRecord
100
AcDbLayerTableRecord
2
80
70
0
62
-6
6
Continuous
290
1
370
-3
390
0
0
LAYER
5
73
100
AcDbSymbolTableRecord
100
AcDbLayerTableRecord
2
81
70
0
62
-3
6
Continuous
290
1
370
-3
390
0
0
LAYER
5
75
100
AcDbSymbolTableRecord
100
AcDbLayerTableRecord
2
1
70
0
62
4
6
Continuous
290
1
370
-3
390
0
0
LAYER
5
8A
100
AcDbSymbolTableRecord
100
AcDbLayerTableRecord
2
4
70
0
62
-2
6
CENTER
290
1
370
-3
390
0
0
LAYER
5
A5
100
AcDbSymbolTableRecord
100
AcDbLayerTableRecord
2
2
70
0
62
7
6
Continuous
290
1
370
-3
390
0
0
LAYER
5
112
100
AcDbSymbolTableRecord
100
AcDbLayerTableRecord
2
Defpoints
70
0
62
7
6
Continuous
290
0
370
-3
390
0
0
LAYER
5
1e9
100
AcDbSymbolTableRecord
100
AcDbLayerTableRecord
2
SK1
70
0
62
4
6
Continuous
290
1
370
-3
390
0
0
LAYER
5
1ea
100
AcDbSymbolTableRecord
100
AcDbLayerTableRecord
2
SK4
70
0
62
2
6
CENTER
290
1
370
-3
390
0
0
LAYER
5
1eb
100
AcDbSymbolTableRecord
100
AcDbLayerTableRecord
2
SK2
70
0
62
7
6
Continuous
290
1
370
-3
390
0
0
LAYER
5
1ec
100
AcDbSymbolTableRecord
100
AcDbLayerTableRecord
2
SK6
70
0
62
5
6
Continuous
290
1
370
-3
390
0
0
ENDTAB
0
TABLE
2
STYLE
5
200
100
AcDbSymbolTable
0
STYLE
5
11
100
AcDbSymbolTableRecord
100
AcDbTextStyleTableRecord
2
Standard
3
txt
70
0
71
0
40
0
41
1
42
0
50
0
0
STYLE
5
F7
100
AcDbSymbolTableRecord
100
AcDbTextStyleTableRecord
2
iso_b_vert
3
simplex.shx
70
0
71
0
40
0
41
1
42
0
50
0
0
STYLE
5
F8
100
AcDbSymbolTableRecord
100
AcDbTextStyleTableRecord
2
DWGDirectTextStyle
3
simplex
70
0
71
0
40
0
41
1
42
0
50
0
0
ENDTAB
0
TABLE
2
DIMSTYLE
5
201
100
AcDbSymbolTable
100
AcDbDimStyleTable
0
DIMSTYLE
105
27
100
AcDbSymbolTableRecord
100
AcDbDimStyleTableRecord
2
Standard
70
0
3
<>
41
0.18
42
0.0625
44
0.18
140
0.18
147
0.09
73
0
74
0
77
1
271
2
275
0
278
52
280
0
340
11
0
ENDTAB
0
TABLE
2
VIEW
5
202
100
AcDbSymbolTable
0
ENDTAB
0
TABLE
2
UCS
5
203
100
AcDbSymbolTable
0
ENDTAB
0
TABLE
2
APPID
5
204
100
AcDbSymbolTable
0
APPID
5
12
100
AcDbSymbolTableRecord
100
AcDbRegAppTableRecord
2
ACAD
70
0
0
APPID
5
10E
100
AcDbSymbolTableRecord
100
AcDbRegAppTableRecord
2
ACAD_DSTYLE_DIMBREAK
70
0
0
APPID
5
1A8
100
AcDbSymbolTableRecord
100
AcDbRegAppTableRecord
2
ACAD_DSTYLE_DIM_LINETYPE
70
0
0
APPID
5
1A9
100
AcDbSymbolTableRecord
100
AcDbRegAppTableRecord
2
ACAD_DSTYLE_DIM_EXT1_LINETYPE
70
0
0
APPID
5
1AA
100
AcDbSymbolTableRecord
100
AcDbRegAppTableRecord
2
ACAD_DSTYLE_DIM_EXT2_LINETYPE
70
0
0
APPID
5
1E5
100
AcDbSymbolTableRecord
100
AcDbRegAppTableRecord
2
ACAD_MLEADERVER
70
0
0
ENDTAB
0
TABLE
2
BLOCK_RECORD
5
205
100
AcDbSymbolTable
0
BLOCK_RECORD
5
1F
100
AcDbSymbolTableRecord
100
AcDbBlockTableRecord
2
*Model_Space
340
0
70
0
0
BLOCK_RECORD
5
1B
100
AcDbSymbolTableRecord
100
AcDbBlockTableRecord
2
*Paper_Space
340
0
70
0
0
BLOCK_RECORD
5
23
100
AcDbSymbolTableRecord
100
AcDbBlockTableRecord
2
*Paper_Space0
340
0
70
0
0
BLOCK_RECORD
5
113
100
AcDbSymbolTableRecord
100
AcDbBlockTableRecord
2
*D1
340
0
70
0
0
BLOCK_RECORD
5
11F
100
AcDbSymbolTableRecord
100
AcDbBlockTableRecord
2
_U0
340
0
70
0
0
BLOCK_RECORD
5
12B
100
AcDbSymbolTableRecord
100
AcDbBlockTableRecord
2
*D3
340
0
70
0
0
BLOCK_RECORD
5
137
100
AcDbSymbolTableRecord
100
AcDbBlockTableRecord
2
_U1
340
0
70
0
0
BLOCK_RECORD
5
143
100
AcDbSymbolTableRecord
100
AcDbBlockTableRecord
2
*D5
340
0
70
0
0
BLOCK_RECORD
5
14F
100
AcDbSymbolTableRecord
100
AcDbBlockTableRecord
2
_U2
340
0
70
0
0
BLOCK_RECORD
5
15B
100
AcDbSymbolTableRecord
100
AcDbBlockTableRecord
2
*D7
340
0
70
0
0
BLOCK_RECORD
5
169
100
AcDbSymbolTableRecord
100
AcDbBlockTableRecord
2
_U3
340
0
70
0
0
BLOCK_RECORD
5
175
100
AcDbSymbolTableRecord
100
AcDbBlockTableRecord
2
*D9
340
0
70
0
0
BLOCK_RECORD
5
181
100
AcDbSymbolTableRecord
100
AcDbBlockTableRecord
2
_U4
340
0
70
0
0
ENDTAB
0
ENDSEC
0
SECTION
2
BLOCKS
0
BLOCK
5
20
100
AcDbEntity
8
0
100
AcDbBlockBegin
2
*Model_Space
70
0
10
0
20
0
30
0
3
*Model_Space
0
ENDBLK
5
21
100
AcDbEntity
8
0
100
AcDbBlockEnd
0
BLOCK
5
1C
100
AcDbEntity
8
0
100
AcDbBlockBegin
2
*Paper_Space
70
0
10
0
20
0
30
0
3
*Paper_Space
0
ENDBLK
5
1D
100
AcDbEntity
8
0
100
AcDbBlockEnd
0
BLOCK
5
24
100
AcDbEntity
8
0
100
AcDbBlockBegin
2
*Paper_Space0
70
0
10
0
20
0
30
0
3
*Paper_Space0
0
ENDBLK
5
25
100
AcDbEntity
8
0
100
AcDbBlockEnd
0
BLOCK
5
114
100
AcDbEntity
8
0
100
AcDbBlockBegin
2
*D1
70
1
10
0
20
0
30
0
3
*D1
0
LINE
5
116
100
AcDbEntity
8
0
62
256
6
ByLayer
370
-2
48
1
60
0
100
AcDbLine
10
0
20
-1.5875
30
0
11
0
21
-15.513398
31
0
39
0
210
0
220
0
230
1
0
LINE
5
117
100
AcDbEntity
8
0
62
256
6
ByLayer
370
-2
48
1
60
0
100
AcDbLine
10
54.0284
20
-4.8875
30
0
11
54.0284
21
-15.513398
31
0
39
0
210
0
220
0
230
1
0
LINE
5
118
100
AcDbEntity
8
0
62
256
6
ByLayer
370
-2
48
1
60
0
100
AcDbLine
10
3.5
20
-13.513398
30
0
11
50.5284
21
-13.513398
31
0
39
0
210
0
220
0
230
1
0
SOLID
5
119
100
AcDbEntity
8
0
62
256
6
ByLayer
370
-1
48
1
60
0
100
AcDbTrace
10
3.5
20
-12.930065
30
0
11
3.5
21
-14.096732
31
0
12
0
22
-13.513398
32
0
13
0
23
-13.513398
33
0
39
0
210
0
220
0
230
1
0
SOLID
5
11A
100
AcDbEntity
8
0
62
256
6
ByLayer
370
-1
48
1
60
0
100
AcDbTrace
10
50.5284
20
-14.096732
30
0
11
50.5284
21
-12.930065
31
0
12
54.0284
22
-13.513398
32
0
13
54.0284
23
-13.513398
33
0
39
0
210
0
220
0
230
1
0
MTEXT
5
11B
100
AcDbEntity
8
0
62
256
6
ByLayer
370
18
48
1
60
0
100
AcDbMText
10
27.0142
20
-6.513398
30
0
210
0
220
0
230
1
1
\A1;54.03
40
3.5
41
0
44
1
50
0
71
5
72
5
7
iso_b_vert
0
POINT
5
11C
100
AcDbEntity
8
Defpoints
62
0
6
ByLayer
370
-1
48
1
60
0
100
AcDbPoint
10
0
20
0
30
0
39
0
210
0
220
0
230
1
50
360
0
POINT
5
11D
100
AcDbEntity
8
Defpoints
62
0
6
ByLayer
370
-1
48
1
60
0
100
AcDbPoint
10
54.0284
20
-3.3
30
0
39
0
210
0
220
0
230
1
50
360
0
POINT
5
11E
100
AcDbEntity
8
Defpoints
62
0
6
ByLayer
370
-1
48
1
60
0
100
AcDbPoint
10
54.0284
20
-13.513398
30
0
39
0
210
0
220
0
230
1
50
360
0
ENDBLK
5
115
100
AcDbEntity
8
0
100
AcDbBlockEnd
0
BLOCK
5
126
100
AcDbEntity
8
0
100
AcDbBlockBegin
2
_U0
70
0
10
0
20
0
30
0
3
_U0
0
MTEXT
5
120
100
AcDbEntity
8
SK2
62
256
6
ByLayer
370
13
48
1
60
0
100
AcDbMText
10
21.692635
20
-12.480765
30
0
210
0
220
0
230
1
1
\W0.7581;54,03
40
3.5
41
0
44
1.084337
50
0
71
7
72
5
7
iso_b_vert
0
LINE
5
121
100
AcDbEntity
8
SK2
62
256
6
ByLayer
370
13
48
1
60
0
100
AcDbLine
10
0
20
-1.5875
30
0
11
0
21
-15.513398
31
0
39
0
210
0
220
0
230
1
0
LINE
5
122
100
AcDbEntity
8
SK2
62
256
6
ByLayer
370
13
48
1
60
0
100
AcDbLine
10
54.0284
20
-4.8875
30
0
11
54.0284
21
-15.513398
31
0
39
0
210
0
220
0
230
1
0
LINE
5
123
100
AcDbEntity
8
SK2
62
256
6
ByLayer
370
13
48
1
60
0
100
AcDbLine
10
0
20
-13.513398
30
0
11
54.0284
21
-13.513398
31
0
39
0
210
0
220
0
230
1
0
SOLID
5
124
100
AcDbEntity
8
SK2
62
256
6
ByLayer
370
18
48
1
60
0
100
AcDbTrace
10
0
20
-13.513398
30
0
11
3.499998
21
-13.052615
31
0
12
3.500002
22
-13.974182
32
0
13
3.500002
23
-13.974182
33
0
39
0
210
0
220
0
230
1
0
SOLID
5
125
100
AcDbEntity
8
SK2
62
256
6
ByLayer
370
18
48
1
60
0
100
AcDbTrace
10
54.0284
20
-13.513398
30
0
11
50.528402
21
-13.974182
31
0
12
50.528398
22
-13.052615
32
0
13
50.528398
23
-13.052615
33
0
39
0
210
0
220
0
230
1
0
ENDBLK
5
127
100
AcDbEntity
8
0
100
AcDbBlockEnd
0
BLOCK
5
12C
100
AcDbEntity
8
0
100
AcDbBlockBegin
2
*D3
70
1
10
0
20
0
30
0
3
*D3
0
LINE
5
12E
100
AcDbEntity
8
0
62
256
6
ByLayer
370
-2
48
1
60
0
100
AcDbLine
10
-36
20
-5.5875
30
0
11
-36
21
-34.692985
31
0
39
0
210
0
220
0
230
1
0
LINE
5
12F
100
AcDbEntity
8
0
62
256
6
ByLayer
370
-2
48
1
60
0
100
AcDbLine
10
55
20
-1.5875
30
0
11
55
21
-34.692985
31
0
39
0
210
0
220
0
230
1
0
LINE
5
130
100
AcDbEntity
8
0
62
256
6
ByLayer
370
-2
48
1
60
0
100
AcDbLine
10
-32.5
20
-32.692985
30
0
11
51.5
21
-32.692985
31
0
39
0
210
0
220
0
230
1
0
SOLID
5
131
100
AcDbEntity
8
0
62
256
6
ByLayer
370
-1
48
1
60
0
100
AcDbTrace
10
-32.5
20
-32.109652
30
0
11
-32.5
21
-33.276319
31
0
12
-36
22
-32.692985
32
0
13
-36
23
-32.692985
33
0
39
0
210
0
220
0
230
1
0
SOLID
5
132
100
AcDbEntity
8
0
62
256
6
ByLayer
370
-1
48
1
60
0
100
AcDbTrace
10
51.5
20
-33.276319
30
0
11
51.5
21
-32.109652
31
0
12
55
22
-32.692985
32
0
13
55
23
-32.692985
33
0
39
0
210
0
220
0
230
1
0
MTEXT
5
133
100
AcDbEntity
8
0
62
256
6
ByLayer
370
18
48
1
60
0
100
AcDbMText
10
9.5
20
-25.692985
30
0
210
0
220
0
230
1
1
\A1;91.00
40
3.5
41
0
44
1
50
0
71
5
72
5
7
iso_b_vert
0
POINT
5
134
100
AcDbEntity
8
Defpoints
62
0
6
ByLayer
370
-1
48
1
60
0
100
AcDbPoint
10
-36
20
-4
30
0
39
0
210
0
220
0
230
1
50
360
0
POINT
5
135
100
AcDbEntity
8
Defpoints
62
0
6
ByLayer
370
-1
48
1
60
0
100
AcDbPoint
10
55
20
0
30
0
39
0
210
0
220
0
230
1
50
360
0
POINT
5
136
100
AcDbEntity
8
Defpoints
62
0
6
ByLayer
370
-1
48
1
60
0
100
AcDbPoint
10
55
20
-32.692985
30
0
39
0
210
0
220
0
230
1
50
360
0
ENDBLK
5
12D
100
AcDbEntity
8
0
100
AcDbBlockEnd
0
BLOCK
5
13E
100
AcDbEntity
8
0
100
AcDbBlockBegin
2
_U1
70
0
10
0
20
0
30
0
3
_U1
0
MTEXT
5
138
100
AcDbEntity
8
SK2
62
256
6
ByLayer
370
13
48
1
60
0
100
AcDbMText
10
4.800135
20
-31.660352
30
0
210
0
220
0
230
1
1
\W0.6713;91,00
40
3.5
41
0
44
1.084337
50
0
71
7
72
5
7
iso_b_vert
0
LINE
5
139
100
AcDbEntity
8
SK2
62
256
6
ByLayer
370
13
48
1
60
0
100
AcDbLine
10
-36
20
-5.5875
30
0
11
-36
21
-34.692985
31
0
39
0
210
0
220
0
230
1
0
LINE
5
13A
100
AcDbEntity
8
SK2
62
256
6
ByLayer
370
13
48
1
60
0
100
AcDbLine
10
55
20
-1.5875
30
0
11
55
21
-34.692985
31
0
39
0
210
0
220
0
230
1
0
LINE
5
13B
100
AcDbEntity
8
SK2
62
256
6
ByLayer
370
13
48
1
60
0
100
AcDbLine
10
-36
20
-32.692985
30
0
11
55
21
-32.692985
31
0
39
0
210
0
220
0
230
1
0
SOLID
5
13C
100
AcDbEntity
8
SK2
62
256
6
ByLayer
370
18
48
1
60
0
100
AcDbTrace
10
-36
20
-32.692985
30
0
11
-32.500002
21
-32.232202
31
0
12
-32.499998
22
-33.153769
32
0
13
-32.499998
23
-33.153769
33
0
39
0
210
0
220
0
230
1
0
SOLID
5
13D
100
AcDbEntity
8
SK2
62
256
6
ByLayer
370
18
48
1
60
0
100
AcDbTrace
10
55
20
-32.692985
30
0
11
51.500002
21
-33.153769
31
0
12
51.499998
22
-32.232202
32
0
13
51.499998
23
-32.232202
33
0
39
0
210
0
220
0
230
1
0
ENDBLK
5
13F
100
AcDbEntity
8
0
100
AcDbBlockEnd
0
BLOCK
5
144
100
AcDbEntity
8
0
100
AcDbBlockBegin
2
*D5
70
1
10
0
20
0
30
0
3
*D5
0
LINE
5
146
100
AcDbEntity
8
0
62
256
6
ByLayer
370
-2
48
1
60
0
100
AcDbLine
10
21.03
20
4.8875
30
0
11
21.03
21
16.909119
31
0
39
0
210
0
220
0
230
1
0
LINE
5
147
100
AcDbEntity
8
0
62
256
6
ByLayer
370
-2
48
1
60
0
100
AcDbLine
10
55
20
1.5875
30
0
11
55
21
16.909119
31
0
39
0
210
0
220
0
230
1
0
LINE
5
148
100
AcDbEntity
8
0
62
256
6
ByLayer
370
-2
48
1
60
0
100
AcDbLine
10
24.53
20
14.909119
30
0
11
51.5
21
14.909119
31
0
39
0
210
0
220
0
230
1
0
SOLID
5
149
100
AcDbEntity
8
0
62
256
6
ByLayer
370
-1
48
1
60
0
100
AcDbTrace
10
24.53
20
15.492453
30
0
11
24.53
21
14.325786
31
0
12
21.03
22
14.909119
32
0
13
21.03
23
14.909119
33
0
39
0
210
0
220
0
230
1
0
SOLID
5
14A
100
AcDbEntity
8
0
62
256
6
ByLayer
370
-1
48
1
60
0
100
AcDbTrace
10
51.5
20
14.325786
30
0
11
51.5
21
15.492453
31
0
12
55
22
14.909119
32
0
13
55
23
14.909119
33
0
39
0
210
0
220
0
230
1
0
MTEXT
5
14B
100
AcDbEntity
8
0
62
256
6
ByLayer
370
18
48
1
60
0
100
AcDbMText
10
38.015
20
21.909119
30
0
210
0
220
0
230
1
1
\A1;33.97
40
3.5
41
0
44
1
50
0
71
5
72
5
7
iso_b_vert
0
POINT
5
14C
100
AcDbEntity
8
Defpoints
62
0
6
ByLayer
370
-1
48
1
60
0
100
AcDbPoint
10
21.03
20
3.3
30
0
39
0
210
0
220
0
230
1
50
360
0
POINT
5
14D
100
AcDbEntity
8
Defpoints
62
0
6
ByLayer
370
-1
48
1
60
0
100
AcDbPoint
10
55
20
0
30
0
39
0
210
0
220
0
230
1
50
360
0
POINT
5
14E
100
AcDbEntity
8
Defpoints
62
0
6
ByLayer
370
-1
48
1
60
0
100
AcDbPoint
10
55
20
14.909119
30
0
39
0
210
0
220
0
230
1
50
360
0
ENDBLK
5
145
100
AcDbEntity
8
0
100
AcDbBlockEnd
0
BLOCK
5
156
100
AcDbEntity
8
0
100
AcDbBlockBegin
2
_U2
70
0
10
0
20
0
30
0
3
_U2
0
MTEXT
5
150
100
AcDbEntity
8
SK2
62
256
6
ByLayer
370
13
48
1
60
0
100
AcDbMText
10
32.877701
20
15.941753
30
0
210
0
220
0
230
1
1
\W0.7317;33,97
40
3.5
41
0
44
1.084337
50
0
71
7
72
5
7
iso_b_vert
0
LINE
5
151
100
AcDbEntity
8
SK2
62
256
6
ByLayer
370
13
48
1
60
0
100
AcDbLine
10
21.03
20
4.8875
30
0
11
21.03
21
16.909119
31
0
39
0
210
0
220
0
230
1
0
LINE
5
152
100
AcDbEntity
8
SK2
62
256
6
ByLayer
370
13
48
1
60
0
100
AcDbLine
10
55
20
1.5875
30
0
11
55
21
16.909119
31
0
39
0
210
0
220
0
230
1
0
LINE
5
153
100
AcDbEntity
8
SK2
62
256
6
ByLayer
370
13
48
1
60
0
100
AcDbLine
10
21.03
20
14.909119
30
0
11
55
21
14.909119
31
0
39
0
210
0
220
0
230
1
0
SOLID
5
154
100
AcDbEntity
8
SK2
62
256
6
ByLayer
370
18
48
1
60
0
100
AcDbTrace
10
21.03
20
14.909119
30
0
11
24.529998
21
15.369903
31
0
12
24.530002
22
14.448335
32
0
13
24.530002
23
14.448335
33
0
39
0
210
0
220
0
230
1
0
SOLID
5
155
100
AcDbEntity
8
SK2
62
256
6
ByLayer
370
18
48
1
60
0
100
AcDbTrace
10
55
20
14.909119
30
0
11
51.500002
21
14.448335
31
0
12
51.499998
22
15.369903
32
0
13
51.499998
23
15.369903
33
0
39
0
210
0
220
0
230
1
0
ENDBLK
5
157
100
AcDbEntity
8
0
100
AcDbBlockEnd
0
BLOCK
5
15C
100
AcDbEntity
8
0
100
AcDbBlockBegin
2
*D7
70
1
10
0
20
0
30
0
3
*D7
0
LINE
5
15E
100
AcDbEntity
8
0
62
256
6
ByLayer
370
-2
48
1
60
0
100
AcDbLine
10
55
20
-1.5875
30
0
11
55
21
-18.102503
31
0
39
0
210
0
220
0
230
1
0
LINE
5
15F
100
AcDbEntity
8
0
62
256
6
ByLayer
370
-2
48
1
60
0
100
AcDbLine
10
54.0284
20
-4.8875
30
0
11
54.0284
21
-18.102503
31
0
39
0
210
0
220
0
230
1
0
LINE
5
160
100
AcDbEntity
8
0
62
256
6
ByLayer
370
-2
48
1
60
0
100
AcDbLine
10
55
20
-16.102503
30
0
11
83.166667
21
-16.102503
31
0
39
0
210
0
220
0
230
1
0
LINE
5
161
100
AcDbEntity
8
0
62
256
6
ByLayer
370
-2
48
1
60
0
100
AcDbLine
10
58.5
20
-16.102503
30
0
11
62
21
-16.102503
31
0
39
0
210
0
220
0
230
1
0
LINE
5
162
100
AcDbEntity
8
0
62
256
6
ByLayer
370
-2
48
1
60
0
100
AcDbLine
10
50.5284
20
-16.102503
30
0
11
47.0284
21
-16.102503
31
0
39
0
210
0
220
0
230
1
0
SOLID
5
163
100
AcDbEntity
8
0
62
256
6
ByLayer
370
-1
48
1
60
0
100
AcDbTrace
10
58.5
20
-15.51917
30
0
11
58.5
21
-16.685837
31
0
12
55
22
-16.102503
32
0
13
55
23
-16.102503
33
0
39
0
210
0
220
0
230
1
0
SOLID
5
164
100
AcDbEntity
8
0
62
256
6
ByLayer
370
-1
48
1
60
0
100
AcDbTrace
10
50.5284
20
-16.685837
30
0
11
50.5284
21
-15.51917
31
0
12
54.0284
22
-16.102503
32
0
13
54.0284
23
-16.102503
33
0
39
0
210
0
220
0
230
1
0
MTEXT
5
165
100
AcDbEntity
8
0
62
256
6
ByLayer
370
18
48
1
60
0
100
AcDbMText
10
72.583333
20
-9.102503
30
0
210
0
220
0
230
1
1
\A1;0.97
40
3.5
41
0
44
1
50
0
71
5
72
5
7
iso_b_vert
0
POINT
5
166
100
AcDbEntity
8
Defpoints
62
0
6
ByLayer
370
-1
48
1
60
0
100
AcDbPoint
10
55
20
0
30
0
39
0
210
0
220
0
230
1
50
360
0
POINT
5
167
100
AcDbEntity
8
Defpoints
62
0
6
ByLayer
370
-1
48
1
60
0
100
AcDbPoint
10
54.0284
20
-3.3
30
0
39
0
210
0
220
0
230
1
50
360
0
POINT
5
168
100
AcDbEntity
8
Defpoints
62
0
6
ByLayer
370
-1
48
1
60
0
100
AcDbPoint
10
54.0284
20
-16.102503
30
0
39
0
210
0
220
0
230
1
50
360
0
ENDBLK
5
15D
100
AcDbEntity
8
0
100
AcDbBlockEnd
0
BLOCK
5
170
100
AcDbEntity
8
0
100
AcDbBlockBegin
2
_U3
70
0
10
0
20
0
30
0
3
_U3
0
MTEXT
5
16A
100
AcDbEntity
8
SK2
62
256
6
ByLayer
370
13
48
1
60
0
100
AcDbMText
10
61.15186
20
-15.06987
30
0
210
0
220
0
230
1
1
\W0.7150;0,97
40
3.5
41
0
44
1.084337
50
0
71
7
72
5
7
iso_b_vert
0
LINE
5
16B
100
AcDbEntity
8
SK2
62
256
6
ByLayer
370
13
48
1
60
0
100
AcDbLine
10
55
20
-1.5875
30
0
11
55
21
-18.102503
31
0
39
0
210
0
220
0
230
1
0
LINE
5
16C
100
AcDbEntity
8
SK2
62
256
6
ByLayer
370
13
48
1
60
0
100
AcDbLine
10
54.0284
20
-4.8875
30
0
11
54.0284
21
-18.102503
31
0
39
0
210
0
220
0
230
1
0
LINE
5
16D
100
AcDbEntity
8
SK2
62
256
6
ByLayer
370
13
48
1
60
0
100
AcDbLine
10
45.2784
20
-16.102503
30
0
11
68.996491
21
-16.102503
31
0
39
0
210
0
220
0
230
1
0
SOLID
5
16E
100
AcDbEntity
8
SK2
62
256
6
ByLayer
370
18
48
1
60
0
100
AcDbTrace
10
55
20
-16.102503
30
0
11
58.499998
21
-15.641719
31
0
12
58.500002
22
-16.563287
32
0
13
58.500002
23
-16.563287
33
0
39
0
210
0
220
0
230
1
0
SOLID
5
16F
100
AcDbEntity
8
SK2
62
256
6
ByLayer
370
18
48
1
60
0
100
AcDbTrace
10
54.0284
20
-16.102503
30
0
11
50.528402
21
-16.563287
31
0
12
50.528398
22
-15.641719
32
0
13
50.528398
23
-15.641719
33
0
39
0
210
0
220
0
230
1
0
ENDBLK
5
171
100
AcDbEntity
8
0
100
AcDbBlockEnd
0
BLOCK
5
176
100
AcDbEntity
8
0
100
AcDbBlockBegin
2
*D9
70
1
10
0
20
0
30
0
3
*D9
0
LINE
5
178
100
AcDbEntity
8
0
62
256
6
ByLayer
370
-2
48
1
60
0
100
AcDbLine
10
-36
20
-5.5875
30
0
11
-36
21
-24.343428
31
0
39
0
210
0
220
0
230
1
0
LINE
5
179
100
AcDbEntity
8
0
62
256
6
ByLayer
370
-2
48
1
60
0
100
AcDbLine
10
54.0284
20
-4.8875
30
0
11
54.0284
21
-24.343428
31
0
39
0
210
0
220
0
230
1
0
LINE
5
17A
100
AcDbEntity
8
0
62
256
6
ByLayer
370
-2
48
1
60
0
100
AcDbLine
10
-32.5
20
-22.343428
30
0
11
50.5284
21
-22.343428
31
0
39
0
210
0
220
0
230
1
0
SOLID
5
17B
100
AcDbEntity
8
0
62
256
6
ByLayer
370
-1
48
1
60
0
100
AcDbTrace
10
-32.5
20
-21.760095
30
0
11
-32.5
21
-22.926762
31
0
12
-36
22
-22.343428
32
0
13
-36
23
-22.343428
33
0
39
0
210
0
220
0
230
1
0
SOLID
5
17C
100
AcDbEntity
8
0
62
256
6
ByLayer
370
-1
48
1
60
0
100
AcDbTrace
10
50.5284
20
-22.926762
30
0
11
50.5284
21
-21.760095
31
0
12
54.0284
22
-22.343428
32
0
13
54.0284
23
-22.343428
33
0
39
0
210
0
220
0
230
1
0
MTEXT
5
17D
100
AcDbEntity
8
0
62
256
6
ByLayer
370
18
48
1
60
0
100
AcDbMText
10
9.0142
20
-15.343428
30
0
210
0
220
0
230
1
1
\A1;90.03
40
3.5
41
0
44
1
50
0
71
5
72
5
7
iso_b_vert
0
POINT
5
17E
100
AcDbEntity
8
Defpoints
62
0
6
ByLayer
370
-1
48
1
60
0
100
AcDbPoint
10
-36
20
-4
30
0
39
0
210
0
220
0
230
1
50
360
0
POINT
5
17F
100
AcDbEntity
8
Defpoints
62
0
6
ByLayer
370
-1
48
1
60
0
100
AcDbPoint
10
54.0284
20
-3.3
30
0
39
0
210
0
220
0
230
1
50
360
0
POINT
5
180
100
AcDbEntity
8
Defpoints
62
0
6
ByLayer
370
-1
48
1
60
0
100
AcDbPoint
10
54.0284
20
-22.343428
30
0
39
0
210
0
220
0
230
1
50
360
0
ENDBLK
5
177
100
AcDbEntity
8
0
100
AcDbBlockEnd
0
BLOCK
5
188
100
AcDbEntity
8
0
100
AcDbBlockBegin
2
_U4
70
0
10
0
20
0
30
0
3
_U4
0
MTEXT
5
182
100
AcDbEntity
8
SK2
62
256
6
ByLayer
370
13
48
1
60
0
100
AcDbMText
10
3.876901
20
-21.310795
30
0
210
0
220
0
230
1
1
\W0.7317;90,03
40
3.5
41
0
44
1.084337
50
0
71
7
72
5
7
iso_b_vert
0
LINE
5
183
100
AcDbEntity
8
SK2
62
256
6
ByLayer
370
13
48
1
60
0
100
AcDbLine
10
-36
20
-5.5875
30
0
11
-36
21
-24.343428
31
0
39
0
210
0
220
0
230
1
0
LINE
5
184
100
AcDbEntity
8
SK2
62
256
6
ByLayer
370
13
48
1
60
0
100
AcDbLine
10
54.0284
20
-4.8875
30
0
11
54.0284
21
-24.343428
31
0
39
0
210
0
220
0
230
1
0
LINE
5
185
100
AcDbEntity
8
SK2
62
256
6
ByLayer
370
13
48
1
60
0
100
AcDbLine
10
-36
20
-22.343428
30
0
11
54.0284
21
-22.343428
31
0
39
0
210
0
220
0
230
1
0
SOLID
5
186
100
AcDbEntity
8
SK2
62
256
6
ByLayer
370
18
48
1
60
0
100
AcDbTrace
10
-36
20
-22.343428
30
0
11
-32.500002
21
-21.882645
31
0
12
-32.499998
22
-22.804212
32
0
13
-32.499998
23
-22.804212
33
0
39
0
210
0
220
0
230
1
0
SOLID
5
187
100
AcDbEntity
8
SK2
62
256
6
ByLayer
370
18
48
1
60
0
100
AcDbTrace
10
54.0284
20
-22.343428
30
0
11
50.528402
21
-22.804212
31
0
12
50.528398
22
-21.882645
32
0
13
50.528398
23
-21.882645
33
0
39
0
210
0
220
0
230
1
0
ENDBLK
5
189
100
AcDbEntity
8
0
100
AcDbBlockEnd
0
ENDSEC
0
SECTION
2
ENTITIES
0
ARC
5
AE
100
AcDbEntity
8
1
62
256
6
ByLayer
370
18
48
1
60
0
100
AcDbCircle
39
0
10
1.344678
20
-4.067088
30
0
40
0.800000000000003
210
0
220
0
230
1
100
AcDbArc
50
89.96419
51
147.184894
0
ARC
5
AF
100
AcDbEntity
8
1
62
256
6
ByLayer
370
18
48
1
60
0
100
AcDbCircle
39
0
10
1.344678
20
4.067088
30
0
40
0.800000000000003
210
0
220
0
230
1
100
AcDbArc
50
212.815106
51
270.03581
0
ARC
5
B0
100
AcDbEntity
8
1
62
256
6
ByLayer
370
18
48
1
60
0
100
AcDbCircle
39
0
10
0
20
-3.2
30
0
40
0.799999999999997
210
0
220
0
230
1
100
AcDbArc
50
270
51
327.184894
0
ARC
5
B1
100
AcDbEntity
8
1
62
256
6
ByLayer
370
18
48
1
60
0
100
AcDbCircle
39
0
10
0
20
3.2
30
0
40
0.799999999999997
210
0
220
0
230
1
100
AcDbArc
50
32.815106
51
90
0
ELLIPSE
5
B2
100
AcDbEntity
8
1
62
256
6
ByLayer
370
13
48
1
60
0
100
AcDbEllipse
10
4.186765
20
-2.075783
30
0
11
0.00451726403113586
21
0.0998979195262494
31
0
210
0
220
0
230
1
40
0.542733
41
0.969611391714923
42
2.3382310941062
0
ELLIPSE
5
B3
100
AcDbEntity
8
1
62
256
6
ByLayer
370
13
48
1
60
0
100
AcDbEllipse
10
4.250224
20
-2.088817
30
0
11
0.0331944760304239
21
0.0943298826516052
31
0
210
0
220
0
230
1
40
0.273031
41
0.907383810402599
42
2.45305363488655
0
POINT
5
70
100
AcDbEntity
8
80
62
256
6
ByLayer
370
18
48
1
60
0
100
AcDbPoint
10
0
20
0
30
0
39
0
210
0
220
0
230
1
50
360
0
POINT
5
72
100
AcDbEntity
8
81
62
256
6
ByLayer
370
18
48
1
60
0
100
AcDbPoint
10
55
20
0
30
0
39
0
210
0
220
0
230
1
50
360
0
POINT
5
74
100
AcDbEntity
8
1
62
256
6
ByLayer
370
18
48
1
60
1
100
AcDbPoint
10
54.0284
20
-3.3
30
0
39
0
210
0
220
0
230
1
50
360
0
POINT
5
76
100
AcDbEntity
8
1
62
256
6
ByLayer
370
18
48
1
60
1
100
AcDbPoint
10
-36
20
-4
30
0
39
0
210
0
220
0
230
1
50
360
0
POINT
5
77
100
AcDbEntity
8
1
62
256
6
ByLayer
370
18
48
1
60
1
100
AcDbPoint
10
21.03
20
3.3
30
0
39
0
210
0
220
0
230
1
50
360
0
POINT
5
78
100
AcDbEntity
8
1
62
256
6
ByLayer
370
18
48
1
60
1
100
AcDbPoint
10
54.0284
20
-3.3
30
0
39
0
210
0
220
0
230
1
50
360
0
POINT
5
79
100
AcDbEntity
8
1
62
256
6
ByLayer
370
18
48
1
60
1
100
AcDbPoint
10
-36
20
-4
30
0
39
0
210
0
220
0
230
1
50
360
0
POINT
5
7A
100
AcDbEntity
8
1
62
256
6
ByLayer
370
18
48
1
60
1
100
AcDbPoint
10
54.0284
20
-3.3
30
0
39
0
210
0
220
0
230
1
50
360
0
SPLINE
5
B4
100
AcDbEntity
8
SK1
62
256
6
ByLayer
370
18
48
1
60
0
100
AcDbSpline
70
4
71
3
72
8
73
4
40
0
40
0
40
0
40
0
40
1
40
1
40
1
40
1
41
1
10
-35.5
20
-0.583418015679001
30
0
41
1
10
-35.6671095299435
20
-0.514644313819446
30
0
41
1
10
-35.8338592320671
20
-0.44573355447514
30
0
41
1
10
-36
20
-0.376590853674543
30
0
0
SPLINE
5
B5
100
AcDbEntity
8
SK1
62
256
6
ByLayer
370
18
48
1
60
0
100
AcDbSpline
70
4
71
3
72
12
73
8
40
0
40
0
40
0
40
0
40
0.499999999999997
40
0.499999999999997
40
0.749999999999998
40
0.749999999999998
40
1
40
1
40
1
40
1
41
1
10
-35.5
20
-1.95785704061674
30
0
41
1
10
-35.4764535706458
20
-1.96754754188746
30
0
41
1
10
-35.4537583253671
20
-1.97034090533236
30
0
41
1
10
-35.4256589034923
20
-1.96201790492071
30
0
41
1
10
-35.4170915256394
20
-1.9569916637372
30
0
41
1
10
-35.4042768359918
20
-1.94108142491322
30
0
41
1
10
-35.4
20
-1.92982137995395
30
0
41
1
10
-35.4
20
-1.91588063576245
30
0
0
SPLINE
5
B6
100
AcDbEntity
8
SK1
62
256
6
ByLayer
370
18
48
1
60
0
100
AcDbSpline
70
4
71
3
72
12
73
8
40
0
40
0
40
0
40
0
40
0.25
40
0.25
40
0.5
40
0.5
40
1
40
1
40
1
40
1
41
1
10
-35.4
20
-0.72470014748319
30
0
41
1
10
-35.4
20
-0.708107759028678
30
0
41
1
10
-35.4042405317344
20
-0.69091050467074
30
0
41
1
10
-35.4170629445097
20
-0.66011894969148
30
0
41
1
10
-35.4255309618332
20
-0.64638214759151
30
0
41
1
10
-35.4538111153163
20
-0.610416497010107
30
0
41
1
10
-35.4764597265186
20
-0.59310598350848
30
0
41
1
10
-35.5
20
-0.583418015678916
30
0
0
SPLINE
5
B7
100
AcDbEntity
8
SK1
62
256
6
ByLayer
370
18
48
1
60
0
100
AcDbSpline
70
4
71
3
72
8
73
4
40
0
40
0
40
0
40
0
40
1
40
1
40
1
40
1
41
1
10
-36
20
-1.75102987861214
30
0
41
1
10
-35.8338648680972
20
-1.82017023386959
30
0
41
1
10
-35.6671143040597
20
-1.88908137397593
30
0
41
1
10
-35.5
20
-1.95785704061663
30
0
0
SPLINE
5
B8
100
AcDbEntity
8
1
62
256
6
ByLayer
370
18
48
1
60
0
100
AcDbSpline
70
4
71
3
72
52
73
48
40
0
40
0
40
0
40
0
40
0.0836609964745692
40
0.0836609964745692
40
0.125491494711854
40
0.125491494711854
40
0.167321992949138
40
0.167321992949138
40
0.209152491186423
40
0.209152491186423
40
0.250982989423708
40
0.250982989423708
40
0.292813487660992
40
0.292813487660992
40
0.334643985898277
40
0.334643985898277
40
0.376474484135562
40
0.376474484135562
40
0.418304982372846
40
0.418304982372846
40
0.460135480610131
40
0.460135480610131
40
0.501965978847415
40
0.501965978847415
40
0.5437964770847
40
0.5437964770847
40
0.585626975321985
40
0.585626975321985
40
0.627457473559269
40
0.627457473559269
40
0.669287971796554
40
0.669287971796554
40
0.711118470033838
40
0.711118470033838
40
0.752948968271123
40
0.752948968271123
40
0.794779466508408
40
0.794779466508408
40
0.836609964745692
40
0.836609964745692
40
0.878440462982977
40
0.878440462982977
40
0.920270961220262
40
0.920270961220262
40
0.962101459457546
40
0.962101459457546
40
1
40
1
40
1
40
1
41
1
10
10.0610158902998
20
-0.306072811215728
30
0
41
1
10
10.4860227423796
20
-0.496225653714532
30
0
41
1
10
10.9100175416757
20
-0.683118712414313
30
0
41
1
10
11.5452450573063
20
-0.957684671498868
30
0
41
1
10
11.7568398181224
20
-1.04827723429469
30
0
41
1
10
12.1806065519986
20
-1.22550740961367
30
0
41
1
10
12.3927253564556
20
-1.31225851047219
30
0
41
1
10
12.8173230351155
20
-1.4824910581614
30
0
41
1
10
13.0298835675074
20
-1.56610268466537
30
0
41
1
10
13.4540198552727
20
-1.72851538166032
30
0
41
1
10
13.665956804913
20
-1.80697397894957
30
0
41
1
10
14.0897354592296
20
-1.95822226920183
30
0
41
1
10
14.3015275263772
20
-2.03120390084345
30
0
41
1
10
14.7250076347598
20
-2.17198559610318
30
0
41
1
10
14.9366522408648
20
-2.23975744993467
30
0
41
1
10
15.3607181964155
20
-2.36799459367648
30
0
41
1
10
15.5732243264503
20
-2.42865524523589
30
0
41
1
10
15.9981116321991
20
-2.5438953058476
30
0
41
1
10
16.2101719295844
20
-2.59842146197659
30
0
41
1
10
16.6337020014851
20
-2.69875767790052
30
0
41
1
10
16.8454298578032
20
-2.74474394747182
30
0
41
1
10
17.2690509264007
20
-2.8293719125065
30
0
41
1
10
17.4808804497442
20
-2.86841002966111
30
0
41
1
10
17.9045365440155
20
-2.93827163842525
30
0
41
1
10
18.1163337059708
20
-2.96844718336223
30
0
41
1
10
18.5409289217676
20
-3.020509417825
30
0
41
1
10
18.7535404795601
20
-3.04236484325497
30
0
41
1
10
19.1778767473004
20
-3.07875717261129
30
0
41
1
10
19.3897008940295
20
-3.09268471117309
30
0
41
1
10
19.8129746547622
20
-3.11018090184552
30
0
41
1
10
20.0246863655443
20
-3.11443843948871
30
0
41
1
10
20.4484520972034
20
-3.11523105532626
30
0
41
1
10
20.6604270591436
20
-3.11230405247667
30
0
41
1
10
21.0845534181402
20
-3.09585280164208
30
0
41
1
10
21.2969105033295
20
-3.08210902859295
30
0
41
1
10
21.7214938574289
20
-3.04723858569466
30
0
41
1
10
21.9337031267887
20
-3.0259633494891
30
0
41
1
10
22.357764729538
20
-2.97616800207703
30
0
41
1
10
22.569501025649
20
-2.94642540261202
30
0
41
1
10
22.9928491914548
20
-2.87757439102438
30
0
41
1
10
23.2046949696153
20
-2.83931581487045
30
0
41
1
10
23.62888536169
20
-2.75569456447522
30
0
41
1
10
23.8411421336851
20
-2.71071008733651
30
0
41
1
10
24.2660751912756
20
-2.61093918313506
30
0
41
1
10
24.4781119466857
20
-2.55659769700213
30
0
41
1
10
24.8822490194918
20
-2.44770033973702
30
0
41
1
10
25.0743518486479
20
-2.39356842365643
30
0
41
1
10
25.2663648362582
20
-2.33687031345781
30
0
0
SPLINE
5
B9
100
AcDbEntity
8
1
62
256
6
ByLayer
370
18
48
1
60
0
100
AcDbSpline
70
4
71
3
72
30
73
26
40
0
40
0
40
0
40
0
40
0.0575619485546306
40
0.0575619485546306
40
0.130057183281199
40
0.130057183281199
40
0.202552418007767
40
0.202552418007767
40
0.275047652734335
40
0.275047652734335
40
0.420038122187471
40
0.420038122187471
40
0.492533356914037
40
0.492533356914037
40
0.565028591640603
40
0.565028591640603
40
0.710019061093736
40
0.710019061093736
40
0.782514295820302
40
0.782514295820302
40
0.855009530546868
40
0.855009530546868
40
0.927504765273435
40
0.927504765273435
40
1
40
1
40
1
40
1
41
1
10
41.9892961635888
20
3.12642250609292
30
0
41
1
10
42.1573507734233
20
3.12678587922775
30
0
41
1
10
42.3254208410381
20
3.12435798265048
30
0
41
1
10
42.7054178981428
20
3.11220001829295
30
0
41
1
10
42.9173414183213
20
3.10098721932215
30
0
41
1
10
43.3414044358615
20
3.07098338978028
30
0
41
1
10
43.5537011200175
20
3.05246361026582
30
0
41
1
10
43.9779828640737
20
3.00525485541678
30
0
41
1
10
44.1899026285138
20
2.97685998365918
30
0
41
1
10
44.8250869783889
20
2.87877505565794
30
0
41
1
10
45.2474747695263
20
2.79582282518857
30
0
41
1
10
45.8829967389543
20
2.65111973036269
30
0
41
1
10
46.0950450233594
20
2.59955040578626
30
0
41
1
10
46.5194821036195
20
2.48940777497276
30
0
41
1
10
46.7314029398203
20
2.43063915790674
30
0
41
1
10
47.3664697808342
20
2.24361443331173
30
0
41
1
10
47.7894882000597
20
2.10588020176121
30
0
41
1
10
48.4237683057304
20
1.88130077582173
30
0
41
1
10
48.6353436570797
20
1.80354656161504
30
0
41
1
10
49.059314738373
20
1.64368374939852
30
0
41
1
10
49.271721028014
20
1.56145009262093
30
0
41
1
10
49.6955099254122
20
1.39293079725186
30
0
41
1
10
49.9069919499657
20
1.30633941658436
30
0
41
1
10
50.3300048481958
20
1.13005371779482
30
0
41
1
10
50.541589489644
20
1.04053120562281
30
0
41
1
10
50.7532078851783
20
0.94972990197499
30
0
0
SPLINE
5
BA
100
AcDbEntity
8
1
62
256
6
ByLayer
370
18
48
1
60
0
100
AcDbSpline
70
4
71
3
72
16
73
12
40
0
40
0
40
0
40
0
40
0.0739013462369188
40
0.0739013462369188
40
0.331326326152912
40
0.331326326152912
40
0.846176285984896
40
0.846176285984896
40
0.974888775942891
40
0.974888775942891
40
1
40
1
40
1
40
1
41
1
10
20.8576773558064
20
-0.0054107243453245
30
0
41
1
10
21.0071886622183
20
-0.0747989047796409
30
0
41
1
10
21.1569610958624
20
-0.144300428731299
30
0
41
1
10
21.8297839912939
20
-0.45578698527072
30
0
41
1
10
22.3484036267985
20
-0.694279984731452
30
0
41
1
10
23.8990866547947
20
-1.38418931815886
30
0
41
1
10
24.9258441319017
20
-1.81002867741776
30
0
41
1
10
26.2229361418717
20
-2.25581230771516
30
0
41
1
10
26.4830190426616
20
-2.34067649783026
30
0
41
1
10
26.7950051627373
20
-2.43630255961534
30
0
41
1
10
26.8459498167635
20
-2.45172046013727
30
0
41
1
10
26.8969019077385
20
-2.46694019204557
30
0
0
SPLINE
5
BB
100
AcDbEntity
8
1
62
256
6
ByLayer
370
13
48
1
60
0
100
AcDbSpline
70
4
71
3
72
14
73
10
40
0
40
0
40
0
40
0
40
0.0965935411834915
40
0.0965935411834915
40
0.336605595142659
40
0.336605595142659
40
0.816629703060998
40
0.816629703060998
40
1
40
1
40
1
40
1
41
1
10
26.8969009496272
20
-2.46693990585129
30
0
41
1
10
27.1071140847344
20
-2.52973199204038
30
0
41
1
10
27.3174538079308
20
-2.58915096846187
30
0
41
1
10
28.0492904222907
20
-2.78313025595557
30
0
41
1
10
28.5708593391977
20
-2.89886777955263
30
0
41
1
10
30.1380689344074
20
-3.16972747800503
30
0
41
1
10
31.1676685622284
20
-3.24508416804758
30
0
41
1
10
32.5947931030738
20
-3.20007210159383
30
0
41
1
10
32.9896990869526
20
-3.17195537157085
30
0
41
1
10
33.3860608722597
20
-3.12829026223326
30
0
0
SPLINE
5
BC
100
AcDbEntity
8
1
62
256
6
ByLayer
370
18
48
1
60
0
100
AcDbSpline
70
4
71
3
72
8
73
4
40
0
40
0
40
0
40
0
40
1
40
1
40
1
40
1
41
1
10
54.0049702909506
20
3.21109825562388
30
0
41
1
10
53.9440376163334
20
3.25634530148034
30
0
41
1
10
53.8893352028322
20
3.28462765185921
30
0
41
1
10
53.8404403324197
20
3.29520832353333
30
0
0
SPLINE
5
BD
100
AcDbEntity
8
1
62
256
6
ByLayer
370
13
48
1
60
0
100
AcDbSpline
70
4
71
3
72
8
73
4
40
0
40
0
40
0
40
0
40
1
40
1
40
1
40
1
41
1
10
4.14460885525131
20
-2.01725700949541
30
0
41
1
10
4.17805480518021
20
-2.0139549649181
30
0
41
1
10
4.21376050987246
20
-2.01608268770036
30
0
41
1
10
4.25037343817206
20
-2.02358668544929
30
0
0
SPLINE
5
BE
100
AcDbEntity
8
1
62
256
6
ByLayer
370
18
48
1
60
0
100
AcDbSpline
70
4
71
3
72
14
73
10
40
0
40
0
40
0
40
0
40
0.25
40
0.25
40
0.5
40
0.5
40
0.75
40
0.75
40
1
40
1
40
1
40
1
41
1
10
4.01554845495085
20
2.42309554243684
30
0
41
1
10
4.02422493447369
20
2.41212274093704
30
0
41
1
10
4.03678087832003
20
2.39994092463482
30
0
41
1
10
4.06920772682611
20
2.37420991257366
30
0
41
1
10
4.08918206849862
20
2.36061841486858
30
0
41
1
10
4.13311565455015
20
2.33415265633411
30
0
41
1
10
4.15714413203489
20
2.32121679342606
30
0
41
1
10
4.20474997254379
20
2.2977574736465
30
0
41
1
10
4.22864054668295
20
2.28704715147717
30
0
41
1
10
4.25158129492112
20
2.27759013672426
30
0
0
SPLINE
5
BF
100
AcDbEntity
8
1
62
256
6
ByLayer
370
18
48
1
60
0
100
AcDbSpline
70
4
71
3
72
80
73
76
40
0
40
0
40
0
40
0
40
0.0218887821335144
40
0.0218887821335144
40
0.0471937031013415
40
0.0471937031013415
40
0.0724986240691685
40
0.0724986240691685
40
0.0978035450369956
40
0.0978035450369956
40
0.123108466004823
40
0.123108466004823
40
0.14841338697265
40
0.14841338697265
40
0.199023228908305
40
0.199023228908305
40
0.224328149876133
40
0.224328149876133
40
0.249633070843962
40
0.249633070843962
40
0.27493799181179
40
0.27493799181179
40
0.300242912779618
40
0.300242912779618
40
0.325547833747447
40
0.325547833747447
40
0.350852754715275
40
0.350852754715275
40
0.376157675683103
40
0.376157675683103
40
0.401462596650931
40
0.401462596650931
40
0.42676751761876
40
0.42676751761876
40
0.452072438586588
40
0.452072438586588
40
0.477377359554416
40
0.477377359554416
40
0.502682280522245
40
0.502682280522245
40
0.553292122457901
40
0.553292122457901
40
0.57859704342573
40
0.57859704342573
40
0.603901964393558
40
0.603901964393558
40
0.629206885361386
40
0.629206885361386
40
0.654511806329214
40
0.654511806329214
40
0.679816727297043
40
0.679816727297043
40
0.705121648264871
40
0.705121648264871
40
0.730426569232699
40
0.730426569232699
40
0.755731490200528
40
0.755731490200528
40
0.781036411168356
40
0.781036411168356
40
0.806341332136184
40
0.806341332136184
40
0.831646253104013
40
0.831646253104013
40
0.856951174071841
40
0.856951174071841
40
0.907561016007496
40
0.907561016007496
40
0.932865936975324
40
0.932865936975324
40
0.958170857943151
40
0.958170857943151
40
0.983475778910979
40
0.983475778910979
40
1
40
1
40
1
40
1
41
1
10
25.2660741503601
20
2.3403455668772
30
0
41
1
10
25.4640932756172
20
2.40594555817447
30
0
41
1
10
25.6622061550526
20
2.46873312542488
30
0
41
1
10
26.0891279459763
20
2.59852148212008
30
0
41
1
10
26.3183736826211
20
2.66427331176547
30
0
41
1
10
26.7767519767449
20
2.78543542718526
30
0
41
1
10
27.0058243856969
20
2.84129130718426
30
0
41
1
10
27.4633295454297
20
2.94402439862125
30
0
41
1
10
27.6914495896103
20
2.99113082786468
30
0
41
1
10
28.1487070687514
20
3.07466486010654
30
0
41
1
10
28.3777810424468
20
3.11123153455571
30
0
41
1
10
28.8363415806327
20
3.17438386466694
30
0
41
1
10
29.0658000174236
20
3.20102932320813
30
0
41
1
10
29.7520531739195
20
3.2649256867916
30
0
41
1
10
30.210115404896
20
3.28578616961693
30
0
41
1
10
30.8955986046388
20
3.28520443749463
30
0
41
1
10
31.1241139132501
20
3.27955203143839
30
0
41
1
10
31.5826423958853
20
3.25762550795133
30
0
41
1
10
31.8124127976299
20
3.24134562710123
30
0
41
1
10
32.2704067458672
20
3.19815525446506
30
0
41
1
10
32.4985966742641
20
3.17101407121788
30
0
41
1
10
32.9557205912393
20
3.10686724086452
30
0
41
1
10
33.1845474607964
20
3.0698885491343
30
0
41
1
10
33.6422488411813
20
2.9858807099427
30
0
41
1
10
33.8709487155223
20
2.93866632435325
30
0
41
1
10
34.3288160265024
20
2.83421259826099
30
0
41
1
10
34.5583287613943
20
2.77753088377563
30
0
41
1
10
35.0164697534188
20
2.65574152660193
30
0
41
1
10
35.2453369836891
20
2.59056640635015
30
0
41
1
10
35.7020654358997
20
2.45071986676209
30
0
41
1
10
35.9303379846087
20
2.37655917288112
30
0
41
1
10
36.3879853155955
20
2.22176673614285
30
0
41
1
10
36.6171263236454
20
2.14082426409968
30
0
41
1
10
37.0756396363378
20
1.97109893568407
30
0
41
1
10
37.3044094779211
20
1.88190282439857
30
0
41
1
10
37.7619821358233
20
1.69952076596567
30
0
41
1
10
37.9908485495075
20
1.60605037918827
30
0
41
1
10
38.448262160013
20
1.41373848150363
30
0
41
1
10
38.6766108588923
20
1.31450144761152
30
0
41
1
10
39.3619945774384
20
1.01008557211159
30
0
41
1
10
39.822250885774
20
0.801801888902077
30
0
41
1
10
40.507825919577
20
0.479343958176173
30
0
41
1
10
40.7361411748872
20
0.370998456932426
30
0
41
1
10
41.1934718551359
20
0.154960415351354
30
0
41
1
10
41.4222723771757
20
0.0468188363570903
30
0
41
1
10
41.8797271472572
20
-0.170599155059534
30
0
41
1
10
42.1081294860444
20
-0.280418420220315
30
0
41
1
10
42.5667027789534
20
-0.49712780584872
30
0
41
1
10
42.7959043463111
20
-0.604031178435292
30
0
41
1
10
43.2536097175352
20
-0.815955038971964
30
0
41
1
10
43.4819027459873
20
-0.921420656900949
30
0
41
1
10
43.938475334083
20
-1.12903458118507
30
0
41
1
10
44.1671582271639
20
-1.23038690647252
30
0
41
1
10
44.624984668368
20
-1.42890958844214
30
0
41
1
10
44.8542267430704
20
-1.52615970372466
30
0
41
1
10
45.3121765775482
20
-1.71713732877029
30
0
41
1
10
45.5408164203224
20
-1.80965657996398
30
0
41
1
10
45.9984030541658
20
-1.98720841000306
30
0
41
1
10
46.2271536485778
20
-2.07261232870255
30
0
41
1
10
46.684138828449
20
-2.23734859945188
30
0
41
1
10
46.9121510535832
20
-2.31697249522134
30
0
41
1
10
47.369631481295
20
-2.46700378366529
30
0
41
1
10
47.5990909769256
20
-2.53784050098503
30
0
41
1
10
48.0576413961457
20
-2.67142351116266
30
0
41
1
10
48.286153460937
20
-2.73434355724731
30
0
41
1
10
48.971313940366
20
-2.90895833867245
30
0
41
1
10
49.4290480318347
20
-3.00537522567046
30
0
41
1
10
50.1145446411952
20
-3.12223742833638
30
0
41
1
10
50.3436336598414
20
-3.15607298044003
30
0
41
1
10
50.8020901516757
20
-3.21291337820489
30
0
41
1
10
51.0311420990581
20
-3.23605654830269
30
0
41
1
10
51.4884469892764
20
-3.27193669681202
30
0
41
1
10
51.7165136470846
20
-3.28463880172859
30
0
41
1
10
52.094533834898
20
-3.29650926062303
30
0
41
1
10
52.2440315782032
20
-3.29890057291985
30
0
41
1
10
52.3936284485169
20
-3.29899765208617
30
0
0
SPLINE
5
C0
100
AcDbEntity
8
1
62
256
6
ByLayer
370
18
48
1
60
0
100
AcDbSpline
70
4
71
3
72
37
73
33
40
0
40
0
40
0
40
0
40
0.0041310720984015
40
0.0041310720984015
40
0.0311318191519534
40
0.0311318191519534
40
0.0581325662055054
40
0.0581325662055054
40
0.0851333132590574
40
0.0851333132590574
40
0.112134060312609
40
0.112134060312609
40
0.166135554419711
40
0.166135554419711
40
0.220137048526812
40
0.220137048526812
40
0.2268872352902
40
0.2268872352902
40
0.233637422053589
40
0.233637422053589
40
0.247137795580368
40
0.247137795580368
40
0.260638169107148
40
0.260638169107148
40
0.274138542633928
40
0.382141530848161
40
0.382141530848161
40
0.598147507276628
40
0.598147507276628
40
0.814153483705095
40
0.814153483705095
40
1
40
1
40
1
40
1
41
1
10
2.05066765210782
20
-3.26746238180283
30
0
41
1
10
2.05390068256841
20
-3.26752175097087
30
0
41
1
10
2.05727316676652
20
-3.26754375568544
30
0
41
1
10
2.08369837092243
20
-3.26743358367079
30
0
41
1
10
2.11241096007569
20
-3.26582869468135
30
0
41
1
10
2.17913681244468
20
-3.26032422317422
30
0
41
1
10
2.21637244705039
20
-3.25649764253959
30
0
41
1
10
2.29665981126402
20
-3.24738669884658
30
0
41
1
10
2.33972171350018
20
-3.24209593276694
30
0
41
1
10
2.4304960962661
20
-3.23047721214024
30
0
41
1
10
2.47825838737012
20
-3.22414315181052
30
0
41
1
10
2.62464356017907
20
-3.20438969487049
30
0
41
1
10
2.72720602746907
20
-3.19012900546505
30
0
41
1
10
2.93890588584088
20
-3.16076447032131
30
0
41
1
10
3.04809613534809
20
-3.14564037236855
30
0
41
1
10
3.17374830345008
20
-3.12853580571485
30
0
41
1
10
3.187745002676
20
-3.12663442700463
30
0
41
1
10
3.21577956714304
20
-3.122834665651
30
0
41
1
10
3.22961245566407
20
-3.12076630647329
30
0
41
1
10
3.27261532600318
20
-3.11572670568734
30
0
41
1
10
3.30492998057073
20
-3.11482552282865
30
0
41
1
10
3.36751711352386
20
-3.11553545011679
30
0
41
1
10
3.39873611590687
20
-3.11626958120021
30
0
41
1
10
3.46123357632746
20
-3.1174311972928
30
0
41
1
10
3.74242539143796
20
-3.12286576621557
30
0
41
1
10
4.02325241712555
20
-3.13015815790558
30
0
41
1
10
4.76967471109654
20
-3.15296727723461
30
0
41
1
10
5.26453272162331
20
-3.17278976164943
30
0
41
1
10
6.24915271936013
20
-3.21325822319975
30
0
41
1
10
6.73608287282897
20
-3.23370731384199
30
0
41
1
10
7.63276590716387
20
-3.26163522724704
30
0
41
1
10
8.04384525989414
20
-3.27046893540307
30
0
41
1
10
8.4520436968061
20
-3.27147497989571
30
0
0
SPLINE
5
C1
100
AcDbEntity
8
1
62
256
6
ByLayer
370
18
48
1
60
0
100
AcDbSpline
70
4
71
3
72
28
73
24
40
0
40
0
40
0
40
0
40
0.125
40
0.125
40
0.25
40
0.25
40
0.3125
40
0.3125
40
0.375
40
0.375
40
0.5
40
0.5
40
0.625
40
0.625
40
0.6875
40
0.6875
40
0.75
40
0.75
40
0.875
40
0.875
40
0.9375
40
0.9375
40
1
40
1
40
1
40
1
41
1
10
4.0150418624805
20
-2.04544941537563
30
0
41
1
10
4.01507837221629
20
-1.88394336807247
30
0
41
1
10
4.01511302496525
20
-1.70938654721346
30
0
41
1
10
4.01517765674819
20
-1.34583396274886
30
0
41
1
10
4.0152078110176
20
-1.15630945621086
30
0
41
1
10
4.01525071941521
20
-0.860257139781055
30
0
41
1
10
4.01526465840996
20
-0.759353375421114
30
0
41
1
10
4.01529134686385
20
-0.55762826095966
30
0
41
1
10
4.015304168836
20
-0.456329166608498
30
0
41
1
10
4.01534130490427
20
-0.151146622965285
30
0
41
1
10
4.01536431261275
20
0.0540586271749248
30
0
41
1
10
4.01540756966023
20
0.467827580904412
30
0
41
1
10
4.01542714192266
20
0.669837199190482
30
0
41
1
10
4.0154539054094
20
0.965839416749589
30
0
41
1
10
4.01546238698569
20
1.06333004866173
30
0
41
1
10
4.01547847041209
20
1.25591224093091
30
0
41
1
10
4.01548610442069
20
1.35145314423647
30
0
41
1
10
4.01550721628209
20
1.6290788993154
30
0
41
1
10
4.0155190430296
20
1.80338101004253
30
0
41
1
10
4.01553311211848
20
2.04896676302926
30
0
41
1
10
4.01553718282671
20
2.12816672558665
30
0
41
1
10
4.01554394270843
20
2.28107691492519
30
0
41
1
10
4.01554659889482
20
2.35416021935637
30
0
41
1
10
4.01554845495019
20
2.42309554243821
30
0
0
SPLINE
5
C2
100
AcDbEntity
8
1
62
256
6
ByLayer
370
18
48
1
60
0
100
AcDbSpline
70
4
71
3
72
26
73
22
40
0
40
0
40
0
40
0
40
0.0625
40
0.0625
40
0.125
40
0.125
40
0.1875
40
0.1875
40
0.25
40
0.25
40
0.375
40
0.375
40
0.5
40
0.5
40
0.625
40
0.625
40
0.75
40
0.75
40
0.875
40
0.875
40
1
40
1
40
1
40
1
41
1
10
54.4435562478847
20
-0.933600937279692
30
0
41
1
10
54.4410492234232
20
-0.954387475166016
30
0
41
1
10
54.4374678744585
20
-0.976933117719142
30
0
41
1
10
54.428476370167
20
-1.023315849466
30
0
41
1
10
54.4230690716987
20
-1.04727529260356
30
0
41
1
10
54.4104580511179
20
-1.09672685559036
30
0
41
1
10
54.4032027404604
20
-1.12233887906365
30
0
41
1
10
54.3875149098753
20
-1.1730302729741
30
0
41
1
10
54.3790248693456
20
-1.1983604853886
30
0
41
1
10
54.3517056000236
20
-1.27431673318964
30
0
41
1
10
54.3316546234976
20
-1.32318383862204
30
0
41
1
10
54.2894752564322
20
-1.41517158825758
30
0
41
1
10
54.2679895715285
20
-1.45694687986546
30
0
41
1
10
54.2247979633633
20
-1.53213726994193
30
0
41
1
10
54.2032833827768
20
-1.5650641595609
30
0
41
1
10
54.1628662624547
20
-1.61864359103254
30
0
41
1
10
54.1436045842075
20
-1.63988673075431
30
0
41
1
10
54.1076817946519
20
-1.67023773748059
30
0
41
1
10
54.0915468157154
20
-1.67896377066646
30
0
41
1
10
54.0629104933622
20
-1.68313406180408
30
0
41
1
10
54.0506402626226
20
-1.67832824163651
30
0
41
1
10
54.0411178811361
20
-1.66643961160494
30
0
0
SPLINE
5
C3
100
AcDbEntity
8
1
62
256
6
ByLayer
370
18
48
1
60
0
100
AcDbSpline
70
4
71
3
72
8
73
4
40
0
40
0
40
0
40
0
40
1
40
1
40
1
40
1
41
1
10
54.9894411211399
20
-0.117809558959465
30
0
41
1
10
54.9901387732875
20
-0.0961135690277501
30
0
41
1
10
54.994123668792
20
-0.0696521126005791
30
0
41
1
10
54.9999501916006
20
-0.0417786417937975
30
0
0
SPLINE
5
C4
100
AcDbEntity
8
1
62
256
6
ByLayer
370
18
48
1
60
0
100
AcDbSpline
70
4
71
3
72
14
73
10
40
0
40
0
40
0
40
0
40
0.0217565655013452
40
0.0217565655013452
40
0.656982576628616
40
0.656982576628616
40
0.974595582192254
40
0.974595582192254
40
1
40
1
40
1
40
1
41
1
10
32.3219212518938
20
-3.11726945575575
30
0
41
1
10
32.2865607331875
20
-3.11808470899109
30
0
41
1
10
32.2512041417226
20
-3.11877782345999
30
0
41
1
10
31.1836398564194
20
-3.13601810942566
30
0
41
1
10
30.1541197399456
20
-3.0479800698788
30
0
41
1
10
28.5880741547363
20
-2.7648122816714
30
0
41
1
10
28.0671018226779
20
-2.64623392387841
30
0
41
1
10
27.5040303250818
20
-2.49500719591205
30
0
41
1
10
27.4623147117058
20
-2.48366661300076
30
0
41
1
10
27.4205894865696
20
-2.47218871897675
30
0
0
SPLINE
5
C5
100
AcDbEntity
8
1
62
256
6
ByLayer
370
13
48
1
60
0
100
AcDbSpline
70
4
71
3
72
18
73
14
40
0
40
0
40
0
40
0
40
0.0639972538991068
40
0.0639972538991068
40
0.140181709680686
40
0.140181709680686
40
0.444919532806999
40
0.444919532806999
40
0.597288444370155
40
0.597288444370155
40
0.74965735593331
40
0.74965735593331
40
1
40
1
40
1
40
1
41
1
10
27.4205904460717
20
-2.47218898291933
30
0
41
1
10
27.2014852425264
20
-2.41191690899166
30
0
41
1
10
26.9821149984282
20
-2.34785854594998
30
0
41
1
10
26.5022961012339
20
-2.20025764356404
30
0
41
1
10
26.2424450042173
20
-2.11548072915116
30
0
41
1
10
24.9463411917927
20
-1.67147234525186
30
0
41
1
10
23.9196280651186
20
-1.25172298388767
30
0
41
1
10
22.3694567724722
20
-0.577195099022163
30
0
41
1
10
21.8510366746294
20
-0.344969209552346
30
0
41
1
10
20.8063686431918
20
0.124628542503501
30
0
41
1
10
20.2878017519397
20
0.358736260364992
30
0
41
1
10
18.9218363975689
20
0.961730929741947
30
0
41
1
10
18.0774075019467
20
1.32114614322441
30
0
41
1
10
17.2281625149743
20
1.64494108310151
30
0
0
SPLINE
5
C6
100
AcDbEntity
8
1
62
256
6
ByLayer
370
18
48
1
60
0
100
AcDbSpline
70
4
71
3
72
14
73
10
40
0
40
0
40
0
40
0
40
0.25
40
0.25
40
0.5
40
0.5
40
0.75
40
0.75
40
1
40
1
40
1
40
1
41
1
10
53.7610290213034
20
0.713611064213779
30
0
41
1
10
53.7598932165571
20
0.728981866123945
30
0
41
1
10
53.7628360475376
20
0.74461768858788
30
0
41
1
10
53.7778189690437
20
0.7718399586808
30
0
41
1
10
53.7898421936985
20
0.783225480350012
30
0
41
1
10
53.8170236202502
20
0.799274248049159
30
0
41
1
10
53.8323981892651
20
0.804402679265962
30
0
41
1
10
53.863305806552
20
0.810317752936101
30
0
41
1
10
53.8792090476931
20
0.811214362883476
30
0
41
1
10
53.8950320376285
20
0.810596723119176
30
0
0
SPLINE
5
C7
100
AcDbEntity
8
1
62
256
6
ByLayer
370
13
48
1
60
0
100
AcDbSpline
70
4
71
3
72
8
73
4
40
0
40
0
40
0
40
0
40
1
40
1
40
1
40
1
41
1
10
4.04220682924523
20
-2.11184748395698
30
0
41
1
10
4.06645743492041
20
-2.12499341241747
30
0
41
1
10
4.10128210659491
20
-2.13619849493608
30
0
41
1
10
4.14460885525131
20
-2.1433768920881
30
0
0
SPLINE
5
C8
100
AcDbEntity
8
1
62
256
6
ByLayer
370
13
48
1
60
0
100
AcDbSpline
70
4
71
3
72
28
73
24
40
0
40
0
40
0
40
0
40
0.125
40
0.125
40
0.25
40
0.25
40
0.3125
40
0.3125
40
0.375
40
0.375
40
0.5
40
0.5
40
0.625
40
0.625
40
0.6875
40
0.6875
40
0.75
40
0.75
40
0.875
40
0.875
40
0.9375
40
0.9375
40
1
40
1
40
1
40
1
41
1
10
4.25037343817206
20
-2.02358668544929
30
0
41
1
10
4.25046268134781
20
-1.87204014187856
30
0
41
1
10
4.25054610060394
20
-1.70908317572429
30
0
41
1
10
4.25070372237647
20
-1.36200917471422
30
0
41
1
10
4.25077623272423
20
-1.18173427406452
30
0
41
1
10
4.25087836683736
20
-0.901597191345758
30
0
41
1
10
4.25091129426232
20
-0.806585968694321
30
0
41
1
10
4.25097526592197
20
-0.613226500478817
30
0
41
1
10
4.25100640105725
20
-0.514535613500783
30
0
41
1
10
4.25109556806117
20
-0.219561614932474
30
0
41
1
10
4.25115005929604
20
-0.0225667032026706
30
0
41
1
10
4.25125156125213
20
0.372105865699695
30
0
41
1
10
4.25129879984698
20
0.571041046081717
30
0
41
1
10
4.25136246480184
20
0.86014905542055
30
0
41
1
10
4.25138257129041
20
0.955312291972206
30
0
41
1
10
4.25142057069291
20
1.14319823681717
30
0
41
1
10
4.25143835517028
20
1.23541735037441
30
0
41
1
10
4.25148749574075
20
1.50390959965026
30
0
41
1
10
4.25151497918256
20
1.67338656228313
30
0
41
1
10
4.25154734002103
20
1.9132761708411
30
0
41
1
10
4.25155666764132
20
1.99123249229422
30
0
41
1
10
4.25157171900224
20
2.13987937689467
30
0
41
1
10
4.25157745598074
20
2.21052541374857
30
0
41
1
10
4.25158129491345
20
2.2775901367078
30
0
0
SPLINE
5
C9
100
AcDbEntity
8
1
62
256
6
ByLayer
370
18
48
1
60
0
100
AcDbSpline
70
4
71
3
72
34
73
30
40
0
40
0
40
0
40
0
40
0.250000000000015
40
0.250000000000015
40
0.31250000000002
40
0.31250000000002
40
0.375000000000026
40
0.375000000000026
40
0.500000000000044
40
0.500000000000044
40
0.625000000000063
40
0.625000000000063
40
0.750000000000081
40
0.750000000000081
40
0.812500000000094
40
0.812500000000094
40
0.843750000000104
40
0.843750000000104
40
0.851562500000103
40
0.851562500000103
40
0.859375000000102
40
0.859375000000102
40
0.8632812500001
40
0.8632812500001
40
0.867187500000097
40
0.867187500000097
40
0.875000000000092
40
0.875000000000092
40
1
40
1
40
1
40
1
41
1
10
50.7532078851784
20
0.949729901975275
30
0
41
1
10
51.0262375570709
20
0.743680289102372
30
0
41
1
10
51.309202475224
20
0.565937016282476
30
0
41
1
10
51.6767522351481
20
0.383199523898838
30
0
41
1
10
51.7511767270452
20
0.348595446106401
30
0
41
1
10
51.8999526621752
20
0.284315541889953
30
0
41
1
10
51.9744128913517
20
0.254573570016078
30
0
41
1
10
52.1980133046054
20
0.172639187685121
30
0
41
1
10
52.3473710003954
20
0.127664839182273
30
0
41
1
10
52.6467162506324
20
0.0586178157172412
30
0
41
1
10
52.7968381861174
20
0.0344646930749377
30
0
41
1
10
53.0972836048942
20
0.0113556189376425
30
0
41
1
10
53.2450186797656
20
0.012734034691988
30
0
41
1
10
53.46236687758
20
0.0369199162688005
30
0
41
1
10
53.534231539237
20
0.04871534651096
30
0
41
1
10
53.6401848548106
20
0.0723861183615213
30
0
41
1
10
53.6751976115762
20
0.0812706202474089
30
0
41
1
10
53.7185181072539
20
0.0936578947174667
30
0
41
1
10
53.727404818083
20
0.0956707826177592
30
0
41
1
10
53.7438921068511
20
0.102561809998406
30
0
41
1
10
53.7514608075785
20
0.107848682549729
30
0
41
1
10
53.7594635941457
20
0.119606466233591
30
0
41
1
10
53.7615380982998
20
0.124230814745914
30
0
41
1
10
53.7638047682615
20
0.134411685219277
30
0
41
1
10
53.7641082698682
20
0.139979572466217
30
0
41
1
10
53.7650337711332
20
0.156464483864681
30
0
41
1
10
53.7659202269718
20
0.167366318321399
30
0
41
1
10
53.7777128460778
20
0.353769061090134
30
0
41
1
10
53.7743202668675
20
0.533741149652457
30
0
41
1
10
53.7610290213041
20
0.713611064213893
30
0
0
SPLINE
5
CA
100
AcDbEntity
8
1
62
256
6
ByLayer
370
18
48
1
60
0
100
AcDbSpline
70
4
71
3
72
8
73
4
40
0
40
0
40
0
40
0
40
1
40
1
40
1
40
1
41
1
10
54.0411178811361
20
-1.66643961160514
30
0
41
1
10
53.8996313026431
20
-1.93228301538653
30
0
41
1
10
53.7613906055351
20
-2.20107508046954
30
0
41
1
10
53.6264290471172
20
-2.47284601884201
30
0
0
SPLINE
5
CB
100
AcDbEntity
8
1
62
256
6
ByLayer
370
18
48
1
60
0
100
AcDbSpline
70
4
71
3
72
14
73
10
40
0
40
0
40
0
40
0
40
0.25
40
0.25
40
0.5
40
0.5
40
0.75
40
0.75
40
1
40
1
40
1
40
1
41
1
10
53.8769695335623
20
-3.13400234329546
30
0
41
1
10
53.8802328014926
20
-3.13367168530559
30
0
41
1
10
53.8828257001034
20
-3.135080658573
30
0
41
1
10
53.8862802163274
20
-3.14236102796315
30
0
41
1
10
53.887084964258
20
-3.14832948868943
30
0
41
1
10
53.8858451197463
20
-3.16557627288054
30
0
41
1
10
53.8837539289504
20
-3.17677107372668
30
0
41
1
10
53.8769367804314
20
-3.20173109071496
30
0
41
1
10
53.8722543936503
20
-3.21537052821105
30
0
41
1
10
53.8670658915283
20
-3.22841134660641
30
0
0
SPLINE
5
CC
100
AcDbEntity
8
1
62
256
6
ByLayer
370
18
48
1
60
0
100
AcDbSpline
70
4
71
3
72
16
73
12
40
0
40
0
40
0
40
0
40
0.270318833875085
40
0.270318833875085
40
0.405478250812627
40
0.405478250812627
40
0.540637667750169
40
0.540637667750169
40
0.810956501625255
40
0.810956501625255
40
1
40
1
40
1
40
1
41
1
10
53.6264290471172
20
-2.47284601884203
30
0
41
1
10
53.6261815760988
20
-2.58415102021817
30
0
41
1
10
53.6310427711248
20
-2.68197736195921
30
0
41
1
10
53.6462118163726
20
-2.80888662813536
30
0
41
1
10
53.6525908006497
20
-2.84786634695894
30
0
41
1
10
53.6681530145741
20
-2.91901908543289
30
0
41
1
10
53.6773029144144
20
-2.95094811403666
30
0
41
1
10
53.7085373303487
20
-3.03483062359314
30
0
41
1
10
53.734497446244
20
-3.07555228793529
30
0
41
1
10
53.7879626909067
20
-3.11959088716884
30
0
41
1
10
53.8127688440205
20
-3.13037627524216
30
0
41
1
10
53.8401821207086
20
-3.13375571312332
30
0
0
SPLINE
5
CD
100
AcDbEntity
8
1
62
256
6
ByLayer
370
18
48
1
60
0
100
AcDbSpline
70
4
71
3
72
84
73
80
40
0
40
0
40
0
40
0
40
0.0026203542127708
40
0.0026203542127708
40
0.0264412213966344
40
0.0264412213966344
40
0.0502620885804979
40
0.0502620885804979
40
0.0979038229482237
40
0.0979038229482237
40
0.121724690132087
40
0.121724690132087
40
0.145545557315951
40
0.145545557315951
40
0.169366424499814
40
0.169366424499814
40
0.193187291683678
40
0.193187291683678
40
0.240829026051404
40
0.240829026051404
40
0.264649893235266
40
0.264649893235266
40
0.288470760419128
40
0.288470760419128
40
0.31229162760299
40
0.31229162760299
40
0.336112494786853
40
0.336112494786853
40
0.359933361970715
40
0.359933361970715
40
0.383754229154577
40
0.383754229154577
40
0.407575096338439
40
0.407575096338439
40
0.431395963522301
40
0.431395963522301
40
0.455216830706164
40
0.455216830706164
40
0.479037697890026
40
0.479037697890026
40
0.502858565073888
40
0.502858565073888
40
0.52667943225775
40
0.52667943225775
40
0.550500299441613
40
0.550500299441613
40
0.574321166625475
40
0.574321166625475
40
0.598142033809337
40
0.598142033809337
40
0.621962900993199
40
0.621962900993199
40
0.669604635360923
40
0.669604635360923
40
0.693425502544784
40
0.693425502544784
40
0.717246369728646
40
0.717246369728646
40
0.741067236912508
40
0.741067236912508
40
0.764888104096369
40
0.764888104096369
40
0.812529838464091
40
0.812529838464091
40
0.836350705647952
40
0.836350705647952
40
0.860171572831812
40
0.860171572831812
40
0.883992440015673
40
0.883992440015673
40
0.907813307199534
40
0.907813307199534
40
0.931634174383394
40
0.931634174383394
40
0.955455041567255
40
0.955455041567255
40
0.979275908751116
40
0.979275908751116
40
1
40
1
40
1
40
1
41
1
10
47.0136379349857
20
-2.3474003368313
30
0
41
1
10
46.9903686022896
20
-2.35433325184735
30
0
41
1
10
46.9670988549745
20
-2.36122672715453
30
0
41
1
10
46.7322862098708
20
-2.43038704948791
30
0
41
1
10
46.5206752113511
20
-2.48908323575807
30
0
41
1
10
46.096500799511
20
-2.59918745918785
30
0
41
1
10
45.8841568756487
20
-2.6508439737577
30
0
41
1
10
45.2484294650155
20
-2.79562856564729
30
0
41
1
10
44.8260811893513
20
-2.87858779895052
30
0
41
1
10
44.1912554328414
20
-2.97666787602151
30
0
41
1
10
43.9795043964432
20
-3.00505892177398
30
0
41
1
10
43.555671157188
20
-3.05227082726461
30
0
41
1
10
43.3433564013573
20
-3.07082298344204
30
0
41
1
10
42.9190942727597
20
-3.10088530378752
30
0
41
1
10
42.7071075015667
20
-3.11212257161787
30
0
41
1
10
42.2834359684117
20
-3.12572448859828
30
0
41
1
10
42.0718227236456
20
-3.12784211438967
30
0
41
1
10
41.4370657731976
20
-3.1211080535362
30
0
41
1
10
41.0131011304405
20
-3.10105330014389
30
0
41
1
10
40.3760192171222
20
-3.04085466884049
30
0
41
1
10
40.164107524471
20
-3.01631297743862
30
0
41
1
10
39.7402839107701
20
-2.96042526175941
30
0
41
1
10
39.5284399143188
20
-2.92857602808564
30
0
41
1
10
39.104797610486
20
-2.85608207335537
30
0
41
1
10
38.8930443550557
20
-2.81504236952111
30
0
41
1
10
38.4694903709307
20
-2.72597444912415
30
0
41
1
10
38.2575350011496
20
-2.67822135097788
30
0
41
1
10
37.8328755277493
20
-2.57483485096645
30
0
41
1
10
37.6202865042973
20
-2.5192642524969
30
0
41
1
10
37.1962409149459
20
-2.40040249612207
30
0
41
1
10
36.9845836122384
20
-2.33761740634563
30
0
41
1
10
36.5611047449273
20
-2.20667648482706
30
0
41
1
10
36.3493296948869
20
-2.13817635334223
30
0
41
1
10
35.9255855189931
20
-1.99484938573073
30
0
41
1
10
35.7136584512294
20
-1.91975388383423
30
0
41
1
10
35.2896724508959
20
-1.76478888059614
30
0
41
1
10
35.0771857312215
20
-1.68495292250887
30
0
41
1
10
34.6527363901905
20
-1.52098024343226
30
0
41
1
10
34.4407128001962
20
-1.43682301933652
30
0
41
1
10
34.0171441834485
20
-1.2641712871289
30
0
41
1
10
33.8056563963559
20
-1.1758653011384
30
0
41
1
10
33.3823104106422
20
-0.996845977340286
30
0
41
1
10
33.1704989671444
20
-0.906000015531447
30
0
41
1
10
32.7464488631977
20
-0.721716277811765
30
0
41
1
10
32.5342109629573
20
-0.628110195454752
30
0
41
1
10
32.1097177347191
20
-0.438926912315878
30
0
41
1
10
31.8977005592155
20
-0.343921154928523
30
0
41
1
10
31.4738400089007
20
-0.153741476054734
30
0
41
1
10
31.2619855455195
20
-0.0585962239719038
30
0
41
1
10
30.8385859283517
20
0.132190184819535
30
0
41
1
10
30.6271228136512
20
0.228027563279568
30
0
41
1
10
29.9918298633471
20
0.513196941574336
30
0
41
1
10
29.566286808813
20
0.700460499260231
30
0
41
1
10
28.9304426644565
20
0.976432630928031
30
0
41
1
10
28.7186455727422
20
1.06700048615357
30
0
41
1
10
28.2949590800821
20
1.24376534939608
30
0
41
1
10
28.0830649527943
20
1.33006859412558
30
0
41
1
10
27.6594649515017
20
1.50000967058366
30
0
41
1
10
27.4478226183199
20
1.58375391281894
30
0
41
1
10
27.0236845901048
20
1.74558683751201
30
0
41
1
10
26.8109871592257
20
1.82368905305694
30
0
41
1
10
26.1738323805018
20
2.04984845453819
30
0
41
1
10
25.7507686250188
20
2.19253728709077
30
0
41
1
10
25.1150088641105
20
2.38208222132584
30
0
41
1
10
24.9029731113844
20
2.44210843917199
30
0
41
1
10
24.4789108071731
20
2.55639006964864
30
0
41
1
10
24.2668990697815
20
2.61073377467028
30
0
41
1
10
23.8419586775191
20
2.71053029155837
30
0
41
1
10
23.6296957262358
20
2.75552599126544
30
0
41
1
10
23.2054889008157
20
2.83916809768397
30
0
41
1
10
22.9936324816612
20
2.87743736305748
30
0
41
1
10
22.5702599668883
20
2.94631157550876
30
0
41
1
10
22.3585100870226
20
2.97607112174526
30
0
41
1
10
21.9344149397118
20
3.02588908979229
30
0
41
1
10
21.7221866289748
20
3.04717334139468
30
0
41
1
10
21.2975610054696
20
3.0820639253181
30
0
41
1
10
21.0852349415433
20
3.09581403917269
30
0
41
1
10
20.6887062880046
20
3.11121782867267
30
0
41
1
10
20.5042827519485
20
3.11437097913753
30
0
41
1
10
20.3199220351223
20
3.11481443251074
30
0
0
SPLINE
5
CE
100
AcDbEntity
8
1
62
256
6
ByLayer
370
18
48
1
60
0
100
AcDbSpline
70
4
71
3
72
10
73
6
40
0
40
0
40
0
40
0
40
0.5
40
0.5
40
1
40
1
40
1
40
1
41
1
10
4.1431878834928
20
-2.17756972703617
30
0
41
1
10
4.12265141700536
20
-2.1703234494446
30
0
41
1
10
4.10388132658358
20
-2.16116628041013
30
0
41
1
10
4.06977851867663
20
-2.13902178699155
30
0
41
1
10
4.05466070540282
20
-2.12606791807696
30
0
41
1
10
4.04220682924463
20
-2.11184748395425
30
0
0
SPLINE
5
CF
100
AcDbEntity
8
1
62
256
6
ByLayer
370
18
48
1
60
0
100
AcDbSpline
70
4
71
3
72
8
73
4
40
0
40
0
40
0
40
0
40
1
40
1
40
1
40
1
41
1
10
54.9999501915972
20
0.0417786418175297
30
0
41
1
10
55.000016606935
20
0.0139244799784706
30
0
41
1
10
55.0000165961585
20
-0.013928999535068
30
0
41
1
10
54.9999501915973
20
-0.0417786417986008
30
0
0
SPLINE
5
D0
100
AcDbEntity
8
1
62
256
6
ByLayer
370
18
48
1
60
0
100
AcDbSpline
70
4
71
3
72
26
73
22
40
0
40
0
40
0
40
0
40
0.0625000000000026
40
0.0625000000000026
40
0.125000000000005
40
0.125000000000005
40
0.250000000000008
40
0.250000000000008
40
0.375000000000011
40
0.375000000000011
40
0.43750000000001
40
0.43750000000001
40
0.500000000000009
40
0.500000000000009
40
0.625000000000007
40
0.625000000000007
40
0.750000000000004
40
0.750000000000004
40
0.875000000000002
40
0.875000000000002
40
1
40
1
40
1
40
1
41
1
10
50.7532078851785
20
0.949729901975417
30
0
41
1
10
50.7561257585517
20
0.852154881150938
30
0
41
1
10
50.7658192467993
20
0.753886667647919
30
0
41
1
10
50.7982719187801
20
0.556013528827805
30
0
41
1
10
50.8213256102223
20
0.455522040082769
30
0
41
1
10
50.9074325823863
20
0.159938937235495
30
0
41
1
10
50.9865573951829
20
-0.0293950274958092
30
0
41
1
10
51.1795783619722
20
-0.395701875441688
30
0
41
1
10
51.2900575566007
20
-0.566086127770149
30
0
41
1
10
51.4706916746695
20
-0.807243797187681
30
0
41
1
10
51.5334496607631
20
-0.885222851756879
30
0
41
1
10
51.6635012208788
20
-1.0368943216948
30
0
41
1
10
51.7309582418965
20
-1.1107181835844
30
0
41
1
10
51.9365129245811
20
-1.32327441059201
30
0
41
1
10
52.0786526265374
20
-1.45430306165704
30
0
41
1
10
52.3710216434094
20
-1.69943767355116
30
0
41
1
10
52.5212733142808
20
-1.81349686787658
30
0
41
1
10
52.8287460763125
20
-2.02703590133888
30
0
41
1
10
52.9863963424903
20
-2.12670179443936
30
0
41
1
10
53.3040918692743
20
-2.31059904551759
30
0
41
1
10
53.4645285116363
20
-2.39513658595334
30
0
41
1
10
53.6264290471172
20
-2.47284601884203
30
0
0
SPLINE
5
D1
100
AcDbEntity
8
1
62
256
6
ByLayer
370
18
48
1
60
0
100
AcDbSpline
70
4
71
3
72
8
73
4
40
0
40
0
40
0
40
0
40
1
40
1
40
1
40
1
41
1
10
54.9566120717342
20
-0.771734107644193
30
0
41
1
10
54.9714933454494
20
-0.553559337967641
30
0
41
1
10
54.9824383950278
20
-0.335584385198104
30
0
41
1
10
54.9894411211399
20
-0.11780955895955
30
0
0
SPLINE
5
D2
100
AcDbEntity
8
1
62
256
6
ByLayer
370
18
48
1
60
0
100
AcDbSpline
70
4
71
3
72
44
73
40
40
0
40
0
40
0
40
0
40
0.0701779180137686
40
0.0701779180137686
40
0.140355836027537
40
0.140355836027537
40
0.175444795034422
40
0.175444795034422
40
0.210533754041307
40
0.210533754041307
40
0.280711672055077
40
0.280711672055077
40
0.421067508082619
40
0.421067508082619
40
0.456156467089504
40
0.456156467089504
40
0.491245426096389
40
0.491245426096389
40
0.561423344110159
40
0.561423344110159
40
0.596512303117045
40
0.596512303117045
40
0.631601262123931
40
0.631601262123931
40
0.701779180137703
40
0.701779180137703
40
0.771957098151474
40
0.771957098151474
40
0.80704605715836
40
0.80704605715836
40
0.842135016165246
40
0.842135016165246
40
0.912312934179019
40
0.912312934179019
40
0.947401893185906
40
0.947401893185906
40
0.982490852192792
40
0.982490852192792
40
1
40
1
40
1
40
1
41
1
10
53.8404403324196
20
-3.29520832353333
30
0
41
1
10
53.3214035647484
20
-3.30809262716818
30
0
41
1
10
52.8029858221904
20
-3.29305934224297
30
0
41
1
10
51.7632137194838
20
-3.20779600792861
30
0
41
1
10
51.2447319534044
20
-3.13779413680882
30
0
41
1
10
50.4673998282801
20
-2.99429506802571
30
0
41
1
10
50.2082468836192
20
-2.94005070015464
30
0
41
1
10
49.6891977140893
20
-2.81930007321628
30
0
41
1
10
49.4288213595926
20
-2.75265424153278
30
0
41
1
10
48.6511241709288
20
-2.53671248617803
30
0
41
1
10
48.1362690239939
20
-2.37121053496264
30
0
41
1
10
46.5954428445696
20
-1.82194188271387
30
0
41
1
10
45.5733792052418
20
-1.38484300085779
30
0
41
1
10
44.2785787682852
20
-0.793171586606491
30
0
41
1
10
44.0182674631495
20
-0.672308734346814
30
0
41
1
10
43.49878562761
20
-0.42861719229677
30
0
41
1
10
43.2394942003407
20
-0.305733050504557
30
0
41
1
10
42.4618925474555
20
0.0637598734506071
30
0
41
1
10
41.9438378668016
20
0.311172831562686
30
0
41
1
10
41.1638625916399
20
0.676695635521384
30
0
41
1
10
40.9042630375964
20
0.797117616857946
30
0
41
1
10
40.3871868360832
20
1.03314131215441
30
0
41
1
10
40.129422564955
20
1.14890024139567
30
0
41
1
10
39.3575372884431
20
1.48766211539694
30
0
41
1
10
38.8447858108417
20
1.70206834569615
30
0
41
1
10
37.8184903497905
20
2.09981981545579
30
0
41
1
10
37.3048966829739
20
2.28307718215007
30
0
41
1
10
36.5304638509848
20
2.52863720568513
30
0
41
1
10
36.2716323359299
20
2.60558423744521
30
0
41
1
10
35.7519988251851
20
2.74867335642284
30
0
41
1
10
35.4918167353507
20
2.81463160740884
30
0
41
1
10
34.7133428210578
20
2.99383336803996
30
0
41
1
10
34.1954165871258
20
3.08871624430017
30
0
41
1
10
33.4165714967575
20
3.19128910008627
30
0
41
1
10
33.1562964934922
20
3.21888681968943
30
0
41
1
10
32.6365426070975
20
3.2602486275739
30
0
41
1
10
32.3770703544643
20
3.27404341601974
30
0
41
1
10
31.9883196501041
20
3.28436633218871
30
0
41
1
10
31.8589382246355
20
3.28608001451315
30
0
41
1
10
31.7295475902537
20
3.28607234276956
30
0
0
SPLINE
5
D3
100
AcDbEntity
8
1
62
256
6
ByLayer
370
18
48
1
60
0
100
AcDbSpline
70
4
71
3
72
20
73
16
40
0
40
0
40
0
40
0
40
0.0216222498656553
40
0.0216222498656553
40
0.119460024879088
40
0.119460024879088
40
0.217297799892521
40
0.217297799892521
40
0.608648899946258
40
0.608648899946258
40
0.706486674959693
40
0.706486674959693
40
0.804324449973128
40
0.804324449973128
40
1
40
1
40
1
40
1
41
1
10
12.073764906434
20
-3.12396505922507
30
0
41
1
10
12.0163587572611
20
-3.13204947394303
30
0
41
1
10
11.9589383159744
20
-3.13981337173826
30
0
41
1
10
11.6416014253283
20
-3.18092229972737
30
0
41
1
10
11.3809070009315
20
-3.20799683752011
30
0
41
1
10
10.861907376355
20
-3.24825577255473
30
0
41
1
10
10.6032866348339
20
-3.26150780290879
30
0
41
1
10
9.31317863195329
20
-3.29364457851435
30
0
41
1
10
8.29048940235083
20
-3.2096737268613
30
0
41
1
10
7.00114586592662
20
-2.9764025791325
30
0
41
1
10
6.7427356461543
20
-2.92335424261393
30
0
41
1
10
6.22423661451373
20
-2.80481934260428
30
0
41
1
10
5.96367614930031
20
-2.73920874863685
30
0
41
1
10
5.18311787782139
20
-2.52572159659536
30
0
41
1
10
4.66372941759627
20
-2.36124243706038
30
0
41
1
10
4.14318788349306
20
-2.17756972703626
30
0
0
SPLINE
5
D4
100
AcDbEntity
8
1
62
256
6
ByLayer
370
18
48
1
60
0
100
AcDbSpline
70
4
71
3
72
24
73
20
40
0
40
0
40
0
40
0
40
0.224127287520093
40
0.224127287520093
40
0.33619093128014
40
0.33619093128014
40
0.448254575040187
40
0.448254575040187
40
0.560318218800233
40
0.560318218800233
40
0.67238186256028
40
0.67238186256028
40
0.784445506320327
40
0.784445506320327
40
0.896509150080373
40
0.896509150080373
40
0.952540971960397
40
0.952540971960397
40
1
40
1
40
1
40
1
41
1
10
4.01554845495033
20
2.42309554243758
30
0
41
1
10
3.80618082230447
20
2.50828056607008
30
0
41
1
10
3.59726296231403
20
2.59181156065435
30
0
41
1
10
3.29221092274929
20
2.71220082694663
30
0
41
1
10
3.19184367187606
20
2.75154886956872
30
0
41
1
10
2.99453462889244
20
2.82858602349432
30
0
41
1
10
2.89733570198783
20
2.86637187788693
30
0
41
1
10
2.7093642243222
20
2.93946378079872
30
0
41
1
10
2.61848877194279
20
2.97480430124889
30
0
41
1
10
2.44561086766052
20
3.04265606355912
30
0
41
1
10
2.36350585466798
20
3.07517763215623
30
0
41
1
10
2.21347205916081
20
3.13657806623465
30
0
41
1
10
2.14671843632038
20
3.16495047016767
30
0
41
1
10
2.04379063007542
20
3.21417115146343
30
0
41
1
10
2.0094548028668
20
3.23416309466219
30
0
41
1
10
1.997726958832
20
3.25468720528764
30
0
41
1
10
2.00075935062296
20
3.25967510263439
30
0
41
1
10
2.01914534529669
20
3.26565991846692
30
0
41
1
10
2.03276954139019
20
3.2671337124421
30
0
41
1
10
2.05066763777603
20
3.26746238153964
30
0
0
SPLINE
5
D5
100
AcDbEntity
8
1
62
256
6
ByLayer
370
18
48
1
60
0
100
AcDbSpline
70
4
71
3
72
37
73
33
40
0
40
0
40
0
40
0
40
0.0053993056352141
40
0.0053993056352141
40
0.0275015432877561
40
0.0275015432877561
40
0.049603780940298
40
0.049603780940298
40
0.07170601859284
40
0.07170601859284
40
0.115910493897922
40
0.115910493897922
40
0.160114969203004
40
0.160114969203004
40
0.16564052861614
40
0.16564052861614
40
0.171166088029277
40
0.171166088029277
40
0.182217206855552
40
0.182217206855552
40
0.193268325681827
40
0.193268325681827
40
0.204319444508102
40
0.292728395118312
40
0.292728395118312
40
0.469546296338734
40
0.469546296338734
40
0.646364197559156
40
0.646364197559156
40
0.823182098779578
40
0.823182098779578
40
1
40
1
40
1
40
1
41
1
10
2.12217264371193
20
3.26488278518192
30
0
41
1
10
2.12975109456863
20
3.26435266418187
30
0
41
1
10
2.13762373249844
20
3.26374879637373
30
0
41
1
10
2.17913681244511
20
3.26032422317419
30
0
41
1
10
2.21637244705084
20
3.25649764253953
30
0
41
1
10
2.2966598112645
20
3.24738669884653
30
0
41
1
10
2.33972171350072
20
3.24209593276689
30
0
41
1
10
2.43049609626669
20
3.23047721214019
30
0
41
1
10
2.47825838737071
20
3.22414315181044
30
0
41
1
10
2.62464356017975
20
3.2043896948704
30
0
41
1
10
2.72720602746978
20
3.19012900546494
30
0
41
1
10
2.93890588584168
20
3.16076447032123
30
0
41
1
10
3.04809613534894
20
3.14564037236843
30
0
41
1
10
3.17374830345096
20
3.12853580571473
30
0
41
1
10
3.18774500267688
20
3.12663442700452
30
0
41
1
10
3.21577956714395
20
3.12283466565089
30
0
41
1
10
3.22961245566498
20
3.12076630647314
30
0
41
1
10
3.2726153260042
20
3.11572670568731
30
0
41
1
10
3.30492998057179
20
3.11482552282865
30
0
41
1
10
3.36751711352491
20
3.11553545011685
30
0
41
1
10
3.39873611590787
20
3.11626958120024
30
0
41
1
10
3.46123357632848
20
3.11743119729283
30
0
41
1
10
3.74242539143899
20
3.12286576621557
30
0
41
1
10
4.02325241712649
20
3.13015815790561
30
0
41
1
10
4.76967471109748
20
3.15296727723464
30
0
41
1
10
5.26453272162425
20
3.17278976164945
30
0
41
1
10
6.24915271936112
20
3.2132582231998
30
0
41
1
10
6.7360828728296
20
3.23370731384202
30
0
41
1
10
7.70006292961938
20
3.26373124707078
30
0
41
1
10
8.17717127969684
20
3.27322852406945
30
0
41
1
10
9.1239256007473
20
3.26943213331964
30
0
41
1
10
9.59357625948144
20
3.25608318199599
30
0
41
1
10
10.0610158902998
20
3.22627592742785
30
0
0
SPLINE
5
D6
100
AcDbEntity
8
1
62
256
6
ByLayer
370
13
48
1
60
0
100
AcDbSpline
70
4
71
3
72
8
73
4
40
0
40
0
40
0
40
0
40
1
40
1
40
1
40
1
41
1
10
4.01504186248047
20
-2.04544941537347
30
0
41
1
10
4.03653113273819
20
-2.03439808097474
30
0
41
1
10
4.0813181085793
20
-2.02350556476915
30
0
41
1
10
4.14460885525131
20
-2.01725700949541
30
0
0
SPLINE
5
D7
100
AcDbEntity
8
1
62
256
6
ByLayer
370
18
48
1
60
0
100
AcDbSpline
70
4
71
3
72
8
73
4
40
0
40
0
40
0
40
0
40
1
40
1
40
1
40
1
41
1
10
54.9566120717342
20
0.77173410764405
30
0
41
1
10
54.9714976149943
20
0.553496742050044
30
0
41
1
10
54.9824404040446
20
0.335521907631375
30
0
41
1
10
54.9894411211399
20
0.117809558959607
30
0
0
SPLINE
5
D8
100
AcDbEntity
8
1
62
256
6
ByLayer
370
18
48
1
60
0
100
AcDbSpline
70
4
71
3
72
8
73
4
40
0
40
0
40
0
40
0
40
1
40
1
40
1
40
1
41
1
10
4.04220682924455
20
-2.11184748395408
30
0
41
1
10
4.02512681539423
20
-2.09234470355955
30
0
41
1
10
4.01503643500172
20
-2.06945862825688
30
0
41
1
10
4.0150418624805
20
-2.04544941535963
30
0
0
SPLINE
5
D9
100
AcDbEntity
8
1
62
256
6
ByLayer
370
18
48
1
60
0
100
AcDbSpline
70
4
71
3
72
8
73
4
40
0
40
0
40
0
40
0
40
1
40
1
40
1
40
1
41
1
10
54.0049702909519
20
-3.21109825562286
30
0
41
1
10
53.9440376163342
20
-3.25634530147991
30
0
41
1
10
53.8893352028326
20
-3.28462765185912
30
0
41
1
10
53.8404403324197
20
-3.29520832353333
30
0
0
SPLINE
5
DA
100
AcDbEntity
8
1
62
256
6
ByLayer
370
18
48
1
60
0
100
AcDbSpline
70
4
71
3
72
10
73
6
40
0
40
0
40
0
40
0
40
0.5
40
0.5
40
1
40
1
40
1
40
1
41
1
10
54.0049702909441
20
3.21109825564318
30
0
41
1
10
54.1543091177739
20
2.80105988565086
30
0
41
1
10
54.3086539380002
20
2.39258542639595
30
0
41
1
10
54.62650615795
20
1.57868402415258
30
0
41
1
10
54.7899407207721
20
1.17366538992593
30
0
41
1
10
54.9566120717342
20
0.771734107644079
30
0
0
SPLINE
5
DB
100
AcDbEntity
8
1
62
256
6
ByLayer
370
18
48
1
60
0
100
AcDbSpline
70
4
71
3
72
40
73
36
40
0
40
0
40
0
40
0
40
0.0624999999999986
40
0.0624999999999986
40
0.124999999999997
40
0.124999999999997
40
0.249999999999995
40
0.249999999999995
40
0.312499999999989
40
0.312499999999989
40
0.374999999999983
40
0.374999999999983
40
0.40624999999998
40
0.40624999999998
40
0.437499999999977
40
0.437499999999977
40
0.453124999999976
40
0.453124999999976
40
0.468749999999975
40
0.468749999999975
40
0.499999999999976
40
0.499999999999976
40
0.531249999999978
40
0.531249999999978
40
0.562499999999979
40
0.562499999999979
40
0.624999999999982
40
0.624999999999982
40
0.687499999999985
40
0.687499999999985
40
0.749999999999988
40
0.749999999999988
40
0.874999999999994
40
0.874999999999994
40
1
40
1
40
1
40
1
41
1
10
54.0411178811358
20
-1.66643961160491
30
0
41
1
10
53.9816887809886
20
-1.64962444538688
30
0
41
1
10
53.9223290404999
20
-1.62997891410805
30
0
41
1
10
53.8037470872589
20
-1.58507574635576
30
0
41
1
10
53.7443105569261
20
-1.55971456900588
30
0
41
1
10
53.567908805291
20
-1.47525321078544
30
0
41
1
10
53.4531578912197
20
-1.40869230243416
30
0
41
1
10
53.2874872173176
20
-1.28562759167823
30
0
41
1
10
53.233573084996
20
-1.24077917502203
30
0
41
1
10
53.1318735927975
20
-1.14090614461824
30
0
41
1
10
53.0839935175445
20
-1.08626820180137
30
0
41
1
10
53.0243664613611
20
-0.992781516518875
30
0
41
1
10
53.0064448822063
20
-0.959282869495382
30
0
41
1
10
52.9797956155833
20
-0.889133653659002
30
0
41
1
10
52.9711988260562
20
-0.852687624999874
30
0
41
1
10
52.9702224672448
20
-0.798655812515193
30
0
41
1
10
52.9719041700249
20
-0.781467693935156
30
0
41
1
10
52.9791400496155
20
-0.748942728790695
30
0
41
1
10
52.9848110660367
20
-0.733419187745824
30
0
41
1
10
53.0063065997076
20
-0.691567769761889
30
0
41
1
10
53.0267307729861
20
-0.669159352679998
30
0
41
1
10
53.0722657121766
20
-0.633743205250937
30
0
41
1
10
53.0979367078203
20
-0.62019128096199
30
0
41
1
10
53.1508104100285
20
-0.599223320556746
30
0
41
1
10
53.1782914688961
20
-0.591643754459852
30
0
41
1
10
53.2628599914182
20
-0.574816604466577
30
0
41
1
10
53.3215886818519
20
-0.571521242725822
30
0
41
1
10
53.4390605969096
20
-0.574062137735524
30
0
41
1
10
53.4983653624202
20
-0.57999398943619
30
0
41
1
10
53.6177952731591
20
-0.598580737483985
30
0
41
1
10
53.678038401217
20
-0.611323192187683
30
0
41
1
10
53.8578620712819
20
-0.65762156808438
30
0
41
1
10
53.9775960226109
20
-0.699249345260483
30
0
41
1
10
54.2141607017083
20
-0.801372654346238
30
0
41
1
10
54.3303251381357
20
-0.861327911335508
30
0
41
1
10
54.4435562478853
20
-0.933600937280687
30
0
0
SPLINE
5
DC
100
AcDbEntity
8
1
62
256
6
ByLayer
370
18
48
1
60
0
100
AcDbSpline
70
4
71
3
72
10
73
6
40
0
40
0
40
0
40
0
40
0.5
40
0.5
40
1
40
1
40
1
40
1
41
1
10
54.0049702909569
20
-3.21109825560825
30
0
41
1
10
54.1550344215821
20
-2.79906842504141
30
0
41
1
10
54.3095787795015
20
-2.39017694363173
30
0
41
1
10
54.6270186308348
20
-1.57741226189685
30
0
41
1
10
54.7899745805903
20
-1.17358373630003
30
0
41
1
10
54.9566120717351
20
-0.771734107641947
30
0
0
SPLINE
5
DD
100
AcDbEntity
8
1
62
256
6
ByLayer
370
13
48
1
60
0
100
AcDbSpline
70
4
71
3
72
8
73
4
40
0
40
0
40
0
40
0
40
1
40
1
40
1
40
1
41
1
10
4.14318788349289
20
-2.17756972703407
30
0
41
1
10
4.14365946598491
20
-2.16617407154115
30
0
41
1
10
4.14413312457447
20
-2.15477647187114
30
0
41
1
10
4.14460885525131
20
-2.14337689208807
30
0
0
SPLINE
5
DE
100
AcDbEntity
8
1
62
256
6
ByLayer
370
18
48
1
60
0
100
AcDbSpline
70
4
71
3
72
8
73
4
40
0
40
0
40
0
40
0
40
1
40
1
40
1
40
1
41
1
10
53.8670658915272
20
-3.22841134660894
30
0
41
1
10
53.8582007873752
20
-3.25069296287944
30
0
41
1
10
53.8493253407349
20
-3.27295889397223
30
0
41
1
10
53.8404403324197
20
-3.29520832353333
30
0
0
SPLINE
5
DF
100
AcDbEntity
8
1
62
256
6
ByLayer
370
18
48
1
60
0
100
AcDbSpline
70
4
71
3
72
60
73
56
40
0
40
0
40
0
40
0
40
0.0667423095228492
40
0.0667423095228492
40
0.100113464284273
40
0.100113464284273
40
0.133484619045698
40
0.133484619045698
40
0.166855773807122
40
0.166855773807122
40
0.200226928568546
40
0.200226928568546
40
0.23359808332997
40
0.23359808332997
40
0.266969238091395
40
0.266969238091395
40
0.300340392852819
40
0.300340392852819
40
0.333711547614243
40
0.333711547614243
40
0.367082702375667
40
0.367082702375667
40
0.400453857137091
40
0.400453857137091
40
0.467196166659939
40
0.467196166659939
40
0.500567321421363
40
0.500567321421363
40
0.533938476182787
40
0.533938476182787
40
0.56730963094421
40
0.56730963094421
40
0.600680785705634
40
0.600680785705634
40
0.634051940467058
40
0.634051940467058
40
0.667423095228482
40
0.667423095228482
40
0.700794249989905
40
0.700794249989905
40
0.734165404751329
40
0.734165404751329
40
0.767536559512753
40
0.767536559512753
40
0.800907714274177
40
0.800907714274177
40
0.834278869035601
40
0.834278869035601
40
0.867650023797024
40
0.867650023797024
40
0.901021178558448
40
0.901021178558448
40
0.934392333319872
40
0.934392333319872
40
1
40
1
40
1
40
1
41
1
10
10.0610158902998
20
3.22627592742785
30
0
41
1
10
10.5190533216615
20
3.18979650619829
30
0
41
1
10
10.977981065952
20
3.13315095746555
30
0
41
1
10
11.6640487896113
20
3.01700444748042
30
0
41
1
10
11.8923788926205
20
2.97292409460931
30
0
41
1
10
12.3504791924464
20
2.87594976052839
30
0
41
1
10
12.5800856237144
20
2.82284285593005
30
0
41
1
10
13.0392480511877
20
2.70705225616629
30
0
41
1
10
13.2679451435006
20
2.64409129031364
30
0
41
1
10
13.7254985216127
20
2.51037093165019
30
0
41
1
10
13.9544611554351
20
2.43981341681393
30
0
41
1
10
14.4123173769285
20
2.2908458579854
30
0
41
1
10
14.6411272971765
20
2.21230012218095
30
0
41
1
10
15.0985727750857
20
2.04693989579744
30
0
41
1
10
15.3279963689636
20
1.96100011580717
30
0
41
1
10
15.7871360665844
20
1.78363250205774
30
0
41
1
10
16.0164328979278
20
1.69220086441808
30
0
41
1
10
16.4739227919316
20
1.50277985135341
30
0
41
1
10
16.7021955498527
20
1.40490090695715
30
0
41
1
10
17.1598165447884
20
1.20671449550537
30
0
41
1
10
17.3888825841096
20
1.10589232458156
30
0
41
1
10
17.8471001008296
20
0.89992659907162
30
0
41
1
10
18.0761944002015
20
0.793997660041299
30
0
41
1
10
18.7638136233224
20
0.474954595421792
30
0
41
1
10
19.2220025765138
20
0.260852898414157
30
0
41
1
10
19.9073344179826
20
-0.065835683066922
30
0
41
1
10
20.1361439686246
20
-0.174188439448443
30
0
41
1
10
20.5945822419392
20
-0.389609114679331
30
0
41
1
10
20.8244183202467
20
-0.496936177869742
30
0
41
1
10
21.2826006359293
20
-0.711055572636838
30
0
41
1
10
21.511115668985
20
-0.817454779854302
30
0
41
1
10
21.9688297758929
20
-1.02519139257976
30
0
41
1
10
22.1977548833142
20
-1.12711454994292
30
0
41
1
10
22.6553255699714
20
-1.32790214226549
30
0
41
1
10
22.8836549757373
20
-1.42735828292919
30
0
41
1
10
23.3415982540582
20
-1.62009370337623
30
0
41
1
10
23.571449237399
20
-1.71352882006687
30
0
41
1
10
24.0301057240048
20
-1.89452095412929
30
0
41
1
10
24.2588966637801
20
-1.98234904895477
30
0
41
1
10
24.7158074015554
20
-2.15182592162458
30
0
41
1
10
24.944484200599
20
-2.23256587649428
30
0
41
1
10
25.4022525870905
20
-2.38628419153937
30
0
41
1
10
25.6313032164539
20
-2.45933833297568
30
0
41
1
10
26.0891279459763
20
-2.59852148212008
30
0
41
1
10
26.3183736826211
20
-2.6642733117655
30
0
41
1
10
26.7767519767449
20
-2.78543542718526
30
0
41
1
10
27.0058243856969
20
-2.84129130718426
30
0
41
1
10
27.4633295454297
20
-2.94402439862128
30
0
41
1
10
27.6914495896103
20
-2.99113082786468
30
0
41
1
10
28.1487070687514
20
-3.07466486010654
30
0
41
1
10
28.3777810424468
20
-3.11123153455571
30
0
41
1
10
28.8363415806328
20
-3.17438386466694
30
0
41
1
10
29.0658000174236
20
-3.20102932320813
30
0
41
1
10
29.7442754765051
20
-3.26420151295409
30
0
41
1
10
30.1945411272488
20
-3.28507061617935
30
0
41
1
10
30.6437963688777
20
-3.28539970205821
30
0
0
SPLINE
5
E0
100
AcDbEntity
8
1
62
256
6
ByLayer
370
18
48
1
60
0
100
AcDbSpline
70
4
71
3
72
26
73
22
40
0
40
0
40
0
40
0
40
0.019127829617407
40
0.019127829617407
40
0.117215046655668
40
0.117215046655668
40
0.215302263693929
40
0.215302263693929
40
0.411476697770447
40
0.411476697770447
40
0.509563914808706
40
0.509563914808706
40
0.607651131846965
40
0.607651131846965
40
0.705738348885223
40
0.705738348885223
40
0.803825565923483
40
0.803825565923483
40
0.901912782961742
40
0.901912782961742
40
1
40
1
40
1
40
1
41
1
10
47.0071465810453
20
2.34759019263882
30
0
41
1
10
47.0517064329892
20
2.36255553660689
30
0
41
1
10
47.0962850081385
20
2.37735945994115
30
0
41
1
10
47.369631481295
20
2.46700378366532
30
0
41
1
10
47.5990909769257
20
2.53784050098508
30
0
41
1
10
48.0576413961457
20
2.67142351116269
30
0
41
1
10
48.2861534609372
20
2.73434355724737
30
0
41
1
10
48.9713139403661
20
2.90895833867245
30
0
41
1
10
49.4290480318347
20
3.00537522567046
30
0
41
1
10
50.1145446411953
20
3.12223742833638
30
0
41
1
10
50.3436336598415
20
3.15607298044006
30
0
41
1
10
50.8020901516758
20
3.21291337820492
30
0
41
1
10
51.0311420990582
20
3.23605654830269
30
0
41
1
10
51.4884469892764
20
3.27193669681202
30
0
41
1
10
51.7165136470848
20
3.28463880172859
30
0
41
1
10
52.1738871673859
20
3.29900108646143
30
0
41
1
10
52.4029592700143
20
3.30079309708657
30
0
41
1
10
52.861405936044
20
3.29362594117922
30
0
41
1
10
53.090294687801
20
3.28457306512004
30
0
41
1
10
53.5474494771555
20
3.25568146133975
30
0
41
1
10
53.7762131841112
20
3.23598751150121
30
0
41
1
10
54.0049702909514
20
3.21109825562326
30
0
0
SPLINE
5
E1
100
AcDbEntity
8
1
62
256
6
ByLayer
370
18
48
1
60
0
100
AcDbSpline
70
4
71
3
72
8
73
4
40
0
40
0
40
0
40
0
40
1
40
1
40
1
40
1
41
1
10
53.8404403324196
20
3.29520832353333
30
0
41
1
10
53.7169796591148
20
3.29827304823283
30
0
41
1
10
53.5935343804258
20
3.2997577063343
30
0
41
1
10
53.4700762428233
20
3.29966604502747
30
0
0
SPLINE
5
E2
100
AcDbEntity
8
1
62
256
6
ByLayer
370
18
48
1
60
0
100
AcDbSpline
70
4
71
3
72
50
73
46
40
0
40
0
40
0
40
0
40
0.0727201897138038
40
0.0727201897138038
40
0.105257466074046
40
0.105257466074046
40
0.137794742434289
40
0.137794742434289
40
0.202869295154773
40
0.202869295154773
40
0.235406571515014
40
0.235406571515014
40
0.267943847875255
40
0.267943847875255
40
0.333018400595739
40
0.333018400595739
40
0.365555676955981
40
0.365555676955981
40
0.398092953316222
40
0.398092953316222
40
0.463167506036706
40
0.463167506036706
40
0.495704782396948
40
0.495704782396948
40
0.52824205875719
40
0.52824205875719
40
0.593316611477673
40
0.593316611477673
40
0.658391164198155
40
0.658391164198155
40
0.690928440558397
40
0.690928440558397
40
0.723465716918638
40
0.723465716918638
40
0.788540269639121
40
0.788540269639121
40
0.853614822359604
40
0.853614822359604
40
0.918689375080087
40
0.918689375080087
40
0.951226651440328
40
0.951226651440328
40
0.983763927800569
40
0.983763927800569
40
1
40
1
40
1
40
1
41
1
10
33.8386706055556
20
-3.1347558381631
30
0
41
1
10
33.2653093087123
20
-3.21637011599731
30
0
41
1
10
32.6926398257166
20
-3.26567299214264
30
0
41
1
10
31.8601567030336
20
-3.28776544747112
30
0
41
1
10
31.6023274967925
20
-3.2878043469662
30
0
41
1
10
31.0850595450171
20
-3.27410375155742
30
0
41
1
10
30.825233836279
20
-3.26033537001516
30
0
41
1
10
30.0452009492245
20
-3.19836061224422
30
0
41
1
10
29.5271201995606
20
-3.12973875683315
30
0
41
1
10
28.7491597652501
20
-2.98838521277429
30
0
41
1
10
28.4897240557893
20
-2.93485302285825
30
0
41
1
10
27.9700045031931
20
-2.81544119134321
30
0
41
1
10
27.7097018986244
20
-2.74955701847699
30
0
41
1
10
26.9307658832691
20
-2.53549977671199
30
0
41
1
10
26.4127981981554
20
-2.37047962640253
30
0
41
1
10
25.6340488413377
20
-2.0948778318315
30
0
41
1
10
25.3739067335304
20
-1.99816905361942
30
0
41
1
10
24.8539115735936
20
-1.79678081362133
30
0
41
1
10
24.5943635949703
20
-1.69226899177588
30
0
41
1
10
23.8161340780425
20
-1.36904916187447
30
0
41
1
10
23.2979007134764
20
-1.14059020928022
30
0
41
1
10
22.5179493910574
20
-0.785163913128656
30
0
41
1
10
22.2577934700908
20
-0.664668873408232
30
0
41
1
10
21.7400495462835
20
-0.422662498570844
30
0
41
1
10
21.48195570465
20
-0.300965569258835
30
0
41
1
10
20.7091871465248
20
0.0644300301034093
30
0
41
1
10
20.196146490394
20
0.308691743459121
30
0
41
1
10
19.1693583034088
20
0.787804852268522
30
0
41
1
10
18.6558151443976
20
1.02309335546042
30
0
41
1
10
17.8815477547232
20
1.36169311015658
30
0
41
1
10
17.6228528203672
20
1.47228187807417
30
0
41
1
10
17.1035975232699
20
1.68752534404641
30
0
41
1
10
16.8430278798961
20
1.79210471097457
30
0
41
1
10
16.063820641098
20
2.09278518785186
30
0
41
1
10
15.5457145033132
20
2.27683760155259
30
0
41
1
10
14.5071831689403
20
2.60414639858095
30
0
41
1
10
13.9861807713265
20
2.74746853155605
30
0
41
1
10
12.9481281144702
20
2.98443678575211
30
0
41
1
10
12.4297566044102
20
3.07854104744428
30
0
41
1
10
11.6496148247593
20
3.18002137598128
30
0
41
1
10
11.3892171454663
20
3.20720909243636
30
0
41
1
10
10.8696990995251
20
3.24779012317143
30
0
41
1
10
10.6102382800925
20
3.26123583007558
30
0
41
1
10
10.2213280026854
20
3.27107019068555
30
0
41
1
10
10.0918671170293
20
3.27262874372946
30
0
41
1
10
9.96236928264864
20
3.27247026058998
30
0
0
SPLINE
5
E3
100
AcDbEntity
8
1
62
256
6
ByLayer
370
18
48
1
60
0
100
AcDbSpline
70
4
71
3
72
10
73
6
40
0
40
0
40
0
40
0
40
0.5
40
0.5
40
1
40
1
40
1
40
1
41
1
10
53.8950320376285
20
0.810596723119147
30
0
41
1
10
54.0720026869514
20
0.803688792912368
30
0
41
1
10
54.2489793006808
20
0.796724799059518
30
0
41
1
10
54.6028679903525
20
0.783473240640348
30
0
41
1
10
54.7797476221685
20
0.777524280278755
30
0
41
1
10
54.9566120717342
20
0.77173410764334
30
0
0
SPLINE
5
E4
100
AcDbEntity
8
1
62
256
6
ByLayer
370
18
48
1
60
0
100
AcDbSpline
70
4
71
3
72
8
73
4
40
0
40
0
40
0
40
0
40
1
40
1
40
1
40
1
41
1
10
54.9642617729581
20
-0.0480640885254786
30
0
41
1
10
54.786496269404
20
-0.339430354942095
30
0
41
1
10
54.6129082741693
20
-0.634591602030412
30
0
41
1
10
54.443556247886
20
-0.933600937277532
30
0
0
SPLINE
5
E5
100
AcDbEntity
8
1
62
256
6
ByLayer
370
18
48
1
60
0
100
AcDbSpline
70
4
71
3
72
34
73
30
40
0
40
0
40
0
40
0
40
0.065453716339691
40
0.065453716339691
40
0.141798274480281
40
0.141798274480281
40
0.294487390761462
40
0.294487390761462
40
0.370831948902052
40
0.370831948902052
40
0.447176507042641
40
0.447176507042641
40
0.523521065183231
40
0.523521065183231
40
0.561693344253526
40
0.580779483788674
40
0.585551018672461
40
0.585551018672461
40
0.590322553556247
40
0.590322553556247
40
0.599865623323821
40
0.599865623323821
40
0.752554739605
40
0.752554739605
40
0.905243855886178
40
0.905243855886178
40
0.981588414026768
40
0.981588414026768
40
1
40
1
40
1
40
1
41
1
10
10.0610158902998
20
3.22627592738806
30
0
41
1
10
10.0610158902998
20
3.11320025140293
30
0
41
1
10
10.0610158902998
20
2.99917169377554
30
0
41
1
10
10.0610158902998
20
2.75008839068809
30
0
41
1
10
10.0610158902998
20
2.6141211019719
30
0
41
1
10
10.0610158902998
20
2.2067359239978
30
0
41
1
10
10.0610158902998
20
1.93722827153559
30
0
41
1
10
10.0610158902998
20
1.53587704296174
30
0
41
1
10
10.0610158902998
20
1.40258107047401
30
0
41
1
10
10.0610158902998
20
1.13695877479773
30
0
41
1
10
10.0610158902999
20
1.00438643042355
30
0
41
1
10
10.0610158902999
20
0.742775012419855
30
0
41
1
10
10.0610158902998
20
0.613464956065314
30
0
41
1
10
10.0610158902998
20
0.421709660379776
30
0
41
1
10
10.0610158902998
20
0.326337980819176
30
0
41
1
10
10.0610158902999
20
0.224143872375407
30
0
41
1
10
10.0610158902998
20
0.18501800534645
30
0
41
1
10
10.0610158902998
20
0.169384678294591
30
0
41
1
10
10.061015890298
20
0.161370450938165
30
0
41
1
10
10.061015890298
20
0.139388038709285
30
0
41
1
10
10.0610158902998
20
0.12718667271929
30
0
41
1
10
10.0610158902998
20
0.0059852442709314
30
0
41
1
10
10.0610158902998
20
-0.0876032365540311
30
0
41
1
10
10.0610158902998
20
-0.227332603964555
30
0
41
1
10
10.0610158902998
20
-0.274186697794335
30
0
41
1
10
10.0610158902998
20
-0.307655677336697
30
0
41
1
10
10.0610158902998
20
-0.312590190776291
30
0
41
1
10
10.0610158902998
20
-0.310617013076097
30
0
41
1
10
10.0610158902998
20
-0.309859866397204
30
0
41
1
10
10.0610158902998
20
-0.308728922762896
30
0
0
SPLINE
5
E6
100
AcDbEntity
8
1
62
256
6
ByLayer
370
13
48
1
60
0
100
AcDbSpline
70
4
71
3
72
20
73
16
40
0
40
0
40
0
40
0
40
0.104569953869022
40
0.104569953869022
40
0.209139907738043
40
0.209139907738043
40
0.418279815476088
40
0.418279815476088
40
0.627419723214134
40
0.627419723214134
40
0.731989677083155
40
0.731989677083155
40
0.836559630952177
40
0.836559630952177
40
1
40
1
40
1
40
1
41
1
10
4.20822728460104
20
-2.15589707481712
30
0
41
1
10
4.46978536504241
20
-2.24559021862942
30
0
41
1
10
4.7310721756069
20
-2.33041508792286
30
0
41
1
10
5.25138043262234
20
-2.48913790107542
30
0
41
1
10
5.51072883756098
20
-2.56314617783286
30
0
41
1
10
6.28719519947879
20
-2.76834723929775
30
0
41
1
10
6.80274703650298
20
-2.88274636152201
30
0
41
1
10
7.83426440879316
20
-3.06183376942968
30
0
41
1
10
8.35013984541195
20
-3.12665390810156
30
0
41
1
10
9.1276407975644
20
-3.18421684015877
30
0
41
1
10
9.38741210421409
20
-3.19680007705196
30
0
41
1
10
9.90870414136828
20
-3.20839008502696
30
0
41
1
10
10.1706643854166
20
-3.20735208576644
30
0
41
1
10
10.8383525367617
20
-3.187217748482
30
0
41
1
10
11.2434013939584
20
-3.1583285970803
30
0
41
1
10
11.6473947864225
20
-3.11367266251151
30
0
0
SPLINE
5
E7
100
AcDbEntity
8
1
62
256
6
ByLayer
370
18
48
1
60
0
100
AcDbSpline
70
4
71
3
72
16
73
12
40
0
40
0
40
0
40
0
40
0.381974905347261
40
0.381974905347261
40
0.676482966247396
40
0.676482966247396
40
0.823736996697463
40
0.823736996697463
40
0.97099102714753
40
0.97099102714753
40
1
40
1
40
1
40
1
41
1
10
42.5935192393996
20
0.0012493621457565
30
0
41
1
10
43.2613199508019
20
-0.310020842609276
30
0
41
1
10
43.9251962335442
20
-0.61961808287532
30
0
41
1
10
45.1026930096536
20
-1.14575906834256
30
0
41
1
10
45.6157848348876
20
-1.36771385976817
30
0
41
1
10
46.3893826385979
20
-1.68291492388653
30
0
41
1
10
46.6479158133571
20
-1.78501317713392
30
0
41
1
10
47.1669709357857
20
-1.98190923628275
30
0
41
1
10
47.4282032439987
20
-2.07696999640294
30
0
41
1
10
47.7402365985179
20
-2.18502054131915
30
0
41
1
10
47.7915460671948
20
-2.2026079218308
30
0
41
1
10
47.842813348505
20
-2.21999778447724
30
0
0
SPLINE
5
E8
100
AcDbEntity
8
1
62
256
6
ByLayer
370
13
48
1
60
0
100
AcDbSpline
70
4
71
3
72
10
73
6
40
0
40
0
40
0
40
0
40
0.48737668182476
40
0.48737668182476
40
1
40
1
40
1
40
1
41
1
10
47.8428133475864
20
-2.21999778416557
30
0
41
1
10
48.8325086462099
20
-2.55570244544728
30
0
41
1
10
49.8064820510496
20
-2.81779846187803
30
0
41
1
10
51.8036083885406
20
-3.17235584727195
30
0
41
1
10
52.8270995316629
20
-3.25577487646171
30
0
41
1
10
53.867065891522
20
-3.22841134660655
30
0
0
SPLINE
5
E9
100
AcDbEntity
8
1
62
256
6
ByLayer
370
18
48
1
60
0
100
AcDbSpline
70
4
71
3
72
10
73
6
40
0
40
0
40
0
40
0
40
0.5
40
0.5
40
1
40
1
40
1
40
1
41
1
10
54.9999501916042
20
0.0417786418379933
30
0
41
1
10
54.9962222946253
20
0.0264359032118762
30
0
41
1
10
54.9911236774193
20
0.0099872805025711
30
0
41
1
10
54.9788264746268
20
-0.0212438288953933
30
0
41
1
10
54.9715910350301
20
-0.0360510731609622
30
0
41
1
10
54.9642617729582
20
-0.0480640885254502
30
0
0
SPLINE
5
EA
100
AcDbEntity
8
1
62
256
6
ByLayer
370
13
48
1
60
0
100
AcDbSpline
70
4
71
3
72
8
73
4
40
0
40
0
40
0
40
0
40
1
40
1
40
1
40
1
41
1
10
4.14460885525131
20
-2.1433768920881
30
0
41
1
10
4.16482903727419
20
-2.14414302160023
30
0
41
1
10
4.18628372610419
20
-2.14837221936364
30
0
41
1
10
4.20822728460104
20
-2.15589707481712
30
0
0
SPLINE
5
EB
100
AcDbEntity
8
1
62
256
6
ByLayer
370
18
48
1
60
0
100
AcDbSpline
70
4
71
3
72
16
73
12
40
0
40
0
40
0
40
0
40
0.124999999999999
40
0.124999999999999
40
0.249999999999998
40
0.249999999999998
40
0.499999999999999
40
0.499999999999999
40
0.749999999999999
40
0.749999999999999
40
1
40
1
40
1
40
1
41
1
10
4.25158129690803
20
2.27759013590517
30
0
41
1
10
4.48321421969058
20
2.18210258050655
30
0
41
1
10
4.71805596484614
20
2.08359985381082
30
0
41
1
10
5.19227719191716
20
1.88090317296334
30
0
41
1
10
5.43213061915651
20
1.77651438282041
30
0
41
1
10
6.15414184712355
20
1.45737283371958
30
0
41
1
10
6.63597523571016
20
1.23756806349829
30
0
41
1
10
7.6027729464596
20
0.792732060713917
30
0
41
1
10
8.08779644805628
20
0.566518026482868
30
0
41
1
10
9.06627781361695
20
0.121168293842686
30
0
41
1
10
9.55989022751069
20
-0.0984490881803595
30
0
41
1
10
10.0610158902998
20
-0.306072811215728
30
0
0
SPLINE
5
EC
100
AcDbEntity
8
1
62
256
6
ByLayer
370
18
48
1
60
0
100
AcDbSpline
70
4
71
3
72
10
73
6
40
0
40
0
40
0
40
0
40
0.653171553151815
40
0.653171553151815
40
1
40
1
40
1
40
1
41
1
10
53.8769695335719
20
-3.13400234329535
30
0
41
1
10
52.8375671966978
20
-3.14503872616029
30
0
41
1
10
51.8138476416165
20
-3.04899222840891
30
0
41
1
10
50.2459336179605
20
-2.75783996911591
30
0
41
1
10
49.7019392788168
20
-2.63018482027013
30
0
41
1
10
49.1552481966384
20
-2.47875415344049
30
0
0
SPLINE
5
ED
100
AcDbEntity
8
1
62
256
6
ByLayer
370
13
48
1
60
0
100
AcDbSpline
70
4
71
3
72
22
73
18
40
0
40
0
40
0
40
0
40
0.142479592911332
40
0.142479592911332
40
0.218426784104012
40
0.218426784104012
40
0.294373975296692
40
0.294373975296692
40
0.446268357682052
40
0.446268357682052
40
0.750057122452768
40
0.750057122452768
40
0.826004313645447
40
0.826004313645447
40
0.901951504838126
40
0.901951504838126
40
1
40
1
40
1
40
1
41
1
10
49.1552485567472
20
-2.47875425318878
30
0
41
1
10
48.6723726937833
20
-2.34500008849673
30
0
41
1
10
48.1873929240323
20
-2.19269707264365
30
0
41
1
10
47.4380340134931
20
-1.93383781193307
30
0
41
1
10
47.1772181786938
20
-1.8394423796334
30
0
41
1
10
46.6586376471345
20
-1.64436827827035
30
0
41
1
10
46.400268575479
20
-1.54347950419921
30
0
41
1
10
45.6270337846407
20
-1.23271118030507
30
0
41
1
10
45.1140394104676
20
-1.01472958296822
30
0
41
1
10
43.5762654156502
20
-0.342423102983616
30
0
41
1
10
42.5530729420873
20
0.13132875835106
30
0
41
1
10
41.2553625985466
20
0.706909637306893
30
0
41
1
10
40.9941350131781
20
0.821492334728674
30
0
41
1
10
40.4733790954984
20
1.04584324601308
30
0
41
1
10
40.2140488996132
20
1.15553208885618
30
0
41
1
10
39.621732984345
20
1.40013400099221
30
0
41
1
10
39.2892259695584
20
1.53296159068773
30
0
41
1
10
38.9574460858522
20
1.65978098544079
30
0
0
SPLINE
5
EE
100
AcDbEntity
8
1
62
256
6
ByLayer
370
18
48
1
60
0
100
AcDbSpline
70
4
71
3
72
14
73
10
40
0
40
0
40
0
40
0
40
0.105716064855086
40
0.105716064855086
40
0.266847827045624
40
0.266847827045624
40
0.589111351426698
40
0.589111351426698
40
1
40
1
40
1
40
1
41
1
10
10.1893351322065
20
-3.10777130657041
30
0
41
1
10
10.0181271358909
20
-3.10743547861173
30
0
41
1
10
9.84673460430329
20
-3.10425231643114
30
0
41
1
10
9.41559319847636
20
-3.08908519137788
30
0
41
1
10
9.15615195528301
20
-3.07339574190857
30
0
41
1
10
8.37972297679309
20
-3.0072839124781
30
0
41
1
10
7.86468275161644
20
-2.93783155036113
30
0
41
1
10
6.69381373761746
20
-2.72631801056613
30
0
41
1
10
6.03835832573682
20
-2.56959269887886
30
0
41
1
10
5.37920257612444
20
-2.37945768499259
30
0
0
SPLINE
5
EF
100
AcDbEntity
8
1
62
256
6
ByLayer
370
13
48
1
60
0
100
AcDbSpline
70
4
71
3
72
8
73
4
40
0
40
0
40
0
40
0
40
1
40
1
40
1
40
1
41
1
10
5.37920257639985
20
-2.37945768507206
30
0
41
1
10
5.00439520367991
20
-2.27134362393355
30
0
41
1
10
4.62839141685311
20
-2.15242734907233
30
0
41
1
10
4.25037343817206
20
-2.02358668544929
30
0
0
SPLINE
5
F0
100
AcDbEntity
8
1
62
256
6
ByLayer
370
18
48
1
60
0
100
AcDbSpline
70
4
71
3
72
8
73
4
40
0
40
0
40
0
40
0
40
1
40
1
40
1
40
1
41
1
10
54.9894411211399
20
0.117809558959607
30
0
41
1
10
54.9901387732872
20
0.0961135690374419
30
0
41
1
10
54.9941236687885
20
0.0696521126238565
30
0
41
1
10
54.9999501915928
20
0.0417786418307742
30
0
0
SPLINE
5
F1
100
AcDbEntity
8
1
62
256
6
ByLayer
370
18
48
1
60
0
100
AcDbSpline
70
4
71
3
72
26
73
22
40
0
40
0
40
0
40
0
40
0.0865592257293709
40
0.160743300774769
40
0.217076934945241
40
0.255533577626657
40
0.280555646589746
40
0.312197028031476
40
0.376212297733532
40
0.438743303420246
40
0.488555991412102
40
0.536958870256848
40
0.640695212184223
40
0.743358387459902
40
0.766542952628743
40
0.788377200093937
40
0.809138886189739
40
0.837351374390999
40
0.892795661650446
40
0.968595908520634
40
1
40
1
40
1
40
1
41
1
10
31.9599347026685
20
-3.12134510455317
30
0
41
1
10
32.2494865841571
20
-3.12152772753362
30
0
41
1
10
32.7872067532306
20
-3.12183109981589
30
0
41
1
10
33.5135304170278
20
-3.12242554541132
30
0
41
1
10
34.0787579242111
20
-3.12245572035107
30
0
41
1
10
34.4796122897558
20
-3.12305750609229
30
0
41
1
10
34.7978036449973
20
-3.12324349858949
30
0
41
1
10
35.2015164360872
20
-3.1232323538965
30
0
41
1
10
35.7307839194371
20
-3.12310167333212
30
0
41
1
10
36.3208135506296
20
-3.12442250469542
30
0
41
1
10
36.8586172760567
20
-3.12367680687973
30
0
41
1
10
37.5342885911687
20
-3.12470345481009
30
0
41
1
10
38.386778948367
20
-3.12404186613924
30
0
41
1
10
39.1548994718775
20
-3.12587778709258
30
0
41
1
10
39.6489956310313
20
-3.12560377249403
30
0
41
1
10
39.8690753628913
20
-3.12540755285408
30
0
41
1
10
40.1059773675501
20
-3.12521429093704
30
0
41
1
10
40.4553233821101
20
-3.12590837227117
30
0
41
1
10
40.9888047646671
20
-3.12745185937183
30
0
41
1
10
41.5329875067895
20
-3.12602957082652
30
0
41
1
10
41.8916486136246
20
-3.12626949956478
30
0
41
1
10
41.9967131538202
20
-3.12634162500368
30
0
0
SPLINE
5
F2
100
AcDbEntity
8
1
62
256
6
ByLayer
370
18
48
1
60
0
100
AcDbSpline
70
4
71
3
72
22
73
18
40
0
40
0
40
0
40
0
40
0.0972808011330329
40
0.187495755010639
40
0.269318359928524
40
0.336472275221019
40
0.393836332505339
40
0.463649839794754
40
0.544939899202713
40
0.619330903601742
40
0.681950901137136
40
0.706216512405452
40
0.733440896138656
40
0.782407147100647
40
0.853994194644458
40
0.948295859174311
40
1
40
1
40
1
40
1
41
1
10
10.1503260958102
20
-3.10774696918591
30
0
41
1
10
10.4730542896682
20
-3.10635226643504
30
0
41
1
10
11.0965832954082
20
-3.10490806842239
30
0
41
1
10
12.0090208002238
20
-3.10692876378056
30
0
41
1
10
12.8014437995348
20
-3.11042644306261
30
0
41
1
10
13.4964342669356
20
-3.11023585224012
30
0
41
1
10
14.1500899560182
20
-3.11073993768687
30
0
41
1
10
14.851692964955
20
-3.11162693277197
30
0
41
1
10
15.610654145434
20
-3.11159324494926
30
0
41
1
10
16.3453809591842
20
-3.11372176367831
30
0
41
1
10
16.8882273402259
20
-3.1127874499094
30
0
41
1
10
17.2722329907815
20
-3.1129125057945
30
0
41
1
10
17.6102572435269
20
-3.11395069425609
30
0
41
1
10
18.1076391614158
20
-3.11449725682559
30
0
41
1
10
18.8307647631359
20
-3.11334452241596
30
0
41
1
10
19.5631814031108
20
-3.11502467863417
30
0
41
1
10
20.0545215322235
20
-3.11547430890241
30
0
41
1
10
20.2285102695312
20
-3.11566465256084
30
0
0
SPLINE
5
F3
100
AcDbEntity
8
1
62
256
6
ByLayer
370
18
48
1
60
0
100
AcDbSpline
70
4
71
1
72
4
73
2
40
0
40
0
40
1
40
1
41
1
10
53.5759707659023
20
-3.1342114569328
30
0
41
1
10
53.8416793619492
20
-3.13380916234618
30
0
0
SPLINE
5
F4
100
AcDbEntity
8
1
62
256
6
ByLayer
370
18
48
1
60
0
100
AcDbSpline
70
4
71
3
72
28
73
24
40
0
40
0
40
0
40
0
40
0.0116427516612506
40
0.0815075354872207
40
0.132968636353501
40
0.162428884215478
40
0.193936850286674
40
0.22983224073969
40
0.270119717454498
40
0.313033283765666
40
0.351574953033884
40
0.409001868078049
40
0.451480814258343
40
0.504019578111717
40
0.571680644629169
40
0.646344158501266
40
0.709303451320933
40
0.760899282618439
40
0.791129450948658
40
0.825456390586668
40
0.886062485955737
40
0.974462090854914
40
1
40
1
40
1
40
1
41
1
10
41.9864484548081
20
3.1263558538102
30
0
41
1
10
41.9547579045228
20
3.1263427829212
30
0
41
1
10
41.7328989308734
20
3.12627195510058
30
0
41
1
10
41.3709121124717
20
3.12633252937701
30
0
41
1
10
40.9604167828953
20
3.12691806783525
30
0
41
1
10
40.6544420245104
20
3.12669185794766
30
0
41
1
10
40.390773269835
20
3.12577522597377
30
0
41
1
10
40.0976205580333
20
3.12515031734586
30
0
41
1
10
39.7734122035968
20
3.12551196419895
30
0
41
1
10
39.4419978232687
20
3.12575872142779
30
0
41
1
10
39.063925813273
20
3.1255461369166
30
0
41
1
10
38.6870359766345
20
3.12417968736025
30
0
41
1
10
38.2720476961172
20
3.12474153993227
30
0
41
1
10
37.8291929295534
20
3.12526919457216
30
0
41
1
10
37.2987265836236
20
3.12397532144422
30
0
41
1
10
36.7398914476587
20
3.12395856109126
30
0
41
1
10
36.2247895341094
20
3.12422950170677
30
0
41
1
10
35.8306485630959
20
3.12349677376798
30
0
41
1
10
35.5144505998954
20
3.12307733106744
30
0
41
1
10
35.1737781444452
20
3.12322806101108
30
0
41
1
10
34.6749076377405
20
3.12324192995396
30
0
41
1
10
34.1998324602201
20
3.12246267145605
30
0
41
1
10
33.8896615700783
20
3.12223202638634
30
0
41
1
10
33.8201387952727
20
3.12219023984611
30
0
0
SPLINE
5
F5
100
AcDbEntity
8
1
62
256
6
ByLayer
370
18
48
1
60
0
100
AcDbSpline
70
4
71
3
72
21
73
17
40
0
40
0
40
0
40
0
40
0.0697479314796984
40
0.180836074281311
40
0.264462308287406
40
0.331902146134273
40
0.416901988997929
40
0.492819041605262
40
0.553645705728868
40
0.625934802408337
40
0.715648763375456
40
0.804854208625157
40
0.847601688392536
40
0.890671297371902
40
0.948674362585473
40
1
40
1
40
1
40
1
41
1
10
20.3209475283954
20
3.11545719739288
30
0
41
1
10
20.1297374232749
20
3.11514237097808
30
0
41
1
10
19.6338003307493
20
3.11445089231188
30
0
41
1
10
18.9078261126964
20
3.11225742688893
30
0
41
1
10
18.1874279643867
20
3.11346418920826
30
0
41
1
10
17.542002234083
20
3.11413815678949
30
0
41
1
10
16.9159106164366
20
3.11236173841581
30
0
41
1
10
16.3069137358528
20
3.11335817358821
30
0
41
1
10
15.7334203048802
20
3.11181576646925
30
0
41
1
10
15.1219313285544
20
3.111933352633
30
0
41
1
10
14.4319962572812
20
3.1108227657605
30
0
41
1
10
13.8232371666921
20
3.11079534121637
30
0
41
1
10
13.3426213415143
20
3.11046371581196
30
0
41
1
10
12.9477491900187
20
3.10999563683211
30
0
41
1
10
12.5291886600664
20
3.10972387068154
30
0
41
1
10
12.2289775453857
20
3.10954124644115
30
0
41
1
10
12.0880379821498
20
3.10944287982133
30
0
0
LINE
5
7B
100
AcDbEntity
8
SK1
62
256
6
ByLayer
370
18
48
1
60
0
100
AcDbLine
10
-36
20
-0.37662
30
0
11
-36
21
-1.75103
31
0
39
0
210
0
220
0
230
1
0
LINE
5
7D
100
AcDbEntity
8
SK1
62
256
6
ByLayer
370
18
48
1
60
0
100
AcDbLine
10
0
20
-4
30
0
11
0
21
4
31
0
39
0
210
0
220
0
230
1
0
LINE
5
7E
100
AcDbEntity
8
SK1
62
256
6
ByLayer
370
18
48
1
60
0
100
AcDbLine
10
-36
20
-2.76
30
0
11
-36
21
-1.75103
31
0
39
0
210
0
220
0
230
1
0
LINE
5
7F
100
AcDbEntity
8
SK1
62
256
6
ByLayer
370
18
48
1
60
0
100
AcDbLine
10
-34.76
20
4
30
0
11
-34.76
21
-4
31
0
39
0
210
0
220
0
230
1
0
LINE
5
80
100
AcDbEntity
8
SK1
62
256
6
ByLayer
370
18
48
1
60
0
100
AcDbLine
10
-35.4
20
-1.915881
30
0
11
-35.4
21
-0.7247
31
0
39
0
210
0
220
0
230
1
0
LINE
5
81
100
AcDbEntity
8
SK1
62
256
6
ByLayer
370
18
48
1
60
0
100
AcDbLine
10
-36
20
2.76
30
0
11
-36
21
-0.376591
31
0
39
0
210
0
220
0
230
1
0
LINE
5
82
100
AcDbEntity
8
SK1
62
256
6
ByLayer
370
13
48
1
60
0
100
AcDbLine
10
-35.5
20
-0.583424
30
0
11
-35.5
21
-1.957857
31
0
39
0
210
0
220
0
230
1
0
LINE
5
83
100
AcDbEntity
8
1
62
256
6
ByLayer
370
13
48
1
60
0
100
AcDbLine
10
0.672339
20
3.633544
30
0
11
0.672339
21
-3.633544
31
0
39
0
210
0
220
0
230
1
0
LINE
5
84
100
AcDbEntity
8
1
62
256
6
ByLayer
370
18
48
1
60
0
100
AcDbLine
10
0
20
-4
30
0
11
0
21
4
31
0
39
0
210
0
220
0
230
1
0
LINE
5
85
100
AcDbEntity
8
1
62
256
6
ByLayer
370
13
48
1
60
0
100
AcDbLine
10
53.761029
20
0.713611
30
0
11
54.964262
21
-0.048064
31
0
39
0
210
0
220
0
230
1
0
LINE
5
86
100
AcDbEntity
8
1
62
256
6
ByLayer
370
13
48
1
60
0
100
AcDbLine
10
53.895032
20
0.810597
30
0
11
54.989441
21
0.11781
31
0
39
0
210
0
220
0
230
1
0
LINE
5
87
100
AcDbEntity
8
1
62
256
6
ByLayer
370
13
48
1
60
0
100
AcDbLine
10
1.345178
20
3.267088
30
0
11
1.345178
21
-3.267088
31
0
39
0
210
0
220
0
230
1
0
LINE
5
88
100
AcDbEntity
8
80
62
256
6
ByLayer
370
18
48
1
60
0
100
AcDbLine
10
0
20
0
30
0
11
-5
21
0
31
0
39
0
210
0
220
0
230
1
0
LINE
5
89
100
AcDbEntity
8
4
62
256
6
ByLayer
370
18
48
0.05
60
0
100
AcDbLine
10
55
20
0
30
0
11
0
21
0
31
0
39
0
210
0
220
0
230
1
0
LINE
5
8B
100
AcDbEntity
8
SK4
62
256
6
ByLayer
370
18
48
0.05
60
0
100
AcDbLine
10
60
20
0
30
0
11
-41
21
0
31
0
39
0
210
0
220
0
230
1
0
LINE
5
8D
100
AcDbEntity
8
SK1
62
256
6
ByLayer
370
18
48
1
60
0
100
AcDbLine
10
-34.76
20
-4
30
0
11
0
21
-4
31
0
39
0
210
0
220
0
230
1
0
LINE
5
8E
100
AcDbEntity
8
SK1
62
256
6
ByLayer
370
18
48
1
60
0
100
AcDbLine
10
0
20
4
30
0
11
-34.76
21
4
31
0
39
0
210
0
220
0
230
1
0
LINE
5
8F
100
AcDbEntity
8
SK1
62
256
6
ByLayer
370
18
48
1
60
0
100
AcDbLine
10
-36
20
-2.76
30
0
11
-34.76
21
-4
31
0
39
0
210
0
220
0
230
1
0
LINE
5
90
100
AcDbEntity
8
SK1
62
256
6
ByLayer
370
18
48
1
60
0
100
AcDbLine
10
-34.76
20
4
30
0
11
-36
21
2.76
31
0
39
0
210
0
220
0
230
1
0
LINE
5
91
100
AcDbEntity
8
1
62
256
6
ByLayer
370
18
48
1
60
0
100
AcDbLine
10
30.644748
20
-3.2854
30
0
11
31.721458
21
-3.286073
31
0
39
0
210
0
220
0
230
1
0
LINE
5
92
100
AcDbEntity
8
1
62
256
6
ByLayer
370
18
48
1
60
0
100
AcDbLine
10
1.345178
20
-3.267088
30
0
11
2.06785
21
-3.26754
31
0
39
0
210
0
220
0
230
1
0
LINE
5
93
100
AcDbEntity
8
1
62
256
6
ByLayer
370
18
48
1
60
0
100
AcDbLine
10
8.454705
20
-3.271531
30
0
11
9.971406
21
-3.272479
31
0
39
0
210
0
220
0
230
1
0
LINE
5
94
100
AcDbEntity
8
1
62
256
6
ByLayer
370
18
48
1
60
0
100
AcDbLine
10
52.395248
20
-3.298994
30
0
11
53.472032
21
-3.299667
31
0
39
0
210
0
220
0
230
1
0
LINE
5
95
100
AcDbEntity
8
1
62
256
6
ByLayer
370
18
48
1
60
0
100
AcDbLine
10
53.471795
20
3.299667
30
0
11
52.395248
21
3.298994
31
0
39
0
210
0
220
0
230
1
0
LINE
5
96
100
AcDbEntity
8
1
62
256
6
ByLayer
370
18
48
1
60
0
100
AcDbLine
10
31.721353
20
3.286073
30
0
11
30.644748
21
3.2854
31
0
39
0
210
0
220
0
230
1
0
LINE
5
97
100
AcDbEntity
8
1
62
256
6
ByLayer
370
18
48
1
60
0
100
AcDbLine
10
9.971388
20
3.272479
30
0
11
8.454705
21
3.271531
31
0
39
0
210
0
220
0
230
1
0
LINE
5
98
100
AcDbEntity
8
1
62
256
6
ByLayer
370
18
48
1
60
0
100
AcDbLine
10
2.06785
20
3.26754
30
0
11
1.345178
21
3.267088
31
0
39
0
210
0
220
0
230
1
0
LINE
5
99
100
AcDbEntity
8
81
62
256
6
ByLayer
370
18
48
1
60
0
100
AcDbLine
10
55
20
0
30
0
11
60
21
0
31
0
39
0
210
0
220
0
230
1
0
LINE
5
9A
100
AcDbEntity
8
SK2
62
256
6
ByLayer
370
13
48
1
60
0
100
AcDbLine
10
-44.625163
20
-4
30
0
11
-44.625163
21
33.117107
31
0
39
0
210
0
220
0
230
1
0
LINE
5
9C
100
AcDbEntity
8
SK2
62
256
6
ByLayer
370
13
48
1
60
0
100
AcDbLine
10
-37.5875
20
4
30
0
11
-46.625163
21
4
31
0
39
0
210
0
220
0
230
1
0
LINE
5
9D
100
AcDbEntity
8
SK2
62
256
6
ByLayer
370
13
48
1
60
0
100
AcDbLine
10
-37.5875
20
-4
30
0
11
-46.625163
21
-4
31
0
39
0
210
0
220
0
230
1
0
LINE
5
9E
100
AcDbEntity
8
1
62
256
6
ByLayer
370
18
48
1
60
1
100
AcDbLine
10
-44.625163
20
4
30
0
11
-44.164379
21
0.500002
31
0
39
0
210
0
220
0
230
1
0
LINE
5
9F
100
AcDbEntity
8
1
62
256
6
ByLayer
370
18
48
1
60
1
100
AcDbLine
10
-44.164379
20
0.500002
30
0
11
-45.085946
21
0.499998
31
0
39
0
210
0
220
0
230
1
0
LINE
5
A0
100
AcDbEntity
8
1
62
256
6
ByLayer
370
18
48
1
60
1
100
AcDbLine
10
-45.085946
20
0.499998
30
0
11
-44.625163
21
4
31
0
39
0
210
0
220
0
230
1
0
LINE
5
A1
100
AcDbEntity
8
1
62
256
6
ByLayer
370
18
48
1
60
1
100
AcDbLine
10
-44.625163
20
-4
30
0
11
-45.085946
21
-0.500002
31
0
39
0
210
0
220
0
230
1
0
LINE
5
A2
100
AcDbEntity
8
1
62
256
6
ByLayer
370
18
48
1
60
1
100
AcDbLine
10
-45.085946
20
-0.500002
30
0
11
-44.164379
21
-0.499998
31
0
39
0
210
0
220
0
230
1
0
LINE
5
A3
100
AcDbEntity
8
1
62
256
6
ByLayer
370
18
48
1
60
1
100
AcDbLine
10
-44.164379
20
-0.499998
30
0
11
-44.625163
21
-4
31
0
39
0
210
0
220
0
230
1
0
LINE
5
A4
100
AcDbEntity
8
2
62
256
6
ByLayer
370
13
48
1
60
0
100
AcDbLine
10
67.083343
20
31.010193
30
0
11
67.083343
21
-12.05
31
0
39
0
210
0
220
0
230
1
0
LINE
5
A6
100
AcDbEntity
8
2
62
256
6
ByLayer
370
13
48
1
60
0
100
AcDbLine
10
55.6159
20
3.3
30
0
11
69.083343
21
3.3
31
0
39
0
210
0
220
0
230
1
0
LINE
5
A7
100
AcDbEntity
8
2
62
256
6
ByLayer
370
13
48
1
60
0
100
AcDbLine
10
55.6159
20
-3.3
30
0
11
69.083343
21
-3.3
31
0
39
0
210
0
220
0
230
1
0
LINE
5
A8
100
AcDbEntity
8
1
62
256
6
ByLayer
370
18
48
1
60
1
100
AcDbLine
10
67.083343
20
3.3
30
0
11
66.622559
21
6.799998
31
0
39
0
210
0
220
0
230
1
0
LINE
5
A9
100
AcDbEntity
8
1
62
256
6
ByLayer
370
18
48
1
60
1
100
AcDbLine
10
66.622559
20
6.799998
30
0
11
67.544126
21
6.800002
31
0
39
0
210
0
220
0
230
1
0
LINE
5
AA
100
AcDbEntity
8
1
62
256
6
ByLayer
370
18
48
1
60
1
100
AcDbLine
10
67.544126
20
6.800002
30
0
11
67.083343
21
3.3
31
0
39
0
210
0
220
0
230
1
0
LINE
5
AB
100
AcDbEntity
8
1
62
256
6
ByLayer
370
18
48
1
60
1
100
AcDbLine
10
67.083343
20
-3.3
30
0
11
67.544126
21
-6.799998
31
0
39
0
210
0
220
0
230
1
0
LINE
5
AC
100
AcDbEntity
8
1
62
256
6
ByLayer
370
18
48
1
60
1
100
AcDbLine
10
67.544126
20
-6.799998
30
0
11
66.622559
21
-6.800002
31
0
39
0
210
0
220
0
230
1
0
LINE
5
AD
100
AcDbEntity
8
1
62
256
6
ByLayer
370
18
48
1
60
1
100
AcDbLine
10
66.622559
20
-6.800002
30
0
11
67.083343
21
-3.3
31
0
39
0
210
0
220
0
230
1
0
LINE
5
FC
100
AcDbEntity
8
1
62
256
6
ByLayer
370
18
48
1
60
1
100
AcDbLine
10
-44.625163
20
4
30
0
11
-44.164379
21
0.500002
31
0
39
0
210
0
220
0
230
1
0
LINE
5
FD
100
AcDbEntity
8
1
62
256
6
ByLayer
370
18
48
1
60
1
100
AcDbLine
10
-44.164379
20
0.500002
30
0
11
-45.085946
21
0.499998
31
0
39
0
210
0
220
0
230
1
0
LINE
5
FE
100
AcDbEntity
8
1
62
256
6
ByLayer
370
18
48
1
60
1
100
AcDbLine
10
-45.085946
20
0.499998
30
0
11
-44.625163
21
4
31
0
39
0
210
0
220
0
230
1
0
LINE
5
100
100
AcDbEntity
8
1
62
256
6
ByLayer
370
18
48
1
60
1
100
AcDbLine
10
-44.625163
20
-4
30
0
11
-45.085946
21
-0.500002
31
0
39
0
210
0
220
0
230
1
0
LINE
5
101
100
AcDbEntity
8
1
62
256
6
ByLayer
370
18
48
1
60
1
100
AcDbLine
10
-45.085946
20
-0.500002
30
0
11
-44.164379
21
-0.499998
31
0
39
0
210
0
220
0
230
1
0
LINE
5
102
100
AcDbEntity
8
1
62
256
6
ByLayer
370
18
48
1
60
1
100
AcDbLine
10
-44.164379
20
-0.499998
30
0
11
-44.625163
21
-4
31
0
39
0
210
0
220
0
230
1
0
LINE
5
106
100
AcDbEntity
8
1
62
256
6
ByLayer
370
18
48
1
60
1
100
AcDbLine
10
67.083343
20
3.3
30
0
11
66.622559
21
6.799998
31
0
39
0
210
0
220
0
230
1
0
LINE
5
107
100
AcDbEntity
8
1
62
256
6
ByLayer
370
18
48
1
60
1
100
AcDbLine
10
66.622559
20
6.799998
30
0
11
67.544126
21
6.800002
31
0
39
0
210
0
220
0
230
1
0
LINE
5
108
100
AcDbEntity
8
1
62
256
6
ByLayer
370
18
48
1
60
1
100
AcDbLine
10
67.544126
20
6.800002
30
0
11
67.083343
21
3.3
31
0
39
0
210
0
220
0
230
1
0
LINE
5
10A
100
AcDbEntity
8
1
62
256
6
ByLayer
370
18
48
1
60
1
100
AcDbLine
10
67.083343
20
-3.3
30
0
11
67.544126
21
-6.799998
31
0
39
0
210
0
220
0
230
1
0
LINE
5
10B
100
AcDbEntity
8
1
62
256
6
ByLayer
370
18
48
1
60
1
100
AcDbLine
10
67.544126
20
-6.799998
30
0
11
66.622559
21
-6.800002
31
0
39
0
210
0
220
0
230
1
0
LINE
5
10C
100
AcDbEntity
8
1
62
256
6
ByLayer
370
18
48
1
60
1
100
AcDbLine
10
66.622559
20
-6.800002
30
0
11
67.083343
21
-3.3
31
0
39
0
210
0
220
0
230
1
0
MTEXT
5
F6
100
AcDbEntity
8
SK6
62
256
6
ByLayer
370
13
48
1
60
0
100
AcDbMText
10
-19.645193
20
35.840328
30
0
210
0
220
0
230
1
1
\W0.7670;462.1-0660-033A1-XM X2BM
40
3.5
41
0
44
1.084337
50
0
71
7
72
5
7
iso_b_vert
0
MTEXT
5
FA
100
AcDbEntity
8
SK2
62
256
6
ByLayer
370
18
48
1
60
0
100
AcDbMText
10
-46.189796
20
17.409024
30
0
210
0
220
0
230
1
1
%%c
40
3.5
41
0
44
1.084337
50
90
71
7
72
5
7
iso_b_vert
0
MTEXT
5
FB
100
AcDbEntity
8
SK2
62
256
6
ByLayer
370
18
48
1
60
0
100
AcDbMText
10
-46.189796
20
22.63168
30
0
210
0
220
0
230
1
1
\W0.7317;8,000
40
3.5
41
0
44
1.084337
50
90
71
7
72
5
7
iso_b_vert
0
MTEXT
5
104
100
AcDbEntity
8
2
62
256
6
ByLayer
370
18
48
1
60
0
100
AcDbMText
10
65.518709
20
15.30211
30
0
210
0
220
0
230
1
1
%%c
40
3.5
41
0
44
1.084337
50
90
71
7
72
5
7
iso_b_vert
0
MTEXT
5
105
100
AcDbEntity
8
2
62
256
6
ByLayer
370
18
48
1
60
0
100
AcDbMText
10
65.518709
20
20.524766
30
0
210
0
220
0
230
1
1
\W0.7317;6,600
40
3.5
41
0
44
1.084337
50
90
71
7
72
5
7
iso_b_vert
0
HATCH
5
FF
100
AcDbEntity
8
SK2
62
256
6
ByLayer
370
13
48
1
60
0
100
AcDbHatch
10
0
20
0
30
0
210
0
220
0
230
1
2
ANSI31
70
0
71
0
91
1
92
5
93
3
72
1
10
-44.6251625675374
20
4
11
-44.1643788259847
21
0.500001692553184
72
1
10
-44.1643788259847
20
0.500001692553184
11
-45.0859463090902
21
0.499998307446816
72
1
10
-45.0859463090902
20
0.499998307446816
11
-44.6251625675374
21
4
97
0
75
0
76
1
52
0
41
0.0062
77
0
78
1
53
45
43
0
44
0
45
-0.0139193969876572
46
0.0139193969876572
79
0
47
0
98
1
10
0
20
0
0
HATCH
5
103
100
AcDbEntity
8
SK2
62
256
6
ByLayer
370
13
48
1
60
0
100
AcDbHatch
10
0
20
0
30
0
210
0
220
0
230
1
2
ANSI31
70
0
71
0
91
1
92
5
93
3
72
1
10
-44.6251625675374
20
-4
11
-45.0859463090902
21
-0.500001692553184
72
1
10
-45.0859463090902
20
-0.500001692553184
11
-44.1643788259847
21
-0.499998307446816
72
1
10
-44.1643788259847
20
-0.499998307446816
11
-44.6251625675374
21
-4
97
0
75
0
76
1
52
0
41
0.0062
77
0
78
1
53
45
43
0
44
0
45
-0.0139193969876572
46
0.0139193969876572
79
0
47
0
98
1
10
0
20
0
0
HATCH
5
109
100
AcDbEntity
8
2
62
256
6
ByLayer
370
13
48
1
60
0
100
AcDbHatch
10
0
20
0
30
0
210
0
220
0
230
1
2
ANSI31
70
0
71
0
91
1
92
5
93
3
72
1
10
67.083342615295
20
3.30000000000001
11
66.6225588737423
21
6.79999830744683
72
1
10
66.6225588737423
20
6.79999830744683
11
67.5441263568478
21
6.8000016925532
72
1
10
67.5441263568478
20
6.8000016925532
11
67.083342615295
21
3.30000000000001
97
0
75
0
76
1
52
0
41
0.0062
77
0
78
1
53
45
43
0
44
0
45
-0.0139193969876572
46
0.0139193969876572
79
0
47
0
98
1
10
0
20
0
0
HATCH
5
10D
100
AcDbEntity
8
2
62
256
6
ByLayer
370
13
48
1
60
0
100
AcDbHatch
10
0
20
0
30
0
210
0
220
0
230
1
2
ANSI31
70
0
71
0
91
1
92
5
93
3
72
1
10
67.083342615295
20
-3.29999999999998
11
67.5441263568478
21
-6.7999983074468
72
1
10
67.5441263568478
20
-6.7999983074468
11
66.6225588737423
21
-6.80000169255317
72
1
10
66.6225588737423
20
-6.80000169255317
11
67.083342615295
21
-3.29999999999998
97
0
75
0
76
1
52
0
41
0.0062
77
0
78
1
53
45
43
0
44
0
45
-0.0139193969876572
46
0.0139193969876572
79
0
47
0
98
1
10
0
20
0
0
DIMENSION
5
10F
100
AcDbEntity
8
SK2
62
256
6
ByLayer
370
13
48
1
60
0
100
AcDbDimension
2
_U0
10
54.0284
20
-13.513398
30
0
11
27.0142
21
-13.513398
31
0
70
32
71
1
72
1
41
1
210
0
220
0
230
1
3
Standard
100
AcDbAlignedDimension
13
0
23
0
33
0
14
54.0284
24
-3.3
34
0
50
0
100
AcDbRotatedDimension
1001
ACAD
1000
DSTYLE
1002
{
1070
   371
1070
    13
1070
   372
1070
    13
1070
   170
1070
     0
1070
   144
1040
1.0
1070
   277
1070
     2
1070
   278
1070
    44
1070
   146
1040
1.0
1070
   345
1005
16
1070
   347
1005
16
1070
   346
1005
16
1070
   344
1005
0
1070
   343
1005
0
1070
   172
1070
     1
1070
    76
1070
     0
1070
    75
1070
     0
1070
   282
1070
     0
1070
   281
1070
     0
1070
    71
1070
     0
1070
    74
1070
     0
1070
   279
1070
     0
1070
   173
1070
     1
1070
   340
1005
F7
1070
   271
1070
     2
1070
   272
1070
     2
1070
    77
1070
     1
1070
    73
1070
     1
1070
   171
1070
     3
1070
   274
1070
     4
1070
   177
1070
    35
1070
   176
1070
    35
1070
   178
1070
    35
1070
    48
1040
-0.1
1070
    41
1040
3.5
1070
   147
1040
1.75
1070
    42
1040
1.5875
1070
    44
1040
2.0
1070
   140
1040
3.5
1002
}
1001
ACAD_DSTYLE_DIM_LINETYPE
1070
   380
1005
16
1001
ACAD_DSTYLE_DIM_EXT1_LINETYPE
1070
   381
1005
16
1001
ACAD_DSTYLE_DIM_EXT2_LINETYPE
1070
   382
1005
16
0
DIMENSION
5
128
100
AcDbEntity
8
SK2
62
256
6
ByLayer
370
13
48
1
60
0
100
AcDbDimension
2
_U1
10
55
20
-32.692985
30
0
11
9.5
21
-32.692985
31
0
70
32
71
1
72
1
41
1
210
0
220
0
230
1
3
Standard
100
AcDbAlignedDimension
13
-36
23
-4
33
0
14
55
24
0
34
0
50
0
100
AcDbRotatedDimension
1001
ACAD
1000
DSTYLE
1002
{
1070
   371
1070
    13
1070
   372
1070
    13
1070
   170
1070
     0
1070
   144
1040
1.0
1070
   277
1070
     2
1070
   278
1070
    44
1070
   146
1040
1.0
1070
   345
1005
16
1070
   347
1005
16
1070
   346
1005
16
1070
   344
1005
0
1070
   343
1005
0
1070
   172
1070
     1
1070
    76
1070
     0
1070
    75
1070
     0
1070
   282
1070
     0
1070
   281
1070
     0
1070
    71
1070
     0
1070
    74
1070
     0
1070
   279
1070
     0
1070
   173
1070
     1
1070
   340
1005
F7
1070
   271
1070
     2
1070
   272
1070
     2
1070
    77
1070
     1
1070
    73
1070
     1
1070
   171
1070
     3
1070
   274
1070
     4
1070
   177
1070
    35
1070
   176
1070
    35
1070
   178
1070
    35
1070
    48
1040
-0.1
1070
    41
1040
3.5
1070
   147
1040
1.75
1070
    42
1040
1.5875
1070
    44
1040
2.0
1070
   140
1040
3.5
1002
}
1001
ACAD_DSTYLE_DIM_LINETYPE
1070
   380
1005
16
1001
ACAD_DSTYLE_DIM_EXT1_LINETYPE
1070
   381
1005
16
1001
ACAD_DSTYLE_DIM_EXT2_LINETYPE
1070
   382
1005
16
0
DIMENSION
5
140
100
AcDbEntity
8
SK2
62
256
6
ByLayer
370
13
48
1
60
0
100
AcDbDimension
2
_U2
10
55
20
14.909119
30
0
11
38.015
21
14.909119
31
0
70
32
71
1
72
1
41
1
210
0
220
0
230
1
3
Standard
100
AcDbAlignedDimension
13
21.03
23
3.3
33
0
14
55
24
0
34
0
50
0
100
AcDbRotatedDimension
1001
ACAD
1000
DSTYLE
1002
{
1070
   371
1070
    13
1070
   372
1070
    13
1070
   170
1070
     0
1070
   144
1040
1.0
1070
   277
1070
     2
1070
   278
1070
    44
1070
   146
1040
1.0
1070
   345
1005
16
1070
   347
1005
16
1070
   346
1005
16
1070
   344
1005
0
1070
   343
1005
0
1070
   172
1070
     1
1070
    76
1070
     0
1070
    75
1070
     0
1070
   282
1070
     0
1070
   281
1070
     0
1070
    71
1070
     0
1070
    74
1070
     0
1070
   279
1070
     0
1070
   173
1070
     1
1070
   340
1005
F7
1070
   271
1070
     2
1070
   272
1070
     2
1070
    77
1070
     1
1070
    73
1070
     1
1070
   171
1070
     3
1070
   274
1070
     4
1070
   177
1070
    35
1070
   176
1070
    35
1070
   178
1070
    35
1070
    48
1040
-0.1
1070
    41
1040
3.5
1070
   147
1040
1.75
1070
    42
1040
1.5875
1070
    44
1040
2.0
1070
   140
1040
3.5
1002
}
1001
ACAD_DSTYLE_DIM_LINETYPE
1070
   380
1005
16
1001
ACAD_DSTYLE_DIM_EXT1_LINETYPE
1070
   381
1005
16
1001
ACAD_DSTYLE_DIM_EXT2_LINETYPE
1070
   382
1005
16
0
DIMENSION
5
158
100
AcDbEntity
8
SK2
62
256
6
ByLayer
370
13
48
1
60
0
100
AcDbDimension
2
_U3
10
54.0284
20
-16.102503
30
0
11
72.583333
21
-16.102503
31
0
70
32
71
1
72
1
41
1
210
0
220
0
230
1
3
Standard
100
AcDbAlignedDimension
13
55
23
0
33
0
14
54.0284
24
-3.3
34
0
50
0
100
AcDbRotatedDimension
1001
ACAD
1000
DSTYLE
1002
{
1070
   371
1070
    13
1070
   372
1070
    13
1070
   170
1070
     0
1070
   144
1040
1.0
1070
   277
1070
     2
1070
   278
1070
    44
1070
   146
1040
1.0
1070
   345
1005
16
1070
   347
1005
16
1070
   346
1005
16
1070
   344
1005
0
1070
   343
1005
0
1070
   172
1070
     1
1070
    76
1070
     0
1070
    75
1070
     0
1070
   282
1070
     0
1070
   281
1070
     0
1070
    71
1070
     0
1070
    74
1070
     0
1070
   279
1070
     0
1070
   173
1070
     1
1070
   340
1005
F7
1070
   271
1070
     2
1070
   272
1070
     2
1070
    77
1070
     1
1070
    73
1070
     1
1070
   171
1070
     3
1070
   274
1070
     4
1070
   177
1070
    35
1070
   176
1070
    35
1070
   178
1070
    35
1070
    48
1040
-0.1
1070
    41
1040
3.5
1070
   147
1040
1.75
1070
    42
1040
1.5875
1070
    44
1040
2.0
1070
   140
1040
3.5
1002
}
1001
ACAD_DSTYLE_DIM_LINETYPE
1070
   380
1005
16
1001
ACAD_DSTYLE_DIM_EXT1_LINETYPE
1070
   381
1005
16
1001
ACAD_DSTYLE_DIM_EXT2_LINETYPE
1070
   382
1005
16
0
DIMENSION
5
172
100
AcDbEntity
8
SK2
62
256
6
ByLayer
370
13
48
1
60
0
100
AcDbDimension
2
_U4
10
54.0284
20
-22.343428
30
0
11
9.0142
21
-22.343428
31
0
70
32
71
1
72
1
41
1
210
0
220
0
230
1
3
Standard
100
AcDbAlignedDimension
13
-36
23
-4
33
0
14
54.0284
24
-3.3
34
0
50
0
100
AcDbRotatedDimension
1001
ACAD
1000
DSTYLE
1002
{
1070
   371
1070
    13
1070
   372
1070
    13
1070
   170
1070
     0
1070
   144
1040
1.0
1070
   277
1070
     2
1070
   278
1070
    44
1070
   146
1040
1.0
1070
   345
1005
16
1070
   347
1005
16
1070
   346
1005
16
1070
   344
1005
0
1070
   343
1005
0
1070
   172
1070
     1
1070
    76
1070
     0
1070
    75
1070
     0
1070
   282
1070
     0
1070
   281
1070
     0
1070
    71
1070
     0
1070
    74
1070
     0
1070
   279
1070
     0
1070
   173
1070
     1
1070
   340
1005
F7
1070
   271
1070
     2
1070
   272
1070
     2
1070
    77
1070
     1
1070
    73
1070
     1
1070
   171
1070
     3
1070
   274
1070
     4
1070
   177
1070
    35
1070
   176
1070
    35
1070
   178
1070
    35
1070
    48
1040
-0.1
1070
    41
1040
3.5
1070
   147
1040
1.75
1070
    42
1040
1.5875
1070
    44
1040
2.0
1070
   140
1040
3.5
1002
}
1001
ACAD_DSTYLE_DIM_LINETYPE
1070
   380
1005
16
1001
ACAD_DSTYLE_DIM_EXT1_LINETYPE
1070
   381
1005
16
1001
ACAD_DSTYLE_DIM_EXT2_LINETYPE
1070
   382
1005
16
0
ENDSEC
0
SECTION
2
OBJECTS
0
DICTIONARY
5
1fa
330
0
100
AcDbDictionary
280
0
281
1
3
ACAD_GROUP
350
1fb
3
ACAD_MLINESTYLE
350
1fc
0
DICTIONARY
5
1fb
330
0
100
AcDbDictionary
280
0
281
1
0
DICTIONARY
5
1fc
330
0
100
AcDbDictionary
280
0
281
1
3
Standard
350
18
0
MLINESTYLE
5
18
330
1fc
100
AcDbMlineStyle
2
Standard
70
0
3

62
256
51
90
52
90
71
2
49
-0.5
62
256
6
ByLayer
49
0.5
62
256
6
ByLayer
0
RASTERVARIABLES
5
1e8
330

100
AcDbRasterVariables
90
0
70
1
71
1
72
1
0
ENDSEC
0
EOF
