0
SECTION
2
HEADER
9
$ACADVER
1
AC1015
9
$DWGCODEPAGE
3
ANSI_1252
9
$HANDSEED
5
20f
9
$ANGBASE
50
0
9
$ANGDIR
70
0
9
$ATTMODE
70
1
9
$AUNITS
70
0
9
$AUPREC
70
0
9
$CECOLOR
62
256
9
$CELTSCALE
40
1
9
$CELTYPE
6
ByLayer
9
$CELWEIGHT
370
18
9
$CLAYER
8
0
9
$CMLJUST
70
0
9
$CMLSCALE
40
1
9
$CMLSTYLE
2
Standard
9
$DIMSTYLE
2
Standard
9
$TEXTSIZE
40
0.2
9
$TEXTSTYLE
7
Standard
9
$LUNITS
70
2
9
$LUPREC
70
4
9
$EXTNAMES
290
1
9
$INSUNITS
70
4
9
$LTSCALE
40
1
9
$LWDISPLAY
290
1
9
$PDMODE
70
0
9
$PDSIZE
40
0
9
$PLINEGEN
70
0
0
ENDSEC
0
SECTION
2
CLASSES
0
CLASS
1
RASTERVARIABLES
2
AcDbRasterVariables
3
ISM
90
0
280
0
281
0
0
ENDSEC
0
SECTION
2
TABLES
0
TABLE
2
VPORT
5
205
100
AcDbSymbolTable
0
VPORT
5
1
100
AcDbSymbolTableRecord
100
AcDbViewportTableRecord
2
*Active
70
0
10
0
20
0
11
1
21
1
12
-1
22
1
13
0
23
0
14
0.5
24
0.5
15
10
25
10
16
0
26
0
36
1
17
0
27
0
37
0
0
ENDTAB
0
TABLE
2
LTYPE
5
206
100
AcDbSymbolTable
0
LTYPE
5
14
100
AcDbSymbolTableRecord
100
AcDbLinetypeTableRecord
70
0
2
ByBlock
3

72
65
73
0
40
0
0
LTYPE
5
15
100
AcDbSymbolTableRecord
100
AcDbLinetypeTableRecord
70
0
2
ByLayer
3

72
65
73
0
40
0
0
LTYPE
5
16
100
AcDbSymbolTableRecord
100
AcDbLinetypeTableRecord
70
0
2
Continuous
3
Solid line
72
65
73
0
40
0
0
LTYPE
5
6E
100
AcDbSymbolTableRecord
100
AcDbLinetypeTableRecord
70
0
2
CENTER
3
____ _ ____ _ ____ _ ____
72
65
73
4
40
47.5
49
22
74
0
49
-8.5
74
0
49
8.5
74
0
49
-8.5
74
0
0
LTYPE
5
6F
100
AcDbSymbolTableRecord
100
AcDbLinetypeTableRecord
70
0
2
DASHED
3
__ __ __ __ __ __ __ __ __
72
65
73
2
40
25.72
49
12.86
74
0
49
-12.86
74
0
0
ENDTAB
0
TABLE
2
LAYER
5
207
100
AcDbSymbolTable
0
LAYER
5
10
100
AcDbSymbolTableRecord
100
AcDbLayerTableRecord
2
0
70
0
62
7
6
Continuous
290
1
370
-3
390
0
0
LAYER
5
71
100
AcDbSymbolTableRecord
100
AcDbLayerTableRecord
2
80
70
0
62
-6
6
Continuous
290
1
370
-3
390
0
0
LAYER
5
73
100
AcDbSymbolTableRecord
100
AcDbLayerTableRecord
2
81
70
0
62
-3
6
Continuous
290
1
370
-3
390
0
0
LAYER
5
75
100
AcDbSymbolTableRecord
100
AcDbLayerTableRecord
2
1
70
0
62
4
6
Continuous
290
1
370
-3
390
0
0
LAYER
5
8B
100
AcDbSymbolTableRecord
100
AcDbLayerTableRecord
2
4
70
0
62
-2
6
CENTER
290
1
370
-3
390
0
0
LAYER
5
A6
100
AcDbSymbolTableRecord
100
AcDbLayerTableRecord
2
2
70
0
62
7
6
Continuous
290
1
370
-3
390
0
0
LAYER
5
11A
100
AcDbSymbolTableRecord
100
AcDbLayerTableRecord
2
Defpoints
70
0
62
7
6
Continuous
290
0
370
-3
390
0
0
LAYER
5
1f1
100
AcDbSymbolTableRecord
100
AcDbLayerTableRecord
2
SK1
70
0
62
4
6
Continuous
290
1
370
-3
390
0
0
LAYER
5
1f2
100
AcDbSymbolTableRecord
100
AcDbLayerTableRecord
2
SK4
70
0
62
2
6
CENTER
290
1
370
-3
390
0
0
LAYER
5
1f3
100
AcDbSymbolTableRecord
100
AcDbLayerTableRecord
2
SK2
70
0
62
7
6
Continuous
290
1
370
-3
390
0
0
LAYER
5
1f4
100
AcDbSymbolTableRecord
100
AcDbLayerTableRecord
2
SK6
70
0
62
5
6
Continuous
290
1
370
-3
390
0
0
ENDTAB
0
TABLE
2
STYLE
5
208
100
AcDbSymbolTable
0
STYLE
5
11
100
AcDbSymbolTableRecord
100
AcDbTextStyleTableRecord
2
Standard
3
txt
70
0
71
0
40
0
41
1
42
0
50
0
0
STYLE
5
FF
100
AcDbSymbolTableRecord
100
AcDbTextStyleTableRecord
2
iso_b_vert
3
simplex.shx
70
0
71
0
40
0
41
1
42
0
50
0
0
STYLE
5
100
100
AcDbSymbolTableRecord
100
AcDbTextStyleTableRecord
2
DWGDirectTextStyle
3
simplex
70
0
71
0
40
0
41
1
42
0
50
0
0
ENDTAB
0
TABLE
2
DIMSTYLE
5
209
100
AcDbSymbolTable
100
AcDbDimStyleTable
0
DIMSTYLE
105
27
100
AcDbSymbolTableRecord
100
AcDbDimStyleTableRecord
2
Standard
70
0
3
<>
41
0.18
42
0.0625
44
0.18
140
0.18
147
0.09
73
0
74
0
77
1
271
2
275
0
278
52
280
0
340
11
0
ENDTAB
0
TABLE
2
VIEW
5
20a
100
AcDbSymbolTable
0
ENDTAB
0
TABLE
2
UCS
5
20b
100
AcDbSymbolTable
0
ENDTAB
0
TABLE
2
APPID
5
20c
100
AcDbSymbolTable
0
APPID
5
12
100
AcDbSymbolTableRecord
100
AcDbRegAppTableRecord
2
ACAD
70
0
0
APPID
5
116
100
AcDbSymbolTableRecord
100
AcDbRegAppTableRecord
2
ACAD_DSTYLE_DIMBREAK
70
0
0
APPID
5
1B0
100
AcDbSymbolTableRecord
100
AcDbRegAppTableRecord
2
ACAD_DSTYLE_DIM_LINETYPE
70
0
0
APPID
5
1B1
100
AcDbSymbolTableRecord
100
AcDbRegAppTableRecord
2
ACAD_DSTYLE_DIM_EXT1_LINETYPE
70
0
0
APPID
5
1B2
100
AcDbSymbolTableRecord
100
AcDbRegAppTableRecord
2
ACAD_DSTYLE_DIM_EXT2_LINETYPE
70
0
0
APPID
5
1ED
100
AcDbSymbolTableRecord
100
AcDbRegAppTableRecord
2
ACAD_MLEADERVER
70
0
0
ENDTAB
0
TABLE
2
BLOCK_RECORD
5
20d
100
AcDbSymbolTable
0
BLOCK_RECORD
5
1F
100
AcDbSymbolTableRecord
100
AcDbBlockTableRecord
2
*Model_Space
340
0
70
0
0
BLOCK_RECORD
5
1B
100
AcDbSymbolTableRecord
100
AcDbBlockTableRecord
2
*Paper_Space
340
0
70
0
0
BLOCK_RECORD
5
23
100
AcDbSymbolTableRecord
100
AcDbBlockTableRecord
2
*Paper_Space0
340
0
70
0
0
BLOCK_RECORD
5
11B
100
AcDbSymbolTableRecord
100
AcDbBlockTableRecord
2
*D1
340
0
70
0
0
BLOCK_RECORD
5
127
100
AcDbSymbolTableRecord
100
AcDbBlockTableRecord
2
_U0
340
0
70
0
0
BLOCK_RECORD
5
133
100
AcDbSymbolTableRecord
100
AcDbBlockTableRecord
2
*D3
340
0
70
0
0
BLOCK_RECORD
5
13F
100
AcDbSymbolTableRecord
100
AcDbBlockTableRecord
2
_U1
340
0
70
0
0
BLOCK_RECORD
5
14B
100
AcDbSymbolTableRecord
100
AcDbBlockTableRecord
2
*D5
340
0
70
0
0
BLOCK_RECORD
5
157
100
AcDbSymbolTableRecord
100
AcDbBlockTableRecord
2
_U2
340
0
70
0
0
BLOCK_RECORD
5
163
100
AcDbSymbolTableRecord
100
AcDbBlockTableRecord
2
*D7
340
0
70
0
0
BLOCK_RECORD
5
171
100
AcDbSymbolTableRecord
100
AcDbBlockTableRecord
2
_U3
340
0
70
0
0
BLOCK_RECORD
5
17D
100
AcDbSymbolTableRecord
100
AcDbBlockTableRecord
2
*D9
340
0
70
0
0
BLOCK_RECORD
5
189
100
AcDbSymbolTableRecord
100
AcDbBlockTableRecord
2
_U4
340
0
70
0
0
ENDTAB
0
ENDSEC
0
SECTION
2
BLOCKS
0
BLOCK
5
20
100
AcDbEntity
8
0
100
AcDbBlockBegin
2
*Model_Space
70
0
10
0
20
0
30
0
3
*Model_Space
0
ENDBLK
5
21
100
AcDbEntity
8
0
100
AcDbBlockEnd
0
BLOCK
5
1C
100
AcDbEntity
8
0
100
AcDbBlockBegin
2
*Paper_Space
70
0
10
0
20
0
30
0
3
*Paper_Space
0
ENDBLK
5
1D
100
AcDbEntity
8
0
100
AcDbBlockEnd
0
BLOCK
5
24
100
AcDbEntity
8
0
100
AcDbBlockBegin
2
*Paper_Space0
70
0
10
0
20
0
30
0
3
*Paper_Space0
0
ENDBLK
5
25
100
AcDbEntity
8
0
100
AcDbBlockEnd
0
BLOCK
5
11C
100
AcDbEntity
8
0
100
AcDbBlockBegin
2
*D1
70
1
10
0
20
0
30
0
3
*D1
0
LINE
5
11E
100
AcDbEntity
8
0
62
256
6
ByLayer
370
-2
48
1
60
0
100
AcDbLine
10
0
20
-1.5875
30
0
11
0
21
-14.913398
31
0
39
0
210
0
220
0
230
1
0
LINE
5
11F
100
AcDbEntity
8
0
62
256
6
ByLayer
370
-2
48
1
60
0
100
AcDbLine
10
45.2092
20
-4.2875
30
0
11
45.2092
21
-14.913398
31
0
39
0
210
0
220
0
230
1
0
LINE
5
120
100
AcDbEntity
8
0
62
256
6
ByLayer
370
-2
48
1
60
0
100
AcDbLine
10
3.5
20
-12.913398
30
0
11
41.7092
21
-12.913398
31
0
39
0
210
0
220
0
230
1
0
SOLID
5
121
100
AcDbEntity
8
0
62
256
6
ByLayer
370
-1
48
1
60
0
100
AcDbTrace
10
3.5
20
-12.330065
30
0
11
3.5
21
-13.496732
31
0
12
0
22
-12.913398
32
0
13
0
23
-12.913398
33
0
39
0
210
0
220
0
230
1
0
SOLID
5
122
100
AcDbEntity
8
0
62
256
6
ByLayer
370
-1
48
1
60
0
100
AcDbTrace
10
41.7092
20
-13.496732
30
0
11
41.7092
21
-12.330065
31
0
12
45.2092
22
-12.913398
32
0
13
45.2092
23
-12.913398
33
0
39
0
210
0
220
0
230
1
0
MTEXT
5
123
100
AcDbEntity
8
0
62
256
6
ByLayer
370
18
48
1
60
0
100
AcDbMText
10
22.6046
20
-5.913398
30
0
210
0
220
0
230
1
1
\A1;45.21
40
3.5
41
0
44
1
50
0
71
5
72
5
7
iso_b_vert
0
POINT
5
124
100
AcDbEntity
8
Defpoints
62
0
6
ByLayer
370
-1
48
1
60
0
100
AcDbPoint
10
0
20
0
30
0
39
0
210
0
220
0
230
1
50
360
0
POINT
5
125
100
AcDbEntity
8
Defpoints
62
0
6
ByLayer
370
-1
48
1
60
0
100
AcDbPoint
10
45.2092
20
-2.7
30
0
39
0
210
0
220
0
230
1
50
360
0
POINT
5
126
100
AcDbEntity
8
Defpoints
62
0
6
ByLayer
370
-1
48
1
60
0
100
AcDbPoint
10
45.2092
20
-12.913398
30
0
39
0
210
0
220
0
230
1
50
360
0
ENDBLK
5
11D
100
AcDbEntity
8
0
100
AcDbBlockEnd
0
BLOCK
5
12E
100
AcDbEntity
8
0
100
AcDbBlockBegin
2
_U0
70
0
10
0
20
0
30
0
3
_U0
0
MTEXT
5
128
100
AcDbEntity
8
SK2
62
256
6
ByLayer
370
13
48
1
60
0
100
AcDbMText
10
17.720468
20
-11.880765
30
0
210
0
220
0
230
1
1
\W0.7494;45,21
40
3.5
41
0
44
1.084337
50
0
71
7
72
5
7
iso_b_vert
0
LINE
5
129
100
AcDbEntity
8
SK2
62
256
6
ByLayer
370
13
48
1
60
0
100
AcDbLine
10
0
20
-1.5875
30
0
11
0
21
-14.913398
31
0
39
0
210
0
220
0
230
1
0
LINE
5
12A
100
AcDbEntity
8
SK2
62
256
6
ByLayer
370
13
48
1
60
0
100
AcDbLine
10
45.2092
20
-4.2875
30
0
11
45.2092
21
-14.913398
31
0
39
0
210
0
220
0
230
1
0
LINE
5
12B
100
AcDbEntity
8
SK2
62
256
6
ByLayer
370
13
48
1
60
0
100
AcDbLine
10
0
20
-12.913398
30
0
11
45.2092
21
-12.913398
31
0
39
0
210
0
220
0
230
1
0
SOLID
5
12C
100
AcDbEntity
8
SK2
62
256
6
ByLayer
370
18
48
1
60
0
100
AcDbTrace
10
0
20
-12.913398
30
0
11
3.499998
21
-12.452615
31
0
12
3.500002
22
-13.374182
32
0
13
3.500002
23
-13.374182
33
0
39
0
210
0
220
0
230
1
0
SOLID
5
12D
100
AcDbEntity
8
SK2
62
256
6
ByLayer
370
18
48
1
60
0
100
AcDbTrace
10
45.2092
20
-12.913398
30
0
11
41.709202
21
-13.374182
31
0
12
41.709198
22
-12.452615
32
0
13
41.709198
23
-12.452615
33
0
39
0
210
0
220
0
230
1
0
ENDBLK
5
12F
100
AcDbEntity
8
0
100
AcDbBlockEnd
0
BLOCK
5
134
100
AcDbEntity
8
0
100
AcDbBlockBegin
2
*D3
70
1
10
0
20
0
30
0
3
*D3
0
LINE
5
136
100
AcDbEntity
8
0
62
256
6
ByLayer
370
-2
48
1
60
0
100
AcDbLine
10
-36
20
-4.5875
30
0
11
-36
21
-33.692985
31
0
39
0
210
0
220
0
230
1
0
LINE
5
137
100
AcDbEntity
8
0
62
256
6
ByLayer
370
-2
48
1
60
0
100
AcDbLine
10
46
20
-1.5875
30
0
11
46
21
-33.692985
31
0
39
0
210
0
220
0
230
1
0
LINE
5
138
100
AcDbEntity
8
0
62
256
6
ByLayer
370
-2
48
1
60
0
100
AcDbLine
10
-32.5
20
-31.692985
30
0
11
42.5
21
-31.692985
31
0
39
0
210
0
220
0
230
1
0
SOLID
5
139
100
AcDbEntity
8
0
62
256
6
ByLayer
370
-1
48
1
60
0
100
AcDbTrace
10
-32.5
20
-31.109652
30
0
11
-32.5
21
-32.276319
31
0
12
-36
22
-31.692985
32
0
13
-36
23
-31.692985
33
0
39
0
210
0
220
0
230
1
0
SOLID
5
13A
100
AcDbEntity
8
0
62
256
6
ByLayer
370
-1
48
1
60
0
100
AcDbTrace
10
42.5
20
-32.276319
30
0
11
42.5
21
-31.109652
31
0
12
46
22
-31.692985
32
0
13
46
23
-31.692985
33
0
39
0
210
0
220
0
230
1
0
MTEXT
5
13B
100
AcDbEntity
8
0
62
256
6
ByLayer
370
18
48
1
60
0
100
AcDbMText
10
5
20
-24.692985
30
0
210
0
220
0
230
1
1
\A1;82.00
40
3.5
41
0
44
1
50
0
71
5
72
5
7
iso_b_vert
0
POINT
5
13C
100
AcDbEntity
8
Defpoints
62
0
6
ByLayer
370
-1
48
1
60
0
100
AcDbPoint
10
-36
20
-3
30
0
39
0
210
0
220
0
230
1
50
360
0
POINT
5
13D
100
AcDbEntity
8
Defpoints
62
0
6
ByLayer
370
-1
48
1
60
0
100
AcDbPoint
10
46
20
0
30
0
39
0
210
0
220
0
230
1
50
360
0
POINT
5
13E
100
AcDbEntity
8
Defpoints
62
0
6
ByLayer
370
-1
48
1
60
0
100
AcDbPoint
10
46
20
-31.692985
30
0
39
0
210
0
220
0
230
1
50
360
0
ENDBLK
5
135
100
AcDbEntity
8
0
100
AcDbBlockEnd
0
BLOCK
5
146
100
AcDbEntity
8
0
100
AcDbBlockBegin
2
_U1
70
0
10
0
20
0
30
0
3
_U1
0
MTEXT
5
140
100
AcDbEntity
8
SK2
62
256
6
ByLayer
370
13
48
1
60
0
100
AcDbMText
10
-0.137299
20
-30.660352
30
0
210
0
220
0
230
1
1
\W0.7317;82,00
40
3.5
41
0
44
1.084337
50
0
71
7
72
5
7
iso_b_vert
0
LINE
5
141
100
AcDbEntity
8
SK2
62
256
6
ByLayer
370
13
48
1
60
0
100
AcDbLine
10
-36
20
-4.5875
30
0
11
-36
21
-33.692985
31
0
39
0
210
0
220
0
230
1
0
LINE
5
142
100
AcDbEntity
8
SK2
62
256
6
ByLayer
370
13
48
1
60
0
100
AcDbLine
10
46
20
-1.5875
30
0
11
46
21
-33.692985
31
0
39
0
210
0
220
0
230
1
0
LINE
5
143
100
AcDbEntity
8
SK2
62
256
6
ByLayer
370
13
48
1
60
0
100
AcDbLine
10
-36
20
-31.692985
30
0
11
46
21
-31.692985
31
0
39
0
210
0
220
0
230
1
0
SOLID
5
144
100
AcDbEntity
8
SK2
62
256
6
ByLayer
370
18
48
1
60
0
100
AcDbTrace
10
-36
20
-31.692985
30
0
11
-32.500002
21
-31.232202
31
0
12
-32.499998
22
-32.153769
32
0
13
-32.499998
23
-32.153769
33
0
39
0
210
0
220
0
230
1
0
SOLID
5
145
100
AcDbEntity
8
SK2
62
256
6
ByLayer
370
18
48
1
60
0
100
AcDbTrace
10
46
20
-31.692985
30
0
11
42.500002
21
-32.153769
31
0
12
42.499998
22
-31.232202
32
0
13
42.499998
23
-31.232202
33
0
39
0
210
0
220
0
230
1
0
ENDBLK
5
147
100
AcDbEntity
8
0
100
AcDbBlockEnd
0
BLOCK
5
14C
100
AcDbEntity
8
0
100
AcDbBlockBegin
2
*D5
70
1
10
0
20
0
30
0
3
*D5
0
LINE
5
14E
100
AcDbEntity
8
0
62
256
6
ByLayer
370
-2
48
1
60
0
100
AcDbLine
10
18.21
20
4.2875
30
0
11
18.21
21
16.309119
31
0
39
0
210
0
220
0
230
1
0
LINE
5
14F
100
AcDbEntity
8
0
62
256
6
ByLayer
370
-2
48
1
60
0
100
AcDbLine
10
46
20
1.5875
30
0
11
46
21
16.309119
31
0
39
0
210
0
220
0
230
1
0
LINE
5
150
100
AcDbEntity
8
0
62
256
6
ByLayer
370
-2
48
1
60
0
100
AcDbLine
10
21.71
20
14.309119
30
0
11
42.5
21
14.309119
31
0
39
0
210
0
220
0
230
1
0
SOLID
5
151
100
AcDbEntity
8
0
62
256
6
ByLayer
370
-1
48
1
60
0
100
AcDbTrace
10
21.71
20
14.892453
30
0
11
21.71
21
13.725786
31
0
12
18.21
22
14.309119
32
0
13
18.21
23
14.309119
33
0
39
0
210
0
220
0
230
1
0
SOLID
5
152
100
AcDbEntity
8
0
62
256
6
ByLayer
370
-1
48
1
60
0
100
AcDbTrace
10
42.5
20
13.725786
30
0
11
42.5
21
14.892453
31
0
12
46
22
14.309119
32
0
13
46
23
14.309119
33
0
39
0
210
0
220
0
230
1
0
MTEXT
5
153
100
AcDbEntity
8
0
62
256
6
ByLayer
370
18
48
1
60
0
100
AcDbMText
10
32.105
20
21.309119
30
0
210
0
220
0
230
1
1
\A1;27.79
40
3.5
41
0
44
1
50
0
71
5
72
5
7
iso_b_vert
0
POINT
5
154
100
AcDbEntity
8
Defpoints
62
0
6
ByLayer
370
-1
48
1
60
0
100
AcDbPoint
10
18.21
20
2.7
30
0
39
0
210
0
220
0
230
1
50
360
0
POINT
5
155
100
AcDbEntity
8
Defpoints
62
0
6
ByLayer
370
-1
48
1
60
0
100
AcDbPoint
10
46
20
0
30
0
39
0
210
0
220
0
230
1
50
360
0
POINT
5
156
100
AcDbEntity
8
Defpoints
62
0
6
ByLayer
370
-1
48
1
60
0
100
AcDbPoint
10
46
20
14.309119
30
0
39
0
210
0
220
0
230
1
50
360
0
ENDBLK
5
14D
100
AcDbEntity
8
0
100
AcDbBlockEnd
0
BLOCK
5
15E
100
AcDbEntity
8
0
100
AcDbBlockBegin
2
_U2
70
0
10
0
20
0
30
0
3
_U2
0
MTEXT
5
158
100
AcDbEntity
8
SK2
62
256
6
ByLayer
370
13
48
1
60
0
100
AcDbMText
10
26.967701
20
15.341753
30
0
210
0
220
0
230
1
1
\W0.7402;27,79
40
3.5
41
0
44
1.084337
50
0
71
7
72
5
7
iso_b_vert
0
LINE
5
159
100
AcDbEntity
8
SK2
62
256
6
ByLayer
370
13
48
1
60
0
100
AcDbLine
10
18.21
20
4.2875
30
0
11
18.21
21
16.309119
31
0
39
0
210
0
220
0
230
1
0
LINE
5
15A
100
AcDbEntity
8
SK2
62
256
6
ByLayer
370
13
48
1
60
0
100
AcDbLine
10
46
20
1.5875
30
0
11
46
21
16.309119
31
0
39
0
210
0
220
0
230
1
0
LINE
5
15B
100
AcDbEntity
8
SK2
62
256
6
ByLayer
370
13
48
1
60
0
100
AcDbLine
10
18.21
20
14.309119
30
0
11
46
21
14.309119
31
0
39
0
210
0
220
0
230
1
0
SOLID
5
15C
100
AcDbEntity
8
SK2
62
256
6
ByLayer
370
18
48
1
60
0
100
AcDbTrace
10
18.21
20
14.309119
30
0
11
21.709998
21
14.769903
31
0
12
21.710002
22
13.848335
32
0
13
21.710002
23
13.848335
33
0
39
0
210
0
220
0
230
1
0
SOLID
5
15D
100
AcDbEntity
8
SK2
62
256
6
ByLayer
370
18
48
1
60
0
100
AcDbTrace
10
46
20
14.309119
30
0
11
42.500002
21
13.848335
31
0
12
42.499998
22
14.769903
32
0
13
42.499998
23
14.769903
33
0
39
0
210
0
220
0
230
1
0
ENDBLK
5
15F
100
AcDbEntity
8
0
100
AcDbBlockEnd
0
BLOCK
5
164
100
AcDbEntity
8
0
100
AcDbBlockBegin
2
*D7
70
1
10
0
20
0
30
0
3
*D7
0
LINE
5
166
100
AcDbEntity
8
0
62
256
6
ByLayer
370
-2
48
1
60
0
100
AcDbLine
10
46
20
-1.5875
30
0
11
46
21
-17.502503
31
0
39
0
210
0
220
0
230
1
0
LINE
5
167
100
AcDbEntity
8
0
62
256
6
ByLayer
370
-2
48
1
60
0
100
AcDbLine
10
45.2092
20
-4.2875
30
0
11
45.2092
21
-17.502503
31
0
39
0
210
0
220
0
230
1
0
LINE
5
168
100
AcDbEntity
8
0
62
256
6
ByLayer
370
-2
48
1
60
0
100
AcDbLine
10
46
20
-15.502503
30
0
11
74
21
-15.502503
31
0
39
0
210
0
220
0
230
1
0
LINE
5
169
100
AcDbEntity
8
0
62
256
6
ByLayer
370
-2
48
1
60
0
100
AcDbLine
10
49.5
20
-15.502503
30
0
11
53
21
-15.502503
31
0
39
0
210
0
220
0
230
1
0
LINE
5
16A
100
AcDbEntity
8
0
62
256
6
ByLayer
370
-2
48
1
60
0
100
AcDbLine
10
41.7092
20
-15.502503
30
0
11
38.2092
21
-15.502503
31
0
39
0
210
0
220
0
230
1
0
SOLID
5
16B
100
AcDbEntity
8
0
62
256
6
ByLayer
370
-1
48
1
60
0
100
AcDbTrace
10
49.5
20
-14.91917
30
0
11
49.5
21
-16.085837
31
0
12
46
22
-15.502503
32
0
13
46
23
-15.502503
33
0
39
0
210
0
220
0
230
1
0
SOLID
5
16C
100
AcDbEntity
8
0
62
256
6
ByLayer
370
-1
48
1
60
0
100
AcDbTrace
10
41.7092
20
-16.085837
30
0
11
41.7092
21
-14.91917
31
0
12
45.2092
22
-15.502503
32
0
13
45.2092
23
-15.502503
33
0
39
0
210
0
220
0
230
1
0
MTEXT
5
16D
100
AcDbEntity
8
0
62
256
6
ByLayer
370
18
48
1
60
0
100
AcDbMText
10
63.5
20
-8.502503
30
0
210
0
220
0
230
1
1
\A1;0.79
40
3.5
41
0
44
1
50
0
71
5
72
5
7
iso_b_vert
0
POINT
5
16E
100
AcDbEntity
8
Defpoints
62
0
6
ByLayer
370
-1
48
1
60
0
100
AcDbPoint
10
46
20
0
30
0
39
0
210
0
220
0
230
1
50
360
0
POINT
5
16F
100
AcDbEntity
8
Defpoints
62
0
6
ByLayer
370
-1
48
1
60
0
100
AcDbPoint
10
45.2092
20
-2.7
30
0
39
0
210
0
220
0
230
1
50
360
0
POINT
5
170
100
AcDbEntity
8
Defpoints
62
0
6
ByLayer
370
-1
48
1
60
0
100
AcDbPoint
10
45.2092
20
-15.502503
30
0
39
0
210
0
220
0
230
1
50
360
0
ENDBLK
5
165
100
AcDbEntity
8
0
100
AcDbBlockEnd
0
BLOCK
5
178
100
AcDbEntity
8
0
100
AcDbBlockBegin
2
_U3
70
0
10
0
20
0
30
0
3
_U3
0
MTEXT
5
172
100
AcDbEntity
8
SK2
62
256
6
ByLayer
370
13
48
1
60
0
100
AcDbMText
10
52.15186
20
-14.46987
30
0
210
0
220
0
230
1
1
\W0.7259;0,79
40
3.5
41
0
44
1.084337
50
0
71
7
72
5
7
iso_b_vert
0
LINE
5
173
100
AcDbEntity
8
SK2
62
256
6
ByLayer
370
13
48
1
60
0
100
AcDbLine
10
46
20
-1.5875
30
0
11
46
21
-17.502503
31
0
39
0
210
0
220
0
230
1
0
LINE
5
174
100
AcDbEntity
8
SK2
62
256
6
ByLayer
370
13
48
1
60
0
100
AcDbLine
10
45.2092
20
-4.2875
30
0
11
45.2092
21
-17.502503
31
0
39
0
210
0
220
0
230
1
0
LINE
5
175
100
AcDbEntity
8
SK2
62
256
6
ByLayer
370
13
48
1
60
0
100
AcDbLine
10
36.4592
20
-15.502503
30
0
11
59.996491
21
-15.502503
31
0
39
0
210
0
220
0
230
1
0
SOLID
5
176
100
AcDbEntity
8
SK2
62
256
6
ByLayer
370
18
48
1
60
0
100
AcDbTrace
10
46
20
-15.502503
30
0
11
49.499998
21
-15.041719
31
0
12
49.500002
22
-15.963287
32
0
13
49.500002
23
-15.963287
33
0
39
0
210
0
220
0
230
1
0
SOLID
5
177
100
AcDbEntity
8
SK2
62
256
6
ByLayer
370
18
48
1
60
0
100
AcDbTrace
10
45.2092
20
-15.502503
30
0
11
41.709202
21
-15.963287
31
0
12
41.709198
22
-15.041719
32
0
13
41.709198
23
-15.041719
33
0
39
0
210
0
220
0
230
1
0
ENDBLK
5
179
100
AcDbEntity
8
0
100
AcDbBlockEnd
0
BLOCK
5
17E
100
AcDbEntity
8
0
100
AcDbBlockBegin
2
*D9
70
1
10
0
20
0
30
0
3
*D9
0
LINE
5
180
100
AcDbEntity
8
0
62
256
6
ByLayer
370
-2
48
1
60
0
100
AcDbLine
10
-36
20
-4.5875
30
0
11
-36
21
-23.343428
31
0
39
0
210
0
220
0
230
1
0
LINE
5
181
100
AcDbEntity
8
0
62
256
6
ByLayer
370
-2
48
1
60
0
100
AcDbLine
10
45.2092
20
-4.2875
30
0
11
45.2092
21
-23.343428
31
0
39
0
210
0
220
0
230
1
0
LINE
5
182
100
AcDbEntity
8
0
62
256
6
ByLayer
370
-2
48
1
60
0
100
AcDbLine
10
-32.5
20
-21.343428
30
0
11
41.7092
21
-21.343428
31
0
39
0
210
0
220
0
230
1
0
SOLID
5
183
100
AcDbEntity
8
0
62
256
6
ByLayer
370
-1
48
1
60
0
100
AcDbTrace
10
-32.5
20
-20.760095
30
0
11
-32.5
21
-21.926762
31
0
12
-36
22
-21.343428
32
0
13
-36
23
-21.343428
33
0
39
0
210
0
220
0
230
1
0
SOLID
5
184
100
AcDbEntity
8
0
62
256
6
ByLayer
370
-1
48
1
60
0
100
AcDbTrace
10
41.7092
20
-21.926762
30
0
11
41.7092
21
-20.760095
31
0
12
45.2092
22
-21.343428
32
0
13
45.2092
23
-21.343428
33
0
39
0
210
0
220
0
230
1
0
MTEXT
5
185
100
AcDbEntity
8
0
62
256
6
ByLayer
370
18
48
1
60
0
100
AcDbMText
10
4.6046
20
-14.343428
30
0
210
0
220
0
230
1
1
\A1;81.21
40
3.5
41
0
44
1
50
0
71
5
72
5
7
iso_b_vert
0
POINT
5
186
100
AcDbEntity
8
Defpoints
62
0
6
ByLayer
370
-1
48
1
60
0
100
AcDbPoint
10
-36
20
-3
30
0
39
0
210
0
220
0
230
1
50
360
0
POINT
5
187
100
AcDbEntity
8
Defpoints
62
0
6
ByLayer
370
-1
48
1
60
0
100
AcDbPoint
10
45.2092
20
-2.7
30
0
39
0
210
0
220
0
230
1
50
360
0
POINT
5
188
100
AcDbEntity
8
Defpoints
62
0
6
ByLayer
370
-1
48
1
60
0
100
AcDbPoint
10
45.2092
20
-21.343428
30
0
39
0
210
0
220
0
230
1
50
360
0
ENDBLK
5
17F
100
AcDbEntity
8
0
100
AcDbBlockEnd
0
BLOCK
5
190
100
AcDbEntity
8
0
100
AcDbBlockBegin
2
_U4
70
0
10
0
20
0
30
0
3
_U4
0
MTEXT
5
18A
100
AcDbEntity
8
SK2
62
256
6
ByLayer
370
13
48
1
60
0
100
AcDbMText
10
0.342168
20
-20.310795
30
0
210
0
220
0
230
1
1
\W0.6563;81,21
40
3.5
41
0
44
1.084337
50
0
71
7
72
5
7
iso_b_vert
0
LINE
5
18B
100
AcDbEntity
8
SK2
62
256
6
ByLayer
370
13
48
1
60
0
100
AcDbLine
10
-36
20
-4.5875
30
0
11
-36
21
-23.343428
31
0
39
0
210
0
220
0
230
1
0
LINE
5
18C
100
AcDbEntity
8
SK2
62
256
6
ByLayer
370
13
48
1
60
0
100
AcDbLine
10
45.2092
20
-4.2875
30
0
11
45.2092
21
-23.343428
31
0
39
0
210
0
220
0
230
1
0
LINE
5
18D
100
AcDbEntity
8
SK2
62
256
6
ByLayer
370
13
48
1
60
0
100
AcDbLine
10
-36
20
-21.343428
30
0
11
45.2092
21
-21.343428
31
0
39
0
210
0
220
0
230
1
0
SOLID
5
18E
100
AcDbEntity
8
SK2
62
256
6
ByLayer
370
18
48
1
60
0
100
AcDbTrace
10
-36
20
-21.343428
30
0
11
-32.500002
21
-20.882645
31
0
12
-32.499998
22
-21.804212
32
0
13
-32.499998
23
-21.804212
33
0
39
0
210
0
220
0
230
1
0
SOLID
5
18F
100
AcDbEntity
8
SK2
62
256
6
ByLayer
370
18
48
1
60
0
100
AcDbTrace
10
45.2092
20
-21.343428
30
0
11
41.709202
21
-21.804212
31
0
12
41.709198
22
-20.882645
32
0
13
41.709198
23
-20.882645
33
0
39
0
210
0
220
0
230
1
0
ENDBLK
5
191
100
AcDbEntity
8
0
100
AcDbBlockEnd
0
ENDSEC
0
SECTION
2
ENTITIES
0
ARC
5
AF
100
AcDbEntity
8
1
62
256
6
ByLayer
370
18
48
1
60
0
100
AcDbCircle
39
0
10
0.970126
20
-3.472342
30
0
40
0.800000000000002
210
0
220
0
230
1
100
AcDbArc
50
89.96419
51
127.324524
0
ARC
5
B0
100
AcDbEntity
8
1
62
256
6
ByLayer
370
18
48
1
60
0
100
AcDbCircle
39
0
10
0.970126
20
3.472342
30
0
40
0.800000000000002
210
0
220
0
230
1
100
AcDbArc
50
232.675476
51
270.03581
0
ARC
5
B1
100
AcDbEntity
8
1
62
256
6
ByLayer
370
18
48
1
60
0
100
AcDbCircle
39
0
10
0
20
-2.2
30
0
40
0.799999999999997
210
0
220
0
230
1
100
AcDbArc
50
270
51
307.324524
0
ARC
5
B2
100
AcDbEntity
8
1
62
256
6
ByLayer
370
18
48
1
60
0
100
AcDbCircle
39
0
10
0
20
2.2
30
0
40
0.799999999999997
210
0
220
0
230
1
100
AcDbArc
50
52.675476
51
90
0
ELLIPSE
5
B3
100
AcDbEntity
8
1
62
256
6
ByLayer
370
13
48
1
60
0
100
AcDbEllipse
10
4.181815
20
-0.11499
30
0
11
0.0425875004159023
21
0.0904782007354563
31
0
210
0
220
0
230
1
40
0.433391
41
1.72969702967712
42
3.06516437978551
0
ELLIPSE
5
B4
100
AcDbEntity
8
1
62
256
6
ByLayer
370
13
48
1
60
0
100
AcDbEllipse
10
4.250251
20
-0.1484
30
0
11
0.0451926066538656
21
0.089205539647653
31
0
210
0
220
0
230
1
40
0.024218
41
1.51934307481761
42
3.06065070214028
0
POINT
5
70
100
AcDbEntity
8
80
62
256
6
ByLayer
370
18
48
1
60
0
100
AcDbPoint
10
0
20
0
30
0
39
0
210
0
220
0
230
1
50
360
0
POINT
5
72
100
AcDbEntity
8
81
62
256
6
ByLayer
370
18
48
1
60
0
100
AcDbPoint
10
46
20
0
30
0
39
0
210
0
220
0
230
1
50
360
0
POINT
5
74
100
AcDbEntity
8
1
62
256
6
ByLayer
370
18
48
1
60
1
100
AcDbPoint
10
45.2092
20
-2.7
30
0
39
0
210
0
220
0
230
1
50
360
0
POINT
5
76
100
AcDbEntity
8
1
62
256
6
ByLayer
370
18
48
1
60
1
100
AcDbPoint
10
-36
20
-3
30
0
39
0
210
0
220
0
230
1
50
360
0
POINT
5
77
100
AcDbEntity
8
1
62
256
6
ByLayer
370
18
48
1
60
1
100
AcDbPoint
10
18.21
20
2.7
30
0
39
0
210
0
220
0
230
1
50
360
0
POINT
5
78
100
AcDbEntity
8
1
62
256
6
ByLayer
370
18
48
1
60
1
100
AcDbPoint
10
45.2092
20
-2.7
30
0
39
0
210
0
220
0
230
1
50
360
0
POINT
5
79
100
AcDbEntity
8
1
62
256
6
ByLayer
370
18
48
1
60
1
100
AcDbPoint
10
-36
20
-3
30
0
39
0
210
0
220
0
230
1
50
360
0
POINT
5
7A
100
AcDbEntity
8
1
62
256
6
ByLayer
370
18
48
1
60
1
100
AcDbPoint
10
45.2092
20
-2.7
30
0
39
0
210
0
220
0
230
1
50
360
0
SPLINE
5
B5
100
AcDbEntity
8
SK1
62
256
6
ByLayer
370
18
48
1
60
0
100
AcDbSpline
70
4
71
3
72
8
73
4
40
0
40
0
40
0
40
0
40
1
40
1
40
1
40
1
41
1
10
-36
20
-1.98962428520136
30
0
41
1
10
-35.9170253923489
20
-2.060911038375
30
0
41
1
10
-35.833651034085
20
-2.13189686760819
30
0
41
1
10
-35.7499999999999
20
-2.20267442104225
30
0
0
SPLINE
5
B6
100
AcDbEntity
8
SK1
62
256
6
ByLayer
370
18
48
1
60
0
100
AcDbSpline
70
4
71
3
72
12
73
8
40
0
40
0
40
0
40
0
40
0.249999999999999
40
0.249999999999999
40
0.499999999999999
40
0.499999999999999
40
1
40
1
40
1
40
1
41
1
10
-35.65
20
-1.47220952994687
30
0
41
1
10
-35.65
20
-1.45827551831169
30
0
41
1
10
-35.6543403470552
20
-1.44179077391317
30
0
41
1
10
-35.6670034572333
20
-1.41003703690927
30
0
41
1
10
-35.6754069618006
20
-1.3943168258125
30
0
41
1
10
-35.7033744297257
20
-1.35019376394266
30
0
41
1
10
-35.7260009806424
20
-1.32392304596485
30
0
41
1
10
-35.7500000000001
20
-1.30361735705696
30
0
0
SPLINE
5
B7
100
AcDbEntity
8
SK1
62
256
6
ByLayer
370
18
48
1
60
0
100
AcDbSpline
70
4
71
3
72
8
73
4
40
0
40
0
40
0
40
0
40
1
40
1
40
1
40
1
41
1
10
-35.75
20
-1.30361735705696
30
0
41
1
10
-35.8336554104926
20
-1.23283610072284
30
0
41
1
10
-35.9170302933806
20
-1.16184976372043
30
0
41
1
10
-36
20
-1.09056722121613
30
0
0
SPLINE
5
B8
100
AcDbEntity
8
SK1
62
256
6
ByLayer
370
18
48
1
60
0
100
AcDbSpline
70
4
71
3
72
12
73
8
40
0
40
0
40
0
40
0
40
0.500000000000002
40
0.500000000000002
40
0.750000000000001
40
0.750000000000001
40
1
40
1
40
1
40
1
41
1
10
-35.75
20
-2.20267442104236
30
0
41
1
10
-35.7259913046562
20
-2.22298829684993
30
0
41
1
10
-35.7033433879313
20
-2.23946246773059
30
0
41
1
10
-35.6754686754417
20
-2.25465871740954
30
0
41
1
10
-35.667025596347
20
-2.2581814669368
30
0
41
1
10
-35.6543350076412
20
-2.25977647786738
30
0
41
1
10
-35.65
20
-2.25774263954187
30
0
41
1
10
-35.65
20
-2.25139231873408
30
0
0
SPLINE
5
B9
100
AcDbEntity
8
1
62
256
6
ByLayer
370
13
48
1
60
0
100
AcDbSpline
70
4
71
3
72
8
73
4
40
0
40
0
40
0
40
0
40
1
40
1
40
1
40
1
41
1
10
4.08623901763696
20
-0.1716238380655
30
0
41
1
10
4.10122666892627
20
-0.184000844632578
30
0
41
1
10
4.11784879326171
20
-0.194800912440286
30
0
41
1
10
4.13635739092032
20
-0.203794821950567
30
0
0
SPLINE
5
BA
100
AcDbEntity
8
1
62
256
6
ByLayer
370
18
48
1
60
0
100
AcDbSpline
70
4
71
3
72
38
73
34
40
0
40
0
40
0
40
0
40
0.0760427791087777
40
0.0760427791087777
40
0.114064168663166
40
0.114064168663166
40
0.152085558217554
40
0.152085558217554
40
0.304171116435111
40
0.304171116435111
40
0.342192505989499
40
0.342192505989499
40
0.380213895543887
40
0.380213895543887
40
0.418235285098275
40
0.418235285098275
40
0.456256674652663
40
0.456256674652663
40
0.608342232870208
40
0.608342232870208
40
0.646363622424595
40
0.646363622424595
40
0.684385011978981
40
0.684385011978981
40
0.760427791087754
40
0.760427791087754
40
0.836470570196527
40
0.836470570196527
40
0.874491959750914
40
0.874491959750914
40
0.9125133493053
40
0.9125133493053
40
1
40
1
40
1
40
1
41
1
10
45.0756237274806
20
-2.68920057491289
30
0
41
1
10
44.6475355213837
20
-2.70874172175581
30
0
41
1
10
44.2203811033547
20
-2.70077993128609
30
0
41
1
10
43.5775715647577
20
-2.64806690905004
30
0
41
1
10
43.3625316102052
20
-2.62360339798821
30
0
41
1
10
42.9347843106518
20
-2.56183430685496
30
0
41
1
10
42.7217518554209
20
-2.52451450588794
30
0
41
1
10
41.6593055054069
20
-2.30723369552482
30
0
41
1
10
40.8171711170173
20
-2.03563282543598
30
0
41
1
10
39.7480593954103
20
-1.60352603911014
30
0
41
1
10
39.5329815694604
20
-1.51234837283727
30
0
41
1
10
39.1042290231302
20
-1.32334122033404
30
0
41
1
10
38.8902146470697
20
-1.22535723204595
30
0
41
1
10
38.4622186740373
20
-1.02362890801814
30
0
41
1
10
38.2482055136525
20
-0.919940253339973
30
0
41
1
10
37.8194575642124
20
-0.708149054712806
30
0
41
1
10
37.6043803101461
20
-0.599868608238353
30
0
41
1
10
36.5351163810782
20
-0.0555177224211434
30
0
41
1
10
35.6928245669121
20
0.392814140518794
30
0
41
1
10
34.6298636470635
20
0.917223215347718
30
0
41
1
10
34.4167467137432
20
1.02026950207008
30
0
41
1
10
33.9888239769352
20
1.22144575454388
30
0
41
1
10
33.77358387807
20
1.31978850442366
30
0
41
1
10
33.132035129909
20
1.60215053362666
30
0
41
1
10
32.70757545291
20
1.77440516203274
30
0
41
1
10
31.8600447568128
20
2.08014097607611
30
0
41
1
10
31.4368628290307
20
2.21346949742943
30
0
41
1
10
30.799220005147
20
2.37939262652441
30
0
41
1
10
30.5861678908629
20
2.42899441056719
30
0
41
1
10
30.1583783285018
20
2.51598326585784
30
0
41
1
10
29.9430906724606
20
2.55343640394312
30
0
41
1
10
29.2367229624549
20
2.65462619939103
30
0
41
1
10
28.7487686837333
20
2.68965573843818
30
0
41
1
10
28.2612544060013
20
2.68934108880211
30
0
0
SPLINE
5
BB
100
AcDbEntity
8
1
62
256
6
ByLayer
370
18
48
1
60
0
100
AcDbSpline
70
4
71
3
72
26
73
22
40
0
40
0
40
0
40
0
40
0.0487203445511109
40
0.0487203445511109
40
0.116668891368889
40
0.116668891368889
40
0.184617438186667
40
0.184617438186667
40
0.456411625457779
40
0.456411625457779
40
0.524360172275556
40
0.524360172275556
40
0.592308719093334
40
0.592308719093334
40
0.660257265911112
40
0.660257265911112
40
0.728205812728889
40
0.728205812728889
40
0.864102906364445
40
0.864102906364445
40
1
40
1
40
1
40
1
41
1
10
13.5704995088967
20
-2.54519945051996
30
0
41
1
10
13.4178859490213
20
-2.56974519869343
30
0
41
1
10
13.2649943294467
20
-2.5910482888101
30
0
41
1
10
12.8978883052296
20
-2.63401419016799
30
0
41
1
10
12.6826783249517
20
-2.6525630306744
30
0
41
1
10
12.2537593493352
20
-2.67587908254188
30
0
41
1
10
12.0401934246371
20
-2.68069038487988
30
0
41
1
10
10.9752070639307
20
-2.67110649284612
30
0
41
1
10
10.1322181485701
20
-2.55545790900032
30
0
41
1
10
9.06364437513997
20
-2.28830525861039
30
0
41
1
10
8.84873724337288
20
-2.22861980865701
30
0
41
1
10
8.41898008145748
20
-2.09818710794872
30
0
41
1
10
8.20452218433073
20
-2.02758859917782
30
0
41
1
10
7.77579480799358
20
-1.87651909092446
30
0
41
1
10
7.5615230112204
20
-1.79604901650416
30
0
41
1
10
7.13243674599522
20
-1.6262602023393
30
0
41
1
10
6.91722949588797
20
-1.53676753899467
30
0
41
1
10
6.27292258500805
20
-1.25772344623695
30
0
41
1
10
5.84616257752665
20
-1.0579440590958
30
0
41
1
10
4.99234271075227
20
-0.641692593557735
30
0
41
1
10
4.56527855010049
20
-0.425256824509205
30
0
41
1
10
4.13567469488891
20
-0.204974409143716
30
0
0
SPLINE
5
BC
100
AcDbEntity
8
1
62
256
6
ByLayer
370
18
48
1
60
0
100
AcDbSpline
70
4
71
3
72
8
73
4
40
0
40
0
40
0
40
0
40
1
40
1
40
1
40
1
41
1
10
45.2229866435955
20
-2.59791073857863
30
0
41
1
10
45.1689506153591
20
-2.6431030325941
30
0
41
1
10
45.1198788950376
20
-2.67399998023768
30
0
41
1
10
45.0756237274805
20
-2.68920057491292
30
0
0
SPLINE
5
BD
100
AcDbEntity
8
1
62
256
6
ByLayer
370
18
48
1
60
0
100
AcDbSpline
70
4
71
3
72
22
73
18
40
0
40
0
40
0
40
0
40
0.113129197149346
40
0.113129197149346
40
0.26139821533675
40
0.26139821533675
40
0.335532724430452
40
0.335532724430452
40
0.409667233524154
40
0.409667233524154
40
0.706205269898957
40
0.706205269898957
40
0.780339778992657
40
0.780339778992657
40
0.854474288086358
40
0.854474288086358
40
1
40
1
40
1
40
1
41
1
10
16.0248825074729
20
1.8611487724541
30
0
41
1
10
16.3489240501813
20
1.74425294516811
30
0
41
1
10
16.672106396377
20
1.61674562040537
30
0
41
1
10
17.4197311004718
20
1.30218993174813
30
0
41
1
10
17.8442246665129
20
1.1084972842014
30
0
41
1
10
18.4857707828918
20
0.802117578310657
30
0
41
1
10
18.701039995632
20
0.696942302652502
30
0
41
1
10
19.1296421385259
20
0.484585468481612
30
0
41
1
10
19.3430251295635
20
0.377231348924681
30
0
41
1
10
20.4072580197841
20
-0.161593756292433
30
0
41
1
10
21.2501770285651
20
-0.598901486222957
30
0
41
1
10
22.3186713814183
20
-1.10251773451495
30
0
41
1
10
22.5336112877434
20
-1.20131553503074
30
0
41
1
10
22.9628861511371
20
-1.39204480637363
30
0
41
1
10
23.1770891840119
20
-1.48390667424425
30
0
41
1
10
23.8113886360408
20
-1.74421272926997
30
0
41
1
10
24.2313755436314
20
-1.90119533201582
30
0
41
1
10
24.6531400761725
20
-2.03868910724097
30
0
0
SPLINE
5
BE
100
AcDbEntity
8
1
62
256
6
ByLayer
370
13
48
1
60
0
100
AcDbSpline
70
4
71
3
72
20
73
16
40
0
40
0
40
0
40
0
40
0.0047581880383011
40
0.0047581880383011
40
0.13334242105735
40
0.13334242105735
40
0.261926654076397
40
0.261926654076397
40
0.519095120114494
40
0.519095120114494
40
0.77626358615259
40
0.77626358615259
40
0.904847819171638
40
0.904847819171638
40
1
40
1
40
1
40
1
41
1
10
24.6531400760881
20
-2.03868910721349
30
0
41
1
10
24.6610907624448
20
-2.04128100339841
30
0
41
1
10
24.6690420804992
20
-2.04386597402421
30
0
41
1
10
24.8918861599519
20
-2.11611179096249
30
0
41
1
10
25.1069752329944
20
-2.18059809894555
30
0
41
1
10
25.5359545840965
20
-2.29784860872007
30
0
41
1
10
25.7495126661565
20
-2.35053453725456
30
0
41
1
10
26.388429577959
20
-2.4900743929376
30
0
41
1
10
26.8119656298094
20
-2.55847079329712
30
0
41
1
10
27.659339935235
20
-2.64357280704903
30
0
41
1
10
28.0832183764737
20
-2.66027906988359
30
0
41
1
10
28.7230935745279
20
-2.64516694647307
30
0
41
1
10
28.9373899544191
20
-2.63342125636294
30
0
41
1
10
29.3109798644642
20
-2.60120510374216
30
0
41
1
10
29.4693195536741
20
-2.58388744445139
30
0
41
1
10
29.6272576952707
20
-2.56308675489581
30
0
0
SPLINE
5
BF
100
AcDbEntity
8
1
62
256
6
ByLayer
370
18
48
1
60
0
100
AcDbSpline
70
4
71
3
72
22
73
18
40
0
40
0
40
0
40
0
40
0.125
40
0.125
40
0.25
40
0.25
40
0.375
40
0.375
40
0.5
40
0.5
40
0.625
40
0.625
40
0.75
40
0.75
40
0.875
40
0.875
40
1
40
1
40
1
40
1
41
1
10
45.560349002602
20
-0.72798752186884
30
0
41
1
10
45.5570833408007
20
-0.760932216041454
30
0
41
1
10
45.550231750926
20
-0.799391828565177
30
0
41
1
10
45.530573371181
20
-0.879831887167796
30
0
41
1
10
45.5176321271083
20
-0.922528424339163
30
0
41
1
10
45.4880789945888
20
-1.00584037464617
30
0
41
1
10
45.4715140126697
20
-1.04648417119387
30
0
41
1
10
45.4368322635549
20
-1.12226260074596
30
0
41
1
10
45.4190204550504
20
-1.15680480252678
30
0
41
1
10
45.3834010318089
20
-1.21840341620788
30
0
41
1
10
45.3656512653455
20
-1.24525046331021
30
0
41
1
10
45.3324265574345
20
-1.28850124718531
30
0
41
1
10
45.3165868030719
20
-1.30546468801975
30
0
41
1
10
45.2873059737734
20
-1.32896785812127
30
0
41
1
10
45.2742041262371
20
-1.33531499479926
30
0
41
1
10
45.251104819306
20
-1.33671516339345
30
0
41
1
10
45.2414013811331
20
-1.33160770036642
30
0
41
1
10
45.2340015552699
20
-1.32050312030822
30
0
0
SPLINE
5
C0
100
AcDbEntity
8
1
62
256
6
ByLayer
370
18
48
1
60
0
100
AcDbSpline
70
4
71
3
72
8
73
4
40
0
40
0
40
0
40
0
40
1
40
1
40
1
40
1
41
1
10
45.9999639771943
20
0.0321378404427435
30
0
41
1
10
45.9949153696133
20
0.0145542546895854
30
0
41
1
10
45.9871838995763
20
-0.0039477841863231
30
0
41
1
10
45.9790546802176
20
-0.0172561532925499
30
0
0
SPLINE
5
C1
100
AcDbEntity
8
1
62
256
6
ByLayer
370
18
48
1
60
0
100
AcDbSpline
70
4
71
3
72
8
73
4
40
0
40
0
40
0
40
0
40
1
40
1
40
1
40
1
41
1
10
45.2229866435934
20
2.59791073858037
30
0
41
1
10
45.1689506153579
20
2.64310303259489
30
0
41
1
10
45.1198788950369
20
2.67399998023788
30
0
41
1
10
45.0756237274805
20
2.68920057491292
30
0
0
SPLINE
5
C2
100
AcDbEntity
8
1
62
256
6
ByLayer
370
18
48
1
60
0
100
AcDbSpline
70
4
71
3
72
70
73
66
40
0
40
0
40
0
40
0
40
0.0598101215599934
40
0.0598101215599934
40
0.0897151823399901
40
0.0897151823399901
40
0.119620243119987
40
0.119620243119987
40
0.149525303899983
40
0.149525303899983
40
0.17943036467998
40
0.17943036467998
40
0.209335425459977
40
0.209335425459977
40
0.239240486239973
40
0.239240486239973
40
0.26914554701997
40
0.26914554701997
40
0.299050607799967
40
0.299050607799967
40
0.328955668579964
40
0.328955668579964
40
0.35886072935996
40
0.35886072935996
40
0.388765790139957
40
0.388765790139957
40
0.418670850919954
40
0.418670850919954
40
0.44857591169995
40
0.44857591169995
40
0.478480972479947
40
0.478480972479947
40
0.508386033259944
40
0.508386033259944
40
0.53829109403994
40
0.53829109403994
40
0.568196154819937
40
0.568196154819937
40
0.598101215599934
40
0.598101215599934
40
0.628006276379931
40
0.628006276379931
40
0.657911337159927
40
0.657911337159927
40
0.717721458719921
40
0.717721458719921
40
0.747626519499917
40
0.747626519499917
40
0.777531580279914
40
0.777531580279914
40
0.807436641059911
40
0.807436641059911
40
0.837341701839907
40
0.837341701839907
40
0.867246762619904
40
0.867246762619904
40
0.897151823399901
40
0.897151823399901
40
0.927056884179897
40
0.927056884179897
40
0.956961944959894
40
0.956961944959894
40
0.986867005739893
40
0.986867005739893
40
1
40
1
40
1
40
1
41
1
10
7.95910415830039
20
2.20723543932138
30
0
41
1
10
8.34983337554598
20
2.32284901407789
30
0
41
1
10
8.74007379419251
20
2.41554377745876
30
0
41
1
10
9.32033483899605
20
2.52638582655615
30
0
41
1
10
9.51339174370966
20
2.55805566246101
30
0
41
1
10
9.90017125362107
20
2.61026642470117
30
0
41
1
10
10.0936566065756
20
2.63099971496951
30
0
41
1
10
10.4802777672391
20
2.66181147840658
30
0
41
1
10
10.6732733782785
20
2.67181787528884
30
0
41
1
10
11.0612612334168
20
2.68047049374019
30
0
41
1
10
11.2559431166963
20
2.6792605592542
30
0
41
1
10
11.6461653564274
20
2.66557864948504
30
0
41
1
10
11.8419075249796
20
2.65287500092708
30
0
41
1
10
12.2323226144501
20
2.6165766488933
30
0
41
1
10
12.4271596587228
20
2.59308942153186
30
0
41
1
10
12.815589951899
20
2.53549835920492
30
0
41
1
10
13.0088687006755
20
2.50113256440326
30
0
41
1
10
13.3952662997488
20
2.42234802109257
30
0
41
1
10
13.5886665692182
20
2.37822257831493
30
0
41
1
10
13.9754281747146
20
2.2803547830419
30
0
41
1
10
14.1686129719185
20
2.22640998827808
30
0
41
1
10
14.555054027892
20
2.10867751621603
30
0
41
1
10
14.7489083764687
20
2.04560893237317
30
0
41
1
10
15.1378860846206
20
1.91122295018738
30
0
41
1
10
15.3329141846434
20
1.83979372646726
30
0
41
1
10
15.7235956705868
20
1.6872840948746
30
0
41
1
10
15.9191444792481
20
1.60738742565414
30
0
41
1
10
16.3087760316349
20
1.44309319988292
30
0
41
1
10
16.5031272721815
20
1.35829731146339
30
0
41
1
10
16.8901654414108
20
1.18211824934468
30
0
41
1
10
17.0830487443797
20
1.09104942560279
30
0
41
1
10
17.4695868306428
20
0.906728791184094
30
0
41
1
10
17.6629519205417
20
0.812972982580675
30
0
41
1
10
18.0493436055541
20
0.621255098253613
30
0
41
1
10
18.2420992704456
20
0.522735360306456
30
0
41
1
10
18.6294208422321
20
0.325591091875964
30
0
41
1
10
18.8237719342737
20
0.226578645989065
30
0
41
1
10
19.2133270642583
20
0.0265736985403464
30
0
41
1
10
19.4086645071343
20
-0.0753741189307107
30
0
41
1
10
19.799475349422
20
-0.277094026674604
30
0
41
1
10
19.9944771024085
20
-0.376377641845863
30
0
41
1
10
20.3832196799691
20
-0.572901854110171
30
0
41
1
10
20.5767108341697
20
-0.67061864038476
30
0
41
1
10
21.1561409713777
20
-0.958913839904312
30
0
41
1
10
21.5429936778313
20
-1.14112722116653
30
0
41
1
10
22.1218806744537
20
-1.40354656236221
30
0
41
1
10
22.3153101469644
20
-1.48793880270145
30
0
41
1
10
22.7035252840396
20
-1.64992670978126
30
0
41
1
10
22.8982031338976
20
-1.7277186967323
30
0
41
1
10
23.2879940011786
20
-1.87782657733678
30
0
41
1
10
23.4838524595025
20
-1.94951437619125
30
0
41
1
10
23.8740201745492
20
-2.08235895886139
30
0
41
1
10
24.0685968558057
20
-2.14411674978555
30
0
41
1
10
24.4561466222855
20
-2.25911629402853
30
0
41
1
10
24.6490119019589
20
-2.31237321442978
30
0
41
1
10
25.0354761281965
20
-2.40786871025537
30
0
41
1
10
25.2287854597932
20
-2.45048664812839
30
0
41
1
10
25.6150368518176
20
-2.52594224661411
30
0
41
1
10
25.8076351426528
20
-2.55893523698487
30
0
41
1
10
26.19429241695
20
-2.61366787333227
30
0
41
1
10
26.3882914854313
20
-2.63554408845275
30
0
41
1
10
26.7771032565635
20
-2.66854806827345
30
0
41
1
10
26.9716264733428
20
-2.67969903613238
30
0
41
1
10
27.2528873441923
20
-2.68745567835143
30
0
41
1
10
27.3387315752036
20
-2.68871024114526
30
0
41
1
10
27.4245100816044
20
-2.68887197036253
30
0
0
SPLINE
5
C3
100
AcDbEntity
8
1
62
256
6
ByLayer
370
18
48
1
60
0
100
AcDbSpline
70
4
71
3
72
26
73
22
40
0
40
0
40
0
40
0
40
0.0089197786492398
40
0.0089197786492398
40
0.119039803243769
40
0.119039803243769
40
0.229159827838298
40
0.229159827838298
40
0.339279852432827
40
0.339279852432827
40
0.449399877027356
40
0.449399877027356
40
0.559519901621884
40
0.559519901621884
40
0.669639926216413
40
0.669639926216413
40
0.779759950810942
40
0.779759950810942
40
0.889879975405471
40
0.889879975405471
40
1
40
1
40
1
40
1
41
1
10
39.9260078662588
20
1.98790926366075
30
0
41
1
10
39.9417037494794
20
1.99343053082933
30
0
41
1
10
39.9574051269892
20
1.998922609179
30
0
41
1
10
40.1670315509897
20
2.07181511471609
30
0
41
1
10
40.3618427495356
20
2.13477499108439
30
0
41
1
10
40.7527383770739
20
2.25236931243333
30
0
41
1
10
40.9481801267593
20
2.3071698694234
30
0
41
1
10
41.3380425236895
20
2.40617921404714
30
0
41
1
10
41.533192700067
20
2.45023739821937
30
0
41
1
10
41.9234871947245
20
2.52810221225275
30
0
41
1
10
42.1184513668605
20
2.56201446998324
30
0
41
1
10
42.5084535893138
20
2.61916623808037
30
0
41
1
10
42.7043904705758
20
2.6420790040622
30
0
41
1
10
43.0945320022831
20
2.67652462377254
30
0
41
1
10
43.2889790216348
20
2.68817472850694
30
0
41
1
10
43.6761090610596
20
2.70030523351457
30
0
41
1
10
43.8694051764413
20
2.70066245815943
30
0
41
1
10
44.2563593719695
20
2.69033863432384
30
0
41
1
10
44.4498555215169
20
2.67969848715202
30
0
41
1
10
44.8361641596699
20
2.64711589859135
30
0
41
1
10
45.0291316800885
20
2.62511852248744
30
0
41
1
10
45.2229866435955
20
2.59791073857863
30
0
0
SPLINE
5
C4
100
AcDbEntity
8
1
62
256
6
ByLayer
370
18
48
1
60
0
100
AcDbSpline
70
4
71
3
72
8
73
4
40
0
40
0
40
0
40
0
40
1
40
1
40
1
40
1
41
1
10
45.9901055185983
20
-0.0953612778259867
30
0
41
1
10
45.9906696746556
20
-0.0777071268117311
30
0
41
1
10
45.9944759671951
20
-0.055425908938048
30
0
41
1
10
45.9999639771991
20
-0.0321378404226778
30
0
0
SPLINE
5
C5
100
AcDbEntity
8
1
62
256
6
ByLayer
370
18
48
1
60
0
100
AcDbSpline
70
4
71
3
72
12
73
8
40
0
40
0
40
0
40
0
40
0.249999999999928
40
0.249999999999928
40
0.499999999999856
40
0.499999999999856
40
1
40
1
40
1
40
1
41
1
10
44.8606630306916
20
0.6907125496069
30
0
41
1
10
44.8604326150751
20
0.700682449252014
30
0
41
1
10
44.8629369689051
20
0.710694457859574
30
0
41
1
10
44.8734289019837
20
0.727997126300039
30
0
41
1
10
44.8814003049971
20
0.735241828638067
30
0
41
1
10
44.9081749207151
20
0.750892400662195
30
0
41
1
10
44.9293876982754
20
0.754228941464419
30
0
41
1
10
44.9500519314456
20
0.753740110817517
30
0
0
SPLINE
5
C6
100
AcDbEntity
8
1
62
256
6
ByLayer
370
18
48
1
60
0
100
AcDbSpline
70
4
71
3
72
10
73
6
40
0
40
0
40
0
40
0
40
0.5
40
0.5
40
1
40
1
40
1
40
1
41
1
10
44.9500519314456
20
0.753740110817517
30
0
41
1
10
45.1177987170902
20
0.749771912768892
30
0
41
1
10
45.285526471783
20
0.745945684965278
30
0
41
1
10
45.620873899049
20
0.739099518244274
30
0
41
1
10
45.7884979543529
20
0.736046884306887
30
0
41
1
10
45.9558921799782
20
0.734708771848972
30
0
0
SPLINE
5
C7
100
AcDbEntity
8
1
62
256
6
ByLayer
370
18
48
1
60
0
100
AcDbSpline
70
4
71
3
72
16
73
12
40
0
40
0
40
0
40
0
40
0.250000000000001
40
0.250000000000001
40
0.500000000000002
40
0.500000000000002
40
0.750000000000003
40
0.750000000000003
40
0.875000000000001
40
0.875000000000001
40
1
40
1
40
1
40
1
41
1
10
44.8761963237686
20
-2.01522066525138
30
0
41
1
10
44.8757260705178
20
-2.11116713828588
30
0
41
1
10
44.8798294817178
20
-2.19508658215346
30
0
41
1
10
44.8974772800117
20
-2.33928476830553
30
0
41
1
10
44.911253148233
20
-2.39977760474812
30
0
41
1
10
44.9480505456661
20
-2.49215967588719
30
0
41
1
10
44.971065479523
20
-2.52482446622111
30
0
41
1
10
45.0131136054405
20
-2.55386296936396
30
0
41
1
10
45.0284545725217
20
-2.56019378948059
30
0
41
1
10
45.0614136770708
20
-2.56596569702498
30
0
41
1
10
45.0790463345865
20
-2.56544857101315
30
0
41
1
10
45.0978745465907
20
-2.56159020777091
30
0
0
SPLINE
5
C8
100
AcDbEntity
8
1
62
256
6
ByLayer
370
18
48
1
60
0
100
AcDbSpline
70
4
71
3
72
14
73
10
40
0
40
0
40
0
40
0
40
0.25
40
0.25
40
0.5
40
0.5
40
0.75
40
0.75
40
1
40
1
40
1
40
1
41
1
10
4.02893359130098
20
2.67319846125324
30
0
41
1
10
4.03994536537851
20
2.65243436958954
30
0
41
1
10
4.05434910339844
20
2.63262924816291
30
0
41
1
10
4.08743177542215
20
2.59856618657292
30
0
41
1
10
4.10656062222537
20
2.58381216137704
30
0
41
1
10
4.14648280033856
20
2.56072570207112
30
0
41
1
10
4.16768761419843
20
2.55208835955887
30
0
41
1
10
4.20969254984661
20
2.54062299682627
30
0
41
1
10
4.23088648166956
20
2.53763275416472
30
0
41
1
10
4.25154424487474
20
2.53707046866239
30
0
0
SPLINE
5
C9
100
AcDbEntity
8
1
62
256
6
ByLayer
370
18
48
1
60
0
100
AcDbSpline
70
4
71
3
72
8
73
4
40
0
40
0
40
0
40
0
40
1
40
1
40
1
40
1
41
1
10
45.9790546802177
20
-0.0172561532925783
30
0
41
1
10
45.8361805209949
20
-0.251155862819218
30
0
41
1
10
45.6965967148813
20
-0.488052432098726
30
0
41
1
10
45.560349002602
20
-0.72798752186884
30
0
0
SPLINE
5
CA
100
AcDbEntity
8
1
62
256
6
ByLayer
370
18
48
1
60
0
100
AcDbSpline
70
4
71
3
72
10
73
6
40
0
40
0
40
0
40
0
40
0.5
40
0.5
40
1
40
1
40
1
40
1
41
1
10
4.0862390176375
20
-0.171623838064789
30
0
41
1
10
4.06917689331746
20
-0.156860542085639
30
0
41
1
10
4.05482871566147
20
-0.139146368317455
30
0
41
1
10
4.03440368070301
20
-0.0994271357607204
30
0
41
1
10
4.02824545782372
20
-0.0772618893518029
30
0
41
1
10
4.02825214075577
20
-0.0546131085194475
30
0
0
SPLINE
5
CB
100
AcDbEntity
8
1
62
256
6
ByLayer
370
18
48
1
60
0
100
AcDbSpline
70
4
71
3
72
8
73
4
40
0
40
0
40
0
40
0
40
1
40
1
40
1
40
1
41
1
10
45.9558921799785
20
0.734708771848943
30
0
41
1
10
45.9719016943906
20
0.521275155132514
30
0
41
1
10
45.9833053423909
20
0.308159378873995
30
0
41
1
10
45.9901055185983
20
0.0953612778261288
30
0
0
SPLINE
5
CC
100
AcDbEntity
8
1
62
256
6
ByLayer
370
13
48
1
60
0
100
AcDbSpline
70
4
71
3
72
8
73
4
40
0
40
0
40
0
40
0
40
1
40
1
40
1
40
1
41
1
10
4.13635739092032
20
-0.111082111085949
30
0
41
1
10
4.17203222200999
20
-0.12048363529712
30
0
41
1
10
4.21075949964546
20
-0.131119214622942
30
0
41
1
10
4.25041731972362
20
-0.142718595046176
30
0
0
SPLINE
5
CD
100
AcDbEntity
8
1
62
256
6
ByLayer
370
18
48
1
60
0
100
AcDbSpline
70
4
71
3
72
34
73
30
40
0
40
0
40
0
40
0
40
0.124999999999987
40
0.124999999999987
40
0.249999999999975
40
0.249999999999975
40
0.312499999999974
40
0.312499999999974
40
0.374999999999974
40
0.374999999999974
40
0.406249999999973
40
0.406249999999973
40
0.437499999999973
40
0.437499999999973
40
0.468749999999972
40
0.468749999999972
40
0.499999999999972
40
0.499999999999972
40
0.531249999999971
40
0.531249999999971
40
0.562499999999971
40
0.562499999999971
40
0.62499999999997
40
0.62499999999997
40
0.74999999999998
40
0.74999999999998
40
0.87499999999999
40
0.87499999999999
40
1
40
1
40
1
40
1
41
1
10
45.2340015552699
20
-1.32050312030819
30
0
41
1
10
45.1397285860861
20
-1.29161698995188
30
0
41
1
10
45.0449637621704
20
-1.2540725335711
30
0
41
1
10
44.859283059552
20
-1.16217972170483
30
0
41
1
10
44.7685896831881
20
-1.1083962426593
30
0
41
1
10
44.6374944999557
20
-1.00967079184463
30
0
41
1
10
44.5948614293551
20
-0.973844791940053
30
0
41
1
10
44.5142143723756
20
-0.894183563585841
30
0
41
1
10
44.4766085332437
20
-0.851159184929202
30
0
41
1
10
44.4292260259081
20
-0.777567560937314
30
0
41
1
10
44.4147450774261
20
-0.750963671518036
30
0
41
1
10
44.3929819057232
20
-0.695327561421408
30
0
41
1
10
44.3857010815476
20
-0.666000164127439
30
0
41
1
10
44.3838781679273
20
-0.608949002838699
30
0
41
1
10
44.3897311294535
20
-0.58189067292102
30
0
41
1
10
44.4124045983601
20
-0.53712117764988
30
0
41
1
10
44.428742022379
20
-0.519292041942919
30
0
41
1
10
44.465172416116
20
-0.491294073031583
30
0
41
1
10
44.4857213188433
20
-0.480681840514791
30
0
41
1
10
44.5280873332514
20
-0.464356177602184
30
0
41
1
10
44.5500656271723
20
-0.458540983681019
30
0
41
1
10
44.6175914873404
20
-0.445791872440054
30
0
41
1
10
44.6645873657651
20
-0.443563341597127
30
0
41
1
10
44.805286847626
20
-0.447617091992441
30
0
41
1
10
44.9008932182995
20
-0.464348029449525
30
0
41
1
10
45.0921738869084
20
-0.513615564492255
30
0
41
1
10
45.1872541901706
20
-0.546312539367676
30
0
41
1
10
45.3764140389976
20
-0.626115184741053
30
0
41
1
10
45.4695076798295
20
-0.672738762950274
30
0
41
1
10
45.560349002602
20
-0.72798752186884
30
0
0
SPLINE
5
CE
100
AcDbEntity
8
1
62
256
6
ByLayer
370
18
48
1
60
0
100
AcDbSpline
70
4
71
3
72
14
73
10
40
0
40
0
40
0
40
0
40
0.237162463700374
40
0.237162463700374
40
0.491441642466916
40
0.491441642466916
40
0.745720821233458
40
0.745720821233458
40
1
40
1
40
1
40
1
41
1
10
4.31218660618629
20
2.53515803493028
30
0
41
1
10
4.59251109735365
20
2.52511462701972
30
0
41
1
10
4.87622391692065
20
2.49836598616466
30
0
41
1
10
5.46988015050295
20
2.4144076954783
30
0
41
1
10
5.7776014097079
20
2.35561632476626
30
0
41
1
10
6.39437593336322
20
2.21409203050675
30
0
41
1
10
6.70367135252548
20
2.13249743366282
30
0
41
1
10
7.32697090380367
20
1.9481126296146
30
0
41
1
10
7.64098029355887
20
1.84676513381871
30
0
41
1
10
7.95910415830056
20
1.74039377844431
30
0
0
SPLINE
5
CF
100
AcDbEntity
8
1
62
256
6
ByLayer
370
18
48
1
60
0
100
AcDbSpline
70
4
71
3
72
8
73
4
40
0
40
0
40
0
40
0
40
1
40
1
40
1
40
1
41
1
10
45.0756237274805
20
2.68920057491289
30
0
41
1
10
44.9204871206522
20
2.69628216971407
30
0
41
1
10
44.7654198777977
20
2.69975422270602
30
0
41
1
10
44.6103113390025
20
2.69962470368245
30
0
0
SPLINE
5
D0
100
AcDbEntity
8
1
62
256
6
ByLayer
370
18
48
1
60
0
100
AcDbSpline
70
4
71
3
72
42
73
38
40
0
40
0
40
0
40
0
40
0.0062791197927566
40
0.0062791197927566
40
0.077633793230409
40
0.077633793230409
40
0.113311129949234
40
0.113311129949234
40
0.148988466668059
40
0.148988466668059
40
0.291697813543359
40
0.291697813543359
40
0.327375150262184
40
0.327375150262184
40
0.363052486981009
40
0.363052486981009
40
0.434407160418659
40
0.434407160418659
40
0.505761833856308
40
0.505761833856308
40
0.541439170575133
40
0.541439170575133
40
0.577116507293957
40
0.577116507293957
40
0.719825854169253
40
0.719825854169253
40
0.755503190888077
40
0.755503190888077
40
0.791180527606902
40
0.791180527606902
40
0.862535201044552
40
0.862535201044552
40
0.933889874482201
40
0.933889874482201
40
0.969567211201026
40
0.969567211201026
40
1
40
1
40
1
40
1
41
1
10
29.8264362667304
20
-2.56969694648493
30
0
41
1
10
29.789109842894
20
-2.57538952958339
30
0
41
1
10
29.7517766388549
20
-2.58088493723528
30
0
41
1
10
29.2900913353529
20
-2.64637553770879
30
0
41
1
10
28.8645294465331
20
-2.68088260875925
30
0
41
1
10
28.2205614561595
20
-2.69157832778316
30
0
41
1
10
28.0058507507568
20
-2.68824175615785
30
0
41
1
10
27.5787886779402
20
-2.66809854234055
30
0
41
1
10
27.3659690374322
20
-2.65130496076338
30
0
41
1
10
26.3039071085765
20
-2.53468530328752
30
0
41
1
10
25.4604197871036
20
-2.33668689192794
30
0
41
1
10
24.3873863077001
20
-1.97796543799384
30
0
41
1
10
24.1724033532827
20
-1.90084371757757
30
0
41
1
10
23.7450879920804
20
-1.73839643346972
30
0
41
1
10
23.5322031691834
20
-1.65281668906283
30
0
41
1
10
22.8947047694907
20
-1.38498762492938
30
0
41
1
10
22.471323553114
20
-1.19152244395545
30
0
41
1
10
21.6225000896668
20
-0.784139997630433
30
0
41
1
10
21.1971446984054
20
-0.570059914013541
30
0
41
1
10
20.5535984114387
20
-0.240785703650488
30
0
41
1
10
20.3383982661475
20
-0.129832203808149
30
0
41
1
10
19.9107883189466
20
0.0905911305167137
30
0
41
1
10
19.6977542115724
20
0.200464984823327
30
0
41
1
10
18.6349554530187
20
0.745262686302283
30
0
41
1
10
17.791373950098
20
1.16450798012411
30
0
41
1
10
16.7190325249788
20
1.6182314524568
30
0
41
1
10
16.5036751175799
20
1.70549998690376
30
0
41
1
10
16.0758652926069
20
1.86972440082428
30
0
41
1
10
15.8627126326602
20
1.94694284515501
30
0
41
1
10
15.2245811518604
20
2.16293042553016
30
0
41
1
10
14.80106149382
20
2.2861534929248
30
0
41
1
10
13.9521327076242
20
2.48505015412658
30
0
41
1
10
13.5269580019003
20
2.56093709924551
30
0
41
1
10
12.883804396279
20
2.63537493920705
30
0
41
1
10
12.6683079136616
20
2.65362906825411
30
0
41
1
10
12.2716756662448
20
2.67464437207553
30
0
41
1
10
12.0896695309153
20
2.67935927174779
30
0
41
1
10
11.9080408445347
20
2.67917777025326
30
0
0
SPLINE
5
D1
100
AcDbEntity
8
1
62
256
6
ByLayer
370
13
48
1
60
0
100
AcDbSpline
70
4
71
3
72
8
73
4
40
0
40
0
40
0
40
0
40
1
40
1
40
1
40
1
41
1
10
4.13635739092032
20
-0.203794821950567
30
0
41
1
10
4.15799065122715
20
-0.213954270598322
30
0
41
1
10
4.18126443297948
20
-0.22522145935622
30
0
41
1
10
4.20503123139071
20
-0.237224494531262
30
0
0
SPLINE
5
D2
100
AcDbEntity
8
1
62
256
6
ByLayer
370
18
48
1
60
0
100
AcDbSpline
70
4
71
3
72
31
73
27
40
0
40
0
40
0
40
0
40
0.0625000000000001
40
0.0625000000000001
40
0.125
40
0.125
40
0.25
40
0.25
40
0.3125
40
0.3125
40
0.375
40
0.375
40
0.5
40
0.5
40
0.5625
40
0.5625
40
0.625
40
0.6875
40
0.6875
40
0.75
40
0.75
40
0.875
40
0.875
40
0.9375
40
0.9375
40
1
40
1
40
1
40
1
41
1
10
4.0282521407558
20
-0.0546131085194759
30
0
41
1
10
4.02827797128859
20
0.0329278198338443
30
0
41
1
10
4.02830276189556
20
0.12036092482677
30
0
41
1
10
4.02835057588959
20
0.295011262447758
30
0
41
1
10
4.02837363496124
20
0.382393530489026
30
0
41
1
10
4.02843951687515
20
0.639817754284849
30
0
41
1
10
4.02847947821138
20
0.806611648362519
30
0
41
1
10
4.02853557340944
20
1.04963039786585
30
0
41
1
10
4.02855368270286
20
1.1296965029471
30
0
41
1
10
4.02858862897162
20
1.28615190032545
30
0
41
1
10
4.02860531100501
20
1.3618309929424
30
0
41
1
10
4.02865349739164
20
1.58146123074141
30
0
41
1
10
4.02868317730037
20
1.71807461143601
30
0
41
1
10
4.02872533483009
20
1.9079476828874
30
0
41
1
10
4.02873897766108
20
1.96866772648701
30
0
41
1
10
4.02876500085782
20
2.08237363802255
30
0
41
1
10
4.02878992266989
20
2.18907911119524
30
0
41
1
10
4.02881282840661
20
2.28200533389122
30
0
41
1
10
4.02883472110915
20
2.36795514428656
30
0
41
1
10
4.02884520816502
20
2.40761015313188
30
0
41
1
10
4.0288746421831
20
2.51442248658901
30
0
41
1
10
4.02889144988967
20
2.56903229821117
30
0
41
1
10
4.02891160535034
20
2.62677575049926
30
0
41
1
10
4.02891746886655
20
2.641966173139
30
0
41
1
10
4.02892718425716
20
2.66400029518741
30
0
41
1
10
4.02893100515229
20
2.67075429586728
30
0
41
1
10
4.02893359130098
20
2.67319846125326
30
0
0
SPLINE
5
D3
100
AcDbEntity
8
1
62
256
6
ByLayer
370
18
48
1
60
0
100
AcDbSpline
70
4
71
3
72
14
73
10
40
0
40
0
40
0
40
0
40
0.340773533395547
40
0.340773533395547
40
0.681547066791093
40
0.681547066791093
40
0.851933833488867
40
0.851933833488867
40
1
40
1
40
1
40
1
41
1
10
4.20503123139073
20
-0.23722449453129
30
0
41
1
10
4.63437410765331
20
-0.454057134618921
30
0
41
1
10
5.06123344965118
20
-0.666867768165474
30
0
41
1
10
5.91486652814487
20
-1.0755292200262
30
0
41
1
10
6.34164175482817
20
-1.27137099740028
30
0
41
1
10
6.98601024958822
20
-1.54430913968684
30
0
41
1
10
7.20102570891981
20
-1.63164438579452
30
0
41
1
10
7.60050409317878
20
-1.78587779282628
30
0
41
1
10
7.78567308417274
20
-1.85412219841987
30
0
41
1
10
7.97049820438593
20
-1.91861657663813
30
0
0
SPLINE
5
D4
100
AcDbEntity
8
1
62
256
6
ByLayer
370
13
48
1
60
0
100
AcDbSpline
70
4
71
3
72
18
73
14
40
0
40
0
40
0
40
0
40
0.0157564338336031
40
0.0157564338336031
40
0.256313624847722
40
0.256313624847722
40
0.496870815861841
40
0.496870815861841
40
0.617149411368902
40
0.617149411368902
40
0.737428006875962
40
0.737428006875962
40
1
40
1
40
1
40
1
41
1
10
7.97049828613592
20
-1.91861660516466
30
0
41
1
10
7.99836017837552
20
-1.92833895991862
30
0
41
1
10
8.02621425623636
20
-1.93797609621581
30
0
41
1
10
8.4792086110412
20
-2.0933436314283
30
0
41
1
10
8.90268822552517
20
-2.21913717068136
30
0
41
1
10
9.75143143931805
20
-2.42480878285929
30
0
41
1
10
10.1766795428515
20
-2.50472681677334
30
0
41
1
10
10.8197814323211
20
-2.58618371592277
30
0
41
1
10
11.0351482520629
20
-2.60689688761036
30
0
41
1
10
11.4629668832312
20
-2.63473750387715
30
0
41
1
10
11.6760796852655
20
-2.64196375058904
30
0
41
1
10
12.3529487902391
20
-2.64386265558616
30
0
41
1
10
12.8149497582754
20
-2.61348199936017
30
0
41
1
10
13.2781027979683
20
-2.55269535329552
30
0
0
SPLINE
5
D5
100
AcDbEntity
8
1
62
256
6
ByLayer
370
18
48
1
60
0
100
AcDbSpline
70
4
71
3
72
20
73
16
40
0
40
0
40
0
40
0
40
0.0325824944052408
40
0.0325824944052408
40
0.216694691039768
40
0.216694691039768
40
0.400806887674295
40
0.400806887674295
40
0.492862985991561
40
0.492862985991561
40
0.584919084308827
40
0.584919084308827
40
0.953143477577895
40
0.953143477577895
40
1
40
1
40
1
40
1
41
1
10
33.3973134811601
20
1.46466008043325
30
0
41
1
10
33.4729758864776
20
1.43246382930727
30
0
41
1
10
33.5485382681715
20
1.39984247660934
30
0
41
1
10
34.0503722620754
20
1.18030918624765
30
0
41
1
10
34.4740983222289
20
0.981302106179896
30
0
41
1
10
35.321106730229
20
0.567683700703384
30
0
41
1
10
35.7445272787641
20
0.353333304368533
30
0
41
1
10
36.3831456431656
20
0.0274560612111827
30
0
41
1
10
36.5966433455791
20
-0.0818029432961396
30
0
41
1
10
37.0255792048284
20
-0.300258858825998
30
0
41
1
10
37.2401851003377
20
-0.409054712835854
30
0
41
1
10
38.3065974946647
20
-0.943418858841568
30
0
41
1
10
39.147179112872
20
-1.34412632016981
30
0
41
1
10
40.1038494488223
20
-1.72349624024764
30
0
41
1
10
40.211970234242
20
-1.76529744621035
30
0
41
1
10
40.320265000199
20
-1.80599552863905
30
0
0
SPLINE
5
D6
100
AcDbEntity
8
1
62
256
6
ByLayer
370
13
48
1
60
0
100
AcDbSpline
70
4
71
3
72
14
73
10
40
0
40
0
40
0
40
0
40
0.0655453638531224
40
0.0655453638531224
40
0.19903888330268
40
0.19903888330268
40
0.466025922201789
40
0.466025922201789
40
1
40
1
40
1
40
1
41
1
10
40.3202650004467
20
-1.80599552873218
30
0
41
1
10
40.4247302325219
20
-1.8452544401687
30
0
41
1
10
40.5293573580478
20
-1.88348686623829
30
0
41
1
10
40.8476944393259
20
-1.99625312171091
30
0
41
1
10
41.0627724545977
20
-2.06754737051625
30
0
41
1
10
41.7049047548693
20
-2.26413219849357
30
0
41
1
10
42.1288785589688
20
-2.37237227858463
30
0
41
1
10
43.3965751736253
20
-2.62322532062726
30
0
41
1
10
44.2365371028508
20
-2.69208422100573
30
0
41
1
10
45.0903080309914
20
-2.65223350153812
30
0
0
SPLINE
5
D7
100
AcDbEntity
8
1
62
256
6
ByLayer
370
18
48
1
60
0
100
AcDbSpline
70
4
71
3
72
34
73
30
40
0
40
0
40
0
40
0
40
0.146858136357622
40
0.146858136357622
40
0.298768878604533
40
0.298768878604533
40
0.450679620851443
40
0.450679620851443
40
0.526634991974899
40
0.526634991974899
40
0.564612677536626
40
0.564612677536626
40
0.58360152031749
40
0.58360152031749
40
0.588348731012706
40
0.588348731012706
40
0.593095941707922
40
0.593095941707922
40
0.602590363098354
40
0.602590363098354
40
0.678545734221809
40
0.678545734221809
40
0.754501105345264
40
0.754501105345264
40
0.906411847592175
40
0.906411847592175
40
0.98236721871563
40
0.98236721871563
40
1
40
1
40
1
40
1
41
1
10
7.95910415830039
20
2.20723543932277
30
0
41
1
10
7.95910415830039
20
2.03935535483473
30
0
41
1
10
7.95910415830056
20
1.88183984641145
30
0
41
1
10
7.95910415830056
20
1.58192132453954
30
0
41
1
10
7.95910415830059
20
1.44468460099708
30
0
41
1
10
7.95910415830059
20
1.1976095680804
30
0
41
1
10
7.95910415830059
20
1.08779841286886
30
0
41
1
10
7.95910415830059
20
0.94331181750573
30
0
41
1
10
7.95910415830056
20
0.898569343567829
30
0
41
1
10
7.95910415830056
20
0.837258143674433
30
0
41
1
10
7.95910415830056
20
0.817754060750445
30
0
41
1
10
7.95910415830056
20
0.789891877860157
30
0
41
1
10
7.95910415830056
20
0.780841439696871
30
0
41
1
10
7.95910415830056
20
0.769823454564943
30
0
41
1
10
7.95910415830056
20
0.767379373409881
30
0
41
1
10
7.95910415830056
20
0.764755481862181
30
0
41
1
10
7.95910415830059
20
0.764348086857012
30
0
41
1
10
7.95910415830059
20
0.765965361547387
30
0
41
1
10
7.95910415830059
20
0.771792515288524
30
0
41
1
10
7.95910415830059
20
0.817234563111015
30
0
41
1
10
7.95910415830056
20
0.861828229744873
30
0
41
1
10
7.95910415830056
20
0.959220221028033
30
0
41
1
10
7.95910415830059
20
1.01224239128902
30
0
41
1
10
7.95910415830059
20
1.18271418481822
30
0
41
1
10
7.95910415830056
20
1.3112526190055
30
0
41
1
10
7.95910415830056
20
1.52767275020142
30
0
41
1
10
7.95910415830056
20
1.60394648161548
30
0
41
1
10
7.95910415830056
20
1.70270724986759
30
0
41
1
10
7.95910415830056
20
1.72147185371006
30
0
41
1
10
7.95910415830056
20
1.74039377844309
30
0
0
SPLINE
5
D8
100
AcDbEntity
8
1
62
256
6
ByLayer
370
13
48
1
60
0
100
AcDbSpline
70
4
71
3
72
29
73
25
40
0
40
0
40
0
40
0
40
0.0625
40
0.0625
40
0.125
40
0.125
40
0.25
40
0.25
40
0.3125
40
0.3125
40
0.375
40
0.4375
40
0.4375
40
0.5
40
0.5
40
0.625
40
0.625
40
0.6875
40
0.6875
40
0.75
40
0.75
40
0.875
40
0.875
40
1
40
1
40
1
40
1
41
1
10
4.25041731972362
20
-0.142718595046176
30
0
41
1
10
4.25046027413748
20
-0.0589651859129958
30
0
41
1
10
4.25050162676334
20
0.0251605714224468
30
0
41
1
10
4.2505806760405
20
0.192009486731394
30
0
41
1
10
4.25061836592482
20
0.274687674265237
30
0
41
1
10
4.25072693220019
20
0.52054208272142
30
0
41
1
10
4.25079333385506
20
0.681559228331025
30
0
41
1
10
4.25088722325819
20
0.918607332751321
30
0
41
1
10
4.25091727900215
20
0.996166671584206
30
0
41
1
10
4.25097482692496
20
1.14668112453771
30
0
41
1
10
4.25103003610266
20
1.2931609634532
30
0
41
1
10
4.25108156821409
20
1.43165368939694
30
0
41
1
10
4.25113163977557
20
1.56607785922017
30
0
41
1
10
4.25115606186893
20
1.63156330562927
30
0
41
1
10
4.25122617571265
20
1.81801922546515
30
0
41
1
10
4.25126911647743
20
1.92994954413666
30
0
41
1
10
4.25132889065614
20
2.07959374631602
30
0
41
1
10
4.25134802272862
20
2.1264117739766
30
0
41
1
10
4.25138463813363
20
2.21370144085287
30
0
41
1
10
4.25140199454441
20
2.25385955563033
30
0
41
1
10
4.25145032973978
20
2.36232616995252
30
0
41
1
10
4.25147776876361
20
2.41903659525568
30
0
41
1
10
4.25152103762395
20
2.50186139843032
30
0
41
1
10
4.25153684836283
20
2.52783741461624
30
0
41
1
10
4.25154424487062
20
2.53707046866009
30
0
0
SPLINE
5
D9
100
AcDbEntity
8
1
62
256
6
ByLayer
370
18
48
1
60
0
100
AcDbSpline
70
4
71
3
72
8
73
4
40
0
40
0
40
0
40
0
40
1
40
1
40
1
40
1
41
1
10
45.2340015552699
20
-1.32050312030822
30
0
41
1
10
45.1117783895133
20
-1.54938443868733
30
0
41
1
10
44.9924992349957
20
-1.78094716799751
30
0
41
1
10
44.8761963237686
20
-2.0152206652514
30
0
0
SPLINE
5
DA
100
AcDbEntity
8
1
62
256
6
ByLayer
370
18
48
1
60
0
100
AcDbSpline
70
4
71
3
72
8
73
4
40
0
40
0
40
0
40
0
40
1
40
1
40
1
40
1
41
1
10
45.9558921799785
20
-0.734708771848943
30
0
41
1
10
45.9718948208053
20
-0.521366791526845
30
0
41
1
10
45.983302420775
20
-0.308250805077108
30
0
41
1
10
45.9901055185982
20
-0.095361277826072
30
0
0
SPLINE
5
DB
100
AcDbEntity
8
1
62
256
6
ByLayer
370
18
48
1
60
0
100
AcDbSpline
70
4
71
3
72
12
73
8
40
0
40
0
40
0
40
0
40
0.37120031095338
40
0.37120031095338
40
0.751723235031106
40
0.751723235031106
40
1
40
1
40
1
40
1
41
1
10
28.4954211702581
20
-2.55470033298329
30
0
41
1
10
28.0800175228359
20
-2.55494871836064
30
0
41
1
10
27.6668886964494
20
-2.53077934607686
30
0
41
1
10
26.8305777795581
20
-2.43432789621741
30
0
41
1
10
26.4072898076227
20
-2.36087788885402
30
0
41
1
10
25.7040668338104
20
-2.20100689596774
30
0
41
1
10
25.4248553198954
20
-2.12777827958263
30
0
41
1
10
25.1451351020866
20
-2.04558734087269
30
0
0
SPLINE
5
DC
100
AcDbEntity
8
1
62
256
6
ByLayer
370
13
48
1
60
0
100
AcDbSpline
70
4
71
3
72
26
73
22
40
0
40
0
40
0
40
0
40
0.053927410623
40
0.053927410623
40
0.20909758847439
40
0.20909758847439
40
0.286682677400085
40
0.286682677400085
40
0.364267766325781
40
0.364267766325781
40
0.519437944177175
40
0.519437944177175
40
0.674608122028568
40
0.674608122028568
40
0.752193210954265
40
0.752193210954265
40
0.829778299879962
40
0.829778299879962
40
0.984948477731356
40
0.984948477731356
40
1
40
1
40
1
40
1
41
1
10
25.1451341425637
20
-2.04558705893351
30
0
41
1
10
24.9961397524535
20
-2.00180762859986
30
0
41
1
10
24.8470010324932
20
-1.95548539588049
30
0
41
1
10
24.2687822180984
20
-1.76668605572161
30
0
41
1
10
23.8415593915915
20
-1.60784121764706
30
0
41
1
10
23.2002273202626
20
-1.34748663783893
30
0
41
1
10
22.9863132856683
20
-1.25705342156783
30
0
41
1
10
22.5576307196252
20
-1.06993811228239
30
0
41
1
10
22.3431135707757
20
-0.973344130616198
30
0
41
1
10
21.7029982697453
20
-0.678532249509345
30
0
41
1
10
21.2790087575622
20
-0.474546082759218
30
0
41
1
10
20.4318020892908
20
-0.0615230267821403
30
0
41
1
10
20.0083765690789
20
0.147086607556503
30
0
41
1
10
19.3704415203556
20
0.456733953312693
30
0
41
1
10
19.1572676961465
20
0.559273987712288
30
0
41
1
10
18.7291753536728
20
0.761565454173365
30
0
41
1
10
18.5143220705033
20
0.861474955550648
30
0
41
1
10
17.8737652235393
20
1.15191041510974
30
0
41
1
10
17.4496550135543
20
1.33455047018299
30
0
41
1
10
16.9848660458445
20
1.5180641360659
30
0
41
1
10
16.9437730924697
20
1.53414968360013
30
0
41
1
10
16.9026829281142
20
1.55009014709714
30
0
0
SPLINE
5
DD
100
AcDbEntity
8
1
62
256
6
ByLayer
370
18
48
1
60
0
100
AcDbSpline
70
4
71
3
72
8
73
4
40
0
40
0
40
0
40
0
40
1
40
1
40
1
40
1
41
1
10
45.0903080310098
20
-2.65223350154656
30
0
41
1
10
45.0854179572869
20
-2.66456196767547
30
0
41
1
10
45.0805231137152
20
-2.67688441100833
30
0
41
1
10
45.0756237274805
20
-2.68920057491289
30
0
0
SPLINE
5
DE
100
AcDbEntity
8
1
62
256
6
ByLayer
370
13
48
1
60
0
100
AcDbSpline
70
4
71
3
72
8
73
4
40
0
40
0
40
0
40
0
40
1
40
1
40
1
40
1
41
1
10
4.02825214074807
20
-0.0546131085434354
30
0
41
1
10
4.05110838562905
20
-0.0781711588785754
30
0
41
1
10
4.08791093777702
20
-0.0983148326343155
30
0
41
1
10
4.13635739092032
20
-0.111082111085949
30
0
0
SPLINE
5
DF
100
AcDbEntity
8
1
62
256
6
ByLayer
370
18
48
1
60
0
100
AcDbSpline
70
4
71
3
72
10
73
6
40
0
40
0
40
0
40
0
40
0.783547906278274
40
0.783547906278274
40
1
40
1
40
1
40
1
41
1
10
45.0978745476127
20
-2.56159020778321
30
0
41
1
10
44.2424256514724
20
-2.5828594602701
30
0
41
1
10
43.4008939235796
20
-2.49899691480897
30
0
41
1
10
42.3213659290437
20
-2.27314305812547
30
0
41
1
10
42.0873443853961
20
-2.21714003713168
30
0
41
1
10
41.8525380955014
20
-2.15437198757442
30
0
0
SPLINE
5
E0
100
AcDbEntity
8
1
62
256
6
ByLayer
370
13
48
1
60
0
100
AcDbSpline
70
4
71
3
72
24
73
20
40
0
40
0
40
0
40
0
40
0.0645428329339013
40
0.0645428329339013
40
0.136656425358221
40
0.136656425358221
40
0.208770017782541
40
0.208770017782541
40
0.497224387479817
40
0.497224387479817
40
0.569337979904136
40
0.569337979904136
40
0.641451572328455
40
0.641451572328455
40
0.785678757177093
40
0.785678757177093
40
0.929905942025731
40
0.929905942025731
40
1
40
1
40
1
40
1
41
1
10
41.8525386049835
20
-2.15437212376835
30
0
41
1
10
41.6623500454742
20
-2.10353122367826
30
0
41
1
10
41.4716466387057
20
-2.04825199981625
30
0
41
1
10
41.0662975506959
20
-1.92220757496446
30
0
41
1
10
40.8517549218726
20
-1.85042052062909
30
0
41
1
10
40.4254892919229
20
-1.69886272596168
30
0
41
1
10
40.2131253756799
20
-1.61890245197191
30
0
41
1
10
39.1535123564295
20
-1.20105912589929
30
0
41
1
10
38.3131062911676
20
-0.808206779151533
30
0
41
1
10
37.2475552301987
20
-0.290262773118968
30
0
41
1
10
37.0330949185746
20
-0.185055168059165
30
0
41
1
10
36.6050118614903
20
0.0253226515968663
30
0
41
1
10
36.3918483258049
20
0.130275853347683
30
0
41
1
10
35.7540946122733
20
0.442715907070351
30
0
41
1
10
35.3310434467168
20
0.647309170983874
30
0
41
1
10
34.4846678112677
20
1.04013215641265
30
0
41
1
10
34.0611819684362
20
1.2280398119415
30
0
41
1
10
33.4281127688801
20
1.4880841063453
30
0
41
1
10
33.2201568435761
20
1.57016527391866
30
0
41
1
10
33.0118660600367
20
1.6483434854448
30
0
0
SPLINE
5
E1
100
AcDbEntity
8
1
62
256
6
ByLayer
370
18
48
1
60
0
100
AcDbSpline
70
4
71
3
72
16
73
12
40
0
40
0
40
0
40
0
40
0.067937733751159
40
0.067937733751159
40
0.282254173794099
40
0.282254173794099
40
0.496570613837039
40
0.496570613837039
40
0.925203493922918
40
0.925203493922918
40
1
40
1
40
1
40
1
41
1
10
12.1261620494125
20
-2.54430158905058
30
0
41
1
10
12.0588947298363
20
-2.54422806037238
30
0
41
1
10
11.9915929428013
20
-2.5435149776599
30
0
41
1
10
11.711797710299
20
-2.53788209355946
30
0
41
1
10
11.4988971109252
20
-2.52721539097814
30
0
41
1
10
11.0716068074254
20
-2.4930980735665
30
0
41
1
10
10.8566055175054
20
-2.46954486308533
30
0
41
1
10
10.214523396573
20
-2.38053560972028
30
0
41
1
10
9.78970989981596
20
-2.29688963597602
30
0
41
1
10
9.29173451000204
20
-2.17326776165368
30
0
41
1
10
9.21777296678479
20
-2.15424251411437
30
0
41
1
10
9.14382347856377
20
-2.13457482793481
30
0
0
SPLINE
5
E2
100
AcDbEntity
8
1
62
256
6
ByLayer
370
13
48
1
60
0
100
AcDbSpline
70
4
71
3
72
14
73
10
40
0
40
0
40
0
40
0
40
0.215788753110286
40
0.215788753110286
40
0.346490627591906
40
0.346490627591906
40
0.477192502073526
40
0.477192502073526
40
1
40
1
40
1
40
1
41
1
10
9.14382347913502
20
-2.13457482808675
30
0
41
1
10
8.79399405315593
20
-2.041533814134
30
0
41
1
10
8.4444344069654
20
-1.93411561112305
30
0
41
1
10
7.88144239443071
20
-1.7412379986385
30
0
41
1
10
7.66867605350618
20
-1.6638125448014
30
0
41
1
10
7.24172975792402
20
-1.50050103818853
30
0
41
1
10
7.02705569085396
20
-1.41439680849118
30
0
41
1
10
5.95488062519098
20
-0.96743885438849
30
0
41
1
10
5.10746678681821
20
-0.560327211927188
30
0
41
1
10
4.25041731972357
20
-0.142718595046119
30
0
0
SPLINE
5
E3
100
AcDbEntity
8
1
62
256
6
ByLayer
370
18
48
1
60
0
100
AcDbSpline
70
4
71
3
72
16
73
12
40
0
40
0
40
0
40
0
40
0.0346750372206976
40
0.0346750372206976
40
0.203608347495156
40
0.203608347495156
40
0.372541657769615
40
0.372541657769615
40
0.710408278318532
40
0.710408278318532
40
1
40
1
40
1
40
1
41
1
10
7.10869591712802
20
-2.01243613936393
30
0
41
1
10
7.07648001848475
20
-2.0221352233921
30
0
41
1
10
7.0442816297157
20
-2.03174403123833
30
0
41
1
10
6.85530710029101
20
-2.08760880631374
30
0
41
1
10
6.6986527346634
20
-2.13148722155842
30
0
41
1
10
6.3870399655172
20
-2.21316578830803
30
0
41
1
10
6.2320075820972
20
-2.25145189205685
30
0
41
1
10
5.76883118106267
20
-2.35741406931839
30
0
41
1
10
5.46262268406565
20
-2.41557842612494
30
0
41
1
10
4.89749414778547
20
-2.49523216340418
30
0
41
1
10
4.63804586882051
20
-2.5207195107823
30
0
41
1
10
4.38029962852983
20
-2.53239484775148
30
0
0
SPLINE
5
E4
100
AcDbEntity
8
1
62
256
6
ByLayer
370
18
48
1
60
0
100
AcDbSpline
70
4
71
3
72
8
73
4
40
0
40
0
40
0
40
0
40
1
40
1
40
1
40
1
41
1
10
4.31239279001377
20
-2.53515100067466
30
0
41
1
10
4.29209913482774
20
-2.53587844677301
30
0
41
1
10
4.27181623353465
20
-2.53651868358997
30
0
41
1
10
4.2515442456947
20
-2.53707046864002
30
0
0
SPLINE
5
E5
100
AcDbEntity
8
1
62
256
6
ByLayer
370
18
48
1
60
0
100
AcDbSpline
70
4
71
3
72
28
73
24
40
0
40
0
40
0
40
0
40
0.0624999999999965
40
0.0624999999999965
40
0.124999999999993
40
0.124999999999993
40
0.18749999999999
40
0.18749999999999
40
0.249999999999986
40
0.249999999999986
40
0.374999999999979
40
0.374999999999979
40
0.437499999999978
40
0.437499999999978
40
0.499999999999978
40
0.499999999999978
40
0.624999999999976
40
0.624999999999976
40
0.687499999999979
40
0.687499999999979
40
0.749999999999981
40
0.749999999999981
40
1
40
1
40
1
40
1
41
1
10
42.5475955010272
20
0.977483751646815
30
0
41
1
10
42.5402016338673
20
0.896462772621391
30
0
41
1
10
42.538878033177
20
0.813694715974549
30
0
41
1
10
42.5485989286885
20
0.644598952472393
30
0
41
1
10
42.5598442297402
20
0.55786706191185
30
0
41
1
10
42.5934676406621
20
0.38766830375306
30
0
41
1
10
42.6158323595895
20
0.303365971612635
30
0
41
1
10
42.6706753544011
20
0.136212947898201
30
0
41
1
10
42.7034419457252
20
0.0528412868463306
30
0
41
1
10
42.8127894197672
20
-0.188562221399223
30
0
41
1
10
42.9006179211871
20
-0.339795211354271
30
0
41
1
10
43.0493271611177
20
-0.555618681873085
30
0
41
1
10
43.1017301588214
20
-0.625583238502031
30
0
41
1
10
43.2094925667543
20
-0.759635831472906
30
0
41
1
10
43.2651138865101
20
-0.82410846605859
30
0
41
1
10
43.4364927239835
20
-1.01090067713176
30
0
41
1
10
43.5567258050486
20
-1.12665225643767
30
0
41
1
10
43.7443480548115
20
-1.28960686811902
30
0
41
1
10
43.8082829418108
20
-1.34225343987345
30
0
41
1
10
43.937100962702
20
-1.4432022354072
30
0
41
1
10
44.0020846935257
20
-1.49160619466915
30
0
41
1
10
44.3295925293569
20
-1.72429842627187
30
0
41
1
10
44.5996637787283
20
-1.88139800148321
30
0
41
1
10
44.8761963237686
20
-2.01522066525135
30
0
0
SPLINE
5
E6
100
AcDbEntity
8
1
62
256
6
ByLayer
370
18
48
1
60
0
100
AcDbSpline
70
4
71
3
72
16
73
12
40
0
40
0
40
0
40
0
40
0.372577853055307
40
0.372577853055307
40
0.558866779582961
40
0.558866779582961
40
0.745155706110615
40
0.745155706110615
40
0.931444632638268
40
0.931444632638268
40
1
40
1
40
1
40
1
41
1
10
7.95910415830039
20
-2.20723543932115
30
0
41
1
10
8.34983337554598
20
-2.32284901407766
30
0
41
1
10
8.74007379419257
20
-2.41554377745876
30
0
41
1
10
9.32033483899608
20
-2.52638582655615
30
0
41
1
10
9.51339174370969
20
-2.55805566246101
30
0
41
1
10
9.9001712536211
20
-2.61026642470117
30
0
41
1
10
10.0936566065756
20
-2.63099971496951
30
0
41
1
10
10.4802777672392
20
-2.66181147840658
30
0
41
1
10
10.6732733782785
20
-2.67181787528884
30
0
41
1
10
10.9386581567068
20
-2.67773629051789
30
0
41
1
10
11.0101421761134
20
-2.67857863345239
30
0
41
1
10
11.0817064699446
20
-2.67866648980856
30
0
0
SPLINE
5
E7
100
AcDbEntity
8
1
62
256
6
ByLayer
370
18
48
1
60
0
100
AcDbSpline
70
4
71
3
72
76
73
72
40
0
40
0
40
0
40
0
40
0.0048114899979218
40
0.0048114899979218
40
0.033630038326765
40
0.033630038326765
40
0.0624485866556083
40
0.0624485866556083
40
0.0912671349844515
40
0.0912671349844515
40
0.120085683313295
40
0.120085683313295
40
0.148904231642138
40
0.148904231642138
40
0.17772277997098
40
0.17772277997098
40
0.206541328299823
40
0.206541328299823
40
0.235359876628665
40
0.235359876628665
40
0.264178424957507
40
0.264178424957507
40
0.29299697328635
40
0.29299697328635
40
0.321815521615192
40
0.321815521615192
40
0.350634069944035
40
0.350634069944035
40
0.379452618272877
40
0.379452618272877
40
0.408271166601719
40
0.408271166601719
40
0.437089714930562
40
0.437089714930562
40
0.465908263259404
40
0.465908263259404
40
0.494726811588246
40
0.494726811588246
40
0.523545359917089
40
0.523545359917089
40
0.552363908245931
40
0.552363908245931
40
0.610001004903616
40
0.610001004903616
40
0.638819553232459
40
0.638819553232459
40
0.667638101561302
40
0.667638101561302
40
0.696456649890146
40
0.696456649890146
40
0.725275198218989
40
0.725275198218989
40
0.754093746547832
40
0.754093746547832
40
0.782912294876675
40
0.782912294876675
40
0.811730843205519
40
0.811730843205519
40
0.840549391534362
40
0.840549391534362
40
0.869367939863205
40
0.869367939863205
40
0.898186488192048
40
0.898186488192048
40
0.927005036520892
40
0.927005036520892
40
0.955823584849735
40
0.955823584849735
40
0.984642133178578
40
0.984642133178578
40
1
40
1
40
1
40
1
41
1
10
23.5811671388169
20
1.98223596077821
30
0
41
1
10
23.6137730656647
20
1.99361041270276
30
0
41
1
10
23.6463654873464
20
2.00484692814211
30
0
41
1
10
23.8740201745492
20
2.08235895886139
30
0
41
1
10
24.0685968558057
20
2.14411674978555
30
0
41
1
10
24.4561466222855
20
2.25911629402853
30
0
41
1
10
24.6490119019589
20
2.31237321442978
30
0
41
1
10
25.0354761281965
20
2.40786871025537
30
0
41
1
10
25.2287854597933
20
2.45048664812842
30
0
41
1
10
25.6150368518176
20
2.52594224661411
30
0
41
1
10
25.8076351426528
20
2.55893523698487
30
0
41
1
10
26.1942924169501
20
2.61366787333227
30
0
41
1
10
26.3882914854313
20
2.63554408845275
30
0
41
1
10
26.7771032565635
20
2.66854806827345
30
0
41
1
10
26.9716264733429
20
2.67969903613238
30
0
41
1
10
27.3624955974215
20
2.69047846641996
30
0
41
1
10
27.5580230888793
20
2.6901003986662
30
0
41
1
10
27.9472886800742
20
2.67826989887041
30
0
41
1
10
28.1411102851749
20
2.66677105110074
30
0
41
1
10
28.5275266985993
20
2.63254940701117
30
0
41
1
10
28.7207302107037
20
2.61004966659868
30
0
41
1
10
29.1071838066675
20
2.55466914414976
30
0
41
1
10
29.300346820526
20
2.52176141738701
30
0
41
1
10
29.6859622553673
20
2.44482944357864
30
0
41
1
10
29.8790004539852
20
2.40119670270963
30
0
41
1
10
30.2665344112495
20
2.30464055084562
30
0
41
1
10
30.460850117893
20
2.25160273081036
30
0
41
1
10
30.849923104824
20
2.13494048259963
30
0
41
1
10
31.0451855358543
20
2.07118883660115
30
0
41
1
10
31.4364232092251
20
1.93664853564911
30
0
41
1
10
31.6319275830491
20
1.86560302042182
30
0
41
1
10
32.0221594861887
20
1.71522571343624
30
0
41
1
10
32.2165939436957
20
1.63539027342577
30
0
41
1
10
32.606880784785
20
1.47063754759679
30
0
41
1
10
32.8025651809157
20
1.3854370887712
30
0
41
1
10
33.1941793594155
20
1.20856294619316
30
0
41
1
10
33.3886206770063
20
1.11674617801415
30
0
41
1
10
33.7769558418983
20
0.930450757007634
30
0
41
1
10
33.9709455615774
20
0.83616778747205
30
0
41
1
10
34.3580909649678
20
0.644469354147674
30
0
41
1
10
34.5510014975717
20
0.546575376719574
30
0
41
1
10
35.1293012522273
20
0.249722201982422
30
0
41
1
10
35.5162526523453
20
0.0515600673424217
30
0
41
1
10
36.0965654965389
20
-0.250580538365142
30
0
41
1
10
36.2906828797059
20
-0.350722491715601
30
0
41
1
10
36.6807226042235
20
-0.548942950352625
30
0
41
1
10
36.8770396303504
20
-0.647496829590892
30
0
41
1
10
37.2666074812339
20
-0.842458261114899
30
0
41
1
10
37.4605790687898
20
-0.938129525795489
30
0
41
1
10
37.8484240923573
20
-1.12316435336237
30
0
41
1
10
38.0420611437102
20
-1.21301363519737
30
0
41
1
10
38.4281739402982
20
-1.38843966451182
30
0
41
1
10
38.6205244037595
20
-1.47416775573404
30
0
41
1
10
39.0064059982764
20
-1.63735753110387
30
0
41
1
10
39.1996481938279
20
-1.71534988855672
30
0
41
1
10
39.5862126204551
20
-1.86492567515384
30
0
41
1
10
39.7791937633325
20
-1.93695392906602
30
0
41
1
10
40.1670315509897
20
-2.07181511471609
30
0
41
1
10
40.3618427495356
20
-2.13477499108439
30
0
41
1
10
40.7527383770739
20
-2.2523693124333
30
0
41
1
10
40.9481801267593
20
-2.3071698694234
30
0
41
1
10
41.3380425236894
20
-2.40617921404711
30
0
41
1
10
41.533192700067
20
-2.45023739821937
30
0
41
1
10
41.9234871947245
20
-2.52810221225272
30
0
41
1
10
42.1184513668605
20
-2.56201446998324
30
0
41
1
10
42.5084535893138
20
-2.61916623808037
30
0
41
1
10
42.7043904705757
20
-2.6420790040622
30
0
41
1
10
43.0945320022831
20
-2.67652462377254
30
0
41
1
10
43.2889790216348
20
-2.68817472850694
30
0
41
1
10
43.5856979462596
20
-2.69747225139193
30
0
41
1
10
43.6887754824734
20
-2.69908344464736
30
0
41
1
10
43.7918447393965
20
-2.69910214907745
30
0
0
SPLINE
5
E8
100
AcDbEntity
8
1
62
256
6
ByLayer
370
18
48
1
60
0
100
AcDbSpline
70
4
71
3
72
14
73
10
40
0
40
0
40
0
40
0
40
0.25
40
0.25
40
0.5
40
0.5
40
0.75
40
0.75
40
1
40
1
40
1
40
1
41
1
10
4.25154424487249
20
-2.53707046866359
30
0
41
1
10
4.23086471780999
20
-2.53763334655761
30
0
41
1
10
4.21001616677012
20
-2.54055975680222
30
0
41
1
10
4.16792711099194
20
-2.55199822967691
30
0
41
1
10
4.14674707847809
20
-2.56060038625961
30
0
41
1
10
4.10675679538741
20
-2.58367151945256
30
0
41
1
10
4.08761025015485
20
-2.59841148835437
30
0
41
1
10
4.05447140376296
20
-2.63247452068347
30
0
41
1
10
4.04001056018421
20
-2.65231143654412
30
0
41
1
10
4.02893359130093
20
-2.67319846125326
30
0
0
SPLINE
5
E9
100
AcDbEntity
8
1
62
256
6
ByLayer
370
13
48
1
60
0
100
AcDbSpline
70
4
71
3
72
8
73
4
40
0
40
0
40
0
40
0
40
1
40
1
40
1
40
1
41
1
10
4.13567469488814
20
-0.204974409142665
30
0
41
1
10
4.13590172817948
20
-0.204581818258788
30
0
41
1
10
4.1361292935004
20
-0.2041886245554
30
0
41
1
10
4.1363573909203
20
-0.203794821950567
30
0
0
SPLINE
5
EA
100
AcDbEntity
8
1
62
256
6
ByLayer
370
18
48
1
60
0
100
AcDbSpline
70
4
71
3
72
8
73
4
40
0
40
0
40
0
40
0
40
1
40
1
40
1
40
1
41
1
10
4.02893359130096
20
2.67319846125326
30
0
41
1
10
3.98919672417395
20
2.67384552319464
30
0
41
1
10
3.94950266000089
20
2.67417980028503
30
0
41
1
10
3.90985697197607
20
2.67418493609293
30
0
0
SPLINE
5
EB
100
AcDbEntity
8
1
62
256
6
ByLayer
370
18
48
1
60
0
100
AcDbSpline
70
4
71
3
72
8
73
4
40
0
40
0
40
0
40
0
40
1
40
1
40
1
40
1
41
1
10
7.11254916972675
20
1.99937257542237
30
0
41
1
10
7.39648747117346
20
2.07011764263868
30
0
41
1
10
7.67881146875948
20
2.14048728449219
30
0
41
1
10
7.95910415830039
20
2.20723543932138
30
0
0
SPLINE
5
EC
100
AcDbEntity
8
1
62
256
6
ByLayer
370
18
48
1
60
0
100
AcDbSpline
70
4
71
3
72
58
73
54
40
0
40
0
40
0
40
0
40
0.0625000000000119
40
0.0625000000000119
40
0.125000000000024
40
0.125000000000024
40
0.187500000000036
40
0.187500000000036
40
0.218750000000042
40
0.218750000000042
40
0.250000000000049
40
0.250000000000049
40
0.265625000000053
40
0.265625000000053
40
0.281250000000056
40
0.281250000000056
40
0.29687500000006
40
0.29687500000006
40
0.312500000000063
40
0.312500000000063
40
0.328125000000066
40
0.328125000000066
40
0.34375000000007
40
0.34375000000007
40
0.359375000000073
40
0.359375000000073
40
0.375000000000076
40
0.375000000000076
40
0.406250000000082
40
0.406250000000082
40
0.437500000000087
40
0.437500000000087
40
0.445312500000089
40
0.445312500000089
40
0.449218750000089
40
0.449218750000089
40
0.45312500000009
40
0.45312500000009
40
0.45703125000009
40
0.45703125000009
40
0.46093750000009
40
0.46093750000009
40
0.468750000000088
40
0.468750000000088
40
0.500000000000083
40
0.500000000000083
40
0.625000000000062
40
0.625000000000062
40
0.750000000000042
40
0.750000000000042
40
0.875000000000021
40
0.875000000000021
40
1
40
1
40
1
40
1
41
1
10
4.02893359130056
20
-2.67319846125326
30
0
41
1
10
3.85947559552312
20
-2.6759578589527
30
0
41
1
10
3.69079601372198
20
-2.67302895533183
30
0
41
1
10
3.35585812731898
20
-2.65325752551544
30
0
41
1
10
3.18955963031618
20
-2.63639037845476
30
0
41
1
10
2.86779401735652
20
-2.58484408467825
30
0
41
1
10
2.71105100837801
20
-2.5502771735284
30
0
41
1
10
2.49014130929473
20
-2.47786341091154
30
0
41
1
10
2.41942063416934
20
-2.45041003331863
30
0
41
1
10
2.28653694470833
20
-2.38644461648246
30
0
41
1
10
2.22384930519021
20
-2.34962098104938
30
0
41
1
10
2.14265832859488
20
-2.28563469706828
30
0
41
1
10
2.11773019291343
20
-2.2628477990099
30
0
41
1
10
2.07339969830897
20
-2.21363333953252
30
0
41
1
10
2.0538767741001
20
-2.18695338239482
30
0
41
1
10
2.02316617923583
20
-2.13046703959225
30
0
41
1
10
2.01187966111547
20
-2.10065667354578
30
0
41
1
10
1.9993226280429
20
-2.0373632577373
30
0
41
1
10
1.99827163011739
20
-2.00394120777665
30
0
41
1
10
2.00741519567691
20
-1.93679198880443
30
0
41
1
10
2.01753497301763
20
-1.90259038164882
30
0
41
1
10
2.04884449450822
20
-1.83352089513178
30
0
41
1
10
2.06944620045425
20
-1.79984665866343
30
0
41
1
10
2.11879578837522
20
-1.73405416093729
30
0
41
1
10
2.14772698554248
20
-1.70182812846792
30
0
41
1
10
2.21033235072216
20
-1.640691658408
30
0
41
1
10
2.2441939206773
20
-1.61148714258374
30
0
41
1
10
2.35178802242157
20
-1.52720619027963
30
0
41
1
10
2.43172798144954
20
-1.47528874254417
30
0
41
1
10
2.59822842873001
20
-1.38004497070625
30
0
41
1
10
2.6855120389227
20
-1.33625941158874
30
0
41
1
10
2.79727365032056
20
-1.28547798817425
30
0
41
1
10
2.81983019166026
20
-1.27562241642099
30
0
41
1
10
2.85361500574268
20
-1.26070481222666
30
0
41
1
10
2.86505174057035
20
-1.25617554839408
30
0
41
1
10
2.88914718249083
20
-1.2508581542192
30
0
41
1
10
2.90185473873871
20
-1.24976618011917
30
0
41
1
10
2.92694751597523
20
-1.24940350846023
30
0
41
1
10
2.93940650924998
20
-1.25040907019826
30
0
41
1
10
2.96435616221848
20
-1.25198958987522
30
0
41
1
10
2.97683087552352
20
-1.25278118500665
30
0
41
1
10
3.01424973912054
20
-1.25522692016096
30
0
41
1
10
3.03919079101925
20
-1.25692244322815
30
0
41
1
10
3.16387186074385
20
-1.26572281419072
30
0
41
1
10
3.2635219521575
20
-1.27379524367061
30
0
41
1
10
3.76097235557481
20
-1.31911548414129
30
0
41
1
10
4.15751316404487
20
-1.37151994723746
30
0
41
1
10
4.93992397735087
20
-1.50113342203062
30
0
41
1
10
5.32629327010636
20
-1.57834045749203
30
0
41
1
10
6.09062359129933
20
-1.74749114722337
30
0
41
1
10
6.46855599700194
20
-1.8394577681365
30
0
41
1
10
7.21815349578435
20
-2.02535762085819
30
0
41
1
10
7.5903863879692
20
-2.11942997117791
30
0
41
1
10
7.95910415830039
20
-2.20723543932138
30
0
0
SPLINE
5
ED
100
AcDbEntity
8
1
62
256
6
ByLayer
370
18
48
1
60
0
100
AcDbSpline
70
4
71
3
72
10
73
6
40
0
40
0
40
0
40
0
40
0.5
40
0.5
40
1
40
1
40
1
40
1
41
1
10
45.2229866435954
20
-2.5979107385788
30
0
41
1
10
45.3380146194943
20
-2.28410481808575
30
0
41
1
10
45.4570293406405
20
-1.97218081316035
30
0
41
1
10
45.7016934554411
20
-1.35130320609724
30
0
41
1
10
45.8274215427168
20
-1.0421690056896
30
0
41
1
10
45.9558921799785
20
-0.734708771849057
30
0
0
SPLINE
5
EE
100
AcDbEntity
8
1
62
256
6
ByLayer
370
18
48
1
60
0
100
AcDbSpline
70
4
71
3
72
80
73
76
40
0
40
0
40
0
40
0
40
0.0052355648661476
40
0.0052355648661476
40
0.032504189013989
40
0.032504189013989
40
0.0597728131618304
40
0.0597728131618304
40
0.0870414373096718
40
0.0870414373096718
40
0.141578685605356
40
0.141578685605356
40
0.168847309753198
40
0.168847309753198
40
0.196115933901039
40
0.196115933901039
40
0.223384558048881
40
0.223384558048881
40
0.250653182196722
40
0.250653182196722
40
0.277921806344563
40
0.277921806344563
40
0.305190430492405
40
0.305190430492405
40
0.332459054640246
40
0.332459054640246
40
0.359727678788088
40
0.359727678788088
40
0.386996302935929
40
0.386996302935929
40
0.414264927083771
40
0.414264927083771
40
0.441533551231612
40
0.441533551231612
40
0.468802175379453
40
0.468802175379453
40
0.496070799527295
40
0.496070799527295
40
0.523339423675136
40
0.523339423675136
40
0.550608047822978
40
0.550608047822978
40
0.577876671970819
40
0.577876671970819
40
0.60514529611866
40
0.60514529611866
40
0.632413920266502
40
0.632413920266502
40
0.659682544414343
40
0.659682544414343
40
0.686951168562185
40
0.686951168562185
40
0.714219792710026
40
0.714219792710026
40
0.741488416857868
40
0.741488416857868
40
0.768757041005709
40
0.768757041005709
40
0.79602566515355
40
0.79602566515355
40
0.823294289301392
40
0.823294289301392
40
0.850562913449233
40
0.850562913449233
40
0.877831537597075
40
0.877831537597075
40
0.905100161744916
40
0.905100161744916
40
0.932368785892757
40
0.932368785892757
40
0.959637410040599
40
0.959637410040599
40
0.98690603418844
40
0.98690603418844
40
1
40
1
40
1
40
1
41
1
10
39.9472816086507
20
-1.99181605892912
30
0
41
1
10
39.9128491276451
20
-2.00246874880193
30
0
41
1
10
39.8784371157492
20
-2.01299589915928
30
0
41
1
10
39.664925304984
20
-2.077587197637
30
0
41
1
10
39.4862842777563
20
-2.12821537152678
30
0
41
1
10
39.1290799367562
20
-2.22050374110327
30
0
41
1
10
38.9505262262776
20
-2.26213962809371
30
0
41
1
10
38.5936109942908
20
-2.33801381916103
30
0
41
1
10
38.4153816498482
20
-2.37244575954904
30
0
41
1
10
37.8800114338288
20
-2.46355489638333
30
0
41
1
10
37.5220586743067
20
-2.50792382753755
30
0
41
1
10
36.9828641609984
20
-2.54672936220032
30
0
41
1
10
36.8025052354576
20
-2.55472663020262
30
0
41
1
10
36.4398688270234
20
-2.5602135274718
30
0
41
1
10
36.2574804281874
20
-2.55858695855153
30
0
41
1
10
35.8949899038484
20
-2.54731374409093
30
0
41
1
10
35.714456458465
20
-2.53732567410751
30
0
41
1
10
35.3539195280183
20
-2.5075229276726
30
0
41
1
10
35.173925958571
20
-2.48765901613496
30
0
41
1
10
34.8144739304694
20
-2.4405536737037
30
0
41
1
10
34.6351816162008
20
-2.41285945751773
30
0
41
1
10
34.2765329202413
20
-2.34826786000963
30
0
41
1
10
34.0970852740899
20
-2.31106923523032
30
0
41
1
10
33.7377475125314
20
-2.22902360070145
30
0
41
1
10
33.5580328875713
20
-2.18469409731029
30
0
41
1
10
33.198251981165
20
-2.08751395015457
30
0
41
1
10
33.0179973917849
20
-2.03486681365376
30
0
41
1
10
32.655976343882
20
-1.92149330233093
30
0
41
1
10
32.4741129819873
20
-1.86137945516987
30
0
41
1
10
32.1105995649334
20
-1.73472761367913
30
0
41
1
10
31.9297004246448
20
-1.66808376693123
30
0
41
1
10
31.5686346724494
20
-1.52938786239969
30
0
41
1
10
31.3884895385883
20
-1.457199903781
30
0
41
1
10
31.0288078382384
20
-1.30895000349119
30
0
41
1
10
30.8494620877095
20
-1.23231938234702
30
0
41
1
10
30.4909728785235
20
-1.07481113513239
30
0
41
1
10
30.3117223541594
20
-0.994088820043913
30
0
41
1
10
29.9529391853857
20
-0.829721045248931
30
0
41
1
10
29.7735461871704
20
-0.746116279820086
30
0
41
1
10
29.414623433252
20
-0.575461673035051
30
0
41
1
10
29.2349196497623
20
-0.488770351523897
30
0
41
1
10
28.8742339268558
20
-0.314030965670668
30
0
41
1
10
28.6933257974363
20
-0.226050663490895
30
0
41
1
10
28.330830241225
20
-0.0483414154876698
30
0
41
1
10
28.1488522915356
20
0.0416486597457322
30
0
41
1
10
27.7866248803613
20
0.219317817268887
30
0
41
1
10
27.6060145163297
20
0.307156169696157
30
0
41
1
10
27.2455291346012
20
0.481492123454643
30
0
41
1
10
27.0658413208103
20
0.568250485674923
30
0
41
1
10
26.7069530444695
20
0.739043169449388
30
0
41
1
10
26.5276142242054
20
0.822772229386544
30
0
41
1
10
26.1688257383582
20
0.98660098918586
30
0
41
1
10
25.9894756318176
20
1.06720089479288
30
0
41
1
10
25.6308762501892
20
1.22509804947916
30
0
41
1
10
25.4514345808332
20
1.30189905906335
30
0
41
1
10
25.0915103933763
20
1.4499667808534
30
0
41
1
10
24.9110871919803
20
1.5214968138304
30
0
41
1
10
24.5496558662095
20
1.66038400582366
30
0
41
1
10
24.3684549344468
20
1.72771024922704
30
0
41
1
10
24.0050040254495
20
1.85452917761265
30
0
41
1
10
23.8238765654589
20
1.91366201748764
30
0
41
1
10
23.4624461892721
20
2.02602727288041
30
0
41
1
10
23.2823389306756
20
2.07912619954618
30
0
41
1
10
22.9228689388712
20
2.17678538092156
30
0
41
1
10
22.743332655257
20
2.22094357020831
30
0
41
1
10
22.38429904753
20
2.30163298579345
30
0
41
1
10
22.2048691997006
20
2.33856889906968
30
0
41
1
10
21.8462860858734
20
2.40404771995057
30
0
41
1
10
21.6669683291832
20
2.43215882495423
30
0
41
1
10
21.3074640047916
20
2.47911241696732
30
0
41
1
10
21.1273335062817
20
2.49833983009128
30
0
41
1
10
20.7665893265199
20
2.52886680169516
30
0
41
1
10
20.5860477079627
20
2.53993948616454
30
0
41
1
10
20.3174347206771
20
2.54795390706357
30
0
41
1
10
20.2301024437115
20
2.5494492866508
30
0
41
1
10
20.1427776411992
20
2.54993980857151
30
0
0
SPLINE
5
EF
100
AcDbEntity
8
1
62
256
6
ByLayer
370
18
48
1
60
0
100
AcDbSpline
70
4
71
3
72
8
73
4
40
0
40
0
40
0
40
0
40
1
40
1
40
1
40
1
41
1
10
4.13567469488783
20
-0.204974409143148
30
0
41
1
10
4.11775079862676
20
-0.195783804558829
30
0
41
1
10
4.10128906927753
20
-0.184646153615574
30
0
41
1
10
4.08623901763815
20
-0.171623838065386
30
0
0
SPLINE
5
F0
100
AcDbEntity
8
1
62
256
6
ByLayer
370
18
48
1
60
0
100
AcDbSpline
70
4
71
3
72
62
73
58
40
0
40
0
40
0
40
0
40
0.0691873991218349
40
0.0691873991218349
40
0.103781098682752
40
0.103781098682752
40
0.138374798243669
40
0.138374798243669
40
0.172968497804586
40
0.172968497804586
40
0.207562197365502
40
0.207562197365502
40
0.242155896926419
40
0.242155896926419
40
0.276749596487336
40
0.276749596487336
40
0.311343296048253
40
0.311343296048253
40
0.34593699560917
40
0.34593699560917
40
0.380530695170087
40
0.380530695170087
40
0.415124394731004
40
0.415124394731004
40
0.449718094291921
40
0.449718094291921
40
0.484311793852838
40
0.484311793852838
40
0.518905493413754
40
0.518905493413754
40
0.553499192974671
40
0.553499192974671
40
0.588092892535588
40
0.588092892535588
40
0.622686592096505
40
0.622686592096505
40
0.657280291657422
40
0.657280291657422
40
0.691873991218339
40
0.691873991218339
40
0.726467690779256
40
0.726467690779256
40
0.761061390340173
40
0.761061390340173
40
0.79565508990109
40
0.79565508990109
40
0.830248789462007
40
0.830248789462007
40
0.864842489022924
40
0.864842489022924
40
0.899436188583841
40
0.899436188583841
40
0.934029888144758
40
0.934029888144758
40
0.968623587705674
40
0.968623587705674
40
1
40
1
40
1
40
1
41
1
10
7.95910415830056
20
1.74039377844431
30
0
41
1
10
8.32298018872706
20
1.610817169233
30
0
41
1
10
8.68431858192244
20
1.46956794262474
30
0
41
1
10
9.22396941448966
20
1.24400034691607
30
0
41
1
10
9.40345428218365
20
1.16636147508675
30
0
41
1
10
9.76252867227942
20
1.00784637036182
30
0
41
1
10
9.94200748410825
20
0.926837303326892
30
0
41
1
10
10.3008156485973
20
0.761497754008701
30
0
41
1
10
10.4800803417485
20
0.676980328936565
30
0
41
1
10
10.8393800728171
20
0.505974770977645
30
0
41
1
10
11.0194397500162
20
0.419571859205149
30
0
41
1
10
11.380201487057
20
0.244953947079125
30
0
41
1
10
11.5608743186438
20
0.156707001809792
30
0
41
1
10
11.9233162201413
20
-0.0210055591234095
30
0
41
1
10
12.1055456153177
20
-0.110198166219249
30
0
41
1
10
12.4681785356839
20
-0.286575624976137
30
0
41
1
10
12.6489682139547
20
-0.374268423727386
30
0
41
1
10
13.0093820113651
20
-0.548090517546683
30
0
41
1
10
13.1890206616121
20
-0.634081815420046
30
0
41
1
10
13.5483593330012
20
-0.802475866153316
30
0
41
1
10
13.7279325620341
20
-0.885166342850653
30
0
41
1
10
14.0867614639544
20
-1.0479265125212
30
0
41
1
10
14.2659389845071
20
-1.12775282300518
30
0
41
1
10
14.6248300901653
20
-1.28257324395406
30
0
41
1
10
14.8046367660141
20
-1.35750624134638
30
0
41
1
10
15.1647188007628
20
-1.50334400118223
30
0
41
1
10
15.3449471948615
20
-1.57435594024048
30
0
41
1
10
15.706408831554
20
-1.70998134555779
30
0
41
1
10
15.8880184983697
20
-1.7747212925012
30
0
41
1
10
16.2518076826781
20
-1.89784862333585
30
0
41
1
10
16.4331457665165
20
-1.95649492822162
30
0
41
1
10
16.794422247848
20
-2.0658746685132
30
0
41
1
10
16.9743201754789
20
-2.1161540688708
30
0
41
1
10
17.3340855456359
20
-2.20898353635772
30
0
41
1
10
17.5138250360931
20
-2.25162144920799
30
0
41
1
10
17.872840955962
20
-2.33002776893551
30
0
41
1
10
18.0519989525406
20
-2.3646335434542
30
0
41
1
10
18.4106233455466
20
-2.42427385259015
30
0
41
1
10
18.590225948695
20
-2.44985791332806
30
0
41
1
10
18.9497877721926
20
-2.49343769654982
30
0
41
1
10
19.1296863195308
20
-2.5117566117008
30
0
41
1
10
19.4902299812325
20
-2.53711484450966
30
0
41
1
10
19.6710544285099
20
-2.54462526297547
30
0
41
1
10
20.0341289065647
20
-2.55137650245064
30
0
41
1
10
20.21639354273
20
-2.55083153403828
30
0
41
1
10
20.5786267086883
20
-2.54029271997899
30
0
41
1
10
20.7588590681529
20
-2.52939270877153
30
0
41
1
10
21.1190510220237
20
-2.49916338270234
30
0
41
1
10
21.2989465626976
20
-2.48007873315575
30
0
41
1
10
21.6580641992844
20
-2.43346095430434
30
0
41
1
10
21.8372345900324
20
-2.40554864096401
30
0
41
1
10
22.1955867764224
20
-2.3404082579585
30
0
41
1
10
22.3749375910323
20
-2.30360234863122
30
0
41
1
10
22.7338976049462
20
-2.22319167333396
30
0
41
1
10
22.9134363092256
20
-2.17919145090687
30
0
41
1
10
23.2562731799685
20
-2.08634202350669
30
0
41
1
10
23.4196636259696
20
-2.03862537370793
30
0
41
1
10
23.5835712455602
20
-1.98826249696592
30
0
0
SPLINE
5
F1
100
AcDbEntity
8
1
62
256
6
ByLayer
370
18
48
1
60
0
100
AcDbSpline
70
4
71
3
72
26
73
22
40
0
40
0
40
0
40
0
40
0.0218675960335516
40
0.0218675960335516
40
0.110788723666868
40
0.110788723666868
40
0.288630978933498
40
0.288630978933498
40
0.377552106566811
40
0.377552106566811
40
0.466473234200123
40
0.466473234200123
40
0.555394361833436
40
0.555394361833436
40
0.644315489466749
40
0.644315489466749
40
0.822157744733375
40
0.822157744733375
40
0.911078872366687
40
0.911078872366687
40
1
40
1
40
1
40
1
41
1
10
36.4745487326552
20
2.55873594170234
30
0
41
1
10
36.5191888440119
20
2.55863324272258
30
0
41
1
10
36.5637915054545
20
2.55827448878168
30
0
41
1
10
36.7894458252879
20
2.55514355914323
30
0
41
1
10
36.9697757680209
20
2.54742939884383
30
0
41
1
10
37.5093140883852
20
2.50929965507655
30
0
41
1
10
37.8681151520099
20
2.46524969990713
30
0
41
1
10
38.4056452361368
20
2.37426044047967
30
0
41
1
10
38.5847282482054
20
2.33979130635126
30
0
41
1
10
38.9436421364974
20
2.26370913984834
30
0
41
1
10
39.1233470193969
20
2.22191180126197
30
0
41
1
10
39.4832054213397
20
2.12908217896154
30
0
41
1
10
39.6633487701773
20
2.07806528123348
30
0
41
1
10
40.0249276690405
20
1.96867862599473
30
0
41
1
10
40.2068534461987
20
1.91039530323627
30
0
41
1
10
40.7517058356694
20
1.72512391996892
30
0
41
1
10
41.1117148266296
20
1.58772614955839
30
0
41
1
10
41.6511589628084
20
1.36951607752997
30
0
41
1
10
41.8306659066316
20
1.29428543212524
30
0
41
1
10
42.1892128521591
20
1.13889584834982
30
0
41
1
10
42.3682571243593
20
1.05880245887806
30
0
41
1
10
42.5475955010272
20
0.977483751646986
30
0
0
SPLINE
5
F2
100
AcDbEntity
8
1
62
256
6
ByLayer
370
18
48
1
60
0
100
AcDbSpline
70
4
71
3
72
32
73
28
40
0
40
0
40
0
40
0
40
0.249999999999974
40
0.249999999999974
40
0.374999999999965
40
0.374999999999965
40
0.499999999999957
40
0.499999999999957
40
0.624999999999948
40
0.624999999999948
40
0.74999999999994
40
0.74999999999994
40
0.81249999999994
40
0.81249999999994
40
0.828124999999945
40
0.828124999999945
40
0.835937499999947
40
0.835937499999947
40
0.843749999999949
40
0.843749999999949
40
0.851562499999952
40
0.851562499999952
40
0.859374999999954
40
0.859374999999954
40
0.874999999999959
40
0.874999999999959
40
1
40
1
40
1
40
1
41
1
10
42.5475955010271
20
0.977483751646986
30
0
41
1
10
42.7515873929688
20
0.807216012636474
30
0
41
1
10
42.9647739141049
20
0.65916116874763
30
0
41
1
10
43.2989992676304
20
0.471977316439421
30
0
41
1
10
43.4127816748277
20
0.415660602667543
30
0
41
1
10
43.6400890679053
20
0.318893462014785
30
0
41
1
10
43.7542735585602
20
0.278059911697454
30
0
41
1
10
43.9837910214341
20
0.212728822566049
30
0
41
1
10
44.0991916360826
20
0.188157446588946
30
0
41
1
10
44.3310224033814
20
0.157856869456395
30
0
41
1
10
44.4454370730173
20
0.152388010956969
30
0
41
1
10
44.6144112119376
20
0.161266675369802
30
0
41
1
10
44.6703919500456
20
0.167127347992533
30
0
41
1
10
44.7392973707554
20
0.17841372074659
30
0
41
1
10
44.7530265990156
20
0.180868146346512
30
0
41
1
10
44.7735208139108
20
0.184846720197299
30
0
41
1
10
44.7803294727877
20
0.186244711174965
30
0
41
1
10
44.793976660539
20
0.188946406294235
30
0
41
1
10
44.8007955004626
20
0.19031226005103
30
0
41
1
10
44.8137923920116
20
0.195066662780363
30
0
41
1
10
44.8199792272077
20
0.198807373026341
30
0
41
1
10
44.8289805926034
20
0.210723684336386
30
0
41
1
10
44.8307480015571
20
0.218934254772506
30
0
41
1
10
44.8346425825902
20
0.2439249738363
30
0
41
1
10
44.8373020884334
20
0.260561595113558
30
0
41
1
10
44.8582238130917
20
0.411546202771802
30
0
41
1
10
44.8638928234949
20
0.550961995282051
30
0
41
1
10
44.8606630306915
20
0.690712549606872
30
0
0
SPLINE
5
F3
100
AcDbEntity
8
1
62
256
6
ByLayer
370
18
48
1
60
0
100
AcDbSpline
70
4
71
3
72
14
73
10
40
0
40
0
40
0
40
0
40
0.25
40
0.25
40
0.5
40
0.5
40
0.75
40
0.75
40
1
40
1
40
1
40
1
41
1
10
45.0978745463813
20
-2.56159020781382
30
0
41
1
10
45.1012995973846
20
-2.56088833071513
30
0
41
1
10
45.1041052018197
20
-2.56183079175102
30
0
41
1
10
45.1080816079867
20
-2.56801753070141
30
0
41
1
10
45.1092044367192
20
-2.57333089092378
30
0
41
1
10
45.1086028982257
20
-2.58948332307458
30
0
41
1
10
45.1067976120782
20
-2.60033663494124
30
0
41
1
10
45.1002479829233
20
-2.62518135316196
30
0
41
1
10
45.0955482127191
20
-2.63902237092304
30
0
41
1
10
45.0903080310136
20
-2.6522335015371
30
0
0
SPLINE
5
F4
100
AcDbEntity
8
1
62
256
6
ByLayer
370
18
48
1
60
0
100
AcDbSpline
70
4
71
3
72
10
73
6
40
0
40
0
40
0
40
0
40
0.5
40
0.5
40
1
40
1
40
1
40
1
41
1
10
45.2229866435862
20
2.59791073860401
30
0
41
1
10
45.337788410927
20
2.28472193394003
30
0
41
1
10
45.4568040131982
20
1.97275584428755
30
0
41
1
10
45.7018016310767
20
1.35102546953024
30
0
41
1
10
45.8276312626829
20
1.04166709683957
30
0
41
1
10
45.9558921799784
20
0.734708771849085
30
0
0
SPLINE
5
F5
100
AcDbEntity
8
1
62
256
6
ByLayer
370
18
48
1
60
0
100
AcDbSpline
70
4
71
3
72
8
73
4
40
0
40
0
40
0
40
0
40
1
40
1
40
1
40
1
41
1
10
45.9901055185982
20
0.0953612778261288
30
0
41
1
10
45.9906696746554
20
0.0777071268169038
30
0
41
1
10
45.994475967193
20
0.0554259089505535
30
0
41
1
10
45.9999639771943
20
0.0321378404427151
30
0
0
SPLINE
5
F6
100
AcDbEntity
8
1
62
256
6
ByLayer
370
18
48
1
60
0
100
AcDbSpline
70
4
71
3
72
8
73
4
40
0
40
0
40
0
40
0
40
1
40
1
40
1
40
1
41
1
10
45.9999639771943
20
0.0321378404427435
30
0
41
1
10
46.0000120122978
20
0.0107105186733634
30
0
41
1
10
46.0000120027559
20
-0.0107147750675267
30
0
41
1
10
45.9999639771944
20
-0.0321378404078416
30
0
0
SPLINE
5
F7
100
AcDbEntity
8
1
62
256
6
ByLayer
370
18
48
1
60
0
100
AcDbSpline
70
4
71
1
72
4
73
2
40
0
40
0
40
1
40
1
41
1
10
4.27712867314926
20
-2.53437861376409
30
0
41
1
10
4.31317448992615
20
-2.53519232002921
30
0
0
SPLINE
5
F8
100
AcDbEntity
8
1
62
256
6
ByLayer
370
18
48
1
60
0
100
AcDbSpline
70
4
71
3
72
22
73
18
40
0
40
0
40
0
40
0
40
0.0847066661547615
40
0.157288797760558
40
0.221849229368785
40
0.279645796755464
40
0.331279407860388
40
0.395235030103811
40
0.481320281597836
40
0.550281600070861
40
0.597719940925098
40
0.631135029858296
40
0.672871674288272
40
0.724486860852495
40
0.807663702794172
40
0.910536152406613
40
1
40
1
40
1
40
1
41
1
10
12.0872914079349
20
-2.54427099930791
30
0
41
1
10
12.3076684144407
20
-2.54275099656317
30
0
41
1
10
12.7193631972467
20
-2.54126467495081
30
0
41
1
10
13.320569019345
20
-2.5408604259043
30
0
41
1
10
13.8305564451899
20
-2.54618668490895
30
0
41
1
10
14.2933580924271
20
-2.54658749136843
30
0
41
1
10
14.7565694648339
20
-2.54557705006334
30
0
41
1
10
15.2973179443274
20
-2.54690697738477
30
0
41
1
10
15.8837407236504
20
-2.54668613508432
30
0
41
1
10
16.4254922634016
20
-2.54815150382024
30
0
41
1
10
16.8261079241357
20
-2.54874181939746
30
0
41
1
10
17.1543981582944
20
-2.54789851859226
30
0
41
1
10
17.4940860090988
20
-2.54792185910884
30
0
41
1
10
17.9651242065017
20
-2.55101683664319
30
0
41
1
10
18.5995911764794
20
-2.5460177135071
30
0
41
1
10
19.3389352319984
20
-2.55051470068719
30
0
41
1
10
19.8529602671412
20
-2.55049312369133
30
0
41
1
10
20.0919662834102
20
-2.55059753412726
30
0
0
SPLINE
5
F9
100
AcDbEntity
8
1
62
256
6
ByLayer
370
18
48
1
60
0
100
AcDbSpline
70
4
71
3
72
23
73
19
40
0
40
0
40
0
40
0
40
0.0787487929291214
40
0.182228462376149
40
0.274832582598364
40
0.352044109895351
40
0.409569603616279
40
0.451852704474128
40
0.509062548052327
40
0.576095589550905
40
0.652407995881789
40
0.718288037680568
40
0.772454141557325
40
0.803868432269631
40
0.849497929986723
40
0.913848351182716
40
0.996872524395573
40
1
40
1
40
1
40
1
41
1
10
36.4735004694808
20
2.55879143545383
30
0
41
1
10
36.3023948075389
20
2.55773358871034
30
0
41
1
10
35.9053615642049
20
2.55587339079796
30
0
41
1
10
35.2999694700721
20
2.55310645205523
30
0
41
1
10
34.6991894379845
20
2.55634192356067
30
0
41
1
10
34.2036766166099
20
2.55867414160451
30
0
41
1
10
33.8154211480476
20
2.55678548801109
30
0
41
1
10
33.4697222591798
20
2.55741450195478
30
0
41
1
10
33.1032968066246
20
2.55794601625809
30
0
41
1
10
32.6619378830388
20
2.55626760809383
30
0
41
1
10
32.2015193367454
20
2.55676248617846
30
0
41
1
10
31.7693851875587
20
2.55716929291137
30
0
41
1
10
31.4360985939219
20
2.55622158919056
30
0
41
1
10
31.1481967159959
20
2.55589708988617
30
0
41
1
10
30.8373115512877
20
2.55602229641488
30
0
41
1
10
30.4127175384636
20
2.55565877660916
30
0
41
1
10
30.0814793544788
20
2.55509423625239
30
0
41
1
10
29.8918737420111
20
2.55497706030727
30
0
41
1
10
29.8849906918803
20
2.55497306594239
30
0
0
SPLINE
5
FA
100
AcDbEntity
8
1
62
256
6
ByLayer
370
18
48
1
60
0
100
AcDbSpline
70
4
71
3
72
18
73
14
40
0
40
0
40
0
40
0
40
0.0960626917782162
40
0.200589840781155
40
0.285859466729754
40
0.35900308636134
40
0.422441141342055
40
0.496381232117227
40
0.582371026023424
40
0.683998802862756
40
0.782000864947848
40
0.895726272505711
40
1
40
1
40
1
40
1
41
1
10
20.1348920713184
20
2.54969387937913
30
0
41
1
10
19.9261105810233
20
2.54823531623651
30
0
41
1
10
19.4889668768212
20
2.54634959326359
30
0
41
1
10
18.8470509726535
20
2.54330855604869
30
0
41
1
10
18.2792903884327
20
2.54987106405653
30
0
41
1
10
17.7884491065621
20
2.54979472596946
30
0
41
1
10
17.3211518727465
20
2.54740864118054
30
0
41
1
10
16.8259727270362
20
2.54920622845313
30
0
41
1
10
16.2453936395567
20
2.54699839387214
30
0
41
1
10
15.6133088996218
20
2.54777390736962
30
0
41
1
10
14.9175314205436
20
2.54540024511272
30
0
41
1
10
14.2190136191418
20
2.54679063999629
30
0
41
1
10
13.7353989555773
20
2.54605588074014
30
0
41
1
10
13.5040365406989
20
2.54569255479632
30
0
0
SPLINE
5
FB
100
AcDbEntity
8
1
62
256
6
ByLayer
370
18
48
1
60
0
100
AcDbSpline
70
4
71
1
72
4
73
2
40
0
40
0
40
1
40
1
41
1
10
44.7422594860685
20
-2.56468433991981
30
0
41
1
10
45.0373832664232
20
-2.56109761976708
30
0
0
SPLINE
5
FC
100
AcDbEntity
8
1
62
256
6
ByLayer
370
18
48
1
60
0
100
AcDbSpline
70
4
71
3
72
19
73
15
40
0
40
0
40
0
40
0
40
0.130995681540763
40
0.229076019531084
40
0.294536982761593
40
0.349407058217517
40
0.438912005810335
40
0.524427219622586
40
0.603616511540703
40
0.684845758005395
40
0.739585701966704
40
0.817027293737717
40
0.916967488940199
40
1
40
1
40
1
40
1
41
1
10
28.4405710820546
20
-2.55467011275923
30
0
41
1
10
28.7881730642692
20
-2.55494663086282
30
0
41
1
10
29.3960264555571
20
-2.55545193688019
30
0
41
1
10
30.1774464735769
20
-2.55560443414197
30
0
41
1
10
30.7570339707864
20
-2.55641865279793
30
0
41
1
10
31.3136021910954
20
-2.55563474758722
30
0
41
1
10
31.9237051669957
20
-2.55767735250197
30
0
41
1
10
32.5981458166264
20
-2.5557948258099
30
0
41
1
10
33.2507362516371
20
-2.55840380588538
30
0
41
1
10
33.8216462995458
20
-2.55638469453203
30
0
41
1
10
34.3879136540394
20
-2.55942751918184
30
0
41
1
10
35.0037923792247
20
-2.55718790366049
30
0
41
1
10
35.6948077855928
20
-2.5583696310176
30
0
41
1
10
36.1802842173299
20
-2.55902901377459
30
0
41
1
10
36.4005896225304
20
-2.55950025535145
30
0
0
SPLINE
5
FD
100
AcDbEntity
8
1
62
256
6
ByLayer
370
18
48
1
60
0
100
AcDbSpline
70
4
71
1
72
4
73
2
40
0
40
0
40
1
40
1
41
1
10
4.31270165683401
20
2.53518164619135
30
0
41
1
10
4.25154145411335
20
2.53380100220625
30
0
0
LINE
5
7B
100
AcDbEntity
8
SK1
62
256
6
ByLayer
370
18
48
1
60
0
100
AcDbLine
10
-36
20
-2.065
30
0
11
-36
21
-1.989624
31
0
39
0
210
0
220
0
230
1
0
LINE
5
7D
100
AcDbEntity
8
SK1
62
256
6
ByLayer
370
18
48
1
60
0
100
AcDbLine
10
-36
20
2.065
30
0
11
-36
21
-1.090567
31
0
39
0
210
0
220
0
230
1
0
LINE
5
7E
100
AcDbEntity
8
SK1
62
256
6
ByLayer
370
13
48
1
60
0
100
AcDbLine
10
-35.75
20
-1.303585
30
0
11
-35.75
21
-2.202674
31
0
39
0
210
0
220
0
230
1
0
LINE
5
7F
100
AcDbEntity
8
SK1
62
256
6
ByLayer
370
18
48
1
60
0
100
AcDbLine
10
0
20
-3
30
0
11
0
21
3
31
0
39
0
210
0
220
0
230
1
0
LINE
5
80
100
AcDbEntity
8
SK1
62
256
6
ByLayer
370
18
48
1
60
0
100
AcDbLine
10
-35.065
20
3
30
0
11
-35.065
21
-3
31
0
39
0
210
0
220
0
230
1
0
LINE
5
81
100
AcDbEntity
8
SK1
62
256
6
ByLayer
370
18
48
1
60
0
100
AcDbLine
10
-36
20
-1.090545
30
0
11
-36
21
-1.989624
31
0
39
0
210
0
220
0
230
1
0
LINE
5
82
100
AcDbEntity
8
SK1
62
256
6
ByLayer
370
18
48
1
60
0
100
AcDbLine
10
-35.65
20
-2.251392
30
0
11
-35.65
21
-1.47221
31
0
39
0
210
0
220
0
230
1
0
LINE
5
83
100
AcDbEntity
8
1
62
256
6
ByLayer
370
13
48
1
60
0
100
AcDbLine
10
0.485063
20
2.836171
30
0
11
0.485063
21
-2.836171
31
0
39
0
210
0
220
0
230
1
0
LINE
5
84
100
AcDbEntity
8
1
62
256
6
ByLayer
370
13
48
1
60
0
100
AcDbLine
10
44.950052
20
0.75374
30
0
11
45.990106
21
0.095361
31
0
39
0
210
0
220
0
230
1
0
LINE
5
85
100
AcDbEntity
8
1
62
256
6
ByLayer
370
13
48
1
60
0
100
AcDbLine
10
4.251542
20
-2.533904
30
0
11
4.251544
21
-2.53707
31
0
39
0
210
0
220
0
230
1
0
LINE
5
86
100
AcDbEntity
8
1
62
256
6
ByLayer
370
13
48
1
60
0
100
AcDbLine
10
44.860663
20
0.690713
30
0
11
45.979055
21
-0.017256
31
0
39
0
210
0
220
0
230
1
0
LINE
5
87
100
AcDbEntity
8
1
62
256
6
ByLayer
370
13
48
1
60
0
100
AcDbLine
10
0.970626
20
2.672343
30
0
11
0.970626
21
-2.672343
31
0
39
0
210
0
220
0
230
1
0
LINE
5
88
100
AcDbEntity
8
1
62
256
6
ByLayer
370
18
48
1
60
0
100
AcDbLine
10
0
20
-3
30
0
11
0
21
3
31
0
39
0
210
0
220
0
230
1
0
LINE
5
89
100
AcDbEntity
8
80
62
256
6
ByLayer
370
18
48
1
60
0
100
AcDbLine
10
0
20
0
30
0
11
-5
21
0
31
0
39
0
210
0
220
0
230
1
0
LINE
5
8A
100
AcDbEntity
8
4
62
256
6
ByLayer
370
18
48
0.05
60
0
100
AcDbLine
10
46
20
0
30
0
11
0
21
0
31
0
39
0
210
0
220
0
230
1
0
LINE
5
8C
100
AcDbEntity
8
SK4
62
256
6
ByLayer
370
18
48
0.05
60
0
100
AcDbLine
10
51
20
0
30
0
11
-41
21
0
31
0
39
0
210
0
220
0
230
1
0
LINE
5
8E
100
AcDbEntity
8
SK1
62
256
6
ByLayer
370
18
48
1
60
0
100
AcDbLine
10
-36
20
-2.065
30
0
11
-35.065
21
-3
31
0
39
0
210
0
220
0
230
1
0
LINE
5
8F
100
AcDbEntity
8
SK1
62
256
6
ByLayer
370
18
48
1
60
0
100
AcDbLine
10
-35.065
20
3
30
0
11
-36
21
2.065
31
0
39
0
210
0
220
0
230
1
0
LINE
5
90
100
AcDbEntity
8
SK1
62
256
6
ByLayer
370
18
48
1
60
0
100
AcDbLine
10
-35.065
20
-3
30
0
11
0
21
-3
31
0
39
0
210
0
220
0
230
1
0
LINE
5
91
100
AcDbEntity
8
SK1
62
256
6
ByLayer
370
18
48
1
60
0
100
AcDbLine
10
0
20
3
30
0
11
-35.065
21
3
31
0
39
0
210
0
220
0
230
1
0
LINE
5
92
100
AcDbEntity
8
1
62
256
6
ByLayer
370
18
48
1
60
0
100
AcDbLine
10
11.086848
20
-2.678665
30
0
11
11.911503
21
-2.679181
31
0
39
0
210
0
220
0
230
1
0
LINE
5
93
100
AcDbEntity
8
1
62
256
6
ByLayer
370
18
48
1
60
0
100
AcDbLine
10
11.911736
20
2.679181
30
0
11
11.086848
21
2.678665
31
0
39
0
210
0
220
0
230
1
0
LINE
5
94
100
AcDbEntity
8
1
62
256
6
ByLayer
370
18
48
1
60
0
100
AcDbLine
10
0.970626
20
-2.672343
30
0
11
3.910319
21
-2.67418
31
0
39
0
210
0
220
0
230
1
0
LINE
5
95
100
AcDbEntity
8
1
62
256
6
ByLayer
370
18
48
1
60
0
100
AcDbLine
10
27.437355
20
-2.688884
30
0
11
28.261868
21
-2.6894
31
0
39
0
210
0
220
0
230
1
0
LINE
5
96
100
AcDbEntity
8
1
62
256
6
ByLayer
370
18
48
1
60
0
100
AcDbLine
10
43.787541
20
-2.699103
30
0
11
44.613023
21
-2.699619
31
0
39
0
210
0
220
0
230
1
0
LINE
5
97
100
AcDbEntity
8
1
62
256
6
ByLayer
370
18
48
1
60
0
100
AcDbLine
10
44.61262
20
2.699619
30
0
11
43.787541
21
2.699103
31
0
39
0
210
0
220
0
230
1
0
LINE
5
98
100
AcDbEntity
8
1
62
256
6
ByLayer
370
18
48
1
60
0
100
AcDbLine
10
28.261526
20
2.689399
30
0
11
27.437355
21
2.688884
31
0
39
0
210
0
220
0
230
1
0
LINE
5
99
100
AcDbEntity
8
1
62
256
6
ByLayer
370
18
48
1
60
0
100
AcDbLine
10
3.910319
20
2.67418
30
0
11
0.970626
21
2.672343
31
0
39
0
210
0
220
0
230
1
0
LINE
5
9A
100
AcDbEntity
8
81
62
256
6
ByLayer
370
18
48
1
60
0
100
AcDbLine
10
46
20
0
30
0
11
51
21
0
31
0
39
0
210
0
220
0
230
1
0
LINE
5
9B
100
AcDbEntity
8
SK2
62
256
6
ByLayer
370
13
48
1
60
0
100
AcDbLine
10
-44.625163
20
32.117107
30
0
11
-44.625163
21
-11.75
31
0
39
0
210
0
220
0
230
1
0
LINE
5
9D
100
AcDbEntity
8
SK2
62
256
6
ByLayer
370
13
48
1
60
0
100
AcDbLine
10
-37.5875
20
3
30
0
11
-46.625163
21
3
31
0
39
0
210
0
220
0
230
1
0
LINE
5
9E
100
AcDbEntity
8
SK2
62
256
6
ByLayer
370
13
48
1
60
0
100
AcDbLine
10
-37.5875
20
-3
30
0
11
-46.625163
21
-3
31
0
39
0
210
0
220
0
230
1
0
LINE
5
9F
100
AcDbEntity
8
1
62
256
6
ByLayer
370
18
48
1
60
1
100
AcDbLine
10
-44.625163
20
3
30
0
11
-45.085946
21
6.499998
31
0
39
0
210
0
220
0
230
1
0
LINE
5
A0
100
AcDbEntity
8
1
62
256
6
ByLayer
370
18
48
1
60
1
100
AcDbLine
10
-45.085946
20
6.499998
30
0
11
-44.164379
21
6.500002
31
0
39
0
210
0
220
0
230
1
0
LINE
5
A1
100
AcDbEntity
8
1
62
256
6
ByLayer
370
18
48
1
60
1
100
AcDbLine
10
-44.164379
20
6.500002
30
0
11
-44.625163
21
3
31
0
39
0
210
0
220
0
230
1
0
LINE
5
A2
100
AcDbEntity
8
1
62
256
6
ByLayer
370
18
48
1
60
1
100
AcDbLine
10
-44.625163
20
-3
30
0
11
-44.164379
21
-6.499998
31
0
39
0
210
0
220
0
230
1
0
LINE
5
A3
100
AcDbEntity
8
1
62
256
6
ByLayer
370
18
48
1
60
1
100
AcDbLine
10
-44.164379
20
-6.499998
30
0
11
-45.085946
21
-6.500002
31
0
39
0
210
0
220
0
230
1
0
LINE
5
A4
100
AcDbEntity
8
1
62
256
6
ByLayer
370
18
48
1
60
1
100
AcDbLine
10
-45.085946
20
-6.500002
30
0
11
-44.625163
21
-3
31
0
39
0
210
0
220
0
230
1
0
LINE
5
A5
100
AcDbEntity
8
2
62
256
6
ByLayer
370
13
48
1
60
0
100
AcDbLine
10
58.083343
20
30.778727
30
0
11
58.083343
21
-11.45
31
0
39
0
210
0
220
0
230
1
0
LINE
5
A7
100
AcDbEntity
8
2
62
256
6
ByLayer
370
13
48
1
60
0
100
AcDbLine
10
46.7967
20
2.7
30
0
11
60.083343
21
2.7
31
0
39
0
210
0
220
0
230
1
0
LINE
5
A8
100
AcDbEntity
8
2
62
256
6
ByLayer
370
13
48
1
60
0
100
AcDbLine
10
46.7967
20
-2.7
30
0
11
60.083343
21
-2.7
31
0
39
0
210
0
220
0
230
1
0
LINE
5
A9
100
AcDbEntity
8
1
62
256
6
ByLayer
370
18
48
1
60
1
100
AcDbLine
10
58.083343
20
2.7
30
0
11
57.622559
21
6.199998
31
0
39
0
210
0
220
0
230
1
0
LINE
5
AA
100
AcDbEntity
8
1
62
256
6
ByLayer
370
18
48
1
60
1
100
AcDbLine
10
57.622559
20
6.199998
30
0
11
58.544126
21
6.200002
31
0
39
0
210
0
220
0
230
1
0
LINE
5
AB
100
AcDbEntity
8
1
62
256
6
ByLayer
370
18
48
1
60
1
100
AcDbLine
10
58.544126
20
6.200002
30
0
11
58.083343
21
2.7
31
0
39
0
210
0
220
0
230
1
0
LINE
5
AC
100
AcDbEntity
8
1
62
256
6
ByLayer
370
18
48
1
60
1
100
AcDbLine
10
58.083343
20
-2.7
30
0
11
58.544126
21
-6.199998
31
0
39
0
210
0
220
0
230
1
0
LINE
5
AD
100
AcDbEntity
8
1
62
256
6
ByLayer
370
18
48
1
60
1
100
AcDbLine
10
58.544126
20
-6.199998
30
0
11
57.622559
21
-6.200002
31
0
39
0
210
0
220
0
230
1
0
LINE
5
AE
100
AcDbEntity
8
1
62
256
6
ByLayer
370
18
48
1
60
1
100
AcDbLine
10
57.622559
20
-6.200002
30
0
11
58.083343
21
-2.7
31
0
39
0
210
0
220
0
230
1
0
LINE
5
104
100
AcDbEntity
8
1
62
256
6
ByLayer
370
18
48
1
60
1
100
AcDbLine
10
-44.625163
20
3
30
0
11
-45.085946
21
6.499998
31
0
39
0
210
0
220
0
230
1
0
LINE
5
105
100
AcDbEntity
8
1
62
256
6
ByLayer
370
18
48
1
60
1
100
AcDbLine
10
-45.085946
20
6.499998
30
0
11
-44.164379
21
6.500002
31
0
39
0
210
0
220
0
230
1
0
LINE
5
106
100
AcDbEntity
8
1
62
256
6
ByLayer
370
18
48
1
60
1
100
AcDbLine
10
-44.164379
20
6.500002
30
0
11
-44.625163
21
3
31
0
39
0
210
0
220
0
230
1
0
LINE
5
108
100
AcDbEntity
8
1
62
256
6
ByLayer
370
18
48
1
60
1
100
AcDbLine
10
-44.625163
20
-3
30
0
11
-44.164379
21
-6.499998
31
0
39
0
210
0
220
0
230
1
0
LINE
5
109
100
AcDbEntity
8
1
62
256
6
ByLayer
370
18
48
1
60
1
100
AcDbLine
10
-44.164379
20
-6.499998
30
0
11
-45.085946
21
-6.500002
31
0
39
0
210
0
220
0
230
1
0
LINE
5
10A
100
AcDbEntity
8
1
62
256
6
ByLayer
370
18
48
1
60
1
100
AcDbLine
10
-45.085946
20
-6.500002
30
0
11
-44.625163
21
-3
31
0
39
0
210
0
220
0
230
1
0
LINE
5
10E
100
AcDbEntity
8
1
62
256
6
ByLayer
370
18
48
1
60
1
100
AcDbLine
10
58.083343
20
2.7
30
0
11
57.622559
21
6.199998
31
0
39
0
210
0
220
0
230
1
0
LINE
5
10F
100
AcDbEntity
8
1
62
256
6
ByLayer
370
18
48
1
60
1
100
AcDbLine
10
57.622559
20
6.199998
30
0
11
58.544126
21
6.200002
31
0
39
0
210
0
220
0
230
1
0
LINE
5
110
100
AcDbEntity
8
1
62
256
6
ByLayer
370
18
48
1
60
1
100
AcDbLine
10
58.544126
20
6.200002
30
0
11
58.083343
21
2.7
31
0
39
0
210
0
220
0
230
1
0
LINE
5
112
100
AcDbEntity
8
1
62
256
6
ByLayer
370
18
48
1
60
1
100
AcDbLine
10
58.083343
20
-2.7
30
0
11
58.544126
21
-6.199998
31
0
39
0
210
0
220
0
230
1
0
LINE
5
113
100
AcDbEntity
8
1
62
256
6
ByLayer
370
18
48
1
60
1
100
AcDbLine
10
58.544126
20
-6.199998
30
0
11
57.622559
21
-6.200002
31
0
39
0
210
0
220
0
230
1
0
LINE
5
114
100
AcDbEntity
8
1
62
256
6
ByLayer
370
18
48
1
60
1
100
AcDbLine
10
57.622559
20
-6.200002
30
0
11
58.083343
21
-2.7
31
0
39
0
210
0
220
0
230
1
0
MTEXT
5
FE
100
AcDbEntity
8
SK6
62
256
6
ByLayer
370
13
48
1
60
0
100
AcDbMText
10
-24.32946
20
35.240328
30
0
210
0
220
0
230
1
1
\W0.7716;462.1-0540-027A1-XM X2BM
40
3.5
41
0
44
1.084337
50
0
71
7
72
5
7
iso_b_vert
0
MTEXT
5
102
100
AcDbEntity
8
SK2
62
256
6
ByLayer
370
18
48
1
60
0
100
AcDbMText
10
-46.189796
20
16.409024
30
0
210
0
220
0
230
1
1
%%c
40
3.5
41
0
44
1.084337
50
90
71
7
72
5
7
iso_b_vert
0
MTEXT
5
103
100
AcDbEntity
8
SK2
62
256
6
ByLayer
370
18
48
1
60
0
100
AcDbMText
10
-46.189796
20
21.63168
30
0
210
0
220
0
230
1
1
\W0.7317;6,000
40
3.5
41
0
44
1.084337
50
90
71
7
72
5
7
iso_b_vert
0
MTEXT
5
10C
100
AcDbEntity
8
2
62
256
6
ByLayer
370
18
48
1
60
0
100
AcDbMText
10
56.518709
20
14.70211
30
0
210
0
220
0
230
1
1
%%c
40
3.5
41
0
44
1.084337
50
90
71
7
72
5
7
iso_b_vert
0
MTEXT
5
10D
100
AcDbEntity
8
2
62
256
6
ByLayer
370
18
48
1
60
0
100
AcDbMText
10
56.518709
20
19.924766
30
0
210
0
220
0
230
1
1
\W0.7581;5,400
40
3.5
41
0
44
1.084337
50
90
71
7
72
5
7
iso_b_vert
0
HATCH
5
107
100
AcDbEntity
8
SK2
62
256
6
ByLayer
370
13
48
1
60
0
100
AcDbHatch
10
0
20
0
30
0
210
0
220
0
230
1
2
ANSI31
70
0
71
0
91
1
92
5
93
3
72
1
10
-44.6251625675374
20
3
11
-45.0859463090902
21
6.49999830744682
72
1
10
-45.0859463090902
20
6.49999830744682
11
-44.1643788259847
21
6.50000169255318
72
1
10
-44.1643788259847
20
6.50000169255318
11
-44.6251625675374
21
3
97
0
75
0
76
1
52
0
41
0.0062
77
0
78
1
53
45
43
0
44
0
45
-0.0139193969876572
46
0.0139193969876572
79
0
47
0
98
1
10
0
20
0
0
HATCH
5
10B
100
AcDbEntity
8
SK2
62
256
6
ByLayer
370
13
48
1
60
0
100
AcDbHatch
10
0
20
0
30
0
210
0
220
0
230
1
2
ANSI31
70
0
71
0
91
1
92
5
93
3
72
1
10
-44.6251625675374
20
-3
11
-44.1643788259847
21
-6.49999830744682
72
1
10
-44.1643788259847
20
-6.49999830744682
11
-45.0859463090902
21
-6.50000169255318
72
1
10
-45.0859463090902
20
-6.50000169255318
11
-44.6251625675374
21
-3
97
0
75
0
76
1
52
0
41
0.0062
77
0
78
1
53
45
43
0
44
0
45
-0.0139193969876572
46
0.0139193969876572
79
0
47
0
98
1
10
0
20
0
0
HATCH
5
111
100
AcDbEntity
8
2
62
256
6
ByLayer
370
13
48
1
60
0
100
AcDbHatch
10
0
20
0
30
0
210
0
220
0
230
1
2
ANSI31
70
0
71
0
91
1
92
5
93
3
72
1
10
58.083342615295
20
2.70000000000002
11
57.6225588737423
21
6.19999830744683
72
1
10
57.6225588737423
20
6.19999830744683
11
58.5441263568478
21
6.2000016925532
72
1
10
58.5441263568478
20
6.2000016925532
11
58.083342615295
21
2.70000000000002
97
0
75
0
76
1
52
0
41
0.0062
77
0
78
1
53
45
43
0
44
0
45
-0.0139193969876572
46
0.0139193969876572
79
0
47
0
98
1
10
0
20
0
0
HATCH
5
115
100
AcDbEntity
8
2
62
256
6
ByLayer
370
13
48
1
60
0
100
AcDbHatch
10
0
20
0
30
0
210
0
220
0
230
1
2
ANSI31
70
0
71
0
91
1
92
5
93
3
72
1
10
58.083342615295
20
-2.69999999999999
11
58.5441263568478
21
-6.1999983074468
72
1
10
58.5441263568478
20
-6.1999983074468
11
57.6225588737423
21
-6.20000169255317
72
1
10
57.6225588737423
20
-6.20000169255317
11
58.083342615295
21
-2.69999999999999
97
0
75
0
76
1
52
0
41
0.0062
77
0
78
1
53
45
43
0
44
0
45
-0.0139193969876572
46
0.0139193969876572
79
0
47
0
98
1
10
0
20
0
0
DIMENSION
5
117
100
AcDbEntity
8
SK2
62
256
6
ByLayer
370
13
48
1
60
0
100
AcDbDimension
2
_U0
10
45.2092
20
-12.913398
30
0
11
22.6046
21
-12.913398
31
0
70
32
71
1
72
1
41
1
210
0
220
0
230
1
3
Standard
100
AcDbAlignedDimension
13
0
23
0
33
0
14
45.2092
24
-2.7
34
0
50
0
100
AcDbRotatedDimension
1001
ACAD
1000
DSTYLE
1002
{
1070
   371
1070
    13
1070
   372
1070
    13
1070
   170
1070
     0
1070
   144
1040
1.0
1070
   277
1070
     2
1070
   278
1070
    44
1070
   146
1040
1.0
1070
   345
1005
16
1070
   347
1005
16
1070
   346
1005
16
1070
   344
1005
0
1070
   343
1005
0
1070
   172
1070
     1
1070
    76
1070
     0
1070
    75
1070
     0
1070
   282
1070
     0
1070
   281
1070
     0
1070
    71
1070
     0
1070
    74
1070
     0
1070
   279
1070
     0
1070
   173
1070
     1
1070
   340
1005
FF
1070
   271
1070
     2
1070
   272
1070
     2
1070
    77
1070
     1
1070
    73
1070
     1
1070
   171
1070
     3
1070
   274
1070
     4
1070
   177
1070
    35
1070
   176
1070
    35
1070
   178
1070
    35
1070
    48
1040
-0.1
1070
    41
1040
3.5
1070
   147
1040
1.75
1070
    42
1040
1.5875
1070
    44
1040
2.0
1070
   140
1040
3.5
1002
}
1001
ACAD_DSTYLE_DIM_LINETYPE
1070
   380
1005
16
1001
ACAD_DSTYLE_DIM_EXT1_LINETYPE
1070
   381
1005
16
1001
ACAD_DSTYLE_DIM_EXT2_LINETYPE
1070
   382
1005
16
0
DIMENSION
5
130
100
AcDbEntity
8
SK2
62
256
6
ByLayer
370
13
48
1
60
0
100
AcDbDimension
2
_U1
10
46
20
-31.692985
30
0
11
5
21
-31.692985
31
0
70
32
71
1
72
1
41
1
210
0
220
0
230
1
3
Standard
100
AcDbAlignedDimension
13
-36
23
-3
33
0
14
46
24
0
34
0
50
0
100
AcDbRotatedDimension
1001
ACAD
1000
DSTYLE
1002
{
1070
   371
1070
    13
1070
   372
1070
    13
1070
   170
1070
     0
1070
   144
1040
1.0
1070
   277
1070
     2
1070
   278
1070
    44
1070
   146
1040
1.0
1070
   345
1005
16
1070
   347
1005
16
1070
   346
1005
16
1070
   344
1005
0
1070
   343
1005
0
1070
   172
1070
     1
1070
    76
1070
     0
1070
    75
1070
     0
1070
   282
1070
     0
1070
   281
1070
     0
1070
    71
1070
     0
1070
    74
1070
     0
1070
   279
1070
     0
1070
   173
1070
     1
1070
   340
1005
FF
1070
   271
1070
     2
1070
   272
1070
     2
1070
    77
1070
     1
1070
    73
1070
     1
1070
   171
1070
     3
1070
   274
1070
     4
1070
   177
1070
    35
1070
   176
1070
    35
1070
   178
1070
    35
1070
    48
1040
-0.1
1070
    41
1040
3.5
1070
   147
1040
1.75
1070
    42
1040
1.5875
1070
    44
1040
2.0
1070
   140
1040
3.5
1002
}
1001
ACAD_DSTYLE_DIM_LINETYPE
1070
   380
1005
16
1001
ACAD_DSTYLE_DIM_EXT1_LINETYPE
1070
   381
1005
16
1001
ACAD_DSTYLE_DIM_EXT2_LINETYPE
1070
   382
1005
16
0
DIMENSION
5
148
100
AcDbEntity
8
SK2
62
256
6
ByLayer
370
13
48
1
60
0
100
AcDbDimension
2
_U2
10
46
20
14.309119
30
0
11
32.105
21
14.309119
31
0
70
32
71
1
72
1
41
1
210
0
220
0
230
1
3
Standard
100
AcDbAlignedDimension
13
18.21
23
2.7
33
0
14
46
24
0
34
0
50
0
100
AcDbRotatedDimension
1001
ACAD
1000
DSTYLE
1002
{
1070
   371
1070
    13
1070
   372
1070
    13
1070
   170
1070
     0
1070
   144
1040
1.0
1070
   277
1070
     2
1070
   278
1070
    44
1070
   146
1040
1.0
1070
   345
1005
16
1070
   347
1005
16
1070
   346
1005
16
1070
   344
1005
0
1070
   343
1005
0
1070
   172
1070
     1
1070
    76
1070
     0
1070
    75
1070
     0
1070
   282
1070
     0
1070
   281
1070
     0
1070
    71
1070
     0
1070
    74
1070
     0
1070
   279
1070
     0
1070
   173
1070
     1
1070
   340
1005
FF
1070
   271
1070
     2
1070
   272
1070
     2
1070
    77
1070
     1
1070
    73
1070
     1
1070
   171
1070
     3
1070
   274
1070
     4
1070
   177
1070
    35
1070
   176
1070
    35
1070
   178
1070
    35
1070
    48
1040
-0.1
1070
    41
1040
3.5
1070
   147
1040
1.75
1070
    42
1040
1.5875
1070
    44
1040
2.0
1070
   140
1040
3.5
1002
}
1001
ACAD_DSTYLE_DIM_LINETYPE
1070
   380
1005
16
1001
ACAD_DSTYLE_DIM_EXT1_LINETYPE
1070
   381
1005
16
1001
ACAD_DSTYLE_DIM_EXT2_LINETYPE
1070
   382
1005
16
0
DIMENSION
5
160
100
AcDbEntity
8
SK2
62
256
6
ByLayer
370
13
48
1
60
0
100
AcDbDimension
2
_U3
10
45.2092
20
-15.502503
30
0
11
63.5
21
-15.502503
31
0
70
32
71
1
72
1
41
1
210
0
220
0
230
1
3
Standard
100
AcDbAlignedDimension
13
46
23
0
33
0
14
45.2092
24
-2.7
34
0
50
0
100
AcDbRotatedDimension
1001
ACAD
1000
DSTYLE
1002
{
1070
   371
1070
    13
1070
   372
1070
    13
1070
   170
1070
     0
1070
   144
1040
1.0
1070
   277
1070
     2
1070
   278
1070
    44
1070
   146
1040
1.0
1070
   345
1005
16
1070
   347
1005
16
1070
   346
1005
16
1070
   344
1005
0
1070
   343
1005
0
1070
   172
1070
     1
1070
    76
1070
     0
1070
    75
1070
     0
1070
   282
1070
     0
1070
   281
1070
     0
1070
    71
1070
     0
1070
    74
1070
     0
1070
   279
1070
     0
1070
   173
1070
     1
1070
   340
1005
FF
1070
   271
1070
     2
1070
   272
1070
     2
1070
    77
1070
     1
1070
    73
1070
     1
1070
   171
1070
     3
1070
   274
1070
     4
1070
   177
1070
    35
1070
   176
1070
    35
1070
   178
1070
    35
1070
    48
1040
-0.1
1070
    41
1040
3.5
1070
   147
1040
1.75
1070
    42
1040
1.5875
1070
    44
1040
2.0
1070
   140
1040
3.5
1002
}
1001
ACAD_DSTYLE_DIM_LINETYPE
1070
   380
1005
16
1001
ACAD_DSTYLE_DIM_EXT1_LINETYPE
1070
   381
1005
16
1001
ACAD_DSTYLE_DIM_EXT2_LINETYPE
1070
   382
1005
16
0
DIMENSION
5
17A
100
AcDbEntity
8
SK2
62
256
6
ByLayer
370
13
48
1
60
0
100
AcDbDimension
2
_U4
10
45.2092
20
-21.343428
30
0
11
4.6046
21
-21.343428
31
0
70
32
71
1
72
1
41
1
210
0
220
0
230
1
3
Standard
100
AcDbAlignedDimension
13
-36
23
-3
33
0
14
45.2092
24
-2.7
34
0
50
0
100
AcDbRotatedDimension
1001
ACAD
1000
DSTYLE
1002
{
1070
   371
1070
    13
1070
   372
1070
    13
1070
   170
1070
     0
1070
   144
1040
1.0
1070
   277
1070
     2
1070
   278
1070
    44
1070
   146
1040
1.0
1070
   345
1005
16
1070
   347
1005
16
1070
   346
1005
16
1070
   344
1005
0
1070
   343
1005
0
1070
   172
1070
     1
1070
    76
1070
     0
1070
    75
1070
     0
1070
   282
1070
     0
1070
   281
1070
     0
1070
    71
1070
     0
1070
    74
1070
     0
1070
   279
1070
     0
1070
   173
1070
     1
1070
   340
1005
FF
1070
   271
1070
     2
1070
   272
1070
     2
1070
    77
1070
     1
1070
    73
1070
     1
1070
   171
1070
     3
1070
   274
1070
     4
1070
   177
1070
    35
1070
   176
1070
    35
1070
   178
1070
    35
1070
    48
1040
-0.1
1070
    41
1040
3.5
1070
   147
1040
1.75
1070
    42
1040
1.5875
1070
    44
1040
2.0
1070
   140
1040
3.5
1002
}
1001
ACAD_DSTYLE_DIM_LINETYPE
1070
   380
1005
16
1001
ACAD_DSTYLE_DIM_EXT1_LINETYPE
1070
   381
1005
16
1001
ACAD_DSTYLE_DIM_EXT2_LINETYPE
1070
   382
1005
16
0
ENDSEC
0
SECTION
2
OBJECTS
0
DICTIONARY
5
202
330
0
100
AcDbDictionary
280
0
281
1
3
ACAD_GROUP
350
203
3
ACAD_MLINESTYLE
350
204
0
DICTIONARY
5
203
330
0
100
AcDbDictionary
280
0
281
1
0
DICTIONARY
5
204
330
0
100
AcDbDictionary
280
0
281
1
3
Standard
350
18
0
MLINESTYLE
5
18
330
204
100
AcDbMlineStyle
2
Standard
70
0
3

62
256
51
90
52
90
71
2
49
-0.5
62
256
6
ByLayer
49
0.5
62
256
6
ByLayer
0
RASTERVARIABLES
5
1f0
330

100
AcDbRasterVariables
90
0
70
1
71
1
72
1
0
ENDSEC
0
EOF
