0
SECTION
2
HEADER
9
$ACADVER
1
AC1015
9
$DWGCODEPAGE
3
ANSI_1252
9
$HANDSEED
5
1fd
9
$ANGBASE
50
0
9
$ANGDIR
70
0
9
$ATTMODE
70
1
9
$AUNITS
70
0
9
$AUPREC
70
0
9
$CECOLOR
62
256
9
$CELTSCALE
40
1
9
$CELTYPE
6
ByLayer
9
$CELWEIGHT
370
18
9
$CLAYER
8
0
9
$CMLJUST
70
0
9
$CMLSCALE
40
1
9
$CMLSTYLE
2
Standard
9
$DIMSTYLE
2
Standard
9
$TEXTSIZE
40
0.2
9
$TEXTSTYLE
7
Standard
9
$LUNITS
70
2
9
$LUPREC
70
4
9
$EXTNAMES
290
1
9
$INSUNITS
70
4
9
$LTSCALE
40
1
9
$LWDISPLAY
290
1
9
$PDMODE
70
0
9
$PDSIZE
40
0
9
$PLINEGEN
70
0
0
ENDSEC
0
SECTION
2
CLASSES
0
CLASS
1
RASTERVARIABLES
2
AcDbRasterVariables
3
ISM
90
0
280
0
281
0
0
ENDSEC
0
SECTION
2
TABLES
0
TABLE
2
VPORT
5
1f3
100
AcDbSymbolTable
0
VPORT
5
1
100
AcDbSymbolTableRecord
100
AcDbViewportTableRecord
2
*Active
70
0
10
0
20
0
11
1
21
1
12
-1
22
1
13
0
23
0
14
0.5
24
0.5
15
10
25
10
16
0
26
0
36
1
17
0
27
0
37
0
0
ENDTAB
0
TABLE
2
LTYPE
5
1f4
100
AcDbSymbolTable
0
LTYPE
5
14
100
AcDbSymbolTableRecord
100
AcDbLinetypeTableRecord
70
0
2
ByBlock
3

72
65
73
0
40
0
0
LTYPE
5
15
100
AcDbSymbolTableRecord
100
AcDbLinetypeTableRecord
70
0
2
ByLayer
3

72
65
73
0
40
0
0
LTYPE
5
16
100
AcDbSymbolTableRecord
100
AcDbLinetypeTableRecord
70
0
2
Continuous
3
Solid line
72
65
73
0
40
0
0
LTYPE
5
6E
100
AcDbSymbolTableRecord
100
AcDbLinetypeTableRecord
70
0
2
CENTER
3
____ _ ____ _ ____ _ ____
72
65
73
4
40
47.5
49
22
74
0
49
-8.5
74
0
49
8.5
74
0
49
-8.5
74
0
0
LTYPE
5
6F
100
AcDbSymbolTableRecord
100
AcDbLinetypeTableRecord
70
0
2
DASHED
3
__ __ __ __ __ __ __ __ __
72
65
73
2
40
25.72
49
12.86
74
0
49
-12.86
74
0
0
ENDTAB
0
TABLE
2
LAYER
5
1f5
100
AcDbSymbolTable
0
LAYER
5
10
100
AcDbSymbolTableRecord
100
AcDbLayerTableRecord
2
0
70
0
62
7
6
Continuous
290
1
370
-3
390
0
0
LAYER
5
71
100
AcDbSymbolTableRecord
100
AcDbLayerTableRecord
2
80
70
0
62
-6
6
Continuous
290
1
370
-3
390
0
0
LAYER
5
73
100
AcDbSymbolTableRecord
100
AcDbLayerTableRecord
2
81
70
0
62
-3
6
Continuous
290
1
370
-3
390
0
0
LAYER
5
75
100
AcDbSymbolTableRecord
100
AcDbLayerTableRecord
2
1
70
0
62
4
6
Continuous
290
1
370
-3
390
0
0
LAYER
5
8C
100
AcDbSymbolTableRecord
100
AcDbLayerTableRecord
2
4
70
0
62
-2
6
CENTER
290
1
370
-3
390
0
0
LAYER
5
A5
100
AcDbSymbolTableRecord
100
AcDbLayerTableRecord
2
2
70
0
62
7
6
Continuous
290
1
370
-3
390
0
0
LAYER
5
108
100
AcDbSymbolTableRecord
100
AcDbLayerTableRecord
2
Defpoints
70
0
62
7
6
Continuous
290
0
370
-3
390
0
0
LAYER
5
1df
100
AcDbSymbolTableRecord
100
AcDbLayerTableRecord
2
SK1
70
0
62
4
6
Continuous
290
1
370
-3
390
0
0
LAYER
5
1e0
100
AcDbSymbolTableRecord
100
AcDbLayerTableRecord
2
SK4
70
0
62
2
6
CENTER
290
1
370
-3
390
0
0
LAYER
5
1e1
100
AcDbSymbolTableRecord
100
AcDbLayerTableRecord
2
SK2
70
0
62
7
6
Continuous
290
1
370
-3
390
0
0
LAYER
5
1e2
100
AcDbSymbolTableRecord
100
AcDbLayerTableRecord
2
SK6
70
0
62
5
6
Continuous
290
1
370
-3
390
0
0
ENDTAB
0
TABLE
2
STYLE
5
1f6
100
AcDbSymbolTable
0
STYLE
5
11
100
AcDbSymbolTableRecord
100
AcDbTextStyleTableRecord
2
Standard
3
txt
70
0
71
0
40
0
41
1
42
0
50
0
0
STYLE
5
ED
100
AcDbSymbolTableRecord
100
AcDbTextStyleTableRecord
2
iso_b_vert
3
simplex.shx
70
0
71
0
40
0
41
1
42
0
50
0
0
STYLE
5
EE
100
AcDbSymbolTableRecord
100
AcDbTextStyleTableRecord
2
DWGDirectTextStyle
3
simplex
70
0
71
0
40
0
41
1
42
0
50
0
0
ENDTAB
0
TABLE
2
DIMSTYLE
5
1f7
100
AcDbSymbolTable
100
AcDbDimStyleTable
0
DIMSTYLE
105
27
100
AcDbSymbolTableRecord
100
AcDbDimStyleTableRecord
2
Standard
70
0
3
<>
41
0.18
42
0.0625
44
0.18
140
0.18
147
0.09
73
0
74
0
77
1
271
2
275
0
278
52
280
0
340
11
0
ENDTAB
0
TABLE
2
VIEW
5
1f8
100
AcDbSymbolTable
0
ENDTAB
0
TABLE
2
UCS
5
1f9
100
AcDbSymbolTable
0
ENDTAB
0
TABLE
2
APPID
5
1fa
100
AcDbSymbolTable
0
APPID
5
12
100
AcDbSymbolTableRecord
100
AcDbRegAppTableRecord
2
ACAD
70
0
0
APPID
5
104
100
AcDbSymbolTableRecord
100
AcDbRegAppTableRecord
2
ACAD_DSTYLE_DIMBREAK
70
0
0
APPID
5
19E
100
AcDbSymbolTableRecord
100
AcDbRegAppTableRecord
2
ACAD_DSTYLE_DIM_LINETYPE
70
0
0
APPID
5
19F
100
AcDbSymbolTableRecord
100
AcDbRegAppTableRecord
2
ACAD_DSTYLE_DIM_EXT1_LINETYPE
70
0
0
APPID
5
1A0
100
AcDbSymbolTableRecord
100
AcDbRegAppTableRecord
2
ACAD_DSTYLE_DIM_EXT2_LINETYPE
70
0
0
APPID
5
1DB
100
AcDbSymbolTableRecord
100
AcDbRegAppTableRecord
2
ACAD_MLEADERVER
70
0
0
ENDTAB
0
TABLE
2
BLOCK_RECORD
5
1fb
100
AcDbSymbolTable
0
BLOCK_RECORD
5
1F
100
AcDbSymbolTableRecord
100
AcDbBlockTableRecord
2
*Model_Space
340
0
70
0
0
BLOCK_RECORD
5
1B
100
AcDbSymbolTableRecord
100
AcDbBlockTableRecord
2
*Paper_Space
340
0
70
0
0
BLOCK_RECORD
5
23
100
AcDbSymbolTableRecord
100
AcDbBlockTableRecord
2
*Paper_Space0
340
0
70
0
0
BLOCK_RECORD
5
109
100
AcDbSymbolTableRecord
100
AcDbBlockTableRecord
2
*D1
340
0
70
0
0
BLOCK_RECORD
5
115
100
AcDbSymbolTableRecord
100
AcDbBlockTableRecord
2
_U0
340
0
70
0
0
BLOCK_RECORD
5
121
100
AcDbSymbolTableRecord
100
AcDbBlockTableRecord
2
*D3
340
0
70
0
0
BLOCK_RECORD
5
12D
100
AcDbSymbolTableRecord
100
AcDbBlockTableRecord
2
_U1
340
0
70
0
0
BLOCK_RECORD
5
139
100
AcDbSymbolTableRecord
100
AcDbBlockTableRecord
2
*D5
340
0
70
0
0
BLOCK_RECORD
5
145
100
AcDbSymbolTableRecord
100
AcDbBlockTableRecord
2
_U2
340
0
70
0
0
BLOCK_RECORD
5
151
100
AcDbSymbolTableRecord
100
AcDbBlockTableRecord
2
*D7
340
0
70
0
0
BLOCK_RECORD
5
15F
100
AcDbSymbolTableRecord
100
AcDbBlockTableRecord
2
_U3
340
0
70
0
0
BLOCK_RECORD
5
16B
100
AcDbSymbolTableRecord
100
AcDbBlockTableRecord
2
*D9
340
0
70
0
0
BLOCK_RECORD
5
177
100
AcDbSymbolTableRecord
100
AcDbBlockTableRecord
2
_U4
340
0
70
0
0
ENDTAB
0
ENDSEC
0
SECTION
2
BLOCKS
0
BLOCK
5
20
100
AcDbEntity
8
0
100
AcDbBlockBegin
2
*Model_Space
70
0
10
0
20
0
30
0
3
*Model_Space
0
ENDBLK
5
21
100
AcDbEntity
8
0
100
AcDbBlockEnd
0
BLOCK
5
1C
100
AcDbEntity
8
0
100
AcDbBlockBegin
2
*Paper_Space
70
0
10
0
20
0
30
0
3
*Paper_Space
0
ENDBLK
5
1D
100
AcDbEntity
8
0
100
AcDbBlockEnd
0
BLOCK
5
24
100
AcDbEntity
8
0
100
AcDbBlockBegin
2
*Paper_Space0
70
0
10
0
20
0
30
0
3
*Paper_Space0
0
ENDBLK
5
25
100
AcDbEntity
8
0
100
AcDbBlockEnd
0
BLOCK
5
10A
100
AcDbEntity
8
0
100
AcDbBlockBegin
2
*D1
70
1
10
0
20
0
30
0
3
*D1
0
LINE
5
10C
100
AcDbEntity
8
0
62
256
6
ByLayer
370
-2
48
1
60
0
100
AcDbLine
10
0
20
-1.5875
30
0
11
0
21
-19.488398
31
0
39
0
210
0
220
0
230
1
0
LINE
5
10D
100
AcDbEntity
8
0
62
256
6
ByLayer
370
-2
48
1
60
0
100
AcDbLine
10
82.8303
20
-8.8625
30
0
11
82.8303
21
-19.488398
31
0
39
0
210
0
220
0
230
1
0
LINE
5
10E
100
AcDbEntity
8
0
62
256
6
ByLayer
370
-2
48
1
60
0
100
AcDbLine
10
3.5
20
-17.488398
30
0
11
79.3303
21
-17.488398
31
0
39
0
210
0
220
0
230
1
0
SOLID
5
10F
100
AcDbEntity
8
0
62
256
6
ByLayer
370
-1
48
1
60
0
100
AcDbTrace
10
3.5
20
-16.905065
30
0
11
3.5
21
-18.071732
31
0
12
0
22
-17.488398
32
0
13
0
23
-17.488398
33
0
39
0
210
0
220
0
230
1
0
SOLID
5
110
100
AcDbEntity
8
0
62
256
6
ByLayer
370
-1
48
1
60
0
100
AcDbTrace
10
79.3303
20
-18.071732
30
0
11
79.3303
21
-16.905065
31
0
12
82.8303
22
-17.488398
32
0
13
82.8303
23
-17.488398
33
0
39
0
210
0
220
0
230
1
0
MTEXT
5
111
100
AcDbEntity
8
0
62
256
6
ByLayer
370
18
48
1
60
0
100
AcDbMText
10
41.41515
20
-10.488398
30
0
210
0
220
0
230
1
1
\A1;82.83
40
3.5
41
0
44
1
50
0
71
5
72
5
7
iso_b_vert
0
POINT
5
112
100
AcDbEntity
8
Defpoints
62
0
6
ByLayer
370
-1
48
1
60
0
100
AcDbPoint
10
0
20
0
30
0
39
0
210
0
220
0
230
1
50
360
0
POINT
5
113
100
AcDbEntity
8
Defpoints
62
0
6
ByLayer
370
-1
48
1
60
0
100
AcDbPoint
10
82.8303
20
-7.275
30
0
39
0
210
0
220
0
230
1
50
360
0
POINT
5
114
100
AcDbEntity
8
Defpoints
62
0
6
ByLayer
370
-1
48
1
60
0
100
AcDbPoint
10
82.8303
20
-17.488398
30
0
39
0
210
0
220
0
230
1
50
360
0
ENDBLK
5
10B
100
AcDbEntity
8
0
100
AcDbBlockEnd
0
BLOCK
5
11C
100
AcDbEntity
8
0
100
AcDbBlockBegin
2
_U0
70
0
10
0
20
0
30
0
3
_U0
0
MTEXT
5
116
100
AcDbEntity
8
SK2
62
256
6
ByLayer
370
13
48
1
60
0
100
AcDbMText
10
36.277851
20
-16.455765
30
0
210
0
220
0
230
1
1
\W0.7317;82,83
40
3.5
41
0
44
1.084337
50
0
71
7
72
5
7
iso_b_vert
0
LINE
5
117
100
AcDbEntity
8
SK2
62
256
6
ByLayer
370
13
48
1
60
0
100
AcDbLine
10
0
20
-1.5875
30
0
11
0
21
-19.488398
31
0
39
0
210
0
220
0
230
1
0
LINE
5
118
100
AcDbEntity
8
SK2
62
256
6
ByLayer
370
13
48
1
60
0
100
AcDbLine
10
82.8303
20
-8.8625
30
0
11
82.8303
21
-19.488398
31
0
39
0
210
0
220
0
230
1
0
LINE
5
119
100
AcDbEntity
8
SK2
62
256
6
ByLayer
370
13
48
1
60
0
100
AcDbLine
10
0
20
-17.488398
30
0
11
82.8303
21
-17.488398
31
0
39
0
210
0
220
0
230
1
0
SOLID
5
11A
100
AcDbEntity
8
SK2
62
256
6
ByLayer
370
18
48
1
60
0
100
AcDbTrace
10
0
20
-17.488398
30
0
11
3.499998
21
-17.027615
31
0
12
3.500002
22
-17.949182
32
0
13
3.500002
23
-17.949182
33
0
39
0
210
0
220
0
230
1
0
SOLID
5
11B
100
AcDbEntity
8
SK2
62
256
6
ByLayer
370
18
48
1
60
0
100
AcDbTrace
10
82.8303
20
-17.488398
30
0
11
79.330302
21
-17.949182
31
0
12
79.330298
22
-17.027615
32
0
13
79.330298
23
-17.027615
33
0
39
0
210
0
220
0
230
1
0
ENDBLK
5
11D
100
AcDbEntity
8
0
100
AcDbBlockEnd
0
BLOCK
5
122
100
AcDbEntity
8
0
100
AcDbBlockBegin
2
*D3
70
1
10
0
20
0
30
0
3
*D3
0
LINE
5
124
100
AcDbEntity
8
0
62
256
6
ByLayer
370
-2
48
1
60
0
100
AcDbLine
10
-48
20
-9.5875
30
0
11
-48
21
-38.692985
31
0
39
0
210
0
220
0
230
1
0
LINE
5
125
100
AcDbEntity
8
0
62
256
6
ByLayer
370
-2
48
1
60
0
100
AcDbLine
10
85
20
-1.5875
30
0
11
85
21
-38.692985
31
0
39
0
210
0
220
0
230
1
0
LINE
5
126
100
AcDbEntity
8
0
62
256
6
ByLayer
370
-2
48
1
60
0
100
AcDbLine
10
-44.5
20
-36.692985
30
0
11
81.5
21
-36.692985
31
0
39
0
210
0
220
0
230
1
0
SOLID
5
127
100
AcDbEntity
8
0
62
256
6
ByLayer
370
-1
48
1
60
0
100
AcDbTrace
10
-44.5
20
-36.109652
30
0
11
-44.5
21
-37.276319
31
0
12
-48
22
-36.692985
32
0
13
-48
23
-36.692985
33
0
39
0
210
0
220
0
230
1
0
SOLID
5
128
100
AcDbEntity
8
0
62
256
6
ByLayer
370
-1
48
1
60
0
100
AcDbTrace
10
81.5
20
-37.276319
30
0
11
81.5
21
-36.109652
31
0
12
85
22
-36.692985
32
0
13
85
23
-36.692985
33
0
39
0
210
0
220
0
230
1
0
MTEXT
5
129
100
AcDbEntity
8
0
62
256
6
ByLayer
370
18
48
1
60
0
100
AcDbMText
10
18.5
20
-29.692985
30
0
210
0
220
0
230
1
1
\A1;133.00
40
3.5
41
0
44
1
50
0
71
5
72
5
7
iso_b_vert
0
POINT
5
12A
100
AcDbEntity
8
Defpoints
62
0
6
ByLayer
370
-1
48
1
60
0
100
AcDbPoint
10
-48
20
-8
30
0
39
0
210
0
220
0
230
1
50
360
0
POINT
5
12B
100
AcDbEntity
8
Defpoints
62
0
6
ByLayer
370
-1
48
1
60
0
100
AcDbPoint
10
85
20
0
30
0
39
0
210
0
220
0
230
1
50
360
0
POINT
5
12C
100
AcDbEntity
8
Defpoints
62
0
6
ByLayer
370
-1
48
1
60
0
100
AcDbPoint
10
85
20
-36.692985
30
0
39
0
210
0
220
0
230
1
50
360
0
ENDBLK
5
123
100
AcDbEntity
8
0
100
AcDbBlockEnd
0
BLOCK
5
134
100
AcDbEntity
8
0
100
AcDbBlockBegin
2
_U1
70
0
10
0
20
0
30
0
3
_U1
0
MTEXT
5
12E
100
AcDbEntity
8
SK2
62
256
6
ByLayer
370
13
48
1
60
0
100
AcDbMText
10
12.492401
20
-35.660352
30
0
210
0
220
0
230
1
1
\W0.6930;133,00
40
3.5
41
0
44
1.084337
50
0
71
7
72
5
7
iso_b_vert
0
LINE
5
12F
100
AcDbEntity
8
SK2
62
256
6
ByLayer
370
13
48
1
60
0
100
AcDbLine
10
-48
20
-9.5875
30
0
11
-48
21
-38.692985
31
0
39
0
210
0
220
0
230
1
0
LINE
5
130
100
AcDbEntity
8
SK2
62
256
6
ByLayer
370
13
48
1
60
0
100
AcDbLine
10
85
20
-1.5875
30
0
11
85
21
-38.692985
31
0
39
0
210
0
220
0
230
1
0
LINE
5
131
100
AcDbEntity
8
SK2
62
256
6
ByLayer
370
13
48
1
60
0
100
AcDbLine
10
-48
20
-36.692985
30
0
11
85
21
-36.692985
31
0
39
0
210
0
220
0
230
1
0
SOLID
5
132
100
AcDbEntity
8
SK2
62
256
6
ByLayer
370
18
48
1
60
0
100
AcDbTrace
10
-48
20
-36.692985
30
0
11
-44.500002
21
-36.232202
31
0
12
-44.499998
22
-37.153769
32
0
13
-44.499998
23
-37.153769
33
0
39
0
210
0
220
0
230
1
0
SOLID
5
133
100
AcDbEntity
8
SK2
62
256
6
ByLayer
370
18
48
1
60
0
100
AcDbTrace
10
85
20
-36.692985
30
0
11
81.500002
21
-37.153769
31
0
12
81.499998
22
-36.232202
32
0
13
81.499998
23
-36.232202
33
0
39
0
210
0
220
0
230
1
0
ENDBLK
5
135
100
AcDbEntity
8
0
100
AcDbBlockEnd
0
BLOCK
5
13A
100
AcDbEntity
8
0
100
AcDbBlockBegin
2
*D5
70
1
10
0
20
0
30
0
3
*D5
0
LINE
5
13C
100
AcDbEntity
8
0
62
256
6
ByLayer
370
-2
48
1
60
0
100
AcDbLine
10
16.55
20
8.8625
30
0
11
16.55
21
20.884119
31
0
39
0
210
0
220
0
230
1
0
LINE
5
13D
100
AcDbEntity
8
0
62
256
6
ByLayer
370
-2
48
1
60
0
100
AcDbLine
10
85
20
1.5875
30
0
11
85
21
20.884119
31
0
39
0
210
0
220
0
230
1
0
LINE
5
13E
100
AcDbEntity
8
0
62
256
6
ByLayer
370
-2
48
1
60
0
100
AcDbLine
10
20.05
20
18.884119
30
0
11
81.5
21
18.884119
31
0
39
0
210
0
220
0
230
1
0
SOLID
5
13F
100
AcDbEntity
8
0
62
256
6
ByLayer
370
-1
48
1
60
0
100
AcDbTrace
10
20.05
20
19.467453
30
0
11
20.05
21
18.300786
31
0
12
16.55
22
18.884119
32
0
13
16.55
23
18.884119
33
0
39
0
210
0
220
0
230
1
0
SOLID
5
140
100
AcDbEntity
8
0
62
256
6
ByLayer
370
-1
48
1
60
0
100
AcDbTrace
10
81.5
20
18.300786
30
0
11
81.5
21
19.467453
31
0
12
85
22
18.884119
32
0
13
85
23
18.884119
33
0
39
0
210
0
220
0
230
1
0
MTEXT
5
141
100
AcDbEntity
8
0
62
256
6
ByLayer
370
18
48
1
60
0
100
AcDbMText
10
50.775
20
25.884119
30
0
210
0
220
0
230
1
1
\A1;68.45
40
3.5
41
0
44
1
50
0
71
5
72
5
7
iso_b_vert
0
POINT
5
142
100
AcDbEntity
8
Defpoints
62
0
6
ByLayer
370
-1
48
1
60
0
100
AcDbPoint
10
16.55
20
7.275
30
0
39
0
210
0
220
0
230
1
50
360
0
POINT
5
143
100
AcDbEntity
8
Defpoints
62
0
6
ByLayer
370
-1
48
1
60
0
100
AcDbPoint
10
85
20
0
30
0
39
0
210
0
220
0
230
1
50
360
0
POINT
5
144
100
AcDbEntity
8
Defpoints
62
0
6
ByLayer
370
-1
48
1
60
0
100
AcDbPoint
10
85
20
18.884119
30
0
39
0
210
0
220
0
230
1
50
360
0
ENDBLK
5
13B
100
AcDbEntity
8
0
100
AcDbBlockEnd
0
BLOCK
5
14C
100
AcDbEntity
8
0
100
AcDbBlockBegin
2
_U2
70
0
10
0
20
0
30
0
3
_U2
0
MTEXT
5
146
100
AcDbEntity
8
SK2
62
256
6
ByLayer
370
13
48
1
60
0
100
AcDbMText
10
45.453435
20
19.916753
30
0
210
0
220
0
230
1
1
\W0.7581;68,45
40
3.5
41
0
44
1.084337
50
0
71
7
72
5
7
iso_b_vert
0
LINE
5
147
100
AcDbEntity
8
SK2
62
256
6
ByLayer
370
13
48
1
60
0
100
AcDbLine
10
16.55
20
8.8625
30
0
11
16.55
21
20.884119
31
0
39
0
210
0
220
0
230
1
0
LINE
5
148
100
AcDbEntity
8
SK2
62
256
6
ByLayer
370
13
48
1
60
0
100
AcDbLine
10
85
20
1.5875
30
0
11
85
21
20.884119
31
0
39
0
210
0
220
0
230
1
0
LINE
5
149
100
AcDbEntity
8
SK2
62
256
6
ByLayer
370
13
48
1
60
0
100
AcDbLine
10
16.55
20
18.884119
30
0
11
85
21
18.884119
31
0
39
0
210
0
220
0
230
1
0
SOLID
5
14A
100
AcDbEntity
8
SK2
62
256
6
ByLayer
370
18
48
1
60
0
100
AcDbTrace
10
16.55
20
18.884119
30
0
11
20.049998
21
19.344903
31
0
12
20.050002
22
18.423335
32
0
13
20.050002
23
18.423335
33
0
39
0
210
0
220
0
230
1
0
SOLID
5
14B
100
AcDbEntity
8
SK2
62
256
6
ByLayer
370
18
48
1
60
0
100
AcDbTrace
10
85
20
18.884119
30
0
11
81.500002
21
18.423335
31
0
12
81.499998
22
19.344903
32
0
13
81.499998
23
19.344903
33
0
39
0
210
0
220
0
230
1
0
ENDBLK
5
14D
100
AcDbEntity
8
0
100
AcDbBlockEnd
0
BLOCK
5
152
100
AcDbEntity
8
0
100
AcDbBlockBegin
2
*D7
70
1
10
0
20
0
30
0
3
*D7
0
LINE
5
154
100
AcDbEntity
8
0
62
256
6
ByLayer
370
-2
48
1
60
0
100
AcDbLine
10
85
20
-1.5875
30
0
11
85
21
-22.077503
31
0
39
0
210
0
220
0
230
1
0
LINE
5
155
100
AcDbEntity
8
0
62
256
6
ByLayer
370
-2
48
1
60
0
100
AcDbLine
10
82.8303
20
-8.8625
30
0
11
82.8303
21
-22.077503
31
0
39
0
210
0
220
0
230
1
0
LINE
5
156
100
AcDbEntity
8
0
62
256
6
ByLayer
370
-2
48
1
60
0
100
AcDbLine
10
85
20
-20.077503
30
0
11
113.166667
21
-20.077503
31
0
39
0
210
0
220
0
230
1
0
LINE
5
157
100
AcDbEntity
8
0
62
256
6
ByLayer
370
-2
48
1
60
0
100
AcDbLine
10
88.5
20
-20.077503
30
0
11
92
21
-20.077503
31
0
39
0
210
0
220
0
230
1
0
LINE
5
158
100
AcDbEntity
8
0
62
256
6
ByLayer
370
-2
48
1
60
0
100
AcDbLine
10
79.3303
20
-20.077503
30
0
11
75.8303
21
-20.077503
31
0
39
0
210
0
220
0
230
1
0
SOLID
5
159
100
AcDbEntity
8
0
62
256
6
ByLayer
370
-1
48
1
60
0
100
AcDbTrace
10
88.5
20
-19.49417
30
0
11
88.5
21
-20.660837
31
0
12
85
22
-20.077503
32
0
13
85
23
-20.077503
33
0
39
0
210
0
220
0
230
1
0
SOLID
5
15A
100
AcDbEntity
8
0
62
256
6
ByLayer
370
-1
48
1
60
0
100
AcDbTrace
10
79.3303
20
-20.660837
30
0
11
79.3303
21
-19.49417
31
0
12
82.8303
22
-20.077503
32
0
13
82.8303
23
-20.077503
33
0
39
0
210
0
220
0
230
1
0
MTEXT
5
15B
100
AcDbEntity
8
0
62
256
6
ByLayer
370
18
48
1
60
0
100
AcDbMText
10
102.583333
20
-13.077503
30
0
210
0
220
0
230
1
1
\A1;2.17
40
3.5
41
0
44
1
50
0
71
5
72
5
7
iso_b_vert
0
POINT
5
15C
100
AcDbEntity
8
Defpoints
62
0
6
ByLayer
370
-1
48
1
60
0
100
AcDbPoint
10
85
20
0
30
0
39
0
210
0
220
0
230
1
50
360
0
POINT
5
15D
100
AcDbEntity
8
Defpoints
62
0
6
ByLayer
370
-1
48
1
60
0
100
AcDbPoint
10
82.8303
20
-7.275
30
0
39
0
210
0
220
0
230
1
50
360
0
POINT
5
15E
100
AcDbEntity
8
Defpoints
62
0
6
ByLayer
370
-1
48
1
60
0
100
AcDbPoint
10
82.8303
20
-20.077503
30
0
39
0
210
0
220
0
230
1
50
360
0
ENDBLK
5
153
100
AcDbEntity
8
0
100
AcDbBlockEnd
0
BLOCK
5
166
100
AcDbEntity
8
0
100
AcDbBlockBegin
2
_U3
70
0
10
0
20
0
30
0
3
_U3
0
MTEXT
5
160
100
AcDbEntity
8
SK2
62
256
6
ByLayer
370
13
48
1
60
0
100
AcDbMText
10
91.589293
20
-19.04487
30
0
210
0
220
0
230
1
1
\W0.6367;2,17
40
3.5
41
0
44
1.084337
50
0
71
7
72
5
7
iso_b_vert
0
LINE
5
161
100
AcDbEntity
8
SK2
62
256
6
ByLayer
370
13
48
1
60
0
100
AcDbLine
10
85
20
-1.5875
30
0
11
85
21
-22.077503
31
0
39
0
210
0
220
0
230
1
0
LINE
5
162
100
AcDbEntity
8
SK2
62
256
6
ByLayer
370
13
48
1
60
0
100
AcDbLine
10
82.8303
20
-8.8625
30
0
11
82.8303
21
-22.077503
31
0
39
0
210
0
220
0
230
1
0
LINE
5
163
100
AcDbEntity
8
SK2
62
256
6
ByLayer
370
13
48
1
60
0
100
AcDbLine
10
74.0803
20
-20.077503
30
0
11
98.559058
21
-20.077503
31
0
39
0
210
0
220
0
230
1
0
SOLID
5
164
100
AcDbEntity
8
SK2
62
256
6
ByLayer
370
18
48
1
60
0
100
AcDbTrace
10
85
20
-20.077503
30
0
11
88.499998
21
-19.616719
31
0
12
88.500002
22
-20.538287
32
0
13
88.500002
23
-20.538287
33
0
39
0
210
0
220
0
230
1
0
SOLID
5
165
100
AcDbEntity
8
SK2
62
256
6
ByLayer
370
18
48
1
60
0
100
AcDbTrace
10
82.8303
20
-20.077503
30
0
11
79.330302
21
-20.538287
31
0
12
79.330298
22
-19.616719
32
0
13
79.330298
23
-19.616719
33
0
39
0
210
0
220
0
230
1
0
ENDBLK
5
167
100
AcDbEntity
8
0
100
AcDbBlockEnd
0
BLOCK
5
16C
100
AcDbEntity
8
0
100
AcDbBlockBegin
2
*D9
70
1
10
0
20
0
30
0
3
*D9
0
LINE
5
16E
100
AcDbEntity
8
0
62
256
6
ByLayer
370
-2
48
1
60
0
100
AcDbLine
10
-48
20
-9.5875
30
0
11
-48
21
-28.343428
31
0
39
0
210
0
220
0
230
1
0
LINE
5
16F
100
AcDbEntity
8
0
62
256
6
ByLayer
370
-2
48
1
60
0
100
AcDbLine
10
82.8303
20
-8.8625
30
0
11
82.8303
21
-28.343428
31
0
39
0
210
0
220
0
230
1
0
LINE
5
170
100
AcDbEntity
8
0
62
256
6
ByLayer
370
-2
48
1
60
0
100
AcDbLine
10
-44.5
20
-26.343428
30
0
11
79.3303
21
-26.343428
31
0
39
0
210
0
220
0
230
1
0
SOLID
5
171
100
AcDbEntity
8
0
62
256
6
ByLayer
370
-1
48
1
60
0
100
AcDbTrace
10
-44.5
20
-25.760095
30
0
11
-44.5
21
-26.926762
31
0
12
-48
22
-26.343428
32
0
13
-48
23
-26.343428
33
0
39
0
210
0
220
0
230
1
0
SOLID
5
172
100
AcDbEntity
8
0
62
256
6
ByLayer
370
-1
48
1
60
0
100
AcDbTrace
10
79.3303
20
-26.926762
30
0
11
79.3303
21
-25.760095
31
0
12
82.8303
22
-26.343428
32
0
13
82.8303
23
-26.343428
33
0
39
0
210
0
220
0
230
1
0
MTEXT
5
173
100
AcDbEntity
8
0
62
256
6
ByLayer
370
18
48
1
60
0
100
AcDbMText
10
17.41515
20
-19.343428
30
0
210
0
220
0
230
1
1
\A1;130.83
40
3.5
41
0
44
1
50
0
71
5
72
5
7
iso_b_vert
0
POINT
5
174
100
AcDbEntity
8
Defpoints
62
0
6
ByLayer
370
-1
48
1
60
0
100
AcDbPoint
10
-48
20
-8
30
0
39
0
210
0
220
0
230
1
50
360
0
POINT
5
175
100
AcDbEntity
8
Defpoints
62
0
6
ByLayer
370
-1
48
1
60
0
100
AcDbPoint
10
82.8303
20
-7.275
30
0
39
0
210
0
220
0
230
1
50
360
0
POINT
5
176
100
AcDbEntity
8
Defpoints
62
0
6
ByLayer
370
-1
48
1
60
0
100
AcDbPoint
10
82.8303
20
-26.343428
30
0
39
0
210
0
220
0
230
1
50
360
0
ENDBLK
5
16D
100
AcDbEntity
8
0
100
AcDbBlockEnd
0
BLOCK
5
17E
100
AcDbEntity
8
0
100
AcDbBlockBegin
2
_U4
70
0
10
0
20
0
30
0
3
_U4
0
MTEXT
5
178
100
AcDbEntity
8
SK2
62
256
6
ByLayer
370
13
48
1
60
0
100
AcDbMText
10
11.407551
20
-25.310795
30
0
210
0
220
0
230
1
1
\W0.6930;130,83
40
3.5
41
0
44
1.084337
50
0
71
7
72
5
7
iso_b_vert
0
LINE
5
179
100
AcDbEntity
8
SK2
62
256
6
ByLayer
370
13
48
1
60
0
100
AcDbLine
10
-48
20
-9.5875
30
0
11
-48
21
-28.343428
31
0
39
0
210
0
220
0
230
1
0
LINE
5
17A
100
AcDbEntity
8
SK2
62
256
6
ByLayer
370
13
48
1
60
0
100
AcDbLine
10
82.8303
20
-8.8625
30
0
11
82.8303
21
-28.343428
31
0
39
0
210
0
220
0
230
1
0
LINE
5
17B
100
AcDbEntity
8
SK2
62
256
6
ByLayer
370
13
48
1
60
0
100
AcDbLine
10
-48
20
-26.343428
30
0
11
82.8303
21
-26.343428
31
0
39
0
210
0
220
0
230
1
0
SOLID
5
17C
100
AcDbEntity
8
SK2
62
256
6
ByLayer
370
18
48
1
60
0
100
AcDbTrace
10
-48
20
-26.343428
30
0
11
-44.500002
21
-25.882645
31
0
12
-44.499998
22
-26.804212
32
0
13
-44.499998
23
-26.804212
33
0
39
0
210
0
220
0
230
1
0
SOLID
5
17D
100
AcDbEntity
8
SK2
62
256
6
ByLayer
370
18
48
1
60
0
100
AcDbTrace
10
82.8303
20
-26.343428
30
0
11
79.330302
21
-26.804212
31
0
12
79.330298
22
-25.882645
32
0
13
79.330298
23
-25.882645
33
0
39
0
210
0
220
0
230
1
0
ENDBLK
5
17F
100
AcDbEntity
8
0
100
AcDbBlockEnd
0
ENDSEC
0
SECTION
2
ENTITIES
0
ARC
5
AE
100
AcDbEntity
8
1
62
256
6
ByLayer
370
18
48
1
60
0
100
AcDbCircle
39
0
10
0
20
-7.2
30
0
40
0.800000000000002
210
0
220
0
230
1
100
AcDbArc
50
270
51
328.998456
0
ARC
5
AF
100
AcDbEntity
8
1
62
256
6
ByLayer
370
18
48
1
60
0
100
AcDbCircle
39
0
10
1.371445
20
-8.024098
30
0
40
0.799999999999996
210
0
220
0
230
1
100
AcDbArc
50
89.96419
51
148.998456
0
ARC
5
B0
100
AcDbEntity
8
1
62
256
6
ByLayer
370
18
48
1
60
0
100
AcDbCircle
39
0
10
1.371445
20
8.024098
30
0
40
0.799999999999996
210
0
220
0
230
1
100
AcDbArc
50
211.001544
51
270.03581
0
ARC
5
B1
100
AcDbEntity
8
1
62
256
6
ByLayer
370
18
48
1
60
0
100
AcDbCircle
39
0
10
0
20
7.2
30
0
40
0.800000000000002
210
0
220
0
230
1
100
AcDbArc
50
31.001544
51
90
0
ELLIPSE
5
B2
100
AcDbEntity
8
1
62
256
6
ByLayer
370
18
48
1
60
0
100
AcDbEllipse
10
4.25
20
-7.112599
30
0
11
0.25
21
0
31
0
210
0
220
0
230
1
40
0.999994
41
1.58145523782911
42
3.10823456140395
0
ELLIPSE
5
B3
100
AcDbEntity
8
1
62
256
6
ByLayer
370
18
48
1
60
0
100
AcDbEllipse
10
4.25
20
7.112599
30
0
11
0.25
21
0
31
0
210
0
220
0
230
1
40
0.999994
41
-3.10823456140394
42
-1.55538637116834
0
POINT
5
70
100
AcDbEntity
8
80
62
256
6
ByLayer
370
18
48
1
60
0
100
AcDbPoint
10
0
20
0
30
0
39
0
210
0
220
0
230
1
50
360
0
POINT
5
72
100
AcDbEntity
8
81
62
256
6
ByLayer
370
18
48
1
60
0
100
AcDbPoint
10
85
20
0
30
0
39
0
210
0
220
0
230
1
50
360
0
POINT
5
74
100
AcDbEntity
8
1
62
256
6
ByLayer
370
18
48
1
60
1
100
AcDbPoint
10
82.8303
20
-7.275
30
0
39
0
210
0
220
0
230
1
50
360
0
POINT
5
76
100
AcDbEntity
8
1
62
256
6
ByLayer
370
18
48
1
60
1
100
AcDbPoint
10
-48
20
-8
30
0
39
0
210
0
220
0
230
1
50
360
0
POINT
5
77
100
AcDbEntity
8
1
62
256
6
ByLayer
370
18
48
1
60
1
100
AcDbPoint
10
16.55
20
7.275
30
0
39
0
210
0
220
0
230
1
50
360
0
POINT
5
78
100
AcDbEntity
8
1
62
256
6
ByLayer
370
18
48
1
60
1
100
AcDbPoint
10
82.8303
20
-7.275
30
0
39
0
210
0
220
0
230
1
50
360
0
POINT
5
79
100
AcDbEntity
8
1
62
256
6
ByLayer
370
18
48
1
60
1
100
AcDbPoint
10
-48
20
-8
30
0
39
0
210
0
220
0
230
1
50
360
0
POINT
5
7A
100
AcDbEntity
8
1
62
256
6
ByLayer
370
18
48
1
60
1
100
AcDbPoint
10
82.8303
20
-7.275
30
0
39
0
210
0
220
0
230
1
50
360
0
SPLINE
5
B4
100
AcDbEntity
8
SK1
62
256
6
ByLayer
370
18
48
1
60
0
100
AcDbSpline
70
4
71
3
72
8
73
4
40
0
40
0
40
0
40
0
40
1
40
1
40
1
40
1
41
1
10
-48
20
-4.97174586622694
30
0
41
1
10
-47.5014499941838
20
-5.36713188851357
30
0
41
1
10
-47.001123566494
20
-5.76121328704636
30
0
41
1
10
-46.5
20
-6.15466295972908
30
0
0
SPLINE
5
B5
100
AcDbEntity
8
SK1
62
256
6
ByLayer
370
18
48
1
60
0
100
AcDbSpline
70
4
71
3
72
12
73
8
40
0
40
0
40
0
40
0
40
0.499999999999999
40
0.499999999999999
40
0.75
40
0.75
40
1
40
1
40
1
40
1
41
1
10
-46.5
20
-6.15466295972908
30
0
41
1
10
-46.4766765617276
20
-6.17297500842858
30
0
41
1
10
-46.4539377815664
20
-6.18693886866393
30
0
41
1
10
-46.4257150407642
20
-6.19705671808924
30
0
41
1
10
-46.4170867124434
20
-6.19862861281291
30
0
41
1
10
-46.404231047165
20
-6.19582908868557
30
0
41
1
10
-46.4
20
-6.19123311861921
30
0
41
1
10
-46.4
20
-6.18283619306149
30
0
0
SPLINE
5
B6
100
AcDbEntity
8
SK1
62
256
6
ByLayer
370
18
48
1
60
0
100
AcDbSpline
70
4
71
3
72
12
73
8
40
0
40
0
40
0
40
0
40
0.25
40
0.25
40
0.5
40
0.5
40
1
40
1
40
1
40
1
41
1
10
-46.4
20
-4.72284893461423
30
0
41
1
10
-46.4
20
-4.71026677451877
30
0
41
1
10
-46.4041640203491
20
-4.6952187748968
30
0
41
1
10
-46.4170552197607
20
-4.6654250434066
30
0
41
1
10
-46.4255471163326
20
-4.65089784845287
30
0
41
1
10
-46.4540060778302
20
-4.60984844962337
30
0
41
1
10
-46.4766801706343
20
-4.58602950272422
30
0
41
1
10
-46.5
20
-4.56772028750379
30
0
0
SPLINE
5
B7
100
AcDbEntity
8
SK1
62
256
6
ByLayer
370
18
48
1
60
0
100
AcDbSpline
70
4
71
3
72
8
73
4
40
0
40
0
40
0
40
0
40
1
40
1
40
1
40
1
41
1
10
-46.5
20
-4.56772028750379
30
0
41
1
10
-47.00113226362
20
-4.17426378640272
30
0
41
1
10
-47.5014453476527
20
-3.78019290132167
30
0
41
1
10
-48
20
-3.38480319400165
30
0
0
SPLINE
5
B8
100
AcDbEntity
8
1
62
256
6
ByLayer
370
18
48
1
60
0
100
AcDbSpline
70
4
71
3
72
16
73
12
40
0
40
0
40
0
40
0
40
0.249999999999999
40
0.249999999999999
40
0.499999999999998
40
0.499999999999998
40
0.624999999999998
40
0.624999999999998
40
0.749999999999998
40
0.749999999999998
40
1
40
1
40
1
40
1
41
1
10
3.99999974665633
20
-4.01786520332925
30
0
41
1
10
3.99999974665636
20
-3.97961504614551
30
0
41
1
10
4.00385416631934
20
-3.94232204823442
30
0
41
1
10
4.02376764722331
20
-3.8708535814813
30
0
41
1
10
4.0402400363989
20
-3.83682736713752
30
0
41
1
10
4.07807670905214
20
-3.8021051639148
30
0
41
1
10
4.09281078113901
20
-3.79353375882641
30
0
41
1
10
4.12452021578889
20
-3.78441581378547
30
0
41
1
10
4.14137387679367
20
-3.78384538798767
30
0
41
1
10
4.19145132809746
20
-3.79198491795623
30
0
41
1
10
4.22256752989145
20
-3.80920581107003
30
0
41
1
10
4.25110183769931
20
-3.83112044692055
30
0
0
SPLINE
5
B9
100
AcDbEntity
8
1
62
256
6
ByLayer
370
18
48
1
60
0
100
AcDbSpline
70
4
71
3
72
8
73
4
40
0
40
0
40
0
40
0
40
1
40
1
40
1
40
1
41
1
10
84.9173496968207
20
-1.62847281285053
30
0
41
1
10
84.950612783803
20
-1.12985916638445
30
0
41
1
10
84.9745479584151
20
-0.631719357086041
30
0
41
1
10
84.9891402794988
20
-0.1340541439329
30
0
0
SPLINE
5
BA
100
AcDbEntity
8
1
62
256
6
ByLayer
370
18
48
1
60
0
100
AcDbSpline
70
4
71
3
72
8
73
4
40
0
40
0
40
0
40
0
40
1
40
1
40
1
40
1
41
1
10
82.5473271030728
20
-6.99845238821018
30
0
41
1
10
82.5115488941749
20
-7.08753445243397
30
0
41
1
10
82.4756938323926
20
-7.17647122350425
30
0
41
1
10
82.4397676214527
20
-7.26526536439982
30
0
0
SPLINE
5
BB
100
AcDbEntity
8
1
62
256
6
ByLayer
370
18
48
1
60
0
100
AcDbSpline
70
4
71
3
72
12
73
8
40
0
40
0
40
0
40
0
40
0.250000000000011
40
0.250000000000011
40
0.500000000000023
40
0.500000000000023
40
1
40
1
40
1
40
1
41
1
10
4.13440869602499
20
5.59318757725032
30
0
41
1
10
4.11408833067506
20
5.59988629584905
30
0
41
1
10
4.09566503373344
20
5.60815089660159
30
0
41
1
10
4.06251231953098
20
5.6276660959378
30
0
41
1
10
4.04801771100236
20
5.63886523475423
30
0
41
1
10
4.01282669609404
20
5.6749835897661
30
0
41
1
10
3.99999974665636
20
5.70291878246093
30
0
41
1
10
3.99999974665636
20
5.73083513510127
30
0
0
SPLINE
5
BC
100
AcDbEntity
8
1
62
256
6
ByLayer
370
18
48
1
60
0
100
AcDbSpline
70
4
71
3
72
8
73
4
40
0
40
0
40
0
40
0
40
1
40
1
40
1
40
1
41
1
10
84.999969933385
20
0.0481953129290673
30
0
41
1
10
85.0000100240799
20
0.0160636011302131
30
0
41
1
10
85.0000100203291
20
-0.0160666073485629
30
0
41
1
10
84.999969933385
20
-0.0481953129291242
30
0
0
SPLINE
5
BD
100
AcDbEntity
8
1
62
256
6
ByLayer
370
18
48
1
60
0
100
AcDbSpline
70
4
71
3
72
28
73
24
40
0
40
0
40
0
40
0
40
0.0625000000000002
40
0.0625000000000002
40
0.125
40
0.125
40
0.1875
40
0.1875
40
0.250000000000001
40
0.250000000000001
40
0.375000000000001
40
0.375000000000001
40
0.500000000000001
40
0.500000000000001
40
0.625000000000002
40
0.625000000000002
40
0.750000000000002
40
0.750000000000002
40
0.812500000000002
40
0.812500000000002
40
0.875000000000002
40
0.875000000000002
40
1
40
1
40
1
40
1
41
1
10
4.25110183762001
20
-3.83112044686035
30
0
41
1
10
4.47779118507586
20
-4.00522014938787
30
0
41
1
10
4.71214471012945
20
-4.16470367090497
30
0
41
1
10
5.19129517050141
20
-4.4626576773033
30
0
41
1
10
5.43615037751627
20
-4.60103113631271
30
0
41
1
10
5.9337040104146
20
-4.86116306607593
30
0
41
1
10
6.18642083187223
20
-4.98288790263649
30
0
41
1
10
6.69805177290965
20
-5.21250709711592
30
0
41
1
10
6.95691729322874
20
-5.32033273262564
30
0
41
1
10
7.73434117190189
20
-5.62305241205826
30
0
41
1
10
8.25615827964464
20
-5.79825661742507
30
0
41
1
10
9.30436437542303
20
-6.10907146186437
30
0
41
1
10
9.8309238345451
20
-6.24210691588331
30
0
41
1
10
10.8887965302019
20
-6.46899737844473
30
0
41
1
10
11.4200610935341
20
-6.56377943224734
30
0
41
1
10
12.4889927486561
20
-6.71372258148526
30
0
41
1
10
13.0266198498288
20
-6.76980131102022
30
0
41
1
10
13.8396946984079
20
-6.82783038784552
30
0
41
1
10
14.1121235985319
20
-6.84260729540148
30
0
41
1
10
14.6581426813414
20
-6.86294983388015
30
0
41
1
10
14.9316840156789
20
-6.86859892615277
30
0
41
1
10
15.7546603751467
20
-6.87352071260509
30
0
41
1
10
16.3064378874565
20
-6.86081286011398
30
0
41
1
10
16.8632519478063
20
-6.83343069391472
30
0
0
SPLINE
5
BE
100
AcDbEntity
8
1
62
256
6
ByLayer
370
18
48
1
60
0
100
AcDbSpline
70
4
71
3
72
8
73
4
40
0
40
0
40
0
40
0
40
1
40
1
40
1
40
1
41
1
10
84.9173496968207
20
1.62847281285048
30
0
41
1
10
84.9506170879848
20
1.1297946467036
30
0
41
1
10
84.9745498471531
20
0.631654942440832
30
0
41
1
10
84.9891402794988
20
0.134054143933014
30
0
0
SPLINE
5
BF
100
AcDbEntity
8
1
62
256
6
ByLayer
370
18
48
1
60
0
100
AcDbSpline
70
4
71
3
72
8
73
4
40
0
40
0
40
0
40
0
40
1
40
1
40
1
40
1
41
1
10
82.8281433823623
20
-3.8045949079042
30
0
41
1
10
82.5364518199599
20
-4.35482916535454
30
0
41
1
10
82.2510535437882
20
-4.91078025176591
30
0
41
1
10
81.972008814413
20
-5.47250290791018
30
0
0
SPLINE
5
C0
100
AcDbEntity
8
1
62
256
6
ByLayer
370
18
48
1
60
0
100
AcDbSpline
70
4
71
3
72
16
73
12
40
0
40
0
40
0
40
0
40
0.48467299570023
40
0.48467299570023
40
0.730887393803441
40
0.730887393803441
40
0.853994592855046
40
0.853994592855046
40
0.977101791906651
40
0.977101791906651
40
1
40
1
40
1
40
1
41
1
10
38.4829087059025
20
-6.88325594277504
30
0
41
1
10
36.8777454510318
20
-6.88680170509556
30
0
41
1
10
35.2820555192021
20
-6.75166003326507
30
0
41
1
10
32.8619946728874
20
-6.3485403882176
30
0
41
1
10
32.044340911505
20
-6.17876510418327
30
0
41
1
10
30.8106000036181
20
-5.87490214053622
30
0
41
1
10
30.3991544513042
20
-5.76568485467652
30
0
41
1
10
29.579577608864
20
-5.53333927240351
30
0
41
1
10
29.1708281948568
20
-5.4100257789153
30
0
41
1
10
28.686816603316
20
-5.25594674862191
30
0
41
1
10
28.6109323271788
20
-5.23155239436147
30
0
41
1
10
28.535069924454
20
-5.20693126586278
30
0
0
SPLINE
5
C1
100
AcDbEntity
8
1
62
256
6
ByLayer
370
13
48
1
60
0
100
AcDbSpline
70
4
71
3
72
18
73
14
40
0
40
0
40
0
40
0
40
0.290634642363424
40
0.290634642363424
40
0.443038842117218
40
0.443038842117218
40
0.519240941994116
40
0.519240941994116
40
0.595443041871013
40
0.595443041871013
40
0.900251441378602
40
0.900251441378602
40
1
40
1
40
1
40
1
41
1
10
28.535069924203
20
-5.20693126578135
30
0
41
1
10
26.9795019767066
20
-4.70207198174981
30
0
41
1
10
25.4331309262838
20
-4.10186317985298
30
0
41
1
10
23.0637942373156
20
-3.08330145677905
30
0
41
1
10
22.2466340847058
20
-2.7141733490821
30
0
41
1
10
21.0138791817911
20
-2.13890230297443
30
0
41
1
10
20.6017570687105
20
-1.94357960384676
30
0
41
1
10
19.7815224924461
20
-1.55018888387053
30
0
41
1
10
19.3725379632316
20
-1.35171975502683
30
0
41
1
10
17.3315266434955
20
-0.35415483899817
30
0
41
1
10
15.7115126444779
20
0.461179235957815
30
0
41
1
10
13.5524092117695
20
1.51274436747102
30
0
41
1
10
13.0193334643305
20
1.7695522203536
30
0
41
1
10
12.4848463677564
20
2.02247611538829
30
0
0
SPLINE
5
C2
100
AcDbEntity
8
1
62
256
6
ByLayer
370
18
48
1
60
0
100
AcDbSpline
70
4
71
3
72
46
73
42
40
0
40
0
40
0
40
0
40
0.124999999999993
40
0.124999999999993
40
0.187499999999989
40
0.187499999999989
40
0.249999999999985
40
0.249999999999985
40
0.312499999999982
40
0.312499999999982
40
0.343749999999983
40
0.343749999999983
40
0.374999999999985
40
0.374999999999985
40
0.406249999999987
40
0.406249999999987
40
0.437499999999989
40
0.437499999999989
40
0.45312499999999
40
0.45312499999999
40
0.468749999999991
40
0.468749999999991
40
0.484374999999992
40
0.484374999999992
40
0.499999999999993
40
0.499999999999993
40
0.531249999999995
40
0.531249999999995
40
0.562499999999997
40
0.562499999999997
40
0.625000000000001
40
0.625000000000001
40
0.687500000000005
40
0.687500000000005
40
0.750000000000009
40
0.750000000000009
40
0.875000000000009
40
0.875000000000009
40
0.937500000000004
40
0.937500000000004
40
1
40
1
40
1
40
1
41
1
10
82.8281433823622
20
-3.80459490790423
30
0
41
1
10
82.5664392364536
20
-3.73315472825092
30
0
41
1
10
82.305635989659
20
-3.63800543944768
30
0
41
1
10
81.9158136856496
20
-3.45889628617235
30
0
41
1
10
81.7869490189636
20
-3.39335121525642
30
0
41
1
10
81.5331406950172
20
-3.24994349269952
30
0
41
1
10
81.4079590058169
20
-3.17203359686317
30
0
41
1
10
81.1619879697365
20
-3.000388284661
30
0
41
1
10
81.0410580553408
20
-2.90662189354859
30
0
41
1
10
80.8684902393657
20
-2.75135647379895
30
0
41
1
10
80.8123226178569
20
-2.6970506222558
30
0
41
1
10
80.7037318446151
20
-2.58139008029997
30
0
41
1
10
80.6519372934638
20
-2.52076410064035
30
0
41
1
10
80.5559756194612
20
-2.3914555861129
30
0
41
1
10
80.5112227889234
20
-2.32197864502234
30
0
41
1
10
80.4385677411442
20
-2.1746936867149
30
0
41
1
10
80.4101593773047
20
-2.09559736006708
30
0
41
1
10
80.3945201761428
20
-1.9759144421858
30
0
41
1
10
80.3940045843999
20
-1.93639735306269
30
0
41
1
10
80.4036094379422
20
-1.86144104791219
30
0
41
1
10
80.4138015508559
20
-1.82602324571366
30
0
41
1
10
80.4427672749523
20
-1.76274913997969
30
0
41
1
10
80.461702297931
20
-1.734372371256
30
0
41
1
10
80.5044389053378
20
-1.68530651662974
30
0
41
1
10
80.5286164947327
20
-1.66401191055522
30
0
41
1
10
80.6061145302797
20
-1.60846616266659
30
0
41
1
10
80.6629757367073
20
-1.58283522047128
30
0
41
1
10
80.7823721660279
20
-1.5440219784025
30
0
41
1
10
80.844565705791
20
-1.53130094748681
30
0
41
1
10
81.0321311877103
20
-1.50642753478149
30
0
41
1
10
81.1603406678672
20
-1.5067340457511
30
0
41
1
10
81.4202464875873
20
-1.52594847888068
30
0
41
1
10
81.5519880725931
20
-1.54537549835751
30
0
41
1
10
81.8133668140815
20
-1.59716456437644
30
0
41
1
10
81.9437430686394
20
-1.62967390418433
30
0
41
1
10
82.3341174471004
20
-1.74313885898326
30
0
41
1
10
82.593383134827
20
-1.83956772003592
30
0
41
1
10
82.9808935334318
20
-2.01353632887293
30
0
41
1
10
83.1092043430911
20
-2.07628057372835
30
0
41
1
10
83.3631326341592
20
-2.21204632172717
30
0
41
1
10
83.4888760111838
20
-2.2850717250704
30
0
41
1
10
83.613034760207
20
-2.36477242838544
30
0
0
SPLINE
5
C3
100
AcDbEntity
8
1
62
256
6
ByLayer
370
18
48
1
60
0
100
AcDbSpline
70
4
71
3
72
8
73
4
40
0
40
0
40
0
40
0
40
1
40
1
40
1
40
1
41
1
10
82.4397676214527
20
7.26526536439982
30
0
41
1
10
82.2030296047755
20
7.27147129392978
30
0
41
1
10
81.9661827413933
20
7.2744775313509
30
0
41
1
10
81.7293145733544
20
7.27429906962385
30
0
0
SPLINE
5
C4
100
AcDbEntity
8
1
62
256
6
ByLayer
370
18
48
1
60
0
100
AcDbSpline
70
4
71
3
72
50
73
46
40
0
40
0
40
0
40
0
40
0.0114190523287883
40
0.0114190523287883
40
0.043308760318183
40
0.043308760318183
40
0.107088176296972
40
0.107088176296972
40
0.138977884286367
40
0.138977884286367
40
0.170867592275761
40
0.170867592275761
40
0.234647008254549
40
0.234647008254549
40
0.266536716243943
40
0.266536716243943
40
0.298426424233337
40
0.298426424233337
40
0.362205840212123
40
0.362205840212123
40
0.394095548201517
40
0.394095548201517
40
0.42598525619091
40
0.42598525619091
40
0.489764672169696
40
0.489764672169696
40
0.521654380159089
40
0.521654380159089
40
0.553544088148483
40
0.553544088148483
40
0.61732350412727
40
0.61732350412727
40
0.649213212116664
40
0.649213212116664
40
0.681102920106058
40
0.681102920106058
40
0.744882336084846
40
0.744882336084846
40
0.77677204407424
40
0.77677204407424
40
0.808661752063634
40
0.808661752063634
40
0.872441168042423
40
0.872441168042423
40
1
40
1
40
1
40
1
41
1
10
42.4916470890561
20
-6.90205375953275
30
0
41
1
10
42.3453143930013
20
-6.92538302194467
30
0
41
1
10
42.1989398753076
20
-6.94756533479921
30
0
41
1
10
41.6437169527086
20
-7.02727925833543
30
0
41
1
10
41.235533451876
20
-7.07679069904776
30
0
41
1
10
40.0118332376816
20
-7.19747944322182
30
0
41
1
10
39.1971955933876
20
-7.24081697350778
30
0
41
1
10
37.9729241906127
20
-7.24929973116244
30
0
41
1
10
37.5641462826098
20
-7.2426969562519
30
0
41
1
10
36.746469705151
20
-7.21060112978998
30
0
41
1
10
36.3382704412807
20
-7.18514702274544
30
0
41
1
10
35.114481648129
20
-7.08101447386505
30
0
41
1
10
34.2997896275393
20
-6.9745288663479
30
0
41
1
10
33.0753599046196
20
-6.76111818390169
30
0
41
1
10
32.6664737253168
20
-6.68097939230501
30
0
41
1
10
31.8487828540482
20
-6.50346132235345
30
0
41
1
10
31.4405758300601
20
-6.40622643233795
30
0
41
1
10
30.2167228286254
20
-6.09026728838441
30
0
41
1
10
29.4019554083888
20
-5.84717446532468
30
0
41
1
10
28.1773101973376
20
-5.43840288429078
30
0
41
1
10
27.768345225614
20
-5.29463536242034
30
0
41
1
10
26.9506604684566
20
-4.993687762581
30
0
41
1
10
26.5424321530273
20
-4.8367355512423
30
0
41
1
10
25.3184434755017
20
-4.34820354021804
30
0
41
1
10
24.5036373789609
20
-3.99855394235348
30
0
41
1
10
23.2788398058548
20
-3.44495673202195
30
0
41
1
10
22.8697882538232
20
-3.25534835389354
30
0
41
1
10
22.0520920143527
20
-2.86823734742649
30
0
41
1
10
21.6438573580215
20
-2.67097340331594
30
0
41
1
10
20.4198588572954
20
-2.07014414235462
30
0
41
1
10
19.6049089200654
20
-1.65734358745667
30
0
41
1
10
18.3799695789028
20
-1.02735612688329
30
0
41
1
10
17.9708283938851
20
-0.815365098673084
30
0
41
1
10
17.1530856800212
20
-0.390038299580539
30
0
41
1
10
16.7448200389828
20
-0.176901390585641
30
0
41
1
10
15.5207336326181
20
0.461800011218003
30
0
41
1
10
14.7057099919774
20
0.886821790688913
30
0
41
1
10
13.4806047846941
20
1.51527262767803
30
0
41
1
10
13.0712120585164
20
1.72352976413134
30
0
41
1
10
12.2539754309771
20
2.13423602345989
30
0
41
1
10
11.8465001891953
20
2.33649054473375
30
0
41
1
10
10.6264380974375
20
2.93214345609135
30
0
41
1
10
9.81630395304816
20
3.31458604102383
30
0
41
1
10
7.38729155446256
20
4.40404356178277
30
0
41
1
10
5.77027387917488
20
5.05391575124486
30
0
41
1
10
4.13440869602499
20
5.59318757725032
30
0
0
SPLINE
5
C5
100
AcDbEntity
8
1
62
256
6
ByLayer
370
18
48
1
60
0
100
AcDbSpline
70
4
71
3
72
42
73
38
40
0
40
0
40
0
40
0
40
0.0656739815107733
40
0.0656739815107733
40
0.129049862521245
40
0.129049862521245
40
0.192425743531717
40
0.192425743531717
40
0.319177505552661
40
0.319177505552661
40
0.445929267573604
40
0.445929267573604
40
0.509305148584076
40
0.509305148584076
40
0.572681029594547
40
0.572681029594547
40
0.576642022157702
40
0.576642022157702
40
0.580603014720857
40
0.580603014720857
40
0.584564007284011
40
0.584564007284011
40
0.588524999847166
40
0.588524999847166
40
0.604368970099783
40
0.604368970099783
40
0.636056910605019
40
0.636056910605019
40
0.699432791615491
40
0.699432791615491
40
0.826184553636433
40
0.826184553636433
40
0.889560434646904
40
0.889560434646904
40
0.952936315657375
40
0.952936315657375
40
1
40
1
40
1
40
1
41
1
10
16.8632519478063
20
-1.34262630979177
30
0
41
1
10
16.8632519478063
20
-1.28125884822649
30
0
41
1
10
16.8632519478063
20
-1.23013793387673
30
0
41
1
10
16.8632519478063
20
-1.1492231079593
30
0
41
1
10
16.8632519478063
20
-1.11879425312688
30
0
41
1
10
16.8632519478063
20
-1.07654997267409
30
0
41
1
10
16.8632519478063
20
-1.06478558002627
30
0
41
1
10
16.8632519478063
20
-1.05768796928413
30
0
41
1
10
16.8632519478063
20
-1.08981992433223
30
0
41
1
10
16.8632519478063
20
-1.22259885994049
30
0
41
1
10
16.8632519478063
20
-1.32328021686146
30
0
41
1
10
16.8632519478063
20
-1.52550006710183
30
0
41
1
10
16.8632519478063
20
-1.60157885522543
30
0
41
1
10
16.8632519478063
20
-1.76940446622174
30
0
41
1
10
16.8632519478063
20
-1.86137863468349
30
0
41
1
10
16.8632519478063
20
-1.96730071435434
30
0
41
1
10
16.8632519478063
20
-1.9736986321266
30
0
41
1
10
16.8632519478063
20
-1.99125138207498
30
0
41
1
10
16.8632519478063
20
-2.00161974908178
30
0
41
1
10
16.8632519478063
20
-2.02494175877044
30
0
41
1
10
16.8632519478067
20
-2.0381323102325
30
0
41
1
10
16.8632519478067
20
-2.06617800225325
30
0
41
1
10
16.8632519478063
20
-2.08032303795812
30
0
41
1
10
16.8632519478063
20
-2.15087725446051
30
0
41
1
10
16.8632519478063
20
-2.20760918501122
30
0
41
1
10
16.8632519478063
20
-2.3785259316852
30
0
41
1
10
16.8632519478063
20
-2.49340567073125
30
0
41
1
10
16.8632519478063
20
-2.84087142445046
30
0
41
1
10
16.8632519478063
20
-3.07652111562496
30
0
41
1
10
16.8632519478063
20
-3.79357033543047
30
0
41
1
10
16.8632519478063
20
-4.27913163273033
30
0
41
1
10
16.8632519478063
20
-5.01904452510604
30
0
41
1
10
16.8632519478063
20
-5.26762034066405
30
0
41
1
10
16.8632519478063
20
-5.76882757533681
30
0
41
1
10
16.8632519478063
20
-6.02254836558944
30
0
41
1
10
16.8632519478063
20
-6.46150762554481
30
0
41
1
10
16.8632519478063
20
-6.64784028503382
30
0
41
1
10
16.8632519478063
20
-6.83343069391165
30
0
0
SPLINE
5
C6
100
AcDbEntity
8
1
62
256
6
ByLayer
370
18
48
1
60
0
100
AcDbSpline
70
4
71
3
72
104
73
100
40
0
40
0
40
0
40
0
40
0.0111597584529329
40
0.0111597584529329
40
0.0288176199091301
40
0.0288176199091301
40
0.0464754813653273
40
0.0464754813653273
40
0.0641333428215245
40
0.0641333428215245
40
0.0817912042777216
40
0.0817912042777216
40
0.117106927190116
40
0.117106927190116
40
0.134764788646313
40
0.134764788646313
40
0.152422650102511
40
0.152422650102511
40
0.170080511558709
40
0.170080511558709
40
0.187738373014906
40
0.187738373014906
40
0.223054095927301
40
0.223054095927301
40
0.240711957383499
40
0.240711957383499
40
0.258369818839696
40
0.258369818839696
40
0.276027680295894
40
0.276027680295894
40
0.293685541752091
40
0.293685541752091
40
0.329001264664486
40
0.329001264664486
40
0.364316987576881
40
0.364316987576881
40
0.381974849033079
40
0.381974849033079
40
0.399632710489276
40
0.399632710489276
40
0.417290571945474
40
0.417290571945474
40
0.434948433401671
40
0.434948433401671
40
0.452606294857869
40
0.452606294857869
40
0.470264156314066
40
0.470264156314066
40
0.505579879226462
40
0.505579879226462
40
0.52323774068266
40
0.52323774068266
40
0.540895602138858
40
0.540895602138858
40
0.558553463595055
40
0.558553463595055
40
0.576211325051253
40
0.576211325051253
40
0.593869186507451
40
0.593869186507451
40
0.611527047963649
40
0.611527047963649
40
0.629184909419846
40
0.629184909419846
40
0.646842770876044
40
0.646842770876044
40
0.664500632332242
40
0.664500632332242
40
0.68215849378844
40
0.68215849378844
40
0.699816355244638
40
0.699816355244638
40
0.717474216700835
40
0.717474216700835
40
0.735132078157033
40
0.735132078157033
40
0.752789939613231
40
0.752789939613231
40
0.770447801069429
40
0.770447801069429
40
0.788105662525626
40
0.788105662525626
40
0.805763523981824
40
0.805763523981824
40
0.823421385438022
40
0.823421385438022
40
0.84107924689422
40
0.84107924689422
40
0.858737108350418
40
0.858737108350418
40
0.876394969806615
40
0.876394969806615
40
0.894052831262813
40
0.894052831262813
40
0.929368554175209
40
0.929368554175209
40
0.964684277087604
40
0.964684277087604
40
1
40
1
40
1
40
1
41
1
10
68.8409910599999
20
-5.2182556351446
30
0
41
1
10
68.6478862589788
20
-5.28126307424935
30
0
41
1
10
68.4547781712375
20
-5.34287444349502
30
0
41
1
10
67.9561185070758
20
-5.498254658592
30
0
41
1
10
67.6504570344925
20
-5.58974027396903
30
0
41
1
10
67.0379808523718
20
-5.76352596389879
30
0
41
1
10
66.7313966873107
20
-5.84582634157678
30
0
41
1
10
66.1192436701024
20
-6.00034014529174
30
0
41
1
10
65.813422958281
20
-6.07285526939287
30
0
41
1
10
65.2024395795985
20
-6.21066626128163
30
0
41
1
10
64.8972630751362
20
-6.27570091664722
30
0
41
1
10
63.9811079064878
20
-6.45616303958536
30
0
41
1
10
63.3697726527593
20
-6.55677893763794
30
0
41
1
10
62.4523171284879
20
-6.68102779068136
30
0
41
1
10
62.1463107111617
20
-6.71776708837339
30
0
41
1
10
61.5336153387429
20
-6.78001220747629
30
0
41
1
10
61.22748041666
20
-6.80548778196612
30
0
41
1
10
60.6156214353385
20
-6.84798805715221
30
0
41
1
10
60.3099104466994
20
-6.86469262243588
30
0
41
1
10
59.6989610866966
20
-6.88784839920581
30
0
41
1
10
59.3938119054422
20
-6.894186877621
30
0
41
1
10
58.4775448873605
20
-6.89680043584585
30
0
41
1
10
57.8661006605302
20
-6.88047496938876
30
0
41
1
10
56.9476627772767
20
-6.82436887911453
30
0
41
1
10
56.6411819640037
20
-6.79988908225295
30
0
41
1
10
56.028914036212
20
-6.74166913208063
30
0
41
1
10
55.72295063152
20
-6.70832420961244
30
0
41
1
10
55.1112910258048
20
-6.63182955956248
30
0
41
1
10
54.8055915152425
20
-6.58873107437603
30
0
41
1
10
54.1944322693791
20
-6.49215191059045
30
0
41
1
10
53.8890705397986
20
-6.43857605117532
30
0
41
1
10
52.9727148592905
20
-6.26595684039077
30
0
41
1
10
52.3609260194065
20
-6.1333396571265
30
0
41
1
10
51.1345729657585
20
-5.82902587230836
30
0
41
1
10
50.5228564820335
20
-5.66030579571404
30
0
41
1
10
49.6055198325545
20
-5.38344683154784
30
0
41
1
10
49.2997557554634
20
-5.28695288184505
30
0
41
1
10
48.6883731904061
20
-5.08676124718653
30
0
41
1
10
48.3828352787523
20
-4.98315950889133
30
0
41
1
10
47.7717354292297
20
-4.76802660986036
30
0
41
1
10
47.465908804493
20
-4.65695439669219
30
0
41
1
10
46.8534312620683
20
-4.42791919319836
30
0
41
1
10
46.5465800176056
20
-4.30990683849151
30
0
41
1
10
45.9334299400644
20
-4.06849408180173
30
0
41
1
10
45.6272749417349
20
-3.94487217818093
30
0
41
1
10
45.0157474617844
20
-3.69120029085627
30
0
41
1
10
44.7101060570504
20
-3.56154580022476
30
0
41
1
10
43.7929465745838
20
-3.16602914107855
30
0
41
1
10
43.1815823802719
20
-2.89419717122362
30
0
41
1
10
42.2642666713336
20
-2.4713786090532
30
0
41
1
10
41.9582442639172
20
-2.32820656508392
30
0
41
1
10
41.3453910078635
20
-2.03953385530445
30
0
41
1
10
41.0385074741134
20
-1.89369005674664
30
0
41
1
10
40.4258171259331
20
-1.5998391634609
30
0
41
1
10
40.1197812403975
20
-1.45168623161501
30
0
41
1
10
39.5083423997499
20
-1.15299424377258
30
0
41
1
10
39.2029032268117
20
-1.00255657161776
30
0
41
1
10
38.5917017667792
20
-0.701317876108845
30
0
41
1
10
38.2860472785134
20
-0.550292616722857
30
0
41
1
10
37.6744264071691
20
-0.247645647385724
30
0
41
1
10
37.3684422661468
20
-0.0960517029367338
30
0
41
1
10
36.7564184089505
20
0.208011604519129
30
0
41
1
10
36.4504009398625
20
0.360548234800348
30
0
41
1
10
35.8372306780219
20
0.664395388558148
30
0
41
1
10
35.5308663953898
20
0.815531021498174
30
0
41
1
10
34.9185731075372
20
1.11552157141918
30
0
41
1
10
34.6126386574255
20
1.26468048612804
30
0
41
1
10
34.00133819376
20
1.56182167915165
30
0
41
1
10
33.6960526933759
20
1.70988954687226
30
0
41
1
10
33.0850062639644
20
2.00232652357332
30
0
41
1
10
32.779266925042
20
2.14661599026607
30
0
41
1
10
32.1674084368566
20
2.43194147839281
30
0
41
1
10
31.8613476348531
20
2.57320252007071
30
0
41
1
10
31.2489642573182
20
2.85265245209996
30
0
41
1
10
30.942490277894
20
2.99119721178127
30
0
41
1
10
30.3299186090308
20
3.26207252836446
30
0
41
1
10
30.0237996648511
20
3.39436504977692
30
0
41
1
10
29.4118674423223
20
3.65436432993647
30
0
41
1
10
29.1060593467514
20
3.78189866559478
30
0
41
1
10
28.4948214442313
20
4.0317341890958
30
0
41
1
10
28.1895090353439
20
4.15416760212852
30
0
41
1
10
27.5783918524442
20
4.39122688566542
30
0
41
1
10
27.2726041679647
20
4.50645224227736
30
0
41
1
10
26.6606388350925
20
4.73106657492815
30
0
41
1
10
26.3544390723648
20
4.84025947001052
30
0
41
1
10
25.7415095013213
20
5.05152768191289
30
0
41
1
10
25.4349378142227
20
5.15321689204626
30
0
41
1
10
24.8226783942484
20
5.34871710259534
30
0
41
1
10
24.5166334603969
20
5.44291005150907
30
0
41
1
10
23.9046197431442
20
5.62322768110303
30
0
41
1
10
23.5986518773282
20
5.70937034050976
30
0
41
1
10
22.9867061270909
20
5.87241201657992
30
0
41
1
10
22.6807674484954
20
5.94928435978849
30
0
41
1
10
21.7628624130904
20
6.16866037390415
30
0
41
1
10
21.1488745779746
20
6.29724405871517
30
0
41
1
10
19.9237457187274
20
6.51590218908729
30
0
41
1
10
19.3127027233303
20
6.60775670187306
30
0
41
1
10
18.0890714643322
20
6.74979975941147
30
0
41
1
10
17.476502278273
20
6.80137022857539
30
0
41
1
10
16.8632519478063
20
6.83343069391452
30
0
0
SPLINE
5
C7
100
AcDbEntity
8
1
62
256
6
ByLayer
370
18
48
1
60
0
100
AcDbSpline
70
4
71
3
72
8
73
4
40
0
40
0
40
0
40
0
40
1
40
1
40
1
40
1
41
1
10
84.9891402794988
20
0.134054143933014
30
0
41
1
10
84.9898683315418
20
0.109224223243643
30
0
41
1
10
84.9939203248487
20
0.0796230038547492
30
0
41
1
10
84.999969933385
20
0.0481953129290673
30
0
0
SPLINE
5
C8
100
AcDbEntity
8
1
62
256
6
ByLayer
370
18
48
1
60
0
100
AcDbSpline
70
4
71
3
72
14
73
10
40
0
40
0
40
0
40
0
40
0.25
40
0.25
40
0.5
40
0.5
40
0.75
40
0.75
40
1
40
1
40
1
40
1
41
1
10
82.8153251914931
20
-7.07234881010098
30
0
41
1
10
82.978808287048
20
-6.61202657544891
30
0
41
1
10
83.1455942859038
20
-6.15372937771494
30
0
41
1
10
83.4850425272862
20
-5.24051484252632
30
0
41
1
10
83.6577318340707
20
-4.78561420571938
30
0
41
1
10
84.0085735877578
20
-3.87878723333418
30
0
41
1
10
84.186768554022
20
-3.42688503059426
30
0
41
1
10
84.5482658891392
20
-2.52573264184673
30
0
41
1
10
84.731579796411
20
-2.07648941639678
30
0
41
1
10
84.9173496968206
20
-1.62847281285065
30
0
0
SPLINE
5
C9
100
AcDbEntity
8
1
62
256
6
ByLayer
370
18
48
1
60
0
100
AcDbSpline
70
4
71
3
72
65
73
61
40
0
40
0
40
0
40
0
40
0.0312499999999976
40
0.0312499999999976
40
0.0624999999999953
40
0.0624999999999953
40
0.0937499999999929
40
0.0937499999999929
40
0.109374999999992
40
0.109374999999992
40
0.124999999999991
40
0.124999999999991
40
0.14062499999999
40
0.14062499999999
40
0.156249999999989
40
0.156249999999989
40
0.171874999999988
40
0.171874999999988
40
0.187499999999987
40
0.187499999999987
40
0.218749999999985
40
0.218749999999985
40
0.234374999999984
40
0.234374999999984
40
0.249999999999983
40
0.249999999999983
40
0.265624999999982
40
0.265624999999982
40
0.281249999999981
40
0.281249999999981
40
0.312499999999979
40
0.312499999999979
40
0.328124999999978
40
0.328124999999978
40
0.335937499999976
40
0.335937499999976
40
0.343749999999975
40
0.343749999999975
40
0.347656249999975
40
0.347656249999975
40
0.351562499999974
40
0.351562499999974
40
0.355468749999974
40
0.355468749999974
40
0.359374999999973
40
0.374999999999974
40
0.374999999999974
40
0.437499999999976
40
0.437499999999976
40
0.499999999999979
40
0.499999999999979
40
0.624999999999984
40
0.624999999999984
40
0.74999999999999
40
0.74999999999999
40
0.812499999999993
40
0.812499999999993
40
0.874999999999995
40
0.874999999999995
40
1
40
1
40
1
40
1
41
1
10
3.99999974665494
20
-4.17856003796626
30
0
41
1
10
3.83607293674439
20
-4.06434926182186
30
0
41
1
10
3.67528865641435
20
-3.94452183271355
30
0
41
1
10
3.36201349501701
20
-3.6905116946655
30
0
41
1
10
3.21018612332915
20
-3.55683727961801
30
0
41
1
10
2.92164824325576
20
-3.2743528117222
30
0
41
1
10
2.78456866226068
20
-3.12534822311744
30
0
41
1
10
2.59406431597628
20
-2.88585080751366
30
0
41
1
10
2.53290076061458
20
-2.80301678906633
30
0
41
1
10
2.4179100246487
20
-2.63252817038236
30
0
41
1
10
2.36413544800675
20
-2.54502070859886
30
0
41
1
10
2.26532316022974
20
-2.36474079003128
30
0
41
1
10
2.2202973984763
20
-2.27196350998329
30
0
41
1
10
2.14069961599699
20
-2.08016094279532
30
0
41
1
10
2.10595217958249
20
-1.98040765050024
30
0
41
1
10
2.05048250870246
20
-1.77788885984322
30
0
41
1
10
2.02965502695963
20
-1.67508199333088
30
0
41
1
10
2.0032911410288
20
-1.46608646208224
30
0
41
1
10
1.99777537002697
20
-1.35931484905964
30
0
41
1
10
2.00692035307489
20
-1.0372241559638
30
0
41
1
10
2.046589075719
20
-0.827394731549248
30
0
41
1
10
2.15294265518187
20
-0.519658274313883
30
0
41
1
10
2.19586654358343
20
-0.41955943730008
30
0
41
1
10
2.29308464902866
20
-0.22726269947816
30
0
41
1
10
2.34759630868098
20
-0.13443558207598
30
0
41
1
10
2.46680950853394
20
0.0454796529989778
30
0
41
1
10
2.53183466031678
20
0.132943279635612
30
0
41
1
10
2.66928703413194
20
0.300942914080565
30
0
41
1
10
2.74137480111526
20
0.381160560220906
30
0
41
1
10
2.96600666267096
20
0.612419124143429
30
0
41
1
10
3.12681529664914
20
0.75418300869552
30
0
41
1
10
3.38028475914456
20
0.953134946844983
30
0
41
1
10
3.46684541766868
20
1.0171380836764
30
0
41
1
10
3.59943777981078
20
1.11007568295636
30
0
41
1
10
3.64401963455737
20
1.14048986097978
30
0
41
1
10
3.73386326931455
20
1.2002344464023
30
0
41
1
10
3.7789856528625
20
1.22993207771035
30
0
41
1
10
3.84757344475909
20
1.27263294922432
30
0
41
1
10
3.87221365811794
20
1.28254478109179
30
0
41
1
10
3.92366796704312
20
1.29709313878504
30
0
41
1
10
3.95059343067547
20
1.30176110991192
30
0
41
1
10
4.00400276773951
20
1.30626190606373
30
0
41
1
10
4.03077493827979
20
1.30664720618924
30
0
41
1
10
4.08429289947497
20
1.30814669119386
30
0
41
1
10
4.21809386031998
20
1.31168123052203
30
0
41
1
10
4.35194359828361
20
1.31414816890739
30
0
41
1
10
4.88739200725968
20
1.32062937358049
30
0
41
1
10
5.31546998252858
20
1.31498997604015
30
0
41
1
10
6.1710818034922
20
1.28270165660737
30
0
41
1
10
6.59909849707847
20
1.25600350124637
30
0
41
1
10
7.87542566478271
20
1.14564645549092
30
0
41
1
10
8.71782343967556
20
1.03160104949538
30
0
41
1
10
10.3870352509631
20
0.728450604901241
30
0
41
1
10
11.2137884963501
20
0.539049289570784
30
0
41
1
10
12.44350991197
20
0.203940426458786
30
0
41
1
10
12.8516921191571
20
0.0837812312251742
30
0
41
1
10
13.6649289808561
20
-0.172059547652964
30
0
41
1
10
14.0703728635554
20
-0.307906010582144
30
0
41
1
10
15.2796159907292
20
-0.734996070752487
30
0
41
1
10
16.0751524196523
20
-1.04533659456931
30
0
41
1
10
16.8632519478063
20
-1.37198872889076
30
0
0
SPLINE
5
CA
100
AcDbEntity
8
1
62
256
6
ByLayer
370
18
48
1
60
0
100
AcDbSpline
70
4
71
3
72
14
73
10
40
0
40
0
40
0
40
0
40
0.25
40
0.25
40
0.5
40
0.5
40
0.75
40
0.75
40
1
40
1
40
1
40
1
41
1
10
82.5561697425916
20
-6.90460354359732
30
0
41
1
10
82.5595970683323
20
-6.90400053282724
30
0
41
1
10
82.5623756145457
20
-6.90510823376439
30
0
41
1
10
82.5662287159124
20
-6.91180218118566
30
0
41
1
10
82.5672474486089
20
-6.91747585693776
30
0
41
1
10
82.5663585187197
20
-6.93439118437482
30
0
41
1
10
82.5643767597513
20
-6.94565382487298
30
0
41
1
10
82.557494782588
20
-6.97115038701963
30
0
41
1
10
82.5526647224226
20
-6.98516256280064
30
0
41
1
10
82.5473271031091
20
-6.99845238812009
30
0
0
SPLINE
5
CB
100
AcDbEntity
8
1
62
256
6
ByLayer
370
18
48
1
60
0
100
AcDbSpline
70
4
71
3
72
10
73
6
40
0
40
0
40
0
40
0
40
0.5
40
0.5
40
1
40
1
40
1
40
1
41
1
10
82.5004186203281
20
1.70947456634704
30
0
41
1
10
82.9032736125836
20
1.69562269220233
30
0
41
1
10
83.3061266017488
20
1.68179206486246
30
0
41
1
10
84.1118393482544
20
1.65405902006006
30
0
41
1
10
84.5146747321007
20
1.64041513256836
30
0
41
1
10
84.9173496968202
20
1.6284728128505
30
0
0
SPLINE
5
CC
100
AcDbEntity
8
1
62
256
6
ByLayer
370
18
48
1
60
0
100
AcDbSpline
70
4
71
3
72
10
73
6
40
0
40
0
40
0
40
0
40
0.5
40
0.5
40
1
40
1
40
1
40
1
41
1
10
84.999969933385
20
0.0481953129290673
30
0
41
1
10
84.9952284670164
20
0.026599652766663
30
0
41
1
10
84.9884110415682
20
0.0031316939860346
30
0
41
1
10
84.9713402720719
20
-0.0418610009220686
30
0
41
1
10
84.9609733805621
20
-0.0634822671582072
30
0
41
1
10
84.9504564943344
20
-0.0806852818552954
30
0
0
SPLINE
5
CD
100
AcDbEntity
8
1
62
256
6
ByLayer
370
18
48
1
60
0
100
AcDbSpline
70
4
71
3
72
40
73
36
40
0
40
0
40
0
40
0
40
0.107793512954696
40
0.107793512954696
40
0.161690269432043
40
0.161690269432043
40
0.215587025909391
40
0.215587025909391
40
0.269483782386739
40
0.269483782386739
40
0.323380538864087
40
0.323380538864087
40
0.431174051818784
40
0.431174051818784
40
0.485070808296134
40
0.485070808296134
40
0.538967564773483
40
0.538967564773483
40
0.592864321250833
40
0.592864321250833
40
0.646761077728182
40
0.646761077728182
40
0.700657834205532
40
0.700657834205532
40
0.754554590682881
40
0.754554590682881
40
0.808451347160231
40
0.808451347160231
40
0.86234810363758
40
0.86234810363758
40
0.91624486011493
40
0.91624486011493
40
0.970141616592279
40
0.970141616592279
40
1
40
1
40
1
40
1
41
1
10
16.8632519478063
20
-1.37198872889076
30
0
41
1
10
17.5507675518287
20
-1.72787999130884
30
0
41
1
10
18.2390136872438
20
-2.07249935980553
30
0
41
1
10
19.2695303977919
20
-2.578602660174
30
0
41
1
10
19.6123877789109
20
-2.74607486558392
30
0
41
1
10
20.298425047388
20
-3.07557938305945
30
0
41
1
10
20.6420278896733
20
-3.23688185986407
30
0
41
1
10
21.3300648730667
20
-3.55324297505302
30
0
41
1
10
21.6747072028252
20
-3.70846366725425
30
0
41
1
10
22.3633257478294
20
-4.01273840301982
30
0
41
1
10
22.7065079564674
20
-4.16217220602707
30
0
41
1
10
23.7368134686752
20
-4.59574773221294
30
0
41
1
10
24.4242870031858
20
-4.86615930845934
30
0
41
1
10
25.4538249110348
20
-5.24758168901076
30
0
41
1
10
25.7967197571178
20
-5.37061142044149
30
0
41
1
10
26.4844813736838
20
-5.60512724529696
30
0
41
1
10
26.8293513555254
20
-5.71716909249787
30
0
41
1
10
27.5180350133219
20
-5.93058404178512
30
0
41
1
10
27.8618485633435
20
-6.03194356822868
30
0
41
1
10
28.5480100667527
20
-6.22424414013651
30
0
41
1
10
28.8909917516852
20
-6.31450485548589
30
0
41
1
10
29.5777351508937
20
-6.48253274691572
30
0
41
1
10
29.921281228504
20
-6.56052237474486
30
0
41
1
10
30.6083478178148
20
-6.70474918810388
30
0
41
1
10
30.9516690938791
20
-6.77111400397197
30
0
41
1
10
31.638786424163
20
-6.89143897614821
30
0
41
1
10
31.9834581844073
20
-6.94505172811952
30
0
41
1
10
32.6718263042085
20
-7.03911391529331
30
0
41
1
10
33.0157068063736
20
-7.07964015710283
30
0
41
1
10
33.7025497397918
20
-7.14780634464213
30
0
41
1
10
34.0451216879289
20
-7.17552034966013
30
0
41
1
10
34.7311185733982
20
-7.21737869349522
30
0
41
1
10
35.074559448164
20
-7.23159035836096
30
0
41
1
10
35.6086094436288
20
-7.24341119690916
30
0
41
1
10
35.7990685466428
20
-7.24559790703188
30
0
41
1
10
35.9895639574217
20
-7.24573749541881
30
0
0
SPLINE
5
CE
100
AcDbEntity
8
1
62
256
6
ByLayer
370
18
48
1
60
0
100
AcDbSpline
70
4
71
3
72
30
73
26
40
0
40
0
40
0
40
0
40
0.114457196900843
40
0.114457196900843
40
0.188252430492439
40
0.188252430492439
40
0.262047664084036
40
0.262047664084036
40
0.335842897675632
40
0.335842897675632
40
0.409638131267227
40
0.409638131267227
40
0.557228598450423
40
0.557228598450423
40
0.631023832042019
40
0.631023832042019
40
0.704819065633615
40
0.704819065633615
40
0.778614299225211
40
0.778614299225211
40
0.852409532816807
40
0.852409532816807
40
0.926204766408403
40
0.926204766408403
40
1
40
1
40
1
40
1
41
1
10
68.8547696376699
20
5.21377730800972
30
0
41
1
10
69.3867412607878
20
5.40828921210817
30
0
41
1
10
69.9193049624942
20
5.59024017254038
30
0
41
1
10
70.7950716072919
20
5.87045404330084
30
0
41
1
10
71.137960051531
20
5.97582819286723
30
0
41
1
10
71.8255734646102
20
6.17452510185424
30
0
41
1
10
72.1698714528288
20
6.26783001077121
30
0
41
1
10
72.8572940851511
20
6.44254628923954
30
0
41
1
10
73.2006966689579
20
6.52401177761462
30
0
41
1
10
73.8864226918798
20
6.67544559947592
30
0
41
1
10
74.2286684052197
20
6.74540731014608
30
0
41
1
10
75.2575806918136
20
6.93514614364594
30
0
41
1
10
75.9451416532565
20
7.03612797558785
30
0
41
1
10
76.9763733572406
20
7.14987874583141
30
0
41
1
10
77.3197369094104
20
7.18109070598118
30
0
41
1
10
78.0069367912943
20
7.22997659785017
30
0
41
1
10
78.3505321620843
20
7.24775279064298
30
0
41
1
10
79.0373241206616
20
7.27008160606556
30
0
41
1
10
79.3803654420308
20
7.27462889053703
30
0
41
1
10
80.0663465134664
20
7.27019173519341
30
0
41
1
10
80.4099801142671
20
7.26124342329385
30
0
41
1
10
81.0983761566052
20
7.23006985439457
30
0
41
1
10
81.4426048844352
20
7.20785097084828
30
0
41
1
10
82.1297097875255
20
7.15013780811358
30
0
41
1
10
82.4723700101678
20
7.11445397856889
30
0
41
1
10
82.815325191498
20
7.07234881008714
30
0
0
SPLINE
5
CF
100
AcDbEntity
8
1
62
256
6
ByLayer
370
18
48
1
60
0
100
AcDbSpline
70
4
71
3
72
14
73
10
40
0
40
0
40
0
40
0
40
0.127828215644515
40
0.127828215644515
40
0.25565643128903
40
0.25565643128903
40
0.51131286257806
40
0.51131286257806
40
1
40
1
40
1
40
1
41
1
10
82.5561697428171
20
-6.90460354359251
30
0
41
1
10
82.1451399859272
20
-6.91336130942642
30
0
41
1
10
81.7342329562374
20
-6.91293697885845
30
0
41
1
10
80.9120812727903
20
-6.89381962989341
30
0
41
1
10
80.5003622341676
20
-6.87507334980603
30
0
41
1
10
79.2708268837928
20
-6.79213443552337
30
0
41
1
10
78.4567161317739
20
-6.70137634852611
30
0
41
1
10
76.095771872567
20
-6.34028972881882
30
0
41
1
10
74.5570263448911
20
-5.98157211020148
30
0
41
1
10
73.0131059048823
20
-5.51844482993928
30
0
0
SPLINE
5
D0
100
AcDbEntity
8
1
62
256
6
ByLayer
370
13
48
1
60
0
100
AcDbSpline
70
4
71
3
72
24
73
20
40
0
40
0
40
0
40
0
40
0.012476244452053
40
0.012476244452053
40
0.15345037064697
40
0.15345037064697
40
0.223937433744429
40
0.223937433744429
40
0.259180965293157
40
0.259180965293157
40
0.294424496841885
40
0.294424496841885
40
0.576372749231703
40
0.576372749231703
40
0.858321001621522
40
0.858321001621522
40
0.999295127816431
40
0.999295127816431
40
1
40
1
40
1
40
1
41
1
10
73.0131052526712
20
-5.51844463429654
30
0
41
1
10
72.9416234995123
20
-5.49700236878752
30
0
41
1
10
72.8701306534879
20
-5.47533629237799
30
0
41
1
10
71.9906547182287
20
-5.2061247721627
30
0
41
1
10
71.1810165196583
20
-4.93057332749663
30
0
41
1
10
69.9604684361975
20
-4.47914178855979
30
0
41
1
10
69.5525945811877
20
-4.32228947765219
30
0
41
1
10
68.9387731107461
20
-4.07810978438255
30
0
41
1
10
68.7338306606729
20
-3.99523306382352
30
0
41
1
10
68.3231930846807
20
-3.82662401796381
30
0
41
1
10
68.11729952172
20
-3.74080557921491
30
0
41
1
10
66.2693014717372
20
-2.95985962897856
30
0
41
1
10
64.6504543788954
20
-2.19894187447312
30
0
41
1
10
61.4204825374698
20
-0.625205446943596
30
0
41
1
10
59.8096673627329
20
0.188270774889588
30
0
41
1
10
57.3708893349273
20
1.38874148110898
30
0
41
1
10
56.554189815755
20
1.78556752022632
30
0
41
1
10
55.7271055714297
20
2.17578832538771
30
0
41
1
10
55.7229908484907
20
2.17772937221969
30
0
41
1
10
55.7188762583079
20
2.17967006406553
30
0
0
SPLINE
5
D1
100
AcDbEntity
8
1
62
256
6
ByLayer
370
18
48
1
60
0
100
AcDbSpline
70
4
71
3
72
14
73
10
40
0
40
0
40
0
40
0
40
0.25
40
0.25
40
0.5
40
0.5
40
0.75
40
0.75
40
1
40
1
40
1
40
1
41
1
10
82.8153251914899
20
7.07234881010973
30
0
41
1
10
82.9776384598486
20
6.61532047852023
30
0
41
1
10
83.1436997704288
20
6.15891212533006
30
0
41
1
10
83.4824507609866
20
5.24740262883887
30
0
41
1
10
83.6551707149484
20
4.79230657344792
30
0
41
1
10
84.0067280327835
20
3.88348577941295
30
0
41
1
10
84.1857195294519
20
3.42951800213911
30
0
41
1
10
84.5480544411226
20
2.52624187988144
30
0
41
1
10
84.7315695146214
20
2.07651421273076
30
0
41
1
10
84.9173496968206
20
1.62847281285065
30
0
0
SPLINE
5
D2
100
AcDbEntity
8
1
62
256
6
ByLayer
370
18
48
1
60
0
100
AcDbSpline
70
4
71
3
72
18
73
14
40
0
40
0
40
0
40
0
40
0.25
40
0.25
40
0.375
40
0.375
40
0.500000000000001
40
0.500000000000001
40
0.750000000000002
40
0.750000000000002
40
0.875000000000001
40
0.875000000000001
40
1
40
1
40
1
40
1
41
1
10
81.9720088144131
20
-5.47250290791015
30
0
41
1
10
81.9721166143081
20
-5.72143190360015
30
0
41
1
10
81.983962793053
20
-5.93928477392296
30
0
41
1
10
82.0198753580161
20
-6.22034107200659
30
0
41
1
10
82.0348933887019
20
-6.30636205372286
30
0
41
1
10
82.071408627017
20
-6.46268331921289
30
0
41
1
10
82.0927614693357
20
-6.53221840039348
30
0
41
1
10
82.165566664563
20
-6.7138183046184
30
0
41
1
10
82.2259108491987
20
-6.80003622985066
30
0
41
1
10
82.3355171198327
20
-6.87826114004383
30
0
41
1
10
82.3753943044588
20
-6.89578981645431
30
0
41
1
10
82.4612974214024
20
-6.91324540733979
30
0
41
1
10
82.5072044095003
20
-6.91321860544517
30
0
41
1
10
82.5561697426298
20
-6.90460354359058
30
0
0
SPLINE
5
D3
100
AcDbEntity
8
1
62
256
6
ByLayer
370
18
48
1
60
0
100
AcDbSpline
70
4
71
3
72
8
73
4
40
0
40
0
40
0
40
0
40
1
40
1
40
1
40
1
41
1
10
84.9891402794989
20
-0.134054143932787
30
0
41
1
10
84.9898683315419
20
-0.109224223243473
30
0
41
1
10
84.9939203248488
20
-0.0796230038546923
30
0
41
1
10
84.9999699333851
20
-0.0481953129291242
30
0
0
SPLINE
5
D4
100
AcDbEntity
8
1
62
256
6
ByLayer
370
18
48
1
60
0
100
AcDbSpline
70
4
71
3
72
8
73
4
40
0
40
0
40
0
40
0
40
1
40
1
40
1
40
1
41
1
10
84.9504564943344
20
-0.0806852818553239
30
0
41
1
10
84.4920193420828
20
-0.830574640467205
30
0
41
1
10
84.0461439350206
20
-1.59187510387636
30
0
41
1
10
83.6130347602083
20
-2.36477242838035
30
0
0
SPLINE
5
D5
100
AcDbEntity
8
1
62
256
6
ByLayer
370
18
48
1
60
0
100
AcDbSpline
70
4
71
3
72
22
73
18
40
0
40
0
40
0
40
0
40
0.217273579897428
40
0.217273579897428
40
0.434547159794856
40
0.434547159794856
40
0.54318394974357
40
0.54318394974357
40
0.651820739692284
40
0.651820739692284
40
0.760457529640998
40
0.760457529640998
40
0.869094319589712
40
0.869094319589712
40
0.977731109538426
40
0.977731109538426
40
1
40
1
40
1
40
1
41
1
10
16.8632519478063
20
-6.83343069391472
30
0
41
1
10
17.4766626952198
20
-6.80136184204619
30
0
41
1
10
18.089182849161
20
-6.74978365359269
30
0
41
1
10
19.3123031637896
20
-6.60780625919318
30
0
41
1
10
19.9228692648647
20
-6.51602801349446
30
0
41
1
10
20.8406931907993
20
-6.35226279427962
30
0
41
1
10
21.1468380608831
20
-6.29313896895187
30
0
41
1
10
21.7595115889341
20
-6.16508069761866
30
0
41
1
10
22.0662800374235
20
-6.09612485264901
30
0
41
1
10
22.6790692563478
20
-5.94970988121358
30
0
41
1
10
22.9852854919755
20
-5.87277704725841
30
0
41
1
10
23.5974198114528
20
-5.70971201491054
30
0
41
1
10
23.9033003377775
20
-5.62360263285183
30
0
41
1
10
24.5148204455537
20
-5.44345793444344
30
0
41
1
10
24.8204583945704
20
-5.34940362522929
30
0
41
1
10
25.1886766169268
20
-5.23185487494203
30
0
41
1
10
25.2513171887353
20
-5.21169918047971
30
0
41
1
10
25.3139620073955
20
-5.19138185832398
30
0
0
SPLINE
5
D6
100
AcDbEntity
8
1
62
256
6
ByLayer
370
18
48
1
60
0
100
AcDbSpline
70
4
71
3
72
34
73
30
40
0
40
0
40
0
40
0
40
0.0470849055442957
40
0.0470849055442957
40
0.103138734629924
40
0.103138734629924
40
0.159192563715553
40
0.159192563715553
40
0.215246392801181
40
0.215246392801181
40
0.327354050972441
40
0.327354050972441
40
0.383407880058071
40
0.383407880058071
40
0.4394617091437
40
0.4394617091437
40
0.551569367314962
40
0.551569367314962
40
0.607623196400592
40
0.607623196400592
40
0.663677025486222
40
0.663677025486222
40
0.719730854571851
40
0.719730854571851
40
0.775784683657481
40
0.775784683657481
40
0.887892341828741
40
0.887892341828741
40
1
40
1
40
1
40
1
41
1
10
59.227562095014
20
6.89428154287117
30
0
41
1
10
59.4845104124595
20
6.8921533221222
30
0
41
1
10
59.7411596917083
20
6.8861865341118
30
0
41
1
10
60.3034781875809
20
6.86500907030708
30
0
41
1
10
60.6090917060295
20
6.84837339800427
30
0
41
1
10
61.2203457896367
20
6.80605007165943
30
0
41
1
10
61.5259880846876
20
6.78068439866777
30
0
41
1
10
62.1371896401605
20
6.71879362246813
30
0
41
1
10
62.4426726040073
20
6.68223474050154
30
0
41
1
10
63.3605655977416
20
6.55821965153632
30
0
41
1
10
63.9746124325359
20
6.4573237482204
30
0
41
1
10
64.8920634221498
20
6.27678369342163
30
0
41
1
10
65.1974432787057
20
6.21175122086112
30
0
41
1
10
65.8084242373317
20
6.07402406609151
30
0
41
1
10
66.1140553258194
20
6.00158976221599
30
0
41
1
10
67.0309984534885
20
5.77032204447352
30
0
41
1
10
67.6420404088356
20
5.59600114660097
30
0
41
1
10
68.5603383055968
20
5.31004073304606
30
0
41
1
10
68.8670668842277
20
5.21088456273756
30
0
41
1
10
69.4796446294598
20
5.00597769668391
30
0
41
1
10
69.7857080761216
20
4.90014294534427
30
0
41
1
10
70.3973990112576
20
4.68207386366487
30
0
41
1
10
70.7029839425551
20
4.56990676831416
30
0
41
1
10
71.3139032098857
20
4.33837360756274
30
0
41
1
10
71.6194727253169
20
4.21932417857988
30
0
41
1
10
72.5366056748416
20
3.8525330958438
30
0
41
1
10
73.1484909942533
20
3.59561322247413
30
0
41
1
10
74.3740478362067
20
3.05908831318899
30
0
41
1
10
74.9863977226688
20
2.78309216489069
30
0
41
1
10
75.5981227981853
20
2.50004251500647
30
0
0
SPLINE
5
D7
100
AcDbEntity
8
1
62
256
6
ByLayer
370
18
48
1
60
0
100
AcDbSpline
70
4
71
3
72
8
73
4
40
0
40
0
40
0
40
0
40
1
40
1
40
1
40
1
41
1
10
16.8632519478063
20
6.83343069391452
30
0
41
1
10
16.4121142917934
20
6.85561606449934
30
0
41
1
10
15.9643883523139
20
6.86816313610856
30
0
41
1
10
15.5190541451132
20
6.87038736712191
30
0
0
SPLINE
5
D8
100
AcDbEntity
8
1
62
256
6
ByLayer
370
18
48
1
60
0
100
AcDbSpline
70
4
71
3
72
8
73
4
40
0
40
0
40
0
40
0
40
1
40
1
40
1
40
1
41
1
10
82.8153251914978
20
-7.07234881008733
30
0
41
1
10
82.6752082376638
20
-7.17765247282665
30
0
41
1
10
82.5504803448898
20
-7.24222481752602
30
0
41
1
10
82.4397676214528
20
-7.26526536439982
30
0
0
SPLINE
5
D9
100
AcDbEntity
8
1
62
256
6
ByLayer
370
18
48
1
60
0
100
AcDbSpline
70
4
71
3
72
19
73
15
40
0
40
0
40
0
40
0
40
0.234438684199323
40
0.234438684199323
40
0.614558500372293
40
0.614558500372293
40
0.662073477393914
40
0.662073477393914
40
0.709588454415535
40
0.804618408458776
40
0.804618408458776
40
0.994678316545261
40
0.994678316545261
40
1
40
1
40
1
40
1
41
1
10
60.0299601338957
20
-0.0373046502444367
30
0
41
1
10
61.0275284245844
20
-0.540790670519897
30
0
41
1
10
62.0221460618676
20
-1.04266713115081
30
0
41
1
10
64.6338427331988
20
-2.32934197295839
30
0
41
1
10
66.253267928022
20
-3.09694607863094
30
0
41
1
10
68.1027730640401
20
-3.88225753825142
30
0
41
1
10
68.308803135464
20
-3.96850165227877
30
0
41
1
10
68.7196226070821
20
-4.13782920773769
30
0
41
1
10
69.3347000397389
20
-4.38738709097461
30
0
41
1
10
69.9467001932845
20
-4.62314702287031
30
0
41
1
10
71.1675595015902
20
-5.07496377738116
30
0
41
1
10
71.9773345255199
20
-5.34997876487586
30
0
41
1
10
72.8080853308271
20
-5.602901864122
30
0
41
1
10
72.830711527126
20
-5.60976802942722
30
0
41
1
10
72.8533364940019
20
-5.61661134276491
30
0
0
SPLINE
5
DA
100
AcDbEntity
8
1
62
256
6
ByLayer
370
13
48
1
60
0
100
AcDbSpline
70
4
71
3
72
14
73
10
40
0
40
0
40
0
40
0
40
0.496475323269916
40
0.496475323269916
40
0.748237661634961
40
0.748237661634961
40
0.874118830817481
40
0.874118830817481
40
1
40
1
40
1
40
1
41
1
10
72.8533364940073
20
-5.61661134276656
30
0
41
1
10
74.4467787590377
20
-6.09857557126421
30
0
41
1
10
76.0341228741202
20
-6.46719010407111
30
0
41
1
10
78.4451493972909
20
-6.82364256029618
30
0
41
1
10
79.25972864634
20
-6.90963088989389
30
0
41
1
10
80.4902269535047
20
-6.98441542054377
30
0
41
1
10
80.9022599645647
20
-7.00027030949951
30
0
41
1
10
81.7249043960142
20
-7.01330889846389
30
0
41
1
10
82.136053277201
20
-7.01054472667187
30
0
41
1
10
82.5473271029006
20
-6.9984523881262
30
0
0
SPLINE
5
DB
100
AcDbEntity
8
1
62
256
6
ByLayer
370
18
48
1
60
0
100
AcDbSpline
70
4
71
3
72
30
73
26
40
0
40
0
40
0
40
0
40
0.0625000000000006
40
0.0625000000000006
40
0.125000000000001
40
0.125000000000001
40
0.187500000000002
40
0.187500000000002
40
0.250000000000002
40
0.250000000000002
40
0.312500000000003
40
0.312500000000003
40
0.375000000000003
40
0.375000000000003
40
0.500000000000005
40
0.500000000000005
40
0.625000000000006
40
0.625000000000006
40
0.750000000000007
40
0.750000000000007
40
0.875000000000009
40
0.875000000000009
40
0.937500000000004
40
0.937500000000004
40
1
40
1
40
1
40
1
41
1
10
83.6130347602059
20
-2.36477242838379
30
0
41
1
10
83.607591378261
20
-2.40568194072401
30
0
41
1
10
83.6001352245303
20
-2.44983432105593
30
0
41
1
10
83.581886755904
20
-2.5402109597257
30
0
41
1
10
83.5710744242903
20
-2.58677950958239
30
0
41
1
10
83.5461035454186
20
-2.68268502874804
30
0
41
1
10
83.5318492238981
20
-2.73224052155589
30
0
41
1
10
83.5011960436656
20
-2.83014563632889
30
0
41
1
10
83.4846823023993
20
-2.87898177168947
30
0
41
1
10
83.4493918018901
20
-2.97644055994704
30
0
41
1
10
83.4307205677752
20
-3.02471616042158
30
0
41
1
10
83.3924882666498
20
-3.11791873507059
30
0
41
1
10
83.3727859934532
20
-3.16323823596756
30
0
41
1
10
83.3120292789864
20
-3.29551699841576
30
0
41
1
10
83.2707080489421
20
-3.37586801566067
30
0
41
1
10
83.1879957427923
20
-3.52026366434407
30
0
41
1
10
83.1466611193508
20
-3.58393830809831
30
0
41
1
10
83.0689416562607
20
-3.68834808326699
30
0
41
1
10
83.0320294118586
20
-3.73011614259113
30
0
41
1
10
82.9620386714535
20
-3.79250163938701
30
0
41
1
10
82.9303510814012
20
-3.81186709965772
30
0
41
1
10
82.8877072972294
20
-3.82315742015038
30
0
41
1
10
82.8742275488748
20
-3.82390080600169
30
0
41
1
10
82.8494664089724
20
-3.81897632488645
30
0
41
1
10
82.8382329482125
20
-3.81337192474936
30
0
41
1
10
82.8281433823622
20
-3.80459490790423
30
0
0
SPLINE
5
DC
100
AcDbEntity
8
1
62
256
6
ByLayer
370
18
48
1
60
0
100
AcDbSpline
70
4
71
3
72
8
73
4
40
0
40
0
40
0
40
0
40
1
40
1
40
1
40
1
41
1
10
82.8153251914976
20
7.07234881008742
30
0
41
1
10
82.6752082376637
20
7.17765247282668
30
0
41
1
10
82.5504803448897
20
7.24222481752602
30
0
41
1
10
82.4397676214527
20
7.26526536439982
30
0
0
SPLINE
5
DD
100
AcDbEntity
8
1
62
256
6
ByLayer
370
18
48
1
60
0
100
AcDbSpline
70
4
71
3
72
14
73
10
40
0
40
0
40
0
40
0
40
0.25
40
0.25
40
0.5
40
0.5
40
0.75
40
0.75
40
1
40
1
40
1
40
1
41
1
10
82.3226340470603
20
1.58278927129874
30
0
41
1
10
82.321472296528
20
1.60295666670555
30
0
41
1
10
82.3257482567386
20
1.6233861502524
30
0
41
1
10
82.346049818168
20
1.65878169771656
30
0
41
1
10
82.3620280833111
20
1.67352360434259
30
0
41
1
10
82.3979139800852
20
1.69438490358684
30
0
41
1
10
82.4181280866445
20
1.70109747758858
30
0
41
1
10
82.4587615155354
20
1.70893088466329
30
0
41
1
10
82.4796212396645
20
1.71018966906397
30
0
41
1
10
82.5004186203281
20
1.70947456634704
30
0
0
SPLINE
5
DE
100
AcDbEntity
8
1
62
256
6
ByLayer
370
13
48
1
60
0
100
AcDbSpline
70
4
71
3
72
25
73
21
40
0
40
0
40
0
40
0
40
0.157612366150929
40
0.157612366150929
40
0.210261593266496
40
0.210261593266496
40
0.262910820382063
40
0.262910820382063
40
0.368209274613196
40
0.368209274613196
40
0.420858501728763
40
0.420858501728763
40
0.47350772884433
40
0.47350772884433
40
0.578806183075464
40
0.684104637306598
40
0.684104637306598
40
0.789403091537732
40
0.789403091537732
40
1
40
1
40
1
40
1
41
1
10
4.25059419497927
20
-6.86264126412229
30
0
41
1
10
4.25061328233031
20
-6.86413219684098
30
0
41
1
10
4.25063311326832
20
-6.83828897299131
30
0
41
1
10
4.25066205663646
20
-6.76772341618087
30
0
41
1
10
4.25066950568603
20
-6.74700496552302
30
0
41
1
10
4.25068486668735
20
-6.6993678188752
30
0
41
1
10
4.25069279605387
20
-6.67238242427476
30
0
41
1
10
4.25071720577984
20
-6.58245627928807
30
0
41
1
10
4.25073429903347
20
-6.5106726811967
30
0
41
1
10
4.25076126217022
20
-6.38526914393549
30
0
41
1
10
4.25077048141281
20
-6.34043703356772
30
0
41
1
10
4.25078919986584
20
-6.24559904162439
30
0
41
1
10
4.25079871509146
20
-6.19552355594905
30
0
41
1
10
4.25082768698772
20
-6.03746867244044
30
0
41
1
10
4.25086746442491
20
-5.80589385938728
30
0
41
1
10
4.25090881520916
20
-5.5331233560743
30
0
41
1
10
4.25095039429806
20
-5.23932889030826
30
0
41
1
10
4.2509713828577
20
-5.08112150093046
30
0
41
1
10
4.25103214015806
20
-4.5849901758433
30
0
41
1
10
4.25107018532321
20
-4.22336964026039
30
0
41
1
10
4.25110183769925
20
-3.83112044751644
30
0
0
SPLINE
5
DF
100
AcDbEntity
8
1
62
256
6
ByLayer
370
18
48
1
60
0
100
AcDbSpline
70
4
71
3
72
40
73
36
40
0
40
0
40
0
40
0
40
0.124999999999978
40
0.124999999999978
40
0.187499999999966
40
0.187499999999966
40
0.249999999999953
40
0.249999999999953
40
0.374999999999929
40
0.374999999999929
40
0.499999999999904
40
0.499999999999904
40
0.624999999999879
40
0.624999999999879
40
0.687499999999866
40
0.687499999999866
40
0.749999999999854
40
0.749999999999854
40
0.812499999999841
40
0.812499999999841
40
0.843749999999835
40
0.843749999999835
40
0.851562499999835
40
0.851562499999835
40
0.855468749999838
40
0.855468749999838
40
0.859374999999841
40
0.859374999999841
40
0.867187499999847
40
0.867187499999847
40
0.871093749999852
40
0.871093749999852
40
0.874999999999857
40
0.874999999999857
40
1
40
1
40
1
40
1
41
1
10
75.5981227981855
20
2.50004251500639
30
0
41
1
10
75.891050414868
20
2.24602897445055
30
0
41
1
10
76.1916447566437
20
2.00873279556535
30
0
41
1
10
76.6541014988844
20
1.67800661231206
30
0
41
1
10
76.8102151149074
20
1.57204133277594
30
0
41
1
10
77.1265786692091
20
1.36913006085561
30
0
41
1
10
77.2870697462195
20
1.27197835794132
30
0
41
1
10
77.7731930954428
20
0.995404482947293
30
0
41
1
10
78.0990538556522
20
0.833098726122756
30
0
41
1
10
78.7543555912428
20
0.552928354887484
30
0
41
1
10
79.0837833088399
20
0.434899171858234
30
0
41
1
10
79.7466306720881
20
0.248392532340347
30
0
41
1
10
80.0801033626865
20
0.180573521768622
30
0
41
1
10
80.5839016197378
20
0.12339793940572
30
0
41
1
10
80.751634299651
20
0.111987078487772
30
0
41
1
10
81.0829151047102
20
0.105922020986924
30
0
41
1
10
81.2469999088329
20
0.111196316333718
30
0
41
1
10
81.5717645047683
20
0.139927516488172
30
0
41
1
10
81.7327805867268
20
0.163445494810674
30
0
41
1
10
81.9701527960873
20
0.213843931317712
30
0
41
1
10
82.0485360866822
20
0.233155291776001
30
0
41
1
10
82.1453775536257
20
0.260567224913416
30
0
41
1
10
82.1646833160845
20
0.266236539352889
30
0
41
1
10
82.1935784460392
20
0.27491628519661
30
0
41
1
10
82.2032090500184
20
0.27781260637866
30
0
41
1
10
82.2223979942007
20
0.283806003004088
30
0
41
1
10
82.2320636951406
20
0.286697016219847
30
0
41
1
10
82.259122085899
20
0.299254387407331
30
0
41
1
10
82.2754726971976
20
0.312117887750929
30
0
41
1
10
82.2916719772262
20
0.340563004135959
30
0
41
1
10
82.2951283146817
20
0.351404912083609
30
0
41
1
10
82.2990949725245
20
0.374822532745298
30
0
41
1
10
82.3001512093211
20
0.386996855041474
30
0
41
1
10
82.3429933972639
20
0.783995792089996
30
0
41
1
10
82.3456355148397
20
1.1834955479577
30
0
41
1
10
82.3226340470602
20
1.58278927129874
30
0
0
SPLINE
5
E0
100
AcDbEntity
8
1
62
256
6
ByLayer
370
13
48
1
60
0
100
AcDbSpline
70
4
71
3
72
19
73
15
40
0
40
0
40
0
40
0
40
0.249725614854774
40
0.249725614854774
40
0.33303048103352
40
0.33303048103352
40
0.416335347212265
40
0.416335347212265
40
0.582945079569758
40
0.74955481192725
40
0.74955481192725
40
0.916164544284742
40
0.916164544284742
40
1
40
1
40
1
40
1
41
1
10
4.25031516444869
20
5.56246032116581
30
0
41
1
10
4.25035099598216
20
5.77115294678694
30
0
41
1
10
4.25038138447024
20
5.95621882055445
30
0
41
1
10
4.25041723071752
20
6.17175967659779
30
0
41
1
10
4.25042582416819
20
6.22315694984917
30
0
41
1
10
4.25044223240764
20
6.3198348880654
30
0
41
1
10
4.25045005334474
20
6.3651546766302
30
0
41
1
10
4.25047260630339
20
6.49223075368405
30
0
41
1
10
4.25050026100016
20
6.63802298360056
30
0
41
1
10
4.2505253761864
20
6.73720997631099
30
0
41
1
10
4.25055025787714
20
6.81268320615871
30
0
41
1
10
4.25056265205237
20
6.83856456312631
30
0
41
1
10
4.25058144582678
20
6.85854981360851
30
0
41
1
10
4.2505877783903
20
6.86214006017394
30
0
41
1
10
4.25059419498686
20
6.86264126471664
30
0
0
SPLINE
5
E1
100
AcDbEntity
8
1
62
256
6
ByLayer
370
18
48
1
60
0
100
AcDbSpline
70
4
71
3
72
8
73
4
40
0
40
0
40
0
40
0
40
1
40
1
40
1
40
1
41
1
10
3.99999974665636
20
-4.17856003796641
30
0
41
1
10
3.99999974665636
20
-4.12511760205641
30
0
41
1
10
3.99999974665633
20
-4.0715528795117
30
0
41
1
10
3.99999974665633
20
-4.01786520332936
30
0
0
SPLINE
5
E2
100
AcDbEntity
8
1
62
256
6
ByLayer
370
18
48
1
60
0
100
AcDbSpline
70
4
71
3
72
16
73
12
40
0
40
0
40
0
40
0
40
0.205362652888507
40
0.205362652888507
40
0.305784418523413
40
0.305784418523413
40
0.40620618415832
40
0.40620618415832
40
0.607049715428136
40
0.607049715428136
40
1
40
1
40
1
40
1
41
1
10
16.4291667565701
20
-0.0116220786016186
30
0
41
1
10
17.2601588125008
20
-0.429404058562454
30
0
41
1
10
18.0919105656924
20
-0.847582656091078
30
0
41
1
10
19.335501895839
20
-1.46272648504066
30
0
41
1
10
19.7447107856291
20
-1.66357007835077
30
0
41
1
10
20.5654503628476
20
-2.06144998059446
30
0
41
1
10
20.977874532227
20
-2.25889932223484
30
0
41
1
10
22.2113474034977
20
-2.83993459183068
30
0
41
1
10
23.0288698698702
20
-3.21220125219119
30
0
41
1
10
25.4395525608297
20
-4.25514855796496
30
0
41
1
10
27.0263194929835
20
-4.87112001102258
30
0
41
1
10
28.6235657023488
20
-5.3831747343489
30
0
0
SPLINE
5
E3
100
AcDbEntity
8
1
62
256
6
ByLayer
370
13
48
1
60
0
100
AcDbSpline
70
4
71
3
72
20
73
16
40
0
40
0
40
0
40
0
40
0.0091512680923305
40
0.0091512680923305
40
0.114337242226855
40
0.114337242226855
40
0.166930229294117
40
0.166930229294117
40
0.219523216361378
40
0.219523216361378
40
0.429895164630419
40
0.429895164630419
40
0.850639061168501
40
0.850639061168501
40
1
40
1
40
1
40
1
41
1
10
28.6235657025466
20
-5.38317473441231
30
0
41
1
10
28.6590785549686
20
-5.39455965660812
30
0
41
1
10
28.6945965877359
20
-5.40589320841522
30
0
41
1
10
29.1384312642272
20
-5.54685030490697
30
0
41
1
10
29.547405689451
20
-5.66975441703798
30
0
41
1
10
30.1624624381162
20
-5.84312911148157
30
0
41
1
10
30.3677470719551
20
-5.89908971605917
30
0
41
1
10
30.778903346953
20
-6.00726399141385
30
0
41
1
10
30.9849927838417
20
-6.05952790871083
30
0
41
1
10
32.0137133222268
20
-6.31030270625971
30
0
41
1
10
32.8317221198139
20
-6.4773870547919
30
0
41
1
10
35.2784723765964
20
-6.87463907897234
30
0
41
1
10
36.9000123200989
20
-7.00037531771869
30
0
41
1
10
39.111335592927
20
-6.97358164761556
30
0
41
1
10
39.6920431951354
20
-6.94824638803394
30
0
41
1
10
40.2749432952075
20
-6.90442659528964
30
0
0
SPLINE
5
E4
100
AcDbEntity
8
1
62
256
6
ByLayer
370
18
48
1
60
0
100
AcDbSpline
70
4
71
3
72
62
73
58
40
0
40
0
40
0
40
0
40
0.0276365447460383
40
0.0276365447460383
40
0.0552730894920766
40
0.0552730894920766
40
0.110546178984153
40
0.110546178984153
40
0.138182723730192
40
0.138182723730192
40
0.16581926847623
40
0.16581926847623
40
0.221092357968306
40
0.221092357968306
40
0.248728902714343
40
0.248728902714343
40
0.276365447460381
40
0.276365447460381
40
0.331638536952456
40
0.331638536952456
40
0.359275081698494
40
0.359275081698494
40
0.386911626444531
40
0.386911626444531
40
0.442184715936607
40
0.442184715936607
40
0.469821260682646
40
0.469821260682646
40
0.497457805428684
40
0.497457805428684
40
0.55273089492076
40
0.55273089492076
40
0.580367439666798
40
0.580367439666798
40
0.608003984412836
40
0.608003984412836
40
0.663277073904913
40
0.663277073904913
40
0.690913618650952
40
0.690913618650952
40
0.71855016339699
40
0.71855016339699
40
0.773823252889068
40
0.773823252889068
40
0.801459797635108
40
0.801459797635108
40
0.829096342381147
40
0.829096342381147
40
0.884369431873225
40
0.884369431873225
40
0.912005976619264
40
0.912005976619264
40
0.939642521365303
40
0.939642521365303
40
0.994915610857381
40
0.994915610857381
40
1
40
1
40
1
40
1
41
1
10
82.4397676214527
20
-7.26526536439982
30
0
41
1
10
82.0315233688838
20
-7.27596721574596
30
0
41
1
10
81.6233074121714
20
-7.27718925341341
30
0
41
1
10
80.8063241138976
20
-7.26069443573624
30
0
41
1
10
80.3976887299197
20
-7.24296044352931
30
0
41
1
10
79.1740348559462
20
-7.16177013829909
30
0
41
1
10
78.3599552755603
20
-7.07030806750765
30
0
41
1
10
77.1374340510745
20
-6.87882705042867
30
0
41
1
10
76.7296695324042
20
-6.80596431141731
30
0
41
1
10
75.9129008224822
20
-6.64254316490516
30
0
41
1
10
75.5041798009564
20
-6.5519871361368
30
0
41
1
10
74.2805641373305
20
-6.25574305542597
30
0
41
1
10
73.4664347397116
20
-6.02522537343316
30
0
41
1
10
72.2437802916855
20
-5.63403483522168
30
0
41
1
10
71.8359919778469
20
-5.49605748902934
30
0
41
1
10
71.0191384526842
20
-5.20584561356125
30
0
41
1
10
70.610431316396
20
-5.05366659840024
30
0
41
1
10
69.3867718700417
20
-4.57901179163602
30
0
41
1
10
68.5726014460942
20
-4.23789317324187
30
0
41
1
10
67.3496450552694
20
-3.69558521985198
30
0
41
1
10
66.9417336195463
20
-3.50967393055962
30
0
41
1
10
66.124736677798
20
-3.12858607483565
30
0
41
1
10
65.7160670615157
20
-2.93356222421284
30
0
41
1
10
64.4924188305746
20
-2.33905137757435
30
0
41
1
10
63.6781492240787
20
-1.92957031443086
30
0
41
1
10
62.4551182900699
20
-1.30279392511321
30
0
41
1
10
62.0471696694854
20
-1.09177657468959
30
0
41
1
10
61.2300331892934
20
-0.666849820808778
30
0
41
1
10
60.8213446117174
20
-0.453162669063715
30
0
41
1
10
59.5976038572369
20
0.187649484367
30
0
41
1
10
58.7832753345118
20
0.615020181728909
30
0
41
1
10
57.5601432495327
20
1.24888109529152
30
0
41
1
10
57.1521639232411
20
1.45897736440179
30
0
41
1
10
56.3348995293995
20
1.87532141491727
30
0
41
1
10
55.9262024927153
20
2.08130590469767
30
0
41
1
10
54.7023498139503
20
2.68930827158118
30
0
41
1
10
53.88797503132
20
3.08186687644363
30
0
41
1
10
52.6646998970216
20
3.64453044278551
30
0
41
1
10
52.2566569812103
20
3.82772408700953
30
0
41
1
10
51.4392663974658
20
4.18412177793772
30
0
41
1
10
51.030595553331
20
4.3570539249946
30
0
41
1
10
49.8066802145145
20
4.85735087529596
30
0
41
1
10
48.9922362387582
20
5.16663788170939
30
0
41
1
10
47.7688066808599
20
5.58869251901675
30
0
41
1
10
47.3607001222115
20
5.72239499015953
30
0
41
1
10
46.5431810369132
20
5.9748871949798
30
0
41
1
10
46.1345280940898
20
6.09343779499363
30
0
41
1
10
44.9105243456328
20
6.42434413148021
30
0
41
1
10
44.0960321343505
20
6.61226152685001
30
0
41
1
10
42.872442141635
20
6.84169424928334
30
0
41
1
10
42.4642619497147
20
6.90942966830613
30
0
41
1
10
41.6466233341778
20
7.02690478646261
30
0
41
1
10
41.2380206429241
20
7.07650941887752
30
0
41
1
10
40.013974763962
20
7.19733987664941
30
0
41
1
10
39.1993971348368
20
7.2407230532676
30
0
41
1
10
38.3085221708087
20
7.24698153480389
30
0
41
1
10
38.2334530954878
20
7.24718810625114
30
0
41
1
10
38.1583645550915
20
7.24707458843295
30
0
0
SPLINE
5
E5
100
AcDbEntity
8
1
62
256
6
ByLayer
370
18
48
1
60
0
100
AcDbSpline
70
4
71
3
72
100
73
96
40
0
40
0
40
0
40
0
40
0.0151297395815406
40
0.0151297395815406
40
0.0341367973525191
40
0.0341367973525191
40
0.0531438551234976
40
0.0531438551234976
40
0.072150912894476
40
0.072150912894476
40
0.0911579706654545
40
0.0911579706654545
40
0.110165028436433
40
0.110165028436433
40
0.129172086207411
40
0.129172086207411
40
0.14817914397839
40
0.14817914397839
40
0.167186201749368
40
0.167186201749368
40
0.186193259520347
40
0.186193259520347
40
0.205200317291326
40
0.205200317291326
40
0.224207375062304
40
0.224207375062304
40
0.262221490604261
40
0.262221490604261
40
0.281228548375239
40
0.281228548375239
40
0.300235606146218
40
0.300235606146218
40
0.319242663917197
40
0.319242663917197
40
0.338249721688175
40
0.338249721688175
40
0.357256779459154
40
0.357256779459154
40
0.376263837230132
40
0.376263837230132
40
0.414277952772088
40
0.414277952772088
40
0.433285010543067
40
0.433285010543067
40
0.452292068314045
40
0.452292068314045
40
0.471299126085023
40
0.471299126085023
40
0.490306183856001
40
0.490306183856001
40
0.528320299397958
40
0.528320299397958
40
0.566334414939914
40
0.566334414939914
40
0.585341472710892
40
0.585341472710892
40
0.604348530481871
40
0.604348530481871
40
0.623355588252849
40
0.623355588252849
40
0.642362646023827
40
0.642362646023827
40
0.661369703794805
40
0.661369703794805
40
0.680376761565784
40
0.680376761565784
40
0.699383819336762
40
0.699383819336762
40
0.71839087710774
40
0.71839087710774
40
0.737397934878718
40
0.737397934878718
40
0.756404992649696
40
0.756404992649696
40
0.775412050420674
40
0.775412050420674
40
0.794419108191653
40
0.794419108191653
40
0.832433223733609
40
0.832433223733609
40
0.851440281504587
40
0.851440281504587
40
0.870447339275565
40
0.870447339275565
40
0.889454397046543
40
0.889454397046543
40
0.908461454817521
40
0.908461454817521
40
0.946475570359477
40
0.946475570359477
40
0.965482628130455
40
0.965482628130455
40
0.984489685901433
40
0.984489685901433
40
1
40
1
40
1
40
1
41
1
10
25.3206400280606
20
5.19772129738243
30
0
41
1
10
25.5937626501919
20
5.29753606033793
30
0
41
1
10
25.8668692420628
20
5.3945312844304
30
0
41
1
10
26.4844813736838
20
5.60512724529693
30
0
41
1
10
26.8293513555254
20
5.71716909249784
30
0
41
1
10
27.5180350133219
20
5.93058404178512
30
0
41
1
10
27.8618485633435
20
6.03194356822866
30
0
41
1
10
28.5480100667527
20
6.22424414013651
30
0
41
1
10
28.8909917516852
20
6.31450485548586
30
0
41
1
10
29.5777351508937
20
6.48253274691572
30
0
41
1
10
29.921281228504
20
6.56052237474486
30
0
41
1
10
30.6083478178147
20
6.70474918810388
30
0
41
1
10
30.9516690938791
20
6.77111400397195
30
0
41
1
10
31.6387864241629
20
6.89143897614821
30
0
41
1
10
31.9834581844073
20
6.94505172811952
30
0
41
1
10
32.6718263042085
20
7.03911391529331
30
0
41
1
10
33.0157068063736
20
7.07964015710283
30
0
41
1
10
33.7025497397918
20
7.14780634464213
30
0
41
1
10
34.0451216879289
20
7.1755203496601
30
0
41
1
10
34.7311185733982
20
7.21737869349519
30
0
41
1
10
35.0745594481639
20
7.23159035836096
30
0
41
1
10
35.7618859236924
20
7.24680386901747
30
0
41
1
10
36.1057848850658
20
7.24780481008406
30
0
41
1
10
36.7936303444497
20
7.23636275996768
30
0
41
1
10
37.1374692772722
20
7.22381570391178
30
0
41
1
10
38.1688243581348
20
7.16651231712231
30
0
41
1
10
38.8563157446521
20
7.10237826028239
30
0
41
1
10
39.8847775028428
20
6.96613253057492
30
0
41
1
10
40.2276172797319
20
6.91417687158369
30
0
41
1
10
40.9147755642898
20
6.79814688089414
30
0
41
1
10
41.2588291302201
20
6.73394922020924
30
0
41
1
10
41.9474894765876
20
6.5928536459021
30
0
41
1
10
42.2916173287243
20
6.51590438180401
30
0
41
1
10
42.978101010327
20
6.34976507665246
30
0
41
1
10
43.3214402988017
20
6.26117620119481
30
0
41
1
10
44.0082647863966
20
6.0731771349692
30
0
41
1
10
44.3516682590055
20
5.97368905775176
30
0
41
1
10
45.0381432434895
20
5.7633559358668
30
0
41
1
10
45.3808400544086
20
5.6520379023672
30
0
41
1
10
46.4106388453643
20
5.30335541506904
30
0
41
1
10
47.1011002629035
20
5.05197811170189
30
0
41
1
10
48.1314670437347
20
4.64666204097301
30
0
41
1
10
48.4740160579844
20
4.50632837558587
30
0
41
1
10
49.1601589902212
20
4.21949981857082
30
0
41
1
10
49.5035125155305
20
4.07268173998952
30
0
41
1
10
50.1902980591293
20
3.77154361333382
30
0
41
1
10
50.5337822099106
20
3.61730934779484
30
0
41
1
10
51.2203594172352
20
3.30039682767472
30
0
41
1
10
51.5639973391523
20
3.13812252759939
30
0
41
1
10
52.5966291775382
20
2.64595407819124
30
0
41
1
10
53.2840863067216
20
2.30934606462643
30
0
41
1
10
54.6547258442886
20
1.61477739527203
30
0
41
1
10
55.3415970869014
20
1.26363463609474
30
0
41
1
10
56.372916485955
20
0.728770383236139
30
0
41
1
10
56.7168214482381
20
0.548224795135496
30
0
41
1
10
57.4041010600533
20
0.187328207644327
30
0
41
1
10
57.7477711729952
20
0.0076460357722112
30
0
41
1
10
58.434823972617
20
-0.350890957045721
30
0
41
1
10
58.7781829869312
20
-0.529791271989069
30
0
41
1
10
59.4642243058362
20
-0.887502652225322
30
0
41
1
10
59.8065662150866
20
-1.06695629060806
30
0
41
1
10
60.49272318774
20
-1.42166521910764
30
0
41
1
10
60.8363808609301
20
-1.59722708542131
30
0
41
1
10
61.5243776302652
20
-1.94567518831127
30
0
41
1
10
61.8690187918701
20
-2.11861645195754
30
0
41
1
10
62.5561195186913
20
-2.46137336711888
30
0
41
1
10
62.8989155274884
20
-2.63107968703241
30
0
41
1
10
63.5853682120259
20
-2.96295019854341
30
0
41
1
10
63.928699932778
20
-3.12572075533808
30
0
41
1
10
64.6151241684772
20
-3.44575573179412
30
0
41
1
10
64.958214911714
20
-3.60302166509402
30
0
41
1
10
65.6438581501255
20
-3.91241528251081
30
0
41
1
10
65.9870949640035
20
-4.06340505309066
30
0
41
1
10
66.6751371001016
20
-4.35685387545104
30
0
41
1
10
67.0197780937597
20
-4.49962446267261
30
0
41
1
10
67.7072790909886
20
-4.77671860890177
30
0
41
1
10
68.0502215025865
20
-4.91152132288235
30
0
41
1
10
69.078398023477
20
-5.3019757321598
30
0
41
1
10
69.7651661135537
20
-5.54092127720133
30
0
41
1
10
70.7950716072918
20
-5.87045404330084
30
0
41
1
10
71.137960051531
20
-5.9758281928672
30
0
41
1
10
71.8255734646102
20
-6.17452510185421
30
0
41
1
10
72.1698714528288
20
-6.26783001077118
30
0
41
1
10
72.8572940851512
20
-6.44254628923952
30
0
41
1
10
73.2006966689579
20
-6.52401177761462
30
0
41
1
10
73.8864226918798
20
-6.67544559947589
30
0
41
1
10
74.2286684052197
20
-6.74540731014608
30
0
41
1
10
75.2575806918136
20
-6.93514614364594
30
0
41
1
10
75.9451416532565
20
-7.03612797558782
30
0
41
1
10
76.9763733572406
20
-7.14987874583141
30
0
41
1
10
77.3197369094102
20
-7.18109070598118
30
0
41
1
10
78.0069367912943
20
-7.22997659785017
30
0
41
1
10
78.3505321620843
20
-7.24775279064298
30
0
41
1
10
78.9741492867562
20
-7.26802768101879
30
0
41
1
10
79.2541342641362
20
-7.27273179715834
30
0
41
1
10
79.5340481967376
20
-7.2729487225254
30
0
0
SPLINE
5
E6
100
AcDbEntity
8
1
62
256
6
ByLayer
370
18
48
1
60
0
100
AcDbSpline
70
4
71
3
72
32
73
28
40
0
40
0
40
0
40
0
40
0.0624999999999987
40
0.0624999999999987
40
0.0937499999999979
40
0.0937499999999979
40
0.124999999999997
40
0.124999999999997
40
0.187499999999996
40
0.187499999999996
40
0.249999999999994
40
0.249999999999994
40
0.374999999999991
40
0.374999999999991
40
0.43749999999999
40
0.43749999999999
40
0.499999999999988
40
0.499999999999988
40
0.62499999999999
40
0.62499999999999
40
0.687499999999994
40
0.687499999999994
40
0.749999999999997
40
0.749999999999997
40
0.874999999999999
40
0.874999999999999
40
1
40
1
40
1
40
1
41
1
10
75.5981227981853
20
2.50004251500601
30
0
41
1
10
75.5848343892536
20
2.28030124459761
30
0
41
1
10
75.5879073072047
20
2.05646864845141
30
0
41
1
10
75.6172715443033
20
1.71452953523075
30
0
41
1
10
75.6312637192065
20
1.59908659253523
30
0
41
1
10
75.6673327285108
20
1.36808401689916
30
0
41
1
10
75.6892523017002
20
1.25330701805981
30
0
41
1
10
75.7659315021385
20
0.911011914567069
30
0
41
1
10
75.831572868555
20
0.685522480366558
30
0
41
1
10
75.989167046755
20
0.239448825274025
30
0
41
1
10
76.0819197950821
20
0.0174485744931303
30
0
41
1
10
76.3884475850132
20
-0.625084485103486
30
0
41
1
10
76.6306761544043
20
-1.02661813105959
30
0
41
1
10
77.0363123698025
20
-1.59896929836634
30
0
41
1
10
77.1791277366768
20
-1.78508160187405
30
0
41
1
10
77.4722723139867
20
-2.14183986821877
30
0
41
1
10
77.6231836624862
20
-2.3133777637255
30
0
41
1
10
78.0871455231355
20
-2.81028896291815
30
0
41
1
10
78.4115470448535
20
-3.11776554312417
30
0
41
1
10
78.9171611119532
20
-3.54900522502248
30
0
41
1
10
79.0890201382808
20
-3.68796299790586
30
0
41
1
10
79.4376582650659
20
-3.95621702753587
30
0
41
1
10
79.6134314656583
20
-4.08474499103673
30
0
41
1
10
80.1446580212661
20
-4.45528543517369
30
0
41
1
10
80.5039799656397
20
-4.68240218909972
30
0
41
1
10
81.2314932830765
20
-5.10248459596932
30
0
41
1
10
81.5997062483393
20
-5.29536710969268
30
0
41
1
10
81.9720088144131
20
-5.47250290791013
30
0
0
SPLINE
5
E7
100
AcDbEntity
8
1
62
256
6
ByLayer
370
18
48
1
60
0
100
AcDbSpline
70
4
71
2
72
6
73
3
40
0
40
0
40
0
40
1
40
1
40
1
41
1
10
81.9265521724507
20
-6.91071773205147
30
0
41
1
10
82.1940759761494
20
-6.91097780358731
30
0
41
1
10
82.45916920155
20
-6.90982991711644
30
0
0
SPLINE
5
E8
100
AcDbEntity
8
1
62
256
6
ByLayer
370
18
48
1
60
0
100
AcDbSpline
70
4
71
3
72
36
73
32
40
0
40
0
40
0
40
0
40
0.0337454733156593
40
0.0666742564145046
40
0.0970210695589476
40
0.126250054271847
40
0.154600685259481
40
0.181021041389699
40
0.217682490848347
40
0.256159546526576
40
0.299447182406673
40
0.339930129484174
40
0.38643789127886
40
0.423045827464462
40
0.449895666017708
40
0.48145734785584
40
0.51691834437804
40
0.552716493335467
40
0.597489225996673
40
0.642039841924804
40
0.686383404358592
40
0.72939551545742
40
0.75612088410603
40
0.777136511454607
40
0.804021997707471
40
0.838834653248884
40
0.888043465014453
40
0.930938854246832
40
0.971679801776868
40
0.997436617597468
40
1
40
1
40
1
40
1
41
1
10
38.3643148782867
20
-6.88304523384747
30
0
41
1
10
38.58985983894
20
-6.88222087382755
30
0
41
1
10
39.0395243259987
20
-6.88133972234942
30
0
41
1
10
39.7246261105791
20
-6.88009456196409
30
0
41
1
10
40.3531927710717
20
-6.88472253706806
30
0
41
1
10
40.9616047667249
20
-6.88507398991541
30
0
41
1
10
41.5469009231219
20
-6.88530863816814
30
0
41
1
10
42.1838980807651
20
-6.88583089000261
30
0
41
1
10
42.8914378282435
20
-6.88669581988023
30
0
41
1
10
43.716525025204
20
-6.88663825503468
30
0
41
1
10
44.5682034194928
20
-6.88739363881783
30
0
41
1
10
45.4758636181714
20
-6.88848507777345
30
0
41
1
10
46.3369553983543
20
-6.88783643660321
30
0
41
1
10
47.1030809872105
20
-6.8889314536824
30
0
41
1
10
47.7650700309193
20
-6.88936066955026
30
0
41
1
10
48.4190858939918
20
-6.88928074721318
30
0
41
1
10
49.1354302812367
20
-6.88940588392569
30
0
41
1
10
49.9438258201257
20
-6.89091510494757
30
0
41
1
10
50.8155490266242
20
-6.89038581747866
30
0
41
1
10
51.7468023646876
20
-6.8911088157671
30
0
41
1
10
52.6658072861209
20
-6.89245050610003
30
0
41
1
10
53.4605622524937
20
-6.89146404610023
30
0
41
1
10
54.0928645467843
20
-6.89228762319047
30
0
41
1
10
54.6127327004043
20
-6.89330977820313
30
0
41
1
10
55.1889825256125
20
-6.8934890192204
30
0
41
1
10
55.9616176127048
20
-6.89272239416411
30
0
41
1
10
56.8460959877625
20
-6.89487759082405
30
0
41
1
10
57.7707737494008
20
-6.89481852891791
30
0
41
1
10
58.5354817967488
20
-6.89427512961606
30
0
41
1
10
59.0081184259058
20
-6.89479151066755
30
0
41
1
10
59.2036321520919
20
-6.89431558277846
30
0
41
1
10
59.2213293152145
20
-6.89427013964306
30
0
0
SPLINE
5
E9
100
AcDbEntity
8
1
62
256
6
ByLayer
370
18
48
1
60
0
100
AcDbSpline
70
4
71
3
72
32
73
28
40
0
40
0
40
0
40
0
40
0.0266189400452755
40
0.0553013827728751
40
0.0826541286599282
40
0.110482474394436
40
0.152575589920062
40
0.19910413288631
40
0.243016014835914
40
0.277045371228287
40
0.328271280885368
40
0.402379247817967
40
0.480073493321728
40
0.558311848566612
40
0.590141660549039
40
0.621860454778285
40
0.652979148328805
40
0.681047855257824
40
0.7057351202148
40
0.730604822393236
40
0.764995949167005
40
0.821881262209208
40
0.871684425334146
40
0.913336014401332
40
0.950666584357768
40
0.996623166670822
40
1
40
1
40
1
40
1
41
1
10
59.2318355251173
20
6.89416814629712
30
0
41
1
10
59.0860038452596
20
6.89436746631779
30
0
41
1
10
58.7817466065304
20
6.89468258384565
30
0
41
1
10
58.3221877855502
20
6.89441116438033
30
0
41
1
10
57.8533948848687
20
6.89468223535738
30
0
41
1
10
57.3097985959494
20
6.8950060311121
30
0
41
1
10
56.6589868026939
20
6.89419445041671
30
0
41
1
10
55.918308771527
20
6.89281472464168
30
0
41
1
10
55.2226888491172
20
6.89347440568926
30
0
41
1
10
54.500864179533
20
6.89330010865444
30
0
41
1
10
53.6102466827343
20
6.89104269461441
30
0
41
1
10
52.4756292011685
20
6.892857179473
30
0
41
1
10
51.1899996704665
20
6.88978117812354
30
0
41
1
10
50.1406615905792
20
6.8910063044477
30
0
41
1
10
49.348262197771
20
6.88993031728637
30
0
41
1
10
48.8192012420992
20
6.88917162377828
30
0
41
1
10
48.3111628228703
20
6.88936149873612
30
0
41
1
10
47.8424126310418
20
6.8893294878365
30
0
41
1
10
47.4085954286721
20
6.88915197722631
30
0
41
1
10
46.9394371111812
20
6.88867703854694
30
0
41
1
10
46.290350705294
20
6.88789146144225
30
0
41
1
10
45.5019197032212
20
6.8884605013308
30
0
41
1
10
44.6728915732432
20
6.88757509131401
30
0
41
1
10
43.9531615654905
20
6.88673492569603
30
0
41
1
10
43.254946596839
20
6.88670930292361
30
0
41
1
10
42.7705406452937
20
6.88649824084891
30
0
41
1
10
42.4948991681855
20
6.88624102102389
30
0
41
1
10
42.4760320642869
20
6.88622287549836
30
0
0
SPLINE
5
EA
100
AcDbEntity
8
1
62
256
6
ByLayer
370
18
48
1
60
0
100
AcDbSpline
70
4
71
3
72
25
73
21
40
0
40
0
40
0
40
0
40
0.0276355212106016
40
0.0755601203788706
40
0.11404632879563
40
0.145471706794032
40
0.188534643413202
40
0.25551411519497
40
0.307888771575507
40
0.364102276937272
40
0.425554943225626
40
0.500634247649977
40
0.58051837181983
40
0.648836476440277
40
0.698927061818303
40
0.746951639724883
40
0.811325084601238
40
0.867482595093716
40
0.937724584716952
40
1
40
1
40
1
40
1
41
1
10
15.5242941832614
20
6.87047126881771
30
0
41
1
10
15.4202836172949
20
6.87037436689576
30
0
41
1
10
15.1361698638544
20
6.87016859966124
30
0
41
1
10
14.7107368280123
20
6.87057938431408
30
0
41
1
10
14.2682187420011
20
6.87040349181419
30
0
41
1
10
13.843456228504
20
6.8701030839168
30
0
41
1
10
13.3117130811015
20
6.86939855329177
30
0
41
1
10
12.7011475505359
20
6.86895108001184
30
0
41
1
10
12.0411677902253
20
6.86946171912948
30
0
41
1
10
11.4020035311268
20
6.86928314759732
30
0
41
1
10
10.6775124977381
20
6.86816492945516
30
0
41
1
10
9.86395573576795
20
6.86834736679236
30
0
41
1
10
9.02464111352705
20
6.86739994495628
30
0
41
1
10
8.27925347856439
20
6.86569343759379
30
0
41
1
10
7.65360567661293
20
6.86589378126095
30
0
41
1
10
7.0428042635383
20
6.86548315346175
30
0
41
1
10
6.40918414102603
20
6.86509689787567
30
0
41
1
10
5.69204715638583
20
6.8647185341693
30
0
41
1
10
4.98279390324495
20
6.86414311528557
30
0
41
1
10
4.48464738501619
20
6.86309729565659
30
0
41
1
10
4.25054803805654
20
6.86250186891155
30
0
0
SPLINE
5
EB
100
AcDbEntity
8
1
62
256
6
ByLayer
370
18
48
1
60
0
100
AcDbSpline
70
4
71
3
72
27
73
23
40
0
40
0
40
0
40
0
40
0.0623329154874767
40
0.132639828089776
40
0.18884924361655
40
0.245087973056744
40
0.289264302882952
40
0.327754769540363
40
0.378572573742018
40
0.442726730127845
40
0.510904606646099
40
0.574976333232709
40
0.620151209021675
40
0.662771423222797
40
0.702366785778736
40
0.740028894249917
40
0.785813982007028
40
0.835843418209668
40
0.870846161861244
40
0.908811114762943
40
0.957600649845361
40
1
40
1
40
1
40
1
41
1
10
4.25054870800719
20
-6.8625018702821
30
0
41
1
10
4.4846478316507
20
-6.86309729640027
30
0
41
1
10
4.98279426172249
20
-6.86414294902977
30
0
41
1
10
5.69204666500096
20
-6.86471913962038
30
0
41
1
10
6.37841103051724
20
-6.8650789120058
30
0
41
1
10
6.96663088440062
20
-6.86544194951372
30
0
41
1
10
7.48831289108557
20
-6.86577310468456
30
0
41
1
10
7.98961894381856
20
-6.86587083948152
30
0
41
1
10
8.56597865694579
20
-6.86599797609585
30
0
41
1
10
9.2537887435561
20
-6.86796243419749
30
0
41
1
10
9.99140790061529
20
-6.86823334186596
30
0
41
1
10
10.657758956646
20
-6.86826696328632
30
0
41
1
10
11.2280861034834
20
-6.86893116325334
30
0
41
1
10
11.706470042408
20
-6.86948063866544
30
0
41
1
10
12.1566751853196
20
-6.86932952663645
30
0
41
1
10
12.6187843883204
20
-6.86906822064674
30
0
41
1
10
13.1200570204503
20
-6.86918297788336
30
0
41
1
10
13.6114330697765
20
-6.86981868763118
30
0
41
1
10
14.073162745356
20
-6.87029725234686
30
0
41
1
10
14.5308746215777
20
-6.87055317142691
30
0
41
1
10
15.0125495830345
20
-6.87028638302394
30
0
41
1
10
15.3548948941415
20
-6.8704045963058
30
0
41
1
10
15.5141757236112
20
-6.87047263808452
30
0
0
LINE
5
7B
100
AcDbEntity
8
SK1
62
256
6
ByLayer
370
18
48
1
60
0
100
AcDbLine
10
-48
20
5.55
30
0
11
-48
21
-3.384803
31
0
39
0
210
0
220
0
230
1
0
LINE
5
7D
100
AcDbEntity
8
SK1
62
256
6
ByLayer
370
13
48
1
60
0
100
AcDbLine
10
-46.5
20
-4.567583
30
0
11
-46.5
21
-6.154663
31
0
39
0
210
0
220
0
230
1
0
LINE
5
7E
100
AcDbEntity
8
SK1
62
256
6
ByLayer
370
18
48
1
60
0
100
AcDbLine
10
-48
20
-3.384704
30
0
11
-48
21
-4.971746
31
0
39
0
210
0
220
0
230
1
0
LINE
5
7F
100
AcDbEntity
8
SK1
62
256
6
ByLayer
370
18
48
1
60
0
100
AcDbLine
10
-48
20
-5.55
30
0
11
-48
21
-4.971746
31
0
39
0
210
0
220
0
230
1
0
LINE
5
80
100
AcDbEntity
8
SK1
62
256
6
ByLayer
370
18
48
1
60
0
100
AcDbLine
10
-45.55
20
8
30
0
11
-45.55
21
-8
31
0
39
0
210
0
220
0
230
1
0
LINE
5
81
100
AcDbEntity
8
SK1
62
256
6
ByLayer
370
18
48
1
60
0
100
AcDbLine
10
-46.4
20
-6.182836
30
0
11
-46.4
21
-4.722849
31
0
39
0
210
0
220
0
230
1
0
LINE
5
82
100
AcDbEntity
8
SK1
62
256
6
ByLayer
370
18
48
1
60
0
100
AcDbLine
10
0
20
-8
30
0
11
0
21
8
31
0
39
0
210
0
220
0
230
1
0
LINE
5
83
100
AcDbEntity
8
1
62
256
6
ByLayer
370
13
48
1
60
0
100
AcDbLine
10
82.500419
20
1.709475
30
0
11
84.98914
21
0.134054
31
0
39
0
210
0
220
0
230
1
0
LINE
5
84
100
AcDbEntity
8
1
62
256
6
ByLayer
370
18
48
1
60
0
100
AcDbLine
10
4
20
7.225741
30
0
11
4
21
5.730835
31
0
39
0
210
0
220
0
230
1
0
LINE
5
85
100
AcDbEntity
8
1
62
256
6
ByLayer
370
18
48
1
60
0
100
AcDbLine
10
4
20
-7.225741
30
0
11
4
21
-4.17856
31
0
39
0
210
0
220
0
230
1
0
LINE
5
86
100
AcDbEntity
8
1
62
256
6
ByLayer
370
13
48
1
60
0
100
AcDbLine
10
82.322634
20
1.582789
30
0
11
84.950456
21
-0.080685
31
0
39
0
210
0
220
0
230
1
0
LINE
5
87
100
AcDbEntity
8
1
62
256
6
ByLayer
370
13
48
1
60
0
100
AcDbLine
10
1.371945
20
7.224098
30
0
11
1.371945
21
-7.224098
31
0
39
0
210
0
220
0
230
1
0
LINE
5
88
100
AcDbEntity
8
1
62
256
6
ByLayer
370
13
48
1
60
0
100
AcDbLine
10
0.685723
20
7.612049
30
0
11
0.685723
21
-7.612049
31
0
39
0
210
0
220
0
230
1
0
LINE
5
89
100
AcDbEntity
8
1
62
256
6
ByLayer
370
18
48
1
60
0
100
AcDbLine
10
0
20
-8
30
0
11
0
21
8
31
0
39
0
210
0
220
0
230
1
0
LINE
5
8A
100
AcDbEntity
8
80
62
256
6
ByLayer
370
18
48
1
60
0
100
AcDbLine
10
0
20
0
30
0
11
-5
21
0
31
0
39
0
210
0
220
0
230
1
0
LINE
5
8B
100
AcDbEntity
8
4
62
256
6
ByLayer
370
18
48
0.05
60
0
100
AcDbLine
10
85
20
0
30
0
11
0
21
0
31
0
39
0
210
0
220
0
230
1
0
LINE
5
8D
100
AcDbEntity
8
SK4
62
256
6
ByLayer
370
18
48
0.05
60
0
100
AcDbLine
10
90
20
0
30
0
11
-53
21
0
31
0
39
0
210
0
220
0
230
1
0
LINE
5
8F
100
AcDbEntity
8
SK1
62
256
6
ByLayer
370
18
48
1
60
0
100
AcDbLine
10
-45.55
20
-8
30
0
11
0
21
-8
31
0
39
0
210
0
220
0
230
1
0
LINE
5
90
100
AcDbEntity
8
SK1
62
256
6
ByLayer
370
18
48
1
60
0
100
AcDbLine
10
0
20
8
30
0
11
-45.55
21
8
31
0
39
0
210
0
220
0
230
1
0
LINE
5
91
100
AcDbEntity
8
SK1
62
256
6
ByLayer
370
18
48
1
60
0
100
AcDbLine
10
-48
20
-5.55
30
0
11
-45.55
21
-8
31
0
39
0
210
0
220
0
230
1
0
LINE
5
92
100
AcDbEntity
8
SK1
62
256
6
ByLayer
370
18
48
1
60
0
100
AcDbLine
10
-45.55
20
8
30
0
11
-48
21
5.55
31
0
39
0
210
0
220
0
230
1
0
LINE
5
93
100
AcDbEntity
8
1
62
256
6
ByLayer
370
18
48
1
60
0
100
AcDbLine
10
1.371945
20
-7.224098
30
0
11
4
21
-7.225741
31
0
39
0
210
0
220
0
230
1
0
LINE
5
94
100
AcDbEntity
8
1
62
256
6
ByLayer
370
18
48
1
60
0
100
AcDbLine
10
35.991134
20
-7.245735
30
0
11
38.180113
21
-7.247103
31
0
39
0
210
0
220
0
230
1
0
LINE
5
95
100
AcDbEntity
8
1
62
256
6
ByLayer
370
18
48
1
60
0
100
AcDbLine
10
79.53781
20
-7.272952
30
0
11
81.73147
21
-7.274323
31
0
39
0
210
0
220
0
230
1
0
LINE
5
96
100
AcDbEntity
8
1
62
256
6
ByLayer
370
18
48
1
60
0
100
AcDbLine
10
81.731487
20
7.274323
30
0
11
79.53781
21
7.272952
31
0
39
0
210
0
220
0
230
1
0
LINE
5
97
100
AcDbEntity
8
1
62
256
6
ByLayer
370
18
48
1
60
0
100
AcDbLine
10
38.180394
20
7.247103
30
0
11
35.991134
21
7.245735
31
0
39
0
210
0
220
0
230
1
0
LINE
5
98
100
AcDbEntity
8
1
62
256
6
ByLayer
370
18
48
1
60
0
100
AcDbLine
10
4
20
7.225741
30
0
11
1.371945
21
7.224098
31
0
39
0
210
0
220
0
230
1
0
LINE
5
99
100
AcDbEntity
8
81
62
256
6
ByLayer
370
18
48
1
60
0
100
AcDbLine
10
85
20
0
30
0
11
90
21
0
31
0
39
0
210
0
220
0
230
1
0
LINE
5
9A
100
AcDbEntity
8
SK2
62
256
6
ByLayer
370
13
48
1
60
0
100
AcDbLine
10
-56.625163
20
-8
30
0
11
-56.625163
21
38.857173
31
0
39
0
210
0
220
0
230
1
0
LINE
5
9C
100
AcDbEntity
8
SK2
62
256
6
ByLayer
370
13
48
1
60
0
100
AcDbLine
10
-49.5875
20
8
30
0
11
-58.625163
21
8
31
0
39
0
210
0
220
0
230
1
0
LINE
5
9D
100
AcDbEntity
8
SK2
62
256
6
ByLayer
370
13
48
1
60
0
100
AcDbLine
10
-49.5875
20
-8
30
0
11
-58.625163
21
-8
31
0
39
0
210
0
220
0
230
1
0
LINE
5
9E
100
AcDbEntity
8
1
62
256
6
ByLayer
370
18
48
1
60
1
100
AcDbLine
10
-56.625163
20
8
30
0
11
-56.164379
21
4.500002
31
0
39
0
210
0
220
0
230
1
0
LINE
5
9F
100
AcDbEntity
8
1
62
256
6
ByLayer
370
18
48
1
60
1
100
AcDbLine
10
-56.164379
20
4.500002
30
0
11
-57.085946
21
4.499998
31
0
39
0
210
0
220
0
230
1
0
LINE
5
A0
100
AcDbEntity
8
1
62
256
6
ByLayer
370
18
48
1
60
1
100
AcDbLine
10
-57.085946
20
4.499998
30
0
11
-56.625163
21
8
31
0
39
0
210
0
220
0
230
1
0
LINE
5
A1
100
AcDbEntity
8
1
62
256
6
ByLayer
370
18
48
1
60
1
100
AcDbLine
10
-56.625163
20
-8
30
0
11
-57.085946
21
-4.500002
31
0
39
0
210
0
220
0
230
1
0
LINE
5
A2
100
AcDbEntity
8
1
62
256
6
ByLayer
370
18
48
1
60
1
100
AcDbLine
10
-57.085946
20
-4.500002
30
0
11
-56.164379
21
-4.499998
31
0
39
0
210
0
220
0
230
1
0
LINE
5
A3
100
AcDbEntity
8
1
62
256
6
ByLayer
370
18
48
1
60
1
100
AcDbLine
10
-56.164379
20
-4.499998
30
0
11
-56.625163
21
-8
31
0
39
0
210
0
220
0
230
1
0
LINE
5
A4
100
AcDbEntity
8
2
62
256
6
ByLayer
370
13
48
1
60
0
100
AcDbLine
10
97.083343
20
-7.275
30
0
11
97.083343
21
37.093792
31
0
39
0
210
0
220
0
230
1
0
LINE
5
A6
100
AcDbEntity
8
2
62
256
6
ByLayer
370
13
48
1
60
0
100
AcDbLine
10
84.4178
20
7.275
30
0
11
99.083343
21
7.275
31
0
39
0
210
0
220
0
230
1
0
LINE
5
A7
100
AcDbEntity
8
2
62
256
6
ByLayer
370
13
48
1
60
0
100
AcDbLine
10
84.4178
20
-7.275
30
0
11
99.083343
21
-7.275
31
0
39
0
210
0
220
0
230
1
0
LINE
5
A8
100
AcDbEntity
8
1
62
256
6
ByLayer
370
18
48
1
60
1
100
AcDbLine
10
97.083343
20
7.275
30
0
11
97.544126
21
3.775002
31
0
39
0
210
0
220
0
230
1
0
LINE
5
A9
100
AcDbEntity
8
1
62
256
6
ByLayer
370
18
48
1
60
1
100
AcDbLine
10
97.544126
20
3.775002
30
0
11
96.622559
21
3.774998
31
0
39
0
210
0
220
0
230
1
0
LINE
5
AA
100
AcDbEntity
8
1
62
256
6
ByLayer
370
18
48
1
60
1
100
AcDbLine
10
96.622559
20
3.774998
30
0
11
97.083343
21
7.275
31
0
39
0
210
0
220
0
230
1
0
LINE
5
AB
100
AcDbEntity
8
1
62
256
6
ByLayer
370
18
48
1
60
1
100
AcDbLine
10
97.083343
20
-7.275
30
0
11
96.622559
21
-3.775002
31
0
39
0
210
0
220
0
230
1
0
LINE
5
AC
100
AcDbEntity
8
1
62
256
6
ByLayer
370
18
48
1
60
1
100
AcDbLine
10
96.622559
20
-3.775002
30
0
11
97.544126
21
-3.774998
31
0
39
0
210
0
220
0
230
1
0
LINE
5
AD
100
AcDbEntity
8
1
62
256
6
ByLayer
370
18
48
1
60
1
100
AcDbLine
10
97.544126
20
-3.774998
30
0
11
97.083343
21
-7.275
31
0
39
0
210
0
220
0
230
1
0
LINE
5
F2
100
AcDbEntity
8
1
62
256
6
ByLayer
370
18
48
1
60
1
100
AcDbLine
10
-56.625163
20
8
30
0
11
-56.164379
21
4.500002
31
0
39
0
210
0
220
0
230
1
0
LINE
5
F3
100
AcDbEntity
8
1
62
256
6
ByLayer
370
18
48
1
60
1
100
AcDbLine
10
-56.164379
20
4.500002
30
0
11
-57.085946
21
4.499998
31
0
39
0
210
0
220
0
230
1
0
LINE
5
F4
100
AcDbEntity
8
1
62
256
6
ByLayer
370
18
48
1
60
1
100
AcDbLine
10
-57.085946
20
4.499998
30
0
11
-56.625163
21
8
31
0
39
0
210
0
220
0
230
1
0
LINE
5
F6
100
AcDbEntity
8
1
62
256
6
ByLayer
370
18
48
1
60
1
100
AcDbLine
10
-56.625163
20
-8
30
0
11
-57.085946
21
-4.500002
31
0
39
0
210
0
220
0
230
1
0
LINE
5
F7
100
AcDbEntity
8
1
62
256
6
ByLayer
370
18
48
1
60
1
100
AcDbLine
10
-57.085946
20
-4.500002
30
0
11
-56.164379
21
-4.499998
31
0
39
0
210
0
220
0
230
1
0
LINE
5
F8
100
AcDbEntity
8
1
62
256
6
ByLayer
370
18
48
1
60
1
100
AcDbLine
10
-56.164379
20
-4.499998
30
0
11
-56.625163
21
-8
31
0
39
0
210
0
220
0
230
1
0
LINE
5
FC
100
AcDbEntity
8
1
62
256
6
ByLayer
370
18
48
1
60
1
100
AcDbLine
10
97.083343
20
7.275
30
0
11
97.544126
21
3.775002
31
0
39
0
210
0
220
0
230
1
0
LINE
5
FD
100
AcDbEntity
8
1
62
256
6
ByLayer
370
18
48
1
60
1
100
AcDbLine
10
97.544126
20
3.775002
30
0
11
96.622559
21
3.774998
31
0
39
0
210
0
220
0
230
1
0
LINE
5
FE
100
AcDbEntity
8
1
62
256
6
ByLayer
370
18
48
1
60
1
100
AcDbLine
10
96.622559
20
3.774998
30
0
11
97.083343
21
7.275
31
0
39
0
210
0
220
0
230
1
0
LINE
5
100
100
AcDbEntity
8
1
62
256
6
ByLayer
370
18
48
1
60
1
100
AcDbLine
10
97.083343
20
-7.275
30
0
11
96.622559
21
-3.775002
31
0
39
0
210
0
220
0
230
1
0
LINE
5
101
100
AcDbEntity
8
1
62
256
6
ByLayer
370
18
48
1
60
1
100
AcDbLine
10
96.622559
20
-3.775002
30
0
11
97.544126
21
-3.774998
31
0
39
0
210
0
220
0
230
1
0
LINE
5
102
100
AcDbEntity
8
1
62
256
6
ByLayer
370
18
48
1
60
1
100
AcDbLine
10
97.544126
20
-3.774998
30
0
11
97.083343
21
-7.275
31
0
39
0
210
0
220
0
230
1
0
MTEXT
5
EC
100
AcDbEntity
8
SK6
62
256
6
ByLayer
370
13
48
1
60
0
100
AcDbMText
10
-10.392027
20
39.815328
30
0
210
0
220
0
230
1
1
\W0.7610;462.1-1455-073A1-XM X2BM
40
3.5
41
0
44
1.084337
50
0
71
7
72
5
7
iso_b_vert
0
MTEXT
5
F0
100
AcDbEntity
8
SK2
62
256
6
ByLayer
370
18
48
1
60
0
100
AcDbMText
10
-58.189796
20
21.409024
30
0
210
0
220
0
230
1
1
%%c
40
3.5
41
0
44
1.084337
50
90
71
7
72
5
7
iso_b_vert
0
MTEXT
5
F1
100
AcDbEntity
8
SK2
62
256
6
ByLayer
370
18
48
1
60
0
100
AcDbMText
10
-58.189796
20
26.63168
30
0
210
0
220
0
230
1
1
\W0.6930;16,000
40
3.5
41
0
44
1.084337
50
90
71
7
72
5
7
iso_b_vert
0
MTEXT
5
FA
100
AcDbEntity
8
2
62
256
6
ByLayer
370
18
48
1
60
0
100
AcDbMText
10
95.518709
20
19.27711
30
0
210
0
220
0
230
1
1
%%c
40
3.5
41
0
44
1.084337
50
90
71
7
72
5
7
iso_b_vert
0
MTEXT
5
FB
100
AcDbEntity
8
2
62
256
6
ByLayer
370
18
48
1
60
0
100
AcDbMText
10
95.518709
20
24.499766
30
0
210
0
220
0
230
1
1
\W0.7145;14,550
40
3.5
41
0
44
1.084337
50
90
71
7
72
5
7
iso_b_vert
0
HATCH
5
F5
100
AcDbEntity
8
SK2
62
256
6
ByLayer
370
13
48
1
60
0
100
AcDbHatch
10
0
20
0
30
0
210
0
220
0
230
1
2
ANSI31
70
0
71
0
91
1
92
5
93
3
72
1
10
-56.6251625675374
20
8
11
-56.1643788259847
21
4.50000169255318
72
1
10
-56.1643788259847
20
4.50000169255318
11
-57.0859463090902
21
4.49999830744682
72
1
10
-57.0859463090902
20
4.49999830744682
11
-56.6251625675374
21
8
97
0
75
0
76
1
52
0
41
0.0062
77
0
78
1
53
45
43
0
44
0
45
-0.0139193969876572
46
0.0139193969876572
79
0
47
0
98
1
10
0
20
0
0
HATCH
5
F9
100
AcDbEntity
8
SK2
62
256
6
ByLayer
370
13
48
1
60
0
100
AcDbHatch
10
0
20
0
30
0
210
0
220
0
230
1
2
ANSI31
70
0
71
0
91
1
92
5
93
3
72
1
10
-56.6251625675374
20
-8
11
-57.0859463090902
21
-4.50000169255318
72
1
10
-57.0859463090902
20
-4.50000169255318
11
-56.1643788259847
21
-4.49999830744682
72
1
10
-56.1643788259847
20
-4.49999830744682
11
-56.6251625675374
21
-8
97
0
75
0
76
1
52
0
41
0.0062
77
0
78
1
53
45
43
0
44
0
45
-0.0139193969876572
46
0.0139193969876572
79
0
47
0
98
1
10
0
20
0
0
HATCH
5
FF
100
AcDbEntity
8
2
62
256
6
ByLayer
370
13
48
1
60
0
100
AcDbHatch
10
0
20
0
30
0
210
0
220
0
230
1
2
ANSI31
70
0
71
0
91
1
92
5
93
3
72
1
10
97.083342615295
20
7.27500000000001
11
97.5441263568478
21
3.77500169255319
72
1
10
97.5441263568478
20
3.77500169255319
11
96.6225588737423
21
3.77499830744682
72
1
10
96.6225588737423
20
3.77499830744682
11
97.083342615295
21
7.27500000000001
97
0
75
0
76
1
52
0
41
0.0062
77
0
78
1
53
45
43
0
44
0
45
-0.0139193969876572
46
0.0139193969876572
79
0
47
0
98
1
10
0
20
0
0
HATCH
5
103
100
AcDbEntity
8
2
62
256
6
ByLayer
370
13
48
1
60
0
100
AcDbHatch
10
0
20
0
30
0
210
0
220
0
230
1
2
ANSI31
70
0
71
0
91
1
92
5
93
3
72
1
10
97.083342615295
20
-7.27500000000001
11
96.6225588737423
21
-3.77500169255319
72
1
10
96.6225588737423
20
-3.77500169255319
11
97.5441263568478
21
-3.77499830744682
72
1
10
97.5441263568478
20
-3.77499830744682
11
97.083342615295
21
-7.27500000000001
97
0
75
0
76
1
52
0
41
0.0062
77
0
78
1
53
45
43
0
44
0
45
-0.0139193969876572
46
0.0139193969876572
79
0
47
0
98
1
10
0
20
0
0
DIMENSION
5
105
100
AcDbEntity
8
SK2
62
256
6
ByLayer
370
13
48
1
60
0
100
AcDbDimension
2
_U0
10
82.8303
20
-17.488398
30
0
11
41.41515
21
-17.488398
31
0
70
32
71
1
72
1
41
1
210
0
220
0
230
1
3
Standard
100
AcDbAlignedDimension
13
0
23
0
33
0
14
82.8303
24
-7.275
34
0
50
0
100
AcDbRotatedDimension
1001
ACAD
1000
DSTYLE
1002
{
1070
   371
1070
    13
1070
   372
1070
    13
1070
   170
1070
     0
1070
   144
1040
1.0
1070
   277
1070
     2
1070
   278
1070
    44
1070
   146
1040
1.0
1070
   345
1005
16
1070
   347
1005
16
1070
   346
1005
16
1070
   344
1005
0
1070
   343
1005
0
1070
   172
1070
     1
1070
    76
1070
     0
1070
    75
1070
     0
1070
   282
1070
     0
1070
   281
1070
     0
1070
    71
1070
     0
1070
    74
1070
     0
1070
   279
1070
     0
1070
   173
1070
     1
1070
   340
1005
ED
1070
   271
1070
     2
1070
   272
1070
     2
1070
    77
1070
     1
1070
    73
1070
     1
1070
   171
1070
     3
1070
   274
1070
     4
1070
   177
1070
    35
1070
   176
1070
    35
1070
   178
1070
    35
1070
    48
1040
-0.1
1070
    41
1040
3.5
1070
   147
1040
1.75
1070
    42
1040
1.5875
1070
    44
1040
2.0
1070
   140
1040
3.5
1002
}
1001
ACAD_DSTYLE_DIM_LINETYPE
1070
   380
1005
16
1001
ACAD_DSTYLE_DIM_EXT1_LINETYPE
1070
   381
1005
16
1001
ACAD_DSTYLE_DIM_EXT2_LINETYPE
1070
   382
1005
16
0
DIMENSION
5
11E
100
AcDbEntity
8
SK2
62
256
6
ByLayer
370
13
48
1
60
0
100
AcDbDimension
2
_U1
10
85
20
-36.692985
30
0
11
18.5
21
-36.692985
31
0
70
32
71
1
72
1
41
1
210
0
220
0
230
1
3
Standard
100
AcDbAlignedDimension
13
-48
23
-8
33
0
14
85
24
0
34
0
50
0
100
AcDbRotatedDimension
1001
ACAD
1000
DSTYLE
1002
{
1070
   371
1070
    13
1070
   372
1070
    13
1070
   170
1070
     0
1070
   144
1040
1.0
1070
   277
1070
     2
1070
   278
1070
    44
1070
   146
1040
1.0
1070
   345
1005
16
1070
   347
1005
16
1070
   346
1005
16
1070
   344
1005
0
1070
   343
1005
0
1070
   172
1070
     1
1070
    76
1070
     0
1070
    75
1070
     0
1070
   282
1070
     0
1070
   281
1070
     0
1070
    71
1070
     0
1070
    74
1070
     0
1070
   279
1070
     0
1070
   173
1070
     1
1070
   340
1005
ED
1070
   271
1070
     2
1070
   272
1070
     2
1070
    77
1070
     1
1070
    73
1070
     1
1070
   171
1070
     3
1070
   274
1070
     4
1070
   177
1070
    35
1070
   176
1070
    35
1070
   178
1070
    35
1070
    48
1040
-0.1
1070
    41
1040
3.5
1070
   147
1040
1.75
1070
    42
1040
1.5875
1070
    44
1040
2.0
1070
   140
1040
3.5
1002
}
1001
ACAD_DSTYLE_DIM_LINETYPE
1070
   380
1005
16
1001
ACAD_DSTYLE_DIM_EXT1_LINETYPE
1070
   381
1005
16
1001
ACAD_DSTYLE_DIM_EXT2_LINETYPE
1070
   382
1005
16
0
DIMENSION
5
136
100
AcDbEntity
8
SK2
62
256
6
ByLayer
370
13
48
1
60
0
100
AcDbDimension
2
_U2
10
85
20
18.884119
30
0
11
50.775
21
18.884119
31
0
70
32
71
1
72
1
41
1
210
0
220
0
230
1
3
Standard
100
AcDbAlignedDimension
13
16.55
23
7.275
33
0
14
85
24
0
34
0
50
0
100
AcDbRotatedDimension
1001
ACAD
1000
DSTYLE
1002
{
1070
   371
1070
    13
1070
   372
1070
    13
1070
   170
1070
     0
1070
   144
1040
1.0
1070
   277
1070
     2
1070
   278
1070
    44
1070
   146
1040
1.0
1070
   345
1005
16
1070
   347
1005
16
1070
   346
1005
16
1070
   344
1005
0
1070
   343
1005
0
1070
   172
1070
     1
1070
    76
1070
     0
1070
    75
1070
     0
1070
   282
1070
     0
1070
   281
1070
     0
1070
    71
1070
     0
1070
    74
1070
     0
1070
   279
1070
     0
1070
   173
1070
     1
1070
   340
1005
ED
1070
   271
1070
     2
1070
   272
1070
     2
1070
    77
1070
     1
1070
    73
1070
     1
1070
   171
1070
     3
1070
   274
1070
     4
1070
   177
1070
    35
1070
   176
1070
    35
1070
   178
1070
    35
1070
    48
1040
-0.1
1070
    41
1040
3.5
1070
   147
1040
1.75
1070
    42
1040
1.5875
1070
    44
1040
2.0
1070
   140
1040
3.5
1002
}
1001
ACAD_DSTYLE_DIM_LINETYPE
1070
   380
1005
16
1001
ACAD_DSTYLE_DIM_EXT1_LINETYPE
1070
   381
1005
16
1001
ACAD_DSTYLE_DIM_EXT2_LINETYPE
1070
   382
1005
16
0
DIMENSION
5
14E
100
AcDbEntity
8
SK2
62
256
6
ByLayer
370
13
48
1
60
0
100
AcDbDimension
2
_U3
10
82.8303
20
-20.077503
30
0
11
102.583333
21
-20.077503
31
0
70
32
71
1
72
1
41
1
210
0
220
0
230
1
3
Standard
100
AcDbAlignedDimension
13
85
23
0
33
0
14
82.8303
24
-7.275
34
0
50
0
100
AcDbRotatedDimension
1001
ACAD
1000
DSTYLE
1002
{
1070
   371
1070
    13
1070
   372
1070
    13
1070
   170
1070
     0
1070
   144
1040
1.0
1070
   277
1070
     2
1070
   278
1070
    44
1070
   146
1040
1.0
1070
   345
1005
16
1070
   347
1005
16
1070
   346
1005
16
1070
   344
1005
0
1070
   343
1005
0
1070
   172
1070
     1
1070
    76
1070
     0
1070
    75
1070
     0
1070
   282
1070
     0
1070
   281
1070
     0
1070
    71
1070
     0
1070
    74
1070
     0
1070
   279
1070
     0
1070
   173
1070
     1
1070
   340
1005
ED
1070
   271
1070
     2
1070
   272
1070
     2
1070
    77
1070
     1
1070
    73
1070
     1
1070
   171
1070
     3
1070
   274
1070
     4
1070
   177
1070
    35
1070
   176
1070
    35
1070
   178
1070
    35
1070
    48
1040
-0.1
1070
    41
1040
3.5
1070
   147
1040
1.75
1070
    42
1040
1.5875
1070
    44
1040
2.0
1070
   140
1040
3.5
1002
}
1001
ACAD_DSTYLE_DIM_LINETYPE
1070
   380
1005
16
1001
ACAD_DSTYLE_DIM_EXT1_LINETYPE
1070
   381
1005
16
1001
ACAD_DSTYLE_DIM_EXT2_LINETYPE
1070
   382
1005
16
0
DIMENSION
5
168
100
AcDbEntity
8
SK2
62
256
6
ByLayer
370
13
48
1
60
0
100
AcDbDimension
2
_U4
10
82.8303
20
-26.343428
30
0
11
17.41515
21
-26.343428
31
0
70
32
71
1
72
1
41
1
210
0
220
0
230
1
3
Standard
100
AcDbAlignedDimension
13
-48
23
-8
33
0
14
82.8303
24
-7.275
34
0
50
0
100
AcDbRotatedDimension
1001
ACAD
1000
DSTYLE
1002
{
1070
   371
1070
    13
1070
   372
1070
    13
1070
   170
1070
     0
1070
   144
1040
1.0
1070
   277
1070
     2
1070
   278
1070
    44
1070
   146
1040
1.0
1070
   345
1005
16
1070
   347
1005
16
1070
   346
1005
16
1070
   344
1005
0
1070
   343
1005
0
1070
   172
1070
     1
1070
    76
1070
     0
1070
    75
1070
     0
1070
   282
1070
     0
1070
   281
1070
     0
1070
    71
1070
     0
1070
    74
1070
     0
1070
   279
1070
     0
1070
   173
1070
     1
1070
   340
1005
ED
1070
   271
1070
     2
1070
   272
1070
     2
1070
    77
1070
     1
1070
    73
1070
     1
1070
   171
1070
     3
1070
   274
1070
     4
1070
   177
1070
    35
1070
   176
1070
    35
1070
   178
1070
    35
1070
    48
1040
-0.1
1070
    41
1040
3.5
1070
   147
1040
1.75
1070
    42
1040
1.5875
1070
    44
1040
2.0
1070
   140
1040
3.5
1002
}
1001
ACAD_DSTYLE_DIM_LINETYPE
1070
   380
1005
16
1001
ACAD_DSTYLE_DIM_EXT1_LINETYPE
1070
   381
1005
16
1001
ACAD_DSTYLE_DIM_EXT2_LINETYPE
1070
   382
1005
16
0
ENDSEC
0
SECTION
2
OBJECTS
0
DICTIONARY
5
1f0
330
0
100
AcDbDictionary
280
0
281
1
3
ACAD_GROUP
350
1f1
3
ACAD_MLINESTYLE
350
1f2
0
DICTIONARY
5
1f1
330
0
100
AcDbDictionary
280
0
281
1
0
DICTIONARY
5
1f2
330
0
100
AcDbDictionary
280
0
281
1
3
Standard
350
18
0
MLINESTYLE
5
18
330
1f2
100
AcDbMlineStyle
2
Standard
70
0
3

62
256
51
90
52
90
71
2
49
-0.5
62
256
6
ByLayer
49
0.5
62
256
6
ByLayer
0
RASTERVARIABLES
5
1de
330

100
AcDbRasterVariables
90
0
70
1
71
1
72
1
0
ENDSEC
0
EOF
