0
SECTION
2
HEADER
9
$ACADVER
1
AC1015
9
$DWGCODEPAGE
3
ANSI_1252
9
$HANDSEED
5
1fc
9
$ANGBASE
50
0
9
$ANGDIR
70
0
9
$ATTMODE
70
1
9
$AUNITS
70
0
9
$AUPREC
70
0
9
$CECOLOR
62
256
9
$CELTSCALE
40
1
9
$CELTYPE
6
ByLayer
9
$CELWEIGHT
370
18
9
$CLAYER
8
0
9
$CMLJUST
70
0
9
$CMLSCALE
40
1
9
$CMLSTYLE
2
Standard
9
$DIMSTYLE
2
Standard
9
$TEXTSIZE
40
0.2
9
$TEXTSTYLE
7
Standard
9
$LUNITS
70
2
9
$LUPREC
70
4
9
$EXTNAMES
290
1
9
$INSUNITS
70
4
9
$LTSCALE
40
1
9
$LWDISPLAY
290
1
9
$PDMODE
70
0
9
$PDSIZE
40
0
9
$PLINEGEN
70
0
0
ENDSEC
0
SECTION
2
CLASSES
0
CLASS
1
RASTERVARIABLES
2
AcDbRasterVariables
3
ISM
90
0
280
0
281
0
0
ENDSEC
0
SECTION
2
TABLES
0
TABLE
2
VPORT
5
1f2
100
AcDbSymbolTable
0
VPORT
5
1
100
AcDbSymbolTableRecord
100
AcDbViewportTableRecord
2
*Active
70
0
10
0
20
0
11
1
21
1
12
-1
22
1
13
0
23
0
14
0.5
24
0.5
15
10
25
10
16
0
26
0
36
1
17
0
27
0
37
0
0
ENDTAB
0
TABLE
2
LTYPE
5
1f3
100
AcDbSymbolTable
0
LTYPE
5
14
100
AcDbSymbolTableRecord
100
AcDbLinetypeTableRecord
70
0
2
ByBlock
3

72
65
73
0
40
0
0
LTYPE
5
15
100
AcDbSymbolTableRecord
100
AcDbLinetypeTableRecord
70
0
2
ByLayer
3

72
65
73
0
40
0
0
LTYPE
5
16
100
AcDbSymbolTableRecord
100
AcDbLinetypeTableRecord
70
0
2
Continuous
3
Solid line
72
65
73
0
40
0
0
LTYPE
5
6E
100
AcDbSymbolTableRecord
100
AcDbLinetypeTableRecord
70
0
2
CENTER
3
____ _ ____ _ ____ _ ____
72
65
73
4
40
47.5
49
22
74
0
49
-8.5
74
0
49
8.5
74
0
49
-8.5
74
0
0
LTYPE
5
6F
100
AcDbSymbolTableRecord
100
AcDbLinetypeTableRecord
70
0
2
DASHED
3
__ __ __ __ __ __ __ __ __
72
65
73
2
40
25.72
49
12.86
74
0
49
-12.86
74
0
0
ENDTAB
0
TABLE
2
LAYER
5
1f4
100
AcDbSymbolTable
0
LAYER
5
10
100
AcDbSymbolTableRecord
100
AcDbLayerTableRecord
2
0
70
0
62
7
6
Continuous
290
1
370
-3
390
0
0
LAYER
5
71
100
AcDbSymbolTableRecord
100
AcDbLayerTableRecord
2
80
70
0
62
-6
6
Continuous
290
1
370
-3
390
0
0
LAYER
5
73
100
AcDbSymbolTableRecord
100
AcDbLayerTableRecord
2
81
70
0
62
-3
6
Continuous
290
1
370
-3
390
0
0
LAYER
5
75
100
AcDbSymbolTableRecord
100
AcDbLayerTableRecord
2
1
70
0
62
4
6
Continuous
290
1
370
-3
390
0
0
LAYER
5
8C
100
AcDbSymbolTableRecord
100
AcDbLayerTableRecord
2
4
70
0
62
-2
6
CENTER
290
1
370
-3
390
0
0
LAYER
5
A5
100
AcDbSymbolTableRecord
100
AcDbLayerTableRecord
2
2
70
0
62
7
6
Continuous
290
1
370
-3
390
0
0
LAYER
5
107
100
AcDbSymbolTableRecord
100
AcDbLayerTableRecord
2
Defpoints
70
0
62
7
6
Continuous
290
0
370
-3
390
0
0
LAYER
5
1de
100
AcDbSymbolTableRecord
100
AcDbLayerTableRecord
2
SK1
70
0
62
4
6
Continuous
290
1
370
-3
390
0
0
LAYER
5
1df
100
AcDbSymbolTableRecord
100
AcDbLayerTableRecord
2
SK4
70
0
62
2
6
CENTER
290
1
370
-3
390
0
0
LAYER
5
1e0
100
AcDbSymbolTableRecord
100
AcDbLayerTableRecord
2
SK2
70
0
62
7
6
Continuous
290
1
370
-3
390
0
0
LAYER
5
1e1
100
AcDbSymbolTableRecord
100
AcDbLayerTableRecord
2
SK6
70
0
62
5
6
Continuous
290
1
370
-3
390
0
0
ENDTAB
0
TABLE
2
STYLE
5
1f5
100
AcDbSymbolTable
0
STYLE
5
11
100
AcDbSymbolTableRecord
100
AcDbTextStyleTableRecord
2
Standard
3
txt
70
0
71
0
40
0
41
1
42
0
50
0
0
STYLE
5
EC
100
AcDbSymbolTableRecord
100
AcDbTextStyleTableRecord
2
iso_b_vert
3
simplex.shx
70
0
71
0
40
0
41
1
42
0
50
0
0
STYLE
5
ED
100
AcDbSymbolTableRecord
100
AcDbTextStyleTableRecord
2
DWGDirectTextStyle
3
simplex
70
0
71
0
40
0
41
1
42
0
50
0
0
ENDTAB
0
TABLE
2
DIMSTYLE
5
1f6
100
AcDbSymbolTable
100
AcDbDimStyleTable
0
DIMSTYLE
105
27
100
AcDbSymbolTableRecord
100
AcDbDimStyleTableRecord
2
Standard
70
0
3
<>
41
0.18
42
0.0625
44
0.18
140
0.18
147
0.09
73
0
74
0
77
1
271
2
275
0
278
52
280
0
340
11
0
ENDTAB
0
TABLE
2
VIEW
5
1f7
100
AcDbSymbolTable
0
ENDTAB
0
TABLE
2
UCS
5
1f8
100
AcDbSymbolTable
0
ENDTAB
0
TABLE
2
APPID
5
1f9
100
AcDbSymbolTable
0
APPID
5
12
100
AcDbSymbolTableRecord
100
AcDbRegAppTableRecord
2
ACAD
70
0
0
APPID
5
103
100
AcDbSymbolTableRecord
100
AcDbRegAppTableRecord
2
ACAD_DSTYLE_DIMBREAK
70
0
0
APPID
5
19D
100
AcDbSymbolTableRecord
100
AcDbRegAppTableRecord
2
ACAD_DSTYLE_DIM_LINETYPE
70
0
0
APPID
5
19E
100
AcDbSymbolTableRecord
100
AcDbRegAppTableRecord
2
ACAD_DSTYLE_DIM_EXT1_LINETYPE
70
0
0
APPID
5
19F
100
AcDbSymbolTableRecord
100
AcDbRegAppTableRecord
2
ACAD_DSTYLE_DIM_EXT2_LINETYPE
70
0
0
APPID
5
1DA
100
AcDbSymbolTableRecord
100
AcDbRegAppTableRecord
2
ACAD_MLEADERVER
70
0
0
ENDTAB
0
TABLE
2
BLOCK_RECORD
5
1fa
100
AcDbSymbolTable
0
BLOCK_RECORD
5
1F
100
AcDbSymbolTableRecord
100
AcDbBlockTableRecord
2
*Model_Space
340
0
70
0
0
BLOCK_RECORD
5
1B
100
AcDbSymbolTableRecord
100
AcDbBlockTableRecord
2
*Paper_Space
340
0
70
0
0
BLOCK_RECORD
5
23
100
AcDbSymbolTableRecord
100
AcDbBlockTableRecord
2
*Paper_Space0
340
0
70
0
0
BLOCK_RECORD
5
108
100
AcDbSymbolTableRecord
100
AcDbBlockTableRecord
2
*D1
340
0
70
0
0
BLOCK_RECORD
5
114
100
AcDbSymbolTableRecord
100
AcDbBlockTableRecord
2
_U0
340
0
70
0
0
BLOCK_RECORD
5
120
100
AcDbSymbolTableRecord
100
AcDbBlockTableRecord
2
*D3
340
0
70
0
0
BLOCK_RECORD
5
12C
100
AcDbSymbolTableRecord
100
AcDbBlockTableRecord
2
_U1
340
0
70
0
0
BLOCK_RECORD
5
138
100
AcDbSymbolTableRecord
100
AcDbBlockTableRecord
2
*D5
340
0
70
0
0
BLOCK_RECORD
5
144
100
AcDbSymbolTableRecord
100
AcDbBlockTableRecord
2
_U2
340
0
70
0
0
BLOCK_RECORD
5
150
100
AcDbSymbolTableRecord
100
AcDbBlockTableRecord
2
*D7
340
0
70
0
0
BLOCK_RECORD
5
15E
100
AcDbSymbolTableRecord
100
AcDbBlockTableRecord
2
_U3
340
0
70
0
0
BLOCK_RECORD
5
16A
100
AcDbSymbolTableRecord
100
AcDbBlockTableRecord
2
*D9
340
0
70
0
0
BLOCK_RECORD
5
176
100
AcDbSymbolTableRecord
100
AcDbBlockTableRecord
2
_U4
340
0
70
0
0
ENDTAB
0
ENDSEC
0
SECTION
2
BLOCKS
0
BLOCK
5
20
100
AcDbEntity
8
0
100
AcDbBlockBegin
2
*Model_Space
70
0
10
0
20
0
30
0
3
*Model_Space
0
ENDBLK
5
21
100
AcDbEntity
8
0
100
AcDbBlockEnd
0
BLOCK
5
1C
100
AcDbEntity
8
0
100
AcDbBlockBegin
2
*Paper_Space
70
0
10
0
20
0
30
0
3
*Paper_Space
0
ENDBLK
5
1D
100
AcDbEntity
8
0
100
AcDbBlockEnd
0
BLOCK
5
24
100
AcDbEntity
8
0
100
AcDbBlockBegin
2
*Paper_Space0
70
0
10
0
20
0
30
0
3
*Paper_Space0
0
ENDBLK
5
25
100
AcDbEntity
8
0
100
AcDbBlockEnd
0
BLOCK
5
109
100
AcDbEntity
8
0
100
AcDbBlockBegin
2
*D1
70
1
10
0
20
0
30
0
3
*D1
0
LINE
5
10B
100
AcDbEntity
8
0
62
256
6
ByLayer
370
-2
48
1
60
0
100
AcDbLine
10
0
20
-1.5875
30
0
11
0
21
-18.613398
31
0
39
0
210
0
220
0
230
1
0
LINE
5
10C
100
AcDbEntity
8
0
62
256
6
ByLayer
370
-2
48
1
60
0
100
AcDbLine
10
77.094
20
-7.9875
30
0
11
77.094
21
-18.613398
31
0
39
0
210
0
220
0
230
1
0
LINE
5
10D
100
AcDbEntity
8
0
62
256
6
ByLayer
370
-2
48
1
60
0
100
AcDbLine
10
3.5
20
-16.613398
30
0
11
73.594
21
-16.613398
31
0
39
0
210
0
220
0
230
1
0
SOLID
5
10E
100
AcDbEntity
8
0
62
256
6
ByLayer
370
-1
48
1
60
0
100
AcDbTrace
10
3.5
20
-16.030065
30
0
11
3.5
21
-17.196732
31
0
12
0
22
-16.613398
32
0
13
0
23
-16.613398
33
0
39
0
210
0
220
0
230
1
0
SOLID
5
10F
100
AcDbEntity
8
0
62
256
6
ByLayer
370
-1
48
1
60
0
100
AcDbTrace
10
73.594
20
-17.196732
30
0
11
73.594
21
-16.030065
31
0
12
77.094
22
-16.613398
32
0
13
77.094
23
-16.613398
33
0
39
0
210
0
220
0
230
1
0
MTEXT
5
110
100
AcDbEntity
8
0
62
256
6
ByLayer
370
18
48
1
60
0
100
AcDbMText
10
38.547
20
-9.613398
30
0
210
0
220
0
230
1
1
\A1;77.09
40
3.5
41
0
44
1
50
0
71
5
72
5
7
iso_b_vert
0
POINT
5
111
100
AcDbEntity
8
Defpoints
62
0
6
ByLayer
370
-1
48
1
60
0
100
AcDbPoint
10
0
20
0
30
0
39
0
210
0
220
0
230
1
50
360
0
POINT
5
112
100
AcDbEntity
8
Defpoints
62
0
6
ByLayer
370
-1
48
1
60
0
100
AcDbPoint
10
77.094
20
-6.4
30
0
39
0
210
0
220
0
230
1
50
360
0
POINT
5
113
100
AcDbEntity
8
Defpoints
62
0
6
ByLayer
370
-1
48
1
60
0
100
AcDbPoint
10
77.094
20
-16.613398
30
0
39
0
210
0
220
0
230
1
50
360
0
ENDBLK
5
10A
100
AcDbEntity
8
0
100
AcDbBlockEnd
0
BLOCK
5
11B
100
AcDbEntity
8
0
100
AcDbBlockBegin
2
_U0
70
0
10
0
20
0
30
0
3
_U0
0
MTEXT
5
115
100
AcDbEntity
8
SK2
62
256
6
ByLayer
370
13
48
1
60
0
100
AcDbMText
10
33.409701
20
-15.580765
30
0
210
0
220
0
230
1
1
\W0.7402;77,09
40
3.5
41
0
44
1.084337
50
0
71
7
72
5
7
iso_b_vert
0
LINE
5
116
100
AcDbEntity
8
SK2
62
256
6
ByLayer
370
13
48
1
60
0
100
AcDbLine
10
0
20
-1.5875
30
0
11
0
21
-18.613398
31
0
39
0
210
0
220
0
230
1
0
LINE
5
117
100
AcDbEntity
8
SK2
62
256
6
ByLayer
370
13
48
1
60
0
100
AcDbLine
10
77.094
20
-7.9875
30
0
11
77.094
21
-18.613398
31
0
39
0
210
0
220
0
230
1
0
LINE
5
118
100
AcDbEntity
8
SK2
62
256
6
ByLayer
370
13
48
1
60
0
100
AcDbLine
10
0
20
-16.613398
30
0
11
77.094
21
-16.613398
31
0
39
0
210
0
220
0
230
1
0
SOLID
5
119
100
AcDbEntity
8
SK2
62
256
6
ByLayer
370
18
48
1
60
0
100
AcDbTrace
10
0
20
-16.613398
30
0
11
3.499998
21
-16.152615
31
0
12
3.500002
22
-17.074182
32
0
13
3.500002
23
-17.074182
33
0
39
0
210
0
220
0
230
1
0
SOLID
5
11A
100
AcDbEntity
8
SK2
62
256
6
ByLayer
370
18
48
1
60
0
100
AcDbTrace
10
77.094
20
-16.613398
30
0
11
73.594002
21
-17.074182
31
0
12
73.593998
22
-16.152615
32
0
13
73.593998
23
-16.152615
33
0
39
0
210
0
220
0
230
1
0
ENDBLK
5
11C
100
AcDbEntity
8
0
100
AcDbBlockEnd
0
BLOCK
5
121
100
AcDbEntity
8
0
100
AcDbBlockBegin
2
*D3
70
1
10
0
20
0
30
0
3
*D3
0
LINE
5
123
100
AcDbEntity
8
0
62
256
6
ByLayer
370
-2
48
1
60
0
100
AcDbLine
10
-45
20
-8.5875
30
0
11
-45
21
-37.692985
31
0
39
0
210
0
220
0
230
1
0
LINE
5
124
100
AcDbEntity
8
0
62
256
6
ByLayer
370
-2
48
1
60
0
100
AcDbLine
10
79
20
-1.5875
30
0
11
79
21
-37.692985
31
0
39
0
210
0
220
0
230
1
0
LINE
5
125
100
AcDbEntity
8
0
62
256
6
ByLayer
370
-2
48
1
60
0
100
AcDbLine
10
-41.5
20
-35.692985
30
0
11
75.5
21
-35.692985
31
0
39
0
210
0
220
0
230
1
0
SOLID
5
126
100
AcDbEntity
8
0
62
256
6
ByLayer
370
-1
48
1
60
0
100
AcDbTrace
10
-41.5
20
-35.109652
30
0
11
-41.5
21
-36.276319
31
0
12
-45
22
-35.692985
32
0
13
-45
23
-35.692985
33
0
39
0
210
0
220
0
230
1
0
SOLID
5
127
100
AcDbEntity
8
0
62
256
6
ByLayer
370
-1
48
1
60
0
100
AcDbTrace
10
75.5
20
-36.276319
30
0
11
75.5
21
-35.109652
31
0
12
79
22
-35.692985
32
0
13
79
23
-35.692985
33
0
39
0
210
0
220
0
230
1
0
MTEXT
5
128
100
AcDbEntity
8
0
62
256
6
ByLayer
370
18
48
1
60
0
100
AcDbMText
10
17
20
-28.692985
30
0
210
0
220
0
230
1
1
\A1;124.00
40
3.5
41
0
44
1
50
0
71
5
72
5
7
iso_b_vert
0
POINT
5
129
100
AcDbEntity
8
Defpoints
62
0
6
ByLayer
370
-1
48
1
60
0
100
AcDbPoint
10
-45
20
-7
30
0
39
0
210
0
220
0
230
1
50
360
0
POINT
5
12A
100
AcDbEntity
8
Defpoints
62
0
6
ByLayer
370
-1
48
1
60
0
100
AcDbPoint
10
79
20
0
30
0
39
0
210
0
220
0
230
1
50
360
0
POINT
5
12B
100
AcDbEntity
8
Defpoints
62
0
6
ByLayer
370
-1
48
1
60
0
100
AcDbPoint
10
79
20
-35.692985
30
0
39
0
210
0
220
0
230
1
50
360
0
ENDBLK
5
122
100
AcDbEntity
8
0
100
AcDbBlockEnd
0
BLOCK
5
133
100
AcDbEntity
8
0
100
AcDbBlockBegin
2
_U1
70
0
10
0
20
0
30
0
3
_U1
0
MTEXT
5
12D
100
AcDbEntity
8
SK2
62
256
6
ByLayer
370
13
48
1
60
0
100
AcDbMText
10
10.808135
20
-34.660352
30
0
210
0
220
0
230
1
1
\W0.7145;124,00
40
3.5
41
0
44
1.084337
50
0
71
7
72
5
7
iso_b_vert
0
LINE
5
12E
100
AcDbEntity
8
SK2
62
256
6
ByLayer
370
13
48
1
60
0
100
AcDbLine
10
-45
20
-8.5875
30
0
11
-45
21
-37.692985
31
0
39
0
210
0
220
0
230
1
0
LINE
5
12F
100
AcDbEntity
8
SK2
62
256
6
ByLayer
370
13
48
1
60
0
100
AcDbLine
10
79
20
-1.5875
30
0
11
79
21
-37.692985
31
0
39
0
210
0
220
0
230
1
0
LINE
5
130
100
AcDbEntity
8
SK2
62
256
6
ByLayer
370
13
48
1
60
0
100
AcDbLine
10
-45
20
-35.692985
30
0
11
79
21
-35.692985
31
0
39
0
210
0
220
0
230
1
0
SOLID
5
131
100
AcDbEntity
8
SK2
62
256
6
ByLayer
370
18
48
1
60
0
100
AcDbTrace
10
-45
20
-35.692985
30
0
11
-41.500002
21
-35.232202
31
0
12
-41.499998
22
-36.153769
32
0
13
-41.499998
23
-36.153769
33
0
39
0
210
0
220
0
230
1
0
SOLID
5
132
100
AcDbEntity
8
SK2
62
256
6
ByLayer
370
18
48
1
60
0
100
AcDbTrace
10
79
20
-35.692985
30
0
11
75.500002
21
-36.153769
31
0
12
75.499998
22
-35.232202
32
0
13
75.499998
23
-35.232202
33
0
39
0
210
0
220
0
230
1
0
ENDBLK
5
134
100
AcDbEntity
8
0
100
AcDbBlockEnd
0
BLOCK
5
139
100
AcDbEntity
8
0
100
AcDbBlockBegin
2
*D5
70
1
10
0
20
0
30
0
3
*D5
0
LINE
5
13B
100
AcDbEntity
8
0
62
256
6
ByLayer
370
-2
48
1
60
0
100
AcDbLine
10
17.36
20
7.9875
30
0
11
17.36
21
20.009119
31
0
39
0
210
0
220
0
230
1
0
LINE
5
13C
100
AcDbEntity
8
0
62
256
6
ByLayer
370
-2
48
1
60
0
100
AcDbLine
10
79
20
1.5875
30
0
11
79
21
20.009119
31
0
39
0
210
0
220
0
230
1
0
LINE
5
13D
100
AcDbEntity
8
0
62
256
6
ByLayer
370
-2
48
1
60
0
100
AcDbLine
10
20.86
20
18.009119
30
0
11
75.5
21
18.009119
31
0
39
0
210
0
220
0
230
1
0
SOLID
5
13E
100
AcDbEntity
8
0
62
256
6
ByLayer
370
-1
48
1
60
0
100
AcDbTrace
10
20.86
20
18.592453
30
0
11
20.86
21
17.425786
31
0
12
17.36
22
18.009119
32
0
13
17.36
23
18.009119
33
0
39
0
210
0
220
0
230
1
0
SOLID
5
13F
100
AcDbEntity
8
0
62
256
6
ByLayer
370
-1
48
1
60
0
100
AcDbTrace
10
75.5
20
17.425786
30
0
11
75.5
21
18.592453
31
0
12
79
22
18.009119
32
0
13
79
23
18.009119
33
0
39
0
210
0
220
0
230
1
0
MTEXT
5
140
100
AcDbEntity
8
0
62
256
6
ByLayer
370
18
48
1
60
0
100
AcDbMText
10
48.18
20
25.009119
30
0
210
0
220
0
230
1
1
\A1;61.64
40
3.5
41
0
44
1
50
0
71
5
72
5
7
iso_b_vert
0
POINT
5
141
100
AcDbEntity
8
Defpoints
62
0
6
ByLayer
370
-1
48
1
60
0
100
AcDbPoint
10
17.36
20
6.4
30
0
39
0
210
0
220
0
230
1
50
360
0
POINT
5
142
100
AcDbEntity
8
Defpoints
62
0
6
ByLayer
370
-1
48
1
60
0
100
AcDbPoint
10
79
20
0
30
0
39
0
210
0
220
0
230
1
50
360
0
POINT
5
143
100
AcDbEntity
8
Defpoints
62
0
6
ByLayer
370
-1
48
1
60
0
100
AcDbPoint
10
79
20
18.009119
30
0
39
0
210
0
220
0
230
1
50
360
0
ENDBLK
5
13A
100
AcDbEntity
8
0
100
AcDbBlockEnd
0
BLOCK
5
14B
100
AcDbEntity
8
0
100
AcDbBlockBegin
2
_U2
70
0
10
0
20
0
30
0
3
_U2
0
MTEXT
5
145
100
AcDbEntity
8
SK2
62
256
6
ByLayer
370
13
48
1
60
0
100
AcDbMText
10
43.295868
20
19.041753
30
0
210
0
220
0
230
1
1
\W0.6898;61,64
40
3.5
41
0
44
1.084337
50
0
71
7
72
5
7
iso_b_vert
0
LINE
5
146
100
AcDbEntity
8
SK2
62
256
6
ByLayer
370
13
48
1
60
0
100
AcDbLine
10
17.36
20
7.9875
30
0
11
17.36
21
20.009119
31
0
39
0
210
0
220
0
230
1
0
LINE
5
147
100
AcDbEntity
8
SK2
62
256
6
ByLayer
370
13
48
1
60
0
100
AcDbLine
10
79
20
1.5875
30
0
11
79
21
20.009119
31
0
39
0
210
0
220
0
230
1
0
LINE
5
148
100
AcDbEntity
8
SK2
62
256
6
ByLayer
370
13
48
1
60
0
100
AcDbLine
10
17.36
20
18.009119
30
0
11
79
21
18.009119
31
0
39
0
210
0
220
0
230
1
0
SOLID
5
149
100
AcDbEntity
8
SK2
62
256
6
ByLayer
370
18
48
1
60
0
100
AcDbTrace
10
17.36
20
18.009119
30
0
11
20.859998
21
18.469903
31
0
12
20.860002
22
17.548335
32
0
13
20.860002
23
17.548335
33
0
39
0
210
0
220
0
230
1
0
SOLID
5
14A
100
AcDbEntity
8
SK2
62
256
6
ByLayer
370
18
48
1
60
0
100
AcDbTrace
10
79
20
18.009119
30
0
11
75.500002
21
17.548335
31
0
12
75.499998
22
18.469903
32
0
13
75.499998
23
18.469903
33
0
39
0
210
0
220
0
230
1
0
ENDBLK
5
14C
100
AcDbEntity
8
0
100
AcDbBlockEnd
0
BLOCK
5
151
100
AcDbEntity
8
0
100
AcDbBlockBegin
2
*D7
70
1
10
0
20
0
30
0
3
*D7
0
LINE
5
153
100
AcDbEntity
8
0
62
256
6
ByLayer
370
-2
48
1
60
0
100
AcDbLine
10
79
20
-1.5875
30
0
11
79
21
-21.202503
31
0
39
0
210
0
220
0
230
1
0
LINE
5
154
100
AcDbEntity
8
0
62
256
6
ByLayer
370
-2
48
1
60
0
100
AcDbLine
10
77.094
20
-7.9875
30
0
11
77.094
21
-21.202503
31
0
39
0
210
0
220
0
230
1
0
LINE
5
155
100
AcDbEntity
8
0
62
256
6
ByLayer
370
-2
48
1
60
0
100
AcDbLine
10
79
20
-19.202503
30
0
11
105.666667
21
-19.202503
31
0
39
0
210
0
220
0
230
1
0
LINE
5
156
100
AcDbEntity
8
0
62
256
6
ByLayer
370
-2
48
1
60
0
100
AcDbLine
10
82.5
20
-19.202503
30
0
11
86
21
-19.202503
31
0
39
0
210
0
220
0
230
1
0
LINE
5
157
100
AcDbEntity
8
0
62
256
6
ByLayer
370
-2
48
1
60
0
100
AcDbLine
10
73.594
20
-19.202503
30
0
11
70.094
21
-19.202503
31
0
39
0
210
0
220
0
230
1
0
SOLID
5
158
100
AcDbEntity
8
0
62
256
6
ByLayer
370
-1
48
1
60
0
100
AcDbTrace
10
82.5
20
-18.61917
30
0
11
82.5
21
-19.785837
31
0
12
79
22
-19.202503
32
0
13
79
23
-19.202503
33
0
39
0
210
0
220
0
230
1
0
SOLID
5
159
100
AcDbEntity
8
0
62
256
6
ByLayer
370
-1
48
1
60
0
100
AcDbTrace
10
73.594
20
-19.785837
30
0
11
73.594
21
-18.61917
31
0
12
77.094
22
-19.202503
32
0
13
77.094
23
-19.202503
33
0
39
0
210
0
220
0
230
1
0
MTEXT
5
15A
100
AcDbEntity
8
0
62
256
6
ByLayer
370
18
48
1
60
0
100
AcDbMText
10
95.833333
20
-12.202503
30
0
210
0
220
0
230
1
1
\A1;1.91
40
3.5
41
0
44
1
50
0
71
5
72
5
7
iso_b_vert
0
POINT
5
15B
100
AcDbEntity
8
Defpoints
62
0
6
ByLayer
370
-1
48
1
60
0
100
AcDbPoint
10
79
20
0
30
0
39
0
210
0
220
0
230
1
50
360
0
POINT
5
15C
100
AcDbEntity
8
Defpoints
62
0
6
ByLayer
370
-1
48
1
60
0
100
AcDbPoint
10
77.094
20
-6.4
30
0
39
0
210
0
220
0
230
1
50
360
0
POINT
5
15D
100
AcDbEntity
8
Defpoints
62
0
6
ByLayer
370
-1
48
1
60
0
100
AcDbPoint
10
77.094
20
-19.202503
30
0
39
0
210
0
220
0
230
1
50
360
0
ENDBLK
5
152
100
AcDbEntity
8
0
100
AcDbBlockEnd
0
BLOCK
5
165
100
AcDbEntity
8
0
100
AcDbBlockBegin
2
_U3
70
0
10
0
20
0
30
0
3
_U3
0
MTEXT
5
15F
100
AcDbEntity
8
SK2
62
256
6
ByLayer
370
13
48
1
60
0
100
AcDbMText
10
86.026726
20
-18.16987
30
0
210
0
220
0
230
1
1
\W0.6132;1,91
40
3.5
41
0
44
1.084337
50
0
71
7
72
5
7
iso_b_vert
0
LINE
5
160
100
AcDbEntity
8
SK2
62
256
6
ByLayer
370
13
48
1
60
0
100
AcDbLine
10
79
20
-1.5875
30
0
11
79
21
-21.202503
31
0
39
0
210
0
220
0
230
1
0
LINE
5
161
100
AcDbEntity
8
SK2
62
256
6
ByLayer
370
13
48
1
60
0
100
AcDbLine
10
77.094
20
-7.9875
30
0
11
77.094
21
-21.202503
31
0
39
0
210
0
220
0
230
1
0
LINE
5
162
100
AcDbEntity
8
SK2
62
256
6
ByLayer
370
13
48
1
60
0
100
AcDbLine
10
68.344
20
-19.202503
30
0
11
92.121624
21
-19.202503
31
0
39
0
210
0
220
0
230
1
0
SOLID
5
163
100
AcDbEntity
8
SK2
62
256
6
ByLayer
370
18
48
1
60
0
100
AcDbTrace
10
79
20
-19.202503
30
0
11
82.499998
21
-18.741719
31
0
12
82.500002
22
-19.663287
32
0
13
82.500002
23
-19.663287
33
0
39
0
210
0
220
0
230
1
0
SOLID
5
164
100
AcDbEntity
8
SK2
62
256
6
ByLayer
370
18
48
1
60
0
100
AcDbTrace
10
77.094
20
-19.202503
30
0
11
73.594002
21
-19.663287
31
0
12
73.593998
22
-18.741719
32
0
13
73.593998
23
-18.741719
33
0
39
0
210
0
220
0
230
1
0
ENDBLK
5
166
100
AcDbEntity
8
0
100
AcDbBlockEnd
0
BLOCK
5
16B
100
AcDbEntity
8
0
100
AcDbBlockBegin
2
*D9
70
1
10
0
20
0
30
0
3
*D9
0
LINE
5
16D
100
AcDbEntity
8
0
62
256
6
ByLayer
370
-2
48
1
60
0
100
AcDbLine
10
-45
20
-8.5875
30
0
11
-45
21
-27.343428
31
0
39
0
210
0
220
0
230
1
0
LINE
5
16E
100
AcDbEntity
8
0
62
256
6
ByLayer
370
-2
48
1
60
0
100
AcDbLine
10
77.094
20
-7.9875
30
0
11
77.094
21
-27.343428
31
0
39
0
210
0
220
0
230
1
0
LINE
5
16F
100
AcDbEntity
8
0
62
256
6
ByLayer
370
-2
48
1
60
0
100
AcDbLine
10
-41.5
20
-25.343428
30
0
11
73.594
21
-25.343428
31
0
39
0
210
0
220
0
230
1
0
SOLID
5
170
100
AcDbEntity
8
0
62
256
6
ByLayer
370
-1
48
1
60
0
100
AcDbTrace
10
-41.5
20
-24.760095
30
0
11
-41.5
21
-25.926762
31
0
12
-45
22
-25.343428
32
0
13
-45
23
-25.343428
33
0
39
0
210
0
220
0
230
1
0
SOLID
5
171
100
AcDbEntity
8
0
62
256
6
ByLayer
370
-1
48
1
60
0
100
AcDbTrace
10
73.594
20
-25.926762
30
0
11
73.594
21
-24.760095
31
0
12
77.094
22
-25.343428
32
0
13
77.094
23
-25.343428
33
0
39
0
210
0
220
0
230
1
0
MTEXT
5
172
100
AcDbEntity
8
0
62
256
6
ByLayer
370
18
48
1
60
0
100
AcDbMText
10
16.047
20
-18.343428
30
0
210
0
220
0
230
1
1
\A1;122.09
40
3.5
41
0
44
1
50
0
71
5
72
5
7
iso_b_vert
0
POINT
5
173
100
AcDbEntity
8
Defpoints
62
0
6
ByLayer
370
-1
48
1
60
0
100
AcDbPoint
10
-45
20
-7
30
0
39
0
210
0
220
0
230
1
50
360
0
POINT
5
174
100
AcDbEntity
8
Defpoints
62
0
6
ByLayer
370
-1
48
1
60
0
100
AcDbPoint
10
77.094
20
-6.4
30
0
39
0
210
0
220
0
230
1
50
360
0
POINT
5
175
100
AcDbEntity
8
Defpoints
62
0
6
ByLayer
370
-1
48
1
60
0
100
AcDbPoint
10
77.094
20
-25.343428
30
0
39
0
210
0
220
0
230
1
50
360
0
ENDBLK
5
16C
100
AcDbEntity
8
0
100
AcDbBlockEnd
0
BLOCK
5
17D
100
AcDbEntity
8
0
100
AcDbBlockBegin
2
_U4
70
0
10
0
20
0
30
0
3
_U4
0
MTEXT
5
177
100
AcDbEntity
8
SK2
62
256
6
ByLayer
370
13
48
1
60
0
100
AcDbMText
10
10.039401
20
-24.310795
30
0
210
0
220
0
230
1
1
\W0.6996;122,09
40
3.5
41
0
44
1.084337
50
0
71
7
72
5
7
iso_b_vert
0
LINE
5
178
100
AcDbEntity
8
SK2
62
256
6
ByLayer
370
13
48
1
60
0
100
AcDbLine
10
-45
20
-8.5875
30
0
11
-45
21
-27.343428
31
0
39
0
210
0
220
0
230
1
0
LINE
5
179
100
AcDbEntity
8
SK2
62
256
6
ByLayer
370
13
48
1
60
0
100
AcDbLine
10
77.094
20
-7.9875
30
0
11
77.094
21
-27.343428
31
0
39
0
210
0
220
0
230
1
0
LINE
5
17A
100
AcDbEntity
8
SK2
62
256
6
ByLayer
370
13
48
1
60
0
100
AcDbLine
10
-45
20
-25.343428
30
0
11
77.094
21
-25.343428
31
0
39
0
210
0
220
0
230
1
0
SOLID
5
17B
100
AcDbEntity
8
SK2
62
256
6
ByLayer
370
18
48
1
60
0
100
AcDbTrace
10
-45
20
-25.343428
30
0
11
-41.500002
21
-24.882645
31
0
12
-41.499998
22
-25.804212
32
0
13
-41.499998
23
-25.804212
33
0
39
0
210
0
220
0
230
1
0
SOLID
5
17C
100
AcDbEntity
8
SK2
62
256
6
ByLayer
370
18
48
1
60
0
100
AcDbTrace
10
77.094
20
-25.343428
30
0
11
73.594002
21
-25.804212
31
0
12
73.593998
22
-24.882645
32
0
13
73.593998
23
-24.882645
33
0
39
0
210
0
220
0
230
1
0
ENDBLK
5
17E
100
AcDbEntity
8
0
100
AcDbBlockEnd
0
ENDSEC
0
SECTION
2
ENTITIES
0
ARC
5
AE
100
AcDbEntity
8
1
62
256
6
ByLayer
370
18
48
1
60
0
100
AcDbCircle
39
0
10
1.285494
20
-7.152631
30
0
40
0.799999999999999
210
0
220
0
230
1
100
AcDbArc
50
89.96419
51
143.459261
0
ARC
5
AF
100
AcDbEntity
8
1
62
256
6
ByLayer
370
18
48
1
60
0
100
AcDbCircle
39
0
10
1.285494
20
7.152631
30
0
40
0.799999999999999
210
0
220
0
230
1
100
AcDbArc
50
216.540739
51
270.03581
0
ARC
5
B0
100
AcDbEntity
8
1
62
256
6
ByLayer
370
18
48
1
60
0
100
AcDbCircle
39
0
10
0
20
-6.2
30
0
40
0.799999999999998
210
0
220
0
230
1
100
AcDbArc
50
270
51
323.459261
0
ARC
5
B1
100
AcDbEntity
8
1
62
256
6
ByLayer
370
18
48
1
60
0
100
AcDbCircle
39
0
10
0
20
6.2
30
0
40
0.799999999999998
210
0
220
0
230
1
100
AcDbArc
50
36.540739
51
90
0
ELLIPSE
5
B2
100
AcDbEntity
8
1
62
256
6
ByLayer
370
18
48
1
60
0
100
AcDbEllipse
10
4.25
20
-6.284961
30
0
11
-0.25
21
3.06151588455594E-17
31
0
210
0
220
0
230
1
40
0.999999
41
-1.56176311413599
42
-0.00320070567318037
0
ELLIPSE
5
B3
100
AcDbEntity
8
1
62
256
6
ByLayer
370
18
48
1
60
0
100
AcDbEllipse
10
4.25
20
6.284961
30
0
11
-0.25
21
3.06151588455594E-17
31
0
210
0
220
0
230
1
40
0.999999
41
0.00320070567338998
42
1.58461839999187
0
POINT
5
70
100
AcDbEntity
8
80
62
256
6
ByLayer
370
18
48
1
60
0
100
AcDbPoint
10
0
20
0
30
0
39
0
210
0
220
0
230
1
50
360
0
POINT
5
72
100
AcDbEntity
8
81
62
256
6
ByLayer
370
18
48
1
60
0
100
AcDbPoint
10
79
20
0
30
0
39
0
210
0
220
0
230
1
50
360
0
POINT
5
74
100
AcDbEntity
8
1
62
256
6
ByLayer
370
18
48
1
60
1
100
AcDbPoint
10
77.094
20
-6.4
30
0
39
0
210
0
220
0
230
1
50
360
0
POINT
5
76
100
AcDbEntity
8
1
62
256
6
ByLayer
370
18
48
1
60
1
100
AcDbPoint
10
-45
20
-7
30
0
39
0
210
0
220
0
230
1
50
360
0
POINT
5
77
100
AcDbEntity
8
1
62
256
6
ByLayer
370
18
48
1
60
1
100
AcDbPoint
10
17.36
20
6.4
30
0
39
0
210
0
220
0
230
1
50
360
0
POINT
5
78
100
AcDbEntity
8
1
62
256
6
ByLayer
370
18
48
1
60
1
100
AcDbPoint
10
77.094
20
-6.4
30
0
39
0
210
0
220
0
230
1
50
360
0
POINT
5
79
100
AcDbEntity
8
1
62
256
6
ByLayer
370
18
48
1
60
1
100
AcDbPoint
10
-45
20
-7
30
0
39
0
210
0
220
0
230
1
50
360
0
POINT
5
7A
100
AcDbEntity
8
1
62
256
6
ByLayer
370
18
48
1
60
1
100
AcDbPoint
10
77.094
20
-6.4
30
0
39
0
210
0
220
0
230
1
50
360
0
SPLINE
5
B4
100
AcDbEntity
8
SK1
62
256
6
ByLayer
370
18
48
1
60
0
100
AcDbSpline
70
4
71
3
72
8
73
4
40
0
40
0
40
0
40
0
40
1
40
1
40
1
40
1
41
1
10
-44
20
-0.0596074223839196
30
0
41
1
10
-44.3340983440457
20
0.0141681396393096
30
0
41
1
10
-44.6675873444711
20
0.0880697075677972
30
0
41
1
10
-45
20
0.162193852394751
30
0
0
SPLINE
5
B5
100
AcDbEntity
8
SK1
62
256
6
ByLayer
370
18
48
1
60
0
100
AcDbSpline
70
4
71
3
72
12
73
8
40
0
40
0
40
0
40
0
40
0.250000000000002
40
0.250000000000002
40
0.500000000000004
40
0.500000000000004
40
1
40
1
40
1
40
1
41
1
10
-43.9
20
-0.183614382435025
30
0
41
1
10
-43.9
20
-0.166725020536291
30
0
41
1
10
-43.9042016956282
20
-0.150064476712345
30
0
41
1
10
-43.9170234176167
20
-0.121184606061831
30
0
41
1
10
-43.9254954864758
20
-0.108873221149992
30
0
41
1
10
-43.9538426693661
20
-0.0778403365115423
30
0
41
1
10
-43.9765304760167
20
-0.0647899602597874
30
0
41
1
10
-44
20
-0.0596074223839196
30
0
0
SPLINE
5
B6
100
AcDbEntity
8
SK1
62
256
6
ByLayer
370
18
48
1
60
0
100
AcDbSpline
70
4
71
3
72
8
73
4
40
0
40
0
40
0
40
0
40
1
40
1
40
1
40
1
41
1
10
-45
20
-2.27875458144607
30
0
41
1
10
-44.6675849673748
20
-2.35287925633776
30
0
41
1
10
-44.3340963588756
20
-2.42678073256656
30
0
41
1
10
-44
20
-2.50055585622474
30
0
0
SPLINE
5
B7
100
AcDbEntity
8
SK1
62
256
6
ByLayer
370
18
48
1
60
0
100
AcDbSpline
70
4
71
3
72
8
73
4
40
0
40
0
40
0
40
0
40
1
40
1
40
1
40
1
41
1
10
-44.2692230325735
20
9.72866699271E-05
30
0
41
1
10
-44.5132691705921
20
-0.0539059153638846
30
0
41
1
10
-44.7569223624905
20
-0.107990374557005
30
0
41
1
10
-45
20
-0.162193852394779
30
0
0
SPLINE
5
B8
100
AcDbEntity
8
SK1
62
256
6
ByLayer
370
18
48
1
60
0
100
AcDbSpline
70
4
71
3
72
12
73
8
40
0
40
0
40
0
40
0
40
0.500000000000001
40
0.500000000000001
40
0.75
40
0.75
40
1
40
1
40
1
40
1
41
1
10
-44
20
-2.50055585622476
30
0
41
1
10
-43.9765248032774
20
-2.50573964675436
30
0
41
1
10
-43.9537853574511
20
-2.50336578776495
30
0
41
1
10
-43.9256353788013
20
-2.48713973241374
30
0
41
1
10
-43.9170526356788
20
-2.47938653756287
30
0
41
1
10
-43.9042470853815
20
-2.45842110368966
30
0
41
1
10
-43.9
20
-2.44479029298839
30
0
41
1
10
-43.9
20
-2.42928694156856
30
0
0
SPLINE
5
B9
100
AcDbEntity
8
1
62
256
6
ByLayer
370
18
48
1
60
0
100
AcDbSpline
70
4
71
3
72
48
73
44
40
0
40
0
40
0
40
0
40
0.0749978327593224
40
0.0749978327593224
40
0.13819812684575
40
0.13819812684575
40
0.201398420932177
40
0.201398420932177
40
0.327799009105031
40
0.327799009105031
40
0.454199597277886
40
0.454199597277886
40
0.517399891364313
40
0.517399891364313
40
0.549000038407526
40
0.549000038407526
40
0.564800111929133
40
0.564800111929133
40
0.572700148689937
40
0.572700148689937
40
0.576650167070338
40
0.576650167070338
40
0.58060018545074
40
0.58060018545074
40
0.584550203831141
40
0.584550203831141
40
0.588500222211543
40
0.588500222211543
40
0.596400258972347
40
0.596400258972347
40
0.612200332493953
40
0.612200332493953
40
0.643800479537166
40
0.643800479537166
40
0.707000773623593
40
0.707000773623593
40
0.833401361796447
40
0.833401361796447
40
0.896601655882873
40
0.896601655882873
40
0.9598019499693
40
0.9598019499693
40
1
40
1
40
1
40
1
41
1
10
15.2460707103727
20
0.950351533249147
30
0
41
1
10
15.2460707103727
20
0.927942943292067
30
0
41
1
10
15.2460707103727
20
0.893003842297901
30
0
41
1
10
15.2460707103727
20
0.806335026671093
30
0
41
1
10
15.2460707103727
20
0.758064535003285
30
0
41
1
10
15.2460707103727
20
0.644256369749712
30
0
41
1
10
15.2460707103727
20
0.578432688999527
30
0
41
1
10
15.2460707103727
20
0.358988812641485
30
0
41
1
10
15.2460707103727
20
0.182805920298279
30
0
41
1
10
15.2460707103727
20
-0.225071046988489
30
0
41
1
10
15.2460707103727
20
-0.456793357419343
30
0
41
1
10
15.2460707103727
20
-0.845908132007253
30
0
41
1
10
15.2460707103727
20
-0.982462410989456
30
0
41
1
10
15.2460707103727
20
-1.1956796508353
30
0
41
1
10
15.2460707103727
20
-1.26822800013033
30
0
41
1
10
15.2460707103727
20
-1.37925458280282
30
0
41
1
10
15.2460707103727
20
-1.41663385714355
30
0
41
1
10
15.2460707103727
20
-1.47321723848114
30
0
41
1
10
15.2460707103727
20
-1.49216549028407
30
0
41
1
10
15.2460707103727
20
-1.52071837048794
30
0
41
1
10
15.2460707103593
20
-1.53015000001673
30
0
41
1
10
15.2460707103593
20
-1.54950339760646
30
0
41
1
10
15.2460707103727
20
-1.5602400150286
30
0
41
1
10
15.2460707103727
20
-1.58357003313068
30
0
41
1
10
15.2460707103727
20
-1.59635540021478
30
0
41
1
10
15.2460707103727
20
-1.62254938582217
30
0
41
1
10
15.2460707103728
20
-1.63622813337139
30
0
41
1
10
15.2460707103728
20
-1.67756459477442
30
0
41
1
10
15.2460707103727
20
-1.70513607544069
30
0
41
1
10
15.2460707103727
20
-1.78789214440292
30
0
41
1
10
15.2460707103728
20
-1.84312833681687
30
0
41
1
10
15.2460707103728
20
-2.00893295220854
30
0
41
1
10
15.2460707103727
20
-2.11954377782985
30
0
41
1
10
15.2460707103727
20
-2.4516012821519
30
0
41
1
10
15.2460707103727
20
-2.67346122294879
30
0
41
1
10
15.2460707103727
20
-3.33878443179816
30
0
41
1
10
15.2460707103727
20
-3.77628695593091
30
0
41
1
10
15.2460707103727
20
-4.42322618553874
30
0
41
1
10
15.2460707103727
20
-4.63731240279213
30
0
41
1
10
15.2460707103727
20
-5.0622167370941
30
0
41
1
10
15.2460707103727
20
-5.27391111450331
30
0
41
1
10
15.2460707103727
20
-5.61202540595147
30
0
41
1
10
15.2460707103727
20
-5.74163976032739
30
0
41
1
10
15.2460707103727
20
-5.86939174637698
30
0
0
SPLINE
5
BA
100
AcDbEntity
8
1
62
256
6
ByLayer
370
18
48
1
60
0
100
AcDbSpline
70
4
71
3
72
18
73
14
40
0
40
0
40
0
40
0
40
0.25
40
0.25
40
0.5
40
0.5
40
0.625
40
0.625
40
0.75
40
0.75
40
0.875
40
0.875
40
1
40
1
40
1
40
1
41
1
10
3.99999978181816
20
-1.68529833342947
30
0
41
1
10
3.99999978181816
20
-1.65263825245705
30
0
41
1
10
4.00412965162235
20
-1.6217411011672
30
0
41
1
10
4.0250217785634
20
-1.56557350662212
30
0
41
1
10
4.04251968205583
20
-1.54058001294311
30
0
41
1
10
4.08022488171915
20
-1.52017792446244
30
0
41
1
10
4.09500374313012
20
-1.51619245937624
30
0
41
1
10
4.12600665730628
20
-1.51511882375178
30
0
41
1
10
4.14261111033503
20
-1.51794184240978
30
0
41
1
10
4.17516190525114
20
-1.52869379751337
30
0
41
1
10
4.19137445403229
20
-1.53662864355311
30
0
41
1
10
4.22212632350096
20
-1.55530731784708
30
0
41
1
10
4.2369246607887
20
-1.56614738941758
30
0
41
1
10
4.2512913612014
20
-1.578120049419
30
0
0
SPLINE
5
BB
100
AcDbEntity
8
1
62
256
6
ByLayer
370
18
48
1
60
0
100
AcDbSpline
70
4
71
3
72
8
73
4
40
0
40
0
40
0
40
0
40
1
40
1
40
1
40
1
41
1
10
78.95046398452
20
-0.0806900233272927
30
0
41
1
10
78.5788239290653
20
-0.688856013489641
30
0
41
1
10
78.216571436095
20
-1.30555509797668
30
0
41
1
10
77.8638481116166
20
-1.93091599363262
30
0
0
SPLINE
5
BC
100
AcDbEntity
8
1
62
256
6
ByLayer
370
18
48
1
60
0
100
AcDbSpline
70
4
71
3
72
8
73
4
40
0
40
0
40
0
40
0
40
1
40
1
40
1
40
1
41
1
10
76.7461186579229
20
6.39176290086803
30
0
41
1
10
76.5428115153763
20
6.39701345175706
30
0
41
1
10
76.3394031897117
20
6.39955201311668
30
0
41
1
10
76.1359643433736
20
6.39939085695212
30
0
0
SPLINE
5
BD
100
AcDbEntity
8
1
62
256
6
ByLayer
370
18
48
1
60
0
100
AcDbSpline
70
4
71
3
72
50
73
46
40
0
40
0
40
0
40
0
40
0.0341992063468911
40
0.0341992063468911
40
0.0945617559502092
40
0.0945617559502092
40
0.124743030751869
40
0.124743030751869
40
0.154924305553528
40
0.154924305553528
40
0.215286855156848
40
0.215286855156848
40
0.245468129958508
40
0.245468129958508
40
0.275649404760168
40
0.275649404760168
40
0.336011954363487
40
0.336011954363487
40
0.366193229165147
40
0.366193229165147
40
0.396374503966806
40
0.396374503966806
40
0.456737053570125
40
0.456737053570125
40
0.486918328371785
40
0.486918328371785
40
0.517099603173444
40
0.517099603173444
40
0.577462152776763
40
0.577462152776763
40
0.637824702380083
40
0.637824702380083
40
0.698187251983402
40
0.698187251983402
40
0.728368526785061
40
0.728368526785061
40
0.758549801586721
40
0.758549801586721
40
0.818912351190041
40
0.818912351190041
40
0.849093625991701
40
0.849093625991701
40
0.879274900793361
40
0.879274900793361
40
1
40
1
40
1
40
1
41
1
10
41.7644224793965
20
-6.07848418712996
30
0
41
1
10
41.3355846425825
20
-6.14650855266254
30
0
41
1
10
40.9063866174945
20
-6.20319534327931
30
0
41
1
10
39.717922758787
20
-6.32750160668752
30
0
41
1
10
38.9618551397812
20
-6.36987869740759
30
0
41
1
10
37.8273633731708
20
-6.37765168402922
30
0
41
1
10
37.4491210788814
20
-6.37094640658981
30
0
41
1
10
36.6917932841237
20
-6.33892229630527
30
0
41
1
10
36.3122757430104
20
-6.31355583176054
30
0
41
1
10
35.1748421744963
20
-6.20988610394303
30
0
41
1
10
34.4188931636846
20
-6.10417657818772
30
0
41
1
10
33.2841742309538
20
-5.89331172665752
30
0
41
1
10
32.9058043466048
20
-5.81430868355764
30
0
41
1
10
32.1481084261272
20
-5.63931618296559
30
0
41
1
10
31.7683631340325
20
-5.54320740997616
30
0
41
1
10
30.6314061150565
20
-5.23157618769716
30
0
41
1
10
29.8755130654737
20
-4.99258266828159
30
0
41
1
10
28.740538168465
20
-4.59236086547011
30
0
41
1
10
28.3619921098676
20
-4.45204375294938
30
0
41
1
10
27.6038596146207
20
-4.15831999445308
30
0
41
1
10
27.2241302109913
20
-4.00483865588143
30
0
41
1
10
26.0875091887334
20
-3.52886435373398
30
0
41
1
10
25.331705210214
20
-3.18971135532615
30
0
41
1
10
24.1963815559634
20
-2.65570085744338
30
0
41
1
10
23.8176984938721
20
-2.47343966332292
30
0
41
1
10
23.0591014429035
20
-2.10165628643676
30
0
41
1
10
22.6795522192317
20
-1.91234149770614
30
0
41
1
10
21.5432491526489
20
-1.33819542913224
30
0
41
1
10
20.7874537596682
20
-0.945978692897882
30
0
41
1
10
19.2731815205154
20
-0.154266061531132
30
0
41
1
10
18.5133002499516
20
0.246140958902941
30
0
41
1
10
16.9986916040228
20
1.03650295911783
30
0
41
1
10
16.2427601353704
20
1.42719443544789
30
0
41
1
10
15.1065689573385
20
1.99830981728462
30
0
41
1
10
14.7271618366071
20
2.18632301938322
30
0
41
1
10
13.9682017676821
20
2.55549100781863
30
0
41
1
10
13.5893644954403
20
2.73628095136755
30
0
41
1
10
12.4536195943069
20
3.26534192876204
30
0
41
1
10
11.6975588355204
20
3.60043722837022
30
0
41
1
10
10.5608216646713
20
4.0696612914152
30
0
41
1
10
10.1809343127171
20
4.22071966702015
30
0
41
1
10
9.42266481521142
20
4.50941325948134
30
0
41
1
10
9.0443733208987
20
4.64701497886745
30
0
41
1
10
7.1552372969233
20
5.29918118185216
30
0
41
1
10
5.65176710230549
20
5.7066296316352
30
0
41
1
10
4.13392124676028
20
5.97617423390849
30
0
0
SPLINE
5
BE
100
AcDbEntity
8
1
62
256
6
ByLayer
370
18
48
1
60
0
100
AcDbSpline
70
4
71
3
72
8
73
4
40
0
40
0
40
0
40
0
40
1
40
1
40
1
40
1
41
1
10
78.9259404202577
20
-1.44071574838153
30
0
41
1
10
78.955108200254
20
-1.00475551397574
30
0
41
1
10
78.976170296996
20
-0.569207013878753
30
0
41
1
10
78.9891138037726
20
-0.13407090369671
30
0
0
SPLINE
5
BF
100
AcDbEntity
8
1
62
256
6
ByLayer
370
18
48
1
60
0
100
AcDbSpline
70
4
71
3
72
38
73
34
40
0
40
0
40
0
40
0
40
0.125000000000003
40
0.125000000000003
40
0.250000000000005
40
0.250000000000005
40
0.375000000000008
40
0.375000000000008
40
0.500000000000011
40
0.500000000000011
40
0.625000000000014
40
0.625000000000014
40
0.687500000000017
40
0.687500000000017
40
0.75000000000002
40
0.75000000000002
40
0.812500000000023
40
0.812500000000023
40
0.843750000000027
40
0.843750000000027
40
0.851562500000025
40
0.851562500000025
40
0.859375000000023
40
0.859375000000023
40
0.867187500000022
40
0.867187500000022
40
0.871093750000021
40
0.871093750000021
40
0.87500000000002
40
0.87500000000002
40
0.93750000000001
40
0.93750000000001
40
1
40
1
40
1
40
1
41
1
10
70.7321683915032
20
2.24911319938008
30
0
41
1
10
70.9882767364778
20
2.02360525175624
30
0
41
1
10
71.2512329924801
20
1.81272815415287
30
0
41
1
10
71.7909803789535
20
1.42053275031884
30
0
41
1
10
72.0682857332562
20
1.23945574132716
30
0
41
1
10
72.6366944500916
20
0.910286906693244
30
0
41
1
10
72.9225844519999
20
0.765068916897349
30
0
41
1
10
73.4977476360032
20
0.513502433875885
30
0
41
1
10
73.7870073700634
20
0.406999435624186
30
0
41
1
10
74.3692954976602
20
0.237291723135968
30
0
41
1
10
74.6623739772499
20
0.174662449625856
30
0
41
1
10
75.1053524789004
20
0.119330705298239
30
0
41
1
10
75.2529126092932
20
0.107526824576013
30
0
41
1
10
75.5445048501245
20
0.0984927988929201
30
0
41
1
10
75.6890091139103
20
0.101192716921219
30
0
41
1
10
75.9751952145171
20
0.12235998398836
30
0
41
1
10
76.1171570807954
20
0.140873885970876
30
0
41
1
10
76.326680728657
20
0.181754078889554
30
0
41
1
10
76.3959026335651
20
0.197558309877934
30
0
41
1
10
76.4814753640905
20
0.220153363365256
30
0
41
1
10
76.4985446177083
20
0.224814995484508
30
0
41
1
10
76.5325814193966
20
0.234424605074253
30
0
41
1
10
76.550054372948
20
0.238565566316595
30
0
41
1
10
76.5810153549426
20
0.255038359703462
30
0
41
1
10
76.5944304602017
20
0.267849531159868
30
0
41
1
10
76.6064901685796
20
0.29480336842127
30
0
41
1
10
76.6085033929687
20
0.30490451995297
30
0
41
1
10
76.6111863009613
20
0.325823748619882
30
0
41
1
10
76.6122827889657
20
0.336388705538781
30
0
41
1
10
76.6327130626519
20
0.515215402209321
30
0
41
1
10
76.643357146935
20
0.686578343320576
30
0
41
1
10
76.6505278801521
20
1.03287062777804
30
0
41
1
10
76.6470141175687
20
1.20825889766243
30
0
41
1
10
76.6378122385673
20
1.38327392663069
30
0
0
SPLINE
5
C0
100
AcDbEntity
8
1
62
256
6
ByLayer
370
18
48
1
60
0
100
AcDbSpline
70
4
71
3
72
14
73
10
40
0
40
0
40
0
40
0
40
0.25
40
0.25
40
0.5
40
0.5
40
0.75
40
0.75
40
1
40
1
40
1
40
1
41
1
10
76.8449866357413
20
-6.07500535873095
30
0
41
1
10
76.8483957507049
20
-6.07445032166072
30
0
41
1
10
76.8511582512185
20
-6.07559815547393
30
0
41
1
10
76.8549825827323
20
-6.08235614334501
30
0
41
1
10
76.8559893799135
20
-6.08805222904221
30
0
41
1
10
76.8550811706656
20
-6.10499843534734
30
0
41
1
10
76.8530915045004
20
-6.11626973961614
30
0
41
1
10
76.8461951708535
20
-6.1417710011344
30
0
41
1
10
76.8413586645142
20
-6.15577896642256
30
0
41
1
10
76.8360188588071
20
-6.16905409679535
30
0
0
SPLINE
5
C1
100
AcDbEntity
8
1
62
256
6
ByLayer
370
18
48
1
60
0
100
AcDbSpline
70
4
71
3
72
14
73
10
40
0
40
0
40
0
40
0
40
0.25
40
0.25
40
0.5
40
0.5
40
0.75
40
0.75
40
1
40
1
40
1
40
1
41
1
10
77.0766653887509
20
6.22279033890817
30
0
41
1
10
77.2195793526167
20
5.82109710567502
30
0
41
1
10
77.365768348064
20
5.42006648007828
30
0
41
1
10
77.6639034901647
20
4.61932322839536
30
0
41
1
10
77.8158770735541
20
4.21961619640786
30
0
41
1
10
78.1251088462836
20
3.42153105751632
30
0
41
1
10
78.2825324817355
20
3.02285763687703
30
0
41
1
10
78.6012394634832
20
2.22937663137864
30
0
41
1
10
78.7626172913693
20
1.83431152819054
30
0
41
1
10
78.9259404202588
20
1.44071574837901
30
0
0
SPLINE
5
C2
100
AcDbEntity
8
1
62
256
6
ByLayer
370
18
48
1
60
0
100
AcDbSpline
70
4
71
3
72
44
73
40
40
0
40
0
40
0
40
0
40
0.0926229291552607
40
0.0926229291552607
40
0.138934393732891
40
0.138934393732891
40
0.185245858310521
40
0.185245858310521
40
0.231557322888152
40
0.231557322888152
40
0.277868787465782
40
0.277868787465782
40
0.370491716621043
40
0.370491716621043
40
0.416803181198672
40
0.416803181198672
40
0.463114645776302
40
0.463114645776302
40
0.509426110353931
40
0.509426110353931
40
0.555737574931561
40
0.555737574931561
40
0.602049039509191
40
0.602049039509191
40
0.64836050408682
40
0.64836050408682
40
0.740983433242078
40
0.740983433242078
40
0.833606362397335
40
0.833606362397335
40
0.85676209468615
40
0.85676209468615
40
0.879917826974964
40
0.879917826974964
40
0.926229291552591
40
0.926229291552591
40
0.972540756130219
40
0.972540756130219
40
1
40
1
40
1
40
1
41
1
10
15.2460707103727
20
0.950351533249375
30
0
41
1
10
15.8941610002714
20
0.610737189398606
30
0
41
1
10
16.5409659459959
20
0.274651751601283
30
0
41
1
10
17.5062529311288
20
-0.230755864884543
30
0
41
1
10
17.8267918287101
20
-0.400206863268096
30
0
41
1
10
18.4678451288209
20
-0.736285399448207
30
0
41
1
10
18.788482408842
20
-0.902688696987497
30
0
41
1
10
19.4295365590121
20
-1.23313620344291
30
0
41
1
10
19.7499666890303
20
-1.39715499889056
30
0
41
1
10
20.3901614546617
20
-1.723643174805
30
0
41
1
10
20.7098733055398
20
-1.88619515636094
30
0
41
1
10
21.671867638794
20
-2.36426185121533
30
0
41
1
10
22.3155058069404
20
-2.67309523004326
30
0
41
1
10
23.2824534560825
20
-3.12482099610745
30
0
41
1
10
23.6058309424108
20
-3.27200352635526
30
0
41
1
10
24.2550496359529
20
-3.55899572842745
30
0
41
1
10
24.5797145651743
20
-3.69859934086548
30
0
41
1
10
25.2260997886323
20
-3.96946654536791
30
0
41
1
10
25.547852997817
20
-4.10148809364514
30
0
41
1
10
26.1909205939242
20
-4.35494746549105
30
0
41
1
10
26.5123104159421
20
-4.47633698360988
30
0
41
1
10
27.1543553113966
20
-4.70933436356555
30
0
41
1
10
27.4750343087731
20
-4.82090998031299
30
0
41
1
10
28.1151982203677
20
-5.03476324955781
30
0
41
1
10
28.4347195561541
20
-5.13693308673246
30
0
41
1
10
29.3953801412866
20
-5.42488043102017
30
0
41
1
10
30.037050862462
20
-5.59424515228514
30
0
41
1
10
31.3204852954693
20
-5.88893202197568
30
0
41
1
10
31.9660103771277
20
-6.01101455048635
30
0
41
1
10
32.7764500664176
20
-6.13264498060377
30
0
41
1
10
32.9388319415836
20
-6.15543744671899
30
0
41
1
10
33.2626428572423
20
-6.19771608113342
30
0
41
1
10
33.4242436877419
20
-6.21718256306818
30
0
41
1
10
33.9088637728406
20
-6.27030278102626
30
0
41
1
10
34.231524789488
20
-6.29880121884611
30
0
41
1
10
34.8755679537782
20
-6.34250525739469
30
0
41
1
10
35.1969825942015
20
-6.35770299905982
30
0
41
1
10
35.7075786561512
20
-6.37131506186395
30
0
41
1
10
35.8973728730456
20
-6.37401238546673
30
0
41
1
10
36.0871498209564
20
-6.37435701892932
30
0
0
SPLINE
5
C3
100
AcDbEntity
8
1
62
256
6
ByLayer
370
18
48
1
60
0
100
AcDbSpline
70
4
71
3
72
30
73
26
40
0
40
0
40
0
40
0
40
0.0464081888959722
40
0.0464081888959722
40
0.12587417315464
40
0.12587417315464
40
0.205340157413307
40
0.205340157413307
40
0.284806141671975
40
0.284806141671975
40
0.364272125930643
40
0.364272125930643
40
0.52320409444798
40
0.52320409444798
40
0.60267007870665
40
0.60267007870665
40
0.68213606296532
40
0.68213606296532
40
0.76160204722399
40
0.76160204722399
40
0.84106803148266
40
0.84106803148266
40
0.92053401574133
40
0.92053401574133
40
1
40
1
40
1
40
1
41
1
10
64.9399246313885
20
4.61211222776953
30
0
41
1
10
65.1281570217536
20
4.68069843314692
30
0
41
1
10
65.3162029187263
20
4.7474645646669
30
0
41
1
10
65.825610086861
20
4.92386644174979
30
0
41
1
10
66.1465406678286
20
5.03013098197275
30
0
41
1
10
66.7866443308243
20
5.23284079670438
30
0
41
1
10
67.1064744903887
20
5.32848943239557
30
0
41
1
10
67.7466430884402
20
5.50760420621302
30
0
41
1
10
68.0667602296371
20
5.59132742867084
30
0
41
1
10
68.7066893238475
20
5.74745304881193
30
0
41
1
10
69.0261827511566
20
5.82009375576499
30
0
41
1
10
69.9858773616006
20
6.01925755834154
30
0
41
1
10
70.6286863438906
20
6.12638200200027
30
0
41
1
10
71.5949771244517
20
6.24968570413029
30
0
41
1
10
71.917222701124
20
6.28451467158294
30
0
41
1
10
72.5648640256067
20
6.34029108401279
30
0
41
1
10
72.8895885304182
20
6.3613591469136
30
0
41
1
10
73.5365188466053
20
6.38991371217156
30
0
41
1
10
73.8592739426638
20
6.39744466518681
30
0
41
1
10
74.5030013083971
20
6.39887774303475
30
0
41
1
10
74.8246836909578
20
6.39274755832958
30
0
41
1
10
75.4684660424525
20
6.36717796973431
30
0
41
1
10
75.7903624642277
20
6.34773682428209
30
0
41
1
10
76.4337998694369
20
6.29543818233944
30
0
41
1
10
76.7549811309605
20
6.26241146774981
30
0
41
1
10
77.0766653887614
20
6.22279033887833
30
0
0
SPLINE
5
C4
100
AcDbEntity
8
1
62
256
6
ByLayer
370
18
48
1
60
0
100
AcDbSpline
70
4
71
3
72
8
73
4
40
0
40
0
40
0
40
0
40
1
40
1
40
1
40
1
41
1
10
77.0766653887605
20
-6.22279033887912
30
0
41
1
10
76.9544240792197
20
-6.31446218881462
30
0
41
1
10
76.8444291954745
20
-6.37167819172109
30
0
41
1
10
76.7461186579228
20
-6.39176290086803
30
0
0
SPLINE
5
C5
100
AcDbEntity
8
1
62
256
6
ByLayer
370
18
48
1
60
0
100
AcDbSpline
70
4
71
3
72
8
73
4
40
0
40
0
40
0
40
0
40
1
40
1
40
1
40
1
41
1
10
3.99999978181816
20
-1.76669870144846
30
0
41
1
10
3.99999978181816
20
-1.73968854263691
30
0
41
1
10
3.99999978181813
20
-1.71255457302905
30
0
41
1
10
3.99999978181813
20
-1.68529833342961
30
0
0
SPLINE
5
C6
100
AcDbEntity
8
1
62
256
6
ByLayer
370
18
48
1
60
0
100
AcDbSpline
70
4
71
3
72
12
73
8
40
0
40
0
40
0
40
0
40
0.269551940810938
40
0.269551940810938
40
0.819379137795812
40
0.819379137795812
40
1
40
1
40
1
40
1
41
1
10
38.2353431237391
20
-6.05559439370333
30
0
41
1
10
37.4881219670719
20
-6.05453398258004
30
0
41
1
10
36.7453468545356
20
-6.01897197295807
30
0
41
1
10
34.4959084551958
20
-5.81054615061905
30
0
41
1
10
32.9967835430484
20
-5.5332631544926
30
0
41
1
10
30.9919011722015
20
-5.00257382777181
30
0
41
1
10
30.4950412370897
20
-4.85823958424541
30
0
41
1
10
29.9963557842899
20
-4.7014267767118
30
0
0
SPLINE
5
C7
100
AcDbEntity
8
1
62
256
6
ByLayer
370
13
48
1
60
0
100
AcDbSpline
70
4
71
3
72
18
73
14
40
0
40
0
40
0
40
0
40
0.0520906323224039
40
0.0520906323224039
40
0.203962597601562
40
0.203962597601562
40
0.507706528159876
40
0.507706528159876
40
0.659578493439033
40
0.659578493439033
40
0.81145045871819
40
0.81145045871819
40
1
40
1
40
1
40
1
41
1
10
29.9963557847183
20
-4.70142677684646
30
0
41
1
10
29.7360181064263
20
-4.61956298473311
30
0
41
1
10
29.4751829125365
20
-4.53429835992767
30
0
41
1
10
28.4515243670263
20
-4.18747676994354
30
0
41
1
10
27.6935860816635
20
-3.90442151820867
30
0
41
1
10
25.4288417147702
20
-2.99640712515156
30
0
41
1
10
23.9296003910096
20
-2.31138460226091
30
0
41
1
10
21.6653110030071
20
-1.22218301284474
30
0
41
1
10
20.9081571787841
20
-0.848563544965145
30
0
41
1
10
19.3834840660771
20
-0.0908934329610815
30
0
41
1
10
18.6254007121961
20
0.288435708901176
30
0
41
1
10
16.9331982415482
20
1.12631726104004
30
0
41
1
10
16.0000333130138
20
1.5822696312745
30
0
41
1
10
15.0660757958512
20
2.02050798694492
30
0
0
SPLINE
5
C8
100
AcDbEntity
8
1
62
256
6
ByLayer
370
18
48
1
60
0
100
AcDbSpline
70
4
71
3
72
8
73
4
40
0
40
0
40
0
40
0
40
1
40
1
40
1
40
1
41
1
10
78.9891138037727
20
-0.134070903696596
30
0
41
1
10
78.9898525512415
20
-0.109235617131873
30
0
41
1
10
78.9939114623048
20
-0.0796296343289953
30
0
41
1
10
78.9999658207225
20
-0.0481967173513738
30
0
0
SPLINE
5
C9
100
AcDbEntity
8
1
62
256
6
ByLayer
370
18
48
1
60
0
100
AcDbSpline
70
4
71
3
72
8
73
4
40
0
40
0
40
0
40
0
40
1
40
1
40
1
40
1
41
1
10
77.0766653887601
20
6.22279033887935
30
0
41
1
10
76.9544240792195
20
6.3144621888147
30
0
41
1
10
76.8444291954744
20
6.37167819172109
30
0
41
1
10
76.7461186579228
20
6.39176290086803
30
0
0
SPLINE
5
CA
100
AcDbEntity
8
1
62
256
6
ByLayer
370
18
48
1
60
0
100
AcDbSpline
70
4
71
3
72
56
73
52
40
0
40
0
40
0
40
0
40
0.0292971609800919
40
0.0292971609800919
40
0.0585943219601838
40
0.0585943219601838
40
0.117188643920368
40
0.117188643920368
40
0.14648580490046
40
0.14648580490046
40
0.175782965880552
40
0.175782965880552
40
0.234377287840736
40
0.234377287840736
40
0.29297160980092
40
0.29297160980092
40
0.351565931761104
40
0.351565931761104
40
0.380863092741196
40
0.380863092741196
40
0.410160253721288
40
0.410160253721288
40
0.468754575681471
40
0.468754575681471
40
0.498051736661563
40
0.498051736661563
40
0.527348897641655
40
0.527348897641655
40
0.585943219601839
40
0.585943219601839
40
0.615240380581931
40
0.615240380581931
40
0.644537541562023
40
0.644537541562023
40
0.703131863522207
40
0.703131863522207
40
0.732429024502299
40
0.732429024502299
40
0.761726185482391
40
0.761726185482391
40
0.820320507442577
40
0.820320507442577
40
0.849617668422669
40
0.849617668422669
40
0.878914829402761
40
0.878914829402761
40
0.937509151362947
40
0.937509151362947
40
0.996103473323132
40
0.996103473323132
40
1
40
1
40
1
40
1
41
1
10
76.7461186579228
20
-6.39176290086803
30
0
41
1
10
76.3674004684933
20
-6.40154356622634
30
0
41
1
10
75.988737442952
20
-6.40195014565046
30
0
41
1
10
75.230878001912
20
-6.38404450378158
30
0
41
1
10
74.8516106363032
20
-6.36570529394317
30
0
41
1
10
73.7162579160026
20
-6.28303424775487
30
0
41
1
10
72.961146397314
20
-6.19105993177263
30
0
41
1
10
71.8270271249344
20
-5.99977250745687
30
0
41
1
10
71.4487230628516
20
-5.92713433820171
30
0
41
1
10
70.690825734687
20
-5.76452782911593
30
0
41
1
10
70.3117342114181
20
-5.67461458154432
30
0
41
1
10
69.1768002587773
20
-5.38098890409418
30
0
41
1
10
68.4216961882056
20
-5.1531586912628
30
0
41
1
10
66.9088579073979
20
-4.63963563196486
30
0
41
1
10
66.1498095050636
20
-4.35314308198733
30
0
41
1
10
64.6370287753132
20
-3.73477727245782
30
0
41
1
10
63.8818208325018
20
-3.40276576359148
30
0
41
1
10
62.7466204357137
20
-2.87715546807789
30
0
41
1
10
62.3675037896642
20
-2.69714752365365
30
0
41
1
10
61.6094123344259
20
-2.32974643862963
30
0
41
1
10
61.2310284515699
20
-2.14261449369266
30
0
41
1
10
60.0966575932295
20
-1.57313474776615
30
0
41
1
10
59.3413334322863
20
-1.18292185786976
30
0
41
1
10
58.2056590474147
20
-0.589342299890262
30
0
41
1
10
57.8261979388961
20
-0.389859882388834
30
0
41
1
10
57.068447428474
20
0.0089938629724031
30
0
41
1
10
56.6901425317953
20
0.208410253381771
30
0
41
1
10
55.555873875294
20
0.804602167020221
30
0
41
1
10
54.8003976915272
20
1.19901851505196
30
0
41
1
10
53.6641456587323
20
1.77832781311648
30
0
41
1
10
53.2845884325002
20
1.96953768286937
30
0
41
1
10
52.5271457503791
20
2.34461806966095
30
0
41
1
10
52.1489041867503
20
2.5287188156417
30
0
41
1
10
51.0146496015402
20
3.06904841328051
30
0
41
1
10
50.2589899931534
20
3.41309641333575
30
0
41
1
10
49.1220485885599
20
3.89778954288775
30
0
41
1
10
48.7426002328319
20
4.05406086021824
30
0
41
1
10
47.9854185309991
20
4.35348983338869
30
0
41
1
10
47.6072510632265
20
4.49687141235225
30
0
41
1
10
46.4729994813477
20
4.90669139037925
30
0
41
1
10
45.7170869833822
20
5.15269350000668
30
0
41
1
10
44.579374276198
20
5.47553197399736
30
0
41
1
10
44.200276959741
20
5.57521015301833
30
0
41
1
10
43.4433082422403
20
5.75764198505942
30
0
41
1
10
43.0651776905942
20
5.84047826842627
30
0
41
1
10
41.9308313373801
20
6.06311897947887
30
0
41
1
10
41.1743197300641
20
6.1770590171777
30
0
41
1
10
39.6569237030869
20
6.33183588811633
30
0
41
1
10
38.9008474432488
20
6.37221502389579
30
0
41
1
10
38.0942482713458
20
6.37560959819942
30
0
41
1
10
38.0439527358809
20
6.37565682535177
30
0
41
1
10
37.9936551858343
20
6.37553960125456
30
0
0
SPLINE
5
CB
100
AcDbEntity
8
1
62
256
6
ByLayer
370
18
48
1
60
0
100
AcDbSpline
70
4
71
3
72
8
73
4
40
0
40
0
40
0
40
0
40
1
40
1
40
1
40
1
41
1
10
78.9999658207225
20
0.0481967173512601
30
0
41
1
10
79.0000113952398
20
0.0160640574081867
30
0
41
1
10
79.0000113906333
20
-0.0160673052281197
30
0
41
1
10
78.9999658207225
20
-0.0481967173513453
30
0
0
SPLINE
5
CC
100
AcDbEntity
8
1
62
256
6
ByLayer
370
18
48
1
60
0
100
AcDbSpline
70
4
71
3
72
18
73
14
40
0
40
0
40
0
40
0
40
0.250000000000001
40
0.250000000000001
40
0.375000000000001
40
0.375000000000001
40
0.500000000000001
40
0.500000000000001
40
0.750000000000002
40
0.750000000000002
40
0.875000000000001
40
0.875000000000001
40
1
40
1
40
1
40
1
41
1
10
76.3361016036329
20
-4.81447045431901
30
0
41
1
10
76.3362042164173
20
-5.03235921600455
30
0
41
1
10
76.3465335162514
20
-5.22317321703466
30
0
41
1
10
76.3778251827686
20
-5.46956803844384
30
0
41
1
10
76.3909087898197
20
-5.54502401540626
30
0
41
1
10
76.422713028966
20
-5.68224995197912
30
0
41
1
10
76.4413234980895
20
-5.74340227797438
30
0
41
1
10
76.5047574900253
20
-5.9032531782469
30
0
41
1
10
76.5573285047113
20
-5.97944580019427
30
0
41
1
10
76.6527805650686
20
-6.04924272584111
30
0
41
1
10
76.6874918546763
20
-6.0650699048015
30
0
41
1
10
76.7623334949607
20
-6.08141128165053
30
0
41
1
10
76.8023287068558
20
-6.08195048441127
30
0
41
1
10
76.8449866357681
20
-6.07500535872657
30
0
0
SPLINE
5
CD
100
AcDbEntity
8
1
62
256
6
ByLayer
370
18
48
1
60
0
100
AcDbSpline
70
4
71
3
72
32
73
28
40
0
40
0
40
0
40
0
40
0.150003672254046
40
0.150003672254046
40
0.225005508381069
40
0.225005508381069
40
0.300007344508092
40
0.300007344508092
40
0.375009180635114
40
0.375009180635114
40
0.450011016762137
40
0.450011016762137
40
0.52501285288916
40
0.52501285288916
40
0.600014689016183
40
0.600014689016183
40
0.675016525143206
40
0.675016525143206
40
0.750018361270229
40
0.750018361270229
40
0.825020197397252
40
0.825020197397252
40
0.900022033524274
40
0.900022033524274
40
0.975023869651297
40
0.975023869651297
40
1
40
1
40
1
40
1
41
1
10
15.2460707103727
20
-5.86939174637689
30
0
41
1
10
15.8255028168723
20
-5.93877120588701
30
0
41
1
10
16.4038506434913
20
-5.98662987531253
30
0
41
1
10
17.2701880332987
20
-6.02943938651887
30
0
41
1
10
17.5587605139958
20
-6.03878495382622
30
0
41
1
10
18.1360183674065
20
-6.04668866516044
30
0
41
1
10
18.4248861306839
20
-6.04520265059492
30
0
41
1
10
19.0031202099341
20
-6.03217448194769
30
0
41
1
10
19.2924711646476
20
-6.02075606175868
30
0
41
1
10
19.8716366856267
20
-5.98775730405831
30
0
41
1
10
20.16114341598
20
-5.96599345626808
30
0
41
1
10
20.7392656143874
20
-5.91200227040363
30
0
41
1
10
21.0282535810377
20
-5.87997600445439
30
0
41
1
10
21.6061388967386
20
-5.80713454829754
30
0
41
1
10
21.8949731755957
20
-5.76593013620564
30
0
41
1
10
22.4723608281593
20
-5.67218149438457
30
0
41
1
10
22.7608531451591
20
-5.62000110834893
30
0
41
1
10
23.3384437008237
20
-5.50686995121026
30
0
41
1
10
23.6276224630528
20
-5.44631975184717
30
0
41
1
10
24.2066153289387
20
-5.31600058171818
30
0
41
1
10
24.4965322228286
20
-5.24529503839707
30
0
41
1
10
25.0750358643137
20
-5.09506961681507
30
0
41
1
10
25.3637781474857
20
-5.01538951112553
30
0
41
1
10
25.9413615591467
20
-4.84904413541128
30
0
41
1
10
26.2302470808794
20
-4.76267521227481
30
0
41
1
10
26.6152095571984
20
-4.64094523514459
30
0
41
1
10
26.7113758553746
20
-4.61004473999949
30
0
41
1
10
26.8075416334365
20
-4.57868386162124
30
0
0
SPLINE
5
CE
100
AcDbEntity
8
1
62
256
6
ByLayer
370
18
48
1
60
0
100
AcDbSpline
70
4
71
3
72
32
73
28
40
0
40
0
40
0
40
0
40
0.0171398451729205
40
0.0171398451729205
40
0.078568604849614
40
0.078568604849614
40
0.139997364526308
40
0.139997364526308
40
0.262854883879695
40
0.262854883879695
40
0.324283643556387
40
0.324283643556387
40
0.385712403233079
40
0.385712403233079
40
0.508569922586464
40
0.508569922586464
40
0.631427441939849
40
0.631427441939849
40
0.69285620161654
40
0.69285620161654
40
0.754284961293231
40
0.754284961293231
40
0.877142480646616
40
0.877142480646616
40
0.938571240323308
40
0.938571240323308
40
1
40
1
40
1
40
1
41
1
10
56.6205763896493
20
6.06321947779858
30
0
41
1
10
56.7012271521535
20
6.06208440750157
30
0
41
1
10
56.7818728357715
20
6.06057744684188
30
0
41
1
10
57.1515712235899
20
6.05204372970857
30
0
41
1
10
57.4405676612519
20
6.0410231173436
30
0
41
1
10
58.0180961184872
20
6.00706362641509
30
0
41
1
10
58.306677293533
20
5.984427568303
30
0
41
1
10
59.1722447999983
20
5.90144568518414
30
0
41
1
10
59.7501922875331
20
5.82730542458205
30
0
41
1
10
60.6191777673518
20
5.68464967028524
30
0
41
1
10
60.9085629520192
20
5.6322256927574
30
0
41
1
10
61.4864881397612
20
5.51891773105095
30
0
41
1
10
61.7753542186324
20
5.45841319934647
30
0
41
1
10
62.6418127052755
20
5.26122773876796
30
0
41
1
10
63.2190401231233
20
5.1092774632076
30
0
41
1
10
64.3739233235264
20
4.77091380320706
30
0
41
1
10
64.9538653823678
20
4.58550480145621
30
0
41
1
10
65.8217873897871
20
4.2877465745172
30
0
41
1
10
66.1107405411174
20
4.18496967128604
30
0
41
1
10
66.687967054756
20
3.97126781311442
30
0
41
1
10
66.9765478942821
20
3.86080576893065
30
0
41
1
10
67.8426633380355
20
3.52009560672801
30
0
41
1
10
68.4202653254476
20
3.28023538933132
30
0
41
1
10
69.2876511060956
20
2.9025268967417
30
0
41
1
10
69.5774957756811
20
2.77413836013378
30
0
41
1
10
70.1556507052164
20
2.51435669628213
30
0
41
1
10
70.4442519824707
20
2.38284034371799
30
0
41
1
10
70.7321683915031
20
2.24911319938013
30
0
0
SPLINE
5
CF
100
AcDbEntity
8
1
62
256
6
ByLayer
370
18
48
1
60
0
100
AcDbSpline
70
4
71
3
72
12
73
8
40
0
40
0
40
0
40
0
40
0.25
40
0.25
40
0.5
40
0.5
40
1
40
1
40
1
40
1
41
1
10
77.0766653887534
20
-6.22279033890109
30
0
41
1
10
77.2205780438997
20
-5.81829004946019
30
0
41
1
10
77.3673923788971
20
-5.4156314727239
30
0
41
1
10
77.6661522903838
20
-4.61335738588878
30
0
41
1
10
77.8181225289027
20
-4.21375764632239
30
0
41
1
10
78.2811498230755
20
-3.01893841586451
30
0
41
1
10
78.5993748259336
20
-2.22771291548
30
0
41
1
10
78.9259404202577
20
-1.44071574838153
30
0
0
SPLINE
5
D0
100
AcDbEntity
8
1
62
256
6
ByLayer
370
18
48
1
60
0
100
AcDbSpline
70
4
71
3
72
64
73
60
40
0
40
0
40
0
40
0
40
0.0312500000000017
40
0.0312500000000017
40
0.0625000000000035
40
0.0625000000000035
40
0.0937500000000052
40
0.0937500000000052
40
0.109375000000006
40
0.109375000000006
40
0.125000000000008
40
0.125000000000008
40
0.15625000000001
40
0.15625000000001
40
0.171875000000011
40
0.171875000000011
40
0.187500000000012
40
0.187500000000012
40
0.203125000000014
40
0.203125000000014
40
0.218750000000015
40
0.218750000000015
40
0.234375000000016
40
0.234375000000016
40
0.250000000000017
40
0.250000000000017
40
0.265625000000018
40
0.265625000000018
40
0.28125000000002
40
0.28125000000002
40
0.312500000000022
40
0.312500000000022
40
0.343750000000024
40
0.343750000000024
40
0.351562500000024
40
0.351562500000024
40
0.355468750000024
40
0.355468750000024
40
0.359375000000024
40
0.359375000000024
40
0.363281250000024
40
0.363281250000024
40
0.367187500000023
40
0.367187500000023
40
0.375000000000023
40
0.375000000000023
40
0.43750000000002
40
0.43750000000002
40
0.500000000000018
40
0.500000000000018
40
0.625000000000013
40
0.625000000000013
40
0.750000000000009
40
0.750000000000009
40
0.875000000000004
40
0.875000000000004
40
0.937500000000002
40
0.937500000000002
40
1
40
1
40
1
40
1
41
1
10
3.99999978181739
20
-1.76669870144821
30
0
41
1
10
3.85055030314703
20
-1.65020912881306
30
0
41
1
10
3.70355615496973
20
-1.5297683934987
30
0
41
1
10
3.4159026226605
20
-1.27887996014695
30
0
41
1
10
3.27480470239857
20
-1.14800704652242
30
0
41
1
10
3.00389186384569
20
-0.875651483492447
30
0
41
1
10
2.87399725398777
20
-0.734217437613097
30
0
41
1
10
2.69055853442342
20
-0.511360877194022
30
0
41
1
10
2.63132741131216
20
-0.435277629305034
30
0
41
1
10
2.51747589572719
20
-0.278795647403228
30
0
41
1
10
2.46279024819131
20
-0.198252054918299
30
0
41
1
10
2.30933211634948
20
0.0477338835204932
30
0
41
1
10
2.22018140442421
20
0.218335287677718
30
0
41
1
10
2.1151006576157
20
0.488654216629044
30
0
41
1
10
2.08486443285415
20
0.581613159199776
30
0
41
1
10
2.03762431970472
20
0.768106724486273
30
0
41
1
10
2.02038231493052
20
0.862168377108134
30
0
41
1
10
2.0002144288103
20
1.05214569547678
30
0
41
1
10
1.99740782141885
20
1.14900508486363
30
0
41
1
10
2.00762119410274
20
1.33874947526419
30
0
41
1
10
2.02044501857924
20
1.43183107571235
30
0
41
1
10
2.06101386800646
20
1.61457902638881
30
0
41
1
10
2.08902155024242
20
1.70484130971755
30
0
41
1
10
2.15854313070537
20
1.87926174976184
30
0
41
1
10
2.19954687324247
20
1.96251317960153
30
0
41
1
10
2.29215385699683
20
2.12235850245838
30
0
41
1
10
2.34376377603843
20
2.19894790501982
30
0
41
1
10
2.45619338718305
20
2.3463973682176
30
0
41
1
10
2.51705189738382
20
2.41719816925874
30
0
41
1
10
2.70746984592489
20
2.61803213515168
30
0
41
1
10
2.8460824989217
20
2.73841593565356
30
0
41
1
10
3.13988135479786
20
2.96041829894824
30
0
41
1
10
3.29562967860466
20
3.06219680677302
30
0
41
1
10
3.49658877498246
20
3.17943391476638
30
0
41
1
10
3.5371008908329
20
3.20238320902945
30
0
41
1
10
3.59831959247373
20
3.23611124040147
30
0
41
1
10
3.61880693467086
20
3.24724105095751
30
0
41
1
10
3.6598917450786
20
3.26925740567955
30
0
41
1
10
3.68016994538886
20
3.28073039460327
30
0
41
1
10
3.72441946737092
20
3.29683503164779
30
0
41
1
10
3.74833147778148
20
3.30207265831748
30
0
41
1
10
3.79684599242051
20
3.30898842113251
30
0
41
1
10
3.82115262146544
20
3.31020166248567
30
0
41
1
10
3.89413224791801
20
3.31112974332737
30
0
41
1
10
3.94279520916231
20
3.31129985497546
30
0
41
1
10
4.3807537209166
20
3.31320060638953
30
0
41
1
10
4.77004569811064
20
3.30638504025987
30
0
41
1
10
5.54736232657507
20
3.27614949403392
30
0
41
1
10
5.93603689259101
20
3.25270055448902
30
0
41
1
10
7.09743511862391
20
3.15778018570862
30
0
41
1
10
7.86303289429995
20
3.06196070296863
30
0
41
1
10
9.37831691198681
20
2.80628146298818
30
0
41
1
10
10.1279442239132
20
2.64616304359544
30
0
41
1
10
11.6131089903849
20
2.26263555615566
30
0
41
1
10
12.348638399018
20
2.03914734961867
30
0
41
1
10
13.4436649561191
20
1.66021388432799
30
0
41
1
10
13.8073510166827
20
1.52664120697639
30
0
41
1
10
14.5297101159027
20
1.24738510887116
30
0
41
1
10
14.8887524288257
20
1.10156482652167
30
0
41
1
10
15.2460707103727
20
0.950351533249375
30
0
0
SPLINE
5
D1
100
AcDbEntity
8
1
62
256
6
ByLayer
370
18
48
1
60
0
100
AcDbSpline
70
4
71
3
72
14
73
10
40
0
40
0
40
0
40
0
40
0.25
40
0.25
40
0.5
40
0.5
40
0.75
40
0.75
40
1
40
1
40
1
40
1
41
1
10
76.6378122385673
20
1.38327392663069
30
0
41
1
10
76.6367529476299
20
1.40342109809976
30
0
41
1
10
76.6411574724112
20
1.42380004089128
30
0
41
1
10
76.6616212585157
20
1.45907027151134
30
0
41
1
10
76.6776291116465
20
1.47375545867223
30
0
41
1
10
76.7135321000868
20
1.49457330477992
30
0
41
1
10
76.7337354339724
20
1.50128827153154
30
0
41
1
10
76.7743566563186
20
1.50914048831305
30
0
41
1
10
76.7951952790354
20
1.51041404201237
30
0
41
1
10
76.8159860084461
20
1.50971285090188
30
0
0
SPLINE
5
D2
100
AcDbEntity
8
1
62
256
6
ByLayer
370
18
48
1
60
0
100
AcDbSpline
70
4
71
3
72
48
73
44
40
0
40
0
40
0
40
0
40
0.125000000000005
40
0.125000000000005
40
0.187500000000005
40
0.187500000000005
40
0.250000000000006
40
0.250000000000006
40
0.312500000000006
40
0.312500000000006
40
0.375000000000006
40
0.375000000000006
40
0.406250000000006
40
0.406250000000006
40
0.437500000000007
40
0.437500000000007
40
0.453125000000006
40
0.453125000000006
40
0.468750000000006
40
0.468750000000006
40
0.484375000000006
40
0.484375000000006
40
0.500000000000006
40
0.500000000000006
40
0.515625000000006
40
0.515625000000006
40
0.531250000000006
40
0.531250000000006
40
0.562500000000005
40
0.562500000000005
40
0.625000000000004
40
0.625000000000004
40
0.687500000000004
40
0.687500000000004
40
0.750000000000003
40
0.750000000000003
40
0.812500000000002
40
0.812500000000002
40
0.875000000000001
40
0.875000000000001
40
0.937500000000001
40
0.937500000000001
40
1
40
1
40
1
40
1
41
1
10
77.1519556547419
20
-3.22920491917441
30
0
41
1
10
76.9226769827124
20
-3.16650611036843
30
0
41
1
10
76.6941268132143
20
-3.08271779534778
30
0
41
1
10
76.352432615457
20
-2.92429223430335
30
0
41
1
10
76.2398710296741
20
-2.86642737947608
30
0
41
1
10
76.017960146821
20
-2.73950448478371
30
0
41
1
10
75.9085621436112
20
-2.6704804784695
30
0
41
1
10
75.6937613417228
20
-2.51816316092908
30
0
41
1
10
75.5882314195694
20
-2.43484260525193
30
0
41
1
10
75.3879051976184
20
-2.25054664740125
30
0
41
1
10
75.2917497200175
20
-2.14899342909715
30
0
41
1
10
75.1684558376156
20
-1.97683394858097
30
0
41
1
10
75.1302662671166
20
-1.91502997790243
30
0
41
1
10
75.0692093128071
20
-1.78421997105985
30
0
41
1
10
75.0461772251141
20
-1.71433397048202
30
0
41
1
10
75.0349204436966
20
-1.61026347606941
30
0
41
1
10
75.0351677608375
20
-1.57531642266534
30
0
41
1
10
75.0445283476029
20
-1.51015470079187
30
0
41
1
10
75.0537646078736
20
-1.47904002974062
30
0
41
1
10
75.0792673412847
20
-1.42357134568016
30
0
41
1
10
75.0957501145698
20
-1.39850097001937
30
0
41
1
10
75.1330069565143
20
-1.35474994619295
30
0
41
1
10
75.1537679042443
20
-1.33587161255849
30
0
41
1
10
75.1984379601919
20
-1.30253955482704
30
0
41
1
10
75.2223884859152
20
-1.2881259762884
30
0
41
1
10
75.2714659626932
20
-1.26336076097871
30
0
41
1
10
75.2967672260733
20
-1.25288311396812
30
0
41
1
10
75.3744157451662
20
-1.22580890219399
30
0
41
1
10
75.4288160455787
20
-1.21346517332978
30
0
41
1
10
75.5940144663358
20
-1.18840046748423
30
0
41
1
10
75.7062887111383
20
-1.18703168342293
30
0
41
1
10
75.9331283234718
20
-1.20070342672904
30
0
41
1
10
76.0477539478118
20
-1.2161755209994
30
0
41
1
10
76.2787392758041
20
-1.25953940540515
30
0
41
1
10
76.3941518645852
20
-1.28732957563514
30
0
41
1
10
76.6243928165811
20
-1.35263306385488
30
0
41
1
10
76.7393056402579
20
-1.39019303726297
30
0
41
1
10
76.9687509183179
20
-1.47430368402342
30
0
41
1
10
77.0831856516541
20
-1.52084636249125
30
0
41
1
10
77.3097137971931
20
-1.62220038878493
30
0
41
1
10
77.4220506975436
20
-1.67708721168657
30
0
41
1
10
77.6446475785135
20
-1.7962910743349
30
0
41
1
10
77.754917124826
20
-1.86056468121777
30
0
41
1
10
77.8638481116155
20
-1.93091599363757
30
0
0
SPLINE
5
D3
100
AcDbEntity
8
1
62
256
6
ByLayer
370
18
48
1
60
0
100
AcDbSpline
70
4
71
3
72
104
73
100
40
0
40
0
40
0
40
0
40
0.0236361391376824
40
0.0236361391376824
40
0.0421745525987938
40
0.0421745525987938
40
0.0607129660599051
40
0.0607129660599051
40
0.0792513795210165
40
0.0792513795210165
40
0.0977897929821278
40
0.0977897929821278
40
0.116328206443239
40
0.116328206443239
40
0.134866619904351
40
0.134866619904351
40
0.153405033365462
40
0.153405033365462
40
0.171943446826573
40
0.171943446826573
40
0.209020273748796
40
0.209020273748796
40
0.227558687209907
40
0.227558687209907
40
0.246097100671019
40
0.246097100671019
40
0.26463551413213
40
0.26463551413213
40
0.283173927593241
40
0.283173927593241
40
0.301712341054353
40
0.301712341054353
40
0.320250754515464
40
0.320250754515464
40
0.338789167976575
40
0.338789167976575
40
0.357327581437687
40
0.357327581437687
40
0.394404408359909
40
0.394404408359909
40
0.412942821821021
40
0.412942821821021
40
0.431481235282132
40
0.431481235282132
40
0.450019648743243
40
0.450019648743243
40
0.468558062204355
40
0.468558062204355
40
0.487096475665466
40
0.487096475665466
40
0.505634889126577
40
0.505634889126577
40
0.524173302587689
40
0.524173302587689
40
0.5427117160488
40
0.5427117160488
40
0.561250129509911
40
0.561250129509911
40
0.579788542971023
40
0.579788542971023
40
0.598326956432134
40
0.598326956432134
40
0.616865369893245
40
0.616865369893245
40
0.635403783354357
40
0.635403783354357
40
0.653942196815468
40
0.653942196815468
40
0.672480610276579
40
0.672480610276579
40
0.691019023737691
40
0.691019023737691
40
0.728095850659913
40
0.728095850659913
40
0.746634264121025
40
0.746634264121025
40
0.765172677582136
40
0.765172677582136
40
0.783711091043247
40
0.783711091043247
40
0.802249504504359
40
0.802249504504359
40
0.82078791796547
40
0.82078791796547
40
0.839326331426581
40
0.839326331426581
40
0.876403158348804
40
0.876403158348804
40
0.894941571809915
40
0.894941571809915
40
0.913479985271026
40
0.913479985271026
40
0.932018398732137
40
0.932018398732137
40
0.950556812193248
40
0.950556812193248
40
0.98763363911547
40
0.98763363911547
40
1
40
1
40
1
40
1
41
1
10
64.8974714247007
20
-4.59934022602442
30
0
41
1
10
64.5288542803921
20
-4.71934697654936
30
0
41
1
10
64.1601340382114
20
-4.83361636918093
30
0
41
1
10
63.5019182883134
20
-5.02634616613966
30
0
41
1
10
63.2119374771814
20
-5.10688778379165
30
0
41
1
10
62.6328012250141
20
-5.25835361801808
30
0
41
1
10
62.3434754009384
20
-5.32923635270089
30
0
41
1
10
61.7652335597937
20
-5.4605983806828
30
0
41
1
10
61.4763775738783
20
-5.52099843632644
30
0
41
1
10
60.8988885408979
20
-5.63402059794794
30
0
41
1
10
60.6100370142881
20
-5.68624570612073
30
0
41
1
10
60.03194883177
20
-5.78095295237912
30
0
41
1
10
59.7426856150215
20
-5.82323600043801
30
0
41
1
10
59.1637249583372
20
-5.89760592214159
30
0
41
1
10
58.8739365563156
20
-5.93016713677602
30
0
41
1
10
58.2950040955491
20
-5.98541937984066
30
0
41
1
10
58.0057329034247
20
-6.00795410588333
30
0
41
1
10
57.4273913811751
20
-6.04162701484015
30
0
41
1
10
57.1382872732656
20
-6.05248516217097
30
0
41
1
10
56.2714865201109
20
-6.07207962504833
30
0
41
1
10
55.6946237371733
20
-6.06643092322315
30
0
41
1
10
54.8263103476538
20
-6.02321684825731
30
0
41
1
10
54.5364035612066
20
-6.00383522305913
30
0
41
1
10
53.9568671327044
20
-5.95589721002617
30
0
41
1
10
53.6677026353393
20
-5.92693803660376
30
0
41
1
10
53.0896554189363
20
-5.85829969759817
30
0
41
1
10
52.8006603986341
20
-5.81836630550259
30
0
41
1
10
52.2226803894727
20
-5.72936836965243
30
0
41
1
10
51.9337395598527
20
-5.68070763138655
30
0
41
1
10
51.355936078788
20
-5.57337608508999
30
0
41
1
10
51.0672015139819
20
-5.51464613483697
30
0
41
1
10
50.4889488080648
20
-5.38713182104024
30
0
41
1
10
50.1993792404148
20
-5.31851260731034
30
0
41
1
10
49.6196083492661
20
-5.17358741423303
30
0
41
1
10
49.3299546989613
20
-5.09697906116452
30
0
41
1
10
48.7514799862207
20
-4.93464932188135
30
0
41
1
10
48.4627217632017
20
-4.84867223871379
30
0
41
1
10
47.5962427081501
20
-4.57887700808919
30
0
41
1
10
47.0184407370851
20
-4.38540047021547
30
0
41
1
10
46.1510135385146
20
-4.07085524715356
30
0
41
1
10
45.8618404846989
20
-3.96166308489825
30
0
41
1
10
45.2826371394041
20
-3.73771468122837
30
0
41
1
10
44.992807187401
20
-3.62286113289201
30
0
41
1
10
44.4140065138012
20
-3.38741170096228
30
0
41
1
10
44.1248323059015
20
-3.2667864102485
30
0
41
1
10
43.5469434105551
20
-3.0196069540628
30
0
41
1
10
43.2583667845687
20
-2.89306493050154
30
0
41
1
10
42.6808740162251
20
-2.6361997936595
30
0
41
1
10
42.3919747218461
20
-2.50565223440324
30
0
41
1
10
41.8136545577237
20
-2.24022071556382
30
0
41
1
10
41.5242006118809
20
-2.10531744172153
30
0
41
1
10
40.9450707591343
20
-1.83162664218671
30
0
41
1
10
40.6554217614833
20
-1.69254470192416
30
0
41
1
10
40.0767716256933
20
-1.41294552358315
30
0
41
1
10
39.7876095761766
20
-1.27219668074969
30
0
41
1
10
39.2094244760506
20
-0.989042175831543
30
0
41
1
10
38.9204447404935
20
-0.846672524814124
30
0
41
1
10
38.3428613439737
20
-0.560090287829269
30
0
41
1
10
38.0543408371445
20
-0.415690831501593
30
0
41
1
10
37.4764625011352
20
-0.127236583833792
30
0
41
1
10
37.1871615119524
20
0.0169386139412495
30
0
41
1
10
36.6079996452353
20
0.305266008942226
30
0
41
1
10
36.3179443004456
20
0.449583577237576
30
0
41
1
10
35.7390672814661
20
0.737516615766054
30
0
41
1
10
35.4501766152715
20
0.881220897700388
30
0
41
1
10
34.8722092560307
20
1.16537239994781
30
0
41
1
10
34.583248068631
20
1.30622034828102
30
0
41
1
10
34.0053994546278
20
1.58572151544141
30
0
41
1
10
33.7165300711645
20
1.72440467533335
30
0
41
1
10
33.138824874417
20
1.99905538472908
30
0
41
1
10
32.8499263873269
20
2.13471015296622
30
0
41
1
10
31.9818768375845
20
2.53569432724004
30
0
41
1
10
31.4016183191086
20
2.7963759933771
30
0
41
1
10
30.5346656984504
20
3.16963601199066
30
0
41
1
10
30.2460210747948
20
3.29146269163405
30
0
41
1
10
29.6684328462878
20
3.52945987422922
30
0
41
1
10
29.3795915987232
20
3.64559420760452
30
0
41
1
10
28.8017052829748
20
3.87135243476473
30
0
41
1
10
28.5126233457626
20
3.98067211109236
30
0
41
1
10
27.9342473794849
20
4.19271209579844
30
0
41
1
10
27.6448927685368
20
4.29592453667709
30
0
41
1
10
27.0655175394282
20
4.4947085924702
30
0
41
1
10
26.7760936900953
20
4.59039562121973
30
0
41
1
10
26.1976800750581
20
4.77261127899695
30
0
41
1
10
25.9086592543384
20
4.8587059668117
30
0
41
1
10
25.0424623298644
20
5.10739852722247
30
0
41
1
10
24.4654000230822
20
5.25842138429172
30
0
41
1
10
23.597546455643
20
5.45272831758012
30
0
41
1
10
23.3080657027228
20
5.51311093875466
30
0
41
1
10
22.7289220958253
20
5.62593138802151
30
0
41
1
10
22.4397591877243
20
5.67785153616575
30
0
41
1
10
21.8623753076702
20
5.77080131512491
30
0
41
1
10
21.5740997581139
20
5.81147624870346
30
0
41
1
10
20.9982722006026
20
5.88341727802071
30
0
41
1
10
20.7107492932125
20
5.91495915662574
30
0
41
1
10
19.8494286660015
20
5.99447452069791
30
0
41
1
10
19.2757474205083
20
6.02631213744863
30
0
41
1
10
18.5102213727708
20
6.04318245655091
30
0
41
1
10
18.3187905567473
20
6.0450950516724
30
0
41
1
10
18.1273175119606
20
6.04471245695598
30
0
0
SPLINE
5
D4
100
AcDbEntity
8
1
62
256
6
ByLayer
370
18
48
1
60
0
100
AcDbSpline
70
4
71
3
72
8
73
4
40
0
40
0
40
0
40
0
40
1
40
1
40
1
40
1
41
1
10
77.151955654742
20
-3.22920491917441
30
0
41
1
10
76.8735152513191
20
-3.75172835322698
30
0
41
1
10
76.6015414295662
20
-4.28012977226646
30
0
41
1
10
76.3361016036329
20
-4.81447045431898
30
0
0
SPLINE
5
D5
100
AcDbEntity
8
1
62
256
6
ByLayer
370
18
48
1
60
0
100
AcDbSpline
70
4
71
3
72
14
73
10
40
0
40
0
40
0
40
0
40
0.284050892853995
40
0.284050892853995
40
0.426076339280994
40
0.426076339280994
40
0.568101785707994
40
0.568101785707994
40
1
40
1
40
1
40
1
41
1
10
76.8449866359002
20
-6.07500535872782
30
0
41
1
10
76.0840951741679
20
-6.08994206992909
30
0
41
1
10
75.324519208796
20
-6.06876876200118
30
0
41
1
10
74.1834776183914
20
-5.98368598107629
30
0
41
1
10
73.8022112979322
20
-5.94635925149609
30
0
41
1
10
73.0421021172907
20
-5.8545821476703
30
0
41
1
10
72.6633172106399
20
-5.80018716681622
30
0
41
1
10
71.1364627882111
20
-5.5471942466977
30
0
41
1
10
69.9959513420519
20
-5.28086459040128
30
0
41
1
10
68.854951262488
20
-4.94891521545961
30
0
0
SPLINE
5
D6
100
AcDbEntity
8
1
62
256
6
ByLayer
370
13
48
1
60
0
100
AcDbSpline
70
4
71
3
72
24
73
20
40
0
40
0
40
0
40
0
40
0.0698374493746246
40
0.0698374493746246
40
0.215482538429764
40
0.215482538429764
40
0.288305082957333
40
0.288305082957333
40
0.361127627484903
40
0.361127627484903
40
0.652417805595181
40
0.652417805595181
40
0.79806289465032
40
0.79806289465032
40
0.870885439177888
40
0.870885439177888
40
0.943707983705457
40
0.943707983705457
40
1
40
1
40
1
40
1
41
1
10
68.8549517283466
20
-4.94891535099109
30
0
41
1
10
68.495125390266
20
-4.84423164084967
30
0
41
1
10
68.1352504566227
20
-4.73302190286921
30
0
41
1
10
67.0238411236563
20
-4.37074876572444
30
0
41
1
10
66.2712476195501
20
-4.09885564277278
30
0
41
1
10
65.1364602111279
20
-3.65526946891217
30
0
41
1
10
64.7571763788442
20
-3.50149104245955
30
0
41
1
10
63.9959117496267
20
-3.18304033671348
30
0
41
1
10
63.615436091972
20
-3.01898681490593
30
0
41
1
10
61.7211198706051
20
-2.18165419545991
30
0
41
1
10
60.2230002062984
20
-1.45257311593608
30
0
41
1
10
57.9704617294322
20
-0.33316677579819
30
0
41
1
10
57.2187527796808
20
0.0443150756038619
30
0
41
1
10
56.0862004453263
20
0.609578022577125
30
0
41
1
10
55.7078516517603
20
0.797835407198761
30
0
41
1
10
54.9487046385378
20
1.17239591672811
30
0
41
1
10
54.5670837331164
20
1.35911196491358
30
0
41
1
10
53.8933681170299
20
1.68486550571475
30
0
41
1
10
53.60033000644
20
1.82516248676095
30
0
41
1
10
53.3078354193162
20
1.96347440965963
30
0
0
SPLINE
5
D7
100
AcDbEntity
8
1
62
256
6
ByLayer
370
18
48
1
60
0
100
AcDbSpline
70
4
71
3
72
8
73
4
40
0
40
0
40
0
40
0
40
1
40
1
40
1
40
1
41
1
10
78.9259404202577
20
1.44071574838173
30
0
41
1
10
78.9551124903616
20
1.00469139129282
30
0
41
1
10
78.9761722012256
20
0.569142997295785
30
0
41
1
10
78.9891138037726
20
0.134070903696824
30
0
0
SPLINE
5
D8
100
AcDbEntity
8
1
62
256
6
ByLayer
370
18
48
1
60
0
100
AcDbSpline
70
4
71
3
72
12
73
8
40
0
40
0
40
0
40
0
40
0.250000000000002
40
0.250000000000002
40
0.500000000000003
40
0.500000000000003
40
1
40
1
40
1
40
1
41
1
10
4.13392124676028
20
5.97617423390849
30
0
41
1
10
4.11366420264506
20
5.97977155367542
30
0
41
1
10
4.09530236653512
20
5.98419075672348
30
0
41
1
10
4.06226837916756
20
5.9945427466036
30
0
41
1
10
4.04782574919523
20
6.00044818523418
30
0
41
1
10
4.01277146038015
20
6.01931727683464
30
0
41
1
10
3.99999978181825
20
6.03367932102051
30
0
41
1
10
3.99999978181816
20
6.04771725565797
30
0
0
SPLINE
5
D9
100
AcDbEntity
8
1
62
256
6
ByLayer
370
18
48
1
60
0
100
AcDbSpline
70
4
71
3
72
34
73
30
40
0
40
0
40
0
40
0
40
0.062499999999998
40
0.062499999999998
40
0.0937499999999969
40
0.0937499999999969
40
0.124999999999996
40
0.124999999999996
40
0.187499999999994
40
0.187499999999994
40
0.249999999999992
40
0.249999999999992
40
0.374999999999989
40
0.374999999999989
40
0.406249999999989
40
0.406249999999989
40
0.437499999999988
40
0.437499999999988
40
0.49999999999999
40
0.49999999999999
40
0.624999999999992
40
0.624999999999992
40
0.687499999999994
40
0.687499999999994
40
0.749999999999995
40
0.749999999999995
40
0.874999999999997
40
0.874999999999997
40
1
40
1
40
1
40
1
41
1
10
70.7321683915031
20
2.24911319937976
30
0
41
1
10
70.7179086891028
20
2.05552434370077
30
0
41
1
10
70.7181911449009
20
1.85800522303242
30
0
41
1
10
70.7407681040398
20
1.55573924346814
30
0
41
1
10
70.7520667506429
20
1.45351796726607
30
0
41
1
10
70.7818580467955
20
1.24934387634343
30
0
41
1
10
70.8002469173359
20
1.14783125450086
30
0
41
1
10
70.8652520972325
20
0.844911237836726
30
0
41
1
10
70.921675150003
20
0.64511645861549
30
0
41
1
10
71.0582493393377
20
0.249428733480244
30
0
41
1
10
71.139054489029
20
0.0524352297331347
30
0
41
1
10
71.4066064452674
20
-0.517281838922798
30
0
41
1
10
71.6192010727828
20
-0.87388050854841
30
0
41
1
10
71.9170274001316
20
-1.29786994689394
30
0
41
1
10
71.9783830293859
20
-1.38175939816767
30
0
41
1
10
72.1032886360451
20
-1.54625281211676
30
0
41
1
10
72.166823135872
20
-1.62685800251555
30
0
41
1
10
72.36040115622
20
-1.86415962241378
30
0
41
1
10
72.4933906330003
20
-2.01638544851994
30
0
41
1
10
72.9028457663833
20
-2.45714894642862
30
0
41
1
10
73.1899665457387
20
-2.72951705434835
30
0
41
1
10
73.6375934060991
20
-3.11235346946339
30
0
41
1
10
73.7900626041692
20
-3.23601106669022
30
0
41
1
10
74.0976364622485
20
-3.4733815891498
30
0
41
1
10
74.2527371230709
20
-3.58713921406951
30
0
41
1
10
74.7215971881558
20
-3.91506618570514
30
0
41
1
10
75.0388957788161
20
-4.11596050655007
30
0
41
1
10
75.6815902621523
20
-4.48737722609337
30
0
41
1
10
76.0069846274756
20
-4.65790535369163
30
0
41
1
10
76.3361016036329
20
-4.81447045431892
30
0
0
SPLINE
5
DA
100
AcDbEntity
8
1
62
256
6
ByLayer
370
18
48
1
60
0
100
AcDbSpline
70
4
71
3
72
96
73
92
40
0
40
0
40
0
40
0
40
0.0009982419514351
40
0.0009982419514351
40
0.0213706501384888
40
0.0213706501384888
40
0.0417430583255426
40
0.0417430583255426
40
0.0824878746996495
40
0.0824878746996495
40
0.123232691073756
40
0.123232691073756
40
0.133418895167283
40
0.133418895167283
40
0.143605099260809
40
0.143605099260809
40
0.163977507447863
40
0.163977507447863
40
0.184349915634916
40
0.184349915634916
40
0.204722323821969
40
0.204722323821969
40
0.245467140196076
40
0.245467140196076
40
0.286211956570183
40
0.286211956570183
40
0.306584364757236
40
0.306584364757236
40
0.32695677294429
40
0.32695677294429
40
0.347329181131343
40
0.347329181131343
40
0.367701589318397
40
0.367701589318397
40
0.38807399750545
40
0.38807399750545
40
0.408446405692504
40
0.408446405692504
40
0.449191222066611
40
0.449191222066611
40
0.469563630253665
40
0.469563630253665
40
0.489936038440718
40
0.489936038440718
40
0.510308446627772
40
0.510308446627772
40
0.530680854814825
40
0.530680854814825
40
0.551053263001879
40
0.551053263001879
40
0.571425671188932
40
0.571425671188932
40
0.591798079375986
40
0.591798079375986
40
0.612170487563039
40
0.612170487563039
40
0.632542895750093
40
0.632542895750093
40
0.652915303937146
40
0.652915303937146
40
0.6732877121242
40
0.6732877121242
40
0.693660120311253
40
0.693660120311253
40
0.714032528498307
40
0.714032528498307
40
0.73440493668536
40
0.73440493668536
40
0.775149753059468
40
0.775149753059468
40
0.795522161246521
40
0.795522161246521
40
0.815894569433575
40
0.815894569433575
40
0.836266977620628
40
0.836266977620628
40
0.856639385807682
40
0.856639385807682
40
0.877011793994735
40
0.877011793994735
40
0.897384202181789
40
0.897384202181789
40
0.938129018555896
40
0.938129018555896
40
0.958501426742949
40
0.958501426742949
40
0.978873834930003
40
0.978873834930003
40
0.999246243117056
40
0.999246243117056
40
1
40
1
40
1
40
1
41
1
10
26.7861402299603
20
4.57567518887484
30
0
41
1
10
26.8018719723969
20
4.5814071284241
30
0
41
1
10
26.8176028590606
20
4.58712727237392
30
0
41
1
10
27.1543553113966
20
4.70933436356555
30
0
41
1
10
27.4750343087731
20
4.82090998031299
30
0
41
1
10
28.1151982203678
20
5.03476324955781
30
0
41
1
10
28.4347195561542
20
5.13693308673246
30
0
41
1
10
29.3953801412868
20
5.42488043102017
30
0
41
1
10
30.0370508624621
20
5.59424515228514
30
0
41
1
10
31.3204852954693
20
5.88893202197568
30
0
41
1
10
31.9660103771278
20
6.01101455048638
30
0
41
1
10
32.7764500664177
20
6.13264498060377
30
0
41
1
10
32.9388319415837
20
6.15543744671899
30
0
41
1
10
33.2626428572423
20
6.19771608113342
30
0
41
1
10
33.424243687742
20
6.21718256306818
30
0
41
1
10
33.9088637728407
20
6.27030278102626
30
0
41
1
10
34.231524789488
20
6.29880121884611
30
0
41
1
10
34.8755679537782
20
6.34250525739469
30
0
41
1
10
35.1969825942015
20
6.35770299905982
30
0
41
1
10
35.8380622837999
20
6.37479364594799
30
0
41
1
10
36.1578568792616
20
6.37659926024099
30
0
41
1
10
37.1185270895281
20
6.36203769070872
30
0
41
1
10
37.7590853813993
20
6.32606477198291
30
0
41
1
10
39.0384202665498
20
6.20020699427309
30
0
41
1
10
39.680944067187
20
6.11171532385976
30
0
41
1
10
40.6472433845849
20
5.93965527404757
30
0
41
1
10
40.9693619345611
20
5.87533904600139
30
0
41
1
10
41.6162724798839
20
5.73448496303894
30
0
41
1
10
41.941419605024
20
5.65790651128361
30
0
41
1
10
42.5901105778885
20
5.49317783010895
30
0
41
1
10
42.91407119688
20
5.4049979602604
30
0
41
1
10
43.5606329434409
20
5.21628824505768
30
0
41
1
10
43.8834730952968
20
5.11595517048625
30
0
41
1
10
44.5304791625316
20
4.90594644675011
30
0
41
1
10
44.85429957896
20
4.79591577734044
30
0
41
1
10
45.5021209662413
20
4.56523115726441
30
0
41
1
10
45.8259595344128
20
4.44434231483135
30
0
41
1
10
46.7982899430088
20
4.06599868628197
30
0
41
1
10
47.4446021379117
20
3.79969929990298
30
0
41
1
10
48.4088619290545
20
3.37675854061158
30
0
41
1
10
48.7290635754091
20
3.2311888382487
30
0
41
1
10
49.3698682632913
20
2.93567214501499
30
0
41
1
10
49.6903345623998
20
2.78552331132477
30
0
41
1
10
50.3308957614905
20
2.47965412109846
30
0
41
1
10
50.6510403337804
20
2.32402256399874
30
0
41
1
10
51.2904621928465
20
2.00620371511064
30
0
41
1
10
51.6101118918811
20
1.8446742049191
30
0
41
1
10
52.2511147335443
20
1.51981586937782
30
0
41
1
10
52.5721572903264
20
1.35592289818072
30
0
41
1
10
53.214908718053
20
1.02438316441021
30
0
41
1
10
53.5364382237557
20
0.856375798700952
30
0
41
1
10
54.1806306589694
20
0.517356694685873
30
0
41
1
10
54.5039434703083
20
0.347659004150813
30
0
41
1
10
55.1527261809719
20
0.0073526533865333
30
0
41
1
10
55.4774073652712
20
-0.162959732285259
30
0
41
1
10
56.1248295116037
20
-0.50347472970725
30
0
41
1
10
56.4475481255964
20
-0.674512247625074
30
0
41
1
10
57.0939950191608
20
-1.01244472127905
30
0
41
1
10
57.4175354745931
20
-1.17970970085906
30
0
41
1
10
58.0647189851476
20
-1.51185908950725
30
0
41
1
10
58.3884079389883
20
-1.67665804463158
30
0
41
1
10
59.0354065468694
20
-2.00471476706284
30
0
41
1
10
59.3595906638789
20
-2.16713015780175
30
0
41
1
10
60.0080213893821
20
-2.4847556975877
30
0
41
1
10
60.33202572451
20
-2.64052119113251
30
0
41
1
10
60.9792065733662
20
-2.94670854217426
30
0
41
1
10
61.3020910930784
20
-3.09760828574372
30
0
41
1
10
62.270921195187
20
-3.53971709776099
30
0
41
1
10
62.9189101466541
20
-3.8174953735705
30
0
41
1
10
63.8914879229859
20
-4.21271401292452
30
0
41
1
10
64.2146800042702
20
-4.34078026055283
30
0
41
1
10
64.8601380218934
20
-4.58470250224093
30
0
41
1
10
65.1824194943874
20
-4.70113689467669
30
0
41
1
10
65.8256100868613
20
-4.92386644174982
30
0
41
1
10
66.1465406678287
20
-5.03013098197283
30
0
41
1
10
66.7866443308245
20
-5.23284079670435
30
0
41
1
10
67.1064744903888
20
-5.32848943239563
30
0
41
1
10
67.7466430884404
20
-5.50760420621304
30
0
41
1
10
68.0667602296372
20
-5.59132742867087
30
0
41
1
10
68.7066893238476
20
-5.74745304881196
30
0
41
1
10
69.0261827511569
20
-5.82009375576502
30
0
41
1
10
69.9858773616007
20
-6.01925755834159
30
0
41
1
10
70.6286863438908
20
-6.12638200200027
30
0
41
1
10
71.5949771244518
20
-6.24968570413029
30
0
41
1
10
71.9172227011242
20
-6.28451467158297
30
0
41
1
10
72.5648640256068
20
-6.34029108401279
30
0
41
1
10
72.8895885304183
20
-6.36135914691363
30
0
41
1
10
73.5365188466055
20
-6.38991371217156
30
0
41
1
10
73.859273942664
20
-6.39744466518681
30
0
41
1
10
74.1930462307432
20
-6.39818771526942
30
0
41
1
10
74.2049545877704
20
-6.39820485381603
30
0
41
1
10
74.2168627163697
20
-6.39821262948087
30
0
0
SPLINE
5
DB
100
AcDbEntity
8
1
62
256
6
ByLayer
370
18
48
1
60
0
100
AcDbSpline
70
4
71
3
72
18
73
14
40
0
40
0
40
0
40
0
40
0.0911176652351459
40
0.0911176652351459
40
0.274637581641752
40
0.274637581641752
40
0.641677414454964
40
0.641677414454964
40
0.733437372658265
40
0.733437372658265
40
0.825197330861566
40
0.825197330861566
40
1
40
1
40
1
40
1
41
1
10
18.975926548131
20
0.0024623715497114
30
0
41
1
10
19.352634253054
20
-0.188328193806626
30
0
41
1
10
19.7306407524443
20
-0.379750403801523
30
0
41
1
10
20.8722166643403
20
-0.955606529920573
30
0
41
1
10
21.629717712926
20
-1.33451203458461
30
0
41
1
10
23.894941495347
20
-2.43725694309325
30
0
41
1
10
25.3945314401332
20
-3.12849460670733
30
0
41
1
10
27.2827433396569
20
-3.88899788537077
30
0
41
1
10
27.6610050723214
20
-4.03602394411831
30
0
41
1
10
28.4196131149932
20
-4.31851480199833
30
0
41
1
10
28.8002287663809
20
-4.4540943421193
30
0
41
1
10
29.9080555650275
20
-4.82908361589156
30
0
41
1
10
30.6297623774896
20
-5.04867820833388
30
0
41
1
10
31.3490104939251
20
-5.2400517342611
30
0
0
SPLINE
5
DC
100
AcDbEntity
8
1
62
256
6
ByLayer
370
13
48
1
60
0
100
AcDbSpline
70
4
71
3
72
14
73
10
40
0
40
0
40
0
40
0
40
0.0125297566180349
40
0.0125297566180349
40
0.540095355882921
40
0.540095355882921
40
0.803878155515365
40
0.803878155515365
40
1
40
1
40
1
40
1
41
1
10
31.349010494035
20
-5.2400517342904
30
0
41
1
10
31.3848787316462
20
-5.24959535483453
30
0
41
1
10
31.4207408546658
20
-5.25906879171549
30
0
41
1
10
32.9663270075857
20
-5.66438595605973
30
0
41
1
10
34.4657969596727
20
-5.93494197427449
30
0
41
1
10
36.7310789824321
20
-6.13036465597872
30
0
41
1
10
37.4892324997528
20
-6.16046983806618
30
0
41
1
10
38.8191468653023
20
-6.14914735675325
30
0
41
1
10
39.3855268733636
20
-6.12415226956946
30
0
41
1
10
39.9522757345313
20
-6.07920675947059
30
0
0
SPLINE
5
DD
100
AcDbEntity
8
1
62
256
6
ByLayer
370
13
48
1
60
0
100
AcDbSpline
70
4
71
3
72
28
73
24
40
0
40
0
40
0
40
0
40
0.0571548980530723
40
0.0571548980530723
40
0.21429574837756
40
0.21429574837756
40
0.253580960958682
40
0.253580960958682
40
0.292866173539804
40
0.292866173539804
40
0.371436598702048
40
0.450007023864292
40
0.450007023864292
40
0.528577449026536
40
0.528577449026536
40
0.60714787418878
40
0.60714787418878
40
0.685718299351024
40
0.764288724513268
40
0.764288724513268
40
0.842859149675512
40
0.842859149675512
40
1
40
1
40
1
40
1
41
1
10
4.25060239141482
20
-6.03496474660935
30
0
41
1
10
4.25062281765844
20
-6.0351448509804
30
0
41
1
10
4.25064257282514
20
-6.02967225428208
30
0
41
1
10
4.25071461140018
20
-5.98844088258323
30
0
41
1
10
4.25076338210687
20
-5.91677650891927
30
0
41
1
10
4.25082181144606
20
-5.77370544531379
30
0
41
1
10
4.25083335054308
20
-5.7424105659417
30
0
41
1
10
4.25085595983407
20
-5.67515124842893
30
0
41
1
10
4.2508670632098
20
-5.63910905527084
30
0
41
1
10
4.25089985364727
20
-5.52386159135685
30
0
41
1
10
4.2509421977023
20
-5.35124520214578
30
0
41
1
10
4.25098244890333
20
-5.1410528031594
30
0
41
1
10
4.2510218439331
20
-4.91163736531533
30
0
41
1
10
4.25104114160894
20
-4.78702454401088
30
0
41
1
10
4.25107838683027
20
-4.52175049573378
30
0
41
1
10
4.25109639416473
20
-4.38067942929143
30
0
41
1
10
4.2511306565539
20
-4.08615689590533
30
0
41
1
10
4.25116330956229
20
-3.77828221156042
30
0
41
1
10
4.25119248643051
20
-3.44409226460866
30
0
41
1
10
4.25121962422412
20
-3.09652109070362
30
0
41
1
10
4.25123223166304
20
-2.91495470090084
30
0
41
1
10
4.25126563719354
20
-2.36027355390996
30
0
41
1
10
4.25128226557121
20
-1.97621848484928
30
0
41
1
10
4.25129136119691
20
-1.57812004966169
30
0
0
SPLINE
5
DE
100
AcDbEntity
8
1
62
256
6
ByLayer
370
18
48
1
60
0
100
AcDbSpline
70
4
71
3
72
30
73
26
40
0
40
0
40
0
40
0
40
0.0624999999999981
40
0.0624999999999981
40
0.124999999999996
40
0.124999999999996
40
0.187499999999994
40
0.187499999999994
40
0.249999999999992
40
0.249999999999992
40
0.31249999999999
40
0.31249999999999
40
0.374999999999989
40
0.374999999999989
40
0.499999999999992
40
0.499999999999992
40
0.624999999999995
40
0.624999999999995
40
0.749999999999998
40
0.749999999999998
40
0.875000000000002
40
0.875000000000002
40
0.937500000000001
40
0.937500000000001
40
1
40
1
40
1
40
1
41
1
10
77.8638481116144
20
-1.93091599363595
30
0
41
1
10
77.8589281848764
20
-1.96794115236813
30
0
41
1
10
77.8521744545338
20
-2.00789346353292
30
0
41
1
10
77.8356306389426
20
-2.08966564476151
30
0
41
1
10
77.8258200049539
20
-2.1318092302067
30
0
41
1
10
77.8031492652884
20
-2.21861863708097
30
0
41
1
10
77.7902132655562
20
-2.26344226188101
30
0
41
1
10
77.762390490901
20
-2.35200787328975
30
0
41
1
10
77.7473962986787
20
-2.39619798074528
30
0
41
1
10
77.7153410401946
20
-2.48440953639843
30
0
41
1
10
77.6983970873321
20
-2.52806153567599
30
0
41
1
10
77.6636788602877
20
-2.61239185630245
30
0
41
1
10
77.6457817314524
20
-2.65340947520687
30
0
41
1
10
77.5905723887514
20
-2.77316010317909
30
0
41
1
10
77.5530526711018
20
-2.84583470565764
30
0
41
1
10
77.4778706778001
20
-2.97651248178266
30
0
41
1
10
77.4403115524502
20
-3.03408239753748
30
0
41
1
10
77.3696889393352
20
-3.12834956739062
30
0
41
1
10
77.336158956275
20
-3.1659614827081
30
0
41
1
10
77.2726569865799
20
-3.22176274294679
30
0
41
1
10
77.2439829434251
20
-3.23881279883426
30
0
41
1
10
77.2054561845647
20
-3.24808890445655
30
0
41
1
10
77.1932887426873
20
-3.2483971043643
30
0
41
1
10
77.1710388115706
20
-3.24313640803976
30
0
41
1
10
77.1609695038301
20
-3.237627862529
30
0
41
1
10
77.151955654742
20
-3.22920491917441
30
0
0
SPLINE
5
DF
100
AcDbEntity
8
1
62
256
6
ByLayer
370
18
48
1
60
0
100
AcDbSpline
70
4
71
3
72
28
73
24
40
0
40
0
40
0
40
0
40
0.0625000000000001
40
0.0625000000000001
40
0.125
40
0.125
40
0.1875
40
0.1875
40
0.25
40
0.25
40
0.375000000000001
40
0.375000000000001
40
0.500000000000001
40
0.500000000000001
40
0.625000000000001
40
0.625000000000001
40
0.750000000000001
40
0.750000000000001
40
0.812500000000001
40
0.812500000000001
40
0.875
40
0.875
40
1
40
1
40
1
40
1
41
1
10
4.25129136132685
20
-1.57812004952441
30
0
41
1
10
4.45432790751954
20
-1.74732296080162
30
0
41
1
10
4.66260899816825
20
-1.9066447328407
30
0
41
1
10
5.08654957396715
20
-2.2108473569316
30
0
41
1
10
5.3022504638671
20
-2.35565957062198
30
0
41
1
10
5.73930162952425
20
-2.6338076321683
30
0
41
1
10
5.96066353267844
20
-2.76712420182005
30
0
41
1
10
6.40791620769414
20
-3.02422162290827
30
0
41
1
10
6.63427218082191
20
-3.14823321995721
30
0
41
1
10
7.31466000599613
20
-3.50553261740089
30
0
41
1
10
7.77035733223346
20
-3.72431134777037
30
0
41
1
10
8.68448960915268
20
-4.13302155034202
30
0
41
1
10
9.14298708272543
20
-4.32176531232432
30
0
41
1
10
10.0631153745543
20
-4.66863061882037
30
0
41
1
10
10.5247134740135
20
-4.82775875787132
30
0
41
1
10
11.4523584084683
20
-5.11682243789789
30
0
41
1
10
11.9184789635071
20
-5.24575385659898
30
0
41
1
10
12.6226337945542
20
-5.41811948184784
30
0
41
1
10
12.8581886867061
20
-5.47200094937585
30
0
41
1
10
13.3313400760624
20
-5.57214165500758
30
0
41
1
10
13.56915745291
20
-5.61836430438586
30
0
41
1
10
14.2841466932969
20
-5.74513259603634
30
0
41
1
10
14.763126893834
20
-5.81435102790536
30
0
41
1
10
15.2460707103727
20
-5.86939174637689
30
0
0
SPLINE
5
E0
100
AcDbEntity
8
1
62
256
6
ByLayer
370
18
48
1
60
0
100
AcDbSpline
70
4
71
3
72
10
73
6
40
0
40
0
40
0
40
0
40
0.5
40
0.5
40
1
40
1
40
1
40
1
41
1
10
76.815986008446
20
1.50971285090188
30
0
41
1
10
77.1676807793341
20
1.49785154281227
30
0
41
1
10
77.5193617826489
20
1.48612974928889
30
0
41
1
10
78.2227424598633
20
1.46249696270056
30
0
41
1
10
78.5744103668421
20
1.45090788171791
30
0
41
1
10
78.9259404202643
20
1.44071574838134
30
0
0
SPLINE
5
E1
100
AcDbEntity
8
1
62
256
6
ByLayer
370
18
48
1
60
0
100
AcDbSpline
70
4
71
3
72
18
73
14
40
0
40
0
40
0
40
0
40
0.172747855777052
40
0.172747855777052
40
0.651273959093326
40
0.651273959093326
40
0.711089722007861
40
0.711089722007861
40
0.770905484922397
40
0.770905484922397
40
0.890537010751463
40
0.890537010751463
40
1
40
1
40
1
40
1
41
1
10
57.0746597510284
20
0.0055788105671297
30
0
41
1
10
57.6187645399683
20
-0.271063990801281
30
0
41
1
10
58.1614684745336
20
-0.546996263598004
30
0
41
1
10
60.2058630679282
20
-1.57739233596982
30
0
41
1
10
61.7043986278956
20
-2.31474831263424
30
0
41
1
10
63.4105122733107
20
-3.07417108178922
30
0
41
1
10
63.6003541481565
20
-3.15759417058126
30
0
41
1
10
63.9806707182379
20
-3.32235944842841
30
0
41
1
10
64.1713784797288
20
-3.40379876386811
30
0
41
1
10
64.7426046360924
20
-3.6439125404286
30
0
41
1
10
65.1220419945995
20
-3.79831906172919
30
0
41
1
10
65.8466596002061
20
-4.08226231116566
30
0
41
1
10
66.1920508707886
20
-4.21275148782357
30
0
41
1
10
66.5368565816848
20
-4.33776203959602
30
0
0
SPLINE
5
E2
100
AcDbEntity
8
1
62
256
6
ByLayer
370
13
48
1
60
0
100
AcDbSpline
70
4
71
3
72
16
73
12
40
0
40
0
40
0
40
0
40
0.119427511969559
40
0.119427511969559
40
0.559713755984775
40
0.559713755984775
40
0.669785316988581
40
0.669785316988581
40
0.779856877992386
40
0.779856877992386
40
1
40
1
40
1
40
1
41
1
10
66.5368565821078
20
-4.33776203974938
30
0
41
1
10
66.9457235707152
20
-4.48599823836901
30
0
41
1
10
67.3537672057695
20
-4.62653096051636
30
0
41
1
10
69.2642204421414
20
-5.24672755640719
30
0
41
1
10
70.7612656871162
20
-5.62338817678307
30
0
41
1
10
72.6516430405682
20
-5.92607152820378
30
0
41
1
10
73.030698300638
20
-5.97820202009376
30
0
41
1
10
73.7914512831386
20
-6.06504208328892
30
0
41
1
10
74.1729577481726
20
-6.09969759145895
30
0
41
1
10
75.3146736455169
20
-6.17624953451414
30
0
41
1
10
76.074672038508
20
-6.1910334123707
30
0
41
1
10
76.8360188588069
20
-6.16905409679532
30
0
0
SPLINE
5
E3
100
AcDbEntity
8
1
62
256
6
ByLayer
370
18
48
1
60
0
100
AcDbSpline
70
4
71
3
72
8
73
4
40
0
40
0
40
0
40
0
40
1
40
1
40
1
40
1
41
1
10
76.8360188588071
20
-6.16905409679532
30
0
41
1
10
76.8061113464813
20
-6.24340626371293
30
0
41
1
10
76.7761431664706
20
-6.31764184751449
30
0
41
1
10
76.7461186579228
20
-6.391762900868
30
0
0
SPLINE
5
E4
100
AcDbEntity
8
1
62
256
6
ByLayer
370
18
48
1
60
0
100
AcDbSpline
70
4
71
3
72
8
73
4
40
0
40
0
40
0
40
0
40
1
40
1
40
1
40
1
41
1
10
78.9891138037726
20
0.134070903696824
30
0
41
1
10
78.9898525512413
20
0.109235617131986
30
0
41
1
10
78.9939114623048
20
0.0796296343290237
30
0
41
1
10
78.9999658207225
20
0.0481967173512601
30
0
0
SPLINE
5
E5
100
AcDbEntity
8
1
62
256
6
ByLayer
370
18
48
1
60
0
100
AcDbSpline
70
4
71
3
72
10
73
6
40
0
40
0
40
0
40
0
40
0.5
40
0.5
40
1
40
1
40
1
40
1
41
1
10
78.9999658207225
20
0.0481967173512885
30
0
41
1
10
78.9952270246726
20
0.0266008713413441
30
0
41
1
10
78.9884110684626
20
0.0031326201668662
30
0
41
1
10
78.9713432278464
20
-0.0418616669023777
30
0
41
1
10
78.9609781270538
20
-0.0634842786531635
30
0
41
1
10
78.9504639845199
20
-0.0806900233272074
30
0
0
SPLINE
5
E6
100
AcDbEntity
8
1
62
256
6
ByLayer
370
18
48
1
60
0
100
AcDbSpline
70
4
71
3
72
31
73
27
40
0
40
0
40
0
40
0
40
0.0368987035438552
40
0.0755914338425023
40
0.113466968592634
40
0.150178688531743
40
0.186565315571549
40
0.227659328283916
40
0.275848187042284
40
0.328911109772608
40
0.371766431585123
40
0.413300740431749
40
0.458038482321919
40
0.5003470179753
40
0.535897116855252
40
0.5677273297588
40
0.611476787461279
40
0.656798278592275
40
0.696825304207936
40
0.731564947684528
40
0.771655351128386
40
0.808989016822642
40
0.844809072621637
40
0.89537343564069
40
0.952590792404676
40
1
40
1
40
1
40
1
41
1
10
56.6245381422511
20
6.06312592632804
30
0
41
1
10
56.4448536599484
20
6.06414184530163
30
0
41
1
10
56.0752826802784
20
6.06565003893641
30
0
41
1
10
55.5163299881666
20
6.0662430961294
30
0
41
1
10
54.9531455235624
20
6.06487278189181
30
0
41
1
10
54.4023407960159
20
6.06414518553473
30
0
41
1
10
53.8353098103991
20
6.06473013556669
30
0
41
1
10
53.2113496957127
20
6.06513813023716
30
0
41
1
10
52.5045697412
20
6.06303156656335
30
0
41
1
10
51.7890481318025
20
6.06330480937788
30
0
41
1
10
51.1065704506005
20
6.0636732117587
30
0
41
1
10
50.4654168040771
20
6.0624536408144
30
0
41
1
10
49.8270692007626
20
6.06178648339744
30
0
41
1
10
49.218335823913
20
6.06231755009489
30
0
41
1
10
48.6737623937922
20
6.06221381598507
30
0
41
1
10
48.1220956247462
20
6.06114090565001
30
0
41
1
10
47.5217892577851
20
6.06077800330212
30
0
41
1
10
46.880798899175
20
6.06110971381761
30
0
41
1
10
46.2845338212437
20
6.06074140167129
30
0
41
1
10
45.7142464669843
20
6.05973951711078
30
0
41
1
10
45.1573327360511
20
6.05978770787175
30
0
41
1
10
44.5950489459893
20
6.05976847328094
30
0
41
1
10
43.9807754163199
20
6.05939030592126
30
0
41
1
10
43.2677614554419
20
6.05850547880203
30
0
41
1
10
42.4972010550021
20
6.05878182233278
30
0
41
1
10
41.977727550427
20
6.0582932978559
30
0
41
1
10
41.7423373090145
20
6.05804709617308
30
0
0
SPLINE
5
E7
100
AcDbEntity
8
1
62
256
6
ByLayer
370
18
48
1
60
0
100
AcDbSpline
70
4
71
3
72
33
73
29
40
0
40
0
40
0
40
0
40
0.0370209850322791
40
0.0810328164999551
40
0.114130749656558
40
0.146728284934345
40
0.174722431675102
40
0.207306254348591
40
0.243844118297031
40
0.277151193466635
40
0.305168162470988
40
0.330307998918301
40
0.373047295628488
40
0.423988004444794
40
0.472208808725183
40
0.518148756764238
40
0.565085520829719
40
0.616401206765002
40
0.655457508993046
40
0.68918626278743
40
0.727699423975884
40
0.772162438399573
40
0.835843442026005
40
0.896211090601756
40
0.917358335686297
40
0.945770649328592
40
0.983158922974646
40
1
40
1
40
1
40
1
41
1
10
4.25056932779165
20
-6.03488786242002
30
0
41
1
10
4.42190209641134
20
-6.03533557700402
30
0
41
1
10
4.79692963995413
20
-6.03618078063681
30
0
41
1
10
5.32519483920638
20
-6.03691037225974
30
0
41
1
10
5.83295677361198
20
-6.03730803885708
30
0
41
1
10
6.26656836344048
20
-6.03747127934207
30
0
41
1
10
6.69783129511208
20
-6.03756084374248
30
0
41
1
10
7.14732704895883
20
-6.03762307992452
30
0
41
1
10
7.62141336788707
20
-6.03766414267378
30
0
41
1
10
8.07436428867732
20
-6.0377458267059
30
0
41
1
10
8.47455588252151
20
-6.03852028753502
30
0
41
1
10
8.91840491795512
20
-6.03942903160069
30
0
41
1
10
9.4683583692705
20
-6.03984257009719
30
0
41
1
10
10.1251396579593
20
-6.03987561113311
30
0
41
1
10
10.7967353463834
20
-6.04074517114219
30
0
41
1
10
11.4497995015023
20
-6.04111819523897
30
0
41
1
10
12.1171884612395
20
-6.04049079076066
30
0
41
1
10
12.7527155082954
20
-6.04109042379099
30
0
41
1
10
13.3271101918264
20
-6.04185540222744
30
0
41
1
10
13.8422497128582
20
-6.04200952123114
30
0
41
1
10
14.3824133366112
20
-6.04199713800114
30
0
41
1
10
15.0612103658772
20
-6.042691213431
30
0
41
1
10
15.8411572399586
20
-6.04362063695777
30
0
41
1
10
16.5131820134412
20
-6.04335625575362
30
0
41
1
10
17.0219761188268
20
-6.04376948644489
30
0
41
1
10
17.424404945557
20
-6.04427440531032
30
0
41
1
10
17.806902813577
20
-6.04478559829028
30
0
41
1
10
18.0579006163364
20
-6.04483906495287
30
0
41
1
10
18.1358488647337
20
-6.04484023813001
30
0
0
SPLINE
5
E8
100
AcDbEntity
8
1
62
256
6
ByLayer
370
18
48
1
60
0
100
AcDbSpline
70
4
71
3
72
35
73
31
40
0
40
0
40
0
40
0
40
0.0427996646714174
40
0.0826615333582958
40
0.1145242105367
40
0.152960580147797
40
0.182936935221856
40
0.210317164543816
40
0.245312935718389
40
0.275102533981436
40
0.299140451806926
40
0.317767791820589
40
0.339262266359252
40
0.379704896323508
40
0.426996722509278
40
0.471066989255889
40
0.512461046643415
40
0.558492923001806
40
0.604402815550662
40
0.638733621201666
40
0.676905881961807
40
0.71881999421241
40
0.756580915668839
40
0.793714040962164
40
0.836182259218074
40
0.87580799022973
40
0.906582552116534
40
0.942253250343079
40
0.968491832817906
40
1
40
1
40
1
40
1
41
1
10
38.2478424753483
20
-6.05559875981007
30
0
41
1
10
38.5061494856792
20
-6.05572510913481
30
0
41
1
10
39.0051720829785
20
-6.05604364617531
30
0
41
1
10
39.6964502454697
20
-6.05656583097309
30
0
41
1
10
40.3625135692814
20
-6.05743964858635
30
0
41
1
10
40.9572485144963
20
-6.05619337501145
30
0
41
1
10
41.5403106416154
20
-6.05665320381053
30
0
41
1
10
42.0886954132805
20
-6.05865884299573
30
0
41
1
10
42.6474687988954
20
-6.05865907067465
30
0
41
1
10
43.1832258543241
20
-6.05863074070322
30
0
41
1
10
43.6208405323331
20
-6.05889691379159
30
0
41
1
10
44.0081796328097
20
-6.05937255018918
30
0
41
1
10
44.4946662858402
20
-6.05973461040941
30
0
41
1
10
45.1541345644216
20
-6.05970395788671
30
0
41
1
10
45.9499349249894
20
-6.05996906288544
30
0
41
1
10
46.7515864258852
20
-6.06120703054657
30
0
41
1
10
47.5453250634017
20
-6.06065158334238
30
0
41
1
10
48.3504566617011
20
-6.06165589983002
30
0
41
1
10
49.1128964590828
20
-6.06251084388111
30
0
41
1
10
49.8278898788496
20
-6.06177129876613
30
0
41
1
10
50.5187514856846
20
-6.06256448679145
30
0
41
1
10
51.2303260009194
20
-6.06377627172651
30
0
41
1
10
51.9356237599513
20
-6.0630758396745
30
0
41
1
10
52.6442885070362
20
-6.06346375188454
30
0
41
1
10
53.3641223920515
20
-6.06525895104468
30
0
41
1
10
54.0458641595853
20
-6.06454548829399
30
0
41
1
10
54.6846925386563
20
-6.06379307750322
30
0
41
1
10
55.2448227260364
20
-6.06588959010375
30
0
41
1
10
55.8055492680566
20
-6.06597637922593
30
0
41
1
10
56.1543786475803
20
-6.06585018775317
30
0
41
1
10
56.3449562211794
20
-6.06563585178137
30
0
0
SPLINE
5
E9
100
AcDbEntity
8
1
62
256
6
ByLayer
370
18
48
1
60
0
100
AcDbSpline
70
4
71
3
72
35
73
31
40
0
40
0
40
0
40
0
40
0.0168831921024498
40
0.057438229534786
40
0.0871787422308731
40
0.109800289506001
40
0.13203415148378
40
0.154020679626041
40
0.175965093887392
40
0.231794304283409
40
0.287675818396221
40
0.321557828940436
40
0.352223324439385
40
0.390809428413401
40
0.438790046867051
40
0.481873445846396
40
0.529611298749586
40
0.579965002095499
40
0.632500144146023
40
0.675428017012947
40
0.71225024243874
40
0.750246293698261
40
0.793531438966353
40
0.83167105197338
40
0.848301403519611
40
0.863594601065923
40
0.8858741456857
40
0.918970659191781
40
0.962980602886027
40
1
40
1
40
1
40
1
41
1
10
18.1364437026243
20
6.04484039476421
30
0
41
1
10
18.0582971825831
20
6.04483853594897
30
0
41
1
10
17.792435799558
20
6.04478254311226
30
0
41
1
10
17.3889217881666
20
6.04422398983985
30
0
41
1
10
16.9588453239335
20
6.04369519614374
30
0
41
1
10
16.6135660308684
20
6.04347161968923
30
0
41
1
10
16.30417954015
20
6.04344151985515
30
0
41
1
10
15.9979283348467
20
6.04343586899111
30
0
41
1
10
15.5361786968095
20
6.04333713756375
30
0
41
1
10
14.9175345537126
20
6.04245977199687
30
0
41
1
10
14.2436358642577
20
6.04197909727438
30
0
41
1
10
13.6862113659065
20
6.04199453790869
30
0
41
1
10
13.2088409246343
20
6.04172945203368
30
0
41
1
10
12.6662139506509
20
6.0409629661971
30
0
41
1
10
12.0661085203416
20
6.04054004898117
30
0
41
1
10
11.4236419134742
20
6.04112344017258
30
0
41
1
10
10.7701912778934
20
6.04069955935461
30
0
41
1
10
10.0729924213343
20
6.03985167706415
30
0
41
1
10
9.39805757390002
20
6.03982956982901
30
0
41
1
10
8.78575339346233
20
6.03927294237724
30
0
41
1
10
8.24075185241509
20
6.03792058073543
30
0
41
1
10
7.69409086473408
20
6.03762945857554
30
0
41
1
10
7.14133402196393
20
6.03763386574576
30
0
41
1
10
6.68747005953659
20
6.03755841473415
30
0
41
1
10
6.36317176138891
20
6.03748849460729
30
0
41
1
10
6.11228926015858
20
6.03741535663113
30
0
41
1
10
5.78520708607653
20
6.03727031680961
30
0
41
1
10
5.3251944159008
20
6.03691051152492
30
0
41
1
10
4.79692975264635
20
6.03618074357149
30
0
41
1
10
4.4219020964193
20
6.03533557700408
30
0
41
1
10
4.25056932779168
20
6.03488786241999
30
0
0
SPLINE
5
EA
100
AcDbEntity
8
1
62
256
6
ByLayer
370
18
48
1
60
0
100
AcDbSpline
70
4
71
1
72
4
73
2
40
0
40
0
40
1
40
1
41
1
10
76.3348618361005
20
-6.07950779097021
30
0
41
1
10
76.7660079704263
20
-6.07882617218203
30
0
0
LINE
5
7B
100
AcDbEntity
8
SK1
62
256
6
ByLayer
370
18
48
1
60
0
100
AcDbLine
10
-45
20
-0.162194
30
0
11
-45
21
-2.278755
31
0
39
0
210
0
220
0
230
1
0
LINE
5
7D
100
AcDbEntity
8
SK1
62
256
6
ByLayer
370
18
48
1
60
0
100
AcDbLine
10
-45
20
5.055
30
0
11
-45
21
0.162194
31
0
39
0
210
0
220
0
230
1
0
LINE
5
7E
100
AcDbEntity
8
SK1
62
256
6
ByLayer
370
18
48
1
60
0
100
AcDbLine
10
-43.9
20
-2.429287
30
0
11
-43.9
21
-0.183614
31
0
39
0
210
0
220
0
230
1
0
LINE
5
7F
100
AcDbEntity
8
SK1
62
256
6
ByLayer
370
18
48
1
60
0
100
AcDbLine
10
-45
20
-5.055
30
0
11
-45
21
-2.278755
31
0
39
0
210
0
220
0
230
1
0
LINE
5
80
100
AcDbEntity
8
SK1
62
256
6
ByLayer
370
18
48
1
60
0
100
AcDbLine
10
0
20
-7
30
0
11
0
21
7
31
0
39
0
210
0
220
0
230
1
0
LINE
5
81
100
AcDbEntity
8
SK1
62
256
6
ByLayer
370
13
48
1
60
0
100
AcDbLine
10
-44
20
-0.05964
30
0
11
-44
21
-2.500556
31
0
39
0
210
0
220
0
230
1
0
LINE
5
82
100
AcDbEntity
8
SK1
62
256
6
ByLayer
370
18
48
1
60
0
100
AcDbLine
10
-43.055
20
7
30
0
11
-43.055
21
-7
31
0
39
0
210
0
220
0
230
1
0
LINE
5
83
100
AcDbEntity
8
1
62
256
6
ByLayer
370
18
48
1
60
0
100
AcDbLine
10
0
20
-7
30
0
11
0
21
7
31
0
39
0
210
0
220
0
230
1
0
LINE
5
84
100
AcDbEntity
8
1
62
256
6
ByLayer
370
13
48
1
60
0
100
AcDbLine
10
76.815986
20
1.509713
30
0
11
78.989114
21
0.134071
31
0
39
0
210
0
220
0
230
1
0
LINE
5
85
100
AcDbEntity
8
1
62
256
6
ByLayer
370
13
48
1
60
0
100
AcDbLine
10
76.637812
20
1.383274
30
0
11
78.950464
21
-0.08069
31
0
39
0
210
0
220
0
230
1
0
LINE
5
86
100
AcDbEntity
8
1
62
256
6
ByLayer
370
13
48
1
60
0
100
AcDbLine
10
0.642747
20
6.676315
30
0
11
0.642747
21
-6.676315
31
0
39
0
210
0
220
0
230
1
0
LINE
5
87
100
AcDbEntity
8
1
62
256
6
ByLayer
370
18
48
1
60
0
100
AcDbLine
10
4
20
6.354327
30
0
11
4
21
6.047717
31
0
39
0
210
0
220
0
230
1
0
LINE
5
88
100
AcDbEntity
8
1
62
256
6
ByLayer
370
18
48
1
60
0
100
AcDbLine
10
4
20
-6.354327
30
0
11
4
21
-1.766699
31
0
39
0
210
0
220
0
230
1
0
LINE
5
89
100
AcDbEntity
8
1
62
256
6
ByLayer
370
13
48
1
60
0
100
AcDbLine
10
1.285994
20
6.352631
30
0
11
1.285994
21
-6.352631
31
0
39
0
210
0
220
0
230
1
0
LINE
5
8A
100
AcDbEntity
8
80
62
256
6
ByLayer
370
18
48
1
60
0
100
AcDbLine
10
0
20
0
30
0
11
-5
21
0
31
0
39
0
210
0
220
0
230
1
0
LINE
5
8B
100
AcDbEntity
8
4
62
256
6
ByLayer
370
18
48
0.05
60
0
100
AcDbLine
10
79
20
0
30
0
11
0
21
0
31
0
39
0
210
0
220
0
230
1
0
LINE
5
8D
100
AcDbEntity
8
SK4
62
256
6
ByLayer
370
18
48
0.05
60
0
100
AcDbLine
10
84
20
0
30
0
11
-50
21
0
31
0
39
0
210
0
220
0
230
1
0
LINE
5
8F
100
AcDbEntity
8
1
62
256
6
ByLayer
370
18
48
1
60
0
100
AcDbLine
10
36.116138
20
-6.3744
30
0
11
38.03347
21
-6.375598
31
0
39
0
210
0
220
0
230
1
0
LINE
5
90
100
AcDbEntity
8
1
62
256
6
ByLayer
370
18
48
1
60
0
100
AcDbLine
10
38.033437
20
6.375598
30
0
11
36.116138
21
6.3744
31
0
39
0
210
0
220
0
230
1
0
LINE
5
91
100
AcDbEntity
8
SK1
62
256
6
ByLayer
370
18
48
1
60
0
100
AcDbLine
10
-45
20
-5.055
30
0
11
-43.055
21
-7
31
0
39
0
210
0
220
0
230
1
0
LINE
5
92
100
AcDbEntity
8
SK1
62
256
6
ByLayer
370
18
48
1
60
0
100
AcDbLine
10
-43.055
20
7
30
0
11
-45
21
5.055
31
0
39
0
210
0
220
0
230
1
0
LINE
5
93
100
AcDbEntity
8
SK1
62
256
6
ByLayer
370
18
48
1
60
0
100
AcDbLine
10
-43.055
20
-7
30
0
11
0
21
-7
31
0
39
0
210
0
220
0
230
1
0
LINE
5
94
100
AcDbEntity
8
SK1
62
256
6
ByLayer
370
18
48
1
60
0
100
AcDbLine
10
0
20
7
30
0
11
-43.055
21
7
31
0
39
0
210
0
220
0
230
1
0
LINE
5
95
100
AcDbEntity
8
1
62
256
6
ByLayer
370
18
48
1
60
0
100
AcDbLine
10
1.285994
20
-6.352631
30
0
11
4
21
-6.354327
31
0
39
0
210
0
220
0
230
1
0
LINE
5
96
100
AcDbEntity
8
1
62
256
6
ByLayer
370
18
48
1
60
0
100
AcDbLine
10
74.21602
20
-6.398212
30
0
11
76.138614
21
-6.399414
31
0
39
0
210
0
220
0
230
1
0
LINE
5
97
100
AcDbEntity
8
1
62
256
6
ByLayer
370
18
48
1
60
0
100
AcDbLine
10
76.138588
20
6.399414
30
0
11
74.21602
21
6.398212
31
0
39
0
210
0
220
0
230
1
0
LINE
5
98
100
AcDbEntity
8
1
62
256
6
ByLayer
370
18
48
1
60
0
100
AcDbLine
10
4
20
6.354327
30
0
11
1.285994
21
6.352631
31
0
39
0
210
0
220
0
230
1
0
LINE
5
99
100
AcDbEntity
8
81
62
256
6
ByLayer
370
18
48
1
60
0
100
AcDbLine
10
79
20
0
30
0
11
84
21
0
31
0
39
0
210
0
220
0
230
1
0
LINE
5
9A
100
AcDbEntity
8
SK2
62
256
6
ByLayer
370
13
48
1
60
0
100
AcDbLine
10
-53.625163
20
-7
30
0
11
-53.625163
21
38.225706
31
0
39
0
210
0
220
0
230
1
0
LINE
5
9C
100
AcDbEntity
8
SK2
62
256
6
ByLayer
370
13
48
1
60
0
100
AcDbLine
10
-46.5875
20
7
30
0
11
-55.625163
21
7
31
0
39
0
210
0
220
0
230
1
0
LINE
5
9D
100
AcDbEntity
8
SK2
62
256
6
ByLayer
370
13
48
1
60
0
100
AcDbLine
10
-46.5875
20
-7
30
0
11
-55.625163
21
-7
31
0
39
0
210
0
220
0
230
1
0
LINE
5
9E
100
AcDbEntity
8
1
62
256
6
ByLayer
370
18
48
1
60
1
100
AcDbLine
10
-53.625163
20
7
30
0
11
-53.164379
21
3.500002
31
0
39
0
210
0
220
0
230
1
0
LINE
5
9F
100
AcDbEntity
8
1
62
256
6
ByLayer
370
18
48
1
60
1
100
AcDbLine
10
-53.164379
20
3.500002
30
0
11
-54.085946
21
3.499998
31
0
39
0
210
0
220
0
230
1
0
LINE
5
A0
100
AcDbEntity
8
1
62
256
6
ByLayer
370
18
48
1
60
1
100
AcDbLine
10
-54.085946
20
3.499998
30
0
11
-53.625163
21
7
31
0
39
0
210
0
220
0
230
1
0
LINE
5
A1
100
AcDbEntity
8
1
62
256
6
ByLayer
370
18
48
1
60
1
100
AcDbLine
10
-53.625163
20
-7
30
0
11
-54.085946
21
-3.500002
31
0
39
0
210
0
220
0
230
1
0
LINE
5
A2
100
AcDbEntity
8
1
62
256
6
ByLayer
370
18
48
1
60
1
100
AcDbLine
10
-54.085946
20
-3.500002
30
0
11
-53.164379
21
-3.499998
31
0
39
0
210
0
220
0
230
1
0
LINE
5
A3
100
AcDbEntity
8
1
62
256
6
ByLayer
370
18
48
1
60
1
100
AcDbLine
10
-53.164379
20
-3.499998
30
0
11
-53.625163
21
-7
31
0
39
0
210
0
220
0
230
1
0
LINE
5
A4
100
AcDbEntity
8
2
62
256
6
ByLayer
370
13
48
1
60
0
100
AcDbLine
10
91.083343
20
-6.4
30
0
11
91.083343
21
35.850259
31
0
39
0
210
0
220
0
230
1
0
LINE
5
A6
100
AcDbEntity
8
2
62
256
6
ByLayer
370
13
48
1
60
0
100
AcDbLine
10
78.6815
20
6.4
30
0
11
93.083343
21
6.4
31
0
39
0
210
0
220
0
230
1
0
LINE
5
A7
100
AcDbEntity
8
2
62
256
6
ByLayer
370
13
48
1
60
0
100
AcDbLine
10
78.6815
20
-6.4
30
0
11
93.083343
21
-6.4
31
0
39
0
210
0
220
0
230
1
0
LINE
5
A8
100
AcDbEntity
8
1
62
256
6
ByLayer
370
18
48
1
60
1
100
AcDbLine
10
91.083343
20
6.4
30
0
11
91.544126
21
2.900002
31
0
39
0
210
0
220
0
230
1
0
LINE
5
A9
100
AcDbEntity
8
1
62
256
6
ByLayer
370
18
48
1
60
1
100
AcDbLine
10
91.544126
20
2.900002
30
0
11
90.622559
21
2.899998
31
0
39
0
210
0
220
0
230
1
0
LINE
5
AA
100
AcDbEntity
8
1
62
256
6
ByLayer
370
18
48
1
60
1
100
AcDbLine
10
90.622559
20
2.899998
30
0
11
91.083343
21
6.4
31
0
39
0
210
0
220
0
230
1
0
LINE
5
AB
100
AcDbEntity
8
1
62
256
6
ByLayer
370
18
48
1
60
1
100
AcDbLine
10
91.083343
20
-6.4
30
0
11
90.622559
21
-2.900002
31
0
39
0
210
0
220
0
230
1
0
LINE
5
AC
100
AcDbEntity
8
1
62
256
6
ByLayer
370
18
48
1
60
1
100
AcDbLine
10
90.622559
20
-2.900002
30
0
11
91.544126
21
-2.899998
31
0
39
0
210
0
220
0
230
1
0
LINE
5
AD
100
AcDbEntity
8
1
62
256
6
ByLayer
370
18
48
1
60
1
100
AcDbLine
10
91.544126
20
-2.899998
30
0
11
91.083343
21
-6.4
31
0
39
0
210
0
220
0
230
1
0
LINE
5
F1
100
AcDbEntity
8
1
62
256
6
ByLayer
370
18
48
1
60
1
100
AcDbLine
10
-53.625163
20
7
30
0
11
-53.164379
21
3.500002
31
0
39
0
210
0
220
0
230
1
0
LINE
5
F2
100
AcDbEntity
8
1
62
256
6
ByLayer
370
18
48
1
60
1
100
AcDbLine
10
-53.164379
20
3.500002
30
0
11
-54.085946
21
3.499998
31
0
39
0
210
0
220
0
230
1
0
LINE
5
F3
100
AcDbEntity
8
1
62
256
6
ByLayer
370
18
48
1
60
1
100
AcDbLine
10
-54.085946
20
3.499998
30
0
11
-53.625163
21
7
31
0
39
0
210
0
220
0
230
1
0
LINE
5
F5
100
AcDbEntity
8
1
62
256
6
ByLayer
370
18
48
1
60
1
100
AcDbLine
10
-53.625163
20
-7
30
0
11
-54.085946
21
-3.500002
31
0
39
0
210
0
220
0
230
1
0
LINE
5
F6
100
AcDbEntity
8
1
62
256
6
ByLayer
370
18
48
1
60
1
100
AcDbLine
10
-54.085946
20
-3.500002
30
0
11
-53.164379
21
-3.499998
31
0
39
0
210
0
220
0
230
1
0
LINE
5
F7
100
AcDbEntity
8
1
62
256
6
ByLayer
370
18
48
1
60
1
100
AcDbLine
10
-53.164379
20
-3.499998
30
0
11
-53.625163
21
-7
31
0
39
0
210
0
220
0
230
1
0
LINE
5
FB
100
AcDbEntity
8
1
62
256
6
ByLayer
370
18
48
1
60
1
100
AcDbLine
10
91.083343
20
6.4
30
0
11
91.544126
21
2.900002
31
0
39
0
210
0
220
0
230
1
0
LINE
5
FC
100
AcDbEntity
8
1
62
256
6
ByLayer
370
18
48
1
60
1
100
AcDbLine
10
91.544126
20
2.900002
30
0
11
90.622559
21
2.899998
31
0
39
0
210
0
220
0
230
1
0
LINE
5
FD
100
AcDbEntity
8
1
62
256
6
ByLayer
370
18
48
1
60
1
100
AcDbLine
10
90.622559
20
2.899998
30
0
11
91.083343
21
6.4
31
0
39
0
210
0
220
0
230
1
0
LINE
5
FF
100
AcDbEntity
8
1
62
256
6
ByLayer
370
18
48
1
60
1
100
AcDbLine
10
91.083343
20
-6.4
30
0
11
90.622559
21
-2.900002
31
0
39
0
210
0
220
0
230
1
0
LINE
5
100
100
AcDbEntity
8
1
62
256
6
ByLayer
370
18
48
1
60
1
100
AcDbLine
10
90.622559
20
-2.900002
30
0
11
91.544126
21
-2.899998
31
0
39
0
210
0
220
0
230
1
0
LINE
5
101
100
AcDbEntity
8
1
62
256
6
ByLayer
370
18
48
1
60
1
100
AcDbLine
10
91.544126
20
-2.899998
30
0
11
91.083343
21
-6.4
31
0
39
0
210
0
220
0
230
1
0
MTEXT
5
EB
100
AcDbEntity
8
SK6
62
256
6
ByLayer
370
13
48
1
60
0
100
AcDbMText
10
-11.892027
20
38.940328
30
0
210
0
220
0
230
1
1
\W0.7610;462.1-1280-064A1-XM X2BM
40
3.5
41
0
44
1.084337
50
0
71
7
72
5
7
iso_b_vert
0
MTEXT
5
EF
100
AcDbEntity
8
SK2
62
256
6
ByLayer
370
18
48
1
60
0
100
AcDbMText
10
-55.189796
20
20.409024
30
0
210
0
220
0
230
1
1
%%c
40
3.5
41
0
44
1.084337
50
90
71
7
72
5
7
iso_b_vert
0
MTEXT
5
F0
100
AcDbEntity
8
SK2
62
256
6
ByLayer
370
18
48
1
60
0
100
AcDbMText
10
-55.189796
20
25.63168
30
0
210
0
220
0
230
1
1
\W0.7145;14,000
40
3.5
41
0
44
1.084337
50
90
71
7
72
5
7
iso_b_vert
0
MTEXT
5
F9
100
AcDbEntity
8
2
62
256
6
ByLayer
370
18
48
1
60
0
100
AcDbMText
10
89.518709
20
18.40211
30
0
210
0
220
0
230
1
1
%%c
40
3.5
41
0
44
1.084337
50
90
71
7
72
5
7
iso_b_vert
0
MTEXT
5
FA
100
AcDbEntity
8
2
62
256
6
ByLayer
370
18
48
1
60
0
100
AcDbMText
10
89.518709
20
23.624766
30
0
210
0
220
0
230
1
1
\W0.6930;12,800
40
3.5
41
0
44
1.084337
50
90
71
7
72
5
7
iso_b_vert
0
HATCH
5
F4
100
AcDbEntity
8
SK2
62
256
6
ByLayer
370
13
48
1
60
0
100
AcDbHatch
10
0
20
0
30
0
210
0
220
0
230
1
2
ANSI31
70
0
71
0
91
1
92
5
93
3
72
1
10
-53.6251625675374
20
7
11
-53.1643788259847
21
3.50000169255318
72
1
10
-53.1643788259847
20
3.50000169255318
11
-54.0859463090902
21
3.49999830744682
72
1
10
-54.0859463090902
20
3.49999830744682
11
-53.6251625675374
21
7
97
0
75
0
76
1
52
0
41
0.0062
77
0
78
1
53
45
43
0
44
0
45
-0.0139193969876572
46
0.0139193969876572
79
0
47
0
98
1
10
0
20
0
0
HATCH
5
F8
100
AcDbEntity
8
SK2
62
256
6
ByLayer
370
13
48
1
60
0
100
AcDbHatch
10
0
20
0
30
0
210
0
220
0
230
1
2
ANSI31
70
0
71
0
91
1
92
5
93
3
72
1
10
-53.6251625675374
20
-7
11
-54.0859463090902
21
-3.50000169255318
72
1
10
-54.0859463090902
20
-3.50000169255318
11
-53.1643788259847
21
-3.49999830744682
72
1
10
-53.1643788259847
20
-3.49999830744682
11
-53.6251625675374
21
-7
97
0
75
0
76
1
52
0
41
0.0062
77
0
78
1
53
45
43
0
44
0
45
-0.0139193969876572
46
0.0139193969876572
79
0
47
0
98
1
10
0
20
0
0
HATCH
5
FE
100
AcDbEntity
8
2
62
256
6
ByLayer
370
13
48
1
60
0
100
AcDbHatch
10
0
20
0
30
0
210
0
220
0
230
1
2
ANSI31
70
0
71
0
91
1
92
5
93
3
72
1
10
91.083342615295
20
6.40000000000001
11
91.5441263568478
21
2.90000169255319
72
1
10
91.5441263568478
20
2.90000169255319
11
90.6225588737423
21
2.89999830744682
72
1
10
90.6225588737423
20
2.89999830744682
11
91.083342615295
21
6.40000000000001
97
0
75
0
76
1
52
0
41
0.0062
77
0
78
1
53
45
43
0
44
0
45
-0.0139193969876572
46
0.0139193969876572
79
0
47
0
98
1
10
0
20
0
0
HATCH
5
102
100
AcDbEntity
8
2
62
256
6
ByLayer
370
13
48
1
60
0
100
AcDbHatch
10
0
20
0
30
0
210
0
220
0
230
1
2
ANSI31
70
0
71
0
91
1
92
5
93
3
72
1
10
91.083342615295
20
-6.39999999999998
11
90.6225588737423
21
-2.90000169255316
72
1
10
90.6225588737423
20
-2.90000169255316
11
91.5441263568478
21
-2.89999830744679
72
1
10
91.5441263568478
20
-2.89999830744679
11
91.083342615295
21
-6.39999999999998
97
0
75
0
76
1
52
0
41
0.0062
77
0
78
1
53
45
43
0
44
0
45
-0.0139193969876572
46
0.0139193969876572
79
0
47
0
98
1
10
0
20
0
0
DIMENSION
5
104
100
AcDbEntity
8
SK2
62
256
6
ByLayer
370
13
48
1
60
0
100
AcDbDimension
2
_U0
10
77.094
20
-16.613398
30
0
11
38.547
21
-16.613398
31
0
70
32
71
1
72
1
41
1
210
0
220
0
230
1
3
Standard
100
AcDbAlignedDimension
13
0
23
0
33
0
14
77.094
24
-6.4
34
0
50
0
100
AcDbRotatedDimension
1001
ACAD
1000
DSTYLE
1002
{
1070
   371
1070
    13
1070
   372
1070
    13
1070
   170
1070
     0
1070
   144
1040
1.0
1070
   277
1070
     2
1070
   278
1070
    44
1070
   146
1040
1.0
1070
   345
1005
16
1070
   347
1005
16
1070
   346
1005
16
1070
   344
1005
0
1070
   343
1005
0
1070
   172
1070
     1
1070
    76
1070
     0
1070
    75
1070
     0
1070
   282
1070
     0
1070
   281
1070
     0
1070
    71
1070
     0
1070
    74
1070
     0
1070
   279
1070
     0
1070
   173
1070
     1
1070
   340
1005
EC
1070
   271
1070
     2
1070
   272
1070
     2
1070
    77
1070
     1
1070
    73
1070
     1
1070
   171
1070
     3
1070
   274
1070
     4
1070
   177
1070
    35
1070
   176
1070
    35
1070
   178
1070
    35
1070
    48
1040
-0.1
1070
    41
1040
3.5
1070
   147
1040
1.75
1070
    42
1040
1.5875
1070
    44
1040
2.0
1070
   140
1040
3.5
1002
}
1001
ACAD_DSTYLE_DIM_LINETYPE
1070
   380
1005
16
1001
ACAD_DSTYLE_DIM_EXT1_LINETYPE
1070
   381
1005
16
1001
ACAD_DSTYLE_DIM_EXT2_LINETYPE
1070
   382
1005
16
0
DIMENSION
5
11D
100
AcDbEntity
8
SK2
62
256
6
ByLayer
370
13
48
1
60
0
100
AcDbDimension
2
_U1
10
79
20
-35.692985
30
0
11
17
21
-35.692985
31
0
70
32
71
1
72
1
41
1
210
0
220
0
230
1
3
Standard
100
AcDbAlignedDimension
13
-45
23
-7
33
0
14
79
24
0
34
0
50
0
100
AcDbRotatedDimension
1001
ACAD
1000
DSTYLE
1002
{
1070
   371
1070
    13
1070
   372
1070
    13
1070
   170
1070
     0
1070
   144
1040
1.0
1070
   277
1070
     2
1070
   278
1070
    44
1070
   146
1040
1.0
1070
   345
1005
16
1070
   347
1005
16
1070
   346
1005
16
1070
   344
1005
0
1070
   343
1005
0
1070
   172
1070
     1
1070
    76
1070
     0
1070
    75
1070
     0
1070
   282
1070
     0
1070
   281
1070
     0
1070
    71
1070
     0
1070
    74
1070
     0
1070
   279
1070
     0
1070
   173
1070
     1
1070
   340
1005
EC
1070
   271
1070
     2
1070
   272
1070
     2
1070
    77
1070
     1
1070
    73
1070
     1
1070
   171
1070
     3
1070
   274
1070
     4
1070
   177
1070
    35
1070
   176
1070
    35
1070
   178
1070
    35
1070
    48
1040
-0.1
1070
    41
1040
3.5
1070
   147
1040
1.75
1070
    42
1040
1.5875
1070
    44
1040
2.0
1070
   140
1040
3.5
1002
}
1001
ACAD_DSTYLE_DIM_LINETYPE
1070
   380
1005
16
1001
ACAD_DSTYLE_DIM_EXT1_LINETYPE
1070
   381
1005
16
1001
ACAD_DSTYLE_DIM_EXT2_LINETYPE
1070
   382
1005
16
0
DIMENSION
5
135
100
AcDbEntity
8
SK2
62
256
6
ByLayer
370
13
48
1
60
0
100
AcDbDimension
2
_U2
10
79
20
18.009119
30
0
11
48.18
21
18.009119
31
0
70
32
71
1
72
1
41
1
210
0
220
0
230
1
3
Standard
100
AcDbAlignedDimension
13
17.36
23
6.4
33
0
14
79
24
0
34
0
50
0
100
AcDbRotatedDimension
1001
ACAD
1000
DSTYLE
1002
{
1070
   371
1070
    13
1070
   372
1070
    13
1070
   170
1070
     0
1070
   144
1040
1.0
1070
   277
1070
     2
1070
   278
1070
    44
1070
   146
1040
1.0
1070
   345
1005
16
1070
   347
1005
16
1070
   346
1005
16
1070
   344
1005
0
1070
   343
1005
0
1070
   172
1070
     1
1070
    76
1070
     0
1070
    75
1070
     0
1070
   282
1070
     0
1070
   281
1070
     0
1070
    71
1070
     0
1070
    74
1070
     0
1070
   279
1070
     0
1070
   173
1070
     1
1070
   340
1005
EC
1070
   271
1070
     2
1070
   272
1070
     2
1070
    77
1070
     1
1070
    73
1070
     1
1070
   171
1070
     3
1070
   274
1070
     4
1070
   177
1070
    35
1070
   176
1070
    35
1070
   178
1070
    35
1070
    48
1040
-0.1
1070
    41
1040
3.5
1070
   147
1040
1.75
1070
    42
1040
1.5875
1070
    44
1040
2.0
1070
   140
1040
3.5
1002
}
1001
ACAD_DSTYLE_DIM_LINETYPE
1070
   380
1005
16
1001
ACAD_DSTYLE_DIM_EXT1_LINETYPE
1070
   381
1005
16
1001
ACAD_DSTYLE_DIM_EXT2_LINETYPE
1070
   382
1005
16
0
DIMENSION
5
14D
100
AcDbEntity
8
SK2
62
256
6
ByLayer
370
13
48
1
60
0
100
AcDbDimension
2
_U3
10
77.094
20
-19.202503
30
0
11
95.833333
21
-19.202503
31
0
70
32
71
1
72
1
41
1
210
0
220
0
230
1
3
Standard
100
AcDbAlignedDimension
13
79
23
0
33
0
14
77.094
24
-6.4
34
0
50
0
100
AcDbRotatedDimension
1001
ACAD
1000
DSTYLE
1002
{
1070
   371
1070
    13
1070
   372
1070
    13
1070
   170
1070
     0
1070
   144
1040
1.0
1070
   277
1070
     2
1070
   278
1070
    44
1070
   146
1040
1.0
1070
   345
1005
16
1070
   347
1005
16
1070
   346
1005
16
1070
   344
1005
0
1070
   343
1005
0
1070
   172
1070
     1
1070
    76
1070
     0
1070
    75
1070
     0
1070
   282
1070
     0
1070
   281
1070
     0
1070
    71
1070
     0
1070
    74
1070
     0
1070
   279
1070
     0
1070
   173
1070
     1
1070
   340
1005
EC
1070
   271
1070
     2
1070
   272
1070
     2
1070
    77
1070
     1
1070
    73
1070
     1
1070
   171
1070
     3
1070
   274
1070
     4
1070
   177
1070
    35
1070
   176
1070
    35
1070
   178
1070
    35
1070
    48
1040
-0.1
1070
    41
1040
3.5
1070
   147
1040
1.75
1070
    42
1040
1.5875
1070
    44
1040
2.0
1070
   140
1040
3.5
1002
}
1001
ACAD_DSTYLE_DIM_LINETYPE
1070
   380
1005
16
1001
ACAD_DSTYLE_DIM_EXT1_LINETYPE
1070
   381
1005
16
1001
ACAD_DSTYLE_DIM_EXT2_LINETYPE
1070
   382
1005
16
0
DIMENSION
5
167
100
AcDbEntity
8
SK2
62
256
6
ByLayer
370
13
48
1
60
0
100
AcDbDimension
2
_U4
10
77.094
20
-25.343428
30
0
11
16.047
21
-25.343428
31
0
70
32
71
1
72
1
41
1
210
0
220
0
230
1
3
Standard
100
AcDbAlignedDimension
13
-45
23
-7
33
0
14
77.094
24
-6.4
34
0
50
0
100
AcDbRotatedDimension
1001
ACAD
1000
DSTYLE
1002
{
1070
   371
1070
    13
1070
   372
1070
    13
1070
   170
1070
     0
1070
   144
1040
1.0
1070
   277
1070
     2
1070
   278
1070
    44
1070
   146
1040
1.0
1070
   345
1005
16
1070
   347
1005
16
1070
   346
1005
16
1070
   344
1005
0
1070
   343
1005
0
1070
   172
1070
     1
1070
    76
1070
     0
1070
    75
1070
     0
1070
   282
1070
     0
1070
   281
1070
     0
1070
    71
1070
     0
1070
    74
1070
     0
1070
   279
1070
     0
1070
   173
1070
     1
1070
   340
1005
EC
1070
   271
1070
     2
1070
   272
1070
     2
1070
    77
1070
     1
1070
    73
1070
     1
1070
   171
1070
     3
1070
   274
1070
     4
1070
   177
1070
    35
1070
   176
1070
    35
1070
   178
1070
    35
1070
    48
1040
-0.1
1070
    41
1040
3.5
1070
   147
1040
1.75
1070
    42
1040
1.5875
1070
    44
1040
2.0
1070
   140
1040
3.5
1002
}
1001
ACAD_DSTYLE_DIM_LINETYPE
1070
   380
1005
16
1001
ACAD_DSTYLE_DIM_EXT1_LINETYPE
1070
   381
1005
16
1001
ACAD_DSTYLE_DIM_EXT2_LINETYPE
1070
   382
1005
16
0
ENDSEC
0
SECTION
2
OBJECTS
0
DICTIONARY
5
1ef
330
0
100
AcDbDictionary
280
0
281
1
3
ACAD_GROUP
350
1f0
3
ACAD_MLINESTYLE
350
1f1
0
DICTIONARY
5
1f0
330
0
100
AcDbDictionary
280
0
281
1
0
DICTIONARY
5
1f1
330
0
100
AcDbDictionary
280
0
281
1
3
Standard
350
18
0
MLINESTYLE
5
18
330
1f1
100
AcDbMlineStyle
2
Standard
70
0
3

62
256
51
90
52
90
71
2
49
-0.5
62
256
6
ByLayer
49
0.5
62
256
6
ByLayer
0
RASTERVARIABLES
5
1dd
330

100
AcDbRasterVariables
90
0
70
1
71
1
72
1
0
ENDSEC
0
EOF
