0
SECTION
2
HEADER
9
$ACADVER
1
AC1015
9
$DWGCODEPAGE
3
ANSI_1252
9
$HANDSEED
5
201
9
$ANGBASE
50
0
9
$ANGDIR
70
0
9
$ATTMODE
70
1
9
$AUNITS
70
0
9
$AUPREC
70
0
9
$CECOLOR
62
256
9
$CELTSCALE
40
1
9
$CELTYPE
6
ByLayer
9
$CELWEIGHT
370
18
9
$CLAYER
8
0
9
$CMLJUST
70
0
9
$CMLSCALE
40
1
9
$CMLSTYLE
2
Standard
9
$DIMSTYLE
2
Standard
9
$TEXTSIZE
40
0.2
9
$TEXTSTYLE
7
Standard
9
$LUNITS
70
2
9
$LUPREC
70
4
9
$EXTNAMES
290
1
9
$INSUNITS
70
4
9
$LTSCALE
40
1
9
$LWDISPLAY
290
1
9
$PDMODE
70
0
9
$PDSIZE
40
0
9
$PLINEGEN
70
0
0
ENDSEC
0
SECTION
2
CLASSES
0
CLASS
1
RASTERVARIABLES
2
AcDbRasterVariables
3
ISM
90
0
280
0
281
0
0
ENDSEC
0
SECTION
2
TABLES
0
TABLE
2
VPORT
5
1f7
100
AcDbSymbolTable
0
VPORT
5
1
100
AcDbSymbolTableRecord
100
AcDbViewportTableRecord
2
*Active
70
0
10
0
20
0
11
1
21
1
12
-1
22
1
13
0
23
0
14
0.5
24
0.5
15
10
25
10
16
0
26
0
36
1
17
0
27
0
37
0
0
ENDTAB
0
TABLE
2
LTYPE
5
1f8
100
AcDbSymbolTable
0
LTYPE
5
14
100
AcDbSymbolTableRecord
100
AcDbLinetypeTableRecord
70
0
2
ByBlock
3

72
65
73
0
40
0
0
LTYPE
5
15
100
AcDbSymbolTableRecord
100
AcDbLinetypeTableRecord
70
0
2
ByLayer
3

72
65
73
0
40
0
0
LTYPE
5
16
100
AcDbSymbolTableRecord
100
AcDbLinetypeTableRecord
70
0
2
Continuous
3
Solid line
72
65
73
0
40
0
0
LTYPE
5
6E
100
AcDbSymbolTableRecord
100
AcDbLinetypeTableRecord
70
0
2
CENTER
3
____ _ ____ _ ____ _ ____
72
65
73
4
40
47.5
49
22
74
0
49
-8.5
74
0
49
8.5
74
0
49
-8.5
74
0
0
LTYPE
5
6F
100
AcDbSymbolTableRecord
100
AcDbLinetypeTableRecord
70
0
2
DASHED
3
__ __ __ __ __ __ __ __ __
72
65
73
2
40
25.72
49
12.86
74
0
49
-12.86
74
0
0
ENDTAB
0
TABLE
2
LAYER
5
1f9
100
AcDbSymbolTable
0
LAYER
5
10
100
AcDbSymbolTableRecord
100
AcDbLayerTableRecord
2
0
70
0
62
7
6
Continuous
290
1
370
-3
390
0
0
LAYER
5
71
100
AcDbSymbolTableRecord
100
AcDbLayerTableRecord
2
80
70
0
62
-6
6
Continuous
290
1
370
-3
390
0
0
LAYER
5
73
100
AcDbSymbolTableRecord
100
AcDbLayerTableRecord
2
81
70
0
62
-3
6
Continuous
290
1
370
-3
390
0
0
LAYER
5
75
100
AcDbSymbolTableRecord
100
AcDbLayerTableRecord
2
1
70
0
62
4
6
Continuous
290
1
370
-3
390
0
0
LAYER
5
8B
100
AcDbSymbolTableRecord
100
AcDbLayerTableRecord
2
4
70
0
62
-2
6
CENTER
290
1
370
-3
390
0
0
LAYER
5
A4
100
AcDbSymbolTableRecord
100
AcDbLayerTableRecord
2
2
70
0
62
7
6
Continuous
290
1
370
-3
390
0
0
LAYER
5
10C
100
AcDbSymbolTableRecord
100
AcDbLayerTableRecord
2
Defpoints
70
0
62
7
6
Continuous
290
0
370
-3
390
0
0
LAYER
5
1e3
100
AcDbSymbolTableRecord
100
AcDbLayerTableRecord
2
SK1
70
0
62
4
6
Continuous
290
1
370
-3
390
0
0
LAYER
5
1e4
100
AcDbSymbolTableRecord
100
AcDbLayerTableRecord
2
SK4
70
0
62
2
6
CENTER
290
1
370
-3
390
0
0
LAYER
5
1e5
100
AcDbSymbolTableRecord
100
AcDbLayerTableRecord
2
SK2
70
0
62
7
6
Continuous
290
1
370
-3
390
0
0
LAYER
5
1e6
100
AcDbSymbolTableRecord
100
AcDbLayerTableRecord
2
SK6
70
0
62
5
6
Continuous
290
1
370
-3
390
0
0
ENDTAB
0
TABLE
2
STYLE
5
1fa
100
AcDbSymbolTable
0
STYLE
5
11
100
AcDbSymbolTableRecord
100
AcDbTextStyleTableRecord
2
Standard
3
txt
70
0
71
0
40
0
41
1
42
0
50
0
0
STYLE
5
F1
100
AcDbSymbolTableRecord
100
AcDbTextStyleTableRecord
2
iso_b_vert
3
simplex.shx
70
0
71
0
40
0
41
1
42
0
50
0
0
STYLE
5
F2
100
AcDbSymbolTableRecord
100
AcDbTextStyleTableRecord
2
DWGDirectTextStyle
3
simplex
70
0
71
0
40
0
41
1
42
0
50
0
0
ENDTAB
0
TABLE
2
DIMSTYLE
5
1fb
100
AcDbSymbolTable
100
AcDbDimStyleTable
0
DIMSTYLE
105
27
100
AcDbSymbolTableRecord
100
AcDbDimStyleTableRecord
2
Standard
70
0
3
<>
41
0.18
42
0.0625
44
0.18
140
0.18
147
0.09
73
0
74
0
77
1
271
2
275
0
278
52
280
0
340
11
0
ENDTAB
0
TABLE
2
VIEW
5
1fc
100
AcDbSymbolTable
0
ENDTAB
0
TABLE
2
UCS
5
1fd
100
AcDbSymbolTable
0
ENDTAB
0
TABLE
2
APPID
5
1fe
100
AcDbSymbolTable
0
APPID
5
12
100
AcDbSymbolTableRecord
100
AcDbRegAppTableRecord
2
ACAD
70
0
0
APPID
5
108
100
AcDbSymbolTableRecord
100
AcDbRegAppTableRecord
2
ACAD_DSTYLE_DIMBREAK
70
0
0
APPID
5
1A2
100
AcDbSymbolTableRecord
100
AcDbRegAppTableRecord
2
ACAD_DSTYLE_DIM_LINETYPE
70
0
0
APPID
5
1A3
100
AcDbSymbolTableRecord
100
AcDbRegAppTableRecord
2
ACAD_DSTYLE_DIM_EXT1_LINETYPE
70
0
0
APPID
5
1A4
100
AcDbSymbolTableRecord
100
AcDbRegAppTableRecord
2
ACAD_DSTYLE_DIM_EXT2_LINETYPE
70
0
0
APPID
5
1DF
100
AcDbSymbolTableRecord
100
AcDbRegAppTableRecord
2
ACAD_MLEADERVER
70
0
0
ENDTAB
0
TABLE
2
BLOCK_RECORD
5
1ff
100
AcDbSymbolTable
0
BLOCK_RECORD
5
1F
100
AcDbSymbolTableRecord
100
AcDbBlockTableRecord
2
*Model_Space
340
0
70
0
0
BLOCK_RECORD
5
1B
100
AcDbSymbolTableRecord
100
AcDbBlockTableRecord
2
*Paper_Space
340
0
70
0
0
BLOCK_RECORD
5
23
100
AcDbSymbolTableRecord
100
AcDbBlockTableRecord
2
*Paper_Space0
340
0
70
0
0
BLOCK_RECORD
5
10D
100
AcDbSymbolTableRecord
100
AcDbBlockTableRecord
2
*D1
340
0
70
0
0
BLOCK_RECORD
5
119
100
AcDbSymbolTableRecord
100
AcDbBlockTableRecord
2
_U0
340
0
70
0
0
BLOCK_RECORD
5
125
100
AcDbSymbolTableRecord
100
AcDbBlockTableRecord
2
*D3
340
0
70
0
0
BLOCK_RECORD
5
131
100
AcDbSymbolTableRecord
100
AcDbBlockTableRecord
2
_U1
340
0
70
0
0
BLOCK_RECORD
5
13D
100
AcDbSymbolTableRecord
100
AcDbBlockTableRecord
2
*D5
340
0
70
0
0
BLOCK_RECORD
5
149
100
AcDbSymbolTableRecord
100
AcDbBlockTableRecord
2
_U2
340
0
70
0
0
BLOCK_RECORD
5
155
100
AcDbSymbolTableRecord
100
AcDbBlockTableRecord
2
*D7
340
0
70
0
0
BLOCK_RECORD
5
163
100
AcDbSymbolTableRecord
100
AcDbBlockTableRecord
2
_U3
340
0
70
0
0
BLOCK_RECORD
5
16F
100
AcDbSymbolTableRecord
100
AcDbBlockTableRecord
2
*D9
340
0
70
0
0
BLOCK_RECORD
5
17B
100
AcDbSymbolTableRecord
100
AcDbBlockTableRecord
2
_U4
340
0
70
0
0
ENDTAB
0
ENDSEC
0
SECTION
2
BLOCKS
0
BLOCK
5
20
100
AcDbEntity
8
0
100
AcDbBlockBegin
2
*Model_Space
70
0
10
0
20
0
30
0
3
*Model_Space
0
ENDBLK
5
21
100
AcDbEntity
8
0
100
AcDbBlockEnd
0
BLOCK
5
1C
100
AcDbEntity
8
0
100
AcDbBlockBegin
2
*Paper_Space
70
0
10
0
20
0
30
0
3
*Paper_Space
0
ENDBLK
5
1D
100
AcDbEntity
8
0
100
AcDbBlockEnd
0
BLOCK
5
24
100
AcDbEntity
8
0
100
AcDbBlockBegin
2
*Paper_Space0
70
0
10
0
20
0
30
0
3
*Paper_Space0
0
ENDBLK
5
25
100
AcDbEntity
8
0
100
AcDbBlockEnd
0
BLOCK
5
10E
100
AcDbEntity
8
0
100
AcDbBlockBegin
2
*D1
70
1
10
0
20
0
30
0
3
*D1
0
LINE
5
110
100
AcDbEntity
8
0
62
256
6
ByLayer
370
-2
48
1
60
0
100
AcDbLine
10
0
20
-1.5875
30
0
11
0
21
-19.363398
31
0
39
0
210
0
220
0
230
1
0
LINE
5
111
100
AcDbEntity
8
0
62
256
6
ByLayer
370
-2
48
1
60
0
100
AcDbLine
10
64.868
20
-8.7375
30
0
11
64.868
21
-19.363398
31
0
39
0
210
0
220
0
230
1
0
LINE
5
112
100
AcDbEntity
8
0
62
256
6
ByLayer
370
-2
48
1
60
0
100
AcDbLine
10
3.5
20
-17.363398
30
0
11
61.368
21
-17.363398
31
0
39
0
210
0
220
0
230
1
0
SOLID
5
113
100
AcDbEntity
8
0
62
256
6
ByLayer
370
-1
48
1
60
0
100
AcDbTrace
10
3.5
20
-16.780065
30
0
11
3.5
21
-17.946732
31
0
12
0
22
-17.363398
32
0
13
0
23
-17.363398
33
0
39
0
210
0
220
0
230
1
0
SOLID
5
114
100
AcDbEntity
8
0
62
256
6
ByLayer
370
-1
48
1
60
0
100
AcDbTrace
10
61.368
20
-17.946732
30
0
11
61.368
21
-16.780065
31
0
12
64.868
22
-17.363398
32
0
13
64.868
23
-17.363398
33
0
39
0
210
0
220
0
230
1
0
MTEXT
5
115
100
AcDbEntity
8
0
62
256
6
ByLayer
370
18
48
1
60
0
100
AcDbMText
10
32.434
20
-10.363398
30
0
210
0
220
0
230
1
1
\A1;64.87
40
3.5
41
0
44
1
50
0
71
5
72
5
7
iso_b_vert
0
POINT
5
116
100
AcDbEntity
8
Defpoints
62
0
6
ByLayer
370
-1
48
1
60
0
100
AcDbPoint
10
0
20
0
30
0
39
0
210
0
220
0
230
1
50
360
0
POINT
5
117
100
AcDbEntity
8
Defpoints
62
0
6
ByLayer
370
-1
48
1
60
0
100
AcDbPoint
10
64.868
20
-7.15
30
0
39
0
210
0
220
0
230
1
50
360
0
POINT
5
118
100
AcDbEntity
8
Defpoints
62
0
6
ByLayer
370
-1
48
1
60
0
100
AcDbPoint
10
64.868
20
-17.363398
30
0
39
0
210
0
220
0
230
1
50
360
0
ENDBLK
5
10F
100
AcDbEntity
8
0
100
AcDbBlockEnd
0
BLOCK
5
120
100
AcDbEntity
8
0
100
AcDbBlockBegin
2
_U0
70
0
10
0
20
0
30
0
3
_U0
0
MTEXT
5
11A
100
AcDbEntity
8
SK2
62
256
6
ByLayer
370
13
48
1
60
0
100
AcDbMText
10
27.112435
20
-16.330765
30
0
210
0
220
0
230
1
1
\W0.7581;64,87
40
3.5
41
0
44
1.084337
50
0
71
7
72
5
7
iso_b_vert
0
LINE
5
11B
100
AcDbEntity
8
SK2
62
256
6
ByLayer
370
13
48
1
60
0
100
AcDbLine
10
0
20
-1.5875
30
0
11
0
21
-19.363398
31
0
39
0
210
0
220
0
230
1
0
LINE
5
11C
100
AcDbEntity
8
SK2
62
256
6
ByLayer
370
13
48
1
60
0
100
AcDbLine
10
64.868
20
-8.7375
30
0
11
64.868
21
-19.363398
31
0
39
0
210
0
220
0
230
1
0
LINE
5
11D
100
AcDbEntity
8
SK2
62
256
6
ByLayer
370
13
48
1
60
0
100
AcDbLine
10
0
20
-17.363398
30
0
11
64.868
21
-17.363398
31
0
39
0
210
0
220
0
230
1
0
SOLID
5
11E
100
AcDbEntity
8
SK2
62
256
6
ByLayer
370
18
48
1
60
0
100
AcDbTrace
10
0
20
-17.363398
30
0
11
3.499998
21
-16.902615
31
0
12
3.500002
22
-17.824182
32
0
13
3.500002
23
-17.824182
33
0
39
0
210
0
220
0
230
1
0
SOLID
5
11F
100
AcDbEntity
8
SK2
62
256
6
ByLayer
370
18
48
1
60
0
100
AcDbTrace
10
64.868
20
-17.363398
30
0
11
61.368002
21
-17.824182
31
0
12
61.367998
22
-16.902615
32
0
13
61.367998
23
-16.902615
33
0
39
0
210
0
220
0
230
1
0
ENDBLK
5
121
100
AcDbEntity
8
0
100
AcDbBlockEnd
0
BLOCK
5
126
100
AcDbEntity
8
0
100
AcDbBlockBegin
2
*D3
70
1
10
0
20
0
30
0
3
*D3
0
LINE
5
128
100
AcDbEntity
8
0
62
256
6
ByLayer
370
-2
48
1
60
0
100
AcDbLine
10
-48
20
-9.5875
30
0
11
-48
21
-38.692985
31
0
39
0
210
0
220
0
230
1
0
LINE
5
129
100
AcDbEntity
8
0
62
256
6
ByLayer
370
-2
48
1
60
0
100
AcDbLine
10
67
20
-1.5875
30
0
11
67
21
-38.692985
31
0
39
0
210
0
220
0
230
1
0
LINE
5
12A
100
AcDbEntity
8
0
62
256
6
ByLayer
370
-2
48
1
60
0
100
AcDbLine
10
-44.5
20
-36.692985
30
0
11
63.5
21
-36.692985
31
0
39
0
210
0
220
0
230
1
0
SOLID
5
12B
100
AcDbEntity
8
0
62
256
6
ByLayer
370
-1
48
1
60
0
100
AcDbTrace
10
-44.5
20
-36.109652
30
0
11
-44.5
21
-37.276319
31
0
12
-48
22
-36.692985
32
0
13
-48
23
-36.692985
33
0
39
0
210
0
220
0
230
1
0
SOLID
5
12C
100
AcDbEntity
8
0
62
256
6
ByLayer
370
-1
48
1
60
0
100
AcDbTrace
10
63.5
20
-37.276319
30
0
11
63.5
21
-36.109652
31
0
12
67
22
-36.692985
32
0
13
67
23
-36.692985
33
0
39
0
210
0
220
0
230
1
0
MTEXT
5
12D
100
AcDbEntity
8
0
62
256
6
ByLayer
370
18
48
1
60
0
100
AcDbMText
10
9.5
20
-29.692985
30
0
210
0
220
0
230
1
1
\A1;115.00
40
3.5
41
0
44
1
50
0
71
5
72
5
7
iso_b_vert
0
POINT
5
12E
100
AcDbEntity
8
Defpoints
62
0
6
ByLayer
370
-1
48
1
60
0
100
AcDbPoint
10
-48
20
-8
30
0
39
0
210
0
220
0
230
1
50
360
0
POINT
5
12F
100
AcDbEntity
8
Defpoints
62
0
6
ByLayer
370
-1
48
1
60
0
100
AcDbPoint
10
67
20
0
30
0
39
0
210
0
220
0
230
1
50
360
0
POINT
5
130
100
AcDbEntity
8
Defpoints
62
0
6
ByLayer
370
-1
48
1
60
0
100
AcDbPoint
10
67
20
-36.692985
30
0
39
0
210
0
220
0
230
1
50
360
0
ENDBLK
5
127
100
AcDbEntity
8
0
100
AcDbBlockEnd
0
BLOCK
5
138
100
AcDbEntity
8
0
100
AcDbBlockBegin
2
_U1
70
0
10
0
20
0
30
0
3
_U1
0
MTEXT
5
132
100
AcDbEntity
8
SK2
62
256
6
ByLayer
370
13
48
1
60
0
100
AcDbMText
10
3.929835
20
-35.660352
30
0
210
0
220
0
230
1
1
\W0.6440;115,00
40
3.5
41
0
44
1.084337
50
0
71
7
72
5
7
iso_b_vert
0
LINE
5
133
100
AcDbEntity
8
SK2
62
256
6
ByLayer
370
13
48
1
60
0
100
AcDbLine
10
-48
20
-9.5875
30
0
11
-48
21
-38.692985
31
0
39
0
210
0
220
0
230
1
0
LINE
5
134
100
AcDbEntity
8
SK2
62
256
6
ByLayer
370
13
48
1
60
0
100
AcDbLine
10
67
20
-1.5875
30
0
11
67
21
-38.692985
31
0
39
0
210
0
220
0
230
1
0
LINE
5
135
100
AcDbEntity
8
SK2
62
256
6
ByLayer
370
13
48
1
60
0
100
AcDbLine
10
-48
20
-36.692985
30
0
11
67
21
-36.692985
31
0
39
0
210
0
220
0
230
1
0
SOLID
5
136
100
AcDbEntity
8
SK2
62
256
6
ByLayer
370
18
48
1
60
0
100
AcDbTrace
10
-48
20
-36.692985
30
0
11
-44.500002
21
-36.232202
31
0
12
-44.499998
22
-37.153769
32
0
13
-44.499998
23
-37.153769
33
0
39
0
210
0
220
0
230
1
0
SOLID
5
137
100
AcDbEntity
8
SK2
62
256
6
ByLayer
370
18
48
1
60
0
100
AcDbTrace
10
67
20
-36.692985
30
0
11
63.500002
21
-37.153769
31
0
12
63.499998
22
-36.232202
32
0
13
63.499998
23
-36.232202
33
0
39
0
210
0
220
0
230
1
0
ENDBLK
5
139
100
AcDbEntity
8
0
100
AcDbBlockEnd
0
BLOCK
5
13E
100
AcDbEntity
8
0
100
AcDbBlockBegin
2
*D5
70
1
10
0
20
0
30
0
3
*D5
0
LINE
5
140
100
AcDbEntity
8
0
62
256
6
ByLayer
370
-2
48
1
60
0
100
AcDbLine
10
21.97
20
8.7375
30
0
11
21.97
21
20.759119
31
0
39
0
210
0
220
0
230
1
0
LINE
5
141
100
AcDbEntity
8
0
62
256
6
ByLayer
370
-2
48
1
60
0
100
AcDbLine
10
67
20
1.5875
30
0
11
67
21
20.759119
31
0
39
0
210
0
220
0
230
1
0
LINE
5
142
100
AcDbEntity
8
0
62
256
6
ByLayer
370
-2
48
1
60
0
100
AcDbLine
10
25.47
20
18.759119
30
0
11
63.5
21
18.759119
31
0
39
0
210
0
220
0
230
1
0
SOLID
5
143
100
AcDbEntity
8
0
62
256
6
ByLayer
370
-1
48
1
60
0
100
AcDbTrace
10
25.47
20
19.342453
30
0
11
25.47
21
18.175786
31
0
12
21.97
22
18.759119
32
0
13
21.97
23
18.759119
33
0
39
0
210
0
220
0
230
1
0
SOLID
5
144
100
AcDbEntity
8
0
62
256
6
ByLayer
370
-1
48
1
60
0
100
AcDbTrace
10
63.5
20
18.175786
30
0
11
63.5
21
19.342453
31
0
12
67
22
18.759119
32
0
13
67
23
18.759119
33
0
39
0
210
0
220
0
230
1
0
MTEXT
5
145
100
AcDbEntity
8
0
62
256
6
ByLayer
370
18
48
1
60
0
100
AcDbMText
10
44.485
20
25.759119
30
0
210
0
220
0
230
1
1
\A1;45.03
40
3.5
41
0
44
1
50
0
71
5
72
5
7
iso_b_vert
0
POINT
5
146
100
AcDbEntity
8
Defpoints
62
0
6
ByLayer
370
-1
48
1
60
0
100
AcDbPoint
10
21.97
20
7.15
30
0
39
0
210
0
220
0
230
1
50
360
0
POINT
5
147
100
AcDbEntity
8
Defpoints
62
0
6
ByLayer
370
-1
48
1
60
0
100
AcDbPoint
10
67
20
0
30
0
39
0
210
0
220
0
230
1
50
360
0
POINT
5
148
100
AcDbEntity
8
Defpoints
62
0
6
ByLayer
370
-1
48
1
60
0
100
AcDbPoint
10
67
20
18.759119
30
0
39
0
210
0
220
0
230
1
50
360
0
ENDBLK
5
13F
100
AcDbEntity
8
0
100
AcDbBlockEnd
0
BLOCK
5
150
100
AcDbEntity
8
0
100
AcDbBlockBegin
2
_U2
70
0
10
0
20
0
30
0
3
_U2
0
MTEXT
5
14A
100
AcDbEntity
8
SK2
62
256
6
ByLayer
370
13
48
1
60
0
100
AcDbMText
10
39.163435
20
19.791753
30
0
210
0
220
0
230
1
1
\W0.7581;45,03
40
3.5
41
0
44
1.084337
50
0
71
7
72
5
7
iso_b_vert
0
LINE
5
14B
100
AcDbEntity
8
SK2
62
256
6
ByLayer
370
13
48
1
60
0
100
AcDbLine
10
21.97
20
8.7375
30
0
11
21.97
21
20.759119
31
0
39
0
210
0
220
0
230
1
0
LINE
5
14C
100
AcDbEntity
8
SK2
62
256
6
ByLayer
370
13
48
1
60
0
100
AcDbLine
10
67
20
1.5875
30
0
11
67
21
20.759119
31
0
39
0
210
0
220
0
230
1
0
LINE
5
14D
100
AcDbEntity
8
SK2
62
256
6
ByLayer
370
13
48
1
60
0
100
AcDbLine
10
21.97
20
18.759119
30
0
11
67
21
18.759119
31
0
39
0
210
0
220
0
230
1
0
SOLID
5
14E
100
AcDbEntity
8
SK2
62
256
6
ByLayer
370
18
48
1
60
0
100
AcDbTrace
10
21.97
20
18.759119
30
0
11
25.469998
21
19.219903
31
0
12
25.470002
22
18.298335
32
0
13
25.470002
23
18.298335
33
0
39
0
210
0
220
0
230
1
0
SOLID
5
14F
100
AcDbEntity
8
SK2
62
256
6
ByLayer
370
18
48
1
60
0
100
AcDbTrace
10
67
20
18.759119
30
0
11
63.500002
21
18.298335
31
0
12
63.499998
22
19.219903
32
0
13
63.499998
23
19.219903
33
0
39
0
210
0
220
0
230
1
0
ENDBLK
5
151
100
AcDbEntity
8
0
100
AcDbBlockEnd
0
BLOCK
5
156
100
AcDbEntity
8
0
100
AcDbBlockBegin
2
*D7
70
1
10
0
20
0
30
0
3
*D7
0
LINE
5
158
100
AcDbEntity
8
0
62
256
6
ByLayer
370
-2
48
1
60
0
100
AcDbLine
10
67
20
-1.5875
30
0
11
67
21
-21.952503
31
0
39
0
210
0
220
0
230
1
0
LINE
5
159
100
AcDbEntity
8
0
62
256
6
ByLayer
370
-2
48
1
60
0
100
AcDbLine
10
64.868
20
-8.7375
30
0
11
64.868
21
-21.952503
31
0
39
0
210
0
220
0
230
1
0
LINE
5
15A
100
AcDbEntity
8
0
62
256
6
ByLayer
370
-2
48
1
60
0
100
AcDbLine
10
67
20
-19.952503
30
0
11
95.166667
21
-19.952503
31
0
39
0
210
0
220
0
230
1
0
LINE
5
15B
100
AcDbEntity
8
0
62
256
6
ByLayer
370
-2
48
1
60
0
100
AcDbLine
10
70.5
20
-19.952503
30
0
11
74
21
-19.952503
31
0
39
0
210
0
220
0
230
1
0
LINE
5
15C
100
AcDbEntity
8
0
62
256
6
ByLayer
370
-2
48
1
60
0
100
AcDbLine
10
61.368
20
-19.952503
30
0
11
57.868
21
-19.952503
31
0
39
0
210
0
220
0
230
1
0
SOLID
5
15D
100
AcDbEntity
8
0
62
256
6
ByLayer
370
-1
48
1
60
0
100
AcDbTrace
10
70.5
20
-19.36917
30
0
11
70.5
21
-20.535837
31
0
12
67
22
-19.952503
32
0
13
67
23
-19.952503
33
0
39
0
210
0
220
0
230
1
0
SOLID
5
15E
100
AcDbEntity
8
0
62
256
6
ByLayer
370
-1
48
1
60
0
100
AcDbTrace
10
61.368
20
-20.535837
30
0
11
61.368
21
-19.36917
31
0
12
64.868
22
-19.952503
32
0
13
64.868
23
-19.952503
33
0
39
0
210
0
220
0
230
1
0
MTEXT
5
15F
100
AcDbEntity
8
0
62
256
6
ByLayer
370
18
48
1
60
0
100
AcDbMText
10
84.583333
20
-12.952503
30
0
210
0
220
0
230
1
1
\A1;2.13
40
3.5
41
0
44
1
50
0
71
5
72
5
7
iso_b_vert
0
POINT
5
160
100
AcDbEntity
8
Defpoints
62
0
6
ByLayer
370
-1
48
1
60
0
100
AcDbPoint
10
67
20
0
30
0
39
0
210
0
220
0
230
1
50
360
0
POINT
5
161
100
AcDbEntity
8
Defpoints
62
0
6
ByLayer
370
-1
48
1
60
0
100
AcDbPoint
10
64.868
20
-7.15
30
0
39
0
210
0
220
0
230
1
50
360
0
POINT
5
162
100
AcDbEntity
8
Defpoints
62
0
6
ByLayer
370
-1
48
1
60
0
100
AcDbPoint
10
64.868
20
-19.952503
30
0
39
0
210
0
220
0
230
1
50
360
0
ENDBLK
5
157
100
AcDbEntity
8
0
100
AcDbBlockEnd
0
BLOCK
5
16A
100
AcDbEntity
8
0
100
AcDbBlockBegin
2
_U3
70
0
10
0
20
0
30
0
3
_U3
0
MTEXT
5
164
100
AcDbEntity
8
SK2
62
256
6
ByLayer
370
13
48
1
60
0
100
AcDbMText
10
73.589293
20
-18.91987
30
0
210
0
220
0
230
1
1
\W0.6367;2,13
40
3.5
41
0
44
1.084337
50
0
71
7
72
5
7
iso_b_vert
0
LINE
5
165
100
AcDbEntity
8
SK2
62
256
6
ByLayer
370
13
48
1
60
0
100
AcDbLine
10
67
20
-1.5875
30
0
11
67
21
-21.952503
31
0
39
0
210
0
220
0
230
1
0
LINE
5
166
100
AcDbEntity
8
SK2
62
256
6
ByLayer
370
13
48
1
60
0
100
AcDbLine
10
64.868
20
-8.7375
30
0
11
64.868
21
-21.952503
31
0
39
0
210
0
220
0
230
1
0
LINE
5
167
100
AcDbEntity
8
SK2
62
256
6
ByLayer
370
13
48
1
60
0
100
AcDbLine
10
56.118
20
-19.952503
30
0
11
80.559058
21
-19.952503
31
0
39
0
210
0
220
0
230
1
0
SOLID
5
168
100
AcDbEntity
8
SK2
62
256
6
ByLayer
370
18
48
1
60
0
100
AcDbTrace
10
67
20
-19.952503
30
0
11
70.499998
21
-19.491719
31
0
12
70.500002
22
-20.413287
32
0
13
70.500002
23
-20.413287
33
0
39
0
210
0
220
0
230
1
0
SOLID
5
169
100
AcDbEntity
8
SK2
62
256
6
ByLayer
370
18
48
1
60
0
100
AcDbTrace
10
64.868
20
-19.952503
30
0
11
61.368002
21
-20.413287
31
0
12
61.367998
22
-19.491719
32
0
13
61.367998
23
-19.491719
33
0
39
0
210
0
220
0
230
1
0
ENDBLK
5
16B
100
AcDbEntity
8
0
100
AcDbBlockEnd
0
BLOCK
5
170
100
AcDbEntity
8
0
100
AcDbBlockBegin
2
*D9
70
1
10
0
20
0
30
0
3
*D9
0
LINE
5
172
100
AcDbEntity
8
0
62
256
6
ByLayer
370
-2
48
1
60
0
100
AcDbLine
10
-48
20
-9.5875
30
0
11
-48
21
-28.343428
31
0
39
0
210
0
220
0
230
1
0
LINE
5
173
100
AcDbEntity
8
0
62
256
6
ByLayer
370
-2
48
1
60
0
100
AcDbLine
10
64.868
20
-8.7375
30
0
11
64.868
21
-28.343428
31
0
39
0
210
0
220
0
230
1
0
LINE
5
174
100
AcDbEntity
8
0
62
256
6
ByLayer
370
-2
48
1
60
0
100
AcDbLine
10
-44.5
20
-26.343428
30
0
11
61.368
21
-26.343428
31
0
39
0
210
0
220
0
230
1
0
SOLID
5
175
100
AcDbEntity
8
0
62
256
6
ByLayer
370
-1
48
1
60
0
100
AcDbTrace
10
-44.5
20
-25.760095
30
0
11
-44.5
21
-26.926762
31
0
12
-48
22
-26.343428
32
0
13
-48
23
-26.343428
33
0
39
0
210
0
220
0
230
1
0
SOLID
5
176
100
AcDbEntity
8
0
62
256
6
ByLayer
370
-1
48
1
60
0
100
AcDbTrace
10
61.368
20
-26.926762
30
0
11
61.368
21
-25.760095
31
0
12
64.868
22
-26.343428
32
0
13
64.868
23
-26.343428
33
0
39
0
210
0
220
0
230
1
0
MTEXT
5
177
100
AcDbEntity
8
0
62
256
6
ByLayer
370
18
48
1
60
0
100
AcDbMText
10
8.434
20
-19.343428
30
0
210
0
220
0
230
1
1
\A1;112.87
40
3.5
41
0
44
1
50
0
71
5
72
5
7
iso_b_vert
0
POINT
5
178
100
AcDbEntity
8
Defpoints
62
0
6
ByLayer
370
-1
48
1
60
0
100
AcDbPoint
10
-48
20
-8
30
0
39
0
210
0
220
0
230
1
50
360
0
POINT
5
179
100
AcDbEntity
8
Defpoints
62
0
6
ByLayer
370
-1
48
1
60
0
100
AcDbPoint
10
64.868
20
-7.15
30
0
39
0
210
0
220
0
230
1
50
360
0
POINT
5
17A
100
AcDbEntity
8
Defpoints
62
0
6
ByLayer
370
-1
48
1
60
0
100
AcDbPoint
10
64.868
20
-26.343428
30
0
39
0
210
0
220
0
230
1
50
360
0
ENDBLK
5
171
100
AcDbEntity
8
0
100
AcDbBlockEnd
0
BLOCK
5
182
100
AcDbEntity
8
0
100
AcDbBlockBegin
2
_U4
70
0
10
0
20
0
30
0
3
_U4
0
MTEXT
5
17C
100
AcDbEntity
8
SK2
62
256
6
ByLayer
370
13
48
1
60
0
100
AcDbMText
10
2.863835
20
-25.310795
30
0
210
0
220
0
230
1
1
\W0.6440;112,87
40
3.5
41
0
44
1.084337
50
0
71
7
72
5
7
iso_b_vert
0
LINE
5
17D
100
AcDbEntity
8
SK2
62
256
6
ByLayer
370
13
48
1
60
0
100
AcDbLine
10
-48
20
-9.5875
30
0
11
-48
21
-28.343428
31
0
39
0
210
0
220
0
230
1
0
LINE
5
17E
100
AcDbEntity
8
SK2
62
256
6
ByLayer
370
13
48
1
60
0
100
AcDbLine
10
64.868
20
-8.7375
30
0
11
64.868
21
-28.343428
31
0
39
0
210
0
220
0
230
1
0
LINE
5
17F
100
AcDbEntity
8
SK2
62
256
6
ByLayer
370
13
48
1
60
0
100
AcDbLine
10
-48
20
-26.343428
30
0
11
64.868
21
-26.343428
31
0
39
0
210
0
220
0
230
1
0
SOLID
5
180
100
AcDbEntity
8
SK2
62
256
6
ByLayer
370
18
48
1
60
0
100
AcDbTrace
10
-48
20
-26.343428
30
0
11
-44.500002
21
-25.882645
31
0
12
-44.499998
22
-26.804212
32
0
13
-44.499998
23
-26.804212
33
0
39
0
210
0
220
0
230
1
0
SOLID
5
181
100
AcDbEntity
8
SK2
62
256
6
ByLayer
370
18
48
1
60
0
100
AcDbTrace
10
64.868
20
-26.343428
30
0
11
61.368002
21
-26.804212
31
0
12
61.367998
22
-25.882645
32
0
13
61.367998
23
-25.882645
33
0
39
0
210
0
220
0
230
1
0
ENDBLK
5
183
100
AcDbEntity
8
0
100
AcDbBlockEnd
0
ENDSEC
0
SECTION
2
ENTITIES
0
ARC
5
AD
100
AcDbEntity
8
1
62
256
6
ByLayer
370
18
48
1
60
0
100
AcDbCircle
39
0
10
1.433661
20
-7.910363
30
0
40
0.800000000000002
210
0
220
0
230
1
100
AcDbArc
50
89.96419
51
153.642095
0
ARC
5
AE
100
AcDbEntity
8
1
62
256
6
ByLayer
370
18
48
1
60
0
100
AcDbCircle
39
0
10
1.433661
20
7.910363
30
0
40
0.800000000000002
210
0
220
0
230
1
100
AcDbArc
50
206.357905
51
270.03581
0
ARC
5
AF
100
AcDbEntity
8
1
62
256
6
ByLayer
370
18
48
1
60
0
100
AcDbCircle
39
0
10
0
20
-7.2
30
0
40
0.799999999999995
210
0
220
0
230
1
100
AcDbArc
50
270
51
333.642095
0
ARC
5
B0
100
AcDbEntity
8
1
62
256
6
ByLayer
370
18
48
1
60
0
100
AcDbCircle
39
0
10
0
20
7.2
30
0
40
0.799999999999995
210
0
220
0
230
1
100
AcDbArc
50
26.357905
51
90
0
ELLIPSE
5
B1
100
AcDbEntity
8
1
62
256
6
ByLayer
370
13
48
1
60
0
100
AcDbEllipse
10
4.183413
20
-2.665814
30
0
11
-0.025017726499025
21
-0.0968200049618878
31
0
210
0
220
0
230
1
40
0.530471
41
-1.79837524950623
42
-0.436663555822816
0
ELLIPSE
5
B2
100
AcDbEntity
8
1
62
256
6
ByLayer
370
13
48
1
60
0
100
AcDbEllipse
10
4.250129
20
-2.68994
30
0
11
0.0414144799141538
21
0.0910211011438565
31
0
210
0
220
0
230
1
40
0.17321
41
1.20511473209005
42
2.76449710458962
0
POINT
5
70
100
AcDbEntity
8
80
62
256
6
ByLayer
370
18
48
1
60
0
100
AcDbPoint
10
0
20
0
30
0
39
0
210
0
220
0
230
1
50
360
0
POINT
5
72
100
AcDbEntity
8
81
62
256
6
ByLayer
370
18
48
1
60
0
100
AcDbPoint
10
67
20
0
30
0
39
0
210
0
220
0
230
1
50
360
0
POINT
5
74
100
AcDbEntity
8
1
62
256
6
ByLayer
370
18
48
1
60
1
100
AcDbPoint
10
64.868
20
-7.15
30
0
39
0
210
0
220
0
230
1
50
360
0
POINT
5
76
100
AcDbEntity
8
1
62
256
6
ByLayer
370
18
48
1
60
1
100
AcDbPoint
10
-48
20
-8
30
0
39
0
210
0
220
0
230
1
50
360
0
POINT
5
77
100
AcDbEntity
8
1
62
256
6
ByLayer
370
18
48
1
60
1
100
AcDbPoint
10
21.97
20
7.15
30
0
39
0
210
0
220
0
230
1
50
360
0
POINT
5
78
100
AcDbEntity
8
1
62
256
6
ByLayer
370
18
48
1
60
1
100
AcDbPoint
10
64.868
20
-7.15
30
0
39
0
210
0
220
0
230
1
50
360
0
POINT
5
79
100
AcDbEntity
8
1
62
256
6
ByLayer
370
18
48
1
60
1
100
AcDbPoint
10
-48
20
-8
30
0
39
0
210
0
220
0
230
1
50
360
0
POINT
5
7A
100
AcDbEntity
8
1
62
256
6
ByLayer
370
18
48
1
60
1
100
AcDbPoint
10
64.868
20
-7.15
30
0
39
0
210
0
220
0
230
1
50
360
0
SPLINE
5
B3
100
AcDbEntity
8
SK1
62
256
6
ByLayer
370
18
48
1
60
0
100
AcDbSpline
70
4
71
3
72
8
73
4
40
0
40
0
40
0
40
0
40
1
40
1
40
1
40
1
41
1
10
-46.5
20
6.40113627946445
30
0
41
1
10
-47.00113226362
20
5.98396042391988
30
0
41
1
10
-47.5014453476527
20
5.56613314652375
30
0
41
1
10
-48
20
5.1469075422622
30
0
0
SPLINE
5
B4
100
AcDbEntity
8
SK1
62
256
6
ByLayer
370
18
48
1
60
0
100
AcDbSpline
70
4
71
3
72
14
73
10
40
0
40
0
40
0
40
0
40
0.0774005092241223
40
0.0774005092241223
40
0.261920407379298
40
0.261920407379298
40
0.630960203689649
40
0.630960203689649
40
1
40
1
40
1
40
1
41
1
10
-47.4045173753094
20
4.21366557598395
30
0
41
1
10
-47.4171671006196
20
4.22371847963342
30
0
41
1
10
-47.4302806600011
20
4.23337261043844
30
0
41
1
10
-47.4759111964208
20
4.26496308094841
30
0
41
1
10
-47.5103810342282
20
4.28544172175657
30
0
41
1
10
-47.6160540840889
20
4.34173032021911
30
0
41
1
10
-47.6901154690019
20
4.37307455375122
30
0
41
1
10
-47.842247387841
20
4.42890315075243
30
0
41
1
10
-47.9203997440083
20
4.45324751195667
30
0
41
1
10
-47.9999999999999
20
4.4751144385167
30
0
0
SPLINE
5
B5
100
AcDbEntity
8
SK1
62
256
6
ByLayer
370
18
48
1
60
0
100
AcDbSpline
70
4
71
3
72
8
73
4
40
0
40
0
40
0
40
0
40
1
40
1
40
1
40
1
41
1
10
-48
20
3.71341245205719
30
0
41
1
10
-47.501448267755
20
4.13263560085753
30
0
41
1
10
-47.0011345630353
20
4.55046341952854
30
0
41
1
10
-46.5
20
4.96764118925944
30
0
0
SPLINE
5
B6
100
AcDbEntity
8
SK1
62
256
6
ByLayer
370
18
48
1
60
0
100
AcDbSpline
70
4
71
3
72
12
73
8
40
0
40
0
40
0
40
0
40
0.25
40
0.25
40
0.500000000000001
40
0.500000000000001
40
1
40
1
40
1
40
1
41
1
10
-46.4
20
6.4409725532405
30
0
41
1
10
-46.4
20
6.44824844322
30
0
41
1
10
-46.4041640203491
20
6.45152831500084
30
0
41
1
10
-46.4170552197607
20
6.45198105843943
30
0
41
1
10
-46.4255471163325
20
6.4493363451007
30
0
41
1
10
-46.4540060778302
20
6.43612620060449
30
0
41
1
10
-46.4766801706342
20
6.42054925777987
30
0
41
1
10
-46.5
20
6.40113627946445
30
0
0
SPLINE
5
B7
100
AcDbEntity
8
SK1
62
256
6
ByLayer
370
18
48
1
60
0
100
AcDbSpline
70
4
71
3
72
14
73
10
40
0
40
0
40
0
40
0
40
0.307324765908058
40
0.307324765908058
40
0.614649531816115
40
0.614649531816115
40
0.921974297724173
40
0.921974297724173
40
1
40
1
40
1
40
1
41
1
10
-48
20
4.47511443851664
30
0
41
1
10
-48
20
4.44235073921084
30
0
41
1
10
-48
20
4.39323250335008
30
0
41
1
10
-48
20
4.26228209828616
30
0
41
1
10
-48
20
4.18389739956484
30
0
41
1
10
-48
20
4.00190734125431
30
0
41
1
10
-48
20
3.9025915883617
30
0
41
1
10
-48
20
3.76889687724503
30
0
41
1
10
-48
20
3.74163746801378
30
0
41
1
10
-48
20
3.71421843851456
30
0
0
SPLINE
5
B8
100
AcDbEntity
8
SK1
62
256
6
ByLayer
370
18
48
1
60
0
100
AcDbSpline
70
4
71
3
72
12
73
8
40
0
40
0
40
0
40
0
40
0.5
40
0.5
40
0.75
40
0.75
40
1
40
1
40
1
40
1
41
1
10
-46.5
20
4.96764118925944
30
0
41
1
10
-46.4766765617276
20
4.98705717186897
30
0
41
1
10
-46.4539377815664
20
5.01166115006873
30
0
41
1
10
-46.4257150407642
20
5.05237993183096
30
0
41
1
10
-46.4170867124434
20
5.06697292069057
30
0
41
1
10
-46.404231047165
20
5.09587153436763
30
0
41
1
10
-46.4
20
5.11049201977832
30
0
41
1
10
-46.4
20
5.12215707025189
30
0
0
SPLINE
5
B9
100
AcDbEntity
8
1
62
256
6
ByLayer
370
18
48
1
60
0
100
AcDbSpline
70
4
71
3
72
8
73
4
40
0
40
0
40
0
40
0
40
1
40
1
40
1
40
1
41
1
10
64.8523234573457
20
-6.95123571375177
30
0
41
1
10
64.7159418830934
20
-7.05365731079468
30
0
41
1
10
64.5942423832986
20
-7.11691178985606
30
0
41
1
10
64.4860040236799
20
-7.13995964498756
30
0
0
SPLINE
5
BA
100
AcDbEntity
8
1
62
256
6
ByLayer
370
18
48
1
60
0
100
AcDbSpline
70
4
71
3
72
88
73
84
40
0
40
0
40
0
40
0
40
0.0335424145081018
40
0.0335424145081018
40
0.0503136217621527
40
0.0503136217621527
40
0.0670848290162036
40
0.0670848290162036
40
0.100627243524305
40
0.100627243524305
40
0.134169658032407
40
0.134169658032407
40
0.167712072540509
40
0.167712072540509
40
0.18448327979456
40
0.18448327979456
40
0.201254487048611
40
0.201254487048611
40
0.218025694302662
40
0.218025694302662
40
0.234796901556713
40
0.234796901556713
40
0.268339316064814
40
0.268339316064814
40
0.301881730572916
40
0.301881730572916
40
0.335424145081018
40
0.335424145081018
40
0.352195352335069
40
0.352195352335069
40
0.36896655958912
40
0.36896655958912
40
0.402508974097221
40
0.402508974097221
40
0.436051388605323
40
0.436051388605323
40
0.452822595859374
40
0.452822595859374
40
0.469593803113425
40
0.469593803113425
40
0.503136217621528
40
0.503136217621528
40
0.53667863212963
40
0.53667863212963
40
0.570221046637733
40
0.570221046637733
40
0.586992253891784
40
0.586992253891784
40
0.603763461145835
40
0.603763461145835
40
0.620534668399885
40
0.620534668399885
40
0.637305875653936
40
0.637305875653936
40
0.670848290162039
40
0.670848290162039
40
0.704390704670141
40
0.704390704670141
40
0.737933119178244
40
0.737933119178244
40
0.754704326432295
40
0.754704326432295
40
0.771475533686346
40
0.771475533686346
40
0.788246740940398
40
0.788246740940398
40
0.805017948194449
40
0.805017948194449
40
0.838560362702552
40
0.838560362702552
40
0.855331569956604
40
0.855331569956604
40
0.872102777210656
40
0.872102777210656
40
0.90564519171876
40
0.90564519171876
40
0.939187606226864
40
0.939187606226864
40
0.972730020734968
40
0.972730020734968
40
0.98950122798902
40
0.98950122798902
40
1
40
1
40
1
40
1
41
1
10
16.8742142295723
20
7.0953236295594
30
0
41
1
10
17.3775462972495
20
7.11732976465879
30
0
41
1
10
17.8799874439763
20
7.12486007679834
30
0
41
1
10
18.6314740028496
20
7.11554853131449
30
0
41
1
10
18.8815780698611
20
7.10899344787669
30
0
41
1
10
19.3807140963234
20
7.08891074954985
30
0
41
1
10
19.6297559516581
20
7.07535928193843
30
0
41
1
10
20.3770132773963
20
7.02461226818195
30
0
41
1
10
20.8750459082784
20
6.97738852862497
30
0
41
1
10
21.8697145174027
20
6.85607146279014
30
0
41
1
10
22.3658811364479
20
6.78154772503763
30
0
41
1
10
23.3607694392354
20
6.60760191189786
30
0
41
1
10
23.8590039170681
20
6.50806998741521
30
0
41
1
10
24.6063730397297
20
6.33864075289694
30
0
41
1
10
24.8555927853739
20
6.27885490677161
30
0
41
1
10
25.3551551864006
20
6.15353456661629
30
0
41
1
10
25.6054031251742
20
6.0879246616077
30
0
41
1
10
26.1066975721695
20
5.95066322836391
30
0
41
1
10
26.3577446586079
20
5.87901305984127
30
0
41
1
10
26.8604866241031
20
5.72938411301899
30
0
41
1
10
27.1123800516152
20
5.65109372371899
30
0
41
1
10
27.8670189790776
20
5.40860637238768
30
0
41
1
10
28.3689392823104
20
5.2376079941933
30
0
41
1
10
29.3695728976541
20
4.87624061672031
30
0
41
1
10
29.8675946715779
20
4.68476359069695
30
0
41
1
10
30.8636076584582
20
4.28719211033149
30
0
41
1
10
31.3614359986168
20
4.08095469388849
30
0
41
1
10
32.1069143487846
20
3.75884060432048
30
0
41
1
10
32.3550632128565
20
3.64909925610704
30
0
41
1
10
32.8518414426103
20
3.42684695640568
30
0
41
1
10
33.1004516708621
20
3.31431472716832
30
0
41
1
10
33.8467876103947
20
2.97227513653417
30
0
41
1
10
34.3449014187807
20
2.7381414215599
30
0
41
1
10
35.3415531943547
20
2.25603099042644
30
0
41
1
10
35.8415344440912
20
2.0107764663822
30
0
41
1
10
36.5940493713351
20
1.63671840341547
30
0
41
1
10
36.8452812656053
20
1.51094116433902
30
0
41
1
10
37.3482807689754
20
1.25660505385011
30
0
41
1
10
37.6001110617338
20
1.12796759384347
30
0
41
1
10
38.3549875395657
20
0.742842385771894
30
0
41
1
10
38.8581109646021
20
0.485960509546942
30
0
41
1
10
39.8629246515878
20
-0.0303730588604196
30
0
41
1
10
40.3641827744968
20
-0.290667540286762
30
0
41
1
10
41.3694047295702
20
-0.805737818797837
30
0
41
1
10
41.8728141354445
20
-1.06159819354508
30
0
41
1
10
42.6279716532866
20
-1.44512575705329
30
0
41
1
10
42.879459107737
20
-1.57239184774335
30
0
41
1
10
43.3816763890399
20
-1.82366660562147
30
0
41
1
10
43.6324838804284
20
-1.94795065222075
30
0
41
1
10
44.1333676395286
20
-2.19413622760112
30
0
41
1
10
44.3834482164918
20
-2.31602961000462
30
0
41
1
10
44.8827026324926
20
-2.5577777478569
30
0
41
1
10
45.1317312571024
20
-2.67789745260782
30
0
41
1
10
45.8786065070349
20
-3.0330085217972
30
0
41
1
10
46.376448085331
20
-3.26244948347133
30
0
41
1
10
47.3709545043718
20
-3.7088455324114
30
0
41
1
10
47.8669599906468
20
-3.9268354785107
30
0
41
1
10
48.8611867798884
20
-4.34443322692348
30
0
41
1
10
49.359162405826
20
-4.54455499071597
30
0
41
1
10
50.1063963934179
20
-4.83319778784121
30
0
41
1
10
50.3554115159388
20
-4.92762905748646
30
0
41
1
10
50.8545061807787
20
-5.11113314924054
30
0
41
1
10
51.1045365068539
20
-5.20029005218237
30
0
41
1
10
51.6054516385191
20
-5.37358259982213
30
0
41
1
10
51.8563320334407
20
-5.45772483624313
30
0
41
1
10
52.3587992810471
20
-5.62114109500979
30
0
41
1
10
52.6106025253576
20
-5.70062437543919
30
0
41
1
10
53.3650358256563
20
-5.93056520923477
30
0
41
1
10
53.8666649026763
20
-6.07092424536836
30
0
41
1
10
54.6169926799861
20
-6.26298272094854
30
0
41
1
10
54.8667321564365
20
-6.32393421046677
30
0
41
1
10
55.3651737309995
20
-6.43995228271442
30
0
41
1
10
55.6139375000465
20
-6.49493919465885
30
0
41
1
10
56.3604077251488
20
-6.64960163527175
30
0
41
1
10
56.8579366107024
20
-6.73940699074194
30
0
41
1
10
57.8516069758288
20
-6.89348389278902
30
0
41
1
10
58.3473775145433
20
-6.95777099448034
30
0
41
1
10
59.3416055324501
20
-7.05849188548945
30
0
41
1
10
59.8395079795487
20
-7.09535971362212
30
0
41
1
10
60.5864340047123
20
-7.13031344066326
30
0
41
1
10
60.8355753284858
20
-7.13851066332501
30
0
41
1
10
61.2415972618836
20
-7.14614469025366
30
0
41
1
10
61.3980984514861
20
-7.14772053298779
30
0
41
1
10
61.554767932073
20
-7.14793236697651
30
0
0
SPLINE
5
BB
100
AcDbEntity
8
1
62
256
6
ByLayer
370
18
48
1
60
0
100
AcDbSpline
70
4
71
3
72
8
73
4
40
0
40
0
40
0
40
0
40
1
40
1
40
1
40
1
41
1
10
16.8742142295723
20
-7.0953236295594
30
0
41
1
10
17.2617780612908
20
-7.11226827224789
30
0
41
1
10
17.648813671049
20
-7.12063028190076
30
0
41
1
10
18.0350657754202
20
-7.12074649002918
30
0
0
SPLINE
5
BC
100
AcDbEntity
8
1
62
256
6
ByLayer
370
18
48
1
60
0
100
AcDbSpline
70
4
71
3
72
34
73
30
40
0
40
0
40
0
40
0
40
0.0344901736180507
40
0.0344901736180507
40
0.0881296084170464
40
0.0881296084170464
40
0.141769043216042
40
0.141769043216042
40
0.249047912814033
40
0.249047912814033
40
0.30268734761303
40
0.30268734761303
40
0.356326782412026
40
0.356326782412026
40
0.463605652010022
40
0.463605652010022
40
0.570884521608017
40
0.570884521608017
40
0.678163391206013
40
0.678163391206013
40
0.73180282600501
40
0.73180282600501
40
0.785442260804008
40
0.785442260804008
40
0.839081695603006
40
0.839081695603006
40
0.892721130402004
40
0.892721130402004
40
1
40
1
40
1
40
1
41
1
10
50.8724059376126
20
5.11665905900236
30
0
41
1
10
51.0330821259003
20
5.17447114468584
30
0
41
1
10
51.1939497782809
20
5.23122274440686
30
0
41
1
10
51.6054516385191
20
5.37358259982213
30
0
41
1
10
51.8563320334407
20
5.45772483624316
30
0
41
1
10
52.3587992810471
20
5.62114109500979
30
0
41
1
10
52.6106025253577
20
5.70062437543919
30
0
41
1
10
53.3650358256564
20
5.93056520923483
30
0
41
1
10
53.8666649026763
20
6.07092424536836
30
0
41
1
10
54.6169926799861
20
6.26298272094854
30
0
41
1
10
54.8667321564365
20
6.32393421046677
30
0
41
1
10
55.3651737309995
20
6.43995228271444
30
0
41
1
10
55.6139375000465
20
6.49493919465885
30
0
41
1
10
56.3604077251488
20
6.64960163527178
30
0
41
1
10
56.8579366107025
20
6.73940699074197
30
0
41
1
10
57.8516069758289
20
6.89348389278905
30
0
41
1
10
58.3473775145432
20
6.95777099448034
30
0
41
1
10
59.3416055324501
20
7.05849188548947
30
0
41
1
10
59.8395079795487
20
7.09535971362212
30
0
41
1
10
60.5864340047124
20
7.13031344066326
30
0
41
1
10
60.8355753284858
20
7.13851066332501
30
0
41
1
10
61.3349873689957
20
7.14790061163111
30
0
41
1
10
61.5851661831736
20
7.14911690627812
30
0
41
1
10
62.0863309199776
20
7.1445856248763
30
0
41
1
10
62.3373203866125
20
7.13883915416738
30
0
41
1
10
62.8399468818635
20
7.12024430012289
30
0
41
1
10
63.0916577086546
20
7.1073320800997
30
0
41
1
10
63.8462947427351
20
7.05811547027793
30
0
41
1
10
64.3495162548062
20
7.01154158680197
30
0
41
1
10
64.852323457346
20
6.95123571375154
30
0
0
SPLINE
5
BD
100
AcDbEntity
8
1
62
256
6
ByLayer
370
18
48
1
60
0
100
AcDbSpline
70
4
71
3
72
36
73
32
40
0
40
0
40
0
40
0
40
0.249999999999998
40
0.249999999999998
40
0.374999999999998
40
0.374999999999998
40
0.499999999999997
40
0.499999999999997
40
0.562499999999997
40
0.562499999999997
40
0.624999999999996
40
0.624999999999996
40
0.749999999999999
40
0.749999999999999
40
0.8125
40
0.8125
40
0.843750000000001
40
0.843750000000001
40
0.851562500000001
40
0.851562500000001
40
0.859375000000001
40
0.859375000000001
40
0.867187500000001
40
0.867187500000001
40
0.871093750000001
40
0.871093750000001
40
0.875000000000001
40
0.875000000000001
40
0.937500000000001
40
0.937500000000001
40
1
40
1
40
1
40
1
41
1
10
57.7595916372921
20
2.36412481840267
30
0
41
1
10
58.3397289029942
20
1.87410692560181
30
0
41
1
10
58.948593162462
20
1.449998201824
30
0
41
1
10
59.9076735890958
20
0.918878751640648
30
0
41
1
10
60.229524130289
20
0.762594045186148
30
0
41
1
10
60.877119526911
20
0.494355767898497
30
0
41
1
10
61.2029756532796
20
0.382382164550393
30
0
41
1
10
61.6951477593333
20
0.250870555579439
30
0
41
1
10
61.8597710374528
20
0.213121671934886
30
0
41
1
10
62.1902492209574
20
0.150874328912067
30
0
41
1
10
62.3560628964198
20
0.126449582354866
30
0
41
1
10
62.8488625794296
20
0.0758802643501326
30
0
41
1
10
63.173648166323
20
0.0720493917261251
30
0
41
1
10
63.652415419922
20
0.120313723912176
30
0
41
1
10
63.8098532733488
20
0.145350591633502
30
0
41
1
10
64.0416710062349
20
0.197342287857595
30
0
41
1
10
64.1182053790535
20
0.217077182498002
30
0
41
1
10
64.2128065334587
20
0.244855392444009
30
0
41
1
10
64.23170489669
20
0.250486702200078
30
0
41
1
10
64.2694161144391
20
0.261935082192934
30
0
41
1
10
64.2882705646881
20
0.268681052845153
30
0
41
1
10
64.3189763778544
20
0.293756400568157
30
0
41
1
10
64.331150746365
20
0.312317640189946
30
0
41
1
10
64.3374374616353
20
0.346521467843928
30
0
41
1
10
64.3382908295355
20
0.358396803290645
30
0
41
1
10
64.340772514526
20
0.381851732006396
30
0
41
1
10
64.3419770383813
20
0.393593056567966
30
0
41
1
10
64.3618436700137
20
0.593428471622389
30
0
41
1
10
64.3713367161502
20
0.784603828570368
30
0
41
1
10
64.3751204321778
20
1.17071014941536
30
0
41
1
10
64.3693676243065
20
1.36596547176921
30
0
41
1
10
64.3574801578669
20
1.56073084848228
30
0
0
SPLINE
5
BE
100
AcDbEntity
8
1
62
256
6
ByLayer
370
18
48
1
60
0
100
AcDbSpline
70
4
71
3
72
12
73
8
40
0
40
0
40
0
40
0
40
0.500000000000001
40
0.500000000000001
40
0.750000000000001
40
0.750000000000001
40
1
40
1
40
1
40
1
41
1
10
64.8523234573385
20
6.95123571377258
30
0
41
1
10
65.1717030110746
20
6.0534355395875
30
0
41
1
10
65.5054947619827
20
5.15832983826519
30
0
41
1
10
66.0238123284067
20
3.81993144424897
30
0
41
1
10
66.1996752055937
20
3.37420332293337
30
0
41
1
10
66.5556419952229
20
2.48711140879567
30
0
41
1
10
66.7358926786567
20
2.04542028592718
30
0
41
1
10
66.9183290304064
20
1.60536377732174
30
0
0
SPLINE
5
BF
100
AcDbEntity
8
1
62
256
6
ByLayer
370
18
48
1
60
0
100
AcDbSpline
70
4
71
3
72
10
73
6
40
0
40
0
40
0
40
0
40
0.5
40
0.5
40
1
40
1
40
1
40
1
41
1
10
66.9999694075172
20
0.0481954925055845
30
0
41
1
10
66.9952282825922
20
0.0265998085765773
30
0
41
1
10
66.9884110450078
20
0.0031318124082134
30
0
41
1
10
66.9713406500459
20
-0.041861086065154
30
0
41
1
10
66.9609739875299
20
-0.063482524375388
30
0
41
1
10
66.9504574521225
20
-0.0806858881679773
30
0
0
SPLINE
5
C0
100
AcDbEntity
8
1
62
256
6
ByLayer
370
18
48
1
60
0
100
AcDbSpline
70
4
71
3
72
70
73
66
40
0
40
0
40
0
40
0
40
0.0230135489601911
40
0.0230135489601911
40
0.0605899509232595
40
0.0605899509232595
40
0.0981663528863278
40
0.0981663528863278
40
0.116954553867862
40
0.116954553867862
40
0.135742754849396
40
0.135742754849396
40
0.173319156812464
40
0.173319156812464
40
0.210895558775533
40
0.210895558775533
40
0.229683759757068
40
0.229683759757068
40
0.248471960738602
40
0.248471960738602
40
0.323624764664741
40
0.323624764664741
40
0.342412965646276
40
0.342412965646276
40
0.36120116662781
40
0.36120116662781
40
0.398777568590881
40
0.398777568590881
40
0.436353970553951
40
0.436353970553951
40
0.473930372517022
40
0.473930372517022
40
0.511506774480092
40
0.511506774480092
40
0.549083176443162
40
0.549083176443162
40
0.586659578406233
40
0.586659578406233
40
0.605447779387768
40
0.605447779387768
40
0.624235980369303
40
0.624235980369303
40
0.661812382332373
40
0.661812382332373
40
0.699388784295443
40
0.699388784295443
40
0.718176985276978
40
0.718176985276978
40
0.736965186258513
40
0.736965186258513
40
0.774541588221583
40
0.774541588221583
40
0.812117990184653
40
0.812117990184653
40
0.849694392147724
40
0.849694392147724
40
0.887270794110794
40
0.887270794110794
40
0.906058995092329
40
0.906058995092329
40
0.924847196073863
40
0.924847196073863
40
0.962423598036932
40
0.962423598036932
40
1
40
1
40
1
40
1
41
1
10
50.8791520289839
20
-5.10470633467622
30
0
41
1
10
50.6185679199734
20
-5.18848906747294
30
0
41
1
10
50.3579418323115
20
-5.26945019448112
30
0
41
1
10
49.6715498097916
20
-5.47472251598668
30
0
41
1
10
49.2453601086416
20
-5.59497323560709
30
0
41
1
10
48.3915335105231
20
-5.82031374118728
30
0
41
1
10
47.9652280606274
20
-5.92463163481222
30
0
41
1
10
47.3268264327495
20
-6.06872344733031
30
0
41
1
10
47.1140872705394
20
-6.11452920292831
30
0
41
1
10
46.688567866784
20
-6.20093990887705
30
0
41
1
10
46.4757799398712
20
-6.24137939225264
30
0
41
1
10
45.8373964721809
20
-6.35680293676069
30
0
41
1
10
45.411940594318
20
-6.42604454823285
30
0
41
1
10
44.5609746626253
20
-6.54720649458542
30
0
41
1
10
44.1350514498471
20
-6.59892696128159
30
0
41
1
10
43.4949821532261
20
-6.66193266304481
30
0
41
1
10
43.2814610500282
20
-6.68043120392014
30
0
41
1
10
42.8550613992974
20
-6.7115762580371
30
0
41
1
10
42.6420640218632
20
-6.72403283804439
30
0
41
1
10
41.5777085086698
20
-6.77761161864609
30
0
41
1
10
40.7269992315618
20
-6.78714513109608
30
0
41
1
10
39.6635721029097
20
-6.74894006236403
30
0
41
1
10
39.4507824140195
20
-6.73876244580063
30
0
41
1
10
39.0247807322154
20
-6.71296873364352
30
0
41
1
10
38.8115648619028
20
-6.69727527486168
30
0
41
1
10
38.1715546682097
20
-6.64448802518058
30
0
41
1
10
37.7446222052882
20
-6.60028718668246
30
0
41
1
10
36.8929251451098
20
-6.49147654965435
30
0
41
1
10
36.4673325998641
20
-6.42828547172815
30
0
41
1
10
35.6162137565954
20
-6.28564673595278
30
0
41
1
10
35.1908282135836
20
-6.20578852883847
30
0
41
1
10
34.3401202255007
20
-6.02776248331017
30
0
41
1
10
33.9143537829813
20
-5.9297019547115
30
0
41
1
10
33.0609054693463
20
-5.71467485365633
30
0
41
1
10
32.6336173328802
20
-5.59949607484586
30
0
41
1
10
31.7814726089162
20
-5.35453615545521
30
0
41
1
10
31.3557491502235
20
-5.2249060961656
30
0
41
1
10
30.7171943805299
20
-5.01992732947741
30
0
41
1
10
30.5043736523944
20
-4.94991997390656
30
0
41
1
10
30.078743614505
20
-4.80566893938865
30
0
41
1
10
29.8659059448981
20
-4.73112546830319
30
0
41
1
10
29.227385185491
20
-4.50303448225424
30
0
41
1
10
28.8014294533495
20
-4.34537982746397
30
0
41
1
10
27.9482565992237
20
-4.01858949848122
30
0
41
1
10
27.5209508271774
20
-3.84915983580748
30
0
41
1
10
26.8818904339512
20
-3.58686922478051
30
0
41
1
10
26.6690022133739
20
-3.49822976177651
30
0
41
1
10
26.2432488946941
20
-3.31844028406846
30
0
41
1
10
26.0303816851272
20
-3.22717970060882
30
0
41
1
10
25.3918722804259
20
-2.95087123596832
30
0
41
1
10
24.9664109637925
20
-2.76275880562872
30
0
41
1
10
24.1156910032333
20
-2.37778884118657
30
0
41
1
10
23.6900768222021
20
-2.18195023718621
30
0
41
1
10
22.83757535913
20
-1.7847685188849
30
0
41
1
10
22.4102770051471
20
-1.58288135808289
30
0
41
1
10
21.5576541839478
20
-1.17468758753674
30
0
41
1
10
21.131879055755
20
-0.969137916710537
30
0
41
1
10
20.4932917817643
20
-0.660062159254636
30
0
41
1
10
20.2804491206459
20
-0.556897553813513
30
0
41
1
10
19.8549517658717
20
-0.350048992751368
30
0
41
1
10
19.6423091550003
20
-0.2463331710575
30
0
41
1
10
19.0045314283987
20
0.0653703531034751
30
0
41
1
10
18.5792888777832
20
0.273386344795227
30
0
41
1
10
17.7276916543234
20
0.687836917944111
30
0
41
1
10
17.3012775035072
20
0.894157961516697
30
0
41
1
10
16.8742142295723
20
1.09952155838602
30
0
0
SPLINE
5
C1
100
AcDbEntity
8
1
62
256
6
ByLayer
370
18
48
1
60
0
100
AcDbSpline
70
4
71
3
72
54
73
50
40
0
40
0
40
0
40
0
40
0.0425884919791549
40
0.0425884919791549
40
0.0851769839583099
40
0.0851769839583099
40
0.127765475937465
40
0.127765475937465
40
0.17035396791662
40
0.17035396791662
40
0.25553095187493
40
0.25553095187493
40
0.298119443854086
40
0.298119443854086
40
0.340707935833241
40
0.340707935833241
40
0.383296427812396
40
0.383296427812396
40
0.425884919791552
40
0.425884919791552
40
0.468473411770707
40
0.468473411770707
40
0.489767657760285
40
0.489767657760285
40
0.511061903749863
40
0.511061903749863
40
0.553650395729018
40
0.553650395729018
40
0.574944641718596
40
0.574944641718596
40
0.596238887708173
40
0.596238887708173
40
0.681415871666485
40
0.681415871666485
40
0.702710117656062
40
0.702710117656062
40
0.72400436364564
40
0.72400436364564
40
0.766592855624795
40
0.766592855624795
40
0.80918134760395
40
0.80918134760395
40
0.851769839583105
40
0.851769839583105
40
0.89435833156226
40
0.89435833156226
40
0.936946823541415
40
0.936946823541415
40
1
40
1
40
1
40
1
41
1
10
64.48600402368
20
-7.13995964498756
30
0
41
1
10
63.8569345674256
20
-7.15657644721728
30
0
41
1
10
63.2275694608929
20
-7.1510503926645
30
0
41
1
10
61.9688669898155
20
-7.09593201237684
30
0
41
1
10
61.3409251172124
20
-7.04642638114385
30
0
41
1
10
60.0855434990642
20
-6.90453077986376
30
0
41
1
10
59.458019031303
20
-6.81217750693267
30
0
41
1
10
58.2010102401296
20
-6.58579267476199
30
0
41
1
10
57.5708156402402
20
-6.45156400931728
30
0
41
1
10
55.685655273957
20
-5.99164174770976
30
0
41
1
10
54.4325134904526
20
-5.60825234199294
30
0
41
1
10
52.5435464227093
20
-4.93440184083534
30
0
41
1
10
51.914954245235
20
-4.69421365488904
30
0
41
1
10
50.6591735941986
20
-4.18697601018005
30
0
41
1
10
50.0316504049376
20
-3.91992942738656
30
0
41
1
10
48.7749238740945
20
-3.36284691432161
30
0
41
1
10
48.1447378788247
20
-3.07222889345985
30
0
41
1
10
46.8871392289925
20
-2.47498518268361
30
0
41
1
10
46.2593992875394
20
-2.16844211314543
30
0
41
1
10
45.0036820377642
20
-1.54394070559258
30
0
41
1
10
44.3757006271079
20
-1.22599028921277
30
0
41
1
10
43.4317872718096
20
-0.74382906703633
30
0
41
1
10
43.1167164042194
20
-0.582189793320197
30
0
41
1
10
42.4876401209495
20
-0.258903249807247
30
0
41
1
10
42.1733968224562
20
-0.0971097752286028
30
0
41
1
10
41.231111426338
20
0.387863491537075
30
0
41
1
10
40.6034920266892
20
0.710593282618504
30
0
41
1
10
39.6611553117184
20
1.19037537430705
30
0
41
1
10
39.3468926941025
20
1.34958570245195
30
0
41
1
10
38.7177526062637
20
1.66596178324434
30
0
41
1
10
38.4026345422742
20
1.82323909921007
30
0
41
1
10
36.8293663717403
20
2.60085570647527
30
0
41
1
10
35.5758998726811
20
3.19563840274276
30
0
41
1
10
34.0032761702072
20
3.8832933943917
30
0
41
1
10
33.6882413911945
20
4.01819486145905
30
0
41
1
10
33.0586847195563
20
4.28136551616441
30
0
41
1
10
32.7442675466603
20
4.4096050480079
30
0
41
1
10
31.8015526880845
20
4.78349604656987
30
0
41
1
10
31.1737835815
20
5.01831177119448
30
0
41
1
10
29.9173453692181
20
5.45587991629569
30
0
41
1
10
29.288531279399
20
5.65895954648357
30
0
41
1
10
28.0288414821663
20
6.02915295537608
30
0
41
1
10
27.400393838982
20
6.19558020358585
30
0
41
1
10
26.1440077977872
20
6.48920398862276
30
0
41
1
10
25.5162437031893
20
6.61653131965971
30
0
41
1
10
24.2586829517027
20
6.82981669907804
30
0
41
1
10
23.6280740750411
20
6.91585810706513
30
0
41
1
10
22.068068807233
20
7.07514443576073
30
0
41
1
10
21.1390804758805
20
7.1226987142048
30
0
41
1
10
20.2083233909984
20
7.12208928726952
30
0
0
SPLINE
5
C2
100
AcDbEntity
8
1
62
256
6
ByLayer
370
18
48
1
60
0
100
AcDbSpline
70
4
71
3
72
16
73
12
40
0
40
0
40
0
40
0
40
0.107457584928736
40
0.107457584928736
40
0.214915169857472
40
0.214915169857472
40
0.429830339714948
40
0.429830339714948
40
0.859660679429903
40
0.859660679429903
40
1
40
1
40
1
40
1
41
1
10
64.5996086414605
20
-6.78571389559116
30
0
41
1
10
64.2834363822549
20
-6.79246864056745
30
0
41
1
10
63.9669990535661
20
-6.79387540005894
30
0
41
1
10
63.335196591874
20
-6.78605891539922
30
0
41
1
10
63.0199835129094
20
-6.77684728762486
30
0
41
1
10
62.0760009382506
20
-6.7335787939607
30
0
41
1
10
61.4488926545485
20
-6.68390924807468
30
0
41
1
10
59.5709614561146
20
-6.47474652779704
30
0
41
1
10
58.3232837672185
20
-6.25509709306903
30
0
41
1
10
56.6627571930733
20
-5.86505632316454
30
0
41
1
10
56.2535732316923
20
-5.76118882096293
30
0
41
1
10
55.8436251203801
20
-5.64974198125995
30
0
0
SPLINE
5
C3
100
AcDbEntity
8
1
62
256
6
ByLayer
370
13
48
1
60
0
100
AcDbSpline
70
4
71
3
72
28
73
24
40
0
40
0
40
0
40
0
40
0.036405726278046
40
0.036405726278046
40
0.0888633762404608
40
0.0888633762404608
40
0.141321026202876
40
0.141321026202876
40
0.351151626052531
40
0.351151626052531
40
0.560982225902186
40
0.560982225902186
40
0.665897525827014
40
0.665897525827014
40
0.718355175789428
40
0.718355175789428
40
0.770812825751841
40
0.770812825751841
40
0.875728125676667
40
0.875728125676667
40
0.980643425601493
40
0.980643425601493
40
1
40
1
40
1
40
1
41
1
10
55.843624723764
20
-5.64974187343748
30
0
41
1
10
55.6257797896156
20
-5.59051942595707
30
0
41
1
10
55.4077190731852
20
-5.52915670933237
30
0
41
1
10
54.8748158369555
20
-5.37425556814412
30
0
41
1
10
54.5596952863386
20
-5.27845517368135
30
0
41
1
10
53.9280601824483
20
-5.07842595532014
30
0
41
1
10
53.6114899514241
20
-4.97415487650821
30
0
41
1
10
52.0346243546911
20
-4.43573739262962
30
0
41
1
10
50.7841625971862
20
-3.94815128067475
30
0
41
1
10
48.2871294158324
20
-2.89249420559804
30
0
41
1
10
47.0408917514407
20
-2.32379215400732
30
0
41
1
10
45.1616577584667
20
-1.43476377540119
30
0
41
1
10
44.533648402479
20
-1.13233667318275
30
0
41
1
10
43.5874996146852
20
-0.672908514699969
30
0
41
1
10
43.2710573361414
20
-0.518626902642666
30
0
41
1
10
42.6386941506392
20
-0.209901999416104
30
0
41
1
10
42.3227772623253
20
-0.0554263102302741
30
0
41
1
10
41.375497686413
20
0.407675470946543
30
0
41
1
10
40.7445465790467
20
0.715854783452528
30
0
41
1
10
39.4814166328232
20
1.32626125718608
30
0
41
1
10
38.848355021688
20
1.62888064259036
30
0
41
1
10
38.0998046297051
20
1.97956461607384
30
0
41
1
10
37.9832406079786
20
2.03396916911308
30
0
41
1
10
37.8666997514859
20
2.0881416176567
30
0
0
SPLINE
5
C4
100
AcDbEntity
8
1
62
256
6
ByLayer
370
18
48
1
60
0
100
AcDbSpline
70
4
71
3
72
18
73
14
40
0
40
0
40
0
40
0
40
0.124999999999999
40
0.124999999999999
40
0.249999999999998
40
0.249999999999998
40
0.374999999999998
40
0.374999999999998
40
0.499999999999997
40
0.499999999999997
40
0.749999999999998
40
0.749999999999998
40
1
40
1
40
1
40
1
41
1
10
4.25052376159499
20
6.40444914005971
30
0
41
1
10
4.23620495648044
20
6.40855795461979
30
0
41
1
10
4.221360793602
20
6.41349198867303
30
0
41
1
10
4.19018782050671
20
6.42563339963169
30
0
41
1
10
4.17376632267178
20
6.43290420312007
30
0
41
1
10
4.14069985828357
20
6.44992685807608
30
0
41
1
10
4.12377407069269
20
6.45986227856503
30
0
41
1
10
4.09211363102014
20
6.48148130130747
30
0
41
1
10
4.07749546286391
20
6.49307674625243
30
0
41
1
10
4.03968054655789
20
6.52798336074187
30
0
41
1
10
4.02369301956659
20
6.54994500109953
30
0
41
1
10
4.00399322460939
20
6.58876949079169
30
0
41
1
10
3.9999997666506
20
6.60612004886886
30
0
41
1
10
3.99999976665106
20
6.62154177795583
30
0
0
SPLINE
5
C5
100
AcDbEntity
8
1
62
256
6
ByLayer
370
13
48
1
60
0
100
AcDbSpline
70
4
71
3
72
8
73
4
40
0
40
0
40
0
40
0
40
1
40
1
40
1
40
1
41
1
10
4.2502145062509
20
-2.65069282295468
30
0
41
1
10
4.2115962257385
20
-2.64029856958513
30
0
41
1
10
4.17392473582925
20
-2.6336447945634
30
0
41
1
10
4.13902114952771
20
-2.63104064677566
30
0
0
SPLINE
5
C6
100
AcDbEntity
8
1
62
256
6
ByLayer
370
18
48
1
60
0
100
AcDbSpline
70
4
71
3
72
12
73
8
40
0
40
0
40
0
40
0
40
0.250000000000001
40
0.250000000000001
40
0.500000000000002
40
0.500000000000002
40
1
40
1
40
1
40
1
41
1
10
4.13588433499328
20
-2.84343075308678
30
0
41
1
10
4.11537052761906
20
-2.83377920788794
30
0
41
1
10
4.09675955789265
20
-2.82178982337126
30
0
41
1
10
4.06324465689107
20
-2.79322347397201
30
0
41
1
10
4.04859255043363
20
-2.77673170801842
30
0
41
1
10
4.01298801227927
20
-2.72306014416765
30
0
41
1
10
3.99999976665106
20
-2.68094267187641
30
0
41
1
10
3.99999976665106
20
-2.63812074815863
30
0
0
SPLINE
5
C7
100
AcDbEntity
8
1
62
256
6
ByLayer
370
18
48
1
60
0
100
AcDbSpline
70
4
71
3
72
36
73
32
40
0
40
0
40
0
40
0
40
0.0624999999999985
40
0.0624999999999985
40
0.0937499999999975
40
0.0937499999999975
40
0.124999999999997
40
0.124999999999997
40
0.187499999999995
40
0.187499999999995
40
0.218749999999993
40
0.218749999999993
40
0.249999999999992
40
0.249999999999992
40
0.37499999999999
40
0.37499999999999
40
0.40624999999999
40
0.40624999999999
40
0.437499999999989
40
0.437499999999989
40
0.499999999999991
40
0.499999999999991
40
0.624999999999992
40
0.624999999999992
40
0.687499999999992
40
0.687499999999992
40
0.749999999999992
40
0.749999999999992
40
0.874999999999996
40
0.874999999999996
40
1
40
1
40
1
40
1
41
1
10
57.759591637292
20
2.36412481840242
30
0
41
1
10
57.7511811277396
20
2.14884496416687
30
0
41
1
10
57.7586393826894
20
1.93011953836461
30
0
41
1
10
57.793593835792
20
1.59687087547925
30
0
41
1
10
57.8092484647371
20
1.48473011661912
30
0
41
1
10
57.8484327274542
20
1.25953322855131
30
0
41
1
10
57.8717217712846
20
1.14776565395331
30
0
41
1
10
57.9519196853755
20
0.814784741015671
30
0
41
1
10
58.0191229410052
20
0.595885033369314
30
0
41
1
10
58.1383265759137
20
0.271670533350999
30
0
41
1
10
58.1811376170023
20
0.164290466159372
30
0
41
1
10
58.2726460602254
20
-0.0491467271158115
30
0
41
1
10
58.321349525429
20
-0.155152698046294
30
0
41
1
10
58.5751959901688
20
-0.6747404489941
30
0
41
1
10
58.8133463629204
20
-1.06380251546307
30
0
41
1
10
59.1433578600202
20
-1.52560798952368
30
0
41
1
10
59.2110092119001
20
-1.61671803772182
30
0
41
1
10
59.3495239514598
20
-1.79650133686062
30
0
41
1
10
59.4204384027636
20
-1.885219117888
30
0
41
1
10
59.6358716342544
20
-2.14537662108677
30
0
41
1
10
59.7837522907518
20
-2.31163116568345
30
0
41
1
10
60.2380496825693
20
-2.79241985839101
30
0
41
1
10
60.5549081655075
20
-3.08933951948291
30
0
41
1
10
61.0469714090112
20
-3.50641990122384
30
0
41
1
10
61.2138198160658
20
-3.64067719706577
30
0
41
1
10
61.5527299945209
20
-3.90039721317163
30
0
41
1
10
61.7247759473247
20
-4.02580954170628
30
0
41
1
10
62.2433054140111
20
-4.38646770997667
30
0
41
1
10
62.5938262528766
20
-4.60754886430362
30
0
41
1
10
63.3030993833201
20
-5.0167521375767
30
0
41
1
10
63.6618672715852
20
-5.20481180682256
30
0
41
1
10
64.0244298421036
20
-5.37767743061747
30
0
0
SPLINE
5
C8
100
AcDbEntity
8
1
62
256
6
ByLayer
370
18
48
1
60
0
100
AcDbSpline
70
4
71
3
72
46
73
42
40
0
40
0
40
0
40
0
40
0.125000000000003
40
0.125000000000003
40
0.187500000000006
40
0.187500000000006
40
0.25000000000001
40
0.25000000000001
40
0.312500000000014
40
0.312500000000014
40
0.343750000000013
40
0.343750000000013
40
0.375000000000013
40
0.375000000000013
40
0.406250000000013
40
0.406250000000013
40
0.437500000000013
40
0.437500000000013
40
0.453125000000013
40
0.453125000000013
40
0.468750000000013
40
0.468750000000013
40
0.484375000000013
40
0.484375000000013
40
0.500000000000013
40
0.500000000000013
40
0.53125000000001
40
0.53125000000001
40
0.562500000000006
40
0.562500000000006
40
0.625000000000004
40
0.625000000000004
40
0.687500000000001
40
0.687500000000001
40
0.749999999999998
40
0.749999999999998
40
0.874999999999997
40
0.874999999999997
40
0.937499999999999
40
0.937499999999999
40
1
40
1
40
1
40
1
41
1
10
64.8306101206797
20
-3.80504560369877
30
0
41
1
10
64.5687256616302
20
-3.73370107324962
30
0
41
1
10
64.3077568165921
20
-3.63857506011266
30
0
41
1
10
63.917704692581
20
-3.45949377186503
30
0
41
1
10
63.7887164593199
20
-3.39393119653195
30
0
41
1
10
63.5347063105522
20
-3.25051596217224
30
0
41
1
10
63.4094256777632
20
-3.17260629579732
30
0
41
1
10
63.163258703947
20
-3.000982650645
30
0
41
1
10
63.0422114877024
20
-2.90722214145228
30
0
41
1
10
62.8694619384807
20
-2.75198879249317
30
0
41
1
10
62.8132328991573
20
-2.69769798880662
30
0
41
1
10
62.7045138691786
20
-2.58208541322773
30
0
41
1
10
62.6526152575904
20
-2.52144744499043
30
0
41
1
10
62.5564682280855
20
-2.39217433804899
30
0
41
1
10
62.5116113312151
20
-2.32272297594872
30
0
41
1
10
62.4386812448722
20
-2.17546983318277
30
0
41
1
10
62.4100910909965
20
-2.0963551965994
30
0
41
1
10
62.3941265671541
20
-1.97663001917525
30
0
41
1
10
62.3934921812829
20
-1.93702830683958
30
0
41
1
10
62.4028780353398
20
-1.86195755673555
30
0
41
1
10
62.4129783812451
20
-1.82643317434039
30
0
41
1
10
62.4417946331209
20
-1.76299787891196
30
0
41
1
10
62.4606838122576
20
-1.7345278126553
30
0
41
1
10
62.5033572541586
20
-1.6853151377741
30
0
41
1
10
62.5275080862408
20
-1.66396624584485
30
0
41
1
10
62.6049985568562
20
-1.60825114070781
30
0
41
1
10
62.6618761814499
20
-1.58255891146697
30
0
41
1
10
62.7813176381228
20
-1.54365478130563
30
0
41
1
10
62.8435540329063
20
-1.53090469488123
30
0
41
1
10
63.0312371686671
20
-1.50597954686171
30
0
41
1
10
63.1595296343557
20
-1.50628958428197
30
0
41
1
10
63.4196030414871
20
-1.52553481786978
30
0
41
1
10
63.551432547683
20
-1.54499186771611
30
0
41
1
10
63.8129830423588
20
-1.59685481573132
30
0
41
1
10
63.9434439797725
20
-1.62940834791129
30
0
41
1
10
64.3340697752984
20
-1.74301819813323
30
0
41
1
10
64.5934997202993
20
-1.83955807872798
30
0
41
1
10
64.9812512625538
20
-2.01372431257946
30
0
41
1
10
65.1096382152071
20
-2.07653838427623
30
0
41
1
10
65.363718335034
20
-2.21246577005925
30
0
41
1
10
65.4895359341431
20
-2.28558191693119
30
0
41
1
10
65.6137647695314
20
-2.36539441915977
30
0
0
SPLINE
5
C9
100
AcDbEntity
8
1
62
256
6
ByLayer
370
18
48
1
60
0
100
AcDbSpline
70
4
71
3
72
8
73
4
40
0
40
0
40
0
40
0
40
1
40
1
40
1
40
1
41
1
10
66.9504574521225
20
-0.0806858881680057
30
0
41
1
10
66.4920418627926
20
-0.830580206583704
30
0
41
1
10
66.0464071096918
20
-1.59208564591537
30
0
41
1
10
65.6137647695322
20
-2.36539441915625
30
0
0
SPLINE
5
CA
100
AcDbEntity
8
1
62
256
6
ByLayer
370
18
48
1
60
0
100
AcDbSpline
70
4
71
3
72
8
73
4
40
0
40
0
40
0
40
0
40
1
40
1
40
1
40
1
41
1
10
66.9999694075172
20
0.0481954925056414
30
0
41
1
10
67.0000101994397
20
0.0160636315159479
30
0
41
1
10
67.0000101955484
20
-0.0160666966750114
30
0
41
1
10
66.9999694075171
20
-0.0481954925056698
30
0
0
SPLINE
5
CB
100
AcDbEntity
8
1
62
256
6
ByLayer
370
18
48
1
60
0
100
AcDbSpline
70
4
71
3
72
34
73
30
40
0
40
0
40
0
40
0
40
0.0722476490925021
40
0.0722476490925021
40
0.110903997046981
40
0.110903997046981
40
0.14956034500146
40
0.14956034500146
40
0.226873040910418
40
0.226873040910418
40
0.304185736819376
40
0.304185736819376
40
0.342842084773855
40
0.342842084773855
40
0.381498432728334
40
0.381498432728334
40
0.458811128637292
40
0.458811128637292
40
0.53612382454625
40
0.53612382454625
40
0.690749216364168
40
0.690749216364168
40
0.768061912273126
40
0.768061912273126
40
0.845374608182084
40
0.845374608182084
40
0.922687304091042
40
0.922687304091042
40
1
40
1
40
1
40
1
41
1
10
41.238983581249
20
6.77227038384419
30
0
41
1
10
41.636771095591
20
6.76744396867576
30
0
41
1
10
42.0347621056993
20
6.75464556032725
30
0
41
1
10
42.6461237036057
20
6.72380588595243
30
0
41
1
10
42.8594575578902
20
6.71129629468658
30
0
41
1
10
43.2862371840738
20
6.68004031136118
30
0
41
1
10
43.4994315133371
20
6.66152681375328
30
0
41
1
10
44.1385597281028
20
6.59851642284059
30
0
41
1
10
44.5640163844763
20
6.54681100146891
30
0
41
1
10
45.4143504499686
20
6.42566359486375
30
0
41
1
10
45.8396428198575
20
6.35642371093934
30
0
41
1
10
46.4779816455926
20
6.24096774160879
30
0
41
1
10
46.6907884279063
20
6.20050746151051
30
0
41
1
10
47.1164413413333
20
6.11403247487598
30
0
41
1
10
47.3292920757493
20
6.06818465896424
30
0
41
1
10
47.9681495260405
20
5.9239364605022
30
0
41
1
10
48.3951658711164
20
5.81939178235871
30
0
41
1
10
49.2475220778592
20
5.59436571420912
30
0
41
1
10
49.6731522727625
20
5.47425781890712
30
0
41
1
10
50.9490290950625
20
5.09265057095746
30
0
41
1
10
51.7995440345942
20
4.80612900634225
30
0
41
1
10
53.077169173518
20
4.33699060979003
30
0
41
1
10
53.50417291734
20
4.17475720683382
30
0
41
1
10
54.3567436829506
20
3.8402630203972
30
0
41
1
10
54.7823106428542
20
3.66701708408917
30
0
41
1
10
55.6326056149612
20
3.30991697238051
30
0
41
1
10
56.0577457074111
20
3.12693514874581
30
0
41
1
10
56.9084357061671
20
2.75194635246513
30
0
41
1
10
57.3338548563111
20
2.55986681581908
30
0
41
1
10
57.759591637292
20
2.36412481840273
30
0
0
SPLINE
5
CC
100
AcDbEntity
8
1
62
256
6
ByLayer
370
18
48
1
60
0
100
AcDbSpline
70
4
71
3
72
8
73
4
40
0
40
0
40
0
40
0
40
1
40
1
40
1
40
1
41
1
10
66.9183290304052
20
-1.60536377732475
30
0
41
1
10
66.9511361293886
20
-1.114460579303
30
0
41
1
10
66.97474367886
20
-0.624024498826032
30
0
41
1
10
66.9891368947129
20
-0.134056286573582
30
0
0
SPLINE
5
CD
100
AcDbEntity
8
1
62
256
6
ByLayer
370
18
48
1
60
0
100
AcDbSpline
70
4
71
3
72
12
73
8
40
0
40
0
40
0
40
0
40
0.250000000000001
40
0.250000000000001
40
0.500000000000002
40
0.500000000000002
40
1
40
1
40
1
40
1
41
1
10
64.8523234573408
20
-6.95123571376595
30
0
41
1
10
65.0131272584185
20
-6.499204020039
30
0
41
1
10
65.1771166356399
20
-6.04914782421312
30
0
41
1
10
65.5109105124682
20
-5.1524105971157
30
0
41
1
10
65.6807397142838
20
-4.70574447377132
30
0
41
1
10
66.1980869587384
20
-3.37005771651391
30
0
41
1
10
66.5535055858774
20
-2.48535797648819
30
0
41
1
10
66.9183290304052
20
-1.60536377732478
30
0
0
SPLINE
5
CE
100
AcDbEntity
8
1
62
256
6
ByLayer
370
18
48
1
60
0
100
AcDbSpline
70
4
71
3
72
8
73
4
40
0
40
0
40
0
40
0
40
1
40
1
40
1
40
1
41
1
10
64.4860040236799
20
7.13995964498756
30
0
41
1
10
64.2435715859078
20
7.14636347183446
30
0
41
1
10
64.0010292609333
20
7.14947628475448
30
0
41
1
10
63.7584623420847
20
7.14930671357823
30
0
0
SPLINE
5
CF
100
AcDbEntity
8
1
62
256
6
ByLayer
370
18
48
1
60
0
100
AcDbSpline
70
4
71
3
72
24
73
20
40
0
40
0
40
0
40
0
40
0.0757430348669897
40
0.0757430348669897
40
0.260594427893591
40
0.260594427893591
40
0.445445820920193
40
0.445445820920193
40
0.537871517433494
40
0.537871517433494
40
0.630297213946796
40
0.630297213946796
40
0.722722910460098
40
0.722722910460098
40
0.768935758716748
40
0.768935758716748
40
0.815148606973398
40
0.815148606973398
40
1
40
1
40
1
40
1
41
1
10
24.5459587450115
20
-6.7790363769771
30
0
41
1
10
24.0300969042218
20
-6.86030809570937
30
0
41
1
10
23.5136475890413
20
-6.9275554745756
30
0
41
1
10
21.7410703187334
20
-7.10849955272494
30
0
41
1
10
20.4865740593599
20
-7.15024914776788
30
0
41
1
10
17.9663491115293
20
-7.05691661254829
30
0
41
1
10
16.7121075998596
20
-6.92241058678587
30
0
41
1
10
14.8255701800727
20
-6.59539173557337
30
0
41
1
10
14.1948411749038
20
-6.46530490690077
30
0
41
1
10
12.9368474485734
20
-6.16673272945013
30
0
41
1
10
12.3089003964293
20
-5.99825399416335
30
0
41
1
10
11.0527246710182
20
-5.62556467638365
30
0
41
1
10
10.4246337540214
20
-5.42118647756834
30
0
41
1
10
9.48045847977545
20
-5.0898764895166
30
0
41
1
10
9.16513832852064
20
-4.97524778349526
30
0
41
1
10
8.53554127989321
20
-4.73886832096812
30
0
41
1
10
8.22109521509412
20
-4.61706147575347
30
0
41
1
10
6.64981606979217
20
-3.99123843866528
30
0
41
1
10
5.39611891330031
20
-3.43635876356225
30
0
41
1
10
4.13588433499331
20
-2.84343075308681
30
0
0
SPLINE
5
D0
100
AcDbEntity
8
1
62
256
6
ByLayer
370
18
48
1
60
0
100
AcDbSpline
70
4
71
3
72
16
73
12
40
0
40
0
40
0
40
0
40
0.25
40
0.25
40
0.5
40
0.5
40
0.625
40
0.625
40
0.75
40
0.75
40
1
40
1
40
1
40
1
41
1
10
3.99999976665251
20
-6.6215417779523
30
0
41
1
10
3.99999976665234
20
-6.60612904694696
30
0
41
1
10
4.00383578381818
20
-6.58918482339726
30
0
41
1
10
4.02353645228993
20
-6.55015017426436
30
0
41
1
10
4.03978924145105
20
-6.52791727832897
30
0
41
1
10
4.07717588214368
20
-6.49335480344655
30
0
41
1
10
4.09181026803824
20
-6.4817130580206
30
0
41
1
10
4.12333916099715
20
-6.46013521335033
30
0
41
1
10
4.14024076063515
20
-6.45017601128282
30
0
41
1
10
4.1904227284065
20
-6.42430414930408
30
0
41
1
10
4.2218308533574
20
-6.41268263707298
30
0
41
1
10
4.25052376159499
20
-6.40444914005971
30
0
0
SPLINE
5
D1
100
AcDbEntity
8
1
62
256
6
ByLayer
370
13
48
1
60
0
100
AcDbSpline
70
4
71
3
72
14
73
10
40
0
40
0
40
0
40
0
40
0.25
40
0.25
40
0.5
40
0.5
40
0.75
40
0.75
40
1
40
1
40
1
40
1
41
1
10
3.99999976665106
20
-2.59519720372924
30
0
41
1
10
3.99999976665106
20
-2.59892237147184
30
0
41
1
10
4.00299571354535
20
-2.60268990615128
30
0
41
1
10
4.01488971838069
20
-2.60977803559121
30
0
41
1
10
4.02385249493548
20
-2.61317057633965
30
0
41
1
10
4.0472358913209
20
-2.61936317359346
30
0
41
1
10
4.06195666193315
20
-2.62224210535769
30
0
41
1
10
4.09678574366836
20
-2.62725448696321
30
0
41
1
10
4.11653758533581
20
-2.62936315371101
30
0
41
1
10
4.13902114952771
20
-2.63104064677566
30
0
0
SPLINE
5
D2
100
AcDbEntity
8
1
62
256
6
ByLayer
370
18
48
1
60
0
100
AcDbSpline
70
4
71
3
72
18
73
14
40
0
40
0
40
0
40
0
40
0.118146993180534
40
0.118146993180534
40
0.555736887770942
40
0.555736887770942
40
0.774531835066145
40
0.774531835066145
40
0.883929308713746
40
0.883929308713746
40
0.993326782361347
40
0.993326782361347
40
1
40
1
40
1
40
1
41
1
10
20.35098382113
20
-6.76467700578087
30
0
41
1
10
20.0115059520161
20
-6.76343137502988
30
0
41
1
10
19.6725988492672
20
-6.756109486578
30
0
41
1
10
18.0803147079469
20
-6.69350497731625
30
0
41
1
10
16.8315713139313
20
-6.56165632304519
30
0
41
1
10
14.9536580477323
20
-6.24616918155678
30
0
41
1
10
14.3267818774941
20
-6.12139404502665
30
0
41
1
10
13.383642232767
20
-5.90599930352542
30
0
41
1
10
13.068774309356
20
-5.82950066555193
30
0
41
1
10
12.437759806459
20
-5.66728634894378
30
0
41
1
10
12.1211992419006
20
-5.5814503048361
30
0
41
1
10
11.785630956476
20
-5.485902841887
30
0
41
1
10
11.7663403621094
20
-5.48039412853905
30
0
41
1
10
11.747051867118
20
-5.4748700360793
30
0
0
SPLINE
5
D3
100
AcDbEntity
8
1
62
256
6
ByLayer
370
13
48
1
60
0
100
AcDbSpline
70
4
71
3
72
10
73
6
40
0
40
0
40
0
40
0
40
0.496158222674127
40
0.496158222674127
40
1
40
1
40
1
40
1
41
1
10
11.7470518665225
20
-5.47487003590879
30
0
41
1
10
10.5015156628765
20
-5.1181570235984
30
0
41
1
10
9.26473345012548
20
-4.69731607262628
30
0
41
1
10
6.77141626245847
20
-3.7483288161024
30
0
41
1
10
5.51539712452706
20
-3.21795157393959
30
0
41
1
10
4.2502145062509
20
-2.65069282295465
30
0
0
SPLINE
5
D4
100
AcDbEntity
8
1
62
256
6
ByLayer
370
18
48
1
60
0
100
AcDbSpline
70
4
71
3
72
28
73
24
40
0
40
0
40
0
40
0
40
0.124999999999999
40
0.124999999999999
40
0.249999999999998
40
0.249999999999998
40
0.374999999999998
40
0.374999999999998
40
0.437499999999998
40
0.437499999999998
40
0.499999999999998
40
0.499999999999998
40
0.624999999999998
40
0.624999999999998
40
0.687499999999999
40
0.687499999999999
40
0.75
40
0.75
40
0.875000000000001
40
0.875000000000001
40
0.9375
40
0.9375
40
1
40
1
40
1
40
1
41
1
10
16.8742142295723
20
1.09952155838602
30
0
41
1
10
16.3183419853652
20
1.34947749890054
30
0
41
1
10
15.7675049468554
20
1.60579141026452
30
0
41
1
10
14.6722091554187
20
2.12190821942161
30
0
41
1
10
14.1277446109236
20
2.38203415372283
30
0
41
1
10
13.0419928674957
20
2.89851941779756
30
0
41
1
10
12.5027219327068
20
3.1537599144911
30
0
41
1
10
11.697266224254
20
3.52638701966214
30
0
41
1
10
11.4293667483305
20
3.64869752914015
30
0
41
1
10
10.8944690915318
20
3.89006677133878
30
0
41
1
10
10.6274705306074
20
4.00925665080945
30
0
41
1
10
9.82763103007287
20
4.36088798177803
30
0
41
1
10
9.29526986025317
20
4.58783637796813
30
0
41
1
10
8.50620746948636
20
4.9108967610299
30
0
41
1
10
8.24451741183861
20
5.01580587987058
30
0
41
1
10
7.72419692241189
20
5.21944285186595
30
0
41
1
10
7.46558690616078
20
5.31811344150762
30
0
41
1
10
6.69448328927061
20
5.60634534728831
30
0
41
1
10
6.18686359367499
20
5.78695445316743
30
0
41
1
10
5.44148627904491
20
6.0371503635277
30
0
41
1
10
5.19527046459621
20
6.11722509710032
30
0
41
1
10
4.71273953112271
20
6.26846840316182
30
0
41
1
10
4.47739104935391
20
6.33934904217685
30
0
41
1
10
4.25052375716152
20
6.40444914133192
30
0
0
SPLINE
5
D5
100
AcDbEntity
8
1
62
256
6
ByLayer
370
18
48
1
60
0
100
AcDbSpline
70
4
71
3
72
8
73
4
40
0
40
0
40
0
40
0
40
1
40
1
40
1
40
1
41
1
10
64.8306101206798
20
-3.80504560369883
30
0
41
1
10
64.5561759290674
20
-4.32407113065571
30
0
41
1
10
64.287431781579
20
-4.84826594302982
30
0
41
1
10
64.0244298421036
20
-5.3776774306175
30
0
0
SPLINE
5
D6
100
AcDbEntity
8
1
62
256
6
ByLayer
370
18
48
1
60
0
100
AcDbSpline
70
4
71
3
72
8
73
4
40
0
40
0
40
0
40
0
40
1
40
1
40
1
40
1
41
1
10
66.9183290304052
20
1.60536377732495
30
0
41
1
10
66.9511404600036
20
1.11439577891537
30
0
41
1
10
66.974745579314
20
0.623959804315149
30
0
41
1
10
66.989136894713
20
0.134056286573667
30
0
0
SPLINE
5
D7
100
AcDbEntity
8
1
62
256
6
ByLayer
370
18
48
1
60
0
100
AcDbSpline
70
4
71
3
72
30
73
26
40
0
40
0
40
0
40
0
40
0.0625000000000022
40
0.0625000000000022
40
0.125000000000004
40
0.125000000000004
40
0.187500000000006
40
0.187500000000006
40
0.250000000000009
40
0.250000000000009
40
0.312500000000011
40
0.312500000000011
40
0.375000000000013
40
0.375000000000013
40
0.50000000000001
40
0.50000000000001
40
0.625000000000008
40
0.625000000000008
40
0.750000000000005
40
0.750000000000005
40
0.875000000000003
40
0.875000000000003
40
0.937500000000001
40
0.937500000000001
40
1
40
1
40
1
40
1
41
1
10
65.6137647695306
20
-2.36539441915866
30
0
41
1
10
65.6083061489885
20
-2.40628889944932
30
0
41
1
10
65.6008418391379
20
-2.45040842214101
30
0
41
1
10
65.5825953866917
20
-2.54069181573362
30
0
41
1
10
65.5717901790615
20
-2.58721320043938
30
0
41
1
10
65.5468440191884
20
-2.68302522691249
30
0
41
1
10
65.5326117565139
20
-2.73251889719319
30
0
41
1
10
65.5020138985251
20
-2.8303027860496
30
0
41
1
10
65.4855322181783
20
-2.87908231062056
30
0
41
1
10
65.4503137384383
20
-2.9764356739347
30
0
41
1
10
65.4316866517549
20
-3.0246515631257
30
0
41
1
10
65.3935442623874
20
-3.11775555833825
30
0
41
1
10
65.3738892670731
20
-3.16303212781014
30
0
41
1
10
65.3132811277651
20
-3.29519944805477
30
0
41
1
10
65.272066248298
20
-3.37549843261885
30
0
41
1
10
65.1895694504287
20
-3.51984363528209
30
0
41
1
10
65.1483402527495
20
-3.58352622777954
30
0
41
1
10
65.0708191506965
20
-3.68799568541931
30
0
41
1
10
65.0340048757104
20
-3.72981017291306
30
0
41
1
10
64.9642044204252
20
-3.79233200407344
30
0
41
1
10
64.9325885098806
20
-3.81179519981407
30
0
41
1
10
64.8900512117233
20
-3.82325456453833
30
0
41
1
10
64.8766059369574
20
-3.82406146087607
30
0
41
1
10
64.8518949300982
20
-3.81927417957721
30
0
41
1
10
64.8406829056966
20
-3.81374287353583
30
0
41
1
10
64.8306101206798
20
-3.8050456036988
30
0
0
SPLINE
5
D8
100
AcDbEntity
8
1
62
256
6
ByLayer
370
13
48
1
60
0
100
AcDbSpline
70
4
71
3
72
8
73
4
40
0
40
0
40
0
40
0
40
1
40
1
40
1
40
1
41
1
10
4.13902114952771
20
-2.74793666269528
30
0
41
1
10
4.16012971057901
20
-2.75334664022026
30
0
41
1
10
4.18272993315983
20
-2.76147966005649
30
0
41
1
10
4.20581869642047
20
-2.77192416287122
30
0
0
SPLINE
5
D9
100
AcDbEntity
8
1
62
256
6
ByLayer
370
13
48
1
60
0
100
AcDbSpline
70
4
71
3
72
8
73
4
40
0
40
0
40
0
40
0
40
1
40
1
40
1
40
1
41
1
10
4.13588433499331
20
-2.84343075308681
30
0
41
1
10
4.13691886789138
20
-2.81161104165369
30
0
41
1
10
4.13796447209495
20
-2.7797798554079
30
0
41
1
10
4.13902114952768
20
-2.74793666269528
30
0
0
SPLINE
5
DA
100
AcDbEntity
8
1
62
256
6
ByLayer
370
18
48
1
60
0
100
AcDbSpline
70
4
71
3
72
8
73
4
40
0
40
0
40
0
40
0
40
1
40
1
40
1
40
1
41
1
10
66.9891368947131
20
-0.134056286573497
30
0
41
1
10
66.9898663140374
20
-0.10922567985287
30
0
41
1
10
66.9939191917332
20
-0.079623851473599
30
0
41
1
10
66.9999694075171
20
-0.0481954925056982
30
0
0
SPLINE
5
DB
100
AcDbEntity
8
1
62
256
6
ByLayer
370
18
48
1
60
0
100
AcDbSpline
70
4
71
3
72
14
73
10
40
0
40
0
40
0
40
0
40
0.25
40
0.25
40
0.5
40
0.5
40
0.75
40
0.75
40
1
40
1
40
1
40
1
41
1
10
64.5996086414449
20
-6.7857138955915
30
0
41
1
10
64.6030313070293
20
-6.7851014478909
30
0
41
1
10
64.6058001725168
20
-6.78621138034256
30
0
41
1
10
64.6096266716817
20
-6.79292451755043
30
0
41
1
10
64.6106275659297
20
-6.79861756121272
30
0
41
1
10
64.60970805354
20
-6.81555289457998
30
0
41
1
10
64.6077165622237
20
-6.82680606706836
30
0
41
1
10
64.6008544012841
20
-6.85222993481278
30
0
41
1
10
64.5960486277457
20
-6.86619954675444
30
0
41
1
10
64.5907333019333
20
-6.8794687729345
30
0
0
SPLINE
5
DC
100
AcDbEntity
8
1
62
256
6
ByLayer
370
18
48
1
60
0
100
AcDbSpline
70
4
71
3
72
8
73
4
40
0
40
0
40
0
40
0
40
1
40
1
40
1
40
1
41
1
10
64.8523234573455
20
6.95123571375188
30
0
41
1
10
64.7159418830934
20
7.05365731079473
30
0
41
1
10
64.5942423832985
20
7.11691178985609
30
0
41
1
10
64.4860040236799
20
7.13995964498756
30
0
0
SPLINE
5
DD
100
AcDbEntity
8
1
62
256
6
ByLayer
370
18
48
1
60
0
100
AcDbSpline
70
4
71
3
72
10
73
6
40
0
40
0
40
0
40
0
40
0.5
40
0.5
40
1
40
1
40
1
40
1
41
1
10
64.5356155089179
20
1.68719409279152
30
0
41
1
10
64.9328400105695
20
1.67229494393257
30
0
41
1
10
65.33004566544
20
1.65762084724056
30
0
41
1
10
66.1242337906508
20
1.63093773292894
30
0
41
1
10
66.5213011601132
20
1.61791492249168
30
0
41
1
10
66.918329030413
20
1.6053637773245
30
0
0
SPLINE
5
DE
100
AcDbEntity
8
1
62
256
6
ByLayer
370
18
48
1
60
0
100
AcDbSpline
70
4
71
3
72
24
73
20
40
0
40
0
40
0
40
0
40
0.128559037992751
40
0.128559037992751
40
0.243894436506297
40
0.243894436506297
40
0.30156213576307
40
0.30156213576307
40
0.359229835019843
40
0.359229835019843
40
0.589900632046935
40
0.589900632046935
40
0.820571429074028
40
0.820571429074028
40
0.935906827587574
40
0.935906827587574
40
0.993574526844347
40
0.993574526844347
40
1
40
1
40
1
40
1
41
1
10
16.8742142295723
20
7.09532362955594
30
0
41
1
10
16.8742142295723
20
6.82048450290378
30
0
41
1
10
16.8742142295723
20
6.54594463173655
30
0
41
1
10
16.8742142295723
20
6.02565610902363
30
0
41
1
10
16.8742142295723
20
5.77985189585098
30
0
41
1
10
16.8742142295723
20
5.41149985397755
30
0
41
1
10
16.8742142295723
20
5.28849024409865
30
0
41
1
10
16.8742142295723
20
5.04425638378103
30
0
41
1
10
16.8742142295723
20
4.92305093983734
30
0
41
1
10
16.8742142295723
20
4.32145400708373
30
0
41
1
10
16.8742142295723
20
3.85427002247383
30
0
41
1
10
16.8742142295723
20
2.94629064488674
30
0
41
1
10
16.8742142295723
20
2.5055061968088
30
0
41
1
10
16.8742142295723
20
1.86419417932024
30
0
41
1
10
16.8742142295723
20
1.65455437826924
30
0
41
1
10
16.8742142295723
20
1.3479700730299
30
0
41
1
10
16.8742142295723
20
1.24699645511356
30
0
41
1
10
16.8742142295723
20
1.1361245404872
30
0
41
1
10
16.8742142295723
20
1.1250243899313
30
0
41
1
10
16.8742142295724
20
1.11393962960602
30
0
0
SPLINE
5
DF
100
AcDbEntity
8
1
62
256
6
ByLayer
370
18
48
1
60
0
100
AcDbSpline
70
4
71
3
72
8
73
4
40
0
40
0
40
0
40
0
40
1
40
1
40
1
40
1
41
1
10
64.590733301931
20
-6.87946877294024
30
0
41
1
10
64.5558971030464
20
-6.96643416670318
30
0
41
1
10
64.5209855095217
20
-7.05326358569849
30
0
41
1
10
64.4860040236799
20
-7.13995964498756
30
0
0
SPLINE
5
E0
100
AcDbEntity
8
1
62
256
6
ByLayer
370
18
48
1
60
0
100
AcDbSpline
70
4
71
3
72
18
73
14
40
0
40
0
40
0
40
0
40
0.202244112516313
40
0.202244112516313
40
0.404488225032626
40
0.404488225032626
40
0.606732337548939
40
0.606732337548939
40
0.808976450065252
40
0.808976450065252
40
0.910098506323409
40
0.910098506323409
40
1
40
1
40
1
40
1
41
1
10
3.99999976666146
20
6.68489814888724
30
0
41
1
10
3.83555861116204
20
6.73211169872891
30
0
41
1
10
3.67425618229183
20
6.77693238860343
30
0
41
1
10
3.35994393747472
20
6.86094902367137
30
0
41
1
10
3.20788157987386
20
6.89988718505043
30
0
41
1
10
2.91866534793056
20
6.97005701882065
30
0
41
1
10
2.78125484027106
20
7.00136387580031
30
0
41
1
10
2.52667494338561
20
7.0542795918262
30
0
41
1
10
2.40906555807533
20
7.0759106538392
30
0
41
1
10
2.26056983974104
20
7.09760463245374
30
0
41
1
10
2.21553224687398
20
7.1030857895411
30
0
41
1
10
2.14055358942033
20
7.10962036096308
30
0
41
1
10
2.10936486074562
20
7.11108296705657
30
0
41
1
10
2.08369818762563
20
7.11071595870678
30
0
0
SPLINE
5
E1
100
AcDbEntity
8
1
62
256
6
ByLayer
370
18
48
1
60
0
100
AcDbSpline
70
4
71
3
72
22
73
18
40
0
40
0
40
0
40
0
40
0.0110517666050208
40
0.0110517666050208
40
0.109946589944518
40
0.109946589944518
40
0.208841413284016
40
0.208841413284016
40
0.406631059963012
40
0.406631059963012
40
0.604420706642009
40
0.604420706642009
40
0.703315529981507
40
0.703315529981507
40
0.802210353321005
40
0.802210353321005
40
1
40
1
40
1
40
1
41
1
10
4.34889580929601
20
6.3919273675136
30
0
41
1
10
4.39660789788598
20
6.39157338848042
30
0
41
1
10
4.44432245695918
20
6.39127853865469
30
0
41
1
10
4.91898441509667
20
6.3889328287222
30
0
41
1
10
5.34569453165153
20
6.39156707285983
30
0
41
1
10
6.19865175250666
20
6.4058977483638
30
0
41
1
10
6.6252677706247
20
6.41761815989207
30
0
41
1
10
7.89755977608922
20
6.46482202538814
30
0
41
1
10
8.73773237816314
20
6.51260651773737
30
0
41
1
10
10.4033408529802
20
6.62798382756969
30
0
41
1
10
11.2287142556835
20
6.69561427833841
30
0
41
1
10
12.4569388236163
20
6.79826185893023
30
0
41
1
10
12.8647106419127
20
6.83264310463326
30
0
41
1
10
13.677293297198
20
6.89907851615317
30
0
41
1
10
14.0825186179286
20
6.93116139786326
30
0
41
1
10
15.2907513055793
20
7.01950842248596
30
0
41
1
10
16.086062715655
20
7.06774767998019
30
0
41
1
10
16.8742142295723
20
7.0953236295594
30
0
0
SPLINE
5
E2
100
AcDbEntity
8
1
62
256
6
ByLayer
370
18
48
1
60
0
100
AcDbSpline
70
4
71
3
72
10
73
6
40
0
40
0
40
0
40
0
40
0.648401972500222
40
0.648401972500222
40
1
40
1
40
1
40
1
41
1
10
4.20581869642044
20
-2.77192416287122
30
0
41
1
10
5.47211573753199
20
-3.34475012417914
30
0
41
1
10
6.7289781585838
20
-3.87900090657541
30
0
41
1
10
8.66763569876434
20
-4.61969359804752
30
0
41
1
10
9.34915962008574
20
-4.86445852635771
30
0
41
1
10
10.0321280926673
20
-5.09119349848169
30
0
0
SPLINE
5
E3
100
AcDbEntity
8
1
62
256
6
ByLayer
370
13
48
1
60
0
100
AcDbSpline
70
4
71
3
72
22
73
18
40
0
40
0
40
0
40
0
40
0.137234972591567
40
0.137234972591567
40
0.212186325378544
40
0.212186325378544
40
0.28713767816552
40
0.28713767816552
40
0.437040383739474
40
0.437040383739474
40
0.736845794887378
40
0.736845794887378
40
0.88674850046133
40
0.88674850046133
40
0.961699853248307
40
0.961699853248307
40
1
40
1
40
1
40
1
41
1
10
10.0321281283696
20
-5.09119351033428
30
0
41
1
10
10.6086607507089
20
-5.28259342545579
30
0
41
1
10
11.186222761818
20
-5.46114517476661
30
0
41
1
10
12.0822543585865
20
-5.71514516186033
30
0
41
1
10
12.3990369957838
20
-5.80053207702309
30
0
41
1
10
13.0304568997491
20
-5.96163043902962
30
0
41
1
10
13.3455132640883
20
-6.03746273696689
30
0
41
1
10
14.2891828666871
20
-6.25053855989742
30
0
41
1
10
14.9163593610273
20
-6.37333587859075
30
0
41
1
10
16.7951222578806
20
-6.68168034428621
30
0
41
1
10
18.0443760810768
20
-6.80717333441237
30
0
41
1
10
19.9260313378878
20
-6.86951654569123
30
0
41
1
10
20.5546217864703
20
-6.8693848642165
30
0
41
1
10
21.5013469839837
20
-6.83703048015372
30
0
41
1
10
21.8179066362564
20
-6.82084516787649
30
0
41
1
10
22.2960965715591
20
-6.78833457423957
30
0
41
1
10
22.4576224364159
20
-6.77596331294311
30
0
41
1
10
22.6189769308886
20
-6.76223269614849
30
0
0
SPLINE
5
E4
100
AcDbEntity
8
1
62
256
6
ByLayer
370
18
48
1
60
0
100
AcDbSpline
70
4
71
3
72
14
73
10
40
0
40
0
40
0
40
0
40
0.25
40
0.25
40
0.5
40
0.5
40
0.75
40
0.75
40
1
40
1
40
1
40
1
41
1
10
64.3574801578666
20
1.56073084848222
30
0
41
1
10
64.3562463918262
20
1.58094498821197
30
0
41
1
10
64.3604685746533
20
1.60143696870091
30
0
41
1
10
64.3807912255105
20
1.63692222470868
30
0
41
1
10
64.3968327443775
20
1.65166374723586
30
0
41
1
10
64.4328375618444
20
1.67244800513493
30
0
41
1
10
64.4531172357479
20
1.67909483778678
30
0
41
1
10
64.4938540338556
20
1.68678938442241
30
0
41
1
10
64.5147757457769
20
1.6879757533687
30
0
41
1
10
64.5356155089178
20
1.68719409279154
30
0
0
SPLINE
5
E5
100
AcDbEntity
8
1
62
256
6
ByLayer
370
18
48
1
60
0
100
AcDbSpline
70
4
71
3
72
18
73
14
40
0
40
0
40
0
40
0
40
0.25
40
0.25
40
0.375
40
0.375
40
0.500000000000001
40
0.500000000000001
40
0.75
40
0.75
40
0.875
40
0.875
40
1
40
1
40
1
40
1
41
1
10
64.0244298421036
20
-5.3776774306175
30
0
41
1
10
64.0245063423774
20
-5.62267746689471
30
0
41
1
10
64.0361433689134
20
-5.83707873066325
30
0
41
1
10
64.0714742967006
20
-6.11364577730234
30
0
41
1
10
64.0862534905431
20
-6.19828563862507
30
0
41
1
10
64.1221973896971
20
-6.35207741126877
30
0
41
1
10
64.1432142811952
20
-6.42045696777797
30
0
41
1
10
64.2148898506082
20
-6.59901879469032
30
0
41
1
10
64.2743089407225
20
-6.68373239328099
30
0
41
1
10
64.3822631069287
20
-6.76043514710221
30
0
41
1
10
64.4215463202592
20
-6.77757837209253
30
0
41
1
10
64.5061556980351
20
-6.79450830816992
30
0
41
1
10
64.5513739852397
20
-6.79434494748765
30
0
41
1
10
64.5996086414475
20
-6.78571389559102
30
0
0
SPLINE
5
E6
100
AcDbEntity
8
1
62
256
6
ByLayer
370
13
48
1
60
0
100
AcDbSpline
70
4
71
3
72
14
73
10
40
0
40
0
40
0
40
0
40
0.25
40
0.25
40
0.5
40
0.5
40
0.75
40
0.75
40
1
40
1
40
1
40
1
41
1
10
3.99999976665106
20
-2.59519720372924
30
0
41
1
10
3.99999976665106
20
-2.6102793823413
30
0
41
1
10
4.00300207197878
20
-2.62574213158905
30
0
41
1
10
4.01490636027566
20
-2.65528731691288
30
0
41
1
10
4.02387168649969
20
-2.66965393673556
30
0
41
1
10
4.04725280015691
20
-2.69624089227918
30
0
41
1
10
4.06196749982871
20
-2.70879809898355
30
0
41
1
10
4.09678420611718
20
-2.73091821506813
30
0
41
1
10
4.11653142662016
20
-2.740365811728
30
0
41
1
10
4.13902114952771
20
-2.74793666269528
30
0
0
SPLINE
5
E7
100
AcDbEntity
8
1
62
256
6
ByLayer
370
18
48
1
60
0
100
AcDbSpline
70
4
71
3
72
66
73
62
40
0
40
0
40
0
40
0
40
0.03125000000001
40
0.03125000000001
40
0.0625000000000199
40
0.0625000000000199
40
0.0937500000000299
40
0.0937500000000299
40
0.12500000000004
40
0.12500000000004
40
0.140625000000044
40
0.140625000000044
40
0.156250000000049
40
0.156250000000049
40
0.171875000000054
40
0.171875000000054
40
0.179687500000056
40
0.179687500000056
40
0.187500000000059
40
0.187500000000059
40
0.218750000000068
40
0.218750000000068
40
0.250000000000078
40
0.250000000000078
40
0.265625000000083
40
0.265625000000083
40
0.281250000000088
40
0.281250000000088
40
0.312500000000098
40
0.312500000000098
40
0.328125000000103
40
0.328125000000103
40
0.335937500000106
40
0.335937500000106
40
0.339843750000107
40
0.339843750000107
40
0.341796875000107
40
0.341796875000107
40
0.343750000000107
40
0.343750000000107
40
0.347656250000107
40
0.347656250000107
40
0.351562500000107
40
0.351562500000107
40
0.359375000000107
40
0.359375000000107
40
0.375000000000104
40
0.375000000000104
40
0.437500000000093
40
0.437500000000093
40
0.500000000000082
40
0.500000000000082
40
0.625000000000062
40
0.625000000000062
40
0.750000000000041
40
0.750000000000041
40
0.812500000000031
40
0.812500000000031
40
0.875000000000021
40
0.875000000000021
40
1
40
1
40
1
40
1
41
1
10
3.99999976665029
20
-6.68489814889043
30
0
41
1
10
3.83555861115119
20
-6.73211169873198
30
0
41
1
10
3.67425618228123
20
-6.77693238860633
30
0
41
1
10
3.35994393746469
20
-6.86094902367395
30
0
41
1
10
3.20788157986425
20
-6.89988718505282
30
0
41
1
10
2.91866534792183
20
-6.9700570188227
30
0
41
1
10
2.7812548402627
20
-7.00136387580216
30
0
41
1
10
2.52667494337828
20
-7.05427959182759
30
0
41
1
10
2.40906555806873
20
-7.07591065384034
30
0
41
1
10
2.26056983973561
20
-7.09760463245448
30
0
41
1
10
2.21553224686892
20
-7.10308578954167
30
0
41
1
10
2.13614940617003
20
-7.11000419618992
30
0
41
1
10
2.10164340419271
20
-7.11142293872913
30
0
41
1
10
2.04705395113746
20
-7.10956229464307
30
0
41
1
10
2.02680501885902
20
-7.10632094086458
30
0
41
1
10
2.00814995393677
20
-7.09775970398852
30
0
41
1
10
2.0038897707571
20
-7.0942888211934
30
0
41
1
10
1.99952349170468
20
-7.08606573711336
30
0
41
1
10
1.99943580382558
20
-7.08128486906506
30
0
41
1
10
2.00980698704967
20
-7.05448606998576
30
0
41
1
10
2.05207924334769
20
-7.02388555256158
30
0
41
1
10
2.19988305574444
20
-6.94744616205242
30
0
41
1
10
2.30171458242683
20
-6.90351061808272
30
0
41
1
10
2.48410387328693
20
-6.83282264336708
30
0
41
1
10
2.5503387107369
20
-6.80828401213319
30
0
41
1
10
2.68938661503739
20
-6.75870191344438
30
0
41
1
10
2.76221492699688
20
-6.73364466967135
30
0
41
1
10
2.98890852729986
20
-6.65802871600428
30
0
41
1
10
3.15089396481622
20
-6.60704157037941
30
0
41
1
10
3.4059230171253
20
-6.53061056130792
30
0
41
1
10
3.4930588267236
20
-6.50511139001927
30
0
41
1
10
3.62615360852072
20
-6.46703828784825
30
0
41
1
10
3.67088139901949
20
-6.45438648509031
30
0
41
1
10
3.73848309884684
20
-6.43547361752098
30
0
41
1
10
3.7611848183214
20
-6.42923301271088
30
0
41
1
10
3.79497762836962
20
-6.41964440262308
30
0
41
1
10
3.80630765874693
20
-6.41647189981484
30
0
41
1
10
3.82962809127844
20
-6.41083346255115
30
0
41
1
10
3.84173148346466
20
-6.40847555218221
30
0
41
1
10
3.87899485785167
20
-6.40240419903384
30
0
41
1
10
3.90536776332817
20
-6.39966191729658
30
0
41
1
10
3.95846850613736
20
-6.39620379708057
30
0
41
1
10
3.98512853958252
20
-6.39573019275329
30
0
41
1
10
4.06514648668357
20
-6.39474633100451
30
0
41
1
10
4.11849025803653
20
-6.39407236473414
30
0
41
1
10
4.27855149124787
20
-6.39239327959044
30
0
41
1
10
4.38529789377193
20
-6.39157022940796
30
0
41
1
10
4.9189844151052
20
-6.38893282872223
30
0
41
1
10
5.34569453165975
20
-6.39156707285991
30
0
41
1
10
6.19865175251425
20
-6.40589774836397
30
0
41
1
10
6.62526777063198
20
-6.4176181598923
30
0
41
1
10
7.89755977609551
20
-6.46482202538846
30
0
41
1
10
8.7377323781688
20
-6.51260651773774
30
0
41
1
10
10.4033408529846
20
-6.62798382757006
30
0
41
1
10
11.2287142556874
20
-6.69561427833875
30
0
41
1
10
12.4569388236194
20
-6.79826185893052
30
0
41
1
10
12.8647106419155
20
-6.83264310463352
30
0
41
1
10
13.6772932972003
20
-6.89907851615337
30
0
41
1
10
14.0825186179307
20
-6.93116139786341
30
0
41
1
10
15.2907513055805
20
-7.01950842248601
30
0
41
1
10
16.0860627156555
20
-7.06774767998022
30
0
41
1
10
16.8742142295723
20
-7.09532362955943
30
0
0
SPLINE
5
E8
100
AcDbEntity
8
1
62
256
6
ByLayer
370
18
48
1
60
0
100
AcDbSpline
70
4
71
3
72
8
73
4
40
0
40
0
40
0
40
0
40
1
40
1
40
1
40
1
41
1
10
66.9891368947129
20
0.134056286573667
30
0
41
1
10
66.9898663140373
20
0.109225679852955
30
0
41
1
10
66.9939191917332
20
0.079623851473599
30
0
41
1
10
66.9999694075172
20
0.0481954925056129
30
0
0
SPLINE
5
E9
100
AcDbEntity
8
1
62
256
6
ByLayer
370
18
48
1
60
0
100
AcDbSpline
70
4
71
3
72
16
73
12
40
0
40
0
40
0
40
0
40
0.0949792130275735
40
0.0949792130275735
40
0.193812976028241
40
0.193812976028241
40
0.391480502029573
40
0.391480502029573
40
0.786815554032238
40
0.786815554032238
40
1
40
1
40
1
40
1
41
1
10
42.0227772982737
20
-0.0190048526744704
30
0
41
1
10
42.3264482983017
20
-0.169654033137448
30
0
41
1
10
42.6302685965263
20
-0.320341556896722
30
0
41
1
10
43.2507600270394
20
-0.62746992999385
30
0
41
1
10
43.5673963810931
20
-0.783883627681888
30
0
41
1
10
44.5140720252338
20
-1.24937993914062
30
0
41
1
10
45.1423831301954
20
-1.55546258966217
30
0
41
1
10
47.0224102936222
20
-2.45428257059382
30
0
41
1
10
48.2690762065835
20
-3.027893498737
30
0
41
1
10
50.1917012796676
20
-3.84532463623955
30
0
41
1
10
50.8658597215635
20
-4.11951141415742
30
0
41
1
10
51.5420777236704
20
-4.3788943576142
30
0
0
SPLINE
5
EA
100
AcDbEntity
8
1
62
256
6
ByLayer
370
13
48
1
60
0
100
AcDbSpline
70
4
71
3
72
20
73
16
40
0
40
0
40
0
40
0
40
0.133135869033564
40
0.133135869033564
40
0.205374546614102
40
0.205374546614102
40
0.277613224194638
40
0.277613224194638
40
0.422090579355712
40
0.422090579355712
40
0.711045289677858
40
0.711045289677858
40
0.855522644838928
40
0.855522644838928
40
1
40
1
40
1
40
1
41
1
10
51.5420777201801
20
-4.3788943562754
30
0
41
1
10
52.119856828703
20
-4.60051821929085
30
0
41
1
10
52.6991395108718
20
-4.81133460250862
30
0
41
1
10
53.5964616289542
20
-5.11734841321052
30
0
41
1
10
53.913305052298
20
-5.22146587059055
30
0
41
1
10
54.54528519716
20
-5.42089121620651
30
0
41
1
10
54.8605675052862
20
-5.51626925421502
30
0
41
1
10
55.8047728824059
20
-5.78897688487498
30
0
41
1
10
56.4320462961993
20
-5.95290108141219
30
0
41
1
10
58.310581086143
20
-6.38802702351288
30
0
41
1
10
59.5587200411268
20
-6.60200938319485
30
0
41
1
10
61.4377070744432
20
-6.80032864032148
30
0
41
1
10
62.0652198543674
20
-6.84600470393531
30
0
41
1
10
63.3247990674149
20
-6.89494226685122
30
0
41
1
10
63.9579639718889
20
-6.89812326665194
30
0
41
1
10
64.5907333019199
20
-6.8794687729349
30
0
0
SPLINE
5
EB
100
AcDbEntity
8
1
62
256
6
ByLayer
370
13
48
1
60
0
100
AcDbSpline
70
4
71
3
72
36
73
32
40
0
40
0
40
0
40
0
40
0.125
40
0.125
40
0.15625
40
0.15625
40
0.1875
40
0.1875
40
0.25
40
0.3125
40
0.3125
40
0.34375
40
0.34375
40
0.375
40
0.375
40
0.5
40
0.5
40
0.5625
40
0.5625
40
0.625
40
0.625
40
0.65625
40
0.65625
40
0.6875
40
0.6875
40
0.75
40
0.8125
40
0.8125
40
0.875
40
0.875
40
1
40
1
40
1
40
1
41
1
10
4.25021450625093
20
-2.65069282295468
30
0
41
1
10
4.25023203831478
20
-2.21984567172925
30
0
41
1
10
4.25024229272481
20
-1.77548932965473
30
0
41
1
10
4.250249952443
20
-1.20334695008972
30
0
41
1
10
4.25025122723872
20
-1.08778302514969
30
0
41
1
10
4.25025333862953
20
-0.856603754122659
30
0
41
1
10
4.2502541764735
20
-0.7410396446015
30
0
41
1
10
4.25025620019636
20
-0.394422391479594
30
0
41
1
10
4.25025759855319
20
0.0675341341377873
30
0
41
1
10
4.2502579849349
20
0.529097139307595
30
0
41
1
10
4.25025844556663
20
0.875119392901865
30
0
41
1
10
4.25025862721947
20
0.990435095240031
30
0
41
1
10
4.25025913562857
20
1.22101537428432
30
0
41
1
10
4.25025946269665
20
1.3360655616288
30
0
41
1
10
4.2502616444018
20
1.90459655609539
30
0
41
1
10
4.25026520855704
20
2.34314026480539
30
0
41
1
10
4.25027615483677
20
2.9769346227433
30
0
41
1
10
4.25028073783872
20
3.18461220951247
30
0
41
1
10
4.25029205190467
20
3.58961366603174
30
0
41
1
10
4.25029873568471
20
3.78539951326084
30
0
41
1
10
4.2503103861273
20
4.06903200717488
30
0
41
1
10
4.25031454794529
20
4.16204978855149
30
0
41
1
10
4.2503233459442
20
4.34332525901178
30
0
41
1
10
4.25032798661599
20
4.43172143872016
30
0
41
1
10
4.25034260308951
20
4.69030806990529
30
0
41
1
10
4.2503639491072
20
5.01751907721098
30
0
41
1
10
4.2503885438858
20
5.31003276020706
30
0
41
1
10
4.25041442537176
20
5.58486472980971
30
0
41
1
10
4.25042808277655
20
5.71396312770614
30
0
41
1
10
4.2504693838803
20
6.06619228737151
30
0
41
1
10
4.25049757529257
20
6.25705517015365
30
0
41
1
10
4.25052376159496
20
6.40444914005971
30
0
0
SPLINE
5
EC
100
AcDbEntity
8
1
62
256
6
ByLayer
370
18
48
1
60
0
100
AcDbSpline
70
4
71
3
72
8
73
4
40
0
40
0
40
0
40
0
40
1
40
1
40
1
40
1
41
1
10
3.99999976665106
20
-6.68489814889
30
0
41
1
10
3.99999976665106
20
-6.66328908748974
30
0
41
1
10
3.99999976665109
20
-6.64216959620893
30
0
41
1
10
3.99999976665109
20
-6.6215417779533
30
0
0
SPLINE
5
ED
100
AcDbEntity
8
1
62
256
6
ByLayer
370
18
48
1
60
0
100
AcDbSpline
70
4
71
2
72
6
73
3
40
0
40
0
40
0
40
1
40
1
40
1
41
1
10
63.9749965338969
20
-6.79194569460998
30
0
41
1
10
64.2379649582738
20
-6.79266052811397
30
0
41
1
10
64.4977311406999
20
-6.79045728307779
30
0
0
SPLINE
5
EE
100
AcDbEntity
8
1
62
256
6
ByLayer
370
18
48
1
60
0
100
AcDbSpline
70
4
71
3
72
32
73
28
40
0
40
0
40
0
40
0
40
0.0281317709108827
40
0.0569521464439966
40
0.0903393967828243
40
0.139417610698497
40
0.185734327054861
40
0.226462676915835
40
0.263086095042517
40
0.300896436050169
40
0.339809793750255
40
0.387961920805657
40
0.44082213242277
40
0.486858512902336
40
0.528978475585202
40
0.574052896871462
40
0.613495117560184
40
0.655127486540995
40
0.705197024911022
40
0.763420602821017
40
0.825908490316667
40
0.868222490172753
40
0.906483710328555
40
0.938856990821068
40
0.967928566536377
40
0.985069927966528
40
1
40
1
40
1
40
1
41
1
10
20.3258357700769
20
-6.76477715531848
30
0
41
1
10
20.4435946809777
20
-6.76132760349174
30
0
41
1
10
20.7205822497324
20
-6.75391954117089
30
0
41
1
10
21.3295073869071
20
-6.72864819214789
30
0
41
1
10
22.1249909457314
20
-6.72800805965485
30
0
41
1
10
23.0031096539149
20
-6.7512805421926
30
0
41
1
10
23.9383333001127
20
-6.76163303320601
30
0
41
1
10
24.7931563641517
20
-6.7667142788807
30
0
41
1
10
25.5964876405746
20
-6.76725089964685
30
0
41
1
10
26.3955521991074
20
-6.76881585672439
30
0
41
1
10
27.2740704045065
20
-6.76851521394863
30
0
41
1
10
28.2590887388046
20
-6.76804559672323
30
0
41
1
10
29.2940669704906
20
-6.76772048387508
30
0
41
1
10
30.2866299776757
20
-6.77157432451097
30
0
41
1
10
31.2243817043473
20
-6.76984418761188
30
0
41
1
10
32.1157285824147
20
-6.76964315990142
30
0
41
1
10
33.0036408088639
20
-6.7696336036191
30
0
41
1
10
33.9267125010471
20
-6.77390333769529
30
0
41
1
10
34.9819516112087
20
-6.77219376876363
30
0
41
1
10
36.184021713919
20
-6.77052754847986
30
0
41
1
10
37.3314296351275
20
-6.77341894103949
30
0
41
1
10
38.338363074944
20
-6.77376298468579
30
0
41
1
10
39.133390339256
20
-6.77570329677519
30
0
41
1
10
39.835038004501
20
-6.7758447134654
30
0
41
1
10
40.3885204820853
20
-6.7751154081397
30
0
41
1
10
40.8154792991039
20
-6.77433525954413
30
0
41
1
10
41.0385201965664
20
-6.77365996851378
30
0
41
1
10
41.1421216943529
20
-6.77330217985804
30
0
0
SPLINE
5
EF
100
AcDbEntity
8
1
62
256
6
ByLayer
370
18
48
1
60
0
100
AcDbSpline
70
4
71
3
72
29
73
25
40
0
40
0
40
0
40
0
40
0.024073456399646
40
0.0586516455088731
40
0.0924913603520947
40
0.124197074026894
40
0.169671536169291
40
0.214909098654972
40
0.262131981034632
40
0.311625165339835
40
0.364580381176034
40
0.420563324741499
40
0.449574812216599
40
0.474126359372286
40
0.500292488131118
40
0.537141060975362
40
0.64360287951728
40
0.723595236512772
40
0.788159660355186
40
0.850267581739847
40
0.906843396388891
40
0.945823053530441
40
0.995878937470918
40
1
40
1
40
1
40
1
41
1
10
41.2368614856258
20
6.77222870442645
30
0
41
1
10
41.1049794070128
20
6.77291767492588
30
0
41
1
10
40.7826723967382
20
6.77435081017774
30
0
41
1
10
40.2694219677879
20
6.77525956475927
30
0
41
1
10
39.7114859238122
20
6.77592688742772
30
0
41
1
10
39.0916968553593
20
6.77542578606634
30
0
41
1
10
38.4083796637127
20
6.7737391029427
30
0
41
1
10
37.6385948473308
20
6.77397790120392
30
0
41
1
10
36.845740408375
20
6.77150260145712
30
0
41
1
10
36.0112908140769
20
6.77108133240185
30
0
41
1
10
35.1263052944025
20
6.77167576217243
30
0
41
1
10
34.3567381716276
20
6.77331732650583
30
0
41
1
10
33.7454172400883
20
6.77270802533573
30
0
41
1
10
33.300257742419
20
6.77095727378344
30
0
41
1
10
32.811347555744
20
6.76980958355239
30
0
41
1
10
31.8650987743248
20
6.76931908543472
30
0
41
1
10
30.6182993545869
20
6.7722465640758
30
0
41
1
10
29.2168500363714
20
6.76766388841489
30
0
41
1
10
28.0627552990472
20
6.76807555790285
30
0
41
1
10
27.040314316484
20
6.76881128802094
30
0
41
1
10
26.1587017615467
20
6.76810681745204
30
0
41
1
10
25.34925799393
20
6.76718745769855
30
0
41
1
10
24.8359861182754
20
6.76622595221178
30
0
41
1
10
24.5397770701981
20
6.76426986541227
30
0
41
1
10
24.5172560374512
20
6.7641138257884
30
0
0
LINE
5
7B
100
AcDbEntity
8
SK1
62
256
6
ByLayer
370
18
48
1
60
0
100
AcDbLine
10
-45.55
20
8
30
0
11
-45.55
21
-8
31
0
39
0
210
0
220
0
230
1
0
LINE
5
7D
100
AcDbEntity
8
SK1
62
256
6
ByLayer
370
18
48
1
60
0
100
AcDbLine
10
-48
20
5.146908
30
0
11
-48
21
4.475114
31
0
39
0
210
0
220
0
230
1
0
LINE
5
7E
100
AcDbEntity
8
SK1
62
256
6
ByLayer
370
18
48
1
60
0
100
AcDbLine
10
0
20
-8
30
0
11
0
21
8
31
0
39
0
210
0
220
0
230
1
0
LINE
5
7F
100
AcDbEntity
8
SK1
62
256
6
ByLayer
370
18
48
1
60
0
100
AcDbLine
10
-48
20
3.713412
30
0
11
-48
21
-5.55
31
0
39
0
210
0
220
0
230
1
0
LINE
5
80
100
AcDbEntity
8
SK1
62
256
6
ByLayer
370
13
48
1
60
0
100
AcDbLine
10
-46.5
20
6.401136
30
0
11
-46.5
21
4.967604
31
0
39
0
210
0
220
0
230
1
0
LINE
5
81
100
AcDbEntity
8
SK1
62
256
6
ByLayer
370
18
48
1
60
0
100
AcDbLine
10
-46.4
20
5.122157
30
0
11
-46.4
21
6.440973
31
0
39
0
210
0
220
0
230
1
0
LINE
5
82
100
AcDbEntity
8
SK1
62
256
6
ByLayer
370
18
48
1
60
0
100
AcDbLine
10
-48
20
5.55
30
0
11
-48
21
5.146908
31
0
39
0
210
0
220
0
230
1
0
LINE
5
83
100
AcDbEntity
8
1
62
256
6
ByLayer
370
13
48
1
60
0
100
AcDbLine
10
1.434161
20
7.110363
30
0
11
1.434161
21
-7.110363
31
0
39
0
210
0
220
0
230
1
0
LINE
5
84
100
AcDbEntity
8
1
62
256
6
ByLayer
370
13
48
1
60
0
100
AcDbLine
10
64.535616
20
1.687194
30
0
11
66.989137
21
0.134056
31
0
39
0
210
0
220
0
230
1
0
LINE
5
85
100
AcDbEntity
8
1
62
256
6
ByLayer
370
18
48
1
60
0
100
AcDbLine
10
4
20
-2.638121
30
0
11
4
21
6.684898
31
0
39
0
210
0
220
0
230
1
0
LINE
5
86
100
AcDbEntity
8
1
62
256
6
ByLayer
370
18
48
1
60
0
100
AcDbLine
10
0
20
-8
30
0
11
0
21
8
31
0
39
0
210
0
220
0
230
1
0
LINE
5
87
100
AcDbEntity
8
1
62
256
6
ByLayer
370
13
48
1
60
0
100
AcDbLine
10
0.716831
20
7.555182
30
0
11
0.716831
21
-7.555182
31
0
39
0
210
0
220
0
230
1
0
LINE
5
88
100
AcDbEntity
8
1
62
256
6
ByLayer
370
13
48
1
60
0
100
AcDbLine
10
64.35748
20
1.560731
30
0
11
66.950457
21
-0.080686
31
0
39
0
210
0
220
0
230
1
0
LINE
5
89
100
AcDbEntity
8
80
62
256
6
ByLayer
370
18
48
1
60
0
100
AcDbLine
10
0
20
0
30
0
11
-5
21
0
31
0
39
0
210
0
220
0
230
1
0
LINE
5
8A
100
AcDbEntity
8
4
62
256
6
ByLayer
370
18
48
0.05
60
0
100
AcDbLine
10
67
20
0
30
0
11
0
21
0
31
0
39
0
210
0
220
0
230
1
0
LINE
5
8C
100
AcDbEntity
8
SK4
62
256
6
ByLayer
370
18
48
0.05
60
0
100
AcDbLine
10
72
20
0
30
0
11
-53
21
0
31
0
39
0
210
0
220
0
230
1
0
LINE
5
8E
100
AcDbEntity
8
1
62
256
6
ByLayer
370
18
48
1
60
0
100
AcDbLine
10
18.028566
20
-7.120735
30
0
11
20.208976
21
-7.122098
31
0
39
0
210
0
220
0
230
1
0
LINE
5
8F
100
AcDbEntity
8
1
62
256
6
ByLayer
370
18
48
1
60
0
100
AcDbLine
10
20.209251
20
7.122098
30
0
11
18.028566
21
7.120735
31
0
39
0
210
0
220
0
230
1
0
LINE
5
90
100
AcDbEntity
8
SK1
62
256
6
ByLayer
370
18
48
1
60
0
100
AcDbLine
10
-45.55
20
-8
30
0
11
0
21
-8
31
0
39
0
210
0
220
0
230
1
0
LINE
5
91
100
AcDbEntity
8
SK1
62
256
6
ByLayer
370
18
48
1
60
0
100
AcDbLine
10
0
20
8
30
0
11
-45.55
21
8
31
0
39
0
210
0
220
0
230
1
0
LINE
5
92
100
AcDbEntity
8
SK1
62
256
6
ByLayer
370
18
48
1
60
0
100
AcDbLine
10
-48
20
-5.55
30
0
11
-45.55
21
-8
31
0
39
0
210
0
220
0
230
1
0
LINE
5
93
100
AcDbEntity
8
SK1
62
256
6
ByLayer
370
18
48
1
60
0
100
AcDbLine
10
-45.55
20
8
30
0
11
-48
21
5.55
31
0
39
0
210
0
220
0
230
1
0
LINE
5
94
100
AcDbEntity
8
1
62
256
6
ByLayer
370
18
48
1
60
0
100
AcDbLine
10
1.434161
20
-7.110363
30
0
11
2.100602
21
-7.11078
31
0
39
0
210
0
220
0
230
1
0
LINE
5
95
100
AcDbEntity
8
1
62
256
6
ByLayer
370
18
48
1
60
0
100
AcDbLine
10
61.575463
20
-7.147952
30
0
11
63.75994
21
-7.149317
31
0
39
0
210
0
220
0
230
1
0
LINE
5
96
100
AcDbEntity
8
1
62
256
6
ByLayer
370
18
48
1
60
0
100
AcDbLine
10
63.75994
20
7.149317
30
0
11
61.575463
21
7.147952
31
0
39
0
210
0
220
0
230
1
0
LINE
5
97
100
AcDbEntity
8
1
62
256
6
ByLayer
370
18
48
1
60
0
100
AcDbLine
10
2.100602
20
7.11078
30
0
11
1.434161
21
7.110363
31
0
39
0
210
0
220
0
230
1
0
LINE
5
98
100
AcDbEntity
8
81
62
256
6
ByLayer
370
18
48
1
60
0
100
AcDbLine
10
67
20
0
30
0
11
72
21
0
31
0
39
0
210
0
220
0
230
1
0
LINE
5
99
100
AcDbEntity
8
SK2
62
256
6
ByLayer
370
13
48
1
60
0
100
AcDbLine
10
-56.625163
20
-8
30
0
11
-56.625163
21
38.857173
31
0
39
0
210
0
220
0
230
1
0
LINE
5
9B
100
AcDbEntity
8
SK2
62
256
6
ByLayer
370
13
48
1
60
0
100
AcDbLine
10
-49.5875
20
8
30
0
11
-58.625163
21
8
31
0
39
0
210
0
220
0
230
1
0
LINE
5
9C
100
AcDbEntity
8
SK2
62
256
6
ByLayer
370
13
48
1
60
0
100
AcDbLine
10
-49.5875
20
-8
30
0
11
-58.625163
21
-8
31
0
39
0
210
0
220
0
230
1
0
LINE
5
9D
100
AcDbEntity
8
1
62
256
6
ByLayer
370
18
48
1
60
1
100
AcDbLine
10
-56.625163
20
8
30
0
11
-56.164379
21
4.500002
31
0
39
0
210
0
220
0
230
1
0
LINE
5
9E
100
AcDbEntity
8
1
62
256
6
ByLayer
370
18
48
1
60
1
100
AcDbLine
10
-56.164379
20
4.500002
30
0
11
-57.085946
21
4.499998
31
0
39
0
210
0
220
0
230
1
0
LINE
5
9F
100
AcDbEntity
8
1
62
256
6
ByLayer
370
18
48
1
60
1
100
AcDbLine
10
-57.085946
20
4.499998
30
0
11
-56.625163
21
8
31
0
39
0
210
0
220
0
230
1
0
LINE
5
A0
100
AcDbEntity
8
1
62
256
6
ByLayer
370
18
48
1
60
1
100
AcDbLine
10
-56.625163
20
-8
30
0
11
-57.085946
21
-4.500002
31
0
39
0
210
0
220
0
230
1
0
LINE
5
A1
100
AcDbEntity
8
1
62
256
6
ByLayer
370
18
48
1
60
1
100
AcDbLine
10
-57.085946
20
-4.500002
30
0
11
-56.164379
21
-4.499998
31
0
39
0
210
0
220
0
230
1
0
LINE
5
A2
100
AcDbEntity
8
1
62
256
6
ByLayer
370
18
48
1
60
1
100
AcDbLine
10
-56.164379
20
-4.499998
30
0
11
-56.625163
21
-8
31
0
39
0
210
0
220
0
230
1
0
LINE
5
A3
100
AcDbEntity
8
2
62
256
6
ByLayer
370
13
48
1
60
0
100
AcDbLine
10
79.083343
20
-7.15
30
0
11
79.083343
21
36.968792
31
0
39
0
210
0
220
0
230
1
0
LINE
5
A5
100
AcDbEntity
8
2
62
256
6
ByLayer
370
13
48
1
60
0
100
AcDbLine
10
66.4555
20
7.15
30
0
11
81.083343
21
7.15
31
0
39
0
210
0
220
0
230
1
0
LINE
5
A6
100
AcDbEntity
8
2
62
256
6
ByLayer
370
13
48
1
60
0
100
AcDbLine
10
66.4555
20
-7.15
30
0
11
81.083343
21
-7.15
31
0
39
0
210
0
220
0
230
1
0
LINE
5
A7
100
AcDbEntity
8
1
62
256
6
ByLayer
370
18
48
1
60
1
100
AcDbLine
10
79.083343
20
7.15
30
0
11
79.544126
21
3.650002
31
0
39
0
210
0
220
0
230
1
0
LINE
5
A8
100
AcDbEntity
8
1
62
256
6
ByLayer
370
18
48
1
60
1
100
AcDbLine
10
79.544126
20
3.650002
30
0
11
78.622559
21
3.649998
31
0
39
0
210
0
220
0
230
1
0
LINE
5
A9
100
AcDbEntity
8
1
62
256
6
ByLayer
370
18
48
1
60
1
100
AcDbLine
10
78.622559
20
3.649998
30
0
11
79.083343
21
7.15
31
0
39
0
210
0
220
0
230
1
0
LINE
5
AA
100
AcDbEntity
8
1
62
256
6
ByLayer
370
18
48
1
60
1
100
AcDbLine
10
79.083343
20
-7.15
30
0
11
78.622559
21
-3.650002
31
0
39
0
210
0
220
0
230
1
0
LINE
5
AB
100
AcDbEntity
8
1
62
256
6
ByLayer
370
18
48
1
60
1
100
AcDbLine
10
78.622559
20
-3.650002
30
0
11
79.544126
21
-3.649998
31
0
39
0
210
0
220
0
230
1
0
LINE
5
AC
100
AcDbEntity
8
1
62
256
6
ByLayer
370
18
48
1
60
1
100
AcDbLine
10
79.544126
20
-3.649998
30
0
11
79.083343
21
-7.15
31
0
39
0
210
0
220
0
230
1
0
LINE
5
F6
100
AcDbEntity
8
1
62
256
6
ByLayer
370
18
48
1
60
1
100
AcDbLine
10
-56.625163
20
8
30
0
11
-56.164379
21
4.500002
31
0
39
0
210
0
220
0
230
1
0
LINE
5
F7
100
AcDbEntity
8
1
62
256
6
ByLayer
370
18
48
1
60
1
100
AcDbLine
10
-56.164379
20
4.500002
30
0
11
-57.085946
21
4.499998
31
0
39
0
210
0
220
0
230
1
0
LINE
5
F8
100
AcDbEntity
8
1
62
256
6
ByLayer
370
18
48
1
60
1
100
AcDbLine
10
-57.085946
20
4.499998
30
0
11
-56.625163
21
8
31
0
39
0
210
0
220
0
230
1
0
LINE
5
FA
100
AcDbEntity
8
1
62
256
6
ByLayer
370
18
48
1
60
1
100
AcDbLine
10
-56.625163
20
-8
30
0
11
-57.085946
21
-4.500002
31
0
39
0
210
0
220
0
230
1
0
LINE
5
FB
100
AcDbEntity
8
1
62
256
6
ByLayer
370
18
48
1
60
1
100
AcDbLine
10
-57.085946
20
-4.500002
30
0
11
-56.164379
21
-4.499998
31
0
39
0
210
0
220
0
230
1
0
LINE
5
FC
100
AcDbEntity
8
1
62
256
6
ByLayer
370
18
48
1
60
1
100
AcDbLine
10
-56.164379
20
-4.499998
30
0
11
-56.625163
21
-8
31
0
39
0
210
0
220
0
230
1
0
LINE
5
100
100
AcDbEntity
8
1
62
256
6
ByLayer
370
18
48
1
60
1
100
AcDbLine
10
79.083343
20
7.15
30
0
11
79.544126
21
3.650002
31
0
39
0
210
0
220
0
230
1
0
LINE
5
101
100
AcDbEntity
8
1
62
256
6
ByLayer
370
18
48
1
60
1
100
AcDbLine
10
79.544126
20
3.650002
30
0
11
78.622559
21
3.649998
31
0
39
0
210
0
220
0
230
1
0
LINE
5
102
100
AcDbEntity
8
1
62
256
6
ByLayer
370
18
48
1
60
1
100
AcDbLine
10
78.622559
20
3.649998
30
0
11
79.083343
21
7.15
31
0
39
0
210
0
220
0
230
1
0
LINE
5
104
100
AcDbEntity
8
1
62
256
6
ByLayer
370
18
48
1
60
1
100
AcDbLine
10
79.083343
20
-7.15
30
0
11
78.622559
21
-3.650002
31
0
39
0
210
0
220
0
230
1
0
LINE
5
105
100
AcDbEntity
8
1
62
256
6
ByLayer
370
18
48
1
60
1
100
AcDbLine
10
78.622559
20
-3.650002
30
0
11
79.544126
21
-3.649998
31
0
39
0
210
0
220
0
230
1
0
LINE
5
106
100
AcDbEntity
8
1
62
256
6
ByLayer
370
18
48
1
60
1
100
AcDbLine
10
79.544126
20
-3.649998
30
0
11
79.083343
21
-7.15
31
0
39
0
210
0
220
0
230
1
0
MTEXT
5
F0
100
AcDbEntity
8
SK6
62
256
6
ByLayer
370
13
48
1
60
0
100
AcDbMText
10
-19.576293
20
39.690328
30
0
210
0
220
0
230
1
1
\W0.7656;462.1-1430-043A1-XM X2BM
40
3.5
41
0
44
1.084337
50
0
71
7
72
5
7
iso_b_vert
0
MTEXT
5
F4
100
AcDbEntity
8
SK2
62
256
6
ByLayer
370
18
48
1
60
0
100
AcDbMText
10
-58.189796
20
21.409024
30
0
210
0
220
0
230
1
1
%%c
40
3.5
41
0
44
1.084337
50
90
71
7
72
5
7
iso_b_vert
0
MTEXT
5
F5
100
AcDbEntity
8
SK2
62
256
6
ByLayer
370
18
48
1
60
0
100
AcDbMText
10
-58.189796
20
26.63168
30
0
210
0
220
0
230
1
1
\W0.6930;16,000
40
3.5
41
0
44
1.084337
50
90
71
7
72
5
7
iso_b_vert
0
MTEXT
5
FE
100
AcDbEntity
8
2
62
256
6
ByLayer
370
18
48
1
60
0
100
AcDbMText
10
77.518709
20
19.15211
30
0
210
0
220
0
230
1
1
%%c
40
3.5
41
0
44
1.084337
50
90
71
7
72
5
7
iso_b_vert
0
MTEXT
5
FF
100
AcDbEntity
8
2
62
256
6
ByLayer
370
18
48
1
60
0
100
AcDbMText
10
77.518709
20
24.374766
30
0
210
0
220
0
230
1
1
\W0.7145;14,300
40
3.5
41
0
44
1.084337
50
90
71
7
72
5
7
iso_b_vert
0
HATCH
5
F9
100
AcDbEntity
8
SK2
62
256
6
ByLayer
370
13
48
1
60
0
100
AcDbHatch
10
0
20
0
30
0
210
0
220
0
230
1
2
ANSI31
70
0
71
0
91
1
92
5
93
3
72
1
10
-56.6251625675374
20
8
11
-56.1643788259847
21
4.50000169255318
72
1
10
-56.1643788259847
20
4.50000169255318
11
-57.0859463090902
21
4.49999830744682
72
1
10
-57.0859463090902
20
4.49999830744682
11
-56.6251625675374
21
8
97
0
75
0
76
1
52
0
41
0.0062
77
0
78
1
53
45
43
0
44
0
45
-0.0139193969876572
46
0.0139193969876572
79
0
47
0
98
1
10
0
20
0
0
HATCH
5
FD
100
AcDbEntity
8
SK2
62
256
6
ByLayer
370
13
48
1
60
0
100
AcDbHatch
10
0
20
0
30
0
210
0
220
0
230
1
2
ANSI31
70
0
71
0
91
1
92
5
93
3
72
1
10
-56.6251625675374
20
-8
11
-57.0859463090902
21
-4.50000169255318
72
1
10
-57.0859463090902
20
-4.50000169255318
11
-56.1643788259847
21
-4.49999830744682
72
1
10
-56.1643788259847
20
-4.49999830744682
11
-56.6251625675374
21
-8
97
0
75
0
76
1
52
0
41
0.0062
77
0
78
1
53
45
43
0
44
0
45
-0.0139193969876572
46
0.0139193969876572
79
0
47
0
98
1
10
0
20
0
0
HATCH
5
103
100
AcDbEntity
8
2
62
256
6
ByLayer
370
13
48
1
60
0
100
AcDbHatch
10
0
20
0
30
0
210
0
220
0
230
1
2
ANSI31
70
0
71
0
91
1
92
5
93
3
72
1
10
79.083342615295
20
7.15000000000001
11
79.5441263568478
21
3.65000169255319
72
1
10
79.5441263568478
20
3.65000169255319
11
78.6225588737423
21
3.64999830744682
72
1
10
78.6225588737423
20
3.64999830744682
11
79.083342615295
21
7.15000000000001
97
0
75
0
76
1
52
0
41
0.0062
77
0
78
1
53
45
43
0
44
0
45
-0.0139193969876572
46
0.0139193969876572
79
0
47
0
98
1
10
0
20
0
0
HATCH
5
107
100
AcDbEntity
8
2
62
256
6
ByLayer
370
13
48
1
60
0
100
AcDbHatch
10
0
20
0
30
0
210
0
220
0
230
1
2
ANSI31
70
0
71
0
91
1
92
5
93
3
72
1
10
79.083342615295
20
-7.14999999999998
11
78.6225588737423
21
-3.65000169255316
72
1
10
78.6225588737423
20
-3.65000169255316
11
79.5441263568478
21
-3.64999830744679
72
1
10
79.5441263568478
20
-3.64999830744679
11
79.083342615295
21
-7.14999999999998
97
0
75
0
76
1
52
0
41
0.0062
77
0
78
1
53
45
43
0
44
0
45
-0.0139193969876572
46
0.0139193969876572
79
0
47
0
98
1
10
0
20
0
0
DIMENSION
5
109
100
AcDbEntity
8
SK2
62
256
6
ByLayer
370
13
48
1
60
0
100
AcDbDimension
2
_U0
10
64.868
20
-17.363398
30
0
11
32.434
21
-17.363398
31
0
70
32
71
1
72
1
41
1
210
0
220
0
230
1
3
Standard
100
AcDbAlignedDimension
13
0
23
0
33
0
14
64.868
24
-7.15
34
0
50
0
100
AcDbRotatedDimension
1001
ACAD
1000
DSTYLE
1002
{
1070
   371
1070
    13
1070
   372
1070
    13
1070
   170
1070
     0
1070
   144
1040
1.0
1070
   277
1070
     2
1070
   278
1070
    44
1070
   146
1040
1.0
1070
   345
1005
16
1070
   347
1005
16
1070
   346
1005
16
1070
   344
1005
0
1070
   343
1005
0
1070
   172
1070
     1
1070
    76
1070
     0
1070
    75
1070
     0
1070
   282
1070
     0
1070
   281
1070
     0
1070
    71
1070
     0
1070
    74
1070
     0
1070
   279
1070
     0
1070
   173
1070
     1
1070
   340
1005
F1
1070
   271
1070
     2
1070
   272
1070
     2
1070
    77
1070
     1
1070
    73
1070
     1
1070
   171
1070
     3
1070
   274
1070
     4
1070
   177
1070
    35
1070
   176
1070
    35
1070
   178
1070
    35
1070
    48
1040
-0.1
1070
    41
1040
3.5
1070
   147
1040
1.75
1070
    42
1040
1.5875
1070
    44
1040
2.0
1070
   140
1040
3.5
1002
}
1001
ACAD_DSTYLE_DIM_LINETYPE
1070
   380
1005
16
1001
ACAD_DSTYLE_DIM_EXT1_LINETYPE
1070
   381
1005
16
1001
ACAD_DSTYLE_DIM_EXT2_LINETYPE
1070
   382
1005
16
0
DIMENSION
5
122
100
AcDbEntity
8
SK2
62
256
6
ByLayer
370
13
48
1
60
0
100
AcDbDimension
2
_U1
10
67
20
-36.692985
30
0
11
9.5
21
-36.692985
31
0
70
32
71
1
72
1
41
1
210
0
220
0
230
1
3
Standard
100
AcDbAlignedDimension
13
-48
23
-8
33
0
14
67
24
0
34
0
50
0
100
AcDbRotatedDimension
1001
ACAD
1000
DSTYLE
1002
{
1070
   371
1070
    13
1070
   372
1070
    13
1070
   170
1070
     0
1070
   144
1040
1.0
1070
   277
1070
     2
1070
   278
1070
    44
1070
   146
1040
1.0
1070
   345
1005
16
1070
   347
1005
16
1070
   346
1005
16
1070
   344
1005
0
1070
   343
1005
0
1070
   172
1070
     1
1070
    76
1070
     0
1070
    75
1070
     0
1070
   282
1070
     0
1070
   281
1070
     0
1070
    71
1070
     0
1070
    74
1070
     0
1070
   279
1070
     0
1070
   173
1070
     1
1070
   340
1005
F1
1070
   271
1070
     2
1070
   272
1070
     2
1070
    77
1070
     1
1070
    73
1070
     1
1070
   171
1070
     3
1070
   274
1070
     4
1070
   177
1070
    35
1070
   176
1070
    35
1070
   178
1070
    35
1070
    48
1040
-0.1
1070
    41
1040
3.5
1070
   147
1040
1.75
1070
    42
1040
1.5875
1070
    44
1040
2.0
1070
   140
1040
3.5
1002
}
1001
ACAD_DSTYLE_DIM_LINETYPE
1070
   380
1005
16
1001
ACAD_DSTYLE_DIM_EXT1_LINETYPE
1070
   381
1005
16
1001
ACAD_DSTYLE_DIM_EXT2_LINETYPE
1070
   382
1005
16
0
DIMENSION
5
13A
100
AcDbEntity
8
SK2
62
256
6
ByLayer
370
13
48
1
60
0
100
AcDbDimension
2
_U2
10
67
20
18.759119
30
0
11
44.485
21
18.759119
31
0
70
32
71
1
72
1
41
1
210
0
220
0
230
1
3
Standard
100
AcDbAlignedDimension
13
21.97
23
7.15
33
0
14
67
24
0
34
0
50
0
100
AcDbRotatedDimension
1001
ACAD
1000
DSTYLE
1002
{
1070
   371
1070
    13
1070
   372
1070
    13
1070
   170
1070
     0
1070
   144
1040
1.0
1070
   277
1070
     2
1070
   278
1070
    44
1070
   146
1040
1.0
1070
   345
1005
16
1070
   347
1005
16
1070
   346
1005
16
1070
   344
1005
0
1070
   343
1005
0
1070
   172
1070
     1
1070
    76
1070
     0
1070
    75
1070
     0
1070
   282
1070
     0
1070
   281
1070
     0
1070
    71
1070
     0
1070
    74
1070
     0
1070
   279
1070
     0
1070
   173
1070
     1
1070
   340
1005
F1
1070
   271
1070
     2
1070
   272
1070
     2
1070
    77
1070
     1
1070
    73
1070
     1
1070
   171
1070
     3
1070
   274
1070
     4
1070
   177
1070
    35
1070
   176
1070
    35
1070
   178
1070
    35
1070
    48
1040
-0.1
1070
    41
1040
3.5
1070
   147
1040
1.75
1070
    42
1040
1.5875
1070
    44
1040
2.0
1070
   140
1040
3.5
1002
}
1001
ACAD_DSTYLE_DIM_LINETYPE
1070
   380
1005
16
1001
ACAD_DSTYLE_DIM_EXT1_LINETYPE
1070
   381
1005
16
1001
ACAD_DSTYLE_DIM_EXT2_LINETYPE
1070
   382
1005
16
0
DIMENSION
5
152
100
AcDbEntity
8
SK2
62
256
6
ByLayer
370
13
48
1
60
0
100
AcDbDimension
2
_U3
10
64.868
20
-19.952503
30
0
11
84.583333
21
-19.952503
31
0
70
32
71
1
72
1
41
1
210
0
220
0
230
1
3
Standard
100
AcDbAlignedDimension
13
67
23
0
33
0
14
64.868
24
-7.15
34
0
50
0
100
AcDbRotatedDimension
1001
ACAD
1000
DSTYLE
1002
{
1070
   371
1070
    13
1070
   372
1070
    13
1070
   170
1070
     0
1070
   144
1040
1.0
1070
   277
1070
     2
1070
   278
1070
    44
1070
   146
1040
1.0
1070
   345
1005
16
1070
   347
1005
16
1070
   346
1005
16
1070
   344
1005
0
1070
   343
1005
0
1070
   172
1070
     1
1070
    76
1070
     0
1070
    75
1070
     0
1070
   282
1070
     0
1070
   281
1070
     0
1070
    71
1070
     0
1070
    74
1070
     0
1070
   279
1070
     0
1070
   173
1070
     1
1070
   340
1005
F1
1070
   271
1070
     2
1070
   272
1070
     2
1070
    77
1070
     1
1070
    73
1070
     1
1070
   171
1070
     3
1070
   274
1070
     4
1070
   177
1070
    35
1070
   176
1070
    35
1070
   178
1070
    35
1070
    48
1040
-0.1
1070
    41
1040
3.5
1070
   147
1040
1.75
1070
    42
1040
1.5875
1070
    44
1040
2.0
1070
   140
1040
3.5
1002
}
1001
ACAD_DSTYLE_DIM_LINETYPE
1070
   380
1005
16
1001
ACAD_DSTYLE_DIM_EXT1_LINETYPE
1070
   381
1005
16
1001
ACAD_DSTYLE_DIM_EXT2_LINETYPE
1070
   382
1005
16
0
DIMENSION
5
16C
100
AcDbEntity
8
SK2
62
256
6
ByLayer
370
13
48
1
60
0
100
AcDbDimension
2
_U4
10
64.868
20
-26.343428
30
0
11
8.434
21
-26.343428
31
0
70
32
71
1
72
1
41
1
210
0
220
0
230
1
3
Standard
100
AcDbAlignedDimension
13
-48
23
-8
33
0
14
64.868
24
-7.15
34
0
50
0
100
AcDbRotatedDimension
1001
ACAD
1000
DSTYLE
1002
{
1070
   371
1070
    13
1070
   372
1070
    13
1070
   170
1070
     0
1070
   144
1040
1.0
1070
   277
1070
     2
1070
   278
1070
    44
1070
   146
1040
1.0
1070
   345
1005
16
1070
   347
1005
16
1070
   346
1005
16
1070
   344
1005
0
1070
   343
1005
0
1070
   172
1070
     1
1070
    76
1070
     0
1070
    75
1070
     0
1070
   282
1070
     0
1070
   281
1070
     0
1070
    71
1070
     0
1070
    74
1070
     0
1070
   279
1070
     0
1070
   173
1070
     1
1070
   340
1005
F1
1070
   271
1070
     2
1070
   272
1070
     2
1070
    77
1070
     1
1070
    73
1070
     1
1070
   171
1070
     3
1070
   274
1070
     4
1070
   177
1070
    35
1070
   176
1070
    35
1070
   178
1070
    35
1070
    48
1040
-0.1
1070
    41
1040
3.5
1070
   147
1040
1.75
1070
    42
1040
1.5875
1070
    44
1040
2.0
1070
   140
1040
3.5
1002
}
1001
ACAD_DSTYLE_DIM_LINETYPE
1070
   380
1005
16
1001
ACAD_DSTYLE_DIM_EXT1_LINETYPE
1070
   381
1005
16
1001
ACAD_DSTYLE_DIM_EXT2_LINETYPE
1070
   382
1005
16
0
ENDSEC
0
SECTION
2
OBJECTS
0
DICTIONARY
5
1f4
330
0
100
AcDbDictionary
280
0
281
1
3
ACAD_GROUP
350
1f5
3
ACAD_MLINESTYLE
350
1f6
0
DICTIONARY
5
1f5
330
0
100
AcDbDictionary
280
0
281
1
0
DICTIONARY
5
1f6
330
0
100
AcDbDictionary
280
0
281
1
3
Standard
350
18
0
MLINESTYLE
5
18
330
1f6
100
AcDbMlineStyle
2
Standard
70
0
3

62
256
51
90
52
90
71
2
49
-0.5
62
256
6
ByLayer
49
0.5
62
256
6
ByLayer
0
RASTERVARIABLES
5
1e2
330

100
AcDbRasterVariables
90
0
70
1
71
1
72
1
0
ENDSEC
0
EOF
