0
SECTION
2
HEADER
9
$ACADVER
1
AC1015
9
$DWGCODEPAGE
3
ANSI_1252
9
$HANDSEED
5
1f5
9
$ANGBASE
50
0
9
$ANGDIR
70
0
9
$ATTMODE
70
1
9
$AUNITS
70
0
9
$AUPREC
70
0
9
$CECOLOR
62
256
9
$CELTSCALE
40
1
9
$CELTYPE
6
ByLayer
9
$CELWEIGHT
370
18
9
$CLAYER
8
0
9
$CMLJUST
70
0
9
$CMLSCALE
40
1
9
$CMLSTYLE
2
Standard
9
$DIMSTYLE
2
Standard
9
$TEXTSIZE
40
0.2
9
$TEXTSTYLE
7
Standard
9
$LUNITS
70
2
9
$LUPREC
70
4
9
$EXTNAMES
290
1
9
$INSUNITS
70
4
9
$LTSCALE
40
1
9
$LWDISPLAY
290
1
9
$PDMODE
70
0
9
$PDSIZE
40
0
9
$PLINEGEN
70
0
0
ENDSEC
0
SECTION
2
CLASSES
0
CLASS
1
RASTERVARIABLES
2
AcDbRasterVariables
3
ISM
90
0
280
0
281
0
0
ENDSEC
0
SECTION
2
TABLES
0
TABLE
2
VPORT
5
1eb
100
AcDbSymbolTable
0
VPORT
5
1
100
AcDbSymbolTableRecord
100
AcDbViewportTableRecord
2
*Active
70
0
10
0
20
0
11
1
21
1
12
-1
22
1
13
0
23
0
14
0.5
24
0.5
15
10
25
10
16
0
26
0
36
1
17
0
27
0
37
0
0
ENDTAB
0
TABLE
2
LTYPE
5
1ec
100
AcDbSymbolTable
0
LTYPE
5
14
100
AcDbSymbolTableRecord
100
AcDbLinetypeTableRecord
70
0
2
ByBlock
3

72
65
73
0
40
0
0
LTYPE
5
15
100
AcDbSymbolTableRecord
100
AcDbLinetypeTableRecord
70
0
2
ByLayer
3

72
65
73
0
40
0
0
LTYPE
5
16
100
AcDbSymbolTableRecord
100
AcDbLinetypeTableRecord
70
0
2
Continuous
3
Solid line
72
65
73
0
40
0
0
LTYPE
5
6E
100
AcDbSymbolTableRecord
100
AcDbLinetypeTableRecord
70
0
2
CENTER
3
____ _ ____ _ ____ _ ____
72
65
73
4
40
47.5
49
22
74
0
49
-8.5
74
0
49
8.5
74
0
49
-8.5
74
0
0
LTYPE
5
6F
100
AcDbSymbolTableRecord
100
AcDbLinetypeTableRecord
70
0
2
DASHED
3
__ __ __ __ __ __ __ __ __
72
65
73
2
40
25.72
49
12.86
74
0
49
-12.86
74
0
0
ENDTAB
0
TABLE
2
LAYER
5
1ed
100
AcDbSymbolTable
0
LAYER
5
10
100
AcDbSymbolTableRecord
100
AcDbLayerTableRecord
2
0
70
0
62
7
6
Continuous
290
1
370
-3
390
0
0
LAYER
5
71
100
AcDbSymbolTableRecord
100
AcDbLayerTableRecord
2
80
70
0
62
-6
6
Continuous
290
1
370
-3
390
0
0
LAYER
5
73
100
AcDbSymbolTableRecord
100
AcDbLayerTableRecord
2
81
70
0
62
-3
6
Continuous
290
1
370
-3
390
0
0
LAYER
5
75
100
AcDbSymbolTableRecord
100
AcDbLayerTableRecord
2
1
70
0
62
4
6
Continuous
290
1
370
-3
390
0
0
LAYER
5
86
100
AcDbSymbolTableRecord
100
AcDbLayerTableRecord
2
4
70
0
62
-2
6
CENTER
290
1
370
-3
390
0
0
LAYER
5
9F
100
AcDbSymbolTableRecord
100
AcDbLayerTableRecord
2
2
70
0
62
7
6
Continuous
290
1
370
-3
390
0
0
LAYER
5
100
100
AcDbSymbolTableRecord
100
AcDbLayerTableRecord
2
Defpoints
70
0
62
7
6
Continuous
290
0
370
-3
390
0
0
LAYER
5
1d7
100
AcDbSymbolTableRecord
100
AcDbLayerTableRecord
2
SK1
70
0
62
4
6
Continuous
290
1
370
-3
390
0
0
LAYER
5
1d8
100
AcDbSymbolTableRecord
100
AcDbLayerTableRecord
2
SK4
70
0
62
2
6
CENTER
290
1
370
-3
390
0
0
LAYER
5
1d9
100
AcDbSymbolTableRecord
100
AcDbLayerTableRecord
2
SK2
70
0
62
7
6
Continuous
290
1
370
-3
390
0
0
LAYER
5
1da
100
AcDbSymbolTableRecord
100
AcDbLayerTableRecord
2
SK6
70
0
62
5
6
Continuous
290
1
370
-3
390
0
0
ENDTAB
0
TABLE
2
STYLE
5
1ee
100
AcDbSymbolTable
0
STYLE
5
11
100
AcDbSymbolTableRecord
100
AcDbTextStyleTableRecord
2
Standard
3
txt
70
0
71
0
40
0
41
1
42
0
50
0
0
STYLE
5
E5
100
AcDbSymbolTableRecord
100
AcDbTextStyleTableRecord
2
iso_b_vert
3
simplex.shx
70
0
71
0
40
0
41
1
42
0
50
0
0
STYLE
5
E6
100
AcDbSymbolTableRecord
100
AcDbTextStyleTableRecord
2
DWGDirectTextStyle
3
simplex
70
0
71
0
40
0
41
1
42
0
50
0
0
ENDTAB
0
TABLE
2
DIMSTYLE
5
1ef
100
AcDbSymbolTable
100
AcDbDimStyleTable
0
DIMSTYLE
105
27
100
AcDbSymbolTableRecord
100
AcDbDimStyleTableRecord
2
Standard
70
0
3
<>
41
0.18
42
0.0625
44
0.18
140
0.18
147
0.09
73
0
74
0
77
1
271
2
275
0
278
52
280
0
340
11
0
ENDTAB
0
TABLE
2
VIEW
5
1f0
100
AcDbSymbolTable
0
ENDTAB
0
TABLE
2
UCS
5
1f1
100
AcDbSymbolTable
0
ENDTAB
0
TABLE
2
APPID
5
1f2
100
AcDbSymbolTable
0
APPID
5
12
100
AcDbSymbolTableRecord
100
AcDbRegAppTableRecord
2
ACAD
70
0
0
APPID
5
FC
100
AcDbSymbolTableRecord
100
AcDbRegAppTableRecord
2
ACAD_DSTYLE_DIMBREAK
70
0
0
APPID
5
196
100
AcDbSymbolTableRecord
100
AcDbRegAppTableRecord
2
ACAD_DSTYLE_DIM_LINETYPE
70
0
0
APPID
5
197
100
AcDbSymbolTableRecord
100
AcDbRegAppTableRecord
2
ACAD_DSTYLE_DIM_EXT1_LINETYPE
70
0
0
APPID
5
198
100
AcDbSymbolTableRecord
100
AcDbRegAppTableRecord
2
ACAD_DSTYLE_DIM_EXT2_LINETYPE
70
0
0
APPID
5
1D3
100
AcDbSymbolTableRecord
100
AcDbRegAppTableRecord
2
ACAD_MLEADERVER
70
0
0
ENDTAB
0
TABLE
2
BLOCK_RECORD
5
1f3
100
AcDbSymbolTable
0
BLOCK_RECORD
5
1F
100
AcDbSymbolTableRecord
100
AcDbBlockTableRecord
2
*Model_Space
340
0
70
0
0
BLOCK_RECORD
5
1B
100
AcDbSymbolTableRecord
100
AcDbBlockTableRecord
2
*Paper_Space
340
0
70
0
0
BLOCK_RECORD
5
23
100
AcDbSymbolTableRecord
100
AcDbBlockTableRecord
2
*Paper_Space0
340
0
70
0
0
BLOCK_RECORD
5
101
100
AcDbSymbolTableRecord
100
AcDbBlockTableRecord
2
*D1
340
0
70
0
0
BLOCK_RECORD
5
10D
100
AcDbSymbolTableRecord
100
AcDbBlockTableRecord
2
_U0
340
0
70
0
0
BLOCK_RECORD
5
119
100
AcDbSymbolTableRecord
100
AcDbBlockTableRecord
2
*D3
340
0
70
0
0
BLOCK_RECORD
5
125
100
AcDbSymbolTableRecord
100
AcDbBlockTableRecord
2
_U1
340
0
70
0
0
BLOCK_RECORD
5
131
100
AcDbSymbolTableRecord
100
AcDbBlockTableRecord
2
*D5
340
0
70
0
0
BLOCK_RECORD
5
13D
100
AcDbSymbolTableRecord
100
AcDbBlockTableRecord
2
_U2
340
0
70
0
0
BLOCK_RECORD
5
149
100
AcDbSymbolTableRecord
100
AcDbBlockTableRecord
2
*D7
340
0
70
0
0
BLOCK_RECORD
5
157
100
AcDbSymbolTableRecord
100
AcDbBlockTableRecord
2
_U3
340
0
70
0
0
BLOCK_RECORD
5
163
100
AcDbSymbolTableRecord
100
AcDbBlockTableRecord
2
*D9
340
0
70
0
0
BLOCK_RECORD
5
16F
100
AcDbSymbolTableRecord
100
AcDbBlockTableRecord
2
_U4
340
0
70
0
0
ENDTAB
0
ENDSEC
0
SECTION
2
BLOCKS
0
BLOCK
5
20
100
AcDbEntity
8
0
100
AcDbBlockBegin
2
*Model_Space
70
0
10
0
20
0
30
0
3
*Model_Space
0
ENDBLK
5
21
100
AcDbEntity
8
0
100
AcDbBlockEnd
0
BLOCK
5
1C
100
AcDbEntity
8
0
100
AcDbBlockBegin
2
*Paper_Space
70
0
10
0
20
0
30
0
3
*Paper_Space
0
ENDBLK
5
1D
100
AcDbEntity
8
0
100
AcDbBlockEnd
0
BLOCK
5
24
100
AcDbEntity
8
0
100
AcDbBlockBegin
2
*Paper_Space0
70
0
10
0
20
0
30
0
3
*Paper_Space0
0
ENDBLK
5
25
100
AcDbEntity
8
0
100
AcDbBlockEnd
0
BLOCK
5
102
100
AcDbEntity
8
0
100
AcDbBlockBegin
2
*D1
70
1
10
0
20
0
30
0
3
*D1
0
LINE
5
104
100
AcDbEntity
8
0
62
256
6
ByLayer
370
-2
48
1
60
0
100
AcDbLine
10
0
20
-1.5875
30
0
11
0
21
-15.667898
31
0
39
0
210
0
220
0
230
1
0
LINE
5
105
100
AcDbEntity
8
0
62
256
6
ByLayer
370
-2
48
1
60
0
100
AcDbLine
10
41.9817
20
-5.042
30
0
11
41.9817
21
-15.667898
31
0
39
0
210
0
220
0
230
1
0
LINE
5
106
100
AcDbEntity
8
0
62
256
6
ByLayer
370
-2
48
1
60
0
100
AcDbLine
10
3.5
20
-13.667898
30
0
11
38.4817
21
-13.667898
31
0
39
0
210
0
220
0
230
1
0
SOLID
5
107
100
AcDbEntity
8
0
62
256
6
ByLayer
370
-1
48
1
60
0
100
AcDbTrace
10
3.5
20
-13.084565
30
0
11
3.5
21
-14.251232
31
0
12
0
22
-13.667898
32
0
13
0
23
-13.667898
33
0
39
0
210
0
220
0
230
1
0
SOLID
5
108
100
AcDbEntity
8
0
62
256
6
ByLayer
370
-1
48
1
60
0
100
AcDbTrace
10
38.4817
20
-14.251232
30
0
11
38.4817
21
-13.084565
31
0
12
41.9817
22
-13.667898
32
0
13
41.9817
23
-13.667898
33
0
39
0
210
0
220
0
230
1
0
MTEXT
5
109
100
AcDbEntity
8
0
62
256
6
ByLayer
370
18
48
1
60
0
100
AcDbMText
10
20.99085
20
-6.667898
30
0
210
0
220
0
230
1
1
\A1;41.98
40
3.5
41
0
44
1
50
0
71
5
72
5
7
iso_b_vert
0
POINT
5
10A
100
AcDbEntity
8
Defpoints
62
0
6
ByLayer
370
-1
48
1
60
0
100
AcDbPoint
10
0
20
0
30
0
39
0
210
0
220
0
230
1
50
360
0
POINT
5
10B
100
AcDbEntity
8
Defpoints
62
0
6
ByLayer
370
-1
48
1
60
0
100
AcDbPoint
10
41.9817
20
-3.4545
30
0
39
0
210
0
220
0
230
1
50
360
0
POINT
5
10C
100
AcDbEntity
8
Defpoints
62
0
6
ByLayer
370
-1
48
1
60
0
100
AcDbPoint
10
41.9817
20
-13.667898
30
0
39
0
210
0
220
0
230
1
50
360
0
ENDBLK
5
103
100
AcDbEntity
8
0
100
AcDbBlockEnd
0
BLOCK
5
114
100
AcDbEntity
8
0
100
AcDbBlockBegin
2
_U0
70
0
10
0
20
0
30
0
3
_U0
0
MTEXT
5
10E
100
AcDbEntity
8
SK2
62
256
6
ByLayer
370
13
48
1
60
0
100
AcDbMText
10
16.106718
20
-12.635265
30
0
210
0
220
0
230
1
1
\W0.6977;41,98
40
3.5
41
0
44
1.084337
50
0
71
7
72
5
7
iso_b_vert
0
LINE
5
10F
100
AcDbEntity
8
SK2
62
256
6
ByLayer
370
13
48
1
60
0
100
AcDbLine
10
0
20
-1.5875
30
0
11
0
21
-15.667898
31
0
39
0
210
0
220
0
230
1
0
LINE
5
110
100
AcDbEntity
8
SK2
62
256
6
ByLayer
370
13
48
1
60
0
100
AcDbLine
10
41.9817
20
-5.042
30
0
11
41.9817
21
-15.667898
31
0
39
0
210
0
220
0
230
1
0
LINE
5
111
100
AcDbEntity
8
SK2
62
256
6
ByLayer
370
13
48
1
60
0
100
AcDbLine
10
0
20
-13.667898
30
0
11
41.9817
21
-13.667898
31
0
39
0
210
0
220
0
230
1
0
SOLID
5
112
100
AcDbEntity
8
SK2
62
256
6
ByLayer
370
18
48
1
60
0
100
AcDbTrace
10
0
20
-13.667898
30
0
11
3.499998
21
-13.207115
31
0
12
3.500002
22
-14.128682
32
0
13
3.500002
23
-14.128682
33
0
39
0
210
0
220
0
230
1
0
SOLID
5
113
100
AcDbEntity
8
SK2
62
256
6
ByLayer
370
18
48
1
60
0
100
AcDbTrace
10
41.9817
20
-13.667898
30
0
11
38.481702
21
-14.128682
31
0
12
38.481698
22
-13.207115
32
0
13
38.481698
23
-13.207115
33
0
39
0
210
0
220
0
230
1
0
ENDBLK
5
115
100
AcDbEntity
8
0
100
AcDbBlockEnd
0
BLOCK
5
11A
100
AcDbEntity
8
0
100
AcDbBlockBegin
2
*D3
70
1
10
0
20
0
30
0
3
*D3
0
LINE
5
11C
100
AcDbEntity
8
0
62
256
6
ByLayer
370
-2
48
1
60
0
100
AcDbLine
10
-36
20
-5.5875
30
0
11
-36
21
-34.692985
31
0
39
0
210
0
220
0
230
1
0
LINE
5
11D
100
AcDbEntity
8
0
62
256
6
ByLayer
370
-2
48
1
60
0
100
AcDbLine
10
43
20
-1.5875
30
0
11
43
21
-34.692985
31
0
39
0
210
0
220
0
230
1
0
LINE
5
11E
100
AcDbEntity
8
0
62
256
6
ByLayer
370
-2
48
1
60
0
100
AcDbLine
10
-32.5
20
-32.692985
30
0
11
39.5
21
-32.692985
31
0
39
0
210
0
220
0
230
1
0
SOLID
5
11F
100
AcDbEntity
8
0
62
256
6
ByLayer
370
-1
48
1
60
0
100
AcDbTrace
10
-32.5
20
-32.109652
30
0
11
-32.5
21
-33.276319
31
0
12
-36
22
-32.692985
32
0
13
-36
23
-32.692985
33
0
39
0
210
0
220
0
230
1
0
SOLID
5
120
100
AcDbEntity
8
0
62
256
6
ByLayer
370
-1
48
1
60
0
100
AcDbTrace
10
39.5
20
-33.276319
30
0
11
39.5
21
-32.109652
31
0
12
43
22
-32.692985
32
0
13
43
23
-32.692985
33
0
39
0
210
0
220
0
230
1
0
MTEXT
5
121
100
AcDbEntity
8
0
62
256
6
ByLayer
370
18
48
1
60
0
100
AcDbMText
10
3.5
20
-25.692985
30
0
210
0
220
0
230
1
1
\A1;79.00
40
3.5
41
0
44
1
50
0
71
5
72
5
7
iso_b_vert
0
POINT
5
122
100
AcDbEntity
8
Defpoints
62
0
6
ByLayer
370
-1
48
1
60
0
100
AcDbPoint
10
-36
20
-4
30
0
39
0
210
0
220
0
230
1
50
360
0
POINT
5
123
100
AcDbEntity
8
Defpoints
62
0
6
ByLayer
370
-1
48
1
60
0
100
AcDbPoint
10
43
20
0
30
0
39
0
210
0
220
0
230
1
50
360
0
POINT
5
124
100
AcDbEntity
8
Defpoints
62
0
6
ByLayer
370
-1
48
1
60
0
100
AcDbPoint
10
43
20
-32.692985
30
0
39
0
210
0
220
0
230
1
50
360
0
ENDBLK
5
11B
100
AcDbEntity
8
0
100
AcDbBlockEnd
0
BLOCK
5
12C
100
AcDbEntity
8
0
100
AcDbBlockBegin
2
_U1
70
0
10
0
20
0
30
0
3
_U1
0
MTEXT
5
126
100
AcDbEntity
8
SK2
62
256
6
ByLayer
370
13
48
1
60
0
100
AcDbMText
10
-1.637299
20
-31.660352
30
0
210
0
220
0
230
1
1
\W0.7317;79,00
40
3.5
41
0
44
1.084337
50
0
71
7
72
5
7
iso_b_vert
0
LINE
5
127
100
AcDbEntity
8
SK2
62
256
6
ByLayer
370
13
48
1
60
0
100
AcDbLine
10
-36
20
-5.5875
30
0
11
-36
21
-34.692985
31
0
39
0
210
0
220
0
230
1
0
LINE
5
128
100
AcDbEntity
8
SK2
62
256
6
ByLayer
370
13
48
1
60
0
100
AcDbLine
10
43
20
-1.5875
30
0
11
43
21
-34.692985
31
0
39
0
210
0
220
0
230
1
0
LINE
5
129
100
AcDbEntity
8
SK2
62
256
6
ByLayer
370
13
48
1
60
0
100
AcDbLine
10
-36
20
-32.692985
30
0
11
43
21
-32.692985
31
0
39
0
210
0
220
0
230
1
0
SOLID
5
12A
100
AcDbEntity
8
SK2
62
256
6
ByLayer
370
18
48
1
60
0
100
AcDbTrace
10
-36
20
-32.692985
30
0
11
-32.500002
21
-32.232202
31
0
12
-32.499998
22
-33.153769
32
0
13
-32.499998
23
-33.153769
33
0
39
0
210
0
220
0
230
1
0
SOLID
5
12B
100
AcDbEntity
8
SK2
62
256
6
ByLayer
370
18
48
1
60
0
100
AcDbTrace
10
43
20
-32.692985
30
0
11
39.500002
21
-33.153769
31
0
12
39.499998
22
-32.232202
32
0
13
39.499998
23
-32.232202
33
0
39
0
210
0
220
0
230
1
0
ENDBLK
5
12D
100
AcDbEntity
8
0
100
AcDbBlockEnd
0
BLOCK
5
132
100
AcDbEntity
8
0
100
AcDbBlockBegin
2
*D5
70
1
10
0
20
0
30
0
3
*D5
0
LINE
5
134
100
AcDbEntity
8
0
62
256
6
ByLayer
370
-2
48
1
60
0
100
AcDbLine
10
21.25
20
5.042
30
0
11
21.25
21
17.063619
31
0
39
0
210
0
220
0
230
1
0
LINE
5
135
100
AcDbEntity
8
0
62
256
6
ByLayer
370
-2
48
1
60
0
100
AcDbLine
10
43
20
1.5875
30
0
11
43
21
17.063619
31
0
39
0
210
0
220
0
230
1
0
LINE
5
136
100
AcDbEntity
8
0
62
256
6
ByLayer
370
-2
48
1
60
0
100
AcDbLine
10
24.75
20
15.063619
30
0
11
39.5
21
15.063619
31
0
39
0
210
0
220
0
230
1
0
SOLID
5
137
100
AcDbEntity
8
0
62
256
6
ByLayer
370
-1
48
1
60
0
100
AcDbTrace
10
24.75
20
15.646953
30
0
11
24.75
21
14.480286
31
0
12
21.25
22
15.063619
32
0
13
21.25
23
15.063619
33
0
39
0
210
0
220
0
230
1
0
SOLID
5
138
100
AcDbEntity
8
0
62
256
6
ByLayer
370
-1
48
1
60
0
100
AcDbTrace
10
39.5
20
14.480286
30
0
11
39.5
21
15.646953
31
0
12
43
22
15.063619
32
0
13
43
23
15.063619
33
0
39
0
210
0
220
0
230
1
0
MTEXT
5
139
100
AcDbEntity
8
0
62
256
6
ByLayer
370
18
48
1
60
0
100
AcDbMText
10
32.125
20
22.063619
30
0
210
0
220
0
230
1
1
\A1;21.75
40
3.5
41
0
44
1
50
0
71
5
72
5
7
iso_b_vert
0
POINT
5
13A
100
AcDbEntity
8
Defpoints
62
0
6
ByLayer
370
-1
48
1
60
0
100
AcDbPoint
10
21.25
20
3.4545
30
0
39
0
210
0
220
0
230
1
50
360
0
POINT
5
13B
100
AcDbEntity
8
Defpoints
62
0
6
ByLayer
370
-1
48
1
60
0
100
AcDbPoint
10
43
20
0
30
0
39
0
210
0
220
0
230
1
50
360
0
POINT
5
13C
100
AcDbEntity
8
Defpoints
62
0
6
ByLayer
370
-1
48
1
60
0
100
AcDbPoint
10
43
20
15.063619
30
0
39
0
210
0
220
0
230
1
50
360
0
ENDBLK
5
133
100
AcDbEntity
8
0
100
AcDbBlockEnd
0
BLOCK
5
144
100
AcDbEntity
8
0
100
AcDbBlockBegin
2
_U2
70
0
10
0
20
0
30
0
3
_U2
0
MTEXT
5
13E
100
AcDbEntity
8
SK2
62
256
6
ByLayer
370
13
48
1
60
0
100
AcDbMText
10
27.425135
20
16.096253
30
0
210
0
220
0
230
1
1
\W0.6713;21,75
40
3.5
41
0
44
1.084337
50
0
71
7
72
5
7
iso_b_vert
0
LINE
5
13F
100
AcDbEntity
8
SK2
62
256
6
ByLayer
370
13
48
1
60
0
100
AcDbLine
10
21.25
20
5.042
30
0
11
21.25
21
17.063619
31
0
39
0
210
0
220
0
230
1
0
LINE
5
140
100
AcDbEntity
8
SK2
62
256
6
ByLayer
370
13
48
1
60
0
100
AcDbLine
10
43
20
1.5875
30
0
11
43
21
17.063619
31
0
39
0
210
0
220
0
230
1
0
LINE
5
141
100
AcDbEntity
8
SK2
62
256
6
ByLayer
370
13
48
1
60
0
100
AcDbLine
10
21.25
20
15.063619
30
0
11
43
21
15.063619
31
0
39
0
210
0
220
0
230
1
0
SOLID
5
142
100
AcDbEntity
8
SK2
62
256
6
ByLayer
370
18
48
1
60
0
100
AcDbTrace
10
21.25
20
15.063619
30
0
11
24.749998
21
15.524403
31
0
12
24.750002
22
14.602835
32
0
13
24.750002
23
14.602835
33
0
39
0
210
0
220
0
230
1
0
SOLID
5
143
100
AcDbEntity
8
SK2
62
256
6
ByLayer
370
18
48
1
60
0
100
AcDbTrace
10
43
20
15.063619
30
0
11
39.500002
21
14.602835
31
0
12
39.499998
22
15.524403
32
0
13
39.499998
23
15.524403
33
0
39
0
210
0
220
0
230
1
0
ENDBLK
5
145
100
AcDbEntity
8
0
100
AcDbBlockEnd
0
BLOCK
5
14A
100
AcDbEntity
8
0
100
AcDbBlockBegin
2
*D7
70
1
10
0
20
0
30
0
3
*D7
0
LINE
5
14C
100
AcDbEntity
8
0
62
256
6
ByLayer
370
-2
48
1
60
0
100
AcDbLine
10
43
20
-1.5875
30
0
11
43
21
-18.257003
31
0
39
0
210
0
220
0
230
1
0
LINE
5
14D
100
AcDbEntity
8
0
62
256
6
ByLayer
370
-2
48
1
60
0
100
AcDbLine
10
41.9817
20
-5.042
30
0
11
41.9817
21
-18.257003
31
0
39
0
210
0
220
0
230
1
0
LINE
5
14E
100
AcDbEntity
8
0
62
256
6
ByLayer
370
-2
48
1
60
0
100
AcDbLine
10
43
20
-16.257003
30
0
11
70.666667
21
-16.257003
31
0
39
0
210
0
220
0
230
1
0
LINE
5
14F
100
AcDbEntity
8
0
62
256
6
ByLayer
370
-2
48
1
60
0
100
AcDbLine
10
46.5
20
-16.257003
30
0
11
50
21
-16.257003
31
0
39
0
210
0
220
0
230
1
0
LINE
5
150
100
AcDbEntity
8
0
62
256
6
ByLayer
370
-2
48
1
60
0
100
AcDbLine
10
38.4817
20
-16.257003
30
0
11
34.9817
21
-16.257003
31
0
39
0
210
0
220
0
230
1
0
SOLID
5
151
100
AcDbEntity
8
0
62
256
6
ByLayer
370
-1
48
1
60
0
100
AcDbTrace
10
46.5
20
-15.67367
30
0
11
46.5
21
-16.840337
31
0
12
43
22
-16.257003
32
0
13
43
23
-16.257003
33
0
39
0
210
0
220
0
230
1
0
SOLID
5
152
100
AcDbEntity
8
0
62
256
6
ByLayer
370
-1
48
1
60
0
100
AcDbTrace
10
38.4817
20
-16.840337
30
0
11
38.4817
21
-15.67367
31
0
12
41.9817
22
-16.257003
32
0
13
41.9817
23
-16.257003
33
0
39
0
210
0
220
0
230
1
0
MTEXT
5
153
100
AcDbEntity
8
0
62
256
6
ByLayer
370
18
48
1
60
0
100
AcDbMText
10
60.333333
20
-9.257003
30
0
210
0
220
0
230
1
1
\A1;1.02
40
3.5
41
0
44
1
50
0
71
5
72
5
7
iso_b_vert
0
POINT
5
154
100
AcDbEntity
8
Defpoints
62
0
6
ByLayer
370
-1
48
1
60
0
100
AcDbPoint
10
43
20
0
30
0
39
0
210
0
220
0
230
1
50
360
0
POINT
5
155
100
AcDbEntity
8
Defpoints
62
0
6
ByLayer
370
-1
48
1
60
0
100
AcDbPoint
10
41.9817
20
-3.4545
30
0
39
0
210
0
220
0
230
1
50
360
0
POINT
5
156
100
AcDbEntity
8
Defpoints
62
0
6
ByLayer
370
-1
48
1
60
0
100
AcDbPoint
10
41.9817
20
-16.257003
30
0
39
0
210
0
220
0
230
1
50
360
0
ENDBLK
5
14B
100
AcDbEntity
8
0
100
AcDbBlockEnd
0
BLOCK
5
15E
100
AcDbEntity
8
0
100
AcDbBlockBegin
2
_U3
70
0
10
0
20
0
30
0
3
_U3
0
MTEXT
5
158
100
AcDbEntity
8
SK2
62
256
6
ByLayer
370
13
48
1
60
0
100
AcDbMText
10
49.589293
20
-15.22437
30
0
210
0
220
0
230
1
1
\W0.6367;1,02
40
3.5
41
0
44
1.084337
50
0
71
7
72
5
7
iso_b_vert
0
LINE
5
159
100
AcDbEntity
8
SK2
62
256
6
ByLayer
370
13
48
1
60
0
100
AcDbLine
10
43
20
-1.5875
30
0
11
43
21
-18.257003
31
0
39
0
210
0
220
0
230
1
0
LINE
5
15A
100
AcDbEntity
8
SK2
62
256
6
ByLayer
370
13
48
1
60
0
100
AcDbLine
10
41.9817
20
-5.042
30
0
11
41.9817
21
-18.257003
31
0
39
0
210
0
220
0
230
1
0
LINE
5
15B
100
AcDbEntity
8
SK2
62
256
6
ByLayer
370
13
48
1
60
0
100
AcDbLine
10
33.2317
20
-16.257003
30
0
11
56.559058
21
-16.257003
31
0
39
0
210
0
220
0
230
1
0
SOLID
5
15C
100
AcDbEntity
8
SK2
62
256
6
ByLayer
370
18
48
1
60
0
100
AcDbTrace
10
43
20
-16.257003
30
0
11
46.499998
21
-15.796219
31
0
12
46.500002
22
-16.717787
32
0
13
46.500002
23
-16.717787
33
0
39
0
210
0
220
0
230
1
0
SOLID
5
15D
100
AcDbEntity
8
SK2
62
256
6
ByLayer
370
18
48
1
60
0
100
AcDbTrace
10
41.9817
20
-16.257003
30
0
11
38.481702
21
-16.717787
31
0
12
38.481698
22
-15.796219
32
0
13
38.481698
23
-15.796219
33
0
39
0
210
0
220
0
230
1
0
ENDBLK
5
15F
100
AcDbEntity
8
0
100
AcDbBlockEnd
0
BLOCK
5
164
100
AcDbEntity
8
0
100
AcDbBlockBegin
2
*D9
70
1
10
0
20
0
30
0
3
*D9
0
LINE
5
166
100
AcDbEntity
8
0
62
256
6
ByLayer
370
-2
48
1
60
0
100
AcDbLine
10
-36
20
-5.5875
30
0
11
-36
21
-24.343428
31
0
39
0
210
0
220
0
230
1
0
LINE
5
167
100
AcDbEntity
8
0
62
256
6
ByLayer
370
-2
48
1
60
0
100
AcDbLine
10
41.9817
20
-5.042
30
0
11
41.9817
21
-24.343428
31
0
39
0
210
0
220
0
230
1
0
LINE
5
168
100
AcDbEntity
8
0
62
256
6
ByLayer
370
-2
48
1
60
0
100
AcDbLine
10
-32.5
20
-22.343428
30
0
11
38.4817
21
-22.343428
31
0
39
0
210
0
220
0
230
1
0
SOLID
5
169
100
AcDbEntity
8
0
62
256
6
ByLayer
370
-1
48
1
60
0
100
AcDbTrace
10
-32.5
20
-21.760095
30
0
11
-32.5
21
-22.926762
31
0
12
-36
22
-22.343428
32
0
13
-36
23
-22.343428
33
0
39
0
210
0
220
0
230
1
0
SOLID
5
16A
100
AcDbEntity
8
0
62
256
6
ByLayer
370
-1
48
1
60
0
100
AcDbTrace
10
38.4817
20
-22.926762
30
0
11
38.4817
21
-21.760095
31
0
12
41.9817
22
-22.343428
32
0
13
41.9817
23
-22.343428
33
0
39
0
210
0
220
0
230
1
0
MTEXT
5
16B
100
AcDbEntity
8
0
62
256
6
ByLayer
370
18
48
1
60
0
100
AcDbMText
10
2.99085
20
-15.343428
30
0
210
0
220
0
230
1
1
\A1;77.98
40
3.5
41
0
44
1
50
0
71
5
72
5
7
iso_b_vert
0
POINT
5
16C
100
AcDbEntity
8
Defpoints
62
0
6
ByLayer
370
-1
48
1
60
0
100
AcDbPoint
10
-36
20
-4
30
0
39
0
210
0
220
0
230
1
50
360
0
POINT
5
16D
100
AcDbEntity
8
Defpoints
62
0
6
ByLayer
370
-1
48
1
60
0
100
AcDbPoint
10
41.9817
20
-3.4545
30
0
39
0
210
0
220
0
230
1
50
360
0
POINT
5
16E
100
AcDbEntity
8
Defpoints
62
0
6
ByLayer
370
-1
48
1
60
0
100
AcDbPoint
10
41.9817
20
-22.343428
30
0
39
0
210
0
220
0
230
1
50
360
0
ENDBLK
5
165
100
AcDbEntity
8
0
100
AcDbBlockEnd
0
BLOCK
5
176
100
AcDbEntity
8
0
100
AcDbBlockBegin
2
_U4
70
0
10
0
20
0
30
0
3
_U4
0
MTEXT
5
170
100
AcDbEntity
8
SK2
62
256
6
ByLayer
370
13
48
1
60
0
100
AcDbMText
10
-2.146449
20
-21.310795
30
0
210
0
220
0
230
1
1
\W0.7317;77,98
40
3.5
41
0
44
1.084337
50
0
71
7
72
5
7
iso_b_vert
0
LINE
5
171
100
AcDbEntity
8
SK2
62
256
6
ByLayer
370
13
48
1
60
0
100
AcDbLine
10
-36
20
-5.5875
30
0
11
-36
21
-24.343428
31
0
39
0
210
0
220
0
230
1
0
LINE
5
172
100
AcDbEntity
8
SK2
62
256
6
ByLayer
370
13
48
1
60
0
100
AcDbLine
10
41.9817
20
-5.042
30
0
11
41.9817
21
-24.343428
31
0
39
0
210
0
220
0
230
1
0
LINE
5
173
100
AcDbEntity
8
SK2
62
256
6
ByLayer
370
13
48
1
60
0
100
AcDbLine
10
-36
20
-22.343428
30
0
11
41.9817
21
-22.343428
31
0
39
0
210
0
220
0
230
1
0
SOLID
5
174
100
AcDbEntity
8
SK2
62
256
6
ByLayer
370
18
48
1
60
0
100
AcDbTrace
10
-36
20
-22.343428
30
0
11
-32.500002
21
-21.882645
31
0
12
-32.499998
22
-22.804212
32
0
13
-32.499998
23
-22.804212
33
0
39
0
210
0
220
0
230
1
0
SOLID
5
175
100
AcDbEntity
8
SK2
62
256
6
ByLayer
370
18
48
1
60
0
100
AcDbTrace
10
41.9817
20
-22.343428
30
0
11
38.481702
21
-22.804212
31
0
12
38.481698
22
-21.882645
32
0
13
38.481698
23
-21.882645
33
0
39
0
210
0
220
0
230
1
0
ENDBLK
5
177
100
AcDbEntity
8
0
100
AcDbBlockEnd
0
ENDSEC
0
SECTION
2
ENTITIES
0
ARC
5
A8
100
AcDbEntity
8
1
62
256
6
ByLayer
370
18
48
1
60
0
100
AcDbCircle
39
0
10
1.225183
20
-4.229042
30
0
40
0.800000000000001
210
0
220
0
230
1
100
AcDbArc
50
89.96419
51
139.97279
0
ARC
5
A9
100
AcDbEntity
8
1
62
256
6
ByLayer
370
18
48
1
60
0
100
AcDbCircle
39
0
10
1.225183
20
4.229042
30
0
40
0.800000000000001
210
0
220
0
230
1
100
AcDbArc
50
220.02721
51
270.03581
0
ARC
5
AA
100
AcDbEntity
8
1
62
256
6
ByLayer
370
18
48
1
60
0
100
AcDbCircle
39
0
10
0
20
-3.2
30
0
40
0.800000000000001
210
0
220
0
230
1
100
AcDbArc
50
270
51
319.97279
0
ARC
5
AB
100
AcDbEntity
8
1
62
256
6
ByLayer
370
18
48
1
60
0
100
AcDbCircle
39
0
10
0
20
3.2
30
0
40
0.800000000000001
210
0
220
0
230
1
100
AcDbArc
50
40.02721
51
90
0
ELLIPSE
5
AC
100
AcDbEntity
8
1
62
256
6
ByLayer
370
13
48
1
60
0
100
AcDbEllipse
10
11.184257
20
-1.030878
30
0
11
-0.0290156130903481
21
-0.095697932041352
31
0
210
0
220
0
230
1
40
0.503727
41
-1.70673281329781
42
-0.35121011105274
0
ELLIPSE
5
AD
100
AcDbEntity
8
1
62
256
6
ByLayer
370
13
48
1
60
0
100
AcDbEllipse
10
11.250156
20
-1.056283
30
0
11
0.0418891881166988
21
0.0908036118165122
31
0
210
0
220
0
230
1
40
0.136421
41
1.2808945836701
42
2.82796517091462
0
POINT
5
70
100
AcDbEntity
8
80
62
256
6
ByLayer
370
18
48
1
60
0
100
AcDbPoint
10
0
20
0
30
0
39
0
210
0
220
0
230
1
50
360
0
POINT
5
72
100
AcDbEntity
8
81
62
256
6
ByLayer
370
18
48
1
60
0
100
AcDbPoint
10
43
20
0
30
0
39
0
210
0
220
0
230
1
50
360
0
POINT
5
74
100
AcDbEntity
8
1
62
256
6
ByLayer
370
18
48
1
60
1
100
AcDbPoint
10
41.9817
20
-3.4545
30
0
39
0
210
0
220
0
230
1
50
360
0
POINT
5
76
100
AcDbEntity
8
1
62
256
6
ByLayer
370
18
48
1
60
1
100
AcDbPoint
10
-36
20
-4
30
0
39
0
210
0
220
0
230
1
50
360
0
POINT
5
77
100
AcDbEntity
8
1
62
256
6
ByLayer
370
18
48
1
60
1
100
AcDbPoint
10
21.25
20
3.4545
30
0
39
0
210
0
220
0
230
1
50
360
0
POINT
5
78
100
AcDbEntity
8
1
62
256
6
ByLayer
370
18
48
1
60
1
100
AcDbPoint
10
41.9817
20
-3.4545
30
0
39
0
210
0
220
0
230
1
50
360
0
POINT
5
79
100
AcDbEntity
8
1
62
256
6
ByLayer
370
18
48
1
60
1
100
AcDbPoint
10
-36
20
-4
30
0
39
0
210
0
220
0
230
1
50
360
0
POINT
5
7A
100
AcDbEntity
8
1
62
256
6
ByLayer
370
18
48
1
60
1
100
AcDbPoint
10
41.9817
20
-3.4545
30
0
39
0
210
0
220
0
230
1
50
360
0
SPLINE
5
AE
100
AcDbEntity
8
1
62
256
6
ByLayer
370
13
48
1
60
0
100
AcDbSpline
70
4
71
3
72
29
73
25
40
0
40
0
40
0
40
0
40
0.125
40
0.125
40
0.1875
40
0.1875
40
0.25
40
0.3125
40
0.3125
40
0.375
40
0.375
40
0.437499999999999
40
0.437499999999999
40
0.499999999999999
40
0.499999999999999
40
0.624999999999999
40
0.624999999999999
40
0.749999999999999
40
0.749999999999999
40
0.812499999999999
40
0.812499999999999
40
0.875
40
0.875
40
1
40
1
40
1
40
1
41
1
10
11.250259686564
20
-1.02484973461606
30
0
41
1
10
11.2502965353396
20
-0.823220272155112
30
0
41
1
10
11.2503266831305
20
-0.617396332964233
30
0
41
1
10
11.2503651207637
20
-0.302436822190629
30
0
41
1
10
11.2503767998495
20
-0.196279391767888
30
0
41
1
10
11.250398046558
20
0.0142488883208785
30
0
41
1
10
11.2504173084243
20
0.223957890021353
30
0
41
1
10
11.2504338054074
20
0.432056615692289
30
0
41
1
10
11.2504494668751
20
0.639341700720621
30
0
41
1
10
11.2504568982951
20
0.74285009920996
30
0
41
1
10
11.2504713521279
20
0.94779290610839
30
0
41
1
10
11.2504783317989
20
1.04857781028966
30
0
41
1
10
11.2504922819333
20
1.24679578076564
30
0
41
1
10
11.2504992794667
20
1.34457933394404
30
0
41
1
10
11.2505205692088
20
1.62875055319071
30
0
41
1
10
11.2505352585602
20
1.80692294620076
30
0
41
1
10
11.2505676863372
20
2.14111651375958
30
0
41
1
10
11.2505856042574
20
2.29816299813038
30
0
41
1
10
11.2506141904293
20
2.50820633294359
30
0
41
1
10
11.2506240129156
20
2.57427131923492
30
0
41
1
10
11.2506441277866
20
2.69849182489804
30
0
41
1
10
11.250654457605
20
2.75683662366137
30
0
41
1
10
11.2506855699552
20
2.91834309413375
30
0
41
1
10
11.2507062304355
20
3.00680257323117
30
0
41
1
10
11.2507253698943
20
3.0766757862709
30
0
0
SPLINE
5
AF
100
AcDbEntity
8
1
62
256
6
ByLayer
370
18
48
1
60
0
100
AcDbSpline
70
4
71
3
72
10
73
6
40
0
40
0
40
0
40
0
40
0.5
40
0.5
40
1
40
1
40
1
40
1
41
1
10
41.9581370093679
20
-3.36161998918047
30
0
41
1
10
42.1142933166921
20
-2.93117763505984
30
0
41
1
10
42.2760301605914
20
-2.50246620893904
30
0
41
1
10
42.609138253515
20
-1.64823250642871
30
0
41
1
10
42.7804369614151
20
-1.22292438791786
30
0
41
1
10
42.955379153189
20
-0.800743862710334
30
0
0
SPLINE
5
B0
100
AcDbEntity
8
1
62
256
6
ByLayer
370
18
48
1
60
0
100
AcDbSpline
70
4
71
3
72
44
73
40
40
0
40
0
40
0
40
0
40
0.043327570848361
40
0.043327570848361
40
0.0866551416967219
40
0.0866551416967219
40
0.173310283393442
40
0.173310283393442
40
0.259965425090163
40
0.259965425090163
40
0.303292995938523
40
0.303292995938523
40
0.324956781362703
40
0.324956781362703
40
0.346620566786883
40
0.346620566786883
40
0.519930850180324
40
0.519930850180324
40
0.541594635604505
40
0.541594635604505
40
0.563258421028685
40
0.563258421028685
40
0.606585991877048
40
0.606585991877048
40
0.693241133573772
40
0.693241133573772
40
0.779896275270496
40
0.779896275270496
40
0.801560060694677
40
0.801560060694677
40
0.823223846118859
40
0.823223846118859
40
0.866551416967221
40
0.866551416967221
40
0.953206558663945
40
0.953206558663945
40
0.996534129512307
40
0.996534129512307
40
1
40
1
40
1
40
1
41
1
10
41.7837344324734
20
-3.44999416125691
30
0
41
1
10
41.4625612447598
20
-3.45789114556018
30
0
41
1
10
41.1417112690065
20
-3.45459063670549
30
0
41
1
10
40.4994825839112
20
-3.42579840857977
30
0
41
1
10
40.1773955724203
20
-3.40021714832753
30
0
41
1
10
39.2142706696285
20
-3.29110532287356
30
0
41
1
10
38.5781311315192
20
-3.17570130749453
30
0
41
1
10
37.3084979382433
20
-2.86891558756264
30
0
41
1
10
36.6747966045643
20
-2.67772326741991
30
0
41
1
10
35.7189249152999
20
-2.34243817732209
30
0
41
1
10
35.3993931132031
20
-2.22263655039336
30
0
41
1
10
34.9178964561769
20
-2.03191092114974
30
0
41
1
10
34.7567878674747
20
-1.96639044953056
30
0
41
1
10
34.4356695662461
20
-1.83266387801564
30
0
41
1
10
34.2754986900807
20
-1.7644134336218
30
0
41
1
10
32.8365039893473
20
-1.1395165323508
30
0
41
1
10
31.5766129062455
20
-0.506074025840178
30
0
41
1
10
30.1385360504968
20
0.209500383598964
30
0
41
1
10
29.9784599889918
20
0.289041582173951
30
0
41
1
10
29.6575713235151
20
0.447867789820464
30
0
41
1
10
29.496483029892
20
0.527286741266892
30
0
41
1
10
29.0144500956248
20
0.763406409429393
30
0
41
1
10
28.6946458141888
20
0.918094574466068
30
0
41
1
10
27.7380681255395
20
1.3705971648038
30
0
41
1
10
27.1041108379802
20
1.65677908235347
30
0
41
1
10
25.8341094275042
20
2.18097991451589
30
0
41
1
10
25.198279364171
20
2.41935269644546
30
0
41
1
10
24.3962242261329
20
2.67704404919789
30
0
41
1
10
24.2351959457029
20
2.72665523283251
30
0
41
1
10
23.9136337008364
20
2.82123459289977
30
0
41
1
10
23.7532506136451
20
2.86616647040637
30
0
41
1
10
23.2730488887387
20
2.99369718988771
30
0
41
1
10
22.9541657628473
20
3.06901523575445
30
0
41
1
10
21.9994519164385
20
3.26468469047083
30
0
41
1
10
21.3658650190165
20
3.35489317562295
30
0
41
1
10
20.4121223696544
20
3.42560434474936
30
0
41
1
10
20.0937739229931
20
3.43847375855214
30
0
41
1
10
19.7487842023487
20
3.44049277426205
30
0
41
1
10
19.7232216411693
20
3.44057181399958
30
0
41
1
10
19.6976494289379
20
3.44058028985455
30
0
0
SPLINE
5
B1
100
AcDbEntity
8
1
62
256
6
ByLayer
370
18
48
1
60
0
100
AcDbSpline
70
4
71
3
72
10
73
6
40
0
40
0
40
0
40
0
40
0.607000557584213
40
0.607000557584213
40
1
40
1
40
1
40
1
41
1
10
11.2507253704128
20
-3.07667578624415
30
0
41
1
10
11.4819442885619
20
-3.02816674962796
30
0
41
1
10
11.7163516503312
20
-2.97208854218258
30
0
41
1
10
12.1061154989774
20
-2.86945271324299
30
0
41
1
10
12.2602710784447
20
-2.82649911179573
30
0
41
1
10
12.4151699359584
20
-2.781217615841
30
0
0
SPLINE
5
B2
100
AcDbEntity
8
1
62
256
6
ByLayer
370
18
48
1
60
0
100
AcDbSpline
70
4
71
3
72
8
73
4
40
0
40
0
40
0
40
0
40
1
40
1
40
1
40
1
41
1
10
42.9553791531872
20
-0.800743862714768
30
0
41
1
10
42.9708415712751
20
-0.57288753384293
30
0
41
1
10
42.9822024594738
20
-0.345239624759103
30
0
41
1
10
42.9894555005145
20
-0.11780045647609
30
0
0
SPLINE
5
B3
100
AcDbEntity
8
1
62
256
6
ByLayer
370
18
48
1
60
0
100
AcDbSpline
70
4
71
3
72
18
73
14
40
0
40
0
40
0
40
0
40
0.0110703327676223
40
0.0110703327676223
40
0.208757417573061
40
0.208757417573061
40
0.604131587183938
40
0.604131587183938
40
0.801818671989377
40
0.801818671989377
40
0.999505756794815
40
0.999505756794815
40
1
40
1
40
1
40
1
41
1
10
19.9170848868075
20
-3.26801016711468
30
0
41
1
10
19.8992456573284
20
-3.26800416791278
30
0
41
1
10
19.8814034440052
20
-3.26796577662509
30
0
41
1
10
19.5448881961281
20
-3.26663057926601
30
0
41
1
10
19.2247965237291
20
-3.25490252646216
30
0
41
1
10
18.2620747862339
20
-3.18834713545681
30
0
41
1
10
17.6230054592348
20
-3.10249331231344
30
0
41
1
10
16.6624060066924
20
-2.91559262033675
30
0
41
1
10
16.3410235075284
20
-2.8435193881075
30
0
41
1
10
15.7006679837174
20
-2.68223923960727
30
0
41
1
10
15.3818138539519
20
-2.59310715373425
30
0
41
1
10
15.062908332771
20
-2.4960901125128
30
0
41
1
10
15.0621130213235
20
-2.49584811398631
30
0
41
1
10
15.061317714954
20
-2.49560606715559
30
0
0
SPLINE
5
B4
100
AcDbEntity
8
1
62
256
6
ByLayer
370
13
48
1
60
0
100
AcDbSpline
70
4
71
3
72
8
73
4
40
0
40
0
40
0
40
0
40
1
40
1
40
1
40
1
41
1
10
15.0613177149083
20
-2.49560606714169
30
0
41
1
10
13.7896884654955
20
-2.1085931605347
30
0
41
1
10
12.5310415366555
20
-1.59808866702343
30
0
41
1
10
11.250259686564
20
-1.02484973461606
30
0
0
SPLINE
5
B5
100
AcDbEntity
8
1
62
256
6
ByLayer
370
18
48
1
60
0
100
AcDbSpline
70
4
71
3
72
10
73
6
40
0
40
0
40
0
40
0
40
0.850793337180268
40
0.850793337180268
40
1
40
1
40
1
40
1
41
1
10
41.8234706889125
20
-3.28082988734343
30
0
41
1
10
40.5436270754388
20
-3.29440914281616
30
0
41
1
10
39.2861608510131
20
-3.1381062840029
30
0
41
1
10
37.7954131756312
20
-2.7822850433119
30
0
41
1
10
37.5726116637349
20
-2.72474765789681
30
0
41
1
10
37.3492648091063
20
-2.66291130436051
30
0
0
SPLINE
5
B6
100
AcDbEntity
8
1
62
256
6
ByLayer
370
13
48
1
60
0
100
AcDbSpline
70
4
71
3
72
24
73
20
40
0
40
0
40
0
40
0
40
0.0262826376782494
40
0.0262826376782494
40
0.114330016200608
40
0.114330016200608
40
0.290424773245327
40
0.290424773245327
40
0.466519530290045
40
0.466519530290045
40
0.554566908812404
40
0.554566908812404
40
0.642614287334763
40
0.642614287334763
40
0.818709044379481
40
0.818709044379481
40
0.994803801424199
40
0.994803801424199
40
1
40
1
40
1
40
1
41
1
10
37.3492647083058
20
-2.6629112764526
30
0
41
1
10
37.2542243136734
20
-2.63659816104695
30
0
41
1
10
37.1590851714908
20
-2.60950661306507
30
0
41
1
10
36.7447402940331
20
-2.48832106728693
30
0
41
1
10
36.4233939980363
20
-2.38598117943951
30
0
41
1
10
35.4642937672372
20
-2.05888539749518
30
0
41
1
10
34.8303051426687
20
-1.81379426364507
30
0
41
1
10
33.5646962690416
20
-1.28554010629179
30
0
41
1
10
32.9331285550288
20
-1.00245685645081
30
0
41
1
10
31.980940117888
20
-0.562685874803009
30
0
41
1
10
31.6628156259179
20
-0.41343024530795
30
0
41
1
10
31.0239318022845
20
-0.111978703638215
30
0
41
1
10
30.7024271759957
20
0.0403975444035893
30
0
41
1
10
29.7430959588057
20
0.493380614426201
30
0
41
1
10
29.1073720919774
20
0.790941190136067
30
0
41
1
10
27.8348475324323
20
1.358983731542
30
0
41
1
10
27.1981301380405
20
1.62967048983398
30
0
41
1
10
26.5374433437508
20
1.88513107449424
30
0
41
1
10
26.5185084357157
20
1.89243135486893
30
0
41
1
10
26.4995752615544
20
1.89970966020704
30
0
0
SPLINE
5
B7
100
AcDbEntity
8
1
62
256
6
ByLayer
370
18
48
1
60
0
100
AcDbSpline
70
4
71
3
72
14
73
10
40
0
40
0
40
0
40
0
40
0.25
40
0.25
40
0.5
40
0.5
40
0.75
40
0.75
40
1
40
1
40
1
40
1
41
1
10
11.2507253698943
20
3.07667578635292
30
0
41
1
10
11.2273594559205
20
3.08157788513165
30
0
41
1
10
11.2035186513244
20
3.08880489782982
30
0
41
1
10
11.1545490729408
20
3.10949758871834
30
0
41
1
10
11.1302609231678
20
3.12273251577534
30
0
41
1
10
11.0853480548915
20
3.15470655102223
30
0
41
1
10
11.0651666349752
20
3.1732374724742
30
0
41
1
10
11.0328073362782
20
3.21226703616318
30
0
41
1
10
11.0205628233897
20
3.23279331040385
30
0
41
1
10
11.0125387028045
20
3.25266799419592
30
0
0
SPLINE
5
B8
100
AcDbEntity
8
1
62
256
6
ByLayer
370
18
48
1
60
0
100
AcDbSpline
70
4
71
3
72
14
73
10
40
0
40
0
40
0
40
0
40
0.25
40
0.25
40
0.5
40
0.5
40
0.75
40
0.75
40
1
40
1
40
1
40
1
41
1
10
41.8234706873322
20
-3.2808298873602
30
0
41
1
10
41.8267478300953
20
-3.28051511854076
30
0
41
1
10
41.8293668090524
20
-3.28191255527489
30
0
41
1
10
41.8328888643662
20
-3.28914232789239
30
0
41
1
10
41.8337366498712
20
-3.29506971986649
30
0
41
1
10
41.8325652133267
20
-3.31227673995426
30
0
41
1
10
41.8304892406967
20
-3.32351392122752
30
0
41
1
10
41.82362400249
20
-3.34863544787791
30
0
41
1
10
41.8188777580702
20
-3.36239387342135
30
0
41
1
10
41.8136338889815
20
-3.37548805854436
30
0
0
SPLINE
5
B9
100
AcDbEntity
8
1
62
256
6
ByLayer
370
18
48
1
60
0
100
AcDbSpline
70
4
71
3
72
29
73
25
40
0
40
0
40
0
40
0
40
0.125
40
0.125
40
0.25
40
0.25
40
0.3125
40
0.3125
40
0.375
40
0.4375
40
0.4375
40
0.5
40
0.5
40
0.625
40
0.625
40
0.6875
40
0.6875
40
0.75
40
0.75
40
0.875
40
0.875
40
0.9375
40
0.9375
40
1
40
1
40
1
40
1
41
1
10
11.0123361872232
20
-0.966875468341357
30
0
41
1
10
11.0123511637669
20
-0.75561750965403
30
0
41
1
10
11.0123639766634
20
-0.53770646039797
30
0
41
1
10
11.0123860556083
20
-0.102409925225174
30
0
41
1
10
11.0123954153536
20
0.116030970690957
30
0
41
1
10
11.0124081243963
20
0.444909294519817
30
0
41
1
10
11.0124121007264
20
0.553793120665517
30
0
41
1
10
11.0124196681505
20
0.768031683149729
30
0
41
1
10
11.0124268756403
20
0.979409873286585
30
0
41
1
10
11.0124337330352
20
1.18512739606822
30
0
41
1
10
11.0124405753876
20
1.38796715909854
30
0
41
1
10
11.0124440080517
20
1.48847518967889
30
0
41
1
10
11.0124543220059
20
1.78061164223769
30
0
41
1
10
11.0124612425559
20
1.96321632260336
30
0
41
1
10
11.0124722027054
20
2.21931115997361
30
0
41
1
10
11.012475948371
20
2.30168730329098
30
0
41
1
10
11.0124836609967
20
2.46028283774618
30
0
41
1
10
11.0124876069439
20
2.53601462122109
30
0
41
1
10
11.0124995190379
20
2.74937258736921
30
0
41
1
10
11.0125076462351
20
2.87471134939344
30
0
41
1
10
11.012519713926
20
3.03731129039494
30
0
41
1
10
11.0125237319762
20
3.087477282663
30
0
41
1
10
11.0125314798623
20
3.17766225167742
30
0
41
1
10
11.0125352023966
20
3.21764936787693
30
0
41
1
10
11.0125387028041
20
3.25266799419714
30
0
0
SPLINE
5
BA
100
AcDbEntity
8
1
62
256
6
ByLayer
370
13
48
1
60
0
100
AcDbSpline
70
4
71
3
72
8
73
4
40
0
40
0
40
0
40
0
40
1
40
1
40
1
40
1
41
1
10
11.1404283348878
20
-1.11570575761286
30
0
41
1
10
11.1613333009234
20
-1.12197035293016
30
0
41
1
10
11.183665539061
20
-1.1304672193815
30
0
41
1
10
11.2064884035364
20
-1.14089406472681
30
0
0
SPLINE
5
BB
100
AcDbEntity
8
1
62
256
6
ByLayer
370
18
48
1
60
0
100
AcDbSpline
70
4
71
3
72
10
73
6
40
0
40
0
40
0
40
0
40
0.5
40
0.5
40
1
40
1
40
1
40
1
41
1
10
42.9999524211105
20
0.0417778240632742
30
0
41
1
10
42.9962233950887
20
0.02643521847736
30
0
41
1
10
42.9911240151126
20
0.0099867034490728
30
0
41
1
10
42.9788254098119
20
-0.0212435635862107
30
0
41
1
10
42.971589167342
20
-0.0360502487998531
30
0
41
1
10
42.9642588599099
20
-0.0480622444911205
30
0
0
SPLINE
5
BC
100
AcDbEntity
8
1
62
256
6
ByLayer
370
18
48
1
60
0
100
AcDbSpline
70
4
71
3
72
8
73
4
40
0
40
0
40
0
40
0
40
1
40
1
40
1
40
1
41
1
10
42.9894555005145
20
-0.117800456476004
30
0
41
1
10
42.9901472928319
20
-0.0961073944306179
30
0
41
1
10
42.9941284955409
20
-0.0696484000590942
30
0
41
1
10
42.9999524211043
20
-0.0417778240374957
30
0
0
SPLINE
5
BD
100
AcDbEntity
8
1
62
256
6
ByLayer
370
13
48
1
60
0
100
AcDbSpline
70
4
71
3
72
8
73
4
40
0
40
0
40
0
40
0
40
1
40
1
40
1
40
1
41
1
10
11.250259686564
20
-1.02484973461608
30
0
41
1
10
11.2121531476843
20
-1.01461080918244
30
0
41
1
10
11.1749724010353
20
-1.00740511715415
30
0
41
1
10
11.1404283348878
20
-1.00342796065488
30
0
0
SPLINE
5
BE
100
AcDbEntity
8
1
62
256
6
ByLayer
370
18
48
1
60
0
100
AcDbSpline
70
4
71
3
72
41
73
37
40
0
40
0
40
0
40
0
40
0.124999999999982
40
0.124999999999982
40
0.249999999999964
40
0.249999999999964
40
0.312499999999954
40
0.312499999999954
40
0.374999999999945
40
0.374999999999945
40
0.499999999999927
40
0.499999999999927
40
0.562499999999918
40
0.562499999999918
40
0.624999999999909
40
0.624999999999909
40
0.749999999999891
40
0.749999999999891
40
0.812499999999881
40
0.812499999999881
40
0.84374999999988
40
0.851562499999883
40
0.851562499999883
40
0.859374999999886
40
0.859374999999886
40
0.867187499999889
40
0.867187499999889
40
0.871093749999893
40
0.871093749999893
40
0.874999999999896
40
0.874999999999896
40
0.906249999999922
40
0.906249999999922
40
0.937499999999948
40
0.937499999999948
40
1
40
1
40
1
40
1
41
1
10
38.5543148785417
20
1.10353673280883
30
0
41
1
10
38.6941576938125
20
0.990270624707108
30
0
41
1
10
38.8370849749047
20
0.88469088199588
30
0
41
1
10
39.1290858464124
20
0.688847753441081
30
0
41
1
10
39.2781957958985
20
0.598674972945759
30
0
41
1
10
39.5070481676284
20
0.476342713780554
30
0
41
1
10
39.584172916564
20
0.437697943455248
30
0
41
1
10
39.7382931907725
20
0.365625459481151
30
0
41
1
10
39.8155170950063
20
0.332072276107851
30
0
41
1
10
40.0476877263141
20
0.238977395079161
30
0
41
1
10
40.2031283969546
20
0.18692493431081
30
0
41
1
10
40.4374054216285
20
0.125767464689318
30
0
41
1
10
40.5156848776457
20
0.108218695358687
30
0
41
1
10
40.6726497016046
20
0.0792756463267494
30
0
41
1
10
40.7515856861752
20
0.0678496608035459
30
0
41
1
10
40.9869887996215
20
0.043885243885768
30
0
41
1
10
41.141742269864
20
0.0414753868363107
30
0
41
1
10
41.3701062549005
20
0.0612774505266316
30
0
41
1
10
41.4456276607327
20
0.0718459789570716
30
0
41
1
10
41.5567539601564
20
0.094052601547844
30
0
41
1
10
41.6026621183005
20
0.104634139059641
30
0
41
1
10
41.6480530274927
20
0.116958052356779
30
0
41
1
10
41.6661674182241
20
0.122029005383382
30
0
41
1
10
41.6753996000871
20
0.124147877249158
30
0
41
1
10
41.6928440873118
20
0.130619467404387
30
0
41
1
10
41.7011074333067
20
0.135604416725073
30
0
41
1
10
41.7102212573
20
0.147483904838992
30
0
41
1
10
41.712683159094
20
0.15220768542892
30
0
41
1
10
41.7157439070579
20
0.162663113083085
30
0
41
1
10
41.7163012530316
20
0.168449124217347
30
0
41
1
10
41.7199343406554
20
0.220729787613493
30
0
41
1
10
41.7230725909065
20
0.267247372849369
30
0
41
1
10
41.7266390621996
20
0.361007338839897
30
0
41
1
10
41.727471710656
20
0.408135278029249
30
0
41
1
10
41.7273772729134
20
0.550195306529588
30
0
41
1
10
41.7238487650633
20
0.645729187037773
30
0
41
1
10
41.7175251271144
20
0.741150071286086
30
0
0
SPLINE
5
BF
100
AcDbEntity
8
1
62
256
6
ByLayer
370
18
48
1
60
0
100
AcDbSpline
70
4
71
3
72
12
73
8
40
0
40
0
40
0
40
0
40
0.51007432799313
40
0.51007432799313
40
0.765111491989689
40
0.765111491989689
40
1
40
1
40
1
40
1
41
1
10
17.0754990846084
20
-3.35579893783526
30
0
41
1
10
17.3367961539489
20
-3.38459572521944
30
0
41
1
10
17.5974971658746
20
-3.40575441384385
30
0
41
1
10
17.9876683229784
20
-3.42665197702695
30
0
41
1
10
18.1175500412391
20
-3.43181585789719
30
0
41
1
10
18.3665276505417
20
-3.43829339367718
30
0
41
1
10
18.4855935727253
20
-3.43986984695181
30
0
41
1
10
18.604670005497
20
-3.43990302926733
30
0
0
SPLINE
5
C0
100
AcDbEntity
8
1
62
256
6
ByLayer
370
18
48
1
60
0
100
AcDbSpline
70
4
71
3
72
24
73
20
40
0
40
0
40
0
40
0
40
0.105445571213753
40
0.105445571213753
40
0.217264874812034
40
0.217264874812034
40
0.329084178410315
40
0.329084178410315
40
0.440903482008596
40
0.440903482008596
40
0.552722785606876
40
0.552722785606876
40
0.664542089205157
40
0.664542089205157
40
0.776361392803438
40
0.776361392803438
40
0.888180696401719
40
0.888180696401719
40
1
40
1
40
1
40
1
41
1
10
35.0088895397416
20
2.4733003880043
30
0
41
1
10
35.2522528862639
20
2.55790388294719
30
0
41
1
10
35.4950976544334
20
2.63831317365163
30
0
41
1
10
35.9962131263178
20
2.79286116533916
30
0
41
1
10
36.2545481472146
20
2.86639095400147
30
0
41
1
10
36.7711776796088
20
3.00238548209069
30
0
41
1
10
37.0296334877251
20
3.064583661515
30
0
41
1
10
37.5489269346841
20
3.17525301226709
30
0
41
1
10
37.8091030742274
20
3.22436723039434
30
0
41
1
10
38.3313170690756
20
3.30908563649123
30
0
41
1
10
38.5927310563714
20
3.34424598388003
30
0
41
1
10
39.1131100562159
20
3.40008195957384
30
0
41
1
10
39.3720071131612
20
3.42098996448851
30
0
41
1
10
39.8897865542865
20
3.44802965484385
30
0
41
1
10
40.1485809554504
20
3.45431548764978
30
0
41
1
10
40.6650900976574
20
3.45251106291724
30
0
41
1
10
40.9231477552243
20
3.44433639158387
30
0
41
1
10
41.4403434037488
20
3.41377301193009
30
0
41
1
10
41.6991747750801
20
3.39137408164351
30
0
41
1
10
41.9581370093754
20
3.3616199891604
30
0
0
SPLINE
5
C1
100
AcDbEntity
8
1
62
256
6
ByLayer
370
13
48
1
60
0
100
AcDbSpline
70
4
71
3
72
8
73
4
40
0
40
0
40
0
40
0
40
1
40
1
40
1
40
1
41
1
10
11.03419370436
20
-1.04160837053553
30
0
41
1
10
11.0578879611047
20
-1.07215415157447
30
0
41
1
10
11.0940029736191
20
-1.09871574901263
30
0
41
1
10
11.1404283348878
20
-1.11570575761286
30
0
0
SPLINE
5
C2
100
AcDbEntity
8
1
62
256
6
ByLayer
370
18
48
1
60
0
100
AcDbSpline
70
4
71
3
72
8
73
4
40
0
40
0
40
0
40
0
40
1
40
1
40
1
40
1
41
1
10
42.9999524211042
20
0.0417778240438622
30
0
41
1
10
43.0000158634952
20
0.013924244932241
30
0
41
1
10
43.0000158536179
20
-0.0139285814054233
30
0
41
1
10
42.9999524211042
20
-0.0417778240370978
30
0
0
SPLINE
5
C3
100
AcDbEntity
8
1
62
256
6
ByLayer
370
13
48
1
60
0
100
AcDbSpline
70
4
71
3
72
10
73
6
40
0
40
0
40
0
40
0
40
0.5
40
0.5
40
1
40
1
40
1
40
1
41
1
10
11.0123361872202
20
-0.966875468346274
30
0
41
1
10
11.0222924319018
20
-0.97482081272608
30
0
41
1
10
11.0381129601994
20
-0.982070429901285
30
0
41
1
10
11.0812725591495
20
-0.994566827522988
30
0
41
1
10
11.1084215178966
20
-0.999742924860556
30
0
41
1
10
11.1404283348878
20
-1.00342796065488
30
0
0
SPLINE
5
C4
100
AcDbEntity
8
1
62
256
6
ByLayer
370
18
48
1
60
0
100
AcDbSpline
70
4
71
3
72
58
73
54
40
0
40
0
40
0
40
0
40
0.0270544610916073
40
0.0270544610916073
40
0.0644754433573159
40
0.0644754433573159
40
0.101896425623025
40
0.101896425623025
40
0.139317407888733
40
0.139317407888733
40
0.176738390154442
40
0.176738390154442
40
0.21415937242015
40
0.21415937242015
40
0.251580354685859
40
0.251580354685859
40
0.326422319217276
40
0.326422319217276
40
0.363843301482983
40
0.363843301482983
40
0.401264283748691
40
0.401264283748691
40
0.438685266014399
40
0.438685266014399
40
0.476106248280106
40
0.476106248280106
40
0.513527230545813
40
0.513527230545813
40
0.55094821281152
40
0.55094821281152
40
0.588369195077226
40
0.588369195077226
40
0.625790177342933
40
0.625790177342933
40
0.66321115960864
40
0.66321115960864
40
0.700632141874346
40
0.700632141874346
40
0.738053124140053
40
0.738053124140053
40
0.77547410640576
40
0.77547410640576
40
0.812895088671467
40
0.812895088671467
40
0.850316070937173
40
0.850316070937173
40
0.88773705320288
40
0.88773705320288
40
0.925158035468587
40
0.925158035468587
40
0.962579017734293
40
0.962579017734293
40
1
40
1
40
1
40
1
41
1
10
35.0131086291738
20
-2.47220738477486
30
0
41
1
10
34.8515494079613
20
-2.5222889836742
30
0
41
1
10
34.6899210292813
20
-2.57011576693847
30
0
41
1
10
34.3042599612155
20
-2.67804038618866
30
0
41
1
10
34.0802019432143
20
-2.73684060050635
30
0
41
1
10
33.631985888265
20
-2.84816173348938
30
0
41
1
10
33.4080823178382
20
-2.89982043107466
30
0
41
1
10
32.9607481978297
20
-2.99307487184447
30
0
41
1
10
32.7373412738836
20
-3.034344506715
30
0
41
1
10
32.290442098403
20
-3.10631436271106
30
0
41
1
10
32.0669121663236
20
-3.13796500089345
30
0
41
1
10
31.6195010374185
20
-3.19216806453005
30
0
41
1
10
31.3957344236575
20
-3.21458860744247
30
0
41
1
10
30.9474605540486
20
-3.2488554287948
30
0
41
1
10
30.7235313609266
20
-3.25952193069873
30
0
41
1
10
30.0523984277714
20
-3.27826804236639
30
0
41
1
10
29.6060647179351
20
-3.27260979352303
30
0
41
1
10
28.9349675129357
20
-3.23205406901832
30
0
41
1
10
28.7111616910921
20
-3.21284153639007
30
0
41
1
10
28.262736781948
20
-3.16437704836378
30
0
41
1
10
28.0387440437814
20
-3.135547674354
30
0
41
1
10
27.5912647164033
20
-3.06768488083779
30
0
41
1
10
27.3678097646175
20
-3.02901505918476
30
0
41
1
10
26.9208313538334
20
-2.943223191681
30
0
41
1
10
26.697262356411
20
-2.89588607369762
30
0
41
1
10
26.2496933865228
20
-2.79128969530507
30
0
41
1
10
26.0258039113923
20
-2.73381417318853
30
0
41
1
10
25.5772098631597
20
-2.61093832548386
30
0
41
1
10
25.3531485899671
20
-2.5458760153802
30
0
41
1
10
24.9056161869248
20
-2.40814717742882
30
0
41
1
10
24.6821523227504
20
-2.33529279106134
30
0
41
1
10
24.2349225116456
20
-2.18216648613134
30
0
41
1
10
24.0111694701742
20
-2.10215558545676
30
0
41
1
10
23.5634361108524
20
-1.93600376746858
30
0
41
1
10
23.3395307256998
20
-1.84934017607671
30
0
41
1
10
22.8909786666531
20
-1.67105511633935
30
0
41
1
10
22.6670057005827
20
-1.57939552397301
30
0
41
1
10
22.2195514231287
20
-1.39074619685965
30
0
41
1
10
21.9960396700328
20
-1.29395174578184
30
0
41
1
10
21.5488344831622
20
-1.09756907144973
30
0
41
1
10
21.3251603895538
20
-0.997745453493536
30
0
41
1
10
20.8775592256626
20
-0.794709783150353
30
0
41
1
10
20.6535868190865
20
-0.691031678127246
30
0
41
1
10
20.2049756367847
20
-0.482834475956793
30
0
41
1
10
19.9810676292035
20
-0.378163129586113
30
0
41
1
10
19.5339928945008
20
-0.167805022467888
30
0
41
1
10
19.3107670708657
20
-0.0622622842267901
30
0
41
1
10
18.8643198422254
20
0.148324876302013
30
0
41
1
10
18.641118999816
20
0.25338954954276
30
0
41
1
10
18.1948054491598
20
0.46307604280355
30
0
41
1
10
17.9717456368898
20
0.567816039686477
30
0
41
1
10
17.5242409525478
20
0.773647984627956
30
0
41
1
10
17.2999524514044
20
0.875099343727072
30
0
41
1
10
17.0754990846084
20
0.975961699365541
30
0
0
SPLINE
5
C5
100
AcDbEntity
8
1
62
256
6
ByLayer
370
18
48
1
60
0
100
AcDbSpline
70
4
71
3
72
8
73
4
40
0
40
0
40
0
40
0
40
1
40
1
40
1
40
1
41
1
10
42.9894555005145
20
0.117800456476061
30
0
41
1
10
42.9901472928318
20
0.0961073944355348
30
0
41
1
10
42.9941284955391
20
0.0696484000709745
30
0
41
1
10
42.9999524211004
20
0.0417778240563393
30
0
0
SPLINE
5
C6
100
AcDbEntity
8
1
62
256
6
ByLayer
370
18
48
1
60
0
100
AcDbSpline
70
4
71
3
72
8
73
4
40
0
40
0
40
0
40
0
40
1
40
1
40
1
40
1
41
1
10
11.2064884035364
20
-1.14089406472684
30
0
41
1
10
12.4751348517055
20
-1.7204874075
30
0
41
1
10
13.7208580782569
20
-2.23197222481858
30
0
41
1
10
14.9793550378684
20
-2.6165254096141
30
0
0
SPLINE
5
C7
100
AcDbEntity
8
1
62
256
6
ByLayer
370
13
48
1
60
0
100
AcDbSpline
70
4
71
3
72
20
73
16
40
0
40
0
40
0
40
0
40
0.0073171369787354
40
0.0073171369787354
40
0.159755829735311
40
0.159755829735311
40
0.312194522491886
40
0.312194522491886
40
0.617071908005034
40
0.617071908005034
40
0.769510600761607
40
0.769510600761607
40
0.921949293518181
40
0.921949293518181
40
1
40
1
40
1
40
1
41
1
10
14.9793549112831
20
-2.61652537093394
30
0
41
1
10
14.9946404675056
20
-2.62119610884548
30
0
41
1
10
15.0099279081405
20
-2.62584812149035
30
0
41
1
10
15.3437427641877
20
-2.72700487632483
30
0
41
1
10
15.663052160174
20
-2.81545216200655
30
0
41
1
10
16.3044348297112
20
-2.97451507572248
30
0
41
1
10
16.6263479217274
20
-3.04503916002602
30
0
41
1
10
17.5883384629955
20
-3.22592781369261
30
0
41
1
10
18.2282641192523
20
-3.30592423848518
30
0
41
1
10
19.1925997546722
20
-3.36146607213249
30
0
41
1
10
19.5130811070875
20
-3.36913345923796
30
0
41
1
10
20.1511494082998
20
-3.36288931347713
30
0
41
1
10
20.4691436140816
20
-3.34908595178416
30
0
41
1
10
20.9492460399854
20
-3.31239236459996
30
0
41
1
10
21.111675291395
20
-3.29721384662656
30
0
41
1
10
21.27403946467
20
-3.27933169213438
30
0
0
SPLINE
5
C8
100
AcDbEntity
8
1
62
256
6
ByLayer
370
18
48
1
60
0
100
AcDbSpline
70
4
71
3
72
8
73
4
40
0
40
0
40
0
40
0
40
1
40
1
40
1
40
1
41
1
10
11.1388836549579
20
-1.13435154718482
30
0
41
1
10
11.0950676316323
20
-1.11382175952645
30
0
41
1
10
11.0585968897731
20
-1.08139422999554
30
0
41
1
10
11.0341937043597
20
-1.0416083705347
30
0
0
SPLINE
5
C9
100
AcDbEntity
8
1
62
256
6
ByLayer
370
18
48
1
60
0
100
AcDbSpline
70
4
71
3
72
44
73
40
40
0
40
0
40
0
40
0
40
0.0124530628510814
40
0.0124530628510814
40
0.0844620981733395
40
0.0844620981733395
40
0.156471133495597
40
0.156471133495597
40
0.300489204140113
40
0.300489204140113
40
0.444507274784629
40
0.444507274784629
40
0.516516310106887
40
0.516516310106887
40
0.552520827768016
40
0.552520827768016
40
0.570523086598581
40
0.575023651306222
40
0.575023651306222
40
0.579524216013863
40
0.579524216013863
40
0.588525345429145
40
0.588525345429145
40
0.593025910136786
40
0.593025910136786
40
0.597526474844427
40
0.60652760425971
40
0.60652760425971
40
0.624529863090274
40
0.624529863090274
40
0.660534380751403
40
0.660534380751403
40
0.73254341607366
40
0.73254341607366
40
0.876561486718175
40
0.876561486718175
40
0.948570522040433
40
0.948570522040433
40
1
40
1
40
1
40
1
41
1
10
17.0754990846084
20
3.35579893779755
30
0
41
1
10
17.0754990846084
20
3.33296616998192
30
0
41
1
10
17.0754990846084
20
3.31015740887077
30
0
41
1
10
17.0754990846084
20
3.15562025369383
30
0
41
1
10
17.0754990846084
20
3.02467043596914
30
0
41
1
10
17.0754990846084
20
2.76436960231106
30
0
41
1
10
17.0754990846084
20
2.63440351203698
30
0
41
1
10
17.0754990846084
20
2.25319250991293
30
0
41
1
10
17.0754990846084
20
2.00970888355604
30
0
41
1
10
17.0754990846084
20
1.54235674369659
30
0
41
1
10
17.0754990846084
20
1.31850022191532
30
0
41
1
10
17.0754990846084
20
0.997355141877335
30
0
41
1
10
17.0754990846084
20
0.89309274425753
30
0
41
1
10
17.0754990846083
20
0.741904598256838
30
0
41
1
10
17.0754990846084
20
0.692320681442681
30
0
41
1
10
17.0754990846084
20
0.61915735315398
30
0
41
1
10
17.0754990846083
20
0.588937312365715
30
0
41
1
10
17.0754990846083
20
0.559054414914982
30
0
41
1
10
17.0754990846083
20
0.547127864137963
30
0
41
1
10
17.0754990846083
20
0.540888774549416
30
0
41
1
10
17.0754990846083
20
0.524377320020193
30
0
41
1
10
17.0754990846084
20
0.517119829507266
30
0
41
1
10
17.0754990846084
20
0.513880357082229
30
0
41
1
10
17.0754990846084
20
0.513913782598905
30
0
41
1
10
17.0754990846084
20
0.513202167240451
30
0
41
1
10
17.0754990846083
20
0.512201130208268
30
0
41
1
10
17.0754990846084
20
0.511399623431657
30
0
41
1
10
17.0754990846084
20
0.510063730614348
30
0
41
1
10
17.0754990846084
20
0.50952913629834
30
0
41
1
10
17.0754990846084
20
0.509000349155684
30
0
41
1
10
17.0754990846084
20
0.510080915059405
30
0
41
1
10
17.0754990846084
20
0.517676450619319
30
0
41
1
10
17.0754990846083
20
0.528530535038584
30
0
41
1
10
17.0754990846083
20
0.578377891757611
30
0
41
1
10
17.0754990846084
20
0.634519352287754
30
0
41
1
10
17.0754990846084
20
0.755631751625231
30
0
41
1
10
17.0754990846084
20
0.802465190382236
30
0
41
1
10
17.0754990846084
20
0.892350845235455
30
0
41
1
10
17.0754990846084
20
0.932697174842019
30
0
41
1
10
17.0754990846084
20
0.975961699343543
30
0
0
SPLINE
5
CA
100
AcDbEntity
8
1
62
256
6
ByLayer
370
18
48
1
60
0
100
AcDbSpline
70
4
71
3
72
8
73
4
40
0
40
0
40
0
40
0
40
1
40
1
40
1
40
1
41
1
10
41.9581370093742
20
3.3616199891612
30
0
41
1
10
41.8938612828841
20
3.40931549190634
30
0
41
1
10
41.8358041473292
20
3.43928578418516
30
0
41
1
10
41.7837344324734
20
3.449994161257
30
0
0
SPLINE
5
CB
100
AcDbEntity
8
1
62
256
6
ByLayer
370
13
48
1
60
0
100
AcDbSpline
70
4
71
3
72
8
73
4
40
0
40
0
40
0
40
0
40
1
40
1
40
1
40
1
41
1
10
11.138883654958
20
-1.1343515471838
30
0
41
1
10
11.1393959490693
20
-1.1281392115504
30
0
41
1
10
11.1399108430085
20
-1.12192396936857
30
0
41
1
10
11.1404283348878
20
-1.11570575761286
30
0
0
SPLINE
5
CC
100
AcDbEntity
8
1
62
256
6
ByLayer
370
18
48
1
60
0
100
AcDbSpline
70
4
71
3
72
12
73
8
40
0
40
0
40
0
40
0
40
0.41076289956053
40
0.41076289956053
40
0.821525799121061
40
0.821525799121061
40
1
40
1
40
1
40
1
41
1
10
11.0125387028038
20
3.25266799419768
30
0
41
1
10
10.805267502443
20
3.2947203148646
30
0
41
1
10
10.5994517923172
20
3.33133442287362
30
0
41
1
10
10.199589712391
20
3.38997954553545
30
0
41
1
10
10.0042937761686
20
3.41233178032451
30
0
41
1
10
9.73797311002804
20
3.42981598086203
30
0
41
1
10
9.65962694553494
20
3.43313613150943
30
0
41
1
10
9.5844094249546
20
3.43400991890385
30
0
0
SPLINE
5
CD
100
AcDbEntity
8
1
62
256
6
ByLayer
370
18
48
1
60
0
100
AcDbSpline
70
4
71
3
72
14
73
10
40
0
40
0
40
0
40
0
40
0.07350211883183
40
0.07350211883183
40
0.382334745887887
40
0.382334745887887
40
0.691167372943943
40
0.691167372943943
40
1
40
1
40
1
40
1
41
1
10
12.3439844817435
20
2.76818198180973
30
0
41
1
10
12.4634096427058
20
2.78067775822964
30
0
41
1
10
12.5825399815082
20
2.79371514204439
30
0
41
1
10
13.2007118185464
20
2.86398969362199
30
0
41
1
10
13.694925738046
20
2.92914093534341
30
0
41
1
10
14.6744936516472
20
3.06304274825837
30
0
41
1
10
15.1598369734174
20
3.13172366285505
30
0
41
1
10
16.1240832370427
20
3.25694863845925
30
0
41
1
10
16.6019802754956
20
3.31326243923311
30
0
41
1
10
17.0754990846084
20
3.35579893783526
30
0
0
SPLINE
5
CE
100
AcDbEntity
8
1
62
256
6
ByLayer
370
18
48
1
60
0
100
AcDbSpline
70
4
71
3
72
66
73
62
40
0
40
0
40
0
40
0
40
0.0334124055415835
40
0.0334124055415835
40
0.0501186083123753
40
0.0501186083123753
40
0.066824811083167
40
0.066824811083167
40
0.100237216624751
40
0.100237216624751
40
0.133649622166334
40
0.133649622166334
40
0.167062027707918
40
0.167062027707918
40
0.200474433249501
40
0.200474433249501
40
0.233886838791085
40
0.233886838791085
40
0.267299244332668
40
0.267299244332668
40
0.300711649874252
40
0.300711649874252
40
0.334124055415835
40
0.334124055415835
40
0.400948866499002
40
0.400948866499002
40
0.434361272040586
40
0.434361272040586
40
0.46777367758217
40
0.46777367758217
40
0.501186083123754
40
0.501186083123754
40
0.534598488665338
40
0.534598488665338
40
0.568010894206922
40
0.568010894206922
40
0.601423299748506
40
0.601423299748506
40
0.634835705290089
40
0.634835705290089
40
0.668248110831673
40
0.668248110831673
40
0.701660516373257
40
0.701660516373257
40
0.735072921914841
40
0.735072921914841
40
0.768485327456425
40
0.768485327456425
40
0.801897732998009
40
0.801897732998009
40
0.835310138539593
40
0.835310138539593
40
0.868722544081177
40
0.868722544081177
40
0.90213494962276
40
0.90213494962276
40
0.935547355164344
40
0.935547355164344
40
0.968959760705928
40
0.968959760705928
40
1
40
1
40
1
40
1
41
1
10
17.0754990846084
20
3.35579893783526
30
0
41
1
10
17.3367961539489
20
3.38459572521944
30
0
41
1
10
17.5974971658746
20
3.40575441384385
30
0
41
1
10
17.9876683229784
20
3.42665197702695
30
0
41
1
10
18.1175500412392
20
3.43181585789719
30
0
41
1
10
18.3767670898787
20
3.43855978845406
30
0
41
1
10
18.5060182102791
20
3.440129050725
30
0
41
1
10
18.8939039075038
20
3.43937437629029
30
0
41
1
10
19.1525373969777
20
3.43170659875327
30
0
41
1
10
19.6688557763744
20
3.40208419612236
30
0
41
1
10
19.9265826440935
20
3.3800258203795
30
0
41
1
10
20.4431246852955
20
3.3221199121827
30
0
41
1
10
20.7019159785696
20
3.28637971803246
30
0
41
1
10
21.2194014188834
20
3.20037948583075
30
0
41
1
10
21.4787113138681
20
3.15046204510742
30
0
41
1
10
21.9995754415245
20
3.03772567851524
30
0
41
1
10
22.2611874637544
20
2.97412846730234
30
0
41
1
10
22.7833436745615
20
2.83473120899694
30
0
41
1
10
23.0437527994824
20
2.75949216775155
30
0
41
1
10
23.5629668848068
20
2.59787162745732
30
0
41
1
10
23.8213451701113
20
2.51084612116048
30
0
41
1
10
24.3384094430037
20
2.32833736665532
30
0
41
1
10
24.5967778540533
20
2.23246374455047
30
0
41
1
10
25.3705693369707
20
1.9296428877291
30
0
41
1
10
25.8869500131983
20
1.71118738001218
30
0
41
1
10
26.6638785922415
20
1.36101589892283
30
0
41
1
10
26.923935824086
20
1.24185868572511
30
0
41
1
10
27.4452985482715
20
0.996803211651411
30
0
41
1
10
27.7071033764029
20
0.870420526081801
30
0
41
1
10
28.228466031887
20
0.617263290459391
30
0
41
1
10
28.4885512745876
20
0.490249929018432
30
0
41
1
10
29.0065104725424
20
0.233190219697235
30
0
41
1
10
29.2648009406162
20
0.104027438235733
30
0
41
1
10
29.7815681771729
20
-0.152347028435031
30
0
41
1
10
30.0393866591971
20
-0.280922314737552
30
0
41
1
10
30.5550058664756
20
-0.536542959361498
30
0
41
1
10
30.8131514669863
20
-0.662888611615216
30
0
41
1
10
31.3299991633607
20
-0.912897351725547
30
0
41
1
10
31.5882005382174
20
-1.03755942656252
30
0
41
1
10
32.106840400167
20
-1.28079297250284
30
0
41
1
10
32.3670789787948
20
-1.39977780192783
30
0
41
1
10
32.8886948142829
20
-1.63382251966732
30
0
41
1
10
33.1504316313179
20
-1.74807774240887
30
0
41
1
10
33.6712806757938
20
-1.9662694503684
30
0
41
1
10
33.9307064421239
20
-2.07132918002563
30
0
41
1
10
34.4480110719111
20
-2.27259159813732
30
0
41
1
10
34.7066093386266
20
-2.36766250240223
30
0
41
1
10
35.2228963621932
20
-2.54816335165106
30
0
41
1
10
35.4803968155873
20
-2.63377931818866
30
0
41
1
10
35.9962131263177
20
-2.79286116533913
30
0
41
1
10
36.2545481472145
20
-2.86639095400147
30
0
41
1
10
36.7711776796088
20
-3.00238548209063
30
0
41
1
10
37.029633487725
20
-3.064583661515
30
0
41
1
10
37.548926934684
20
-3.17525301226706
30
0
41
1
10
37.8091030742273
20
-3.22436723039431
30
0
41
1
10
38.3313170690756
20
-3.30908563649123
30
0
41
1
10
38.5927310563713
20
-3.34424598388003
30
0
41
1
10
39.1131100562159
20
-3.40008195957384
30
0
41
1
10
39.3720071131611
20
-3.42098996448848
30
0
41
1
10
39.871406271664
20
-3.44706979218557
30
0
41
1
10
40.1118334444482
20
-3.45338647935526
30
0
41
1
10
40.351821955
20
-3.45349672647899
30
0
0
SPLINE
5
CF
100
AcDbEntity
8
1
62
256
6
ByLayer
370
18
48
1
60
0
100
AcDbSpline
70
4
71
3
72
10
73
6
40
0
40
0
40
0
40
0
40
0.5
40
0.5
40
1
40
1
40
1
40
1
41
1
10
41.9581370093694
20
3.3616199891766
30
0
41
1
10
42.1142895113568
20
2.93118812440537
30
0
41
1
10
42.2760586361763
20
2.50238822856002
30
0
41
1
10
42.6092856955594
20
1.64785936028412
30
0
41
1
10
42.7805550626867
20
1.22263937915957
30
0
41
1
10
42.9553791531885
20
0.800743862711698
30
0
0
SPLINE
5
D0
100
AcDbEntity
8
1
62
256
6
ByLayer
370
18
48
1
60
0
100
AcDbSpline
70
4
71
3
72
26
73
22
40
0
40
0
40
0
40
0
40
0.0625000000000009
40
0.0625000000000009
40
0.125000000000002
40
0.125000000000002
40
0.187500000000003
40
0.187500000000003
40
0.250000000000004
40
0.250000000000004
40
0.375000000000002
40
0.375000000000002
40
0.437500000000001
40
0.437500000000001
40
0.5
40
0.5
40
0.624999999999999
40
0.624999999999999
40
0.749999999999997
40
0.749999999999997
40
1
40
1
40
1
40
1
41
1
10
38.5543148785417
20
1.10353673280878
30
0
41
1
10
38.5521687959824
20
1.00033815808357
30
0
41
1
10
38.5574968318887
20
0.895753498198474
30
0
41
1
10
38.5829283386388
20
0.683844054466988
30
0
41
1
10
38.6033389412503
20
0.575655663055699
30
0
41
1
10
38.6569405377359
20
0.364003874281167
30
0
41
1
10
38.6901013669702
20
0.259835217116063
30
0
41
1
10
38.7677124795323
20
0.0544396028445533
30
0
41
1
10
38.8124812203224
20
-0.0473884543256418
30
0
41
1
10
38.9599993402409
20
-0.344267341870989
30
0
41
1
10
39.0744525967229
20
-0.529169522939839
30
0
41
1
10
39.2641102560148
20
-0.791994587495367
30
0
41
1
10
39.3305266990529
20
-0.877293907308513
30
0
41
1
10
39.4683804018717
20
-1.04265633993515
30
0
41
1
10
39.5391858333148
20
-1.12197135127514
30
0
41
1
10
39.7564615344816
20
-1.35120887261542
30
0
41
1
10
39.9077169932615
20
-1.49255685988527
30
0
41
1
10
40.2201912163044
20
-1.75739970713471
30
0
41
1
10
40.3817933647425
20
-1.88105129082908
30
0
41
1
10
40.8773830119686
20
-2.22721123263841
30
0
41
1
10
41.2164809330121
20
-2.42199802282536
30
0
41
1
10
41.562433829496
20
-2.5884457409183
30
0
0
SPLINE
5
D1
100
AcDbEntity
8
1
62
256
6
ByLayer
370
18
48
1
60
0
100
AcDbSpline
70
4
71
3
72
8
73
4
40
0
40
0
40
0
40
0
40
1
40
1
40
1
40
1
41
1
10
41.7837344324734
20
3.44999416125691
30
0
41
1
10
41.666686615651
20
3.45287212494608
30
0
41
1
10
41.549675518496
20
3.45426304078356
30
0
41
1
10
41.4326726977475
20
3.45417137154348
30
0
0
SPLINE
5
D2
100
AcDbEntity
8
1
62
256
6
ByLayer
370
18
48
1
60
0
100
AcDbSpline
70
4
71
3
72
22
73
18
40
0
40
0
40
0
40
0
40
0.10494658751243
40
0.10494658751243
40
0.194451928761186
40
0.194451928761186
40
0.239204599385564
40
0.239204599385564
40
0.283957270009942
40
0.283957270009942
40
0.641978635004971
40
0.641978635004971
40
0.731483976253729
40
0.731483976253729
40
0.820989317502486
40
0.820989317502486
40
1
40
1
40
1
40
1
41
1
10
21.8476991088184
20
-3.27518681482775
30
0
41
1
10
21.4754709053823
20
-3.33187104883811
30
0
41
1
10
21.1034452803164
20
-3.37433455683208
30
0
41
1
10
20.412591875578
20
-3.42558197373171
30
0
41
1
10
20.0941164507585
20
-3.43846784522549
30
0
41
1
10
19.6147020570706
20
-3.44127942858023
30
0
41
1
10
19.4546012822311
20
-3.43946565543303
30
0
41
1
10
19.1336658235365
20
-3.43028436032881
30
0
41
1
10
18.9725582926762
20
-3.422897467273
30
0
41
1
10
17.5255638336369
20
-3.33164930476713
30
0
41
1
10
16.2643208901066
20
-3.07447776870583
30
0
41
1
10
14.6710085405852
20
-2.57780399247247
30
0
41
1
10
14.3515574413842
20
-2.46971838252199
30
0
41
1
10
13.7100009115483
20
-2.23712141337524
30
0
41
1
10
13.3874252295495
20
-2.11264860533152
30
0
41
1
10
12.4233901596573
20
-1.72161049441118
30
0
41
1
10
11.7826599393472
20
-1.43598983872491
30
0
41
1
10
11.1388836549582
20
-1.13435154718496
30
0
0
SPLINE
5
D3
100
AcDbEntity
8
1
62
256
6
ByLayer
370
18
48
1
60
0
100
AcDbSpline
70
4
71
3
72
16
73
12
40
0
40
0
40
0
40
0
40
0.269527755248515
40
0.269527755248515
40
0.404291632872773
40
0.404291632872773
40
0.539055510497031
40
0.539055510497031
40
0.808583265745548
40
0.808583265745548
40
1
40
1
40
1
40
1
41
1
10
41.5624338294959
20
-2.5884457409183
30
0
41
1
10
41.5621630489765
20
-2.70472711429792
30
0
41
1
10
41.567215328408
20
-2.80696785970866
30
0
41
1
10
41.5830043152695
20
-2.93966309189997
30
0
41
1
10
41.5896458548403
20
-2.98043154031134
30
0
41
1
10
41.6058515665928
20
-3.054874830199
30
0
41
1
10
41.6153830717329
20
-3.08830210982583
30
0
41
1
10
41.6479229595925
20
-3.17616031825395
30
0
41
1
10
41.6749729568191
20
-3.21888084587903
30
0
41
1
10
41.7310445941569
20
-3.26553119150935
30
0
41
1
10
41.7573461273179
20
-3.27701368701565
30
0
41
1
10
41.7864522387896
20
-3.28052281832331
30
0
0
SPLINE
5
D4
100
AcDbEntity
8
1
62
256
6
ByLayer
370
18
48
1
60
0
100
AcDbSpline
70
4
71
3
72
10
73
6
40
0
40
0
40
0
40
0
40
0.5
40
0.5
40
1
40
1
40
1
40
1
41
1
10
41.8517013582436
20
0.838026081071206
30
0
41
1
10
42.0356584747515
20
0.831686614826339
30
0
41
1
10
42.2195929505525
20
0.825610370866769
30
0
41
1
10
42.5875110456398
20
0.812886537688968
30
0
41
1
10
42.7714821813621
20
0.806384083171025
30
0
41
1
10
42.9553791531947
20
0.800743862714313
30
0
0
SPLINE
5
D5
100
AcDbEntity
8
1
62
256
6
ByLayer
370
18
48
1
60
0
100
AcDbSpline
70
4
71
3
72
8
73
4
40
0
40
0
40
0
40
0
40
1
40
1
40
1
40
1
41
1
10
41.958137009374
20
-3.36161998916137
30
0
41
1
10
41.893861282884
20
-3.40931549190643
30
0
41
1
10
41.8358041473292
20
-3.43928578418519
30
0
41
1
10
41.7837344324734
20
-3.449994161257
30
0
0
SPLINE
5
D6
100
AcDbEntity
8
1
62
256
6
ByLayer
370
18
48
1
60
0
100
AcDbSpline
70
4
71
3
72
8
73
4
40
0
40
0
40
0
40
0
40
1
40
1
40
1
40
1
41
1
10
41.8136338889798
20
-3.3754880585486
30
0
41
1
10
41.8036794623851
20
-3.40034472495654
30
0
41
1
10
41.7937126119679
20
-3.42518047412801
30
0
41
1
10
41.7837344324734
20
-3.44999416125691
30
0
0
SPLINE
5
D7
100
AcDbEntity
8
1
62
256
6
ByLayer
370
18
48
1
60
0
100
AcDbSpline
70
4
71
3
72
8
73
4
40
0
40
0
40
0
40
0
40
1
40
1
40
1
40
1
41
1
10
42.9553791531872
20
0.800743862714796
30
0
41
1
10
42.9708457953363
20
0.572825287495249
30
0
41
1
10
42.9822044408112
20
0.345177494443988
30
0
41
1
10
42.9894555005145
20
0.117800456476061
30
0
0
SPLINE
5
D8
100
AcDbEntity
8
1
62
256
6
ByLayer
370
18
48
1
60
0
100
AcDbSpline
70
4
71
3
72
8
73
4
40
0
40
0
40
0
40
0
40
1
40
1
40
1
40
1
41
1
10
42.96425885991
20
-0.0480622444911489
30
0
41
1
10
42.4651535068787
20
-0.865933992121427
30
0
41
1
10
41.997510465201
20
-1.71239407779885
30
0
41
1
10
41.5624338294959
20
-2.58844574091827
30
0
0
SPLINE
5
D9
100
AcDbEntity
8
1
62
256
6
ByLayer
370
18
48
1
60
0
100
AcDbSpline
70
4
71
3
72
58
73
54
40
0
40
0
40
0
40
0
40
0.0625000000000038
40
0.0625000000000038
40
0.125000000000007
40
0.125000000000007
40
0.156250000000009
40
0.156250000000009
40
0.187500000000011
40
0.187500000000011
40
0.218750000000013
40
0.218750000000013
40
0.234375000000014
40
0.234375000000014
40
0.250000000000014
40
0.250000000000014
40
0.265625000000015
40
0.265625000000015
40
0.281250000000015
40
0.281250000000015
40
0.296875000000016
40
0.296875000000016
40
0.312500000000016
40
0.312500000000016
40
0.343750000000016
40
0.343750000000016
40
0.375000000000016
40
0.375000000000016
40
0.406250000000016
40
0.406250000000016
40
0.414062500000016
40
0.414062500000016
40
0.421875000000017
40
0.421875000000017
40
0.425781250000017
40
0.425781250000017
40
0.429687500000017
40
0.429687500000017
40
0.433593750000017
40
0.433593750000017
40
0.437500000000017
40
0.437500000000017
40
0.500000000000015
40
0.500000000000015
40
0.562500000000013
40
0.562500000000013
40
0.625000000000011
40
0.625000000000011
40
0.750000000000007
40
0.750000000000007
40
0.875000000000004
40
0.875000000000004
40
1
40
1
40
1
40
1
41
1
10
11.0125387028038
20
-3.25266799419768
30
0
41
1
10
10.8052675024435
20
-3.29472031486452
30
0
41
1
10
10.5994517923181
20
-3.33133442287345
30
0
41
1
10
10.1995897123929
20
-3.3899795455352
30
0
41
1
10
10.004293776171
20
-3.41233178032425
30
0
41
1
10
9.72581169581218
20
-3.43061438906693
30
0
41
1
10
9.63605631723311
20
-3.43409233595494
30
0
41
1
10
9.46515477905638
20
-3.43438105695827
30
0
41
1
10
9.38393706011942
20
-3.43123367814772
30
0
41
1
10
9.23477739451127
20
-3.41553595733564
30
0
41
1
10
9.16832425698587
20
-3.40317835115957
30
0
41
1
10
9.08837036181052
20
-3.37479433584136
30
0
41
1
10
9.06509774436606
20
-3.36360985145777
30
0
41
1
10
9.02849108159182
20
-3.33790305581365
30
0
41
1
10
9.01496370116382
20
-3.32332527312155
30
0
41
1
10
8.99954862303321
20
-3.29016653180875
30
0
41
1
10
8.99792526792149
20
-3.27176500695057
30
0
41
1
10
9.0075541893718
20
-3.23264725407711
30
0
41
1
10
9.01872556048716
20
-3.21176708303938
30
0
41
1
10
9.05387920177429
20
-3.16755199177149
30
0
41
1
10
9.07730820486734
20
-3.14493917534495
30
0
41
1
10
9.13372294759287
20
-3.09931974057582
30
0
41
1
10
9.16705406280113
20
-3.07609589240042
30
0
41
1
10
9.27637353683707
20
-3.00784630477383
30
0
41
1
10
9.3616117695731
20
-2.9638656848733
30
0
41
1
10
9.54772594136526
20
-2.87863177050642
30
0
41
1
10
9.64754604751892
20
-2.83796061086068
30
0
41
1
10
9.85409568735344
20
-2.76061410552151
30
0
41
1
10
9.96154219924924
20
-2.72369274710704
30
0
41
1
10
10.0985827089633
20
-2.67977463581173
30
0
41
1
10
10.1261241748108
20
-2.67110455363252
30
0
41
1
10
10.1814552250369
20
-2.65398186882007
30
0
41
1
10
10.2093730944105
20
-2.64570902996195
30
0
41
1
10
10.2510111857412
20
-2.632878354604
30
0
41
1
10
10.2649977133335
20
-2.62873374565541
30
0
41
1
10
10.2952628275792
20
-2.62365946450947
30
0
41
1
10
10.3114732068998
20
-2.6222609667368
30
0
41
1
10
10.3437007855642
20
-2.6213155144103
30
0
41
1
10
10.3596714022858
20
-2.62189277282729
30
0
41
1
10
10.3915822154305
20
-2.62326955018659
30
0
41
1
10
10.4075421966466
20
-2.62392404983788
30
0
41
1
10
10.67884198754
20
-2.63519054755903
30
0
41
1
10
10.9336747887748
20
-2.64943692995806
30
0
41
1
10
11.4423477149432
20
-2.68453919573773
30
0
41
1
10
11.6962308173267
20
-2.70540473469924
30
0
41
1
10
12.2007713976055
20
-2.75254626442475
30
0
41
1
10
12.4517151560954
20
-2.77884281142329
30
0
41
1
10
13.2007118185425
20
-2.86398969362148
30
0
41
1
10
13.6949257380428
20
-2.92914093534299
30
0
41
1
10
14.6744936516446
20
-3.06304274825803
30
0
41
1
10
15.1598369734146
20
-3.13172366285465
30
0
41
1
10
16.1240832370388
20
-3.25694863845877
30
0
41
1
10
16.6019802754944
20
-3.313262439233
30
0
41
1
10
17.0754990846084
20
-3.35579893783526
30
0
0
SPLINE
5
DA
100
AcDbEntity
8
1
62
256
6
ByLayer
370
18
48
1
60
0
100
AcDbSpline
70
4
71
3
72
18
73
14
40
0
40
0
40
0
40
0
40
0.249999999999999
40
0.249999999999999
40
0.375
40
0.375
40
0.500000000000001
40
0.500000000000001
40
0.750000000000001
40
0.750000000000001
40
0.875
40
0.875
40
1
40
1
40
1
40
1
41
1
10
17.0754990846084
20
0.975961699365541
30
0
41
1
10
16.5714921066082
20
1.18890128177566
30
0
41
1
10
16.0738257109993
20
1.40639735585185
30
0
41
1
10
15.330430449227
20
1.72116763485869
30
0
41
1
10
15.0836261135399
20
1.82391764646505
30
0
41
1
10
14.5939442519685
20
2.0211884980163
30
0
41
1
10
14.3505583061951
20
2.11642620269177
30
0
41
1
10
13.6235230949758
20
2.39198545363925
30
0
41
1
10
13.1431952768013
20
2.55980563423063
30
0
41
1
10
12.4283763992049
20
2.77893550838272
30
0
41
1
10
12.1910208686769
20
2.84706373762197
30
0
41
1
10
11.7187161470609
20
2.97149664502953
30
0
41
1
10
11.4837487448526
20
3.02778818010455
30
0
41
1
10
11.2507253702795
20
3.07667578627223
30
0
0
SPLINE
5
DB
100
AcDbEntity
8
1
62
256
6
ByLayer
370
18
48
1
60
0
100
AcDbSpline
70
4
71
3
72
14
73
10
40
0
40
0
40
0
40
0
40
0.25
40
0.25
40
0.5
40
0.5
40
0.75
40
0.75
40
1
40
1
40
1
40
1
41
1
10
11.0125387028041
20
-3.25266799419694
30
0
41
1
10
11.020614205284
20
-3.2326660442574
30
0
41
1
10
11.0327274744278
20
-3.21238241912454
30
0
41
1
10
11.0650825038572
20
-3.17331998289035
30
0
41
1
10
11.0852395593355
20
-3.15481055877095
30
0
41
1
10
11.1299220655032
20
-3.12294725096751
30
0
41
1
10
11.1544285793472
20
-3.10957414923865
30
0
41
1
10
11.2029980442799
20
-3.0889995783871
30
0
41
1
10
11.2273434394018
20
-3.0815812453493
30
0
41
1
10
11.2507253698943
20
-3.07667578635289
30
0
0
SPLINE
5
DC
100
AcDbEntity
8
1
62
256
6
ByLayer
370
18
48
1
60
0
100
AcDbSpline
70
4
71
3
72
14
73
10
40
0
40
0
40
0
40
0
40
0.25
40
0.25
40
0.5
40
0.5
40
0.75
40
0.75
40
1
40
1
40
1
40
1
41
1
10
41.7175251271142
20
0.741150071286057
30
0
41
1
10
41.7165092167736
20
0.756479706505502
30
0
41
1
10
41.7195900962877
20
0.772041237128917
30
0
41
1
10
41.7347252136589
20
0.799092947375584
30
0
41
1
10
41.7467579468572
20
0.810406902215703
30
0
41
1
10
41.7739008859108
20
0.826424582432111
30
0
41
1
10
41.7892312637791
20
0.831582542699806
30
0
41
1
10
41.8200627478076
20
0.837600631036196
30
0
41
1
10
41.8359112199029
20
0.838570235333407
30
0
41
1
10
41.8517013582436
20
0.838026081071206
30
0
0
SPLINE
5
DD
100
AcDbEntity
8
1
62
256
6
ByLayer
370
18
48
1
60
0
100
AcDbSpline
70
4
71
3
72
8
73
4
40
0
40
0
40
0
40
0
40
1
40
1
40
1
40
1
41
1
10
11.0341937043597
20
-1.04160837053462
30
0
41
1
10
11.0202886827028
20
-1.01893824661136
30
0
41
1
10
11.0123343103831
20
-0.993350033710129
30
0
41
1
10
11.0123361872232
20
-0.966875468350509
30
0
0
SPLINE
5
DE
100
AcDbEntity
8
1
62
256
6
ByLayer
370
18
48
1
60
0
100
AcDbSpline
70
4
71
3
72
28
73
24
40
0
40
0
40
0
40
0
40
0.0398857719732309
40
0.0398857719732309
40
0.119895290975462
40
0.119895290975462
40
0.199904809977693
40
0.199904809977693
40
0.279914328979923
40
0.279914328979923
40
0.359923847982154
40
0.359923847982154
40
0.439933366984385
40
0.439933366984385
40
0.519942885986615
40
0.519942885986615
40
0.679961923991077
40
0.679961923991077
40
0.839980961995539
40
0.839980961995539
40
0.919990480997769
40
0.919990480997769
40
1
40
1
40
1
40
1
41
1
10
30.1658339068046
20
3.27167678839785
30
0
41
1
10
30.2774275122316
20
3.2708640966965
30
0
41
1
10
30.3890973779175
20
3.26886986559501
30
0
41
1
10
30.7250930448545
20
3.25946515488391
30
0
41
1
10
30.9490430656263
20
3.24874932004258
30
0
41
1
10
31.3959556943148
20
3.21455677188914
30
0
41
1
10
31.619255993261
20
3.19219048217803
30
0
41
1
10
32.0661313082095
20
3.138066852815
30
0
41
1
10
32.2895824896383
20
3.10644223045384
30
0
41
1
10
32.7366888978572
20
3.03446009743095
30
0
41
1
10
32.9605319042136
20
2.99312334125338
30
0
41
1
10
33.4087525131637
20
2.89967733467469
30
0
41
1
10
33.6325006571397
20
2.84803251333045
30
0
41
1
10
34.0794577863702
20
2.73702679188085
30
0
41
1
10
34.3030430899196
20
2.67836173466102
30
0
41
1
10
34.97376409676
20
2.49072240036645
30
0
41
1
10
35.4207583965534
20
2.34580839523221
30
0
41
1
10
36.3173299619561
20
2.02894662334839
30
0
41
1
10
36.764075839759
20
1.85711613071024
30
0
41
1
10
37.4349613948348
20
1.58647646515504
30
0
41
1
10
37.6584864188426
20
1.49334030347157
30
0
41
1
10
38.1059269001986
20
1.30154461772324
30
0
41
1
10
38.330210865584
20
1.20327814986848
30
0
41
1
10
38.5543148785239
20
1.10353673281679
30
0
0
SPLINE
5
DF
100
AcDbEntity
8
1
62
256
6
ByLayer
370
18
48
1
60
0
100
AcDbSpline
70
4
71
3
72
16
73
12
40
0
40
0
40
0
40
0
40
0.125090457050181
40
0.125090457050181
40
0.28806240433502
40
0.28806240433502
40
0.614006298904691
40
0.614006298904691
40
0.939950193474363
40
0.939950193474363
40
1
40
1
40
1
40
1
41
1
10
30.588182650591
20
-0.0140423454849952
30
0
41
1
10
30.8344776418566
20
-0.134062847150091
30
0
41
1
10
31.0812543114987
20
-0.254305410605923
30
0
41
1
10
31.6465491912023
20
-0.528245243340024
30
0
41
1
10
31.9650025643944
20
-0.681357529261248
30
0
41
1
10
32.9180562668205
20
-1.13153966252045
30
0
41
1
10
33.5501610947043
20
-1.41985420904515
30
0
41
1
10
34.8169589423588
20
-1.95536466463852
30
0
41
1
10
35.4517239215817
20
-2.20225772541909
30
0
41
1
10
36.2102568496596
20
-2.46058503691492
30
0
41
1
10
36.3286092297619
20
-2.49984708087038
30
0
41
1
10
36.4469131647314
20
-2.53799051356248
30
0
0
SPLINE
5
E0
100
AcDbEntity
8
1
62
256
6
ByLayer
370
13
48
1
60
0
100
AcDbSpline
70
4
71
3
72
14
73
10
40
0
40
0
40
0
40
0
40
0.0233566656590082
40
0.0233566656590082
40
0.112142423326367
40
0.112142423326367
40
0.289713938661093
40
0.289713938661093
40
1
40
1
40
1
40
1
41
1
10
36.4469122125881
20
-2.5379902065734
30
0
41
1
10
36.4891438554785
20
-2.55160649142826
30
0
41
1
10
36.5313693250566
20
-2.56508022978301
30
0
41
1
10
36.7339908179255
20
-2.62904534756959
30
0
41
1
10
36.8940000529517
20
-2.67749062180269
30
0
41
1
10
37.3730302639883
20
-2.81596856865224
30
0
41
1
10
37.6910155993855
20
-2.89918687783722
30
0
41
1
10
39.2769640357848
20
-3.26779834546869
30
0
41
1
10
40.5339024496268
20
-3.40936815810153
30
0
41
1
10
41.8136338889716
20
-3.37548805854462
30
0
0
SPLINE
5
E1
100
AcDbEntity
8
1
62
256
6
ByLayer
370
18
48
1
60
0
100
AcDbSpline
70
4
71
3
72
31
73
27
40
0
40
0
40
0
40
0
40
0.0742341828292618
40
0.136399934775987
40
0.180163426532789
40
0.21048032450959
40
0.253724723818327
40
0.296771202491355
40
0.327931076175389
40
0.359437367141142
40
0.400513588490278
40
0.449065948984415
40
0.503803906551134
40
0.545978815708876
40
0.574797364391994
40
0.613030770515159
40
0.661775742568818
40
0.707142838682221
40
0.745512259730103
40
0.78554799615137
40
0.834481114422638
40
0.873522670672297
40
0.896919457672411
40
0.93594671468581
40
0.992845794725827
40
1
40
1
40
1
40
1
41
1
10
19.8603759134473
20
-3.26797900503942
30
0
41
1
10
20.1113583601074
20
-3.26777357550603
30
0
41
1
10
20.5725463465325
20
-3.26757491374355
30
0
41
1
10
21.1800638905064
20
-3.26913136284273
30
0
41
1
10
21.6417235909973
20
-3.2687786473067
30
0
41
1
10
22.0392750815786
20
-3.26896948168002
30
0
41
1
10
22.4348314967865
20
-3.26970443061435
30
0
41
1
10
22.8331224342838
20
-3.27005242612961
30
0
41
1
10
23.1916139634217
20
-3.26997749426357
30
0
41
1
10
23.5434389842595
20
-3.26987882202525
30
0
41
1
10
23.9542441733031
20
-3.26969636896879
30
0
41
1
10
24.4438377688181
20
-3.27045193222864
30
0
41
1
10
24.9371554836397
20
-3.27053559187644
30
0
41
1
10
25.363545753828
20
-3.27014117053736
30
0
41
1
10
25.7339703474269
20
-3.27040040537995
30
0
41
1
10
26.1266587008771
20
-3.27118125434006
30
0
41
1
10
26.5754564448086
20
-3.27171141538565
30
0
41
1
10
27.0247597206709
20
-3.2710414536713
30
0
41
1
10
27.444478723653
20
-3.27064649815384
30
0
41
1
10
27.8762763826794
20
-3.27158119951278
30
0
41
1
10
28.3104012139608
20
-3.27181599458916
30
0
41
1
10
28.6881049721177
20
-3.27268383672899
30
0
41
1
10
29.032066042276
20
-3.27304238851701
30
0
41
1
10
29.4367532857245
20
-3.27274862932171
30
0
41
1
10
29.786356078416
20
-3.27192509572438
30
0
41
1
10
30.0035437668047
20
-3.27226413649842
30
0
41
1
10
30.0278014393866
20
-3.27230623768901
30
0
0
SPLINE
5
E2
100
AcDbEntity
8
1
62
256
6
ByLayer
370
18
48
1
60
0
100
AcDbSpline
70
4
71
3
72
27
73
23
40
0
40
0
40
0
40
0
40
0.0011894761554218
40
0.0633567053223335
40
0.120670056100205
40
0.168557052227757
40
0.204840974895666
40
0.240617833939452
40
0.296103231044995
40
0.359213731761962
40
0.41326935753169
40
0.459772388494604
40
0.50008618285113
40
0.544081066820349
40
0.621273498192005
40
0.688987477208585
40
0.766055860813995
40
0.853235042444917
40
0.909100674184201
40
0.947220028434285
40
0.995071182587279
40
1
40
1
40
1
40
1
41
1
10
30.1668088773974
20
3.27176499679948
30
0
41
1
10
30.1635175706427
20
3.27175548671732
30
0
41
1
10
29.9882007715401
20
3.27125712166151
30
0
41
1
10
29.6513285114033
20
3.27169400466067
30
0
41
1
10
29.1880221930449
20
3.27298968725242
30
0
41
1
10
28.7965185884878
20
3.27293083046695
30
0
41
1
10
28.4627453070586
20
3.27206171792071
30
0
41
1
10
28.1084879705478
20
3.27179238042226
30
0
41
1
10
27.6791839129369
20
3.27106384588768
30
0
41
1
10
27.1992329588741
20
3.27070973798917
30
0
41
1
10
26.7442027862653
20
3.27154435605857
30
0
41
1
10
26.3525604604561
20
3.27153170373978
30
0
41
1
10
25.9888870672917
20
3.27090064372163
30
0
41
1
10
25.5398945686097
20
3.27005339126555
30
0
41
1
10
25.0147236423237
20
3.27052365569966
30
0
41
1
10
24.3976017411083
20
3.27040964517303
30
0
41
1
10
23.7527308917777
20
3.26956840800901
30
0
41
1
10
23.140774376638
20
3.27006860414892
30
0
41
1
10
22.6371366703566
20
3.26999986205593
30
0
41
1
10
22.2428111726729
20
3.26927814037919
30
0
41
1
10
21.9901086532834
20
3.26899602827862
30
0
41
1
10
21.8433747360837
20
3.26893332410225
30
0
41
1
10
21.8296720728334
20
3.26892824173885
30
0
0
SPLINE
5
E3
100
AcDbEntity
8
1
62
256
6
ByLayer
370
18
48
1
60
0
100
AcDbSpline
70
4
71
1
72
4
73
2
40
0
40
0
40
1
40
1
41
1
10
41.5769566455961
20
-3.28157826709972
30
0
41
1
10
41.787975432847
20
-3.28056211493501
30
0
0
LINE
5
7B
100
AcDbEntity
8
SK1
62
256
6
ByLayer
370
18
48
1
60
0
100
AcDbLine
10
-34.76
20
4
30
0
11
-34.76
21
-4
31
0
39
0
210
0
220
0
230
1
0
LINE
5
7D
100
AcDbEntity
8
SK1
62
256
6
ByLayer
370
18
48
1
60
0
100
AcDbLine
10
-36
20
2.76
30
0
11
-36
21
-2.76
31
0
39
0
210
0
220
0
230
1
0
LINE
5
7E
100
AcDbEntity
8
SK1
62
256
6
ByLayer
370
18
48
1
60
0
100
AcDbLine
10
0
20
-4
30
0
11
0
21
4
31
0
39
0
210
0
220
0
230
1
0
LINE
5
7F
100
AcDbEntity
8
1
62
256
6
ByLayer
370
13
48
1
60
0
100
AcDbLine
10
41.851701
20
0.838026
30
0
11
42.989456
21
0.1178
31
0
39
0
210
0
220
0
230
1
0
LINE
5
80
100
AcDbEntity
8
1
62
256
6
ByLayer
370
18
48
1
60
0
100
AcDbLine
10
0
20
-4
30
0
11
0
21
4
31
0
39
0
210
0
220
0
230
1
0
LINE
5
81
100
AcDbEntity
8
1
62
256
6
ByLayer
370
13
48
1
60
0
100
AcDbLine
10
0.612591
20
3.714521
30
0
11
0.612591
21
-3.714521
31
0
39
0
210
0
220
0
230
1
0
LINE
5
82
100
AcDbEntity
8
1
62
256
6
ByLayer
370
13
48
1
60
0
100
AcDbLine
10
41.717525
20
0.74115
30
0
11
42.964259
21
-0.048062
31
0
39
0
210
0
220
0
230
1
0
LINE
5
83
100
AcDbEntity
8
1
62
256
6
ByLayer
370
13
48
1
60
0
100
AcDbLine
10
1.225683
20
3.429042
30
0
11
1.225683
21
-3.429042
31
0
39
0
210
0
220
0
230
1
0
LINE
5
84
100
AcDbEntity
8
80
62
256
6
ByLayer
370
18
48
1
60
0
100
AcDbLine
10
0
20
0
30
0
11
-5
21
0
31
0
39
0
210
0
220
0
230
1
0
LINE
5
85
100
AcDbEntity
8
4
62
256
6
ByLayer
370
18
48
0.05
60
0
100
AcDbLine
10
43
20
0
30
0
11
0
21
0
31
0
39
0
210
0
220
0
230
1
0
LINE
5
87
100
AcDbEntity
8
SK4
62
256
6
ByLayer
370
18
48
0.05
60
0
100
AcDbLine
10
48
20
0
30
0
11
-41
21
0
31
0
39
0
210
0
220
0
230
1
0
LINE
5
89
100
AcDbEntity
8
1
62
256
6
ByLayer
370
18
48
1
60
0
100
AcDbLine
10
18.60033
20
-3.439901
30
0
11
19.684023
21
-3.440579
31
0
39
0
210
0
220
0
230
1
0
LINE
5
8A
100
AcDbEntity
8
1
62
256
6
ByLayer
370
18
48
1
60
0
100
AcDbLine
10
19.684123
20
3.440579
30
0
11
18.60033
21
3.439901
31
0
39
0
210
0
220
0
230
1
0
LINE
5
8B
100
AcDbEntity
8
SK1
62
256
6
ByLayer
370
18
48
1
60
0
100
AcDbLine
10
-34.76
20
-4
30
0
11
0
21
-4
31
0
39
0
210
0
220
0
230
1
0
LINE
5
8C
100
AcDbEntity
8
SK1
62
256
6
ByLayer
370
18
48
1
60
0
100
AcDbLine
10
0
20
4
30
0
11
-34.76
21
4
31
0
39
0
210
0
220
0
230
1
0
LINE
5
8D
100
AcDbEntity
8
SK1
62
256
6
ByLayer
370
18
48
1
60
0
100
AcDbLine
10
-36
20
-2.76
30
0
11
-34.76
21
-4
31
0
39
0
210
0
220
0
230
1
0
LINE
5
8E
100
AcDbEntity
8
SK1
62
256
6
ByLayer
370
18
48
1
60
0
100
AcDbLine
10
-34.76
20
4
30
0
11
-36
21
2.76
31
0
39
0
210
0
220
0
230
1
0
LINE
5
8F
100
AcDbEntity
8
1
62
256
6
ByLayer
370
18
48
1
60
0
100
AcDbLine
10
1.225683
20
-3.429042
30
0
11
9.571841
21
-3.434259
31
0
39
0
210
0
220
0
230
1
0
LINE
5
90
100
AcDbEntity
8
1
62
256
6
ByLayer
370
18
48
1
60
0
100
AcDbLine
10
40.348356
20
-3.453494
30
0
11
41.435172
21
-3.454173
31
0
39
0
210
0
220
0
230
1
0
LINE
5
91
100
AcDbEntity
8
1
62
256
6
ByLayer
370
18
48
1
60
0
100
AcDbLine
10
41.435088
20
3.454173
30
0
11
40.348356
21
3.453494
31
0
39
0
210
0
220
0
230
1
0
LINE
5
92
100
AcDbEntity
8
1
62
256
6
ByLayer
370
18
48
1
60
0
100
AcDbLine
10
9.571841
20
3.434259
30
0
11
1.225683
21
3.429042
31
0
39
0
210
0
220
0
230
1
0
LINE
5
93
100
AcDbEntity
8
81
62
256
6
ByLayer
370
18
48
1
60
0
100
AcDbLine
10
43
20
0
30
0
11
48
21
0
31
0
39
0
210
0
220
0
230
1
0
LINE
5
94
100
AcDbEntity
8
SK2
62
256
6
ByLayer
370
13
48
1
60
0
100
AcDbLine
10
-44.625163
20
-4
30
0
11
-44.625163
21
33.117107
31
0
39
0
210
0
220
0
230
1
0
LINE
5
96
100
AcDbEntity
8
SK2
62
256
6
ByLayer
370
13
48
1
60
0
100
AcDbLine
10
-37.5875
20
4
30
0
11
-46.625163
21
4
31
0
39
0
210
0
220
0
230
1
0
LINE
5
97
100
AcDbEntity
8
SK2
62
256
6
ByLayer
370
13
48
1
60
0
100
AcDbLine
10
-37.5875
20
-4
30
0
11
-46.625163
21
-4
31
0
39
0
210
0
220
0
230
1
0
LINE
5
98
100
AcDbEntity
8
1
62
256
6
ByLayer
370
18
48
1
60
1
100
AcDbLine
10
-44.625163
20
4
30
0
11
-44.164379
21
0.500002
31
0
39
0
210
0
220
0
230
1
0
LINE
5
99
100
AcDbEntity
8
1
62
256
6
ByLayer
370
18
48
1
60
1
100
AcDbLine
10
-44.164379
20
0.500002
30
0
11
-45.085946
21
0.499998
31
0
39
0
210
0
220
0
230
1
0
LINE
5
9A
100
AcDbEntity
8
1
62
256
6
ByLayer
370
18
48
1
60
1
100
AcDbLine
10
-45.085946
20
0.499998
30
0
11
-44.625163
21
4
31
0
39
0
210
0
220
0
230
1
0
LINE
5
9B
100
AcDbEntity
8
1
62
256
6
ByLayer
370
18
48
1
60
1
100
AcDbLine
10
-44.625163
20
-4
30
0
11
-45.085946
21
-0.500002
31
0
39
0
210
0
220
0
230
1
0
LINE
5
9C
100
AcDbEntity
8
1
62
256
6
ByLayer
370
18
48
1
60
1
100
AcDbLine
10
-45.085946
20
-0.500002
30
0
11
-44.164379
21
-0.499998
31
0
39
0
210
0
220
0
230
1
0
LINE
5
9D
100
AcDbEntity
8
1
62
256
6
ByLayer
370
18
48
1
60
1
100
AcDbLine
10
-44.164379
20
-0.499998
30
0
11
-44.625163
21
-4
31
0
39
0
210
0
220
0
230
1
0
LINE
5
9E
100
AcDbEntity
8
2
62
256
6
ByLayer
370
13
48
1
60
0
100
AcDbLine
10
55.083343
20
31.164693
30
0
11
55.083343
21
-12.2045
31
0
39
0
210
0
220
0
230
1
0
LINE
5
A0
100
AcDbEntity
8
2
62
256
6
ByLayer
370
13
48
1
60
0
100
AcDbLine
10
43.5692
20
3.4545
30
0
11
57.083343
21
3.4545
31
0
39
0
210
0
220
0
230
1
0
LINE
5
A1
100
AcDbEntity
8
2
62
256
6
ByLayer
370
13
48
1
60
0
100
AcDbLine
10
43.5692
20
-3.4545
30
0
11
57.083343
21
-3.4545
31
0
39
0
210
0
220
0
230
1
0
LINE
5
A2
100
AcDbEntity
8
1
62
256
6
ByLayer
370
18
48
1
60
1
100
AcDbLine
10
55.083343
20
3.4545
30
0
11
54.622559
21
6.954498
31
0
39
0
210
0
220
0
230
1
0
LINE
5
A3
100
AcDbEntity
8
1
62
256
6
ByLayer
370
18
48
1
60
1
100
AcDbLine
10
54.622559
20
6.954498
30
0
11
55.544126
21
6.954502
31
0
39
0
210
0
220
0
230
1
0
LINE
5
A4
100
AcDbEntity
8
1
62
256
6
ByLayer
370
18
48
1
60
1
100
AcDbLine
10
55.544126
20
6.954502
30
0
11
55.083343
21
3.4545
31
0
39
0
210
0
220
0
230
1
0
LINE
5
A5
100
AcDbEntity
8
1
62
256
6
ByLayer
370
18
48
1
60
1
100
AcDbLine
10
55.083343
20
-3.4545
30
0
11
55.544126
21
-6.954498
31
0
39
0
210
0
220
0
230
1
0
LINE
5
A6
100
AcDbEntity
8
1
62
256
6
ByLayer
370
18
48
1
60
1
100
AcDbLine
10
55.544126
20
-6.954498
30
0
11
54.622559
21
-6.954502
31
0
39
0
210
0
220
0
230
1
0
LINE
5
A7
100
AcDbEntity
8
1
62
256
6
ByLayer
370
18
48
1
60
1
100
AcDbLine
10
54.622559
20
-6.954502
30
0
11
55.083343
21
-3.4545
31
0
39
0
210
0
220
0
230
1
0
LINE
5
EA
100
AcDbEntity
8
1
62
256
6
ByLayer
370
18
48
1
60
1
100
AcDbLine
10
-44.625163
20
4
30
0
11
-44.164379
21
0.500002
31
0
39
0
210
0
220
0
230
1
0
LINE
5
EB
100
AcDbEntity
8
1
62
256
6
ByLayer
370
18
48
1
60
1
100
AcDbLine
10
-44.164379
20
0.500002
30
0
11
-45.085946
21
0.499998
31
0
39
0
210
0
220
0
230
1
0
LINE
5
EC
100
AcDbEntity
8
1
62
256
6
ByLayer
370
18
48
1
60
1
100
AcDbLine
10
-45.085946
20
0.499998
30
0
11
-44.625163
21
4
31
0
39
0
210
0
220
0
230
1
0
LINE
5
EE
100
AcDbEntity
8
1
62
256
6
ByLayer
370
18
48
1
60
1
100
AcDbLine
10
-44.625163
20
-4
30
0
11
-45.085946
21
-0.500002
31
0
39
0
210
0
220
0
230
1
0
LINE
5
EF
100
AcDbEntity
8
1
62
256
6
ByLayer
370
18
48
1
60
1
100
AcDbLine
10
-45.085946
20
-0.500002
30
0
11
-44.164379
21
-0.499998
31
0
39
0
210
0
220
0
230
1
0
LINE
5
F0
100
AcDbEntity
8
1
62
256
6
ByLayer
370
18
48
1
60
1
100
AcDbLine
10
-44.164379
20
-0.499998
30
0
11
-44.625163
21
-4
31
0
39
0
210
0
220
0
230
1
0
LINE
5
F4
100
AcDbEntity
8
1
62
256
6
ByLayer
370
18
48
1
60
1
100
AcDbLine
10
55.083343
20
3.4545
30
0
11
54.622559
21
6.954498
31
0
39
0
210
0
220
0
230
1
0
LINE
5
F5
100
AcDbEntity
8
1
62
256
6
ByLayer
370
18
48
1
60
1
100
AcDbLine
10
54.622559
20
6.954498
30
0
11
55.544126
21
6.954502
31
0
39
0
210
0
220
0
230
1
0
LINE
5
F6
100
AcDbEntity
8
1
62
256
6
ByLayer
370
18
48
1
60
1
100
AcDbLine
10
55.544126
20
6.954502
30
0
11
55.083343
21
3.4545
31
0
39
0
210
0
220
0
230
1
0
LINE
5
F8
100
AcDbEntity
8
1
62
256
6
ByLayer
370
18
48
1
60
1
100
AcDbLine
10
55.083343
20
-3.4545
30
0
11
55.544126
21
-6.954498
31
0
39
0
210
0
220
0
230
1
0
LINE
5
F9
100
AcDbEntity
8
1
62
256
6
ByLayer
370
18
48
1
60
1
100
AcDbLine
10
55.544126
20
-6.954498
30
0
11
54.622559
21
-6.954502
31
0
39
0
210
0
220
0
230
1
0
LINE
5
FA
100
AcDbEntity
8
1
62
256
6
ByLayer
370
18
48
1
60
1
100
AcDbLine
10
54.622559
20
-6.954502
30
0
11
55.083343
21
-3.4545
31
0
39
0
210
0
220
0
230
1
0
MTEXT
5
E4
100
AcDbEntity
8
SK6
62
256
6
ByLayer
370
13
48
1
60
0
100
AcDbMText
10
-25.20776
20
35.994828
30
0
210
0
220
0
230
1
1
\W0.7563;462.1-0691-021A0-XM X2BM
40
3.5
41
0
44
1.084337
50
0
71
7
72
5
7
iso_b_vert
0
MTEXT
5
E8
100
AcDbEntity
8
SK2
62
256
6
ByLayer
370
18
48
1
60
0
100
AcDbMText
10
-46.189796
20
17.409024
30
0
210
0
220
0
230
1
1
%%c
40
3.5
41
0
44
1.084337
50
90
71
7
72
5
7
iso_b_vert
0
MTEXT
5
E9
100
AcDbEntity
8
SK2
62
256
6
ByLayer
370
18
48
1
60
0
100
AcDbMText
10
-46.189796
20
22.63168
30
0
210
0
220
0
230
1
1
\W0.7317;8,000
40
3.5
41
0
44
1.084337
50
90
71
7
72
5
7
iso_b_vert
0
MTEXT
5
F2
100
AcDbEntity
8
2
62
256
6
ByLayer
370
18
48
1
60
0
100
AcDbMText
10
53.518709
20
15.45661
30
0
210
0
220
0
230
1
1
%%c
40
3.5
41
0
44
1.084337
50
90
71
7
72
5
7
iso_b_vert
0
MTEXT
5
F3
100
AcDbEntity
8
2
62
256
6
ByLayer
370
18
48
1
60
0
100
AcDbMText
10
53.518709
20
20.679266
30
0
210
0
220
0
230
1
1
\W0.7402;6,909
40
3.5
41
0
44
1.084337
50
90
71
7
72
5
7
iso_b_vert
0
HATCH
5
ED
100
AcDbEntity
8
SK2
62
256
6
ByLayer
370
13
48
1
60
0
100
AcDbHatch
10
0
20
0
30
0
210
0
220
0
230
1
2
ANSI31
70
0
71
0
91
1
92
5
93
3
72
1
10
-44.6251625675374
20
4
11
-44.1643788259847
21
0.500001692553184
72
1
10
-44.1643788259847
20
0.500001692553184
11
-45.0859463090902
21
0.499998307446816
72
1
10
-45.0859463090902
20
0.499998307446816
11
-44.6251625675374
21
4
97
0
75
0
76
1
52
0
41
0.0062
77
0
78
1
53
45
43
0
44
0
45
-0.0139193969876572
46
0.0139193969876572
79
0
47
0
98
1
10
0
20
0
0
HATCH
5
F1
100
AcDbEntity
8
SK2
62
256
6
ByLayer
370
13
48
1
60
0
100
AcDbHatch
10
0
20
0
30
0
210
0
220
0
230
1
2
ANSI31
70
0
71
0
91
1
92
5
93
3
72
1
10
-44.6251625675374
20
-4
11
-45.0859463090902
21
-0.500001692553184
72
1
10
-45.0859463090902
20
-0.500001692553184
11
-44.1643788259847
21
-0.499998307446816
72
1
10
-44.1643788259847
20
-0.499998307446816
11
-44.6251625675374
21
-4
97
0
75
0
76
1
52
0
41
0.0062
77
0
78
1
53
45
43
0
44
0
45
-0.0139193969876572
46
0.0139193969876572
79
0
47
0
98
1
10
0
20
0
0
HATCH
5
F7
100
AcDbEntity
8
2
62
256
6
ByLayer
370
13
48
1
60
0
100
AcDbHatch
10
0
20
0
30
0
210
0
220
0
230
1
2
ANSI31
70
0
71
0
91
1
92
5
93
3
72
1
10
55.083342615295
20
3.4545
11
54.6225588737423
21
6.95449830744681
72
1
10
54.6225588737423
20
6.95449830744681
11
55.5441263568478
21
6.95450169255318
72
1
10
55.5441263568478
20
6.95450169255318
11
55.083342615295
21
3.4545
97
0
75
0
76
1
52
0
41
0.0062
77
0
78
1
53
45
43
0
44
0
45
-0.0139193969876572
46
0.0139193969876572
79
0
47
0
98
1
10
0
20
0
0
HATCH
5
FB
100
AcDbEntity
8
2
62
256
6
ByLayer
370
13
48
1
60
0
100
AcDbHatch
10
0
20
0
30
0
210
0
220
0
230
1
2
ANSI31
70
0
71
0
91
1
92
5
93
3
72
1
10
55.083342615295
20
-3.4545
11
55.5441263568478
21
-6.95449830744681
72
1
10
55.5441263568478
20
-6.95449830744681
11
54.6225588737423
21
-6.95450169255318
72
1
10
54.6225588737423
20
-6.95450169255318
11
55.083342615295
21
-3.4545
97
0
75
0
76
1
52
0
41
0.0062
77
0
78
1
53
45
43
0
44
0
45
-0.0139193969876572
46
0.0139193969876572
79
0
47
0
98
1
10
0
20
0
0
DIMENSION
5
FD
100
AcDbEntity
8
SK2
62
256
6
ByLayer
370
13
48
1
60
0
100
AcDbDimension
2
_U0
10
41.9817
20
-13.667898
30
0
11
20.99085
21
-13.667898
31
0
70
32
71
1
72
1
41
1
210
0
220
0
230
1
3
Standard
100
AcDbAlignedDimension
13
0
23
0
33
0
14
41.9817
24
-3.4545
34
0
50
0
100
AcDbRotatedDimension
1001
ACAD
1000
DSTYLE
1002
{
1070
   371
1070
    13
1070
   372
1070
    13
1070
   170
1070
     0
1070
   144
1040
1.0
1070
   277
1070
     2
1070
   278
1070
    44
1070
   146
1040
1.0
1070
   345
1005
16
1070
   347
1005
16
1070
   346
1005
16
1070
   344
1005
0
1070
   343
1005
0
1070
   172
1070
     1
1070
    76
1070
     0
1070
    75
1070
     0
1070
   282
1070
     0
1070
   281
1070
     0
1070
    71
1070
     0
1070
    74
1070
     0
1070
   279
1070
     0
1070
   173
1070
     1
1070
   340
1005
E5
1070
   271
1070
     2
1070
   272
1070
     2
1070
    77
1070
     1
1070
    73
1070
     1
1070
   171
1070
     3
1070
   274
1070
     4
1070
   177
1070
    35
1070
   176
1070
    35
1070
   178
1070
    35
1070
    48
1040
-0.1
1070
    41
1040
3.5
1070
   147
1040
1.75
1070
    42
1040
1.5875
1070
    44
1040
2.0
1070
   140
1040
3.5
1002
}
1001
ACAD_DSTYLE_DIM_LINETYPE
1070
   380
1005
16
1001
ACAD_DSTYLE_DIM_EXT1_LINETYPE
1070
   381
1005
16
1001
ACAD_DSTYLE_DIM_EXT2_LINETYPE
1070
   382
1005
16
0
DIMENSION
5
116
100
AcDbEntity
8
SK2
62
256
6
ByLayer
370
13
48
1
60
0
100
AcDbDimension
2
_U1
10
43
20
-32.692985
30
0
11
3.5
21
-32.692985
31
0
70
32
71
1
72
1
41
1
210
0
220
0
230
1
3
Standard
100
AcDbAlignedDimension
13
-36
23
-4
33
0
14
43
24
0
34
0
50
0
100
AcDbRotatedDimension
1001
ACAD
1000
DSTYLE
1002
{
1070
   371
1070
    13
1070
   372
1070
    13
1070
   170
1070
     0
1070
   144
1040
1.0
1070
   277
1070
     2
1070
   278
1070
    44
1070
   146
1040
1.0
1070
   345
1005
16
1070
   347
1005
16
1070
   346
1005
16
1070
   344
1005
0
1070
   343
1005
0
1070
   172
1070
     1
1070
    76
1070
     0
1070
    75
1070
     0
1070
   282
1070
     0
1070
   281
1070
     0
1070
    71
1070
     0
1070
    74
1070
     0
1070
   279
1070
     0
1070
   173
1070
     1
1070
   340
1005
E5
1070
   271
1070
     2
1070
   272
1070
     2
1070
    77
1070
     1
1070
    73
1070
     1
1070
   171
1070
     3
1070
   274
1070
     4
1070
   177
1070
    35
1070
   176
1070
    35
1070
   178
1070
    35
1070
    48
1040
-0.1
1070
    41
1040
3.5
1070
   147
1040
1.75
1070
    42
1040
1.5875
1070
    44
1040
2.0
1070
   140
1040
3.5
1002
}
1001
ACAD_DSTYLE_DIM_LINETYPE
1070
   380
1005
16
1001
ACAD_DSTYLE_DIM_EXT1_LINETYPE
1070
   381
1005
16
1001
ACAD_DSTYLE_DIM_EXT2_LINETYPE
1070
   382
1005
16
0
DIMENSION
5
12E
100
AcDbEntity
8
SK2
62
256
6
ByLayer
370
13
48
1
60
0
100
AcDbDimension
2
_U2
10
43
20
15.063619
30
0
11
32.125
21
15.063619
31
0
70
32
71
1
72
1
41
1
210
0
220
0
230
1
3
Standard
100
AcDbAlignedDimension
13
21.25
23
3.4545
33
0
14
43
24
0
34
0
50
0
100
AcDbRotatedDimension
1001
ACAD
1000
DSTYLE
1002
{
1070
   371
1070
    13
1070
   372
1070
    13
1070
   170
1070
     0
1070
   144
1040
1.0
1070
   277
1070
     2
1070
   278
1070
    44
1070
   146
1040
1.0
1070
   345
1005
16
1070
   347
1005
16
1070
   346
1005
16
1070
   344
1005
0
1070
   343
1005
0
1070
   172
1070
     1
1070
    76
1070
     0
1070
    75
1070
     0
1070
   282
1070
     0
1070
   281
1070
     0
1070
    71
1070
     0
1070
    74
1070
     0
1070
   279
1070
     0
1070
   173
1070
     1
1070
   340
1005
E5
1070
   271
1070
     2
1070
   272
1070
     2
1070
    77
1070
     1
1070
    73
1070
     1
1070
   171
1070
     3
1070
   274
1070
     4
1070
   177
1070
    35
1070
   176
1070
    35
1070
   178
1070
    35
1070
    48
1040
-0.1
1070
    41
1040
3.5
1070
   147
1040
1.75
1070
    42
1040
1.5875
1070
    44
1040
2.0
1070
   140
1040
3.5
1002
}
1001
ACAD_DSTYLE_DIM_LINETYPE
1070
   380
1005
16
1001
ACAD_DSTYLE_DIM_EXT1_LINETYPE
1070
   381
1005
16
1001
ACAD_DSTYLE_DIM_EXT2_LINETYPE
1070
   382
1005
16
0
DIMENSION
5
146
100
AcDbEntity
8
SK2
62
256
6
ByLayer
370
13
48
1
60
0
100
AcDbDimension
2
_U3
10
41.9817
20
-16.257003
30
0
11
60.333333
21
-16.257003
31
0
70
32
71
1
72
1
41
1
210
0
220
0
230
1
3
Standard
100
AcDbAlignedDimension
13
43
23
0
33
0
14
41.9817
24
-3.4545
34
0
50
0
100
AcDbRotatedDimension
1001
ACAD
1000
DSTYLE
1002
{
1070
   371
1070
    13
1070
   372
1070
    13
1070
   170
1070
     0
1070
   144
1040
1.0
1070
   277
1070
     2
1070
   278
1070
    44
1070
   146
1040
1.0
1070
   345
1005
16
1070
   347
1005
16
1070
   346
1005
16
1070
   344
1005
0
1070
   343
1005
0
1070
   172
1070
     1
1070
    76
1070
     0
1070
    75
1070
     0
1070
   282
1070
     0
1070
   281
1070
     0
1070
    71
1070
     0
1070
    74
1070
     0
1070
   279
1070
     0
1070
   173
1070
     1
1070
   340
1005
E5
1070
   271
1070
     2
1070
   272
1070
     2
1070
    77
1070
     1
1070
    73
1070
     1
1070
   171
1070
     3
1070
   274
1070
     4
1070
   177
1070
    35
1070
   176
1070
    35
1070
   178
1070
    35
1070
    48
1040
-0.1
1070
    41
1040
3.5
1070
   147
1040
1.75
1070
    42
1040
1.5875
1070
    44
1040
2.0
1070
   140
1040
3.5
1002
}
1001
ACAD_DSTYLE_DIM_LINETYPE
1070
   380
1005
16
1001
ACAD_DSTYLE_DIM_EXT1_LINETYPE
1070
   381
1005
16
1001
ACAD_DSTYLE_DIM_EXT2_LINETYPE
1070
   382
1005
16
0
DIMENSION
5
160
100
AcDbEntity
8
SK2
62
256
6
ByLayer
370
13
48
1
60
0
100
AcDbDimension
2
_U4
10
41.9817
20
-22.343428
30
0
11
2.99085
21
-22.343428
31
0
70
32
71
1
72
1
41
1
210
0
220
0
230
1
3
Standard
100
AcDbAlignedDimension
13
-36
23
-4
33
0
14
41.9817
24
-3.4545
34
0
50
0
100
AcDbRotatedDimension
1001
ACAD
1000
DSTYLE
1002
{
1070
   371
1070
    13
1070
   372
1070
    13
1070
   170
1070
     0
1070
   144
1040
1.0
1070
   277
1070
     2
1070
   278
1070
    44
1070
   146
1040
1.0
1070
   345
1005
16
1070
   347
1005
16
1070
   346
1005
16
1070
   344
1005
0
1070
   343
1005
0
1070
   172
1070
     1
1070
    76
1070
     0
1070
    75
1070
     0
1070
   282
1070
     0
1070
   281
1070
     0
1070
    71
1070
     0
1070
    74
1070
     0
1070
   279
1070
     0
1070
   173
1070
     1
1070
   340
1005
E5
1070
   271
1070
     2
1070
   272
1070
     2
1070
    77
1070
     1
1070
    73
1070
     1
1070
   171
1070
     3
1070
   274
1070
     4
1070
   177
1070
    35
1070
   176
1070
    35
1070
   178
1070
    35
1070
    48
1040
-0.1
1070
    41
1040
3.5
1070
   147
1040
1.75
1070
    42
1040
1.5875
1070
    44
1040
2.0
1070
   140
1040
3.5
1002
}
1001
ACAD_DSTYLE_DIM_LINETYPE
1070
   380
1005
16
1001
ACAD_DSTYLE_DIM_EXT1_LINETYPE
1070
   381
1005
16
1001
ACAD_DSTYLE_DIM_EXT2_LINETYPE
1070
   382
1005
16
0
ENDSEC
0
SECTION
2
OBJECTS
0
DICTIONARY
5
1e8
330
0
100
AcDbDictionary
280
0
281
1
3
ACAD_GROUP
350
1e9
3
ACAD_MLINESTYLE
350
1ea
0
DICTIONARY
5
1e9
330
0
100
AcDbDictionary
280
0
281
1
0
DICTIONARY
5
1ea
330
0
100
AcDbDictionary
280
0
281
1
3
Standard
350
18
0
MLINESTYLE
5
18
330
1ea
100
AcDbMlineStyle
2
Standard
70
0
3

62
256
51
90
52
90
71
2
49
-0.5
62
256
6
ByLayer
49
0.5
62
256
6
ByLayer
0
RASTERVARIABLES
5
1d6
330

100
AcDbRasterVariables
90
0
70
1
71
1
72
1
0
ENDSEC
0
EOF
