0
SECTION
2
HEADER
9
$ACADVER
1
AC1015
9
$DWGCODEPAGE
3
ANSI_1252
9
$HANDSEED
5
1f7
9
$ANGBASE
50
0
9
$ANGDIR
70
0
9
$ATTMODE
70
1
9
$AUNITS
70
0
9
$AUPREC
70
0
9
$CECOLOR
62
256
9
$CELTSCALE
40
1
9
$CELTYPE
6
ByLayer
9
$CELWEIGHT
370
18
9
$CLAYER
8
0
9
$CMLJUST
70
0
9
$CMLSCALE
40
1
9
$CMLSTYLE
2
Standard
9
$DIMSTYLE
2
Standard
9
$TEXTSIZE
40
0.2
9
$TEXTSTYLE
7
Standard
9
$LUNITS
70
2
9
$LUPREC
70
4
9
$EXTNAMES
290
1
9
$INSUNITS
70
4
9
$LTSCALE
40
1
9
$LWDISPLAY
290
1
9
$PDMODE
70
0
9
$PDSIZE
40
0
9
$PLINEGEN
70
0
0
ENDSEC
0
SECTION
2
CLASSES
0
CLASS
1
RASTERVARIABLES
2
AcDbRasterVariables
3
ISM
90
0
280
0
281
0
0
ENDSEC
0
SECTION
2
TABLES
0
TABLE
2
VPORT
5
1ed
100
AcDbSymbolTable
0
VPORT
5
1
100
AcDbSymbolTableRecord
100
AcDbViewportTableRecord
2
*Active
70
0
10
0
20
0
11
1
21
1
12
-1
22
1
13
0
23
0
14
0.5
24
0.5
15
10
25
10
16
0
26
0
36
1
17
0
27
0
37
0
0
ENDTAB
0
TABLE
2
LTYPE
5
1ee
100
AcDbSymbolTable
0
LTYPE
5
14
100
AcDbSymbolTableRecord
100
AcDbLinetypeTableRecord
70
0
2
ByBlock
3

72
65
73
0
40
0
0
LTYPE
5
15
100
AcDbSymbolTableRecord
100
AcDbLinetypeTableRecord
70
0
2
ByLayer
3

72
65
73
0
40
0
0
LTYPE
5
16
100
AcDbSymbolTableRecord
100
AcDbLinetypeTableRecord
70
0
2
Continuous
3
Solid line
72
65
73
0
40
0
0
LTYPE
5
6E
100
AcDbSymbolTableRecord
100
AcDbLinetypeTableRecord
70
0
2
CENTER
3
____ _ ____ _ ____ _ ____
72
65
73
4
40
47.5
49
22
74
0
49
-8.5
74
0
49
8.5
74
0
49
-8.5
74
0
0
LTYPE
5
6F
100
AcDbSymbolTableRecord
100
AcDbLinetypeTableRecord
70
0
2
DASHED
3
__ __ __ __ __ __ __ __ __
72
65
73
2
40
25.72
49
12.86
74
0
49
-12.86
74
0
0
ENDTAB
0
TABLE
2
LAYER
5
1ef
100
AcDbSymbolTable
0
LAYER
5
10
100
AcDbSymbolTableRecord
100
AcDbLayerTableRecord
2
0
70
0
62
7
6
Continuous
290
1
370
-3
390
0
0
LAYER
5
71
100
AcDbSymbolTableRecord
100
AcDbLayerTableRecord
2
80
70
0
62
-6
6
Continuous
290
1
370
-3
390
0
0
LAYER
5
73
100
AcDbSymbolTableRecord
100
AcDbLayerTableRecord
2
81
70
0
62
-3
6
Continuous
290
1
370
-3
390
0
0
LAYER
5
75
100
AcDbSymbolTableRecord
100
AcDbLayerTableRecord
2
1
70
0
62
4
6
Continuous
290
1
370
-3
390
0
0
LAYER
5
88
100
AcDbSymbolTableRecord
100
AcDbLayerTableRecord
2
4
70
0
62
-2
6
CENTER
290
1
370
-3
390
0
0
LAYER
5
9F
100
AcDbSymbolTableRecord
100
AcDbLayerTableRecord
2
2
70
0
62
7
6
Continuous
290
1
370
-3
390
0
0
LAYER
5
102
100
AcDbSymbolTableRecord
100
AcDbLayerTableRecord
2
Defpoints
70
0
62
7
6
Continuous
290
0
370
-3
390
0
0
LAYER
5
1d9
100
AcDbSymbolTableRecord
100
AcDbLayerTableRecord
2
SK1
70
0
62
4
6
Continuous
290
1
370
-3
390
0
0
LAYER
5
1da
100
AcDbSymbolTableRecord
100
AcDbLayerTableRecord
2
SK4
70
0
62
2
6
CENTER
290
1
370
-3
390
0
0
LAYER
5
1db
100
AcDbSymbolTableRecord
100
AcDbLayerTableRecord
2
SK2
70
0
62
7
6
Continuous
290
1
370
-3
390
0
0
LAYER
5
1dc
100
AcDbSymbolTableRecord
100
AcDbLayerTableRecord
2
SK6
70
0
62
5
6
Continuous
290
1
370
-3
390
0
0
ENDTAB
0
TABLE
2
STYLE
5
1f0
100
AcDbSymbolTable
0
STYLE
5
11
100
AcDbSymbolTableRecord
100
AcDbTextStyleTableRecord
2
Standard
3
txt
70
0
71
0
40
0
41
1
42
0
50
0
0
STYLE
5
E7
100
AcDbSymbolTableRecord
100
AcDbTextStyleTableRecord
2
iso_b_vert
3
simplex.shx
70
0
71
0
40
0
41
1
42
0
50
0
0
STYLE
5
E8
100
AcDbSymbolTableRecord
100
AcDbTextStyleTableRecord
2
DWGDirectTextStyle
3
simplex
70
0
71
0
40
0
41
1
42
0
50
0
0
ENDTAB
0
TABLE
2
DIMSTYLE
5
1f1
100
AcDbSymbolTable
100
AcDbDimStyleTable
0
DIMSTYLE
105
27
100
AcDbSymbolTableRecord
100
AcDbDimStyleTableRecord
2
Standard
70
0
3
<>
41
0.18
42
0.0625
44
0.18
140
0.18
147
0.09
73
0
74
0
77
1
271
2
275
0
278
52
280
0
340
11
0
ENDTAB
0
TABLE
2
VIEW
5
1f2
100
AcDbSymbolTable
0
ENDTAB
0
TABLE
2
UCS
5
1f3
100
AcDbSymbolTable
0
ENDTAB
0
TABLE
2
APPID
5
1f4
100
AcDbSymbolTable
0
APPID
5
12
100
AcDbSymbolTableRecord
100
AcDbRegAppTableRecord
2
ACAD
70
0
0
APPID
5
FE
100
AcDbSymbolTableRecord
100
AcDbRegAppTableRecord
2
ACAD_DSTYLE_DIMBREAK
70
0
0
APPID
5
198
100
AcDbSymbolTableRecord
100
AcDbRegAppTableRecord
2
ACAD_DSTYLE_DIM_LINETYPE
70
0
0
APPID
5
199
100
AcDbSymbolTableRecord
100
AcDbRegAppTableRecord
2
ACAD_DSTYLE_DIM_EXT1_LINETYPE
70
0
0
APPID
5
19A
100
AcDbSymbolTableRecord
100
AcDbRegAppTableRecord
2
ACAD_DSTYLE_DIM_EXT2_LINETYPE
70
0
0
APPID
5
1D5
100
AcDbSymbolTableRecord
100
AcDbRegAppTableRecord
2
ACAD_MLEADERVER
70
0
0
ENDTAB
0
TABLE
2
BLOCK_RECORD
5
1f5
100
AcDbSymbolTable
0
BLOCK_RECORD
5
1F
100
AcDbSymbolTableRecord
100
AcDbBlockTableRecord
2
*Model_Space
340
0
70
0
0
BLOCK_RECORD
5
1B
100
AcDbSymbolTableRecord
100
AcDbBlockTableRecord
2
*Paper_Space
340
0
70
0
0
BLOCK_RECORD
5
23
100
AcDbSymbolTableRecord
100
AcDbBlockTableRecord
2
*Paper_Space0
340
0
70
0
0
BLOCK_RECORD
5
103
100
AcDbSymbolTableRecord
100
AcDbBlockTableRecord
2
*D1
340
0
70
0
0
BLOCK_RECORD
5
10F
100
AcDbSymbolTableRecord
100
AcDbBlockTableRecord
2
_U0
340
0
70
0
0
BLOCK_RECORD
5
11B
100
AcDbSymbolTableRecord
100
AcDbBlockTableRecord
2
*D3
340
0
70
0
0
BLOCK_RECORD
5
127
100
AcDbSymbolTableRecord
100
AcDbBlockTableRecord
2
_U1
340
0
70
0
0
BLOCK_RECORD
5
133
100
AcDbSymbolTableRecord
100
AcDbBlockTableRecord
2
*D5
340
0
70
0
0
BLOCK_RECORD
5
13F
100
AcDbSymbolTableRecord
100
AcDbBlockTableRecord
2
_U2
340
0
70
0
0
BLOCK_RECORD
5
14B
100
AcDbSymbolTableRecord
100
AcDbBlockTableRecord
2
*D7
340
0
70
0
0
BLOCK_RECORD
5
159
100
AcDbSymbolTableRecord
100
AcDbBlockTableRecord
2
_U3
340
0
70
0
0
BLOCK_RECORD
5
165
100
AcDbSymbolTableRecord
100
AcDbBlockTableRecord
2
*D9
340
0
70
0
0
BLOCK_RECORD
5
171
100
AcDbSymbolTableRecord
100
AcDbBlockTableRecord
2
_U4
340
0
70
0
0
ENDTAB
0
ENDSEC
0
SECTION
2
BLOCKS
0
BLOCK
5
20
100
AcDbEntity
8
0
100
AcDbBlockBegin
2
*Model_Space
70
0
10
0
20
0
30
0
3
*Model_Space
0
ENDBLK
5
21
100
AcDbEntity
8
0
100
AcDbBlockEnd
0
BLOCK
5
1C
100
AcDbEntity
8
0
100
AcDbBlockBegin
2
*Paper_Space
70
0
10
0
20
0
30
0
3
*Paper_Space
0
ENDBLK
5
1D
100
AcDbEntity
8
0
100
AcDbBlockEnd
0
BLOCK
5
24
100
AcDbEntity
8
0
100
AcDbBlockBegin
2
*Paper_Space0
70
0
10
0
20
0
30
0
3
*Paper_Space0
0
ENDBLK
5
25
100
AcDbEntity
8
0
100
AcDbBlockEnd
0
BLOCK
5
104
100
AcDbEntity
8
0
100
AcDbBlockBegin
2
*D1
70
1
10
0
20
0
30
0
3
*D1
0
LINE
5
106
100
AcDbEntity
8
0
62
256
6
ByLayer
370
-2
48
1
60
0
100
AcDbLine
10
0
20
-1.5875
30
0
11
0
21
-16.613398
31
0
39
0
210
0
220
0
230
1
0
LINE
5
107
100
AcDbEntity
8
0
62
256
6
ByLayer
370
-2
48
1
60
0
100
AcDbLine
10
47.6968
20
-5.9875
30
0
11
47.6968
21
-16.613398
31
0
39
0
210
0
220
0
230
1
0
LINE
5
108
100
AcDbEntity
8
0
62
256
6
ByLayer
370
-2
48
1
60
0
100
AcDbLine
10
3.5
20
-14.613398
30
0
11
44.1968
21
-14.613398
31
0
39
0
210
0
220
0
230
1
0
SOLID
5
109
100
AcDbEntity
8
0
62
256
6
ByLayer
370
-1
48
1
60
0
100
AcDbTrace
10
3.5
20
-14.030065
30
0
11
3.5
21
-15.196732
31
0
12
0
22
-14.613398
32
0
13
0
23
-14.613398
33
0
39
0
210
0
220
0
230
1
0
SOLID
5
10A
100
AcDbEntity
8
0
62
256
6
ByLayer
370
-1
48
1
60
0
100
AcDbTrace
10
44.1968
20
-15.196732
30
0
11
44.1968
21
-14.030065
31
0
12
47.6968
22
-14.613398
32
0
13
47.6968
23
-14.613398
33
0
39
0
210
0
220
0
230
1
0
MTEXT
5
10B
100
AcDbEntity
8
0
62
256
6
ByLayer
370
18
48
1
60
0
100
AcDbMText
10
23.8484
20
-7.613398
30
0
210
0
220
0
230
1
1
\A1;47.70
40
3.5
41
0
44
1
50
0
71
5
72
5
7
iso_b_vert
0
POINT
5
10C
100
AcDbEntity
8
Defpoints
62
0
6
ByLayer
370
-1
48
1
60
0
100
AcDbPoint
10
0
20
0
30
0
39
0
210
0
220
0
230
1
50
360
0
POINT
5
10D
100
AcDbEntity
8
Defpoints
62
0
6
ByLayer
370
-1
48
1
60
0
100
AcDbPoint
10
47.6968
20
-4.4
30
0
39
0
210
0
220
0
230
1
50
360
0
POINT
5
10E
100
AcDbEntity
8
Defpoints
62
0
6
ByLayer
370
-1
48
1
60
0
100
AcDbPoint
10
47.6968
20
-14.613398
30
0
39
0
210
0
220
0
230
1
50
360
0
ENDBLK
5
105
100
AcDbEntity
8
0
100
AcDbBlockEnd
0
BLOCK
5
116
100
AcDbEntity
8
0
100
AcDbBlockBegin
2
_U0
70
0
10
0
20
0
30
0
3
_U0
0
MTEXT
5
110
100
AcDbEntity
8
SK2
62
256
6
ByLayer
370
13
48
1
60
0
100
AcDbMText
10
18.526835
20
-13.580765
30
0
210
0
220
0
230
1
1
\W0.7581;47,70
40
3.5
41
0
44
1.084337
50
0
71
7
72
5
7
iso_b_vert
0
LINE
5
111
100
AcDbEntity
8
SK2
62
256
6
ByLayer
370
13
48
1
60
0
100
AcDbLine
10
0
20
-1.5875
30
0
11
0
21
-16.613398
31
0
39
0
210
0
220
0
230
1
0
LINE
5
112
100
AcDbEntity
8
SK2
62
256
6
ByLayer
370
13
48
1
60
0
100
AcDbLine
10
47.6968
20
-5.9875
30
0
11
47.6968
21
-16.613398
31
0
39
0
210
0
220
0
230
1
0
LINE
5
113
100
AcDbEntity
8
SK2
62
256
6
ByLayer
370
13
48
1
60
0
100
AcDbLine
10
0
20
-14.613398
30
0
11
47.6968
21
-14.613398
31
0
39
0
210
0
220
0
230
1
0
SOLID
5
114
100
AcDbEntity
8
SK2
62
256
6
ByLayer
370
18
48
1
60
0
100
AcDbTrace
10
0
20
-14.613398
30
0
11
3.499998
21
-14.152615
31
0
12
3.500002
22
-15.074182
32
0
13
3.500002
23
-15.074182
33
0
39
0
210
0
220
0
230
1
0
SOLID
5
115
100
AcDbEntity
8
SK2
62
256
6
ByLayer
370
18
48
1
60
0
100
AcDbTrace
10
47.6968
20
-14.613398
30
0
11
44.196802
21
-15.074182
31
0
12
44.196798
22
-14.152615
32
0
13
44.196798
23
-14.152615
33
0
39
0
210
0
220
0
230
1
0
ENDBLK
5
117
100
AcDbEntity
8
0
100
AcDbBlockEnd
0
BLOCK
5
11C
100
AcDbEntity
8
0
100
AcDbBlockBegin
2
*D3
70
1
10
0
20
0
30
0
3
*D3
0
LINE
5
11E
100
AcDbEntity
8
0
62
256
6
ByLayer
370
-2
48
1
60
0
100
AcDbLine
10
-40
20
-6.5875
30
0
11
-40
21
-35.692985
31
0
39
0
210
0
220
0
230
1
0
LINE
5
11F
100
AcDbEntity
8
0
62
256
6
ByLayer
370
-2
48
1
60
0
100
AcDbLine
10
49
20
-1.5875
30
0
11
49
21
-35.692985
31
0
39
0
210
0
220
0
230
1
0
LINE
5
120
100
AcDbEntity
8
0
62
256
6
ByLayer
370
-2
48
1
60
0
100
AcDbLine
10
-36.5
20
-33.692985
30
0
11
45.5
21
-33.692985
31
0
39
0
210
0
220
0
230
1
0
SOLID
5
121
100
AcDbEntity
8
0
62
256
6
ByLayer
370
-1
48
1
60
0
100
AcDbTrace
10
-36.5
20
-33.109652
30
0
11
-36.5
21
-34.276319
31
0
12
-40
22
-33.692985
32
0
13
-40
23
-33.692985
33
0
39
0
210
0
220
0
230
1
0
SOLID
5
122
100
AcDbEntity
8
0
62
256
6
ByLayer
370
-1
48
1
60
0
100
AcDbTrace
10
45.5
20
-34.276319
30
0
11
45.5
21
-33.109652
31
0
12
49
22
-33.692985
32
0
13
49
23
-33.692985
33
0
39
0
210
0
220
0
230
1
0
MTEXT
5
123
100
AcDbEntity
8
0
62
256
6
ByLayer
370
18
48
1
60
0
100
AcDbMText
10
4.5
20
-26.692985
30
0
210
0
220
0
230
1
1
\A1;89.00
40
3.5
41
0
44
1
50
0
71
5
72
5
7
iso_b_vert
0
POINT
5
124
100
AcDbEntity
8
Defpoints
62
0
6
ByLayer
370
-1
48
1
60
0
100
AcDbPoint
10
-40
20
-5
30
0
39
0
210
0
220
0
230
1
50
360
0
POINT
5
125
100
AcDbEntity
8
Defpoints
62
0
6
ByLayer
370
-1
48
1
60
0
100
AcDbPoint
10
49
20
0
30
0
39
0
210
0
220
0
230
1
50
360
0
POINT
5
126
100
AcDbEntity
8
Defpoints
62
0
6
ByLayer
370
-1
48
1
60
0
100
AcDbPoint
10
49
20
-33.692985
30
0
39
0
210
0
220
0
230
1
50
360
0
ENDBLK
5
11D
100
AcDbEntity
8
0
100
AcDbBlockEnd
0
BLOCK
5
12E
100
AcDbEntity
8
0
100
AcDbBlockBegin
2
_U1
70
0
10
0
20
0
30
0
3
_U1
0
MTEXT
5
128
100
AcDbEntity
8
SK2
62
256
6
ByLayer
370
13
48
1
60
0
100
AcDbMText
10
-0.637299
20
-32.660352
30
0
210
0
220
0
230
1
1
\W0.7317;89,00
40
3.5
41
0
44
1.084337
50
0
71
7
72
5
7
iso_b_vert
0
LINE
5
129
100
AcDbEntity
8
SK2
62
256
6
ByLayer
370
13
48
1
60
0
100
AcDbLine
10
-40
20
-6.5875
30
0
11
-40
21
-35.692985
31
0
39
0
210
0
220
0
230
1
0
LINE
5
12A
100
AcDbEntity
8
SK2
62
256
6
ByLayer
370
13
48
1
60
0
100
AcDbLine
10
49
20
-1.5875
30
0
11
49
21
-35.692985
31
0
39
0
210
0
220
0
230
1
0
LINE
5
12B
100
AcDbEntity
8
SK2
62
256
6
ByLayer
370
13
48
1
60
0
100
AcDbLine
10
-40
20
-33.692985
30
0
11
49
21
-33.692985
31
0
39
0
210
0
220
0
230
1
0
SOLID
5
12C
100
AcDbEntity
8
SK2
62
256
6
ByLayer
370
18
48
1
60
0
100
AcDbTrace
10
-40
20
-33.692985
30
0
11
-36.500002
21
-33.232202
31
0
12
-36.499998
22
-34.153769
32
0
13
-36.499998
23
-34.153769
33
0
39
0
210
0
220
0
230
1
0
SOLID
5
12D
100
AcDbEntity
8
SK2
62
256
6
ByLayer
370
18
48
1
60
0
100
AcDbTrace
10
49
20
-33.692985
30
0
11
45.500002
21
-34.153769
31
0
12
45.499998
22
-33.232202
32
0
13
45.499998
23
-33.232202
33
0
39
0
210
0
220
0
230
1
0
ENDBLK
5
12F
100
AcDbEntity
8
0
100
AcDbBlockEnd
0
BLOCK
5
134
100
AcDbEntity
8
0
100
AcDbBlockBegin
2
*D5
70
1
10
0
20
0
30
0
3
*D5
0
LINE
5
136
100
AcDbEntity
8
0
62
256
6
ByLayer
370
-2
48
1
60
0
100
AcDbLine
10
21.3
20
5.9875
30
0
11
21.3
21
18.009119
31
0
39
0
210
0
220
0
230
1
0
LINE
5
137
100
AcDbEntity
8
0
62
256
6
ByLayer
370
-2
48
1
60
0
100
AcDbLine
10
49
20
1.5875
30
0
11
49
21
18.009119
31
0
39
0
210
0
220
0
230
1
0
LINE
5
138
100
AcDbEntity
8
0
62
256
6
ByLayer
370
-2
48
1
60
0
100
AcDbLine
10
24.8
20
16.009119
30
0
11
45.5
21
16.009119
31
0
39
0
210
0
220
0
230
1
0
SOLID
5
139
100
AcDbEntity
8
0
62
256
6
ByLayer
370
-1
48
1
60
0
100
AcDbTrace
10
24.8
20
16.592453
30
0
11
24.8
21
15.425786
31
0
12
21.3
22
16.009119
32
0
13
21.3
23
16.009119
33
0
39
0
210
0
220
0
230
1
0
SOLID
5
13A
100
AcDbEntity
8
0
62
256
6
ByLayer
370
-1
48
1
60
0
100
AcDbTrace
10
45.5
20
15.425786
30
0
11
45.5
21
16.592453
31
0
12
49
22
16.009119
32
0
13
49
23
16.009119
33
0
39
0
210
0
220
0
230
1
0
MTEXT
5
13B
100
AcDbEntity
8
0
62
256
6
ByLayer
370
18
48
1
60
0
100
AcDbMText
10
35.15
20
23.009119
30
0
210
0
220
0
230
1
1
\A1;27.70
40
3.5
41
0
44
1
50
0
71
5
72
5
7
iso_b_vert
0
POINT
5
13C
100
AcDbEntity
8
Defpoints
62
0
6
ByLayer
370
-1
48
1
60
0
100
AcDbPoint
10
21.3
20
4.4
30
0
39
0
210
0
220
0
230
1
50
360
0
POINT
5
13D
100
AcDbEntity
8
Defpoints
62
0
6
ByLayer
370
-1
48
1
60
0
100
AcDbPoint
10
49
20
0
30
0
39
0
210
0
220
0
230
1
50
360
0
POINT
5
13E
100
AcDbEntity
8
Defpoints
62
0
6
ByLayer
370
-1
48
1
60
0
100
AcDbPoint
10
49
20
16.009119
30
0
39
0
210
0
220
0
230
1
50
360
0
ENDBLK
5
135
100
AcDbEntity
8
0
100
AcDbBlockEnd
0
BLOCK
5
146
100
AcDbEntity
8
0
100
AcDbBlockBegin
2
_U2
70
0
10
0
20
0
30
0
3
_U2
0
MTEXT
5
140
100
AcDbEntity
8
SK2
62
256
6
ByLayer
370
13
48
1
60
0
100
AcDbMText
10
30.012701
20
17.041753
30
0
210
0
220
0
230
1
1
\W0.7317;27,70
40
3.5
41
0
44
1.084337
50
0
71
7
72
5
7
iso_b_vert
0
LINE
5
141
100
AcDbEntity
8
SK2
62
256
6
ByLayer
370
13
48
1
60
0
100
AcDbLine
10
21.3
20
5.9875
30
0
11
21.3
21
18.009119
31
0
39
0
210
0
220
0
230
1
0
LINE
5
142
100
AcDbEntity
8
SK2
62
256
6
ByLayer
370
13
48
1
60
0
100
AcDbLine
10
49
20
1.5875
30
0
11
49
21
18.009119
31
0
39
0
210
0
220
0
230
1
0
LINE
5
143
100
AcDbEntity
8
SK2
62
256
6
ByLayer
370
13
48
1
60
0
100
AcDbLine
10
21.3
20
16.009119
30
0
11
49
21
16.009119
31
0
39
0
210
0
220
0
230
1
0
SOLID
5
144
100
AcDbEntity
8
SK2
62
256
6
ByLayer
370
18
48
1
60
0
100
AcDbTrace
10
21.3
20
16.009119
30
0
11
24.799998
21
16.469903
31
0
12
24.800002
22
15.548335
32
0
13
24.800002
23
15.548335
33
0
39
0
210
0
220
0
230
1
0
SOLID
5
145
100
AcDbEntity
8
SK2
62
256
6
ByLayer
370
18
48
1
60
0
100
AcDbTrace
10
49
20
16.009119
30
0
11
45.500002
21
15.548335
31
0
12
45.499998
22
16.469903
32
0
13
45.499998
23
16.469903
33
0
39
0
210
0
220
0
230
1
0
ENDBLK
5
147
100
AcDbEntity
8
0
100
AcDbBlockEnd
0
BLOCK
5
14C
100
AcDbEntity
8
0
100
AcDbBlockBegin
2
*D7
70
1
10
0
20
0
30
0
3
*D7
0
LINE
5
14E
100
AcDbEntity
8
0
62
256
6
ByLayer
370
-2
48
1
60
0
100
AcDbLine
10
49
20
-1.5875
30
0
11
49
21
-19.202503
31
0
39
0
210
0
220
0
230
1
0
LINE
5
14F
100
AcDbEntity
8
0
62
256
6
ByLayer
370
-2
48
1
60
0
100
AcDbLine
10
47.6968
20
-5.9875
30
0
11
47.6968
21
-19.202503
31
0
39
0
210
0
220
0
230
1
0
LINE
5
150
100
AcDbEntity
8
0
62
256
6
ByLayer
370
-2
48
1
60
0
100
AcDbLine
10
49
20
-17.202503
30
0
11
76.666667
21
-17.202503
31
0
39
0
210
0
220
0
230
1
0
LINE
5
151
100
AcDbEntity
8
0
62
256
6
ByLayer
370
-2
48
1
60
0
100
AcDbLine
10
52.5
20
-17.202503
30
0
11
56
21
-17.202503
31
0
39
0
210
0
220
0
230
1
0
LINE
5
152
100
AcDbEntity
8
0
62
256
6
ByLayer
370
-2
48
1
60
0
100
AcDbLine
10
44.1968
20
-17.202503
30
0
11
40.6968
21
-17.202503
31
0
39
0
210
0
220
0
230
1
0
SOLID
5
153
100
AcDbEntity
8
0
62
256
6
ByLayer
370
-1
48
1
60
0
100
AcDbTrace
10
52.5
20
-16.61917
30
0
11
52.5
21
-17.785837
31
0
12
49
22
-17.202503
32
0
13
49
23
-17.202503
33
0
39
0
210
0
220
0
230
1
0
SOLID
5
154
100
AcDbEntity
8
0
62
256
6
ByLayer
370
-1
48
1
60
0
100
AcDbTrace
10
44.1968
20
-17.785837
30
0
11
44.1968
21
-16.61917
31
0
12
47.6968
22
-17.202503
32
0
13
47.6968
23
-17.202503
33
0
39
0
210
0
220
0
230
1
0
MTEXT
5
155
100
AcDbEntity
8
0
62
256
6
ByLayer
370
18
48
1
60
0
100
AcDbMText
10
66.333333
20
-10.202503
30
0
210
0
220
0
230
1
1
\A1;1.30
40
3.5
41
0
44
1
50
0
71
5
72
5
7
iso_b_vert
0
POINT
5
156
100
AcDbEntity
8
Defpoints
62
0
6
ByLayer
370
-1
48
1
60
0
100
AcDbPoint
10
49
20
0
30
0
39
0
210
0
220
0
230
1
50
360
0
POINT
5
157
100
AcDbEntity
8
Defpoints
62
0
6
ByLayer
370
-1
48
1
60
0
100
AcDbPoint
10
47.6968
20
-4.4
30
0
39
0
210
0
220
0
230
1
50
360
0
POINT
5
158
100
AcDbEntity
8
Defpoints
62
0
6
ByLayer
370
-1
48
1
60
0
100
AcDbPoint
10
47.6968
20
-17.202503
30
0
39
0
210
0
220
0
230
1
50
360
0
ENDBLK
5
14D
100
AcDbEntity
8
0
100
AcDbBlockEnd
0
BLOCK
5
160
100
AcDbEntity
8
0
100
AcDbBlockBegin
2
_U3
70
0
10
0
20
0
30
0
3
_U3
0
MTEXT
5
15A
100
AcDbEntity
8
SK2
62
256
6
ByLayer
370
13
48
1
60
0
100
AcDbMText
10
55.589293
20
-16.16987
30
0
210
0
220
0
230
1
1
\W0.6367;1,30
40
3.5
41
0
44
1.084337
50
0
71
7
72
5
7
iso_b_vert
0
LINE
5
15B
100
AcDbEntity
8
SK2
62
256
6
ByLayer
370
13
48
1
60
0
100
AcDbLine
10
49
20
-1.5875
30
0
11
49
21
-19.202503
31
0
39
0
210
0
220
0
230
1
0
LINE
5
15C
100
AcDbEntity
8
SK2
62
256
6
ByLayer
370
13
48
1
60
0
100
AcDbLine
10
47.6968
20
-5.9875
30
0
11
47.6968
21
-19.202503
31
0
39
0
210
0
220
0
230
1
0
LINE
5
15D
100
AcDbEntity
8
SK2
62
256
6
ByLayer
370
13
48
1
60
0
100
AcDbLine
10
38.9468
20
-17.202503
30
0
11
62.559058
21
-17.202503
31
0
39
0
210
0
220
0
230
1
0
SOLID
5
15E
100
AcDbEntity
8
SK2
62
256
6
ByLayer
370
18
48
1
60
0
100
AcDbTrace
10
49
20
-17.202503
30
0
11
52.499998
21
-16.741719
31
0
12
52.500002
22
-17.663287
32
0
13
52.500002
23
-17.663287
33
0
39
0
210
0
220
0
230
1
0
SOLID
5
15F
100
AcDbEntity
8
SK2
62
256
6
ByLayer
370
18
48
1
60
0
100
AcDbTrace
10
47.6968
20
-17.202503
30
0
11
44.196802
21
-17.663287
31
0
12
44.196798
22
-16.741719
32
0
13
44.196798
23
-16.741719
33
0
39
0
210
0
220
0
230
1
0
ENDBLK
5
161
100
AcDbEntity
8
0
100
AcDbBlockEnd
0
BLOCK
5
166
100
AcDbEntity
8
0
100
AcDbBlockBegin
2
*D9
70
1
10
0
20
0
30
0
3
*D9
0
LINE
5
168
100
AcDbEntity
8
0
62
256
6
ByLayer
370
-2
48
1
60
0
100
AcDbLine
10
-40
20
-6.5875
30
0
11
-40
21
-25.343428
31
0
39
0
210
0
220
0
230
1
0
LINE
5
169
100
AcDbEntity
8
0
62
256
6
ByLayer
370
-2
48
1
60
0
100
AcDbLine
10
47.6968
20
-5.9875
30
0
11
47.6968
21
-25.343428
31
0
39
0
210
0
220
0
230
1
0
LINE
5
16A
100
AcDbEntity
8
0
62
256
6
ByLayer
370
-2
48
1
60
0
100
AcDbLine
10
-36.5
20
-23.343428
30
0
11
44.1968
21
-23.343428
31
0
39
0
210
0
220
0
230
1
0
SOLID
5
16B
100
AcDbEntity
8
0
62
256
6
ByLayer
370
-1
48
1
60
0
100
AcDbTrace
10
-36.5
20
-22.760095
30
0
11
-36.5
21
-23.926762
31
0
12
-40
22
-23.343428
32
0
13
-40
23
-23.343428
33
0
39
0
210
0
220
0
230
1
0
SOLID
5
16C
100
AcDbEntity
8
0
62
256
6
ByLayer
370
-1
48
1
60
0
100
AcDbTrace
10
44.1968
20
-23.926762
30
0
11
44.1968
21
-22.760095
31
0
12
47.6968
22
-23.343428
32
0
13
47.6968
23
-23.343428
33
0
39
0
210
0
220
0
230
1
0
MTEXT
5
16D
100
AcDbEntity
8
0
62
256
6
ByLayer
370
18
48
1
60
0
100
AcDbMText
10
3.8484
20
-16.343428
30
0
210
0
220
0
230
1
1
\A1;87.70
40
3.5
41
0
44
1
50
0
71
5
72
5
7
iso_b_vert
0
POINT
5
16E
100
AcDbEntity
8
Defpoints
62
0
6
ByLayer
370
-1
48
1
60
0
100
AcDbPoint
10
-40
20
-5
30
0
39
0
210
0
220
0
230
1
50
360
0
POINT
5
16F
100
AcDbEntity
8
Defpoints
62
0
6
ByLayer
370
-1
48
1
60
0
100
AcDbPoint
10
47.6968
20
-4.4
30
0
39
0
210
0
220
0
230
1
50
360
0
POINT
5
170
100
AcDbEntity
8
Defpoints
62
0
6
ByLayer
370
-1
48
1
60
0
100
AcDbPoint
10
47.6968
20
-23.343428
30
0
39
0
210
0
220
0
230
1
50
360
0
ENDBLK
5
167
100
AcDbEntity
8
0
100
AcDbBlockEnd
0
BLOCK
5
178
100
AcDbEntity
8
0
100
AcDbBlockBegin
2
_U4
70
0
10
0
20
0
30
0
3
_U4
0
MTEXT
5
172
100
AcDbEntity
8
SK2
62
256
6
ByLayer
370
13
48
1
60
0
100
AcDbMText
10
-1.288899
20
-22.310795
30
0
210
0
220
0
230
1
1
\W0.7317;87,70
40
3.5
41
0
44
1.084337
50
0
71
7
72
5
7
iso_b_vert
0
LINE
5
173
100
AcDbEntity
8
SK2
62
256
6
ByLayer
370
13
48
1
60
0
100
AcDbLine
10
-40
20
-6.5875
30
0
11
-40
21
-25.343428
31
0
39
0
210
0
220
0
230
1
0
LINE
5
174
100
AcDbEntity
8
SK2
62
256
6
ByLayer
370
13
48
1
60
0
100
AcDbLine
10
47.6968
20
-5.9875
30
0
11
47.6968
21
-25.343428
31
0
39
0
210
0
220
0
230
1
0
LINE
5
175
100
AcDbEntity
8
SK2
62
256
6
ByLayer
370
13
48
1
60
0
100
AcDbLine
10
-40
20
-23.343428
30
0
11
47.6968
21
-23.343428
31
0
39
0
210
0
220
0
230
1
0
SOLID
5
176
100
AcDbEntity
8
SK2
62
256
6
ByLayer
370
18
48
1
60
0
100
AcDbTrace
10
-40
20
-23.343428
30
0
11
-36.500002
21
-22.882645
31
0
12
-36.499998
22
-23.804212
32
0
13
-36.499998
23
-23.804212
33
0
39
0
210
0
220
0
230
1
0
SOLID
5
177
100
AcDbEntity
8
SK2
62
256
6
ByLayer
370
18
48
1
60
0
100
AcDbTrace
10
47.6968
20
-23.343428
30
0
11
44.196802
21
-23.804212
31
0
12
44.196798
22
-22.882645
32
0
13
44.196798
23
-22.882645
33
0
39
0
210
0
220
0
230
1
0
ENDBLK
5
179
100
AcDbEntity
8
0
100
AcDbBlockEnd
0
ENDSEC
0
SECTION
2
ENTITIES
0
ARC
5
A8
100
AcDbEntity
8
1
62
256
6
ByLayer
370
18
48
1
60
0
100
AcDbCircle
39
0
10
1.271677
20
-5.170998
30
0
40
0.799999999999998
210
0
220
0
230
1
100
AcDbArc
50
89.96419
51
142.636194
0
ARC
5
A9
100
AcDbEntity
8
1
62
256
6
ByLayer
370
18
48
1
60
0
100
AcDbCircle
39
0
10
0
20
-4.2
30
0
40
0.800000000000003
210
0
220
0
230
1
100
AcDbArc
50
270
51
322.636194
0
ARC
5
AA
100
AcDbEntity
8
1
62
256
6
ByLayer
370
18
48
1
60
0
100
AcDbCircle
39
0
10
1.271677
20
5.170998
30
0
40
0.799999999999998
210
0
220
0
230
1
100
AcDbArc
50
217.363806
51
270.03581
0
ARC
5
AB
100
AcDbEntity
8
1
62
256
6
ByLayer
370
18
48
1
60
0
100
AcDbCircle
39
0
10
0
20
4.2
30
0
40
0.800000000000003
210
0
220
0
230
1
100
AcDbArc
50
37.363806
51
90
0
ELLIPSE
5
AC
100
AcDbEntity
8
1
62
256
6
ByLayer
370
13
48
1
60
0
100
AcDbEllipse
10
4.183705
20
1.099031
30
0
11
-0.051003983615204
21
-0.0860150780699524
31
0
210
0
220
0
230
1
40
0.289751
41
-1.13296859285728
42
-0.712653692295726
0
ELLIPSE
5
AD
100
AcDbEntity
8
1
62
256
6
ByLayer
370
18
48
1
60
0
100
AcDbEllipse
10
4.25
20
-4.403444
30
0
11
0.25
21
0
31
0
210
0
220
0
230
1
40
0.999996
41
1.57398205334598
42
3.13404809540059
0
ELLIPSE
5
AE
100
AcDbEntity
8
1
62
256
6
ByLayer
370
18
48
1
60
0
100
AcDbEllipse
10
4.25
20
4.403444
30
0
11
0.25
21
0
31
0
210
0
220
0
230
1
40
0.999996
41
-3.13404809540071
42
-1.56257340587547
0
POINT
5
70
100
AcDbEntity
8
80
62
256
6
ByLayer
370
18
48
1
60
0
100
AcDbPoint
10
0
20
0
30
0
39
0
210
0
220
0
230
1
50
360
0
POINT
5
72
100
AcDbEntity
8
81
62
256
6
ByLayer
370
18
48
1
60
0
100
AcDbPoint
10
49
20
0
30
0
39
0
210
0
220
0
230
1
50
360
0
POINT
5
74
100
AcDbEntity
8
1
62
256
6
ByLayer
370
18
48
1
60
1
100
AcDbPoint
10
47.6968
20
-4.4
30
0
39
0
210
0
220
0
230
1
50
360
0
POINT
5
76
100
AcDbEntity
8
1
62
256
6
ByLayer
370
18
48
1
60
1
100
AcDbPoint
10
-40
20
-5
30
0
39
0
210
0
220
0
230
1
50
360
0
POINT
5
77
100
AcDbEntity
8
1
62
256
6
ByLayer
370
18
48
1
60
1
100
AcDbPoint
10
21.3
20
4.4
30
0
39
0
210
0
220
0
230
1
50
360
0
POINT
5
78
100
AcDbEntity
8
1
62
256
6
ByLayer
370
18
48
1
60
1
100
AcDbPoint
10
47.6968
20
-4.4
30
0
39
0
210
0
220
0
230
1
50
360
0
POINT
5
79
100
AcDbEntity
8
1
62
256
6
ByLayer
370
18
48
1
60
1
100
AcDbPoint
10
-40
20
-5
30
0
39
0
210
0
220
0
230
1
50
360
0
POINT
5
7A
100
AcDbEntity
8
1
62
256
6
ByLayer
370
18
48
1
60
1
100
AcDbPoint
10
47.6968
20
-4.4
30
0
39
0
210
0
220
0
230
1
50
360
0
SPLINE
5
AF
100
AcDbEntity
8
1
62
256
6
ByLayer
370
13
48
1
60
0
100
AcDbSpline
70
4
71
3
72
10
73
6
40
0
40
0
40
0
40
0
40
0.214488472227111
40
0.214488472227111
40
1
40
1
40
1
40
1
41
1
10
4.25063409482641
20
-4.15345045781041
30
0
41
1
10
4.25064120081748
20
-4.15343424518645
30
0
41
1
10
4.25064838669587
20
-4.15142839776024
30
0
41
1
10
4.25068196839172
20
-4.13273857078335
30
0
41
1
10
4.25070831569235
20
-4.09182727824543
30
0
41
1
10
4.25073259832683
20
-4.02582859220109
30
0
0
SPLINE
5
B0
100
AcDbEntity
8
1
62
256
6
ByLayer
370
18
48
1
60
0
100
AcDbSpline
70
4
71
3
72
14
73
10
40
0
40
0
40
0
40
0
40
0.153799275464097
40
0.153799275464097
40
0.383153081040227
40
0.383153081040227
40
0.841860692192486
40
0.841860692192486
40
1
40
1
40
1
40
1
41
1
10
20.0393140762929
20
-4.16279095894575
30
0
41
1
10
19.736291531107
20
-4.16263525474764
30
0
41
1
10
19.4323959660539
20
-4.15482718755575
30
0
41
1
10
18.6734842407473
20
-4.11604186916742
30
0
41
1
10
18.2217556664493
20
-4.07587914874927
30
0
41
1
10
16.8707542652826
20
-3.90683398528992
30
0
41
1
10
15.9757366482961
20
-3.72955592150507
30
0
41
1
10
14.7690630983778
20
-3.41471935920961
30
0
41
1
10
14.459446487418
20
-3.32719437203261
30
0
41
1
10
14.1492309484677
20
-3.2332690690539
30
0
0
SPLINE
5
B1
100
AcDbEntity
8
1
62
256
6
ByLayer
370
13
48
1
60
0
100
AcDbSpline
70
4
71
3
72
22
73
18
40
0
40
0
40
0
40
0
40
0.0424732356012393
40
0.0424732356012393
40
0.110868004486864
40
0.110868004486864
40
0.179262773372488
40
0.179262773372488
40
0.452841848914991
40
0.452841848914991
40
0.726420924457494
40
0.726420924457494
40
0.79481569334312
40
0.79481569334312
40
0.863210462228746
40
0.863210462228746
40
1
40
1
40
1
40
1
41
1
10
14.1492309479469
20
-3.23326906889622
30
0
41
1
10
14.0095323234541
20
-3.19097191100215
30
0
41
1
10
13.8697122393816
20
-3.14737680130276
30
0
41
1
10
13.5043428638641
20
-3.03029027243196
30
0
41
1
10
13.278554935449
20
-2.95479428697661
30
0
41
1
10
12.8259237538254
20
-2.79759881773077
30
0
41
1
10
12.5987570361829
20
-2.7157809511319
30
0
41
1
10
11.4633550835349
20
-2.2933398737778
30
0
41
1
10
10.5648850206885
20
-1.91516042378999
30
0
41
1
10
8.77017332468478
20
-1.11285935920833
30
0
41
1
10
7.87445973435175
20
-0.687719988007075
30
0
41
1
10
6.74657952626336
20
-0.147497311235497
30
0
41
1
10
6.52057400107952
20
-0.0390490278604148
30
0
41
1
10
6.06751906637743
20
0.178260570691151
30
0
41
1
10
5.84021968689365
20
0.287281505272546
30
0
41
1
10
5.15863836843141
20
0.612925946802221
30
0
41
1
10
4.70472356827824
20
0.827960426459811
30
0
41
1
10
4.25026190220552
20
1.03881194954181
30
0
0
SPLINE
5
B2
100
AcDbEntity
8
1
62
256
6
ByLayer
370
13
48
1
60
0
100
AcDbSpline
70
4
71
3
72
8
73
4
40
0
40
0
40
0
40
0
40
1
40
1
40
1
40
1
41
1
10
4.25026190220558
20
1.03881194954178
30
0
41
1
10
4.21181272980158
20
1.04951178007232
30
0
41
1
10
4.17429844012403
20
1.06200966574986
30
0
41
1
10
4.13950867141665
20
1.07594694028725
30
0
0
SPLINE
5
B3
100
AcDbEntity
8
1
62
256
6
ByLayer
370
18
48
1
60
0
100
AcDbSpline
70
4
71
3
72
16
73
12
40
0
40
0
40
0
40
0
40
0.271586075794215
40
0.271586075794215
40
0.407379113691322
40
0.407379113691322
40
0.54317215158843
40
0.54317215158843
40
0.814758227382644
40
0.814758227382644
40
1
40
1
40
1
40
1
41
1
10
47.1689170507032
20
-3.29967650931098
30
0
41
1
10
47.1686574885198
20
-3.44912025526912
30
0
41
1
10
47.1753187624643
20
-3.58029311250039
30
0
41
1
10
47.1959960532072
20
-3.75015771804092
30
0
41
1
10
47.2046828022039
20
-3.80227159260329
30
0
41
1
10
47.2258656504007
20
-3.89725949821465
30
0
41
1
10
47.2383006760465
20
-3.93975040149579
30
0
41
1
10
47.2807494109127
20
-4.05116715391099
30
0
41
1
10
47.3160153600997
20
-4.10485972355448
30
0
41
1
10
47.3879241496476
20
-4.16137987875692
30
0
41
1
10
47.4206962148008
20
-4.17481201994477
30
0
41
1
10
47.4568299367587
20
-4.17869413053165
30
0
0
SPLINE
5
B4
100
AcDbEntity
8
1
62
256
6
ByLayer
370
18
48
1
60
0
100
AcDbSpline
70
4
71
3
72
10
73
6
40
0
40
0
40
0
40
0
40
0.5
40
0.5
40
1
40
1
40
1
40
1
41
1
10
47.6747979529133
20
4.28034455674322
30
0
41
1
10
47.6337582863391
20
4.31092277186045
30
0
41
1
10
47.5944862478917
20
4.33597929254188
30
0
41
1
10
47.5194768716904
20
4.37432417267249
30
0
41
1
10
47.4840276625908
20
4.38741234132567
30
0
41
1
10
47.4510357592612
20
4.39421973685168
30
0
0
SPLINE
5
B5
100
AcDbEntity
8
1
62
256
6
ByLayer
370
13
48
1
60
0
100
AcDbSpline
70
4
71
3
72
12
73
8
40
0
40
0
40
0
40
0
40
0.500000000000001
40
0.500000000000001
40
0.75
40
0.75
40
1
40
1
40
1
40
1
41
1
10
4.001841091725
20
1.23534130103548
30
0
41
1
10
4.006659519202
20
1.20256821993357
30
0
41
1
10
4.02103362709153
20
1.17077174626695
30
0
41
1
10
4.0557041081957
20
1.12949152292535
30
0
41
1
10
4.06973524346108
20
1.11649870438254
30
0
41
1
10
4.10172458484953
20
1.09373518303173
30
0
41
1
10
4.11955717449865
20
1.0839397927929
30
0
41
1
10
4.13950867141665
20
1.07594694028725
30
0
0
SPLINE
5
B6
100
AcDbEntity
8
1
62
256
6
ByLayer
370
18
48
1
60
0
100
AcDbSpline
70
4
71
3
72
12
73
8
40
0
40
0
40
0
40
0
40
0.5
40
0.5
40
0.75
40
0.75
40
1
40
1
40
1
40
1
41
1
10
47.6747979529068
20
4.28034455676624
30
0
41
1
10
47.8716521985636
20
3.72821248434104
30
0
41
1
10
48.0771595555762
20
3.17795765391787
30
0
41
1
10
48.3960353952285
20
2.35537347034597
30
0
41
1
10
48.5042254695411
20
2.08145810493158
30
0
41
1
10
48.7233711299447
20
1.53597326268988
30
0
41
1
10
48.8343783378767
20
1.26430322704496
30
0
41
1
10
48.9467767535901
20
0.9935934976304
30
0
0
SPLINE
5
B7
100
AcDbEntity
8
1
62
256
6
ByLayer
370
18
48
1
60
0
100
AcDbSpline
70
4
71
3
72
16
73
12
40
0
40
0
40
0
40
0
40
0.0103771281585802
40
0.0103771281585802
40
0.115208179321241
40
0.115208179321241
40
0.534532383971891
40
0.534532383971891
40
0.953856588622542
40
0.953856588622542
40
1
40
1
40
1
40
1
41
1
10
6.18489871052432
20
0.0134314516506038
30
0
41
1
10
6.20735981438639
20
0.0023979167488903
30
0
41
1
10
6.22981390947078
20
-0.0086317671157019
30
0
41
1
10
6.47901455251858
20
-0.13103253489291
30
0
41
1
10
6.7052254977628
20
-0.242092012073613
30
0
41
1
10
7.83406029686097
20
-0.794794253205367
30
0
41
1
10
8.73027732736307
20
-1.22813602033514
30
0
41
1
10
10.5261735054695
20
-2.04290184640865
30
0
41
1
10
11.4252845123546
20
-2.42541196793383
30
0
41
1
10
12.4347523923444
20
-2.80296249661026
30
0
41
1
10
12.5348345448096
20
-2.83984233640419
30
0
41
1
10
12.6348483856903
20
-2.87612765760201
30
0
0
SPLINE
5
B8
100
AcDbEntity
8
1
62
256
6
ByLayer
370
13
48
1
60
0
100
AcDbSpline
70
4
71
3
72
20
73
16
40
0
40
0
40
0
40
0
40
0.0426902669092443
40
0.0426902669092443
40
0.118945941377123
40
0.118945941377123
40
0.271457290312883
40
0.271457290312883
40
0.576479988184405
40
0.576479988184405
40
0.728991337120167
40
0.728991337120167
40
0.881502686055929
40
0.881502686055929
40
1
40
1
40
1
40
1
41
1
10
12.6348483857105
20
-2.8761276576094
30
0
41
1
10
12.7620512970604
20
-2.92227725505487
30
0
41
1
10
12.8891437068908
20
-2.96746515312449
30
0
41
1
10
13.2424980193683
20
-3.09042420182084
30
0
41
1
10
13.4684855293186
20
-3.16599958752167
30
0
41
1
10
14.1452167677136
20
-3.38250098402764
30
0
41
1
10
14.5947001708192
20
-3.51316600535793
30
0
41
1
10
15.9415329203561
20
-3.86046445752589
30
0
41
1
10
16.8370697195692
20
-4.03302987584399
30
0
41
1
10
18.1892275780483
20
-4.19175314738155
30
0
41
1
10
18.6413838903169
20
-4.22797303560714
30
0
41
1
10
19.5511032230376
20
-4.2655018454702
30
0
41
1
10
20.0041014737404
20
-4.2665920361467
30
0
41
1
10
20.805330740814
20
-4.2377710915529
30
0
41
1
10
21.1547448738593
20
-4.21477824888154
30
0
41
1
10
21.5037019574422
20
-4.18165045856875
30
0
0
SPLINE
5
B9
100
AcDbEntity
8
1
62
256
6
ByLayer
370
18
48
1
60
0
100
AcDbSpline
70
4
71
3
72
8
73
4
40
0
40
0
40
0
40
0
40
1
40
1
40
1
40
1
41
1
10
47.4510357592612
20
4.39421973685171
30
0
41
1
10
47.3048920429638
20
4.39789411551877
30
0
41
1
10
47.1587689957888
20
4.39968204378178
30
0
41
1
10
47.0126317615728
20
4.39958676810886
30
0
0
SPLINE
5
BA
100
AcDbEntity
8
1
62
256
6
ByLayer
370
18
48
1
60
0
100
AcDbSpline
70
4
71
3
72
34
73
30
40
0
40
0
40
0
40
0
40
0.0395271380445281
40
0.0395271380445281
40
0.0764684019658921
40
0.0764684019658921
40
0.113409665887256
40
0.113409665887256
40
0.187292193729985
40
0.187292193729985
40
0.261174721572713
40
0.261174721572713
40
0.408939777258171
40
0.408939777258171
40
0.556704832943628
40
0.556704832943628
40
0.593646096864992
40
0.593646096864992
40
0.630587360786357
40
0.630587360786357
40
0.704469888629085
40
0.704469888629085
40
0.778352416471814
40
0.778352416471814
40
0.852234944314543
40
0.852234944314543
40
0.926117472157271
40
0.926117472157271
40
1
40
1
40
1
40
1
41
1
10
22.4658447351999
20
-4.17995519725304
30
0
41
1
10
22.2246652815202
20
-4.21665183850189
30
0
41
1
10
21.9833488326115
20
-4.24849592817154
30
0
41
1
10
21.5159134014794
20
-4.30049958003124
30
0
41
1
10
21.2896790627571
20
-4.32130008624688
30
0
41
1
10
20.8381336720784
20
-4.35397612247979
30
0
41
1
10
20.612648341804
20
-4.36586916251744
30
0
41
1
10
19.9364527278991
20
-4.38815859163685
30
0
41
1
10
19.4860123267627
20
-4.38518285675744
30
0
41
1
10
18.5837836884388
20
-4.34371770478208
30
0
41
1
10
18.1313599323487
20
-4.30501240860528
30
0
41
1
10
16.7772500141579
20
-4.13712940212153
30
0
41
1
10
15.8775802691695
20
-3.95626495893933
30
0
41
1
10
14.0688650513078
20
-3.47015148474634
30
0
41
1
10
13.1696970404723
20
-3.16757004511317
30
0
41
1
10
12.0406898935668
20
-2.73040172460458
30
0
41
1
10
11.8144198043857
20
-2.63993241141722
30
0
41
1
10
11.3625574618547
20
-2.4539062751011
30
0
41
1
10
11.1369466251426
20
-2.35834480823948
30
0
41
1
10
10.4604647388188
20
-2.06506577670513
30
0
41
1
10
10.0099383568947
20
-1.86077026876467
30
0
41
1
10
9.10770160453467
20
-1.4384339870908
30
0
41
1
10
8.65532358062154
20
-1.21984688960833
30
0
41
1
10
7.75162795203713
20
-0.774956446327053
30
0
41
1
10
7.30033748152044
20
-0.548828837921889
30
0
41
1
10
6.39668563144431
20
-0.0935063558608249
30
0
41
1
10
5.94415623453992
20
0.135774790965229
30
0
41
1
10
5.04095247841792
20
0.590540576601484
30
0
41
1
10
4.5895446043429
20
0.816132403705808
30
0
41
1
10
4.13730555124675
20
1.03791704090133
30
0
0
SPLINE
5
BB
100
AcDbEntity
8
1
62
256
6
ByLayer
370
18
48
1
60
0
100
AcDbSpline
70
4
71
3
72
8
73
4
40
0
40
0
40
0
40
0
40
1
40
1
40
1
40
1
41
1
10
4.0048667306263
20
1.20617009629839
30
0
41
1
10
4.00286031177433
20
1.21580795268966
30
0
41
1
10
4.0018409159461
20
1.22553084197489
30
0
41
1
10
4.00184109172488
20
1.23534130103678
30
0
0
SPLINE
5
BC
100
AcDbEntity
8
1
62
256
6
ByLayer
370
18
48
1
60
0
100
AcDbSpline
70
4
71
3
72
10
73
6
40
0
40
0
40
0
40
0
40
0.5
40
0.5
40
1
40
1
40
1
40
1
41
1
10
47.5274926899751
20
1.04325793383134
30
0
41
1
10
47.7640714689794
20
1.0346049533162
30
0
41
1
10
48.0006202814033
20
1.02631000233399
30
0
41
1
10
48.4737253936124
20
1.00963064416743
30
0
41
1
10
48.7102880457791
20
1.00117034109795
30
0
41
1
10
48.94677675359
20
0.993593497630314
30
0
0
SPLINE
5
BD
100
AcDbEntity
8
1
62
256
6
ByLayer
370
13
48
1
60
0
100
AcDbSpline
70
4
71
3
72
28
73
24
40
0
40
0
40
0
40
0
40
0.144777999529242
40
0.144777999529242
40
0.217166999293863
40
0.217166999293863
40
0.289555999058484
40
0.361944998823105
40
0.361944998823105
40
0.434333998587726
40
0.434333998587726
40
0.579111998116968
40
0.579111998116968
40
0.651500997881589
40
0.651500997881589
40
0.72388999764621
40
0.72388999764621
40
0.796278997410831
40
0.796278997410831
40
0.868667997175452
40
0.941056996940074
40
0.941056996940074
40
1
40
1
40
1
40
1
41
1
10
4.25026190220558
20
1.03881194954178
30
0
41
1
10
4.25029460772112
20
1.30342665315186
30
0
41
1
10
4.25031994587007
20
1.55842113511434
30
0
41
1
10
4.25035110319484
20
1.9266102870111
30
0
41
1
10
4.25036032148375
20
2.0467848133363
30
0
41
1
10
4.25037686637535
20
2.27796665638897
30
0
41
1
10
4.25039162062373
20
2.50113922163908
30
0
41
1
10
4.25040424347162
20
2.70853307885554
30
0
41
1
10
4.25041646279496
20
2.90793071424105
30
0
41
1
10
4.25042240131546
20
3.00409985515924
30
0
41
1
10
4.25044030515969
20
3.27644003539206
30
0
41
1
10
4.25045234436561
20
3.43567709489326
30
0
41
1
10
4.250473422379
20
3.64195753598375
30
0
41
1
10
4.25048093877012
20
3.70524965804196
30
0
41
1
10
4.25049730083646
20
3.8205718984978
30
0
41
1
10
4.25050612120873
20
3.87233049652693
30
0
41
1
10
4.25052501175534
20
3.96280492884932
30
0
41
1
10
4.25053513208871
20
4.00179530194274
30
0
41
1
10
4.25055664254842
20
4.06670361954264
30
0
41
1
10
4.25057927229929
20
4.11816150439634
30
0
41
1
10
4.25060388924223
20
4.14336576163899
30
0
41
1
10
4.25062691081425
20
4.15426866463704
30
0
41
1
10
4.25063753688232
20
4.15476337351134
30
0
41
1
10
4.25064824830591
20
4.15081548295134
30
0
0
SPLINE
5
BE
100
AcDbEntity
8
1
62
256
6
ByLayer
370
18
48
1
60
0
100
AcDbSpline
70
4
71
3
72
8
73
4
40
0
40
0
40
0
40
0
40
1
40
1
40
1
40
1
41
1
10
48.9895214428148
20
-0.117758713421154
30
0
41
1
10
48.9901863683656
20
-0.0960790812897869
30
0
41
1
10
48.9941506367901
20
-0.0696313783321045
30
0
41
1
10
48.9999626518751
20
-0.0417740714676142
30
0
0
SPLINE
5
BF
100
AcDbEntity
8
1
62
256
6
ByLayer
370
18
48
1
60
0
100
AcDbSpline
70
4
71
3
72
20
73
16
40
0
40
0
40
0
40
0
40
0.170430155684412
40
0.170430155684412
40
0.340860311368824
40
0.340860311368824
40
0.511290467053237
40
0.511290467053237
40
0.681720622737649
40
0.681720622737649
40
0.852150778422061
40
0.852150778422061
40
0.937365856264267
40
0.937365856264267
40
1
40
1
40
1
40
1
41
1
10
11.8894906309531
20
-3.17850431090736
30
0
41
1
10
12.2651594690496
20
-3.31055109179562
30
0
41
1
10
12.6401733759413
20
-3.431168458564
30
0
41
1
10
13.3873201279685
20
-3.65297678166746
30
0
41
1
10
13.7589550755101
20
-3.75453244131015
30
0
41
1
10
14.5023061505
20
-3.9347858289035
30
0
41
1
10
14.8736781993367
20
-4.01399061069654
30
0
41
1
10
15.6155695193123
20
-4.15067758859226
30
0
41
1
10
15.9867756682396
20
-4.20760072491461
30
0
41
1
10
16.7308493340217
20
-4.29802944599251
30
0
41
1
10
17.1029070728053
20
-4.33183539060087
30
0
41
1
10
17.6636474728695
20
-4.36408975648246
30
0
41
1
10
17.8510291771858
20
-4.37179209960055
30
0
41
1
10
18.1767547901239
20
-4.37987020233183
30
0
41
1
10
18.3150383833129
20
-4.3816404254917
30
0
41
1
10
18.4531685502651
20
-4.38173419640441
30
0
0
SPLINE
5
C0
100
AcDbEntity
8
1
62
256
6
ByLayer
370
18
48
1
60
0
100
AcDbSpline
70
4
71
3
72
24
73
20
40
0
40
0
40
0
40
0
40
0.107882711737569
40
0.107882711737569
40
0.235328038632201
40
0.235328038632201
40
0.362773365526833
40
0.362773365526833
40
0.490218692421466
40
0.490218692421466
40
0.617664019316098
40
0.617664019316098
40
0.681386682763417
40
0.681386682763417
40
0.745109346210735
40
0.745109346210735
40
0.872554673105367
40
0.872554673105367
40
1
40
1
40
1
40
1
41
1
10
38.8998564818819
20
3.12440959931897
30
0
41
1
10
39.2158330554941
20
3.23753015067419
30
0
41
1
10
39.530730196278
20
3.3442676176731
30
0
41
1
10
40.2173402447282
20
3.56066046993729
30
0
41
1
10
40.5882687771369
20
3.66834259478065
30
0
41
1
10
41.3293716160556
20
3.86333624449591
30
0
41
1
10
41.7003506311186
20
3.94987604741925
30
0
41
1
10
42.4425057687379
20
4.10172992348939
30
0
41
1
10
42.8135656955994
20
4.16698224911667
30
0
41
1
10
43.5591041916068
20
4.27353940626398
30
0
41
1
10
43.9329255264673
20
4.31533610294994
30
0
41
1
10
44.4958022970373
20
4.35997153936947
30
0
41
1
10
44.6838559745387
20
4.37178429452149
30
0
41
1
10
45.0591889119085
20
4.38911949135513
30
0
41
1
10
45.246682704285
20
4.39469179697596
30
0
41
1
10
45.8081432337132
20
4.4022244566988
30
0
41
1
10
46.181091792572
20
4.39484891361118
30
0
41
1
10
46.9279903666035
20
4.35582592709008
30
0
41
1
10
47.301333835657
20
4.3241914669799
30
0
41
1
10
47.6747979529155
20
4.28034455674154
30
0
0
SPLINE
5
C1
100
AcDbEntity
8
1
62
256
6
ByLayer
370
18
48
1
60
0
100
AcDbSpline
70
4
71
3
72
58
73
54
40
0
40
0
40
0
40
0
40
0.0625000000000061
40
0.0625000000000061
40
0.0937500000000091
40
0.0937500000000091
40
0.125000000000012
40
0.125000000000012
40
0.140625000000013
40
0.140625000000013
40
0.156250000000014
40
0.156250000000014
40
0.187500000000016
40
0.187500000000016
40
0.203125000000017
40
0.203125000000017
40
0.218750000000018
40
0.218750000000018
40
0.234375000000019
40
0.234375000000019
40
0.25000000000002
40
0.25000000000002
40
0.281250000000022
40
0.281250000000022
40
0.312500000000024
40
0.312500000000024
40
0.328125000000025
40
0.328125000000025
40
0.343750000000027
40
0.343750000000027
40
0.375000000000029
40
0.375000000000029
40
0.39062500000003
40
0.39062500000003
40
0.39453125000003
40
0.39453125000003
40
0.398437500000029
40
0.398437500000029
40
0.406250000000028
40
0.406250000000028
40
0.437500000000026
40
0.437500000000026
40
0.500000000000023
40
0.500000000000023
40
0.56250000000002
40
0.56250000000002
40
0.625000000000016
40
0.625000000000016
40
0.750000000000011
40
0.750000000000011
40
0.875000000000005
40
0.875000000000005
40
1
40
1
40
1
40
1
41
1
10
4.00191268520848
20
-4.23729608296145
30
0
41
1
10
3.75648986513912
20
-4.19520247526546
30
0
41
1
10
3.51635461471989
20
-4.14217376490279
30
0
41
1
10
3.16901042725178
20
-4.03944514099052
30
0
41
1
10
3.05512270667322
20
-4.00117981040043
30
0
41
1
10
2.83473916498059
20
-3.9150854016699
30
0
41
1
10
2.72850090195902
20
-3.86741737976246
30
0
41
1
10
2.57744400655571
20
-3.78673151967354
30
0
41
1
10
2.52848714849841
20
-3.75829400007766
30
0
41
1
10
2.43399337464496
20
-3.69773411492304
30
0
41
1
10
2.38830038878848
20
-3.66549008033977
30
0
41
1
10
2.25893148839003
20
-3.56294567271252
30
0
41
1
10
2.18292642279761
20
-3.48728657669955
30
0
41
1
10
2.0930382108759
20
-3.35750157586463
30
0
41
1
10
2.06730605489625
20
-3.31150419969464
30
0
41
1
10
2.02760856378512
20
-3.21573448417288
30
0
41
1
10
2.01340023911081
20
-3.16567540311121
30
0
41
1
10
1.99848549911525
20
-3.06053227703308
30
0
41
1
10
1.99805374065625
20
-3.00606544633021
30
0
41
1
10
2.01167486357207
20
-2.89689112470055
30
0
41
1
10
2.02563361161768
20
-2.84168577231532
30
0
41
1
10
2.08899770135443
20
-2.67447099575185
30
0
41
1
10
2.15827065199957
20
-2.56597249416475
30
0
41
1
10
2.33038202031611
20
-2.36241876856531
30
0
41
1
10
2.4308964758572
20
-2.26904592837983
30
0
41
1
10
2.59566589603261
20
-2.13756564442642
30
0
41
1
10
2.65316297109087
20
-2.09508425245724
30
0
41
1
10
2.77113901138341
20
-2.01338344065528
30
0
41
1
10
2.83162623290491
20
-1.9741360906518
30
0
41
1
10
3.01681999445941
20
-1.86045509522182
30
0
41
1
10
3.14545482362343
20
-1.78993143689459
30
0
41
1
10
3.34291618621208
20
-1.69084338797475
30
0
41
1
10
3.40949059849203
20
-1.65894022634998
30
0
41
1
10
3.49353457226795
20
-1.62031334697792
30
0
41
1
10
3.5100914190823
20
-1.61186968529378
30
0
41
1
10
3.54457664184628
20
-1.59903604835824
30
0
41
1
10
3.56264351177447
20
-1.59507775025583
30
0
41
1
10
3.61835313988388
20
-1.5877185517225
30
0
41
1
10
3.6559975071122
20
-1.59030682019559
30
0
41
1
10
3.84276034559957
20
-1.59550139323844
30
0
41
1
10
3.99215678256724
20
-1.60132457063884
30
0
41
1
10
4.43987671290063
20
-1.62368586110074
30
0
41
1
10
4.73775727151451
20
-1.64511918933374
30
0
41
1
10
5.33235247021383
20
-1.70043436154052
30
0
41
1
10
5.62941137389959
20
-1.73436473646697
30
0
41
1
10
6.21937039840455
20
-1.81354831997376
30
0
41
1
10
6.51254462533996
20
-1.85882134094447
30
0
41
1
10
7.38688736237677
20
-2.0097859151997
30
0
41
1
10
7.96285038588974
20
-2.13073832035604
30
0
41
1
10
9.10246590124285
20
-2.4009788959097
30
0
41
1
10
9.66614404218308
20
-2.55012620969802
30
0
41
1
10
10.783973592527
20
-2.86021037288884
30
0
41
1
10
11.338145318256
20
-3.0210349359069
30
0
41
1
10
11.8894906309531
20
-3.17850431090736
30
0
0
SPLINE
5
C2
100
AcDbEntity
8
1
62
256
6
ByLayer
370
18
48
1
60
0
100
AcDbSpline
70
4
71
3
72
38
73
34
40
0
40
0
40
0
40
0
40
0.250000000000004
40
0.250000000000004
40
0.375000000000009
40
0.375000000000009
40
0.500000000000013
40
0.500000000000013
40
0.562500000000013
40
0.562500000000013
40
0.625000000000012
40
0.625000000000012
40
0.750000000000011
40
0.750000000000011
40
0.812500000000011
40
0.812500000000011
40
0.843750000000011
40
0.843750000000011
40
0.859375000000013
40
0.859375000000013
40
0.867187500000012
40
0.867187500000012
40
0.871093750000011
40
0.871093750000011
40
0.87500000000001
40
0.87500000000001
40
0.890625000000009
40
0.890625000000009
40
0.906250000000008
40
0.906250000000008
40
0.937500000000005
40
0.937500000000005
40
1
40
1
40
1
40
1
41
1
10
43.3326033383219
20
1.37638214808675
30
0
41
1
10
43.6912349457184
20
1.08492590196778
30
0
41
1
10
44.0658330757889
20
0.832610488271854
30
0
41
1
10
44.654288328975
20
0.519242620891106
30
0
41
1
10
44.8523554827976
20
0.427244086210294
30
0
41
1
10
45.2495393361081
20
0.270553261260432
30
0
41
1
10
45.4490806103413
20
0.205195772012047
30
0
41
1
10
45.7500386995316
20
0.129680722064165
30
0
41
1
10
45.8506507584594
20
0.1085133797325
30
0
41
1
10
46.0524717628911
20
0.0743446368238097
30
0
41
1
10
46.1538083100819
20
0.0613063565492382
30
0
41
1
10
46.4548214437564
20
0.0358638341247399
30
0
41
1
10
46.6527213451707
20
0.0372518181091834
30
0
41
1
10
46.944476801428
20
0.071622693876634
30
0
41
1
10
47.0403353436548
20
0.0884495436221187
30
0
41
1
10
47.1814497378405
20
0.122442572669002
30
0
41
1
10
47.2280139176273
20
0.13522005970313
30
0
41
1
10
47.2970613796032
20
0.156700125258624
30
0
41
1
10
47.3201440528139
20
0.16375008178116
30
0
41
1
10
47.3539358089104
20
0.176325053309171
30
0
41
1
10
47.3646180760632
20
0.182302509813979
30
0
41
1
10
47.3766051691497
20
0.197007743204949
30
0
41
1
10
47.3798198496686
20
0.202684317723623
30
0
41
1
10
47.384177407792
20
0.21576827563814
30
0
41
1
10
47.385046463047
20
0.223047365135727
30
0
41
1
10
47.3880790040947
20
0.259699252140621
30
0
41
1
10
47.3907676753656
20
0.288932329776884
30
0
41
1
10
47.394967064407
20
0.347788639654652
30
0
41
1
10
47.3967297144895
20
0.377317408919424
30
0
41
1
10
47.401055338461
20
0.466190989840385
30
0
41
1
10
47.4026575662552
20
0.525881429246169
30
0
41
1
10
47.4039530278244
20
0.70556001788816
30
0
41
1
10
47.4001756806948
20
0.825948482922911
30
0
41
1
10
47.3926103558339
20
0.946828904165869
30
0
0
SPLINE
5
C3
100
AcDbEntity
8
1
62
256
6
ByLayer
370
18
48
1
60
0
100
AcDbSpline
70
4
71
3
72
12
73
8
40
0
40
0
40
0
40
0
40
0.242937647708669
40
0.242937647708669
40
0.621468823854335
40
0.621468823854335
40
1
40
1
40
1
40
1
41
1
10
4.00189846277269
20
-4.37270427576112
30
0
41
1
10
4.00189961599531
20
-4.37304832049242
30
0
41
1
10
4.00190078055593
20
-4.37065238997244
30
0
41
1
10
4.00190377623997
20
-4.35751802058132
30
0
41
1
10
4.00190562338631
20
-4.34271460772734
30
0
41
1
10
4.00190924208965
20
-4.29970028408644
30
0
41
1
10
4.0019110046548
20
-4.27166744738946
30
0
41
1
10
4.00191268520763
20
-4.23729608296199
30
0
0
SPLINE
5
C4
100
AcDbEntity
8
1
62
256
6
ByLayer
370
18
48
1
60
0
100
AcDbSpline
70
4
71
3
72
10
73
6
40
0
40
0
40
0
40
0
40
0.5
40
0.5
40
1
40
1
40
1
40
1
41
1
10
47.6747979529137
20
-4.2803445567429
30
0
41
1
10
47.6337582863393
20
-4.31092277186025
30
0
41
1
10
47.5944862478919
20
-4.33597929254174
30
0
41
1
10
47.5194768716905
20
-4.37432417267246
30
0
41
1
10
47.4840276625908
20
-4.38741234132567
30
0
41
1
10
47.4510357592613
20
-4.39421973685171
30
0
0
SPLINE
5
C5
100
AcDbEntity
8
1
62
256
6
ByLayer
370
18
48
1
60
0
100
AcDbSpline
70
4
71
3
72
18
73
14
40
0
40
0
40
0
40
0
40
0.128515924531927
40
0.128515924531927
40
0.257031849063853
40
0.257031849063853
40
0.514063698127708
40
0.514063698127708
40
0.642579622659636
40
0.642579622659636
40
0.771095547191563
40
0.771095547191563
40
1
40
1
40
1
40
1
41
1
10
4.25073259857675
20
-4.02582859224307
30
0
41
1
10
4.54692056530953
20
-4.07825603935407
30
0
41
1
10
4.85019413535784
20
-4.11188972478749
30
0
41
1
10
5.46542397877144
20
-4.15181159172656
30
0
41
1
10
5.77805932262771
20
-4.15784468903473
30
0
41
1
10
6.72161527803672
20
-4.14261913306203
30
0
41
1
10
7.35563990693737
20
-4.08681517820847
30
0
41
1
10
8.3147598606069
20
-3.94571206061457
30
0
41
1
10
8.63626609616006
20
-3.888790302074
30
0
41
1
10
9.28135078984693
20
-3.75944038071387
30
0
41
1
10
9.60421372522987
20
-3.6867850824315
30
0
41
1
10
10.5048023772073
20
-3.46337869938603
30
0
41
1
10
11.0847569198008
20
-3.29685531144551
30
0
41
1
10
11.6724764322726
20
-3.12081975145529
30
0
0
SPLINE
5
C6
100
AcDbEntity
8
1
62
256
6
ByLayer
370
18
48
1
60
0
100
AcDbSpline
70
4
71
3
72
36
73
32
40
0
40
0
40
0
40
0
40
0.0285440999176912
40
0.0285440999176912
40
0.0748039046835163
40
0.0748039046835163
40
0.167323514215166
40
0.167323514215166
40
0.259843123746816
40
0.259843123746816
40
0.30610292851264
40
0.30610292851264
40
0.352362733278465
40
0.352362733278465
40
0.444882342810115
40
0.444882342810115
40
0.49114214757594
40
0.49114214757594
40
0.537401952341765
40
0.537401952341765
40
0.583661757107589
40
0.583661757107589
40
0.629921561873414
40
0.629921561873414
40
0.722441171405061
40
0.722441171405061
40
0.814960780936707
40
0.814960780936707
40
0.907480390468354
40
0.907480390468354
40
1
40
1
40
1
40
1
41
1
10
32.7111274072197
20
4.16738689475093
30
0
41
1
10
32.8121107271782
20
4.16716146684246
30
0
41
1
10
32.913091556995
20
4.16619199990186
30
0
41
1
10
33.1778234674841
20
4.1619769639999
30
0
41
1
10
33.3415300021521
20
4.15736244566085
30
0
41
1
10
33.8323337699319
20
4.13456155892555
30
0
41
1
10
34.1597087665522
20
4.1089742277168
30
0
41
1
10
34.8157264282294
20
4.04103708582369
30
0
41
1
10
35.144141392172
20
3.99842144091855
30
0
41
1
10
35.6355058492396
20
3.92324379370302
30
0
41
1
10
35.7994224677361
20
3.89660370337987
30
0
41
1
10
36.1267937579253
20
3.83863900406288
30
0
41
1
10
36.2904170855331
20
3.80720282423607
30
0
41
1
10
36.7814593272434
20
3.70649248595831
30
0
41
1
10
37.1085258010401
20
3.63075421753163
30
0
41
1
10
37.6002892306772
20
3.50602453697877
30
0
41
1
10
37.7642026558771
20
3.46236110694514
30
0
41
1
10
38.0925162688153
20
3.3718549576034
30
0
41
1
10
38.2567497203671
20
3.32512673386194
30
0
41
1
10
38.5847111599407
20
3.22812704749182
30
0
41
1
10
38.7483999846818
20
3.17763245318
30
0
41
1
10
39.0758015384126
20
3.07309095552458
30
0
41
1
10
39.2395481568597
20
3.01917325183598
30
0
41
1
10
39.7302845467811
20
2.85201667256706
30
0
41
1
10
40.057723346688
20
2.73478535249808
30
0
41
1
10
40.7124302666213
20
2.48845301677602
30
0
41
1
10
41.0405649378737
20
2.3606090206724
30
0
41
1
10
41.6969233293218
20
2.09415996219565
30
0
41
1
10
42.0241183036916
20
1.95516214174401
30
0
41
1
10
42.6783977698557
20
1.67049684338713
30
0
41
1
10
43.0053564689962
20
1.52455117913669
30
0
41
1
10
43.3326033383216
20
1.37638214808655
30
0
0
SPLINE
5
C7
100
AcDbEntity
8
1
62
256
6
ByLayer
370
18
48
1
60
0
100
AcDbSpline
70
4
71
3
72
74
73
70
40
0
40
0
40
0
40
0
40
0.0331241105988819
40
0.0331241105988819
40
0.0662482211977639
40
0.0662482211977639
40
0.0993723317966459
40
0.0993723317966459
40
0.132496442395528
40
0.132496442395528
40
0.16562055299441
40
0.16562055299441
40
0.182182608293851
40
0.182182608293851
40
0.198744663593292
40
0.198744663593292
40
0.231868774192174
40
0.231868774192174
40
0.264992884791056
40
0.264992884791056
40
0.298116995389938
40
0.298116995389938
40
0.33124110598882
40
0.33124110598882
40
0.364365216587701
40
0.364365216587701
40
0.397489327186583
40
0.397489327186583
40
0.430613437785465
40
0.430613437785465
40
0.463737548384347
40
0.463737548384347
40
0.496861658983229
40
0.496861658983229
40
0.529985769582111
40
0.529985769582111
40
0.563109880180993
40
0.563109880180993
40
0.596233990779875
40
0.596233990779875
40
0.629358101378757
40
0.629358101378757
40
0.662482211977639
40
0.662482211977639
40
0.695606322576521
40
0.695606322576521
40
0.728730433175403
40
0.728730433175403
40
0.761854543774285
40
0.761854543774285
40
0.778416599073726
40
0.778416599073726
40
0.794978654373167
40
0.794978654373167
40
0.828102764972049
40
0.828102764972049
40
0.861226875570931
40
0.861226875570931
40
0.894350986169813
40
0.894350986169813
40
0.927475096768695
40
0.927475096768695
40
0.960599207367577
40
0.960599207367577
40
0.977161262667017
40
0.977161262667017
40
0.993723317966458
40
0.993723317966458
40
1
40
1
40
1
40
1
41
1
10
11.8894906309531
20
3.17850431090733
30
0
41
1
10
12.2651594690497
20
3.31055109179562
30
0
41
1
10
12.6401733759413
20
3.43116845856397
30
0
41
1
10
13.3873201279685
20
3.65297678166746
30
0
41
1
10
13.7589550755101
20
3.75453244131015
30
0
41
1
10
14.5023061505
20
3.9347858289035
30
0
41
1
10
14.8736781993367
20
4.01399061069654
30
0
41
1
10
15.6155695193123
20
4.15067758859229
30
0
41
1
10
15.9867756682397
20
4.20760072491461
30
0
41
1
10
16.7308493340218
20
4.29802944599251
30
0
41
1
10
17.1029070728053
20
4.33183539060087
30
0
41
1
10
17.6636474728695
20
4.36408975648246
30
0
41
1
10
17.8510291771858
20
4.37179209960055
30
0
41
1
10
18.226502692237
20
4.3811039667273
30
0
41
1
10
18.4147850146403
20
4.38270211878429
30
0
41
1
10
18.9778827764123
20
4.37813808465455
30
0
41
1
10
19.3517148608115
20
4.36269174531449
30
0
41
1
10
20.0977618833699
20
4.30805580462828
30
0
41
1
10
20.4691079835382
20
4.26852529042924
30
0
41
1
10
21.2117163176312
20
4.16652711616959
30
0
41
1
10
21.5830602985694
20
4.10427503572816
30
0
41
1
10
22.3249337197191
20
3.956605029923
30
0
41
1
10
22.6961000117407
20
3.87158405913732
30
0
41
1
10
23.4407098216382
20
3.68093096377117
30
0
41
1
10
23.8132541568863
20
3.57431805349734
30
0
41
1
10
24.5617120274225
20
3.34122745657157
30
0
41
1
10
24.9390852338698
20
3.21487949799433
30
0
41
1
10
25.6883866033384
20
2.94436594344705
30
0
41
1
10
26.0614442788227
20
2.80093704411095
30
0
41
1
10
26.8064667933928
20
2.50140092198438
30
0
41
1
10
27.1775328286092
20
2.34380873389389
30
0
41
1
10
27.9193226718978
20
2.01728724359805
30
0
41
1
10
28.2905527117602
20
1.84932389770714
30
0
41
1
10
29.0322483480553
20
1.50138006709068
30
0
41
1
10
29.4033028227393
20
1.32242980998549
30
0
41
1
10
30.148146507774
20
0.959071864585781
30
0
41
1
10
30.5210679210577
20
0.772943439324422
30
0
41
1
10
31.2700625869121
20
0.395832335833234
30
0
41
1
10
31.6474538927952
20
0.205915476268785
30
0
41
1
10
32.3957847980259
20
-0.174199646964411
30
0
41
1
10
32.768309598204
20
-0.363872450360873
30
0
41
1
10
33.5126480729532
20
-0.737338242447066
30
0
41
1
10
33.8836271448923
20
-0.922838474268048
30
0
41
1
10
34.624993874996
20
-1.2877722985547
30
0
41
1
10
34.9961363864383
20
-1.46577026391711
30
0
41
1
10
35.7379645230868
20
-1.81547359366209
30
0
41
1
10
36.1089988592055
20
-1.98646905430027
30
0
41
1
10
36.8541647983192
20
-2.31547630848402
30
0
41
1
10
37.2275154847829
20
-2.47491366109458
30
0
41
1
10
37.7897728965502
20
-2.70437652823344
30
0
41
1
10
37.9779796903885
20
-2.77915577763758
30
0
41
1
10
38.3535484689136
20
-2.92394727538306
30
0
41
1
10
38.5409678010154
20
-2.9940881591572
30
0
41
1
10
39.1016267398982
20
-3.1985724883549
30
0
41
1
10
39.4736529001817
20
-3.32627906808853
30
0
41
1
10
40.2173402447283
20
-3.56066046993729
30
0
41
1
10
40.5882687771369
20
-3.66834259478065
30
0
41
1
10
41.3293716160556
20
-3.86333624449594
30
0
41
1
10
41.7003506311187
20
-3.94987604741928
30
0
41
1
10
42.4425057687379
20
-4.10172992348939
30
0
41
1
10
42.8135656955994
20
-4.16698224911667
30
0
41
1
10
43.5591041916068
20
-4.27353940626398
30
0
41
1
10
43.9329255264673
20
-4.31533610294994
30
0
41
1
10
44.4958022970374
20
-4.35997153936947
30
0
41
1
10
44.6838559745388
20
-4.37178429452149
30
0
41
1
10
45.0591889119085
20
-4.38911949135513
30
0
41
1
10
45.2466827042851
20
-4.39469179697596
30
0
41
1
10
45.5047635870139
20
-4.39815425848246
30
0
41
1
10
45.5756421825045
20
-4.39866069048011
30
0
41
1
10
45.6464846502956
20
-4.39872375785086
30
0
0
SPLINE
5
C8
100
AcDbEntity
8
1
62
256
6
ByLayer
370
18
48
1
60
0
100
AcDbSpline
70
4
71
3
72
28
73
24
40
0
40
0
40
0
40
0
40
0.0624999999999991
40
0.0624999999999991
40
0.124999999999998
40
0.124999999999998
40
0.187499999999997
40
0.187499999999997
40
0.218749999999997
40
0.218749999999997
40
0.249999999999997
40
0.249999999999997
40
0.375
40
0.375
40
0.4375
40
0.4375
40
0.5
40
0.5
40
0.625
40
0.625
40
0.75
40
0.75
40
1
40
1
40
1
40
1
41
1
10
43.3326033383219
20
1.37638214808672
30
0
41
1
10
43.3312846903297
20
1.24505073668053
30
0
41
1
10
43.3393760233425
20
1.11210719943375
30
0
41
1
10
43.3740694510049
20
0.8430488457264
30
0
41
1
10
43.4010620888688
20
0.705831507428428
30
0
41
1
10
43.4709552861463
20
0.437391350650387
30
0
41
1
10
43.513809351674
20
0.305340718531795
30
0
41
1
10
43.5886024883949
20
0.110148791606832
30
0
41
1
10
43.6152935070054
20
0.0455676718524387
30
0
41
1
10
43.6720516020377
20
-0.0826683322220845
30
0
41
1
10
43.7022272016033
20
-0.146527769815094
30
0
41
1
10
43.8594741752234
20
-0.460056532334903
30
0
41
1
10
44.0058651823683
20
-0.693841584963423
30
0
41
1
10
44.2482102169329
20
-1.02568991630235
30
0
41
1
10
44.3329446473891
20
-1.13329104353284
30
0
41
1
10
44.508772939239
20
-1.34215928256026
30
0
41
1
10
44.5989810745981
20
-1.44240350727989
30
0
41
1
10
44.875509198515
20
-1.73235323873033
30
0
41
1
10
45.0676794848441
20
-1.91137337271652
30
0
41
1
10
45.4644712542527
20
-2.24667194725785
30
0
41
1
10
45.6692489019271
20
-2.40297855787765
30
0
41
1
10
46.2989834094068
20
-2.84185172526713
30
0
41
1
10
46.7296676074565
20
-3.08876971019689
30
0
41
1
10
47.1689170507032
20
-3.29967650931098
30
0
0
SPLINE
5
C9
100
AcDbEntity
8
1
62
256
6
ByLayer
370
18
48
1
60
0
100
AcDbSpline
70
4
71
3
72
8
73
4
40
0
40
0
40
0
40
0
40
1
40
1
40
1
40
1
41
1
10
47.5000615355647
20
-4.27224946645779
30
0
41
1
10
47.4837454435694
20
-4.31295230930834
30
0
41
1
10
47.4674025063914
20
-4.3536101445381
30
0
41
1
10
47.4510357592612
20
-4.39421973685168
30
0
0
SPLINE
5
CA
100
AcDbEntity
8
1
62
256
6
ByLayer
370
18
48
1
60
0
100
AcDbSpline
70
4
71
3
72
8
73
4
40
0
40
0
40
0
40
0
40
1
40
1
40
1
40
1
41
1
10
48.9999626518704
20
0.0417740714919148
30
0
41
1
10
49.0000124521786
20
0.01392312311512
30
0
41
1
10
49.0000124458016
20
-0.0139266894398702
30
0
41
1
10
48.9999626518704
20
-0.0417740714744923
30
0
0
SPLINE
5
CB
100
AcDbEntity
8
1
62
256
6
ByLayer
370
18
48
1
60
0
100
AcDbSpline
70
4
71
3
72
14
73
10
40
0
40
0
40
0
40
0
40
0.25
40
0.25
40
0.5
40
0.5
40
0.75
40
0.75
40
1
40
1
40
1
40
1
41
1
10
47.3926103558339
20
0.946828904165869
30
0
41
1
10
47.3916498713792
20
0.962175735612107
30
0
41
1
10
47.3948125428548
20
0.977740943417444
30
0
41
1
10
47.4101279937018
20
1.00474206935576
30
0
41
1
10
47.4222484218453
20
1.01599602500931
30
0
41
1
10
47.4495151410347
20
1.03189342397479
30
0
41
1
10
47.4648916990651
20
1.03699268311445
30
0
41
1
10
47.4957970793508
20
1.0429108689421
30
0
41
1
10
47.5116747711744
20
1.04383648167806
30
0
41
1
10
47.5274926899751
20
1.04325793383134
30
0
0
SPLINE
5
CC
100
AcDbEntity
8
1
62
256
6
ByLayer
370
18
48
1
60
0
100
AcDbSpline
70
4
71
3
72
14
73
10
40
0
40
0
40
0
40
0
40
0.25
40
0.25
40
0.5
40
0.5
40
0.75
40
0.75
40
1
40
1
40
1
40
1
41
1
10
4.00191268520715
20
-4.23729608296566
30
0
41
1
10
4.00526805136673
20
-4.20679168711294
30
0
41
1
10
4.01328577138554
20
-4.17554225299199
30
0
41
1
10
4.04064533663751
20
-4.11728347008767
30
0
41
1
10
4.06048788127171
20
-4.08988219287221
30
0
41
1
10
4.10979911415632
20
-4.0479781461591
30
0
41
1
10
4.1384408938361
20
-4.03414455193175
30
0
41
1
10
4.19574746413201
20
-4.02088047008584
30
0
41
1
10
4.22394448865677
20
-4.02108689989143
30
0
41
1
10
4.25073259833164
20
-4.0258285921997
30
0
0
SPLINE
5
CD
100
AcDbEntity
8
1
62
256
6
ByLayer
370
18
48
1
60
0
100
AcDbSpline
70
4
71
3
72
18
73
14
40
0
40
0
40
0
40
0
40
0.329089482927399
40
0.329089482927399
40
0.493634224391097
40
0.493634224391097
40
0.658178965854795
40
0.658178965854795
40
0.822723707318493
40
0.822723707318493
40
0.987268448782191
40
0.987268448782191
40
1
40
1
40
1
40
1
41
1
10
11.8894906309531
20
3.05552186322058
30
0
41
1
10
11.2262431819975
20
3.2559062421218
30
0
41
1
10
10.5727118606136
20
3.44670387631413
30
0
41
1
10
9.59686243313251
20
3.68852188668589
30
0
41
1
10
9.27306719921336
20
3.76123278714689
30
0
41
1
10
8.62779350101863
20
3.89035432455361
30
0
41
1
10
8.30619706108416
20
3.9471635996687
30
0
41
1
10
7.66412938442554
20
4.04123324201106
30
0
41
1
10
7.34462394326357
20
4.07866778431298
30
0
41
1
10
6.71108121879638
20
4.13223632011827
30
0
41
1
10
6.39668675248558
20
4.14804394313279
30
0
41
1
10
6.06056910102117
20
4.15326945659208
30
0
41
1
10
6.03644426451092
20
4.15357945454397
30
0
41
1
10
6.0123342114492
20
4.1538228074439
30
0
0
SPLINE
5
CE
100
AcDbEntity
8
1
62
256
6
ByLayer
370
18
48
1
60
0
100
AcDbSpline
70
4
71
3
72
8
73
4
40
0
40
0
40
0
40
0
40
1
40
1
40
1
40
1
41
1
10
48.9467767535902
20
-0.993593497630343
30
0
41
1
10
48.9663246694208
20
-0.701378786110098
30
0
41
1
10
48.9805756192442
20
-0.409433719573144
30
0
41
1
10
48.9895214428147
20
-0.117758713421267
30
0
0
SPLINE
5
CF
100
AcDbEntity
8
1
62
256
6
ByLayer
370
18
48
1
60
0
100
AcDbSpline
70
4
71
3
72
16
73
12
40
0
40
0
40
0
40
0
40
0.0879193645955614
40
0.0879193645955614
40
0.298756330144089
40
0.298756330144089
40
0.509593295692615
40
0.509593295692615
40
0.931267226789666
40
0.931267226789666
40
1
40
1
40
1
40
1
41
1
10
33.4170245094746
20
-0.0022167138478437
30
0
41
1
10
33.6050274449344
20
-0.0949350178204327
30
0
41
1
10
33.7933075232646
20
-0.187783393862901
30
0
41
1
10
34.4343088191734
20
-0.503180945273584
30
0
41
1
10
34.89012910775
20
-0.726450959406435
30
0
41
1
10
35.7952919526593
20
-1.16233515688103
30
0
41
1
10
36.2457985092105
20
-1.37528070614019
30
0
41
1
10
37.594131985468
20
-1.99353473437176
30
0
41
1
10
38.4887827110946
20
-2.37827692327761
30
0
41
1
10
39.5338802521595
20
-2.77666585376991
30
0
41
1
10
39.6804656700785
20
-2.83137560992358
30
0
41
1
10
39.8271980369675
20
-2.88489475289876
30
0
0
SPLINE
5
D0
100
AcDbEntity
8
1
62
256
6
ByLayer
370
13
48
1
60
0
100
AcDbSpline
70
4
71
3
72
12
73
8
40
0
40
0
40
0
40
0
40
0.118787508670215
40
0.118787508670215
40
0.29503000693617
40
0.29503000693617
40
1
40
1
40
1
40
1
41
1
10
39.8271980369185
20
-2.88489475288085
30
0
41
1
10
40.1305654628761
20
-2.99554494539223
30
0
41
1
10
40.4345610232555
20
-3.10110585336727
30
0
41
1
10
41.1919560783744
20
-3.34923343224
30
0
41
1
10
41.6477133362561
20
-3.4853098941318
30
0
41
1
10
43.9096498345854
20
-4.087086997651
30
0
41
1
10
45.6876712511373
20
-4.32223616764111
30
0
41
1
10
47.5000615355369
20
-4.27224946644443
30
0
0
SPLINE
5
D1
100
AcDbEntity
8
1
62
256
6
ByLayer
370
18
48
1
60
0
100
AcDbSpline
70
4
71
3
72
8
73
4
40
0
40
0
40
0
40
0
40
1
40
1
40
1
40
1
41
1
10
11.6722486387844
20
3.11634818903539
30
0
41
1
10
11.7447142142416
20
3.13711092103767
30
0
41
1
10
11.8171267671475
20
3.15783651498401
30
0
41
1
10
11.8894906309531
20
3.17850431090733
30
0
0
SPLINE
5
D2
100
AcDbEntity
8
1
62
256
6
ByLayer
370
18
48
1
60
0
100
AcDbSpline
70
4
71
3
72
12
73
8
40
0
40
0
40
0
40
0
40
0.25
40
0.25
40
0.5
40
0.5
40
1
40
1
40
1
40
1
41
1
10
4.1373055512467
20
1.03791704090136
30
0
41
1
10
4.12029642290892
20
1.0462585658793
30
0
41
1
10
4.10458346806965
20
1.05629879685171
30
0
41
1
10
4.07565369175165
20
1.07963241624921
30
0
41
1
10
4.06235683062994
20
1.09309289667797
30
0
41
1
10
4.02820976040306
20
1.13654988225056
30
0
41
1
10
4.01225268022353
20
1.17069160113837
30
0
41
1
10
4.00486673062662
20
1.20617009629677
30
0
0
SPLINE
5
D3
100
AcDbEntity
8
1
62
256
6
ByLayer
370
18
48
1
60
0
100
AcDbSpline
70
4
71
3
72
88
73
84
40
0
40
0
40
0
40
0
40
0.0179139618028697
40
0.0179139618028697
40
0.036100740288002
40
0.036100740288002
40
0.0542875187731343
40
0.0542875187731343
40
0.090661075743399
40
0.090661075743399
40
0.108847854228531
40
0.108847854228531
40
0.127034632713664
40
0.127034632713664
40
0.163408189683928
40
0.163408189683928
40
0.199781746654193
40
0.199781746654193
40
0.217968525139325
40
0.217968525139325
40
0.236155303624458
40
0.236155303624458
40
0.25434208210959
40
0.25434208210959
40
0.272528860594722
40
0.272528860594722
40
0.308902417564987
40
0.308902417564987
40
0.345275974535252
40
0.345275974535252
40
0.363462753020384
40
0.363462753020384
40
0.381649531505517
40
0.381649531505517
40
0.418023088475781
40
0.418023088475781
40
0.454396645446046
40
0.454396645446046
40
0.472583423931178
40
0.472583423931178
40
0.49077020241631
40
0.49077020241631
40
0.527143759386575
40
0.527143759386575
40
0.545330537871707
40
0.545330537871707
40
0.56351731635684
40
0.56351731635684
40
0.581704094841972
40
0.581704094841972
40
0.599890873327104
40
0.599890873327104
40
0.636264430297368
40
0.636264430297368
40
0.672637987267632
40
0.672637987267632
40
0.690824765752764
40
0.690824765752764
40
0.709011544237896
40
0.709011544237896
40
0.727198322723028
40
0.727198322723028
40
0.745385101208159
40
0.745385101208159
40
0.763571879693291
40
0.763571879693291
40
0.781758658178423
40
0.781758658178423
40
0.799945436663554
40
0.799945436663554
40
0.818132215148686
40
0.818132215148686
40
0.854505772118949
40
0.854505772118949
40
0.890879329089212
40
0.890879329089212
40
0.927252886059475
40
0.927252886059475
40
0.945439664544606
40
0.945439664544606
40
0.963626443029737
40
0.963626443029737
40
1
40
1
40
1
40
1
41
1
10
38.9046463387838
20
-3.12774072856661
30
0
41
1
10
38.7434546415944
20
-3.17915733529651
30
0
41
1
10
38.5822906415496
20
-3.22884196808997
30
0
41
1
10
38.2569744201715
20
-3.32506127489225
30
0
41
1
10
38.0929142274401
20
-3.37174244762056
30
0
41
1
10
37.764701941187
20
-3.46222626621113
30
0
41
1
10
37.6005918760646
20
-3.50594598137576
30
0
41
1
10
37.1085987798899
20
-3.63073929037344
30
0
41
1
10
36.7814649758517
20
-3.70649086201325
30
0
41
1
10
36.2904540186313
20
-3.80719548213375
30
0
41
1
10
36.1268640973242
20
-3.83862526945958
30
0
41
1
10
35.7996106511129
20
-3.8965716626621
30
0
41
1
10
35.6357758093635
20
-3.92319988461631
30
0
41
1
10
35.1447091043887
20
-3.99833978503071
30
0
41
1
10
34.8169411600287
20
-4.0408945450171
30
0
41
1
10
34.1604398861046
20
-4.10891520674352
30
0
41
1
10
33.8329186962935
20
-4.13452217018724
30
0
41
1
10
33.3420696038584
20
-4.15734346992528
30
0
41
1
10
33.1783810074345
20
-4.16196363762506
30
0
41
1
10
32.8510328688033
20
-4.16718452540806
30
0
41
1
10
32.6874743091525
20
-4.16811724532138
30
0
41
1
10
32.3602642421143
20
-4.16573748363581
30
0
41
1
10
32.1964913104941
20
-4.16248988367727
30
0
41
1
10
31.86921729219
20
-4.1516628692672
30
0
41
1
10
31.7055071529549
20
-4.14409616597732
30
0
41
1
10
31.2137151049131
20
-4.11490528359738
30
0
41
1
10
30.8854831203314
20
-4.08690398129119
30
0
41
1
10
30.2303579855279
20
-4.010636645468
30
0
41
1
10
29.9034958654834
20
-3.96389636769885
30
0
41
1
10
29.4127150018824
20
-3.88139817023748
30
0
41
1
10
29.2492180938887
20
-3.85167996637031
30
0
41
1
10
28.9219874590423
20
-3.78829192816588
30
0
41
1
10
28.7582149840761
20
-3.75469906406656
30
0
41
1
10
28.2672758657192
20
-3.64794958418292
30
0
41
1
10
27.9388755951885
20
-3.56976262028468
30
0
41
1
10
27.2835615613689
20
-3.39722193648052
30
0
41
1
10
26.9564691861429
20
-3.30361470298539
30
0
41
1
10
26.4659034219217
20
-3.15126344431408
30
0
41
1
10
26.302302902901
20
-3.09878041335932
30
0
41
1
10
25.975169768865
20
-2.9910467986895
30
0
41
1
10
25.8117219711284
20
-2.93559192437914
30
0
41
1
10
25.3209352953855
20
-2.7651421387034
30
0
41
1
10
24.9937632736259
20
-2.64519553911995
30
0
41
1
10
24.501664948981
20
-2.45719563476416
30
0
41
1
10
24.3376652783973
20
-2.39324418784321
30
0
41
1
10
24.0101963408588
20
-2.26228200295273
30
0
41
1
10
23.8464852537607
20
-2.19554219866427
30
0
41
1
10
23.5192178747675
20
-2.06003127662217
30
0
41
1
10
23.3558441079441
20
-1.99095950788032
30
0
41
1
10
23.0288510657798
20
-1.851498316353
30
0
41
1
10
22.8653014800637
20
-1.78093117963718
30
0
41
1
10
22.3747030674154
20
-1.56618705634793
30
0
41
1
10
22.0475343802262
20
-1.41929763493477
30
0
41
1
10
21.3925583949698
20
-1.11832592826249
30
0
41
1
10
21.0638070034196
20
-0.965458454744947
30
0
41
1
10
20.5724917288675
20
-0.73355802687945
30
0
41
1
10
20.4087010466064
20
-0.656134436171527
30
0
41
1
10
20.0813750471603
20
-0.500401218297441
30
0
41
1
10
19.917940715059
20
-0.421881250302675
30
0
41
1
10
19.5907592351656
20
-0.265116495953834
30
0
41
1
10
19.4271031641432
20
-0.186683307710041
30
0
41
1
10
19.0997983356586
20
-0.0294106453758047
30
0
41
1
10
18.9362222721763
20
0.0495721148697044
30
0
41
1
10
18.6085028218591
20
0.206818682231528
30
0
41
1
10
18.4444825824819
20
0.285367164423775
30
0
41
1
10
18.1163841990252
20
0.44264172329153
30
0
41
1
10
17.9521853619625
20
0.520915715563802
30
0
41
1
10
17.6241495365172
20
0.676603767945323
30
0
41
1
10
17.4602705299017
20
0.754136945677629
30
0
41
1
10
17.1327336316468
20
0.908199779093536
30
0
41
1
10
16.9688653999851
20
0.984376749197139
30
0
41
1
10
16.4777587112052
20
1.21252127977524
30
0
41
1
10
16.1505135761908
20
1.36280033818869
30
0
41
1
10
15.4952714795056
20
1.65672866901909
30
0
41
1
10
15.1669339551428
20
1.8008575784292
30
0
41
1
10
14.5109191479177
20
2.07909054165913
30
0
41
1
10
14.1830233066928
20
2.21252231283614
30
0
41
1
10
13.6919007131109
20
2.40741242913126
30
0
41
1
10
13.5280817137094
20
2.4710067100803
30
0
41
1
10
13.2008087917041
20
2.59624419538568
30
0
41
1
10
13.0372672761812
20
2.65771042572624
30
0
41
1
10
12.5460614782128
20
2.83682836902219
30
0
41
1
10
12.2180228656053
20
2.94939184010988
30
0
41
1
10
11.889490630953
20
3.05552186322038
30
0
0
SPLINE
5
D4
100
AcDbEntity
8
1
62
256
6
ByLayer
370
18
48
1
60
0
100
AcDbSpline
70
4
71
3
72
8
73
4
40
0
40
0
40
0
40
0
40
1
40
1
40
1
40
1
41
1
10
48.9642454904172
20
-0.048053781281169
30
0
41
1
10
48.3248415221991
20
-1.09473630181409
30
0
41
1
10
47.7259237720057
20
-2.17817931340625
30
0
41
1
10
47.1689170507032
20
-3.29967650931101
30
0
0
SPLINE
5
D5
100
AcDbEntity
8
1
62
256
6
ByLayer
370
18
48
1
60
0
100
AcDbSpline
70
4
71
3
72
8
73
4
40
0
40
0
40
0
40
0
40
1
40
1
40
1
40
1
41
1
10
48.9467767535902
20
0.993593497630286
30
0
41
1
10
48.9663288644173
20
0.701316076626739
30
0
41
1
10
48.9805775391853
20
0.409371120658989
30
0
41
1
10
48.9895214428147
20
0.117758713421267
30
0
0
SPLINE
5
D6
100
AcDbEntity
8
1
62
256
6
ByLayer
370
18
48
1
60
0
100
AcDbSpline
70
4
71
3
72
10
73
6
40
0
40
0
40
0
40
0
40
0.887402859087382
40
0.887402859087382
40
1
40
1
40
1
40
1
41
1
10
47.5095231621937
20
-4.17789159352574
30
0
41
1
10
45.6986666000902
20
-4.20464960546465
30
0
41
1
10
43.920864976418
20
-3.95371224381017
30
0
41
1
10
41.883183609049
20
-3.40384386378193
30
0
41
1
10
41.6529343102995
20
-3.3380548925162
30
0
41
1
10
41.4227129400364
20
-3.26884899193954
30
0
0
SPLINE
5
D7
100
AcDbEntity
8
1
62
256
6
ByLayer
370
13
48
1
60
0
100
AcDbSpline
70
4
71
3
72
20
73
16
40
0
40
0
40
0
40
0
40
0.0562914703066422
40
0.0562914703066422
40
0.170597176834514
40
0.170597176834514
40
0.399208589890259
40
0.399208589890259
40
0.513514296418133
40
0.513514296418133
40
0.627820002946008
40
0.627820002946008
40
0.856431416001753
40
0.856431416001753
40
1
40
1
40
1
40
1
41
1
10
41.4227127239056
20
-3.26884892696938
30
0
41
1
10
41.1993278389757
20
-3.20169811209058
30
0
41
1
10
40.9759692487194
20
-3.13133028822108
30
0
41
1
10
40.3014633663438
20
-2.9095929736385
30
0
41
1
10
39.8515287691766
20
-2.74913958417289
30
0
41
1
10
38.5046508337859
20
-2.23764454342893
30
0
41
1
10
37.6104250100179
20
-1.85677274928236
30
0
41
1
10
36.2628957529948
20
-1.24755926209329
30
0
41
1
10
35.8126586499922
20
-1.03819383759196
30
0
41
1
10
34.9081750827624
20
-0.61057491649504
30
0
41
1
10
34.4529450389777
20
-0.392052111415012
30
0
41
1
10
33.0973630850618
20
0.260384605457773
30
0
41
1
10
32.2013949444371
20
0.694472109776086
30
0
41
1
10
30.7418514333003
20
1.37172950259881
30
0
41
1
10
30.1786961303425
20
1.625996787829
30
0
41
1
10
29.6133634063991
20
1.86914951975757
30
0
0
SPLINE
5
D8
100
AcDbEntity
8
1
62
256
6
ByLayer
370
18
48
1
60
0
100
AcDbSpline
70
4
71
3
72
8
73
4
40
0
40
0
40
0
40
0
40
1
40
1
40
1
40
1
41
1
10
48.9895214428147
20
0.117758713421267
30
0
41
1
10
48.9901863683653
20
0.0960790812988535
30
0
41
1
10
48.9941506367869
20
0.0696313783539324
30
0
41
1
10
48.9999626518678
20
0.0417740715022887
30
0
0
SPLINE
5
D9
100
AcDbEntity
8
1
62
256
6
ByLayer
370
18
48
1
60
0
100
AcDbSpline
70
4
71
3
72
14
73
10
40
0
40
0
40
0
40
0
40
0.25
40
0.25
40
0.5
40
0.5
40
0.75
40
0.75
40
1
40
1
40
1
40
1
41
1
10
47.5095231621816
20
-4.17789159352594
30
0
41
1
10
47.5128574655872
20
-4.17746350233196
30
0
41
1
10
47.5155371017339
20
-4.17874749212336
30
0
41
1
10
47.5191853080745
20
-4.18576697735901
30
0
41
1
10
47.520098734578
20
-4.19159041002166
30
0
41
1
10
47.519036155116
20
-4.20868800084134
30
0
41
1
10
47.5169932839627
20
-4.21995048171513
30
0
41
1
10
47.5101164579323
20
-4.24523189191589
30
0
41
1
10
47.5053371556204
20
-4.2590886719409
30
0
41
1
10
47.5000615355704
20
-4.27224946644353
30
0
0
SPLINE
5
DA
100
AcDbEntity
8
1
62
256
6
ByLayer
370
18
48
1
60
0
100
AcDbSpline
70
4
71
3
72
10
73
6
40
0
40
0
40
0
40
0
40
0.5
40
0.5
40
1
40
1
40
1
40
1
41
1
10
48.9999626518749
20
0.0417740715082857
30
0
41
1
10
48.9962284448318
20
0.0264320761589545
30
0
41
1
10
48.9911255648143
20
0.0099840558591211
30
0
41
1
10
48.9788205220076
20
-0.0212423475083199
30
0
41
1
10
48.9715805946109
20
-0.0360464655191493
30
0
41
1
10
48.9642454904171
20
-0.0480537812811406
30
0
0
SPLINE
5
DB
100
AcDbEntity
8
1
62
256
6
ByLayer
370
18
48
1
60
0
100
AcDbSpline
70
4
71
3
72
8
73
4
40
0
40
0
40
0
40
0
40
1
40
1
40
1
40
1
41
1
10
11.8894906309531
20
3.17850431090125
30
0
41
1
10
11.8894906309531
20
3.13549007735676
30
0
41
1
10
11.8894906309531
20
3.09301462253296
30
0
41
1
10
11.8894906309531
20
3.05107131090122
30
0
0
SPLINE
5
DC
100
AcDbEntity
8
1
62
256
6
ByLayer
370
18
48
1
60
0
100
AcDbSpline
70
4
71
3
72
27
73
23
40
0
40
0
40
0
40
0
40
0.074860249425607
40
0.074860249425607
40
0.149720498851214
40
0.149720498851214
40
0.299440997702428
40
0.299440997702428
40
0.374301247128035
40
0.374301247128035
40
0.449161496553642
40
0.524021745979249
40
0.524021745979249
40
0.598881995404857
40
0.598881995404857
40
0.748602494256071
40
0.748602494256071
40
0.823462743681678
40
0.823462743681678
40
0.898322993107285
40
0.898322993107285
40
1
40
1
40
1
40
1
41
1
10
4.00184109172497
20
1.23534130103849
30
0
41
1
10
4.00184351139052
20
1.37038605751727
30
0
41
1
10
4.00184571192349
20
1.50390714877057
30
0
41
1
10
4.0018497025693
20
1.76433655869701
30
0
41
1
10
4.00185149287131
20
1.89114530629837
30
0
41
1
10
4.00185639656019
20
2.26162332974508
30
0
41
1
10
4.00185904425558
20
2.49543538325131
30
0
41
1
10
4.00186261433868
20
2.82580623763147
30
0
41
1
10
4.00186373199949
20
2.93203403893972
30
0
41
1
10
4.00186587435198
20
3.13321228716063
30
0
41
1
10
4.00186793563068
20
3.32422362159284
30
0
41
1
10
4.0018699941852
20
3.49517269337372
30
0
41
1
10
4.0018721209567
20
3.65594955899422
30
0
41
1
10
4.00187322444762
20
3.73159982360153
30
0
41
1
10
4.00187668317969
20
3.93991861453915
30
0
41
1
10
4.00187917790998
20
4.0535489415405
30
0
41
1
10
4.00188339306232
20
4.18717540543597
30
0
41
1
10
4.00188487522558
20
4.22553875958042
30
0
41
1
10
4.00188800562188
20
4.28956612202452
30
0
41
1
10
4.00188965133216
20
4.31507402320747
30
0
41
1
10
4.00189363248663
20
4.35897696044972
30
0
41
1
10
4.00189602227914
20
4.37197645914762
30
0
41
1
10
4.00189846285133
20
4.37270429921779
30
0
0
SPLINE
5
DD
100
AcDbEntity
8
1
62
256
6
ByLayer
370
18
48
1
60
0
100
AcDbSpline
70
4
71
3
72
50
73
46
40
0
40
0
40
0
40
0
40
0.0489631909216424
40
0.0489631909216424
40
0.0979263818432848
40
0.0979263818432848
40
0.146889572764927
40
0.146889572764927
40
0.19585276368657
40
0.19585276368657
40
0.244815954608212
40
0.244815954608212
40
0.293779145529854
40
0.293779145529854
40
0.342742336451497
40
0.342742336451497
40
0.391705527373139
40
0.391705527373139
40
0.440668718294781
40
0.440668718294781
40
0.489631909216424
40
0.489631909216424
40
0.514113504677246
40
0.514113504677246
40
0.538595100138068
40
0.538595100138068
40
0.587558291059711
40
0.587558291059711
40
0.636521481981355
40
0.636521481981355
40
0.661003077442176
40
0.661003077442176
40
0.685484672902998
40
0.685484672902998
40
0.734447863824642
40
0.734447863824642
40
0.783411054746285
40
0.783411054746285
40
0.832374245667929
40
0.832374245667929
40
0.881337436589573
40
0.881337436589573
40
0.97926381843286
40
0.97926381843286
40
1
40
1
40
1
40
1
41
1
10
47.4510357592612
20
-4.39421973685171
30
0
41
1
10
46.9998689567082
20
-4.40556307556366
30
0
41
1
10
46.5490442420672
20
-4.39892406690566
30
0
41
1
10
45.6460294446132
20
-4.3499413230889
30
0
41
1
10
45.1942100601194
20
-4.30755920724201
30
0
41
1
10
44.2918999064838
20
-4.1882369004386
30
0
41
1
10
43.8403915707195
20
-4.1112116988304
30
0
41
1
10
42.9370937078678
20
-3.92418650981458
30
0
41
1
10
42.4861582931549
20
-3.81447105648212
30
0
41
1
10
41.5836088632406
20
-3.56470357861193
30
0
41
1
10
41.1315195320395
20
-3.42453523442808
30
0
41
1
10
40.2289010029003
20
-3.11810167174727
30
0
41
1
10
39.7779127124412
20
-2.95168365154075
30
0
41
1
10
38.8743763848647
20
-2.5954985926389
30
0
41
1
10
38.4231939143558
20
-2.40641624899047
30
0
41
1
10
37.5221901836864
20
-2.01090643927094
30
0
41
1
10
37.0720037206619
20
-1.8043275151222
30
0
41
1
10
36.1699567052896
20
-1.37759554931273
30
0
41
1
10
35.7176107768428
20
-1.15703884278693
30
0
41
1
10
34.8158867112718
20
-0.709724948808713
30
0
41
1
10
34.3656725643553
20
-0.482779043948796
30
0
41
1
10
33.6897005126537
20
-0.140628841520652
30
0
41
1
10
33.4642711024693
20
-0.0262843204734793
30
0
41
1
10
33.0129791804911
20
0.202556641718644
30
0
41
1
10
32.7869011875321
20
0.317172210596482
30
0
41
1
10
32.1095611289869
20
0.659092768866174
30
0
41
1
10
31.6590510372856
20
0.884548964205635
30
0
41
1
10
30.7579909394939
20
1.32637537577966
30
0
41
1
10
30.3074530291462
20
1.54276906452384
30
0
41
1
10
29.6300447550639
20
1.85753192548879
30
0
41
1
10
29.4039422987474
20
1.9608157677232
30
0
41
1
10
28.9526092440269
20
2.16266049686479
30
0
41
1
10
28.7271624635748
20
2.26133312700148
30
0
41
1
10
28.0511023874041
20
2.54999543961193
30
0
41
1
10
27.6007803050413
20
2.73264461945948
30
0
41
1
10
26.6987180667014
20
3.07484731711881
30
0
41
1
10
26.2462877660413
20
3.2346913793906
30
0
41
1
10
25.3440805424456
20
3.52567496461066
30
0
41
1
10
24.8936962338366
20
3.6570119493658
30
0
41
1
10
23.9922182374001
20
3.88910887374914
30
0
41
1
10
23.5408024697734
20
3.99008351976684
30
0
41
1
10
22.1851622570027
20
4.24299924676359
30
0
41
1
10
21.2860718566538
20
4.3438961862679
30
0
41
1
10
20.1917451404481
20
4.37969508333489
30
0
41
1
10
20.0001822020956
20
4.38274461321666
30
0
41
1
10
19.8088124569076
20
4.38258265467522
30
0
0
SPLINE
5
DE
100
AcDbEntity
8
1
62
256
6
ByLayer
370
18
48
1
60
0
100
AcDbSpline
70
4
71
3
72
12
73
8
40
0
40
0
40
0
40
0
40
0.250000000000001
40
0.250000000000001
40
0.500000000000002
40
0.500000000000002
40
1
40
1
40
1
40
1
41
1
10
47.6747979529083
20
-4.28034455676189
30
0
41
1
10
47.7739089715955
20
-4.00236034582795
30
0
41
1
10
47.8749535755023
20
-3.72561829330059
30
0
41
1
10
48.080531118358
20
-3.17422335201835
30
0
41
1
10
48.1850594779358
20
-2.8995686778793
30
0
41
1
10
48.5034692496312
20
-2.07832649582355
30
0
41
1
10
48.7222059588547
20
-1.53446855081856
30
0
41
1
10
48.9467767535902
20
-0.993593497630343
30
0
0
SPLINE
5
DF
100
AcDbEntity
8
1
62
256
6
ByLayer
370
18
48
1
60
0
100
AcDbSpline
70
4
71
3
72
26
73
22
40
0
40
0
40
0
40
0
40
0.0649531244190346
40
0.117410546469064
40
0.158016153295024
40
0.200426781448429
40
0.238740105760514
40
0.281959338059689
40
0.333943465488253
40
0.400760586526659
40
0.476200835780587
40
0.530774558434968
40
0.583429544432027
40
0.655300950511875
40
0.710891775586404
40
0.747363613639203
40
0.786437995525382
40
0.830618020255161
40
0.890460888773073
40
0.95087505749033
40
1
40
1
40
1
40
1
41
1
10
32.7150345099106
20
4.16746451343241
30
0
41
1
10
32.4927703732948
20
4.16706840138335
30
0
41
1
10
32.091151278258
20
4.16676367480883
30
0
41
1
10
31.5509699485411
20
4.16772126951867
30
0
41
1
10
31.0881438849826
20
4.16866381260186
30
0
41
1
10
30.6730030240067
20
4.16928077067672
30
0
41
1
10
30.2490115560124
20
4.16785473710405
30
0
41
1
10
29.7922433050946
20
4.16769201676266
30
0
41
1
10
29.2379715598908
20
4.16661974488036
30
0
41
1
10
28.5734688530628
20
4.16528524101341
30
0
41
1
10
27.9001074876322
20
4.16668701187766
30
0
41
1
10
27.2751953207861
20
4.16728212696313
30
0
41
1
10
26.6624880430656
20
4.16718052444716
30
0
41
1
10
26.046319658504
20
4.16464201848302
30
0
41
1
10
25.4854930397832
20
4.16494658895331
30
0
41
1
10
25.0368766315569
20
4.16511825414642
30
0
41
1
10
24.6272900547702
20
4.1653044007449
30
0
41
1
10
24.1377565271364
20
4.16542767721791
30
0
41
1
10
23.5752428943273
20
4.1639579144294
30
0
41
1
10
22.9957768017069
20
4.16417596059608
30
0
41
1
10
22.6210473601966
20
4.16426904026
30
0
41
1
10
22.4529925708345
20
4.1642740824451
30
0
0
SPLINE
5
E0
100
AcDbEntity
8
1
62
256
6
ByLayer
370
18
48
1
60
0
100
AcDbSpline
70
4
71
3
72
10
73
6
40
0
40
0
40
0
40
0
40
0.348230100500314
40
0.76728009305664
40
1
40
1
40
1
40
1
41
1
10
4.25059099876154
20
-4.15294061529156
30
0
41
1
10
4.43866486079992
20
-4.15349606953288
30
0
41
1
10
4.85396646227611
20
-4.15441317907133
30
0
41
1
10
5.39967248972673
20
-4.15309305484175
30
0
41
1
10
5.7549188145716
20
-4.15340184073116
30
0
41
1
10
5.8818055049685
20
-4.15357453208233
30
0
0
SPLINE
5
E1
100
AcDbEntity
8
1
62
256
6
ByLayer
370
18
48
1
60
0
100
AcDbSpline
70
4
71
3
72
8
73
4
40
0
40
0
40
0
40
0
40
1
40
1
40
1
40
1
41
1
10
5.91847688173635
20
-4.15362610046694
30
0
41
1
10
5.95277303592147
20
-4.15367580769063
30
0
41
1
10
5.9870730189615
20
-4.15372946610157
30
0
41
1
10
6.02137875835064
20
-4.15378536552424
30
0
0
SPLINE
5
E2
100
AcDbEntity
8
1
62
256
6
ByLayer
370
18
48
1
60
0
100
AcDbSpline
70
4
71
2
72
6
73
3
40
0
40
0
40
0
40
1
40
1
40
1
41
1
10
47.1821433329264
20
-4.17963853656491
30
0
41
1
10
47.321237870444
20
-4.1797324964954
30
0
41
1
10
47.4589949914706
20
-4.17876231936458
30
0
0
SPLINE
5
E3
100
AcDbEntity
8
1
62
256
6
ByLayer
370
18
48
1
60
0
100
AcDbSpline
70
4
71
1
72
4
73
2
40
0
40
0
40
1
40
1
41
1
10
33.4128116756588
20
0.0001927299996112
30
0
41
1
10
33.4128286119842
20
0.0001999377717823
30
0
0
SPLINE
5
E4
100
AcDbEntity
8
1
62
256
6
ByLayer
370
18
48
1
60
0
100
AcDbSpline
70
4
71
3
72
30
73
26
40
0
40
0
40
0
40
0
40
0.073036231305918
40
0.140238390898548
40
0.192482659534861
40
0.234314722581605
40
0.284711298653545
40
0.33154609753057
40
0.384711062874323
40
0.432876635911867
40
0.468907464946998
40
0.50196702007609
40
0.557946149884536
40
0.611417350882353
40
0.656863580205097
40
0.700221569912639
40
0.749117963519192
40
0.796889045441908
40
0.845571335659266
40
0.882648271265421
40
0.896652980567022
40
0.910485840635741
40
0.935669889101276
40
0.973437515692849
40
1
40
1
40
1
40
1
41
1
10
19.9746455502148
20
-4.16276881129448
30
0
41
1
10
20.2809531987896
20
-4.16228146305059
30
0
41
1
10
20.8692917423019
20
-4.16178107182463
30
0
41
1
10
21.6768559670087
20
-4.16434186234355
30
0
41
1
10
22.3545410871194
20
-4.16417861398111
30
0
41
1
10
22.962008337228
20
-4.16425973882517
30
0
41
1
10
23.5472108640371
20
-4.16392616640687
30
0
41
1
10
24.1799398912656
20
-4.16553359946599
30
0
41
1
10
24.8033389402246
20
-4.16521137502926
30
0
41
1
10
25.3812591471918
20
-4.16495004136917
30
0
41
1
10
25.874574509382
20
-4.16485498503832
30
0
41
1
10
26.4007878729727
20
-4.1656587711613
30
0
41
1
10
27.0003754793903
20
-4.16783837918811
30
0
41
1
10
27.6520821781494
20
-4.16691148066687
30
0
41
1
10
28.250683771517
20
-4.16593877795648
30
0
41
1
10
28.8300406086747
20
-4.16562714806204
30
0
41
1
10
29.4191753538805
20
-4.1671551463545
30
0
41
1
10
30.0307135190282
20
-4.16756607552091
30
0
41
1
10
30.5925150266019
20
-4.16923723973306
30
0
41
1
10
31.0122584422155
20
-4.16879027433563
30
0
41
1
10
31.2852431000407
20
-4.16822914928068
30
0
41
1
10
31.5081343196229
20
-4.16779989529189
30
0
41
1
10
31.8312418419832
20
-4.16734944492379
30
0
41
1
10
32.2078501561344
20
-4.16693621683899
30
0
41
1
10
32.4784920138119
20
-4.16730903532914
30
0
41
1
10
32.5902382933475
20
-4.1675401106063
30
0
0
SPLINE
5
E5
100
AcDbEntity
8
1
62
256
6
ByLayer
370
18
48
1
60
0
100
AcDbSpline
70
4
71
3
72
10
73
6
40
0
40
0
40
0
40
0
40
0.291872560062934
40
0.678616333445244
40
1
40
1
40
1
40
1
41
1
10
6.01846416703808
20
4.1537828164065
30
0
41
1
10
5.84597150615699
20
4.15350216416013
30
0
41
1
10
5.44525767659221
20
4.15298154341181
30
0
41
1
10
4.85396640209183
20
4.15441350347959
30
0
41
1
10
4.43866486079568
20
4.15349606953285
30
0
41
1
10
4.25059099876157
20
4.15294061529141
30
0
0
LINE
5
7B
100
AcDbEntity
8
SK1
62
256
6
ByLayer
370
18
48
1
60
0
100
AcDbLine
10
0
20
-5
30
0
11
0
21
5
31
0
39
0
210
0
220
0
230
1
0
LINE
5
7D
100
AcDbEntity
8
SK1
62
256
6
ByLayer
370
18
48
1
60
0
100
AcDbLine
10
-40
20
3.66
30
0
11
-40
21
-3.66
31
0
39
0
210
0
220
0
230
1
0
LINE
5
7E
100
AcDbEntity
8
SK1
62
256
6
ByLayer
370
18
48
1
60
0
100
AcDbLine
10
-38.66
20
5
30
0
11
-38.66
21
-5
31
0
39
0
210
0
220
0
230
1
0
LINE
5
7F
100
AcDbEntity
8
1
62
256
6
ByLayer
370
13
48
1
60
0
100
AcDbLine
10
1.272177
20
4.370998
30
0
11
1.272177
21
-4.370998
31
0
39
0
210
0
220
0
230
1
0
LINE
5
80
100
AcDbEntity
8
1
62
256
6
ByLayer
370
13
48
1
60
0
100
AcDbLine
10
0.635839
20
4.685499
30
0
11
0.635839
21
-4.685499
31
0
39
0
210
0
220
0
230
1
0
LINE
5
81
100
AcDbEntity
8
1
62
256
6
ByLayer
370
13
48
1
60
0
100
AcDbLine
10
47.39261
20
0.946829
30
0
11
48.964245
21
-0.048054
31
0
39
0
210
0
220
0
230
1
0
LINE
5
82
100
AcDbEntity
8
1
62
256
6
ByLayer
370
13
48
1
60
0
100
AcDbLine
10
47.527493
20
1.043258
30
0
11
48.989521
21
0.117759
31
0
39
0
210
0
220
0
230
1
0
LINE
5
83
100
AcDbEntity
8
1
62
256
6
ByLayer
370
18
48
1
60
0
100
AcDbLine
10
0
20
-5
30
0
11
0
21
5
31
0
39
0
210
0
220
0
230
1
0
LINE
5
84
100
AcDbEntity
8
80
62
256
6
ByLayer
370
18
48
1
60
0
100
AcDbLine
10
0
20
0
30
0
11
-5
21
0
31
0
39
0
210
0
220
0
230
1
0
LINE
5
85
100
AcDbEntity
8
SK4
62
256
6
ByLayer
370
18
48
0.05
60
0
100
AcDbLine
10
54
20
0
30
0
11
-45
21
0
31
0
39
0
210
0
220
0
230
1
0
LINE
5
87
100
AcDbEntity
8
4
62
256
6
ByLayer
370
18
48
0.05
60
0
100
AcDbLine
10
49
20
0
30
0
11
0
21
0
31
0
39
0
210
0
220
0
230
1
0
LINE
5
89
100
AcDbEntity
8
SK1
62
256
6
ByLayer
370
18
48
1
60
0
100
AcDbLine
10
-38.66
20
-5
30
0
11
0
21
-5
31
0
39
0
210
0
220
0
230
1
0
LINE
5
8A
100
AcDbEntity
8
SK1
62
256
6
ByLayer
370
18
48
1
60
0
100
AcDbLine
10
0
20
5
30
0
11
-38.66
21
5
31
0
39
0
210
0
220
0
230
1
0
LINE
5
8B
100
AcDbEntity
8
SK1
62
256
6
ByLayer
370
18
48
1
60
0
100
AcDbLine
10
-40
20
-3.66
30
0
11
-38.66
21
-5
31
0
39
0
210
0
220
0
230
1
0
LINE
5
8C
100
AcDbEntity
8
SK1
62
256
6
ByLayer
370
18
48
1
60
0
100
AcDbLine
10
-38.66
20
5
30
0
11
-40
21
3.66
31
0
39
0
210
0
220
0
230
1
0
LINE
5
8D
100
AcDbEntity
8
1
62
256
6
ByLayer
370
18
48
1
60
0
100
AcDbLine
10
1.272177
20
-4.370998
30
0
11
4.001892
21
-4.372704
31
0
39
0
210
0
220
0
230
1
0
LINE
5
8E
100
AcDbEntity
8
1
62
256
6
ByLayer
370
18
48
1
60
0
100
AcDbLine
10
18.453699
20
-4.381737
30
0
11
19.812775
21
-4.382586
31
0
39
0
210
0
220
0
230
1
0
LINE
5
8F
100
AcDbEntity
8
1
62
256
6
ByLayer
370
18
48
1
60
0
100
AcDbLine
10
45.651157
20
-4.398735
30
0
11
47.013137
21
-4.399586
31
0
39
0
210
0
220
0
230
1
0
LINE
5
90
100
AcDbEntity
8
1
62
256
6
ByLayer
370
18
48
1
60
0
100
AcDbLine
10
47.013025
20
4.399586
30
0
11
45.651157
21
4.398735
31
0
39
0
210
0
220
0
230
1
0
LINE
5
91
100
AcDbEntity
8
1
62
256
6
ByLayer
370
18
48
1
60
0
100
AcDbLine
10
19.813036
20
4.382586
30
0
11
18.453699
21
4.381737
31
0
39
0
210
0
220
0
230
1
0
LINE
5
92
100
AcDbEntity
8
1
62
256
6
ByLayer
370
18
48
1
60
0
100
AcDbLine
10
4.001892
20
4.372704
30
0
11
1.272177
21
4.370998
31
0
39
0
210
0
220
0
230
1
0
LINE
5
93
100
AcDbEntity
8
81
62
256
6
ByLayer
370
18
48
1
60
0
100
AcDbLine
10
49
20
0
30
0
11
54
21
0
31
0
39
0
210
0
220
0
230
1
0
LINE
5
94
100
AcDbEntity
8
SK2
62
256
6
ByLayer
370
13
48
1
60
0
100
AcDbLine
10
-48.625163
20
-5
30
0
11
-48.625163
21
35.857173
31
0
39
0
210
0
220
0
230
1
0
LINE
5
96
100
AcDbEntity
8
SK2
62
256
6
ByLayer
370
13
48
1
60
0
100
AcDbLine
10
-41.5875
20
5
30
0
11
-50.625163
21
5
31
0
39
0
210
0
220
0
230
1
0
LINE
5
97
100
AcDbEntity
8
SK2
62
256
6
ByLayer
370
13
48
1
60
0
100
AcDbLine
10
-41.5875
20
-5
30
0
11
-50.625163
21
-5
31
0
39
0
210
0
220
0
230
1
0
LINE
5
98
100
AcDbEntity
8
1
62
256
6
ByLayer
370
18
48
1
60
1
100
AcDbLine
10
-48.625163
20
5
30
0
11
-48.164379
21
1.500002
31
0
39
0
210
0
220
0
230
1
0
LINE
5
99
100
AcDbEntity
8
1
62
256
6
ByLayer
370
18
48
1
60
1
100
AcDbLine
10
-48.164379
20
1.500002
30
0
11
-49.085946
21
1.499998
31
0
39
0
210
0
220
0
230
1
0
LINE
5
9A
100
AcDbEntity
8
1
62
256
6
ByLayer
370
18
48
1
60
1
100
AcDbLine
10
-49.085946
20
1.499998
30
0
11
-48.625163
21
5
31
0
39
0
210
0
220
0
230
1
0
LINE
5
9B
100
AcDbEntity
8
1
62
256
6
ByLayer
370
18
48
1
60
1
100
AcDbLine
10
-48.625163
20
-5
30
0
11
-49.085946
21
-1.500002
31
0
39
0
210
0
220
0
230
1
0
LINE
5
9C
100
AcDbEntity
8
1
62
256
6
ByLayer
370
18
48
1
60
1
100
AcDbLine
10
-49.085946
20
-1.500002
30
0
11
-48.164379
21
-1.499998
31
0
39
0
210
0
220
0
230
1
0
LINE
5
9D
100
AcDbEntity
8
1
62
256
6
ByLayer
370
18
48
1
60
1
100
AcDbLine
10
-48.164379
20
-1.499998
30
0
11
-48.625163
21
-5
31
0
39
0
210
0
220
0
230
1
0
LINE
5
9E
100
AcDbEntity
8
2
62
256
6
ByLayer
370
13
48
1
60
0
100
AcDbLine
10
61.083343
20
-4.4
30
0
11
61.083343
21
32.110193
31
0
39
0
210
0
220
0
230
1
0
LINE
5
A0
100
AcDbEntity
8
2
62
256
6
ByLayer
370
13
48
1
60
0
100
AcDbLine
10
49.2843
20
4.4
30
0
11
63.083343
21
4.4
31
0
39
0
210
0
220
0
230
1
0
LINE
5
A1
100
AcDbEntity
8
2
62
256
6
ByLayer
370
13
48
1
60
0
100
AcDbLine
10
49.2843
20
-4.4
30
0
11
63.083343
21
-4.4
31
0
39
0
210
0
220
0
230
1
0
LINE
5
A2
100
AcDbEntity
8
1
62
256
6
ByLayer
370
18
48
1
60
1
100
AcDbLine
10
61.083343
20
4.4
30
0
11
61.544126
21
0.900002
31
0
39
0
210
0
220
0
230
1
0
LINE
5
A3
100
AcDbEntity
8
1
62
256
6
ByLayer
370
18
48
1
60
1
100
AcDbLine
10
61.544126
20
0.900002
30
0
11
60.622559
21
0.899998
31
0
39
0
210
0
220
0
230
1
0
LINE
5
A4
100
AcDbEntity
8
1
62
256
6
ByLayer
370
18
48
1
60
1
100
AcDbLine
10
60.622559
20
0.899998
30
0
11
61.083343
21
4.4
31
0
39
0
210
0
220
0
230
1
0
LINE
5
A5
100
AcDbEntity
8
1
62
256
6
ByLayer
370
18
48
1
60
1
100
AcDbLine
10
61.083343
20
-4.4
30
0
11
60.622559
21
-0.900002
31
0
39
0
210
0
220
0
230
1
0
LINE
5
A6
100
AcDbEntity
8
1
62
256
6
ByLayer
370
18
48
1
60
1
100
AcDbLine
10
60.622559
20
-0.900002
30
0
11
61.544126
21
-0.899998
31
0
39
0
210
0
220
0
230
1
0
LINE
5
A7
100
AcDbEntity
8
1
62
256
6
ByLayer
370
18
48
1
60
1
100
AcDbLine
10
61.544126
20
-0.899998
30
0
11
61.083343
21
-4.4
31
0
39
0
210
0
220
0
230
1
0
LINE
5
EC
100
AcDbEntity
8
1
62
256
6
ByLayer
370
18
48
1
60
1
100
AcDbLine
10
-48.625163
20
5
30
0
11
-48.164379
21
1.500002
31
0
39
0
210
0
220
0
230
1
0
LINE
5
ED
100
AcDbEntity
8
1
62
256
6
ByLayer
370
18
48
1
60
1
100
AcDbLine
10
-48.164379
20
1.500002
30
0
11
-49.085946
21
1.499998
31
0
39
0
210
0
220
0
230
1
0
LINE
5
EE
100
AcDbEntity
8
1
62
256
6
ByLayer
370
18
48
1
60
1
100
AcDbLine
10
-49.085946
20
1.499998
30
0
11
-48.625163
21
5
31
0
39
0
210
0
220
0
230
1
0
LINE
5
F0
100
AcDbEntity
8
1
62
256
6
ByLayer
370
18
48
1
60
1
100
AcDbLine
10
-48.625163
20
-5
30
0
11
-49.085946
21
-1.500002
31
0
39
0
210
0
220
0
230
1
0
LINE
5
F1
100
AcDbEntity
8
1
62
256
6
ByLayer
370
18
48
1
60
1
100
AcDbLine
10
-49.085946
20
-1.500002
30
0
11
-48.164379
21
-1.499998
31
0
39
0
210
0
220
0
230
1
0
LINE
5
F2
100
AcDbEntity
8
1
62
256
6
ByLayer
370
18
48
1
60
1
100
AcDbLine
10
-48.164379
20
-1.499998
30
0
11
-48.625163
21
-5
31
0
39
0
210
0
220
0
230
1
0
LINE
5
F6
100
AcDbEntity
8
1
62
256
6
ByLayer
370
18
48
1
60
1
100
AcDbLine
10
61.083343
20
4.4
30
0
11
61.544126
21
0.900002
31
0
39
0
210
0
220
0
230
1
0
LINE
5
F7
100
AcDbEntity
8
1
62
256
6
ByLayer
370
18
48
1
60
1
100
AcDbLine
10
61.544126
20
0.900002
30
0
11
60.622559
21
0.899998
31
0
39
0
210
0
220
0
230
1
0
LINE
5
F8
100
AcDbEntity
8
1
62
256
6
ByLayer
370
18
48
1
60
1
100
AcDbLine
10
60.622559
20
0.899998
30
0
11
61.083343
21
4.4
31
0
39
0
210
0
220
0
230
1
0
LINE
5
FA
100
AcDbEntity
8
1
62
256
6
ByLayer
370
18
48
1
60
1
100
AcDbLine
10
61.083343
20
-4.4
30
0
11
60.622559
21
-0.900002
31
0
39
0
210
0
220
0
230
1
0
LINE
5
FB
100
AcDbEntity
8
1
62
256
6
ByLayer
370
18
48
1
60
1
100
AcDbLine
10
60.622559
20
-0.900002
30
0
11
61.544126
21
-0.899998
31
0
39
0
210
0
220
0
230
1
0
LINE
5
FC
100
AcDbEntity
8
1
62
256
6
ByLayer
370
18
48
1
60
1
100
AcDbLine
10
61.544126
20
-0.899998
30
0
11
61.083343
21
-4.4
31
0
39
0
210
0
220
0
230
1
0
MTEXT
5
E6
100
AcDbEntity
8
SK6
62
256
6
ByLayer
370
13
48
1
60
0
100
AcDbMText
10
-25.082626
20
36.940328
30
0
210
0
220
0
230
1
1
\W0.7776;462.1-0880-026A0-XM X2BM
40
3.5
41
0
44
1.084337
50
0
71
7
72
5
7
iso_b_vert
0
MTEXT
5
EA
100
AcDbEntity
8
SK2
62
256
6
ByLayer
370
18
48
1
60
0
100
AcDbMText
10
-50.189796
20
18.409024
30
0
210
0
220
0
230
1
1
%%c
40
3.5
41
0
44
1.084337
50
90
71
7
72
5
7
iso_b_vert
0
MTEXT
5
EB
100
AcDbEntity
8
SK2
62
256
6
ByLayer
370
18
48
1
60
0
100
AcDbMText
10
-50.189796
20
23.63168
30
0
210
0
220
0
230
1
1
\W0.6930;10,000
40
3.5
41
0
44
1.084337
50
90
71
7
72
5
7
iso_b_vert
0
MTEXT
5
F4
100
AcDbEntity
8
2
62
256
6
ByLayer
370
18
48
1
60
0
100
AcDbMText
10
59.518709
20
16.40211
30
0
210
0
220
0
230
1
1
%%c
40
3.5
41
0
44
1.084337
50
90
71
7
72
5
7
iso_b_vert
0
MTEXT
5
F5
100
AcDbEntity
8
2
62
256
6
ByLayer
370
18
48
1
60
0
100
AcDbMText
10
59.518709
20
21.624766
30
0
210
0
220
0
230
1
1
\W0.7317;8,800
40
3.5
41
0
44
1.084337
50
90
71
7
72
5
7
iso_b_vert
0
HATCH
5
EF
100
AcDbEntity
8
SK2
62
256
6
ByLayer
370
13
48
1
60
0
100
AcDbHatch
10
0
20
0
30
0
210
0
220
0
230
1
2
ANSI31
70
0
71
0
91
1
92
5
93
3
72
1
10
-48.6251625675374
20
5
11
-48.1643788259847
21
1.50000169255318
72
1
10
-48.1643788259847
20
1.50000169255318
11
-49.0859463090902
21
1.49999830744682
72
1
10
-49.0859463090902
20
1.49999830744682
11
-48.6251625675374
21
5
97
0
75
0
76
1
52
0
41
0.0062
77
0
78
1
53
45
43
0
44
0
45
-0.0139193969876572
46
0.0139193969876572
79
0
47
0
98
1
10
0
20
0
0
HATCH
5
F3
100
AcDbEntity
8
SK2
62
256
6
ByLayer
370
13
48
1
60
0
100
AcDbHatch
10
0
20
0
30
0
210
0
220
0
230
1
2
ANSI31
70
0
71
0
91
1
92
5
93
3
72
1
10
-48.6251625675374
20
-5
11
-49.0859463090902
21
-1.50000169255318
72
1
10
-49.0859463090902
20
-1.50000169255318
11
-48.1643788259847
21
-1.49999830744682
72
1
10
-48.1643788259847
20
-1.49999830744682
11
-48.6251625675374
21
-5
97
0
75
0
76
1
52
0
41
0.0062
77
0
78
1
53
45
43
0
44
0
45
-0.0139193969876572
46
0.0139193969876572
79
0
47
0
98
1
10
0
20
0
0
HATCH
5
F9
100
AcDbEntity
8
2
62
256
6
ByLayer
370
13
48
1
60
0
100
AcDbHatch
10
0
20
0
30
0
210
0
220
0
230
1
2
ANSI31
70
0
71
0
91
1
92
5
93
3
72
1
10
61.083342615295
20
4.40000000000001
11
61.5441263568478
21
0.90000169255319
72
1
10
61.5441263568478
20
0.90000169255319
11
60.6225588737423
21
0.899998307446822
72
1
10
60.6225588737423
20
0.899998307446822
11
61.083342615295
21
4.40000000000001
97
0
75
0
76
1
52
0
41
0.0062
77
0
78
1
53
45
43
0
44
0
45
-0.0139193969876572
46
0.0139193969876572
79
0
47
0
98
1
10
0
20
0
0
HATCH
5
FD
100
AcDbEntity
8
2
62
256
6
ByLayer
370
13
48
1
60
0
100
AcDbHatch
10
0
20
0
30
0
210
0
220
0
230
1
2
ANSI31
70
0
71
0
91
1
92
5
93
3
72
1
10
61.083342615295
20
-4.39999999999998
11
60.6225588737423
21
-0.900001692553161
72
1
10
60.6225588737423
20
-0.900001692553161
11
61.5441263568478
21
-0.899998307446793
72
1
10
61.5441263568478
20
-0.899998307446793
11
61.083342615295
21
-4.39999999999998
97
0
75
0
76
1
52
0
41
0.0062
77
0
78
1
53
45
43
0
44
0
45
-0.0139193969876572
46
0.0139193969876572
79
0
47
0
98
1
10
0
20
0
0
DIMENSION
5
FF
100
AcDbEntity
8
SK2
62
256
6
ByLayer
370
13
48
1
60
0
100
AcDbDimension
2
_U0
10
47.6968
20
-14.613398
30
0
11
23.8484
21
-14.613398
31
0
70
32
71
1
72
1
41
1
210
0
220
0
230
1
3
Standard
100
AcDbAlignedDimension
13
0
23
0
33
0
14
47.6968
24
-4.4
34
0
50
0
100
AcDbRotatedDimension
1001
ACAD
1000
DSTYLE
1002
{
1070
   371
1070
    13
1070
   372
1070
    13
1070
   170
1070
     0
1070
   144
1040
1.0
1070
   277
1070
     2
1070
   278
1070
    44
1070
   146
1040
1.0
1070
   345
1005
16
1070
   347
1005
16
1070
   346
1005
16
1070
   344
1005
0
1070
   343
1005
0
1070
   172
1070
     1
1070
    76
1070
     0
1070
    75
1070
     0
1070
   282
1070
     0
1070
   281
1070
     0
1070
    71
1070
     0
1070
    74
1070
     0
1070
   279
1070
     0
1070
   173
1070
     1
1070
   340
1005
E7
1070
   271
1070
     2
1070
   272
1070
     2
1070
    77
1070
     1
1070
    73
1070
     1
1070
   171
1070
     3
1070
   274
1070
     4
1070
   177
1070
    35
1070
   176
1070
    35
1070
   178
1070
    35
1070
    48
1040
-0.1
1070
    41
1040
3.5
1070
   147
1040
1.75
1070
    42
1040
1.5875
1070
    44
1040
2.0
1070
   140
1040
3.5
1002
}
1001
ACAD_DSTYLE_DIM_LINETYPE
1070
   380
1005
16
1001
ACAD_DSTYLE_DIM_EXT1_LINETYPE
1070
   381
1005
16
1001
ACAD_DSTYLE_DIM_EXT2_LINETYPE
1070
   382
1005
16
0
DIMENSION
5
118
100
AcDbEntity
8
SK2
62
256
6
ByLayer
370
13
48
1
60
0
100
AcDbDimension
2
_U1
10
49
20
-33.692985
30
0
11
4.5
21
-33.692985
31
0
70
32
71
1
72
1
41
1
210
0
220
0
230
1
3
Standard
100
AcDbAlignedDimension
13
-40
23
-5
33
0
14
49
24
0
34
0
50
0
100
AcDbRotatedDimension
1001
ACAD
1000
DSTYLE
1002
{
1070
   371
1070
    13
1070
   372
1070
    13
1070
   170
1070
     0
1070
   144
1040
1.0
1070
   277
1070
     2
1070
   278
1070
    44
1070
   146
1040
1.0
1070
   345
1005
16
1070
   347
1005
16
1070
   346
1005
16
1070
   344
1005
0
1070
   343
1005
0
1070
   172
1070
     1
1070
    76
1070
     0
1070
    75
1070
     0
1070
   282
1070
     0
1070
   281
1070
     0
1070
    71
1070
     0
1070
    74
1070
     0
1070
   279
1070
     0
1070
   173
1070
     1
1070
   340
1005
E7
1070
   271
1070
     2
1070
   272
1070
     2
1070
    77
1070
     1
1070
    73
1070
     1
1070
   171
1070
     3
1070
   274
1070
     4
1070
   177
1070
    35
1070
   176
1070
    35
1070
   178
1070
    35
1070
    48
1040
-0.1
1070
    41
1040
3.5
1070
   147
1040
1.75
1070
    42
1040
1.5875
1070
    44
1040
2.0
1070
   140
1040
3.5
1002
}
1001
ACAD_DSTYLE_DIM_LINETYPE
1070
   380
1005
16
1001
ACAD_DSTYLE_DIM_EXT1_LINETYPE
1070
   381
1005
16
1001
ACAD_DSTYLE_DIM_EXT2_LINETYPE
1070
   382
1005
16
0
DIMENSION
5
130
100
AcDbEntity
8
SK2
62
256
6
ByLayer
370
13
48
1
60
0
100
AcDbDimension
2
_U2
10
49
20
16.009119
30
0
11
35.15
21
16.009119
31
0
70
32
71
1
72
1
41
1
210
0
220
0
230
1
3
Standard
100
AcDbAlignedDimension
13
21.3
23
4.4
33
0
14
49
24
0
34
0
50
0
100
AcDbRotatedDimension
1001
ACAD
1000
DSTYLE
1002
{
1070
   371
1070
    13
1070
   372
1070
    13
1070
   170
1070
     0
1070
   144
1040
1.0
1070
   277
1070
     2
1070
   278
1070
    44
1070
   146
1040
1.0
1070
   345
1005
16
1070
   347
1005
16
1070
   346
1005
16
1070
   344
1005
0
1070
   343
1005
0
1070
   172
1070
     1
1070
    76
1070
     0
1070
    75
1070
     0
1070
   282
1070
     0
1070
   281
1070
     0
1070
    71
1070
     0
1070
    74
1070
     0
1070
   279
1070
     0
1070
   173
1070
     1
1070
   340
1005
E7
1070
   271
1070
     2
1070
   272
1070
     2
1070
    77
1070
     1
1070
    73
1070
     1
1070
   171
1070
     3
1070
   274
1070
     4
1070
   177
1070
    35
1070
   176
1070
    35
1070
   178
1070
    35
1070
    48
1040
-0.1
1070
    41
1040
3.5
1070
   147
1040
1.75
1070
    42
1040
1.5875
1070
    44
1040
2.0
1070
   140
1040
3.5
1002
}
1001
ACAD_DSTYLE_DIM_LINETYPE
1070
   380
1005
16
1001
ACAD_DSTYLE_DIM_EXT1_LINETYPE
1070
   381
1005
16
1001
ACAD_DSTYLE_DIM_EXT2_LINETYPE
1070
   382
1005
16
0
DIMENSION
5
148
100
AcDbEntity
8
SK2
62
256
6
ByLayer
370
13
48
1
60
0
100
AcDbDimension
2
_U3
10
47.6968
20
-17.202503
30
0
11
66.333333
21
-17.202503
31
0
70
32
71
1
72
1
41
1
210
0
220
0
230
1
3
Standard
100
AcDbAlignedDimension
13
49
23
0
33
0
14
47.6968
24
-4.4
34
0
50
0
100
AcDbRotatedDimension
1001
ACAD
1000
DSTYLE
1002
{
1070
   371
1070
    13
1070
   372
1070
    13
1070
   170
1070
     0
1070
   144
1040
1.0
1070
   277
1070
     2
1070
   278
1070
    44
1070
   146
1040
1.0
1070
   345
1005
16
1070
   347
1005
16
1070
   346
1005
16
1070
   344
1005
0
1070
   343
1005
0
1070
   172
1070
     1
1070
    76
1070
     0
1070
    75
1070
     0
1070
   282
1070
     0
1070
   281
1070
     0
1070
    71
1070
     0
1070
    74
1070
     0
1070
   279
1070
     0
1070
   173
1070
     1
1070
   340
1005
E7
1070
   271
1070
     2
1070
   272
1070
     2
1070
    77
1070
     1
1070
    73
1070
     1
1070
   171
1070
     3
1070
   274
1070
     4
1070
   177
1070
    35
1070
   176
1070
    35
1070
   178
1070
    35
1070
    48
1040
-0.1
1070
    41
1040
3.5
1070
   147
1040
1.75
1070
    42
1040
1.5875
1070
    44
1040
2.0
1070
   140
1040
3.5
1002
}
1001
ACAD_DSTYLE_DIM_LINETYPE
1070
   380
1005
16
1001
ACAD_DSTYLE_DIM_EXT1_LINETYPE
1070
   381
1005
16
1001
ACAD_DSTYLE_DIM_EXT2_LINETYPE
1070
   382
1005
16
0
DIMENSION
5
162
100
AcDbEntity
8
SK2
62
256
6
ByLayer
370
13
48
1
60
0
100
AcDbDimension
2
_U4
10
47.6968
20
-23.343428
30
0
11
3.8484
21
-23.343428
31
0
70
32
71
1
72
1
41
1
210
0
220
0
230
1
3
Standard
100
AcDbAlignedDimension
13
-40
23
-5
33
0
14
47.6968
24
-4.4
34
0
50
0
100
AcDbRotatedDimension
1001
ACAD
1000
DSTYLE
1002
{
1070
   371
1070
    13
1070
   372
1070
    13
1070
   170
1070
     0
1070
   144
1040
1.0
1070
   277
1070
     2
1070
   278
1070
    44
1070
   146
1040
1.0
1070
   345
1005
16
1070
   347
1005
16
1070
   346
1005
16
1070
   344
1005
0
1070
   343
1005
0
1070
   172
1070
     1
1070
    76
1070
     0
1070
    75
1070
     0
1070
   282
1070
     0
1070
   281
1070
     0
1070
    71
1070
     0
1070
    74
1070
     0
1070
   279
1070
     0
1070
   173
1070
     1
1070
   340
1005
E7
1070
   271
1070
     2
1070
   272
1070
     2
1070
    77
1070
     1
1070
    73
1070
     1
1070
   171
1070
     3
1070
   274
1070
     4
1070
   177
1070
    35
1070
   176
1070
    35
1070
   178
1070
    35
1070
    48
1040
-0.1
1070
    41
1040
3.5
1070
   147
1040
1.75
1070
    42
1040
1.5875
1070
    44
1040
2.0
1070
   140
1040
3.5
1002
}
1001
ACAD_DSTYLE_DIM_LINETYPE
1070
   380
1005
16
1001
ACAD_DSTYLE_DIM_EXT1_LINETYPE
1070
   381
1005
16
1001
ACAD_DSTYLE_DIM_EXT2_LINETYPE
1070
   382
1005
16
0
ENDSEC
0
SECTION
2
OBJECTS
0
DICTIONARY
5
1ea
330
0
100
AcDbDictionary
280
0
281
1
3
ACAD_GROUP
350
1eb
3
ACAD_MLINESTYLE
350
1ec
0
DICTIONARY
5
1eb
330
0
100
AcDbDictionary
280
0
281
1
0
DICTIONARY
5
1ec
330
0
100
AcDbDictionary
280
0
281
1
3
Standard
350
18
0
MLINESTYLE
5
18
330
1ec
100
AcDbMlineStyle
2
Standard
70
0
3

62
256
51
90
52
90
71
2
49
-0.5
62
256
6
ByLayer
49
0.5
62
256
6
ByLayer
0
RASTERVARIABLES
5
1d8
330

100
AcDbRasterVariables
90
0
70
1
71
1
72
1
0
ENDSEC
0
EOF
