0
SECTION
2
HEADER
9
$ACADVER
1
AC1015
9
$DWGCODEPAGE
3
ANSI_1252
9
$HANDSEED
5
1f5
9
$ANGBASE
50
0
9
$ANGDIR
70
0
9
$ATTMODE
70
1
9
$AUNITS
70
0
9
$AUPREC
70
0
9
$CECOLOR
62
256
9
$CELTSCALE
40
1
9
$CELTYPE
6
ByLayer
9
$CELWEIGHT
370
18
9
$CLAYER
8
0
9
$CMLJUST
70
0
9
$CMLSCALE
40
1
9
$CMLSTYLE
2
Standard
9
$DIMSTYLE
2
Standard
9
$TEXTSIZE
40
0.2
9
$TEXTSTYLE
7
Standard
9
$LUNITS
70
2
9
$LUPREC
70
4
9
$EXTNAMES
290
1
9
$INSUNITS
70
4
9
$LTSCALE
40
1
9
$LWDISPLAY
290
1
9
$PDMODE
70
0
9
$PDSIZE
40
0
9
$PLINEGEN
70
0
0
ENDSEC
0
SECTION
2
CLASSES
0
CLASS
1
RASTERVARIABLES
2
AcDbRasterVariables
3
ISM
90
0
280
0
281
0
0
ENDSEC
0
SECTION
2
TABLES
0
TABLE
2
VPORT
5
1eb
100
AcDbSymbolTable
0
VPORT
5
1
100
AcDbSymbolTableRecord
100
AcDbViewportTableRecord
2
*Active
70
0
10
0
20
0
11
1
21
1
12
-1
22
1
13
0
23
0
14
0.5
24
0.5
15
10
25
10
16
0
26
0
36
1
17
0
27
0
37
0
0
ENDTAB
0
TABLE
2
LTYPE
5
1ec
100
AcDbSymbolTable
0
LTYPE
5
14
100
AcDbSymbolTableRecord
100
AcDbLinetypeTableRecord
70
0
2
ByBlock
3

72
65
73
0
40
0
0
LTYPE
5
15
100
AcDbSymbolTableRecord
100
AcDbLinetypeTableRecord
70
0
2
ByLayer
3

72
65
73
0
40
0
0
LTYPE
5
16
100
AcDbSymbolTableRecord
100
AcDbLinetypeTableRecord
70
0
2
Continuous
3
Solid line
72
65
73
0
40
0
0
LTYPE
5
6E
100
AcDbSymbolTableRecord
100
AcDbLinetypeTableRecord
70
0
2
CENTER
3
____ _ ____ _ ____ _ ____
72
65
73
4
40
47.5
49
22
74
0
49
-8.5
74
0
49
8.5
74
0
49
-8.5
74
0
0
LTYPE
5
6F
100
AcDbSymbolTableRecord
100
AcDbLinetypeTableRecord
70
0
2
DASHED
3
__ __ __ __ __ __ __ __ __
72
65
73
2
40
25.72
49
12.86
74
0
49
-12.86
74
0
0
ENDTAB
0
TABLE
2
LAYER
5
1ed
100
AcDbSymbolTable
0
LAYER
5
10
100
AcDbSymbolTableRecord
100
AcDbLayerTableRecord
2
0
70
0
62
7
6
Continuous
290
1
370
-3
390
0
0
LAYER
5
71
100
AcDbSymbolTableRecord
100
AcDbLayerTableRecord
2
80
70
0
62
-6
6
Continuous
290
1
370
-3
390
0
0
LAYER
5
73
100
AcDbSymbolTableRecord
100
AcDbLayerTableRecord
2
81
70
0
62
-3
6
Continuous
290
1
370
-3
390
0
0
LAYER
5
75
100
AcDbSymbolTableRecord
100
AcDbLayerTableRecord
2
1
70
0
62
4
6
Continuous
290
1
370
-3
390
0
0
LAYER
5
88
100
AcDbSymbolTableRecord
100
AcDbLayerTableRecord
2
4
70
0
62
-2
6
CENTER
290
1
370
-3
390
0
0
LAYER
5
9F
100
AcDbSymbolTableRecord
100
AcDbLayerTableRecord
2
2
70
0
62
7
6
Continuous
290
1
370
-3
390
0
0
LAYER
5
100
100
AcDbSymbolTableRecord
100
AcDbLayerTableRecord
2
Defpoints
70
0
62
7
6
Continuous
290
0
370
-3
390
0
0
LAYER
5
1d7
100
AcDbSymbolTableRecord
100
AcDbLayerTableRecord
2
SK1
70
0
62
4
6
Continuous
290
1
370
-3
390
0
0
LAYER
5
1d8
100
AcDbSymbolTableRecord
100
AcDbLayerTableRecord
2
SK4
70
0
62
2
6
CENTER
290
1
370
-3
390
0
0
LAYER
5
1d9
100
AcDbSymbolTableRecord
100
AcDbLayerTableRecord
2
SK2
70
0
62
7
6
Continuous
290
1
370
-3
390
0
0
LAYER
5
1da
100
AcDbSymbolTableRecord
100
AcDbLayerTableRecord
2
SK6
70
0
62
5
6
Continuous
290
1
370
-3
390
0
0
ENDTAB
0
TABLE
2
STYLE
5
1ee
100
AcDbSymbolTable
0
STYLE
5
11
100
AcDbSymbolTableRecord
100
AcDbTextStyleTableRecord
2
Standard
3
txt
70
0
71
0
40
0
41
1
42
0
50
0
0
STYLE
5
E5
100
AcDbSymbolTableRecord
100
AcDbTextStyleTableRecord
2
iso_b_vert
3
simplex.shx
70
0
71
0
40
0
41
1
42
0
50
0
0
STYLE
5
E6
100
AcDbSymbolTableRecord
100
AcDbTextStyleTableRecord
2
DWGDirectTextStyle
3
simplex
70
0
71
0
40
0
41
1
42
0
50
0
0
ENDTAB
0
TABLE
2
DIMSTYLE
5
1ef
100
AcDbSymbolTable
100
AcDbDimStyleTable
0
DIMSTYLE
105
27
100
AcDbSymbolTableRecord
100
AcDbDimStyleTableRecord
2
Standard
70
0
3
<>
41
0.18
42
0.0625
44
0.18
140
0.18
147
0.09
73
0
74
0
77
1
271
2
275
0
278
52
280
0
340
11
0
ENDTAB
0
TABLE
2
VIEW
5
1f0
100
AcDbSymbolTable
0
ENDTAB
0
TABLE
2
UCS
5
1f1
100
AcDbSymbolTable
0
ENDTAB
0
TABLE
2
APPID
5
1f2
100
AcDbSymbolTable
0
APPID
5
12
100
AcDbSymbolTableRecord
100
AcDbRegAppTableRecord
2
ACAD
70
0
0
APPID
5
FC
100
AcDbSymbolTableRecord
100
AcDbRegAppTableRecord
2
ACAD_DSTYLE_DIMBREAK
70
0
0
APPID
5
196
100
AcDbSymbolTableRecord
100
AcDbRegAppTableRecord
2
ACAD_DSTYLE_DIM_LINETYPE
70
0
0
APPID
5
197
100
AcDbSymbolTableRecord
100
AcDbRegAppTableRecord
2
ACAD_DSTYLE_DIM_EXT1_LINETYPE
70
0
0
APPID
5
198
100
AcDbSymbolTableRecord
100
AcDbRegAppTableRecord
2
ACAD_DSTYLE_DIM_EXT2_LINETYPE
70
0
0
APPID
5
1D3
100
AcDbSymbolTableRecord
100
AcDbRegAppTableRecord
2
ACAD_MLEADERVER
70
0
0
ENDTAB
0
TABLE
2
BLOCK_RECORD
5
1f3
100
AcDbSymbolTable
0
BLOCK_RECORD
5
1F
100
AcDbSymbolTableRecord
100
AcDbBlockTableRecord
2
*Model_Space
340
0
70
0
0
BLOCK_RECORD
5
1B
100
AcDbSymbolTableRecord
100
AcDbBlockTableRecord
2
*Paper_Space
340
0
70
0
0
BLOCK_RECORD
5
23
100
AcDbSymbolTableRecord
100
AcDbBlockTableRecord
2
*Paper_Space0
340
0
70
0
0
BLOCK_RECORD
5
101
100
AcDbSymbolTableRecord
100
AcDbBlockTableRecord
2
*D1
340
0
70
0
0
BLOCK_RECORD
5
10D
100
AcDbSymbolTableRecord
100
AcDbBlockTableRecord
2
_U0
340
0
70
0
0
BLOCK_RECORD
5
119
100
AcDbSymbolTableRecord
100
AcDbBlockTableRecord
2
*D3
340
0
70
0
0
BLOCK_RECORD
5
125
100
AcDbSymbolTableRecord
100
AcDbBlockTableRecord
2
_U1
340
0
70
0
0
BLOCK_RECORD
5
131
100
AcDbSymbolTableRecord
100
AcDbBlockTableRecord
2
*D5
340
0
70
0
0
BLOCK_RECORD
5
13D
100
AcDbSymbolTableRecord
100
AcDbBlockTableRecord
2
_U2
340
0
70
0
0
BLOCK_RECORD
5
149
100
AcDbSymbolTableRecord
100
AcDbBlockTableRecord
2
*D7
340
0
70
0
0
BLOCK_RECORD
5
157
100
AcDbSymbolTableRecord
100
AcDbBlockTableRecord
2
_U3
340
0
70
0
0
BLOCK_RECORD
5
163
100
AcDbSymbolTableRecord
100
AcDbBlockTableRecord
2
*D9
340
0
70
0
0
BLOCK_RECORD
5
16F
100
AcDbSymbolTableRecord
100
AcDbBlockTableRecord
2
_U4
340
0
70
0
0
ENDTAB
0
ENDSEC
0
SECTION
2
BLOCKS
0
BLOCK
5
20
100
AcDbEntity
8
0
100
AcDbBlockBegin
2
*Model_Space
70
0
10
0
20
0
30
0
3
*Model_Space
0
ENDBLK
5
21
100
AcDbEntity
8
0
100
AcDbBlockEnd
0
BLOCK
5
1C
100
AcDbEntity
8
0
100
AcDbBlockBegin
2
*Paper_Space
70
0
10
0
20
0
30
0
3
*Paper_Space
0
ENDBLK
5
1D
100
AcDbEntity
8
0
100
AcDbBlockEnd
0
BLOCK
5
24
100
AcDbEntity
8
0
100
AcDbBlockBegin
2
*Paper_Space0
70
0
10
0
20
0
30
0
3
*Paper_Space0
0
ENDBLK
5
25
100
AcDbEntity
8
0
100
AcDbBlockEnd
0
BLOCK
5
102
100
AcDbEntity
8
0
100
AcDbBlockBegin
2
*D1
70
1
10
0
20
0
30
0
3
*D1
0
LINE
5
104
100
AcDbEntity
8
0
62
256
6
ByLayer
370
-2
48
1
60
0
100
AcDbLine
10
0
20
-1.5875
30
0
11
0
21
-16.763398
31
0
39
0
210
0
220
0
230
1
0
LINE
5
105
100
AcDbEntity
8
0
62
256
6
ByLayer
370
-2
48
1
60
0
100
AcDbLine
10
47.6516
20
-6.1375
30
0
11
47.6516
21
-16.763398
31
0
39
0
210
0
220
0
230
1
0
LINE
5
106
100
AcDbEntity
8
0
62
256
6
ByLayer
370
-2
48
1
60
0
100
AcDbLine
10
3.5
20
-14.763398
30
0
11
44.1516
21
-14.763398
31
0
39
0
210
0
220
0
230
1
0
SOLID
5
107
100
AcDbEntity
8
0
62
256
6
ByLayer
370
-1
48
1
60
0
100
AcDbTrace
10
3.5
20
-14.180065
30
0
11
3.5
21
-15.346732
31
0
12
0
22
-14.763398
32
0
13
0
23
-14.763398
33
0
39
0
210
0
220
0
230
1
0
SOLID
5
108
100
AcDbEntity
8
0
62
256
6
ByLayer
370
-1
48
1
60
0
100
AcDbTrace
10
44.1516
20
-15.346732
30
0
11
44.1516
21
-14.180065
31
0
12
47.6516
22
-14.763398
32
0
13
47.6516
23
-14.763398
33
0
39
0
210
0
220
0
230
1
0
MTEXT
5
109
100
AcDbEntity
8
0
62
256
6
ByLayer
370
18
48
1
60
0
100
AcDbMText
10
23.8258
20
-7.763398
30
0
210
0
220
0
230
1
1
\A1;47.65
40
3.5
41
0
44
1
50
0
71
5
72
5
7
iso_b_vert
0
POINT
5
10A
100
AcDbEntity
8
Defpoints
62
0
6
ByLayer
370
-1
48
1
60
0
100
AcDbPoint
10
0
20
0
30
0
39
0
210
0
220
0
230
1
50
360
0
POINT
5
10B
100
AcDbEntity
8
Defpoints
62
0
6
ByLayer
370
-1
48
1
60
0
100
AcDbPoint
10
47.6516
20
-4.55
30
0
39
0
210
0
220
0
230
1
50
360
0
POINT
5
10C
100
AcDbEntity
8
Defpoints
62
0
6
ByLayer
370
-1
48
1
60
0
100
AcDbPoint
10
47.6516
20
-14.763398
30
0
39
0
210
0
220
0
230
1
50
360
0
ENDBLK
5
103
100
AcDbEntity
8
0
100
AcDbBlockEnd
0
BLOCK
5
114
100
AcDbEntity
8
0
100
AcDbBlockBegin
2
_U0
70
0
10
0
20
0
30
0
3
_U0
0
MTEXT
5
10E
100
AcDbEntity
8
SK2
62
256
6
ByLayer
370
13
48
1
60
0
100
AcDbMText
10
18.504235
20
-13.730765
30
0
210
0
220
0
230
1
1
\W0.7581;47,65
40
3.5
41
0
44
1.084337
50
0
71
7
72
5
7
iso_b_vert
0
LINE
5
10F
100
AcDbEntity
8
SK2
62
256
6
ByLayer
370
13
48
1
60
0
100
AcDbLine
10
0
20
-1.5875
30
0
11
0
21
-16.763398
31
0
39
0
210
0
220
0
230
1
0
LINE
5
110
100
AcDbEntity
8
SK2
62
256
6
ByLayer
370
13
48
1
60
0
100
AcDbLine
10
47.6516
20
-6.1375
30
0
11
47.6516
21
-16.763398
31
0
39
0
210
0
220
0
230
1
0
LINE
5
111
100
AcDbEntity
8
SK2
62
256
6
ByLayer
370
13
48
1
60
0
100
AcDbLine
10
0
20
-14.763398
30
0
11
47.6516
21
-14.763398
31
0
39
0
210
0
220
0
230
1
0
SOLID
5
112
100
AcDbEntity
8
SK2
62
256
6
ByLayer
370
18
48
1
60
0
100
AcDbTrace
10
0
20
-14.763398
30
0
11
3.499998
21
-14.302615
31
0
12
3.500002
22
-15.224182
32
0
13
3.500002
23
-15.224182
33
0
39
0
210
0
220
0
230
1
0
SOLID
5
113
100
AcDbEntity
8
SK2
62
256
6
ByLayer
370
18
48
1
60
0
100
AcDbTrace
10
47.6516
20
-14.763398
30
0
11
44.151602
21
-15.224182
31
0
12
44.151598
22
-14.302615
32
0
13
44.151598
23
-14.302615
33
0
39
0
210
0
220
0
230
1
0
ENDBLK
5
115
100
AcDbEntity
8
0
100
AcDbBlockEnd
0
BLOCK
5
11A
100
AcDbEntity
8
0
100
AcDbBlockBegin
2
*D3
70
1
10
0
20
0
30
0
3
*D3
0
LINE
5
11C
100
AcDbEntity
8
0
62
256
6
ByLayer
370
-2
48
1
60
0
100
AcDbLine
10
-40
20
-6.5875
30
0
11
-40
21
-35.692985
31
0
39
0
210
0
220
0
230
1
0
LINE
5
11D
100
AcDbEntity
8
0
62
256
6
ByLayer
370
-2
48
1
60
0
100
AcDbLine
10
49
20
-1.5875
30
0
11
49
21
-35.692985
31
0
39
0
210
0
220
0
230
1
0
LINE
5
11E
100
AcDbEntity
8
0
62
256
6
ByLayer
370
-2
48
1
60
0
100
AcDbLine
10
-36.5
20
-33.692985
30
0
11
45.5
21
-33.692985
31
0
39
0
210
0
220
0
230
1
0
SOLID
5
11F
100
AcDbEntity
8
0
62
256
6
ByLayer
370
-1
48
1
60
0
100
AcDbTrace
10
-36.5
20
-33.109652
30
0
11
-36.5
21
-34.276319
31
0
12
-40
22
-33.692985
32
0
13
-40
23
-33.692985
33
0
39
0
210
0
220
0
230
1
0
SOLID
5
120
100
AcDbEntity
8
0
62
256
6
ByLayer
370
-1
48
1
60
0
100
AcDbTrace
10
45.5
20
-34.276319
30
0
11
45.5
21
-33.109652
31
0
12
49
22
-33.692985
32
0
13
49
23
-33.692985
33
0
39
0
210
0
220
0
230
1
0
MTEXT
5
121
100
AcDbEntity
8
0
62
256
6
ByLayer
370
18
48
1
60
0
100
AcDbMText
10
4.5
20
-26.692985
30
0
210
0
220
0
230
1
1
\A1;89.00
40
3.5
41
0
44
1
50
0
71
5
72
5
7
iso_b_vert
0
POINT
5
122
100
AcDbEntity
8
Defpoints
62
0
6
ByLayer
370
-1
48
1
60
0
100
AcDbPoint
10
-40
20
-5
30
0
39
0
210
0
220
0
230
1
50
360
0
POINT
5
123
100
AcDbEntity
8
Defpoints
62
0
6
ByLayer
370
-1
48
1
60
0
100
AcDbPoint
10
49
20
0
30
0
39
0
210
0
220
0
230
1
50
360
0
POINT
5
124
100
AcDbEntity
8
Defpoints
62
0
6
ByLayer
370
-1
48
1
60
0
100
AcDbPoint
10
49
20
-33.692985
30
0
39
0
210
0
220
0
230
1
50
360
0
ENDBLK
5
11B
100
AcDbEntity
8
0
100
AcDbBlockEnd
0
BLOCK
5
12C
100
AcDbEntity
8
0
100
AcDbBlockBegin
2
_U1
70
0
10
0
20
0
30
0
3
_U1
0
MTEXT
5
126
100
AcDbEntity
8
SK2
62
256
6
ByLayer
370
13
48
1
60
0
100
AcDbMText
10
-0.637299
20
-32.660352
30
0
210
0
220
0
230
1
1
\W0.7317;89,00
40
3.5
41
0
44
1.084337
50
0
71
7
72
5
7
iso_b_vert
0
LINE
5
127
100
AcDbEntity
8
SK2
62
256
6
ByLayer
370
13
48
1
60
0
100
AcDbLine
10
-40
20
-6.5875
30
0
11
-40
21
-35.692985
31
0
39
0
210
0
220
0
230
1
0
LINE
5
128
100
AcDbEntity
8
SK2
62
256
6
ByLayer
370
13
48
1
60
0
100
AcDbLine
10
49
20
-1.5875
30
0
11
49
21
-35.692985
31
0
39
0
210
0
220
0
230
1
0
LINE
5
129
100
AcDbEntity
8
SK2
62
256
6
ByLayer
370
13
48
1
60
0
100
AcDbLine
10
-40
20
-33.692985
30
0
11
49
21
-33.692985
31
0
39
0
210
0
220
0
230
1
0
SOLID
5
12A
100
AcDbEntity
8
SK2
62
256
6
ByLayer
370
18
48
1
60
0
100
AcDbTrace
10
-40
20
-33.692985
30
0
11
-36.500002
21
-33.232202
31
0
12
-36.499998
22
-34.153769
32
0
13
-36.499998
23
-34.153769
33
0
39
0
210
0
220
0
230
1
0
SOLID
5
12B
100
AcDbEntity
8
SK2
62
256
6
ByLayer
370
18
48
1
60
0
100
AcDbTrace
10
49
20
-33.692985
30
0
11
45.500002
21
-34.153769
31
0
12
45.499998
22
-33.232202
32
0
13
45.499998
23
-33.232202
33
0
39
0
210
0
220
0
230
1
0
ENDBLK
5
12D
100
AcDbEntity
8
0
100
AcDbBlockEnd
0
BLOCK
5
132
100
AcDbEntity
8
0
100
AcDbBlockBegin
2
*D5
70
1
10
0
20
0
30
0
3
*D5
0
LINE
5
134
100
AcDbEntity
8
0
62
256
6
ByLayer
370
-2
48
1
60
0
100
AcDbLine
10
20.35
20
6.1375
30
0
11
20.35
21
18.159119
31
0
39
0
210
0
220
0
230
1
0
LINE
5
135
100
AcDbEntity
8
0
62
256
6
ByLayer
370
-2
48
1
60
0
100
AcDbLine
10
49
20
1.5875
30
0
11
49
21
18.159119
31
0
39
0
210
0
220
0
230
1
0
LINE
5
136
100
AcDbEntity
8
0
62
256
6
ByLayer
370
-2
48
1
60
0
100
AcDbLine
10
23.85
20
16.159119
30
0
11
45.5
21
16.159119
31
0
39
0
210
0
220
0
230
1
0
SOLID
5
137
100
AcDbEntity
8
0
62
256
6
ByLayer
370
-1
48
1
60
0
100
AcDbTrace
10
23.85
20
16.742453
30
0
11
23.85
21
15.575786
31
0
12
20.35
22
16.159119
32
0
13
20.35
23
16.159119
33
0
39
0
210
0
220
0
230
1
0
SOLID
5
138
100
AcDbEntity
8
0
62
256
6
ByLayer
370
-1
48
1
60
0
100
AcDbTrace
10
45.5
20
15.575786
30
0
11
45.5
21
16.742453
31
0
12
49
22
16.159119
32
0
13
49
23
16.159119
33
0
39
0
210
0
220
0
230
1
0
MTEXT
5
139
100
AcDbEntity
8
0
62
256
6
ByLayer
370
18
48
1
60
0
100
AcDbMText
10
34.675
20
23.159119
30
0
210
0
220
0
230
1
1
\A1;28.65
40
3.5
41
0
44
1
50
0
71
5
72
5
7
iso_b_vert
0
POINT
5
13A
100
AcDbEntity
8
Defpoints
62
0
6
ByLayer
370
-1
48
1
60
0
100
AcDbPoint
10
20.35
20
4.55
30
0
39
0
210
0
220
0
230
1
50
360
0
POINT
5
13B
100
AcDbEntity
8
Defpoints
62
0
6
ByLayer
370
-1
48
1
60
0
100
AcDbPoint
10
49
20
0
30
0
39
0
210
0
220
0
230
1
50
360
0
POINT
5
13C
100
AcDbEntity
8
Defpoints
62
0
6
ByLayer
370
-1
48
1
60
0
100
AcDbPoint
10
49
20
16.159119
30
0
39
0
210
0
220
0
230
1
50
360
0
ENDBLK
5
133
100
AcDbEntity
8
0
100
AcDbBlockEnd
0
BLOCK
5
144
100
AcDbEntity
8
0
100
AcDbBlockBegin
2
_U2
70
0
10
0
20
0
30
0
3
_U2
0
MTEXT
5
13E
100
AcDbEntity
8
SK2
62
256
6
ByLayer
370
13
48
1
60
0
100
AcDbMText
10
29.537701
20
17.191753
30
0
210
0
220
0
230
1
1
\W0.7317;28,65
40
3.5
41
0
44
1.084337
50
0
71
7
72
5
7
iso_b_vert
0
LINE
5
13F
100
AcDbEntity
8
SK2
62
256
6
ByLayer
370
13
48
1
60
0
100
AcDbLine
10
20.35
20
6.1375
30
0
11
20.35
21
18.159119
31
0
39
0
210
0
220
0
230
1
0
LINE
5
140
100
AcDbEntity
8
SK2
62
256
6
ByLayer
370
13
48
1
60
0
100
AcDbLine
10
49
20
1.5875
30
0
11
49
21
18.159119
31
0
39
0
210
0
220
0
230
1
0
LINE
5
141
100
AcDbEntity
8
SK2
62
256
6
ByLayer
370
13
48
1
60
0
100
AcDbLine
10
20.35
20
16.159119
30
0
11
49
21
16.159119
31
0
39
0
210
0
220
0
230
1
0
SOLID
5
142
100
AcDbEntity
8
SK2
62
256
6
ByLayer
370
18
48
1
60
0
100
AcDbTrace
10
20.35
20
16.159119
30
0
11
23.849998
21
16.619903
31
0
12
23.850002
22
15.698335
32
0
13
23.850002
23
15.698335
33
0
39
0
210
0
220
0
230
1
0
SOLID
5
143
100
AcDbEntity
8
SK2
62
256
6
ByLayer
370
18
48
1
60
0
100
AcDbTrace
10
49
20
16.159119
30
0
11
45.500002
21
15.698335
31
0
12
45.499998
22
16.619903
32
0
13
45.499998
23
16.619903
33
0
39
0
210
0
220
0
230
1
0
ENDBLK
5
145
100
AcDbEntity
8
0
100
AcDbBlockEnd
0
BLOCK
5
14A
100
AcDbEntity
8
0
100
AcDbBlockBegin
2
*D7
70
1
10
0
20
0
30
0
3
*D7
0
LINE
5
14C
100
AcDbEntity
8
0
62
256
6
ByLayer
370
-2
48
1
60
0
100
AcDbLine
10
49
20
-1.5875
30
0
11
49
21
-19.352503
31
0
39
0
210
0
220
0
230
1
0
LINE
5
14D
100
AcDbEntity
8
0
62
256
6
ByLayer
370
-2
48
1
60
0
100
AcDbLine
10
47.6516
20
-6.1375
30
0
11
47.6516
21
-19.352503
31
0
39
0
210
0
220
0
230
1
0
LINE
5
14E
100
AcDbEntity
8
0
62
256
6
ByLayer
370
-2
48
1
60
0
100
AcDbLine
10
49
20
-17.352503
30
0
11
76.666667
21
-17.352503
31
0
39
0
210
0
220
0
230
1
0
LINE
5
14F
100
AcDbEntity
8
0
62
256
6
ByLayer
370
-2
48
1
60
0
100
AcDbLine
10
52.5
20
-17.352503
30
0
11
56
21
-17.352503
31
0
39
0
210
0
220
0
230
1
0
LINE
5
150
100
AcDbEntity
8
0
62
256
6
ByLayer
370
-2
48
1
60
0
100
AcDbLine
10
44.1516
20
-17.352503
30
0
11
40.6516
21
-17.352503
31
0
39
0
210
0
220
0
230
1
0
SOLID
5
151
100
AcDbEntity
8
0
62
256
6
ByLayer
370
-1
48
1
60
0
100
AcDbTrace
10
52.5
20
-16.76917
30
0
11
52.5
21
-17.935837
31
0
12
49
22
-17.352503
32
0
13
49
23
-17.352503
33
0
39
0
210
0
220
0
230
1
0
SOLID
5
152
100
AcDbEntity
8
0
62
256
6
ByLayer
370
-1
48
1
60
0
100
AcDbTrace
10
44.1516
20
-17.935837
30
0
11
44.1516
21
-16.76917
31
0
12
47.6516
22
-17.352503
32
0
13
47.6516
23
-17.352503
33
0
39
0
210
0
220
0
230
1
0
MTEXT
5
153
100
AcDbEntity
8
0
62
256
6
ByLayer
370
18
48
1
60
0
100
AcDbMText
10
66.333333
20
-10.352503
30
0
210
0
220
0
230
1
1
\A1;1.35
40
3.5
41
0
44
1
50
0
71
5
72
5
7
iso_b_vert
0
POINT
5
154
100
AcDbEntity
8
Defpoints
62
0
6
ByLayer
370
-1
48
1
60
0
100
AcDbPoint
10
49
20
0
30
0
39
0
210
0
220
0
230
1
50
360
0
POINT
5
155
100
AcDbEntity
8
Defpoints
62
0
6
ByLayer
370
-1
48
1
60
0
100
AcDbPoint
10
47.6516
20
-4.55
30
0
39
0
210
0
220
0
230
1
50
360
0
POINT
5
156
100
AcDbEntity
8
Defpoints
62
0
6
ByLayer
370
-1
48
1
60
0
100
AcDbPoint
10
47.6516
20
-17.352503
30
0
39
0
210
0
220
0
230
1
50
360
0
ENDBLK
5
14B
100
AcDbEntity
8
0
100
AcDbBlockEnd
0
BLOCK
5
15E
100
AcDbEntity
8
0
100
AcDbBlockBegin
2
_U3
70
0
10
0
20
0
30
0
3
_U3
0
MTEXT
5
158
100
AcDbEntity
8
SK2
62
256
6
ByLayer
370
13
48
1
60
0
100
AcDbMText
10
55.589293
20
-16.31987
30
0
210
0
220
0
230
1
1
\W0.6367;1,35
40
3.5
41
0
44
1.084337
50
0
71
7
72
5
7
iso_b_vert
0
LINE
5
159
100
AcDbEntity
8
SK2
62
256
6
ByLayer
370
13
48
1
60
0
100
AcDbLine
10
49
20
-1.5875
30
0
11
49
21
-19.352503
31
0
39
0
210
0
220
0
230
1
0
LINE
5
15A
100
AcDbEntity
8
SK2
62
256
6
ByLayer
370
13
48
1
60
0
100
AcDbLine
10
47.6516
20
-6.1375
30
0
11
47.6516
21
-19.352503
31
0
39
0
210
0
220
0
230
1
0
LINE
5
15B
100
AcDbEntity
8
SK2
62
256
6
ByLayer
370
13
48
1
60
0
100
AcDbLine
10
38.9016
20
-17.352503
30
0
11
62.559058
21
-17.352503
31
0
39
0
210
0
220
0
230
1
0
SOLID
5
15C
100
AcDbEntity
8
SK2
62
256
6
ByLayer
370
18
48
1
60
0
100
AcDbTrace
10
49
20
-17.352503
30
0
11
52.499998
21
-16.891719
31
0
12
52.500002
22
-17.813287
32
0
13
52.500002
23
-17.813287
33
0
39
0
210
0
220
0
230
1
0
SOLID
5
15D
100
AcDbEntity
8
SK2
62
256
6
ByLayer
370
18
48
1
60
0
100
AcDbTrace
10
47.6516
20
-17.352503
30
0
11
44.151602
21
-17.813287
31
0
12
44.151598
22
-16.891719
32
0
13
44.151598
23
-16.891719
33
0
39
0
210
0
220
0
230
1
0
ENDBLK
5
15F
100
AcDbEntity
8
0
100
AcDbBlockEnd
0
BLOCK
5
164
100
AcDbEntity
8
0
100
AcDbBlockBegin
2
*D9
70
1
10
0
20
0
30
0
3
*D9
0
LINE
5
166
100
AcDbEntity
8
0
62
256
6
ByLayer
370
-2
48
1
60
0
100
AcDbLine
10
-40
20
-6.5875
30
0
11
-40
21
-25.343428
31
0
39
0
210
0
220
0
230
1
0
LINE
5
167
100
AcDbEntity
8
0
62
256
6
ByLayer
370
-2
48
1
60
0
100
AcDbLine
10
47.6516
20
-6.1375
30
0
11
47.6516
21
-25.343428
31
0
39
0
210
0
220
0
230
1
0
LINE
5
168
100
AcDbEntity
8
0
62
256
6
ByLayer
370
-2
48
1
60
0
100
AcDbLine
10
-36.5
20
-23.343428
30
0
11
44.1516
21
-23.343428
31
0
39
0
210
0
220
0
230
1
0
SOLID
5
169
100
AcDbEntity
8
0
62
256
6
ByLayer
370
-1
48
1
60
0
100
AcDbTrace
10
-36.5
20
-22.760095
30
0
11
-36.5
21
-23.926762
31
0
12
-40
22
-23.343428
32
0
13
-40
23
-23.343428
33
0
39
0
210
0
220
0
230
1
0
SOLID
5
16A
100
AcDbEntity
8
0
62
256
6
ByLayer
370
-1
48
1
60
0
100
AcDbTrace
10
44.1516
20
-23.926762
30
0
11
44.1516
21
-22.760095
31
0
12
47.6516
22
-23.343428
32
0
13
47.6516
23
-23.343428
33
0
39
0
210
0
220
0
230
1
0
MTEXT
5
16B
100
AcDbEntity
8
0
62
256
6
ByLayer
370
18
48
1
60
0
100
AcDbMText
10
3.8258
20
-16.343428
30
0
210
0
220
0
230
1
1
\A1;87.65
40
3.5
41
0
44
1
50
0
71
5
72
5
7
iso_b_vert
0
POINT
5
16C
100
AcDbEntity
8
Defpoints
62
0
6
ByLayer
370
-1
48
1
60
0
100
AcDbPoint
10
-40
20
-5
30
0
39
0
210
0
220
0
230
1
50
360
0
POINT
5
16D
100
AcDbEntity
8
Defpoints
62
0
6
ByLayer
370
-1
48
1
60
0
100
AcDbPoint
10
47.6516
20
-4.55
30
0
39
0
210
0
220
0
230
1
50
360
0
POINT
5
16E
100
AcDbEntity
8
Defpoints
62
0
6
ByLayer
370
-1
48
1
60
0
100
AcDbPoint
10
47.6516
20
-23.343428
30
0
39
0
210
0
220
0
230
1
50
360
0
ENDBLK
5
165
100
AcDbEntity
8
0
100
AcDbBlockEnd
0
BLOCK
5
176
100
AcDbEntity
8
0
100
AcDbBlockBegin
2
_U4
70
0
10
0
20
0
30
0
3
_U4
0
MTEXT
5
170
100
AcDbEntity
8
SK2
62
256
6
ByLayer
370
13
48
1
60
0
100
AcDbMText
10
-1.311499
20
-22.310795
30
0
210
0
220
0
230
1
1
\W0.7317;87,65
40
3.5
41
0
44
1.084337
50
0
71
7
72
5
7
iso_b_vert
0
LINE
5
171
100
AcDbEntity
8
SK2
62
256
6
ByLayer
370
13
48
1
60
0
100
AcDbLine
10
-40
20
-6.5875
30
0
11
-40
21
-25.343428
31
0
39
0
210
0
220
0
230
1
0
LINE
5
172
100
AcDbEntity
8
SK2
62
256
6
ByLayer
370
13
48
1
60
0
100
AcDbLine
10
47.6516
20
-6.1375
30
0
11
47.6516
21
-25.343428
31
0
39
0
210
0
220
0
230
1
0
LINE
5
173
100
AcDbEntity
8
SK2
62
256
6
ByLayer
370
13
48
1
60
0
100
AcDbLine
10
-40
20
-23.343428
30
0
11
47.6516
21
-23.343428
31
0
39
0
210
0
220
0
230
1
0
SOLID
5
174
100
AcDbEntity
8
SK2
62
256
6
ByLayer
370
18
48
1
60
0
100
AcDbTrace
10
-40
20
-23.343428
30
0
11
-36.500002
21
-22.882645
31
0
12
-36.499998
22
-23.804212
32
0
13
-36.499998
23
-23.804212
33
0
39
0
210
0
220
0
230
1
0
SOLID
5
175
100
AcDbEntity
8
SK2
62
256
6
ByLayer
370
18
48
1
60
0
100
AcDbTrace
10
47.6516
20
-23.343428
30
0
11
44.151602
21
-23.804212
31
0
12
44.151598
22
-22.882645
32
0
13
44.151598
23
-22.882645
33
0
39
0
210
0
220
0
230
1
0
ENDBLK
5
177
100
AcDbEntity
8
0
100
AcDbBlockEnd
0
ENDSEC
0
SECTION
2
ENTITIES
0
ARC
5
A8
100
AcDbEntity
8
1
62
256
6
ByLayer
370
18
48
1
60
0
100
AcDbCircle
39
0
10
1.141701
20
-5.320945
30
0
40
0.8
210
0
220
0
230
1
100
AcDbArc
50
89.96419
51
135.525577
0
ARC
5
A9
100
AcDbEntity
8
1
62
256
6
ByLayer
370
18
48
1
60
0
100
AcDbCircle
39
0
10
0
20
-4.2
30
0
40
0.8
210
0
220
0
230
1
100
AcDbArc
50
270
51
315.525577
0
ARC
5
AA
100
AcDbEntity
8
1
62
256
6
ByLayer
370
18
48
1
60
0
100
AcDbCircle
39
0
10
1.141701
20
5.320945
30
0
40
0.8
210
0
220
0
230
1
100
AcDbArc
50
224.474423
51
270.03581
0
ARC
5
AB
100
AcDbEntity
8
1
62
256
6
ByLayer
370
18
48
1
60
0
100
AcDbCircle
39
0
10
0
20
4.2
30
0
40
0.8
210
0
220
0
230
1
100
AcDbArc
50
44.474423
51
90
0
ELLIPSE
5
AC
100
AcDbEntity
8
1
62
256
6
ByLayer
370
13
48
1
60
0
100
AcDbEllipse
10
4.181931
20
1.116678
30
0
11
-0.0521768333553233
21
-0.0853087220687945
31
0
210
0
220
0
230
1
40
0.298364
41
-1.12732054943572
42
-0.55805268310175
0
ELLIPSE
5
AD
100
AcDbEntity
8
1
62
256
6
ByLayer
370
18
48
1
60
0
100
AcDbEllipse
10
4.25
20
4.545949
30
0
11
0.25
21
0
31
0
210
0
220
0
230
1
40
0.999997
41
-3.13356583149793
42
-1.56192045850708
0
ELLIPSE
5
AE
100
AcDbEntity
8
1
62
256
6
ByLayer
370
18
48
1
60
0
100
AcDbEllipse
10
4.25
20
-4.545949
30
0
11
0.25
21
0
31
0
210
0
220
0
230
1
40
0.999997
41
1.5747994534551
42
3.1335658314978
0
POINT
5
70
100
AcDbEntity
8
80
62
256
6
ByLayer
370
18
48
1
60
0
100
AcDbPoint
10
0
20
0
30
0
39
0
210
0
220
0
230
1
50
360
0
POINT
5
72
100
AcDbEntity
8
81
62
256
6
ByLayer
370
18
48
1
60
0
100
AcDbPoint
10
49
20
0
30
0
39
0
210
0
220
0
230
1
50
360
0
POINT
5
74
100
AcDbEntity
8
1
62
256
6
ByLayer
370
18
48
1
60
1
100
AcDbPoint
10
47.6516
20
-4.55
30
0
39
0
210
0
220
0
230
1
50
360
0
POINT
5
76
100
AcDbEntity
8
1
62
256
6
ByLayer
370
18
48
1
60
1
100
AcDbPoint
10
-40
20
-5
30
0
39
0
210
0
220
0
230
1
50
360
0
POINT
5
77
100
AcDbEntity
8
1
62
256
6
ByLayer
370
18
48
1
60
1
100
AcDbPoint
10
20.35
20
4.55
30
0
39
0
210
0
220
0
230
1
50
360
0
POINT
5
78
100
AcDbEntity
8
1
62
256
6
ByLayer
370
18
48
1
60
1
100
AcDbPoint
10
47.6516
20
-4.55
30
0
39
0
210
0
220
0
230
1
50
360
0
POINT
5
79
100
AcDbEntity
8
1
62
256
6
ByLayer
370
18
48
1
60
1
100
AcDbPoint
10
-40
20
-5
30
0
39
0
210
0
220
0
230
1
50
360
0
POINT
5
7A
100
AcDbEntity
8
1
62
256
6
ByLayer
370
18
48
1
60
1
100
AcDbPoint
10
47.6516
20
-4.55
30
0
39
0
210
0
220
0
230
1
50
360
0
SPLINE
5
AF
100
AcDbEntity
8
1
62
256
6
ByLayer
370
18
48
1
60
0
100
AcDbSpline
70
4
71
3
72
8
73
4
40
0
40
0
40
0
40
0
40
1
40
1
40
1
40
1
41
1
10
48.9895293792802
20
-0.11775368944518
30
0
41
1
10
48.9901910719319
20
-0.0960756740028614
30
0
41
1
10
48.9941533022856
20
-0.0696293301116668
30
0
41
1
10
48.9999638839072
20
-0.0417736196013436
30
0
0
SPLINE
5
B0
100
AcDbEntity
8
1
62
256
6
ByLayer
370
18
48
1
60
0
100
AcDbSpline
70
4
71
3
72
14
73
10
40
0
40
0
40
0
40
0
40
0.25
40
0.25
40
0.5
40
0.5
40
0.75
40
0.75
40
1
40
1
40
1
40
1
41
1
10
47.3497105726346
20
0.973985494502926
30
0
41
1
10
47.3488499109072
20
0.989313698848463
30
0
41
1
10
47.3521360502302
20
1.0048323076895
30
0
41
1
10
47.3676181087654
20
1.03170849566089
30
0
41
1
10
47.3797759019141
20
1.04289956500168
30
0
41
1
10
47.4070679599679
20
1.05873914910711
30
0
41
1
10
47.4224367022255
20
1.06383510801203
30
0
41
1
10
47.4533308532466
20
1.06977053767909
30
0
41
1
10
47.4691884519356
20
1.07071482464156
30
0
41
1
10
47.4849998531174
20
1.07015691738661
30
0
0
SPLINE
5
B1
100
AcDbEntity
8
1
62
256
6
ByLayer
370
18
48
1
60
0
100
AcDbSpline
70
4
71
3
72
16
73
12
40
0
40
0
40
0
40
0
40
0.325998510760652
40
0.325998510760652
40
0.488997766140976
40
0.488997766140976
40
0.651997021521301
40
0.651997021521301
40
0.97799553228195
40
0.97799553228195
40
1
40
1
40
1
40
1
41
1
10
11.8871206937805
20
3.17526615998159
30
0
41
1
10
11.2222994453428
20
3.38464052219854
30
0
41
1
10
10.5679258363727
20
3.58241793325763
30
0
41
1
10
9.59059360415475
20
3.83152455682173
30
0
41
1
10
9.26698956919472
20
3.90590242659744
30
0
41
1
10
8.62435424606213
20
4.03697541797436
30
0
41
1
10
8.30498674161657
20
4.09410669140351
30
0
41
1
10
7.35155235482813
20
4.23482008423073
30
0
41
1
10
6.72168603973853
20
4.28876122330823
30
0
41
1
10
6.05509991612351
20
4.29660134491951
30
0
41
1
10
6.01297661307871
20
4.2968920163411
30
0
41
1
10
5.97088070131664
20
4.29696967686343
30
0
0
SPLINE
5
B2
100
AcDbEntity
8
1
62
256
6
ByLayer
370
18
48
1
60
0
100
AcDbSpline
70
4
71
3
72
12
73
8
40
0
40
0
40
0
40
0
40
0.249999999999999
40
0.249999999999999
40
0.499999999999998
40
0.499999999999998
40
1
40
1
40
1
40
1
41
1
10
47.6294538927057
20
-4.42638964084037
30
0
41
1
10
47.731247972861
20
-4.13958817367367
30
0
41
1
10
47.8353283057662
20
-3.85369035679821
30
0
41
1
10
48.0475053451713
20
-3.28347433482099
30
0
41
1
10
48.1556086169179
20
-2.99915875256028
30
0
41
1
10
48.4852955495547
20
-2.14831802665552
30
0
41
1
10
48.7125060776127
20
-1.58348374905089
30
0
41
1
10
48.9455528648927
20
-1.02205460056578
30
0
0
SPLINE
5
B3
100
AcDbEntity
8
1
62
256
6
ByLayer
370
18
48
1
60
0
100
AcDbSpline
70
4
71
3
72
8
73
4
40
0
40
0
40
0
40
0
40
1
40
1
40
1
40
1
41
1
10
48.9455528648927
20
-1.02205460056581
30
0
41
1
10
48.9656753848007
20
-0.720342663328296
30
0
41
1
10
48.9803370166408
20
-0.418908883986575
30
0
41
1
10
48.9895293792802
20
-0.117753689445266
30
0
0
SPLINE
5
B4
100
AcDbEntity
8
1
62
256
6
ByLayer
370
18
48
1
60
0
100
AcDbSpline
70
4
71
3
72
8
73
4
40
0
40
0
40
0
40
0
40
1
40
1
40
1
40
1
41
1
10
48.9999638839087
20
0.041773619596313
30
0
41
1
10
49.0000120413882
20
0.0139229830682837
30
0
41
1
10
49.0000120353691
20
-0.0139264641032071
30
0
41
1
10
48.9999638839087
20
-0.0417736195987004
30
0
0
SPLINE
5
B5
100
AcDbEntity
8
1
62
256
6
ByLayer
370
13
48
1
60
0
100
AcDbSpline
70
4
71
3
72
12
73
8
40
0
40
0
40
0
40
0
40
0.500000000000003
40
0.500000000000003
40
0.750000000000001
40
0.750000000000001
40
1
40
1
40
1
40
1
41
1
10
4.00104045468134
20
1.25791976464262
30
0
41
1
10
4.00473370685876
20
1.22453892125955
30
0
41
1
10
4.01837040261503
20
1.19196114963302
30
0
41
1
10
4.05248259170602
20
1.14953563505077
30
0
41
1
10
4.06641497405406
20
1.13615040445367
30
0
41
1
10
4.09843910484668
20
1.11261622576669
30
0
41
1
10
4.11638062045489
20
1.10245903107875
30
0
41
1
10
4.13655216642161
20
1.09413521817001
30
0
0
SPLINE
5
B6
100
AcDbEntity
8
1
62
256
6
ByLayer
370
18
48
1
60
0
100
AcDbSpline
70
4
71
3
72
74
73
70
40
0
40
0
40
0
40
0
40
0.0331268319157303
40
0.0331268319157303
40
0.0662536638314607
40
0.0662536638314607
40
0.0993804957471911
40
0.0993804957471911
40
0.132507327662921
40
0.132507327662921
40
0.165634159578652
40
0.165634159578652
40
0.182197575536517
40
0.182197575536517
40
0.198760991494383
40
0.198760991494383
40
0.231887823410114
40
0.231887823410114
40
0.265014655325845
40
0.265014655325845
40
0.298141487241577
40
0.298141487241577
40
0.331268319157308
40
0.331268319157308
40
0.364395151073039
40
0.364395151073039
40
0.380958567030905
40
0.380958567030905
40
0.397521982988771
40
0.397521982988771
40
0.430648814904501
40
0.430648814904501
40
0.463775646820231
40
0.463775646820231
40
0.496902478735962
40
0.496902478735962
40
0.530029310651692
40
0.530029310651692
40
0.563156142567422
40
0.563156142567422
40
0.596282974483153
40
0.596282974483153
40
0.629409806398883
40
0.629409806398883
40
0.662536638314613
40
0.662536638314613
40
0.695663470230344
40
0.695663470230344
40
0.728790302146074
40
0.728790302146074
40
0.745353718103939
40
0.745353718103939
40
0.761917134061804
40
0.761917134061804
40
0.795043965977536
40
0.795043965977536
40
0.828170797893267
40
0.828170797893267
40
0.861297629808998
40
0.861297629808998
40
0.894424461724729
40
0.894424461724729
40
0.927551293640461
40
0.927551293640461
40
0.960678125556192
40
0.960678125556192
40
0.993804957471923
40
0.993804957471923
40
1
40
1
40
1
40
1
41
1
10
11.8871206937804
20
3.30243752270815
30
0
41
1
10
12.2621144006076
20
3.43805846163579
30
0
41
1
10
12.6364608162566
20
3.56188756821177
30
0
41
1
10
13.3822370710159
20
3.78940612016973
30
0
41
1
10
13.7531292772831
20
3.89348068953484
30
0
41
1
10
14.4950766010825
20
4.07807801394935
30
0
41
1
10
14.8658031232692
20
4.15908421075764
30
0
41
1
10
15.6064028477773
20
4.29870710150621
30
0
41
1
10
15.9770020035258
20
4.35675107460932
30
0
41
1
10
16.7201029843859
20
4.44864866029036
30
0
41
1
10
17.0917293614657
20
4.48282069671757
30
0
41
1
10
17.6519722318808
20
4.51504453456727
30
0
41
1
10
17.8392268514126
20
4.52263638597174
30
0
41
1
10
18.2145324547534
20
4.53152036438047
30
0
41
1
10
18.4024367800232
20
4.5327947587802
30
0
41
1
10
18.9638293828943
20
4.52701222207943
30
0
41
1
10
19.3365450520194
20
4.51040134529532
30
0
41
1
10
20.0806608123666
20
4.45277989428504
30
0
41
1
10
20.4511275278922
20
4.41143075457993
30
0
41
1
10
21.1920726507466
20
4.30501070061425
30
0
41
1
10
21.5628131741516
20
4.24025596511572
30
0
41
1
10
22.3036070353469
20
4.08677730234467
30
0
41
1
10
22.6743193471618
20
3.99842990866324
30
0
41
1
10
23.4185385247622
20
3.80048554191813
30
0
41
1
10
23.7911038892548
20
3.68991227319773
30
0
41
1
10
24.3526588605594
20
3.5083496778627
30
0
41
1
10
24.5407210156738
20
3.44527826200755
30
0
41
1
10
24.915831229095
20
3.31481560133463
30
0
41
1
10
25.1029027724742
20
3.24730652753166
30
0
41
1
10
25.6626090491186
20
3.03786658527176
30
0
41
1
10
26.0342306636569
20
2.88970692622451
30
0
41
1
10
26.7769258923274
20
2.58043510988534
30
0
41
1
10
27.1470860416504
20
2.41788941739634
30
0
41
1
10
27.8872230704056
20
2.0804926837022
30
0
41
1
10
28.2579131037941
20
1.9069254457969
30
0
41
1
10
28.9990081895433
20
1.54734440671552
30
0
41
1
10
29.3698726101459
20
1.36207618760579
30
0
41
1
10
30.1150845089958
20
0.985882663950918
30
0
41
1
10
30.4885844237809
20
0.793338803522829
30
0
41
1
10
31.239100165974
20
0.402342563764392
30
0
41
1
10
31.6134100698269
20
0.207400443516633
30
0
41
1
10
32.358179207476
20
-0.183513245453412
30
0
41
1
10
32.729002299325
20
-0.379038238422425
30
0
41
1
10
33.4707227148124
20
-0.764038152893932
30
0
41
1
10
33.8408342320908
20
-0.955062029565937
30
0
41
1
10
34.5807636708835
20
-1.33179913156255
30
0
41
1
10
34.9514243469533
20
-1.51594072316146
30
0
41
1
10
35.6933960579954
20
-1.87714600084149
30
0
41
1
10
36.0646027274901
20
-2.05435686525379
30
0
41
1
10
36.6244662700956
20
-2.31013213873274
30
0
41
1
10
36.8115310578156
20
-2.39384129691624
30
0
41
1
10
37.1862184808219
20
-2.55871260472441
30
0
41
1
10
37.3739795401029
20
-2.63991395020284
30
0
41
1
10
37.9361248019662
20
-2.87711617240811
30
0
41
1
10
38.3106627807008
20
-3.02647638798339
30
0
41
1
10
39.0590651332652
20
-3.30823874715764
30
0
41
1
10
39.432558776077
20
-3.44102667472518
30
0
41
1
10
40.1821068680117
20
-3.68525879120008
30
0
41
1
10
40.5582620181911
20
-3.79773288808778
30
0
41
1
10
41.3053504748076
20
-4.00032958964365
30
0
41
1
10
41.6777863710582
20
-4.08986634434501
30
0
41
1
10
42.4206851004184
20
-4.24591880160543
30
0
41
1
10
42.7905939627544
20
-4.31271588406662
30
0
41
1
10
43.5312483691405
20
-4.42143551949326
30
0
41
1
10
43.9015384206208
20
-4.46376475996783
30
0
41
1
10
44.6420209602141
20
-4.5241120111225
30
0
41
1
10
45.0129798800248
20
-4.54186390935192
30
0
41
1
10
45.4546823531885
20
-4.54807951378578
30
0
41
1
10
45.5242846921917
20
-4.54861806104248
30
0
41
1
10
45.5939130599056
20
-4.54871459564026
30
0
0
SPLINE
5
B7
100
AcDbEntity
8
1
62
256
6
ByLayer
370
18
48
1
60
0
100
AcDbSpline
70
4
71
3
72
8
73
4
40
0
40
0
40
0
40
0
40
1
40
1
40
1
40
1
41
1
10
4.0027420716973
20
1.2359479590894
30
0
41
1
10
4.00161440179005
20
1.24321687397935
30
0
41
1
10
4.00104036389197
20
1.25058081238203
30
0
41
1
10
4.00104045468129
20
1.2579197646422
30
0
0
SPLINE
5
B8
100
AcDbEntity
8
1
62
256
6
ByLayer
370
18
48
1
60
0
100
AcDbSpline
70
4
71
3
72
12
73
8
40
0
40
0
40
0
40
0
40
0.261862434914549
40
0.261862434914549
40
0.630931217457274
40
0.630931217457274
40
1
40
1
40
1
40
1
41
1
10
4.00108106362461
20
-4.52273233090557
30
0
41
1
10
4.00108209118946
20
-4.52315793005693
30
0
41
1
10
4.00108313570254
20
-4.52005625239786
30
0
41
1
10
4.00108567934498
20
-4.50406441559821
30
0
41
1
10
4.00108719619169
20
-4.48747765142926
30
0
41
1
10
4.00109016524647
20
-4.44047459869509
30
0
41
1
10
4.0010916193016
20
-4.4101373295052
30
0
41
1
10
4.00109301217606
20
-4.37312936023423
30
0
0
SPLINE
5
B9
100
AcDbEntity
8
1
62
256
6
ByLayer
370
18
48
1
60
0
100
AcDbSpline
70
4
71
3
72
39
73
35
40
0
40
0
40
0
40
0
40
0.124999999999997
40
0.124999999999997
40
0.249999999999993
40
0.249999999999993
40
0.499999999999992
40
0.499999999999992
40
0.562499999999993
40
0.562499999999993
40
0.624999999999994
40
0.624999999999994
40
0.750000000000001
40
0.750000000000001
40
0.812500000000005
40
0.812500000000005
40
0.843750000000009
40
0.843750000000009
40
0.859375000000013
40
0.859375000000013
40
0.867187500000016
40
0.867187500000016
40
0.875000000000018
40
0.875000000000018
40
0.878906250000018
40
0.878906250000018
40
0.882812500000018
40
0.882812500000018
40
0.890625000000016
40
0.906250000000014
40
0.906250000000014
40
0.937500000000009
40
0.937500000000009
40
1
40
1
40
1
40
1
41
1
10
43.1421617119063
20
1.53234349810316
30
0
41
1
10
43.3240892979938
20
1.37644386501043
30
0
41
1
10
43.5107495768051
20
1.2310489165672
30
0
41
1
10
43.893336471578
20
0.960826581382008
30
0
41
1
10
44.0894595463219
20
0.835824145379235
30
0
41
1
10
44.6924256726857
20
0.496971695399651
30
0
41
1
10
45.0998025872008
20
0.323280236757796
30
0
41
1
10
45.6167620394352
20
0.18099111918778
30
0
41
1
10
45.7205431465546
20
0.15629680747648
30
0
41
1
10
45.9290460149335
20
0.116003793796068
30
0
41
1
10
46.0334745067085
20
0.100388879559006
30
0
41
1
10
46.3440355399145
20
0.0677003773589036
30
0
41
1
10
46.5491333092672
20
0.0645302910635053
30
0
41
1
10
46.8509518597291
20
0.0941865299215578
30
0
41
1
10
46.9502653912002
20
0.109734723677008
30
0
41
1
10
47.0964324173178
20
0.142235404310639
30
0
41
1
10
47.1447132471575
20
0.154608056124317
30
0
41
1
10
47.2162330938808
20
0.175532398300732
30
0
41
1
10
47.2398945335894
20
0.182980237336722
30
0
41
1
10
47.2752491441224
20
0.194516507741525
30
0
41
1
10
47.2872197493557
20
0.197869724017693
30
0
41
1
10
47.3099403208224
20
0.207810911082476
30
0
41
1
10
47.32086629012
20
0.215100578813519
30
0
41
1
10
47.3319721982477
20
0.232217353635036
30
0
41
1
10
47.3346830909966
20
0.238854784922182
30
0
41
1
10
47.3376201610539
20
0.253402506298926
30
0
41
1
10
47.3382239036742
20
0.261185204300034
30
0
41
1
10
47.3405061838674
20
0.284158748861216
30
0
41
1
10
47.3447818182256
20
0.330209753705077
30
0
41
1
10
47.3482113634552
20
0.376566250602082
30
0
41
1
10
47.3539905479005
20
0.469553244625161
30
0
41
1
10
47.3564093287804
20
0.531947683915888
30
0
41
1
10
47.3597783077886
20
0.720223767036345
30
0
41
1
10
47.3568300535639
20
0.847189036579238
30
0
41
1
10
47.349710572635
20
0.973985494502983
30
0
0
SPLINE
5
BA
100
AcDbEntity
8
1
62
256
6
ByLayer
370
13
48
1
60
0
100
AcDbSpline
70
4
71
3
72
8
73
4
40
0
40
0
40
0
40
0
40
1
40
1
40
1
40
1
41
1
10
4.25026344849448
20
1.05479647629414
30
0
41
1
10
4.21072142543676
20
1.06619188179926
30
0
41
1
10
4.17212744181691
20
1.07945503763011
30
0
41
1
10
4.13655216642161
20
1.09413521817001
30
0
0
SPLINE
5
BB
100
AcDbEntity
8
1
62
256
6
ByLayer
370
18
48
1
60
0
100
AcDbSpline
70
4
71
3
72
8
73
4
40
0
40
0
40
0
40
0
40
1
40
1
40
1
40
1
41
1
10
48.9455528648927
20
1.02205460056601
30
0
41
1
10
48.9656795503296
20
0.720280206449928
30
0
41
1
10
48.9803389197211
20
0.418846536301345
30
0
41
1
10
48.9895293792802
20
0.117753689445294
30
0
0
SPLINE
5
BC
100
AcDbEntity
8
1
62
256
6
ByLayer
370
18
48
1
60
0
100
AcDbSpline
70
4
71
3
72
10
73
6
40
0
40
0
40
0
40
0
40
0.951022478725625
40
0.951022478725625
40
1
40
1
40
1
40
1
41
1
10
47.4573427293552
20
-4.32049509546701
30
0
41
1
10
45.6486420628461
20
-4.34698756642737
30
0
41
1
10
43.8816391819046
20
-4.08738440085116
30
0
41
1
10
41.9985346630984
20
-3.56364539172529
30
0
41
1
10
41.9062393075872
20
-3.5373693432897
30
0
41
1
10
41.8138690530135
20
-3.51047660280096
30
0
0
SPLINE
5
BD
100
AcDbEntity
8
1
62
256
6
ByLayer
370
13
48
1
60
0
100
AcDbSpline
70
4
71
3
72
24
73
20
40
0
40
0
40
0
40
0
40
0.0896010679656153
40
0.0896010679656153
40
0.146024864531393
40
0.146024864531393
40
0.202448661097171
40
0.202448661097171
40
0.428143847360288
40
0.428143847360288
40
0.653839033623405
40
0.653839033623405
40
0.710262830189184
40
0.710262830189184
40
0.766686626754964
40
0.766686626754964
40
0.879534219886525
40
0.879534219886525
40
1
40
1
40
1
40
1
41
1
10
41.8138692233359
20
-3.51047665238878
30
0
41
1
10
41.4578388788564
20
-3.40682173182978
30
0
41
1
10
41.1006958138569
20
-3.29400506828756
30
0
41
1
10
40.5159671809144
20
-3.09595303728133
30
0
41
1
10
40.2889799537348
20
-3.01580299311067
30
0
41
1
10
39.8354244824767
20
-2.84958393329842
30
0
41
1
10
39.6092750915118
20
-2.76368204319448
30
0
41
1
10
38.4809744722304
20
-2.32147552933756
30
0
41
1
10
37.5859266890726
20
-1.92746707336923
30
0
41
1
10
35.7943177197724
20
-1.09052200133934
30
0
41
1
10
34.897897742713
20
-0.647177826287759
30
0
41
1
10
33.7655506342985
20
-0.0836527209769713
30
0
41
1
10
33.5381528012817
20
0.029679874783028
30
0
41
1
10
33.0851913433879
20
0.255165183499486
30
0
41
1
10
32.8593133042668
20
0.367497355278772
30
0
41
1
10
32.183037827638
20
0.702410989416791
30
0
41
1
10
31.7339342204186
20
0.922769472257045
30
0
41
1
10
30.806816608881
20
1.36797668583938
30
0
41
1
10
30.3289287326483
20
1.59217112486039
30
0
41
1
10
29.8505673117921
20
1.80826396854147
30
0
0
SPLINE
5
BE
100
AcDbEntity
8
1
62
256
6
ByLayer
370
18
48
1
60
0
100
AcDbSpline
70
4
71
3
72
12
73
8
40
0
40
0
40
0
40
0
40
0.249999999999987
40
0.249999999999987
40
0.499999999999974
40
0.499999999999974
40
1
40
1
40
1
40
1
41
1
10
4.13425921813666
20
1.05729897970826
30
0
41
1
10
4.11670261408631
20
1.06621226758148
30
0
41
1
10
4.10057092883051
20
1.07694196495319
30
0
41
1
10
4.07105617872068
20
1.10188542432266
30
0
41
1
10
4.05763321650039
20
1.11624816227081
30
0
41
1
10
4.02365377012117
20
1.16248253535466
30
0
41
1
10
4.00853397858111
20
1.19861356015141
30
0
41
1
10
4.00274207169747
20
1.23594795908548
30
0
0
SPLINE
5
BF
100
AcDbEntity
8
1
62
256
6
ByLayer
370
18
48
1
60
0
100
AcDbSpline
70
4
71
3
72
14
73
10
40
0
40
0
40
0
40
0
40
0.25
40
0.25
40
0.5
40
0.5
40
0.75
40
0.75
40
1
40
1
40
1
40
1
41
1
10
47.4573427293393
20
-4.32049509546724
30
0
41
1
10
47.460686878833
20
-4.32008304464907
30
0
41
1
10
47.4633857366246
20
-4.3213615793334
30
0
41
1
10
47.4670853630794
20
-4.3283449356137
30
0
41
1
10
47.4680325739356
20
-4.33413382534849
30
0
41
1
10
47.4670261567866
20
-4.35119879830765
30
0
41
1
10
47.4649997186397
20
-4.36248401122498
30
0
41
1
10
47.4580825086389
20
-4.38790744801406
30
0
41
1
10
47.4532557801134
20
-4.40184720630106
30
0
41
1
10
47.447937181142
20
-4.4150476772906
30
0
0
SPLINE
5
C0
100
AcDbEntity
8
1
62
256
6
ByLayer
370
13
48
1
60
0
100
AcDbSpline
70
4
71
3
72
10
73
6
40
0
40
0
40
0
40
0
40
0.232045764004567
40
0.232045764004567
40
1
40
1
40
1
40
1
41
1
10
4.25061306475982
20
-4.29595282768645
30
0
41
1
10
4.25062153789403
20
-4.29592783936238
30
0
41
1
10
4.2506301538881
20
-4.29334342881904
30
0
41
1
10
4.25066746964396
20
-4.27111184897845
30
0
41
1
10
4.25069636984887
20
-4.22652012571623
30
0
41
1
10
4.25072317261453
20
-4.15550397214054
30
0
0
SPLINE
5
C1
100
AcDbEntity
8
1
62
256
6
ByLayer
370
18
48
1
60
0
100
AcDbSpline
70
4
71
3
72
27
73
23
40
0
40
0
40
0
40
0
40
0.0752436169450788
40
0.0752436169450788
40
0.150487233890158
40
0.150487233890158
40
0.300974467780315
40
0.300974467780315
40
0.376218084725394
40
0.376218084725394
40
0.451461701670472
40
0.526705318615551
40
0.526705318615551
40
0.60194893556063
40
0.60194893556063
40
0.752436169450787
40
0.752436169450787
40
0.827679786395866
40
0.827679786395866
40
0.902923403340945
40
0.902923403340945
40
1
40
1
40
1
40
1
41
1
10
4.00104045468132
20
1.25791976464259
30
0
41
1
10
4.00104219982404
20
1.39898824111538
30
0
41
1
10
4.00104376459035
20
1.53850141538447
30
0
41
1
10
4.00104656099361
20
1.81038881907693
30
0
41
1
10
4.00104779463447
20
1.94280971742049
30
0
41
1
10
4.00105112425436
20
2.32976953168171
30
0
41
1
10
4.00105284994754
20
2.57410214858916
30
0
41
1
10
4.00105514101887
20
2.91944760755962
30
0
41
1
10
4.00105584902741
20
3.03010153838179
30
0
41
1
10
4.00105721115958
20
3.23990575775019
30
0
41
1
10
4.00105852531198
20
3.43911655663626
30
0
41
1
10
4.00105987542867
20
3.61737534921042
30
0
41
1
10
4.00106130165548
20
3.78498099222142
30
0
41
1
10
4.00106205747565
20
3.86383321351545
30
0
41
1
10
4.00106447412031
20
4.08005286400945
30
0
41
1
10
4.00106628954663
20
4.1978466977923
30
0
41
1
10
4.0010694715962
20
4.33586425688196
30
0
41
1
10
4.00107060740555
20
4.37537998388396
30
0
41
1
10
4.00107303901368
20
4.44101939625159
30
0
41
1
10
4.00107432501153
20
4.46681030945783
30
0
41
1
10
4.00107738140298
20
4.50950997969252
30
0
41
1
10
4.00107919380824
20
4.52195219431516
30
0
41
1
10
4.00108106226
20
4.52273176363371
30
0
0
SPLINE
5
C2
100
AcDbEntity
8
1
62
256
6
ByLayer
370
18
48
1
60
0
100
AcDbSpline
70
4
71
3
72
10
73
6
40
0
40
0
40
0
40
0
40
0.5
40
0.5
40
1
40
1
40
1
40
1
41
1
10
47.6294538927099
20
4.42638964082485
30
0
41
1
10
47.5865380885895
20
4.45835419764217
30
0
41
1
10
47.5455270227312
20
4.48445168372425
30
0
41
1
10
47.4672989332051
20
4.52419529321008
30
0
41
1
10
47.430102187891
20
4.53774310638175
30
0
41
1
10
47.3956089405362
20
4.54455189890115
30
0
0
SPLINE
5
C3
100
AcDbEntity
8
1
62
256
6
ByLayer
370
18
48
1
60
0
100
AcDbSpline
70
4
71
3
72
76
73
72
40
0
40
0
40
0
40
0
40
0.0232773619485654
40
0.0232773619485654
40
0.0594522744689904
40
0.0594522744689904
40
0.0956271869894153
40
0.0956271869894153
40
0.13180209950984
40
0.13180209950984
40
0.167977012030265
40
0.167977012030265
40
0.186064468290477
40
0.186064468290477
40
0.204151924550689
40
0.204151924550689
40
0.222239380810901
40
0.222239380810901
40
0.240326837071112
40
0.240326837071112
40
0.276501749591536
40
0.276501749591536
40
0.31267666211196
40
0.31267666211196
40
0.348851574632384
40
0.348851574632384
40
0.385026487152807
40
0.385026487152807
40
0.421201399673231
40
0.421201399673231
40
0.439288855933443
40
0.439288855933443
40
0.457376312193655
40
0.457376312193655
40
0.475463768453867
40
0.475463768453867
40
0.493551224714078
40
0.493551224714078
40
0.529726137234502
40
0.529726137234502
40
0.547813593494714
40
0.547813593494714
40
0.565901049754926
40
0.565901049754926
40
0.638250874795772
40
0.638250874795772
40
0.674425787316195
40
0.674425787316195
40
0.692513243576406
40
0.692513243576406
40
0.710600699836618
40
0.710600699836618
40
0.74677561235704
40
0.74677561235704
40
0.782950524877462
40
0.782950524877462
40
0.801037981137673
40
0.801037981137673
40
0.819125437397884
40
0.819125437397884
40
0.855300349918307
40
0.855300349918307
40
0.89147526243873
40
0.89147526243873
40
0.927650174959153
40
0.927650174959153
40
0.945737631219365
40
0.945737631219365
40
0.963825087479577
40
0.963825087479577
40
1
40
1
40
1
40
1
41
1
10
38.8864854999944
20
-3.25462402700069
30
0
41
1
10
38.6770656450329
20
-3.32310185311124
30
0
41
1
10
38.4675671635105
20
-3.38856525844835
30
0
41
1
10
37.9315651330787
20
-3.54740443098086
30
0
41
1
10
37.6048044942667
20
-3.63797876762638
30
0
41
1
10
36.9530292861482
20
-3.80279756928328
30
0
41
1
10
36.627646627305
20
-3.87729688675861
30
0
41
1
10
35.9767778339605
20
-4.00850398608398
30
0
41
1
10
35.6512568717743
20
-4.06399082251826
30
0
41
1
10
35.0000450748616
20
-4.16078082364297
30
0
41
1
10
34.6733921365986
20
-4.20123977840692
30
0
41
1
10
34.184249481083
20
-4.24866666184997
30
0
41
1
10
34.0212123935075
20
-4.26218188889118
30
0
41
1
10
33.6956056971205
20
-4.28456216671685
30
0
41
1
10
33.5330205462448
20
-4.29335599858891
30
0
41
1
10
33.2075645633026
20
-4.30524269584726
30
0
41
1
10
33.0447578593482
20
-4.30814059084298
30
0
41
1
10
32.7193041804833
20
-4.31065425754491
30
0
41
1
10
32.5566887222114
20
-4.31007080224435
30
0
41
1
10
32.0683374839418
20
-4.30174244189558
30
0
41
1
10
31.7429206667787
20
-4.28758247442019
30
0
41
1
10
31.090250129402
20
-4.24138017832129
30
0
41
1
10
30.7642739954064
20
-4.20942298729113
30
0
41
1
10
30.1134463498517
20
-4.124703908388
30
0
41
1
10
29.7882828524672
20
-4.07420622943113
30
0
41
1
10
29.1376216947458
20
-3.95563182736743
30
0
41
1
10
28.8121538688327
20
-3.88759443673189
30
0
41
1
10
28.1606565146976
20
-3.73630466418444
30
0
41
1
10
27.8339503592511
20
-3.65328165563255
30
0
41
1
10
27.3456572115424
20
-3.51687729791323
30
0
41
1
10
27.1828535499835
20
-3.46971454932412
30
0
41
1
10
26.8576591776144
20
-3.37110608607057
30
0
41
1
10
26.6951833783894
20
-3.31954547410595
30
0
41
1
10
26.3698899679425
20
-3.21312853025734
30
0
41
1
10
26.2071629501514
20
-3.15827792316958
30
0
41
1
10
25.881814236224
20
-3.04566888346443
30
0
41
1
10
25.7192001361656
20
-2.98778081940117
30
0
41
1
10
25.2307682316543
20
-2.81006151832401
30
0
41
1
10
24.9047065542251
20
-2.68478984991035
30
0
41
1
10
24.4157987457449
20
-2.48945357986113
30
0
41
1
10
24.2530233386408
20
-2.42294507201416
30
0
41
1
10
23.9276665334864
20
-2.28693279339595
30
0
41
1
10
23.764891263223
20
-2.21782950339085
30
0
41
1
10
22.9520267818332
20
-1.86598767693963
30
0
41
1
10
22.302116840705
20
-1.56915716472272
30
0
41
1
10
21.323993543421
20
-1.10314184920546
30
0
41
1
10
20.998215053293
20
-0.945884808446721
30
0
41
1
10
20.5103973154117
20
-0.707234256119989
30
0
41
1
10
20.3477030178504
20
-0.627622235013348
30
0
41
1
10
20.0226871880601
20
-0.467143999668309
30
0
41
1
10
19.8602565264643
20
-0.386503726278335
30
0
41
1
10
19.372507733623
20
-0.144829308805356
30
0
41
1
10
19.0473498600128
20
0.017236418860449
30
0
41
1
10
18.3955563490773
20
0.340492756250398
30
0
41
1
10
18.0695312655409
20
0.502683791996873
30
0
41
1
10
17.5812312427554
20
0.742094157186983
30
0
41
1
10
17.418617612328
20
0.821581878613785
30
0
41
1
10
17.0934464415115
20
0.979230223110193
30
0
41
1
10
16.930727319017
20
1.05718534129909
30
0
41
1
10
16.4432056141436
20
1.29099417231825
30
0
41
1
10
16.1180974964698
20
1.44465212070975
30
0
41
1
10
15.4671711976059
20
1.74568378852967
30
0
41
1
10
15.1408446730821
20
1.89333829860573
30
0
41
1
10
14.4896801994056
20
2.17781429305339
30
0
41
1
10
14.1642414803824
20
2.31437486799496
30
0
41
1
10
13.6767068758143
20
2.51331371487132
30
0
41
1
10
13.514081511201
20
2.57820651391143
30
0
41
1
10
13.1891949998617
20
2.7059802145142
30
0
41
1
10
13.0268170278752
20
2.76865087010853
30
0
41
1
10
12.5391119732822
20
2.95153216285104
30
0
41
1
10
12.2133871498762
20
3.066702982312
30
0
41
1
10
11.8871206937805
20
3.17526615998159
30
0
0
SPLINE
5
C4
100
AcDbEntity
8
1
62
256
6
ByLayer
370
18
48
1
60
0
100
AcDbSpline
70
4
71
3
72
10
73
6
40
0
40
0
40
0
40
0
40
0.5
40
0.5
40
1
40
1
40
1
40
1
41
1
10
47.4849998531174
20
1.07015691738661
30
0
41
1
10
47.7284756520834
20
1.06156584357353
30
0
41
1
10
47.9719118031685
20
1.05342725630254
30
0
41
1
10
48.4587609948625
20
1.03741383304165
30
0
41
1
10
48.7021950267673
20
1.02929943118809
30
0
41
1
10
48.9455528648995
20
1.02205460056558
30
0
0
SPLINE
5
C5
100
AcDbEntity
8
1
62
256
6
ByLayer
370
18
48
1
60
0
100
AcDbSpline
70
4
71
3
72
32
73
28
40
0
40
0
40
0
40
0
40
0.04466205102997
40
0.04466205102997
40
0.0924289484784732
40
0.0924289484784732
40
0.140195845926976
40
0.140195845926976
40
0.235729640823979
40
0.235729640823979
40
0.331263435720982
40
0.331263435720982
40
0.426797230617985
40
0.426797230617985
40
0.522331025514988
40
0.522331025514988
40
0.617864820411991
40
0.617864820411991
40
0.713398615308994
40
0.713398615308994
40
0.761165512757494
40
0.761165512757494
40
0.808932410205994
40
0.808932410205994
40
0.904466205102997
40
0.904466205102997
40
1
40
1
40
1
40
1
41
1
10
32.899143831261
20
4.30926063409331
30
0
41
1
10
33.0515069385414
20
4.3079833060059
30
0
41
1
10
33.2039537399065
20
4.30521655469545
30
0
41
1
10
33.519368414838
20
4.29400934041354
30
0
41
1
10
33.6822675356916
20
4.28534844234355
30
0
41
1
10
34.0085146146027
20
4.26317516059254
30
0
41
1
10
34.1719808361891
20
4.249741268706
30
0
41
1
10
34.6620413345406
20
4.20255807189531
30
0
41
1
10
34.988469286486
20
4.16230986007292
30
0
41
1
10
35.6402470494343
20
4.0658121768322
30
0
41
1
10
35.9661315940216
20
4.01046040628225
30
0
41
1
10
36.6180183818685
20
3.87942174373776
30
0
41
1
10
36.9440576470731
20
3.80494402942372
30
0
41
1
10
37.5973247587197
20
3.639989434699
30
0
41
1
10
37.9242017112093
20
3.54948230212244
30
0
41
1
10
38.576865764835
20
3.35627758617082
30
0
41
1
10
38.9024590235292
20
3.25174097384743
30
0
41
1
10
39.5543247790326
20
3.02861853335622
30
0
41
1
10
39.8802576350147
20
2.9101321203479
30
0
41
1
10
40.3699622997335
20
2.72391036731295
30
0
41
1
10
40.5332115581088
20
2.6601269136768
30
0
41
1
10
40.8600963136006
20
2.53049409813707
30
0
41
1
10
41.0235122228005
20
2.46470298427221
30
0
41
1
10
41.5129344790557
20
2.26259619002528
30
0
41
1
10
41.8389505807119
20
2.12258035143267
30
0
41
1
10
42.4901199780817
20
1.83260773926798
30
0
41
1
10
42.8159295698308
20
1.68388027846581
30
0
41
1
10
43.1421617119062
20
1.53234349810319
30
0
0
SPLINE
5
C6
100
AcDbEntity
8
1
62
256
6
ByLayer
370
18
48
1
60
0
100
AcDbSpline
70
4
71
3
72
8
73
4
40
0
40
0
40
0
40
0
40
1
40
1
40
1
40
1
41
1
10
47.4479371811411
20
-4.41504767729285
30
0
41
1
10
47.4305224126946
20
-4.45827017759927
30
0
41
1
10
47.4130784639162
20
-4.50143954915248
30
0
41
1
10
47.3956089405362
20
-4.54455189890112
30
0
0
SPLINE
5
C7
100
AcDbEntity
8
1
62
256
6
ByLayer
370
18
48
1
60
0
100
AcDbSpline
70
4
71
3
72
16
73
12
40
0
40
0
40
0
40
0
40
0.271352327613365
40
0.271352327613365
40
0.407028491420047
40
0.407028491420047
40
0.54270465522673
40
0.54270465522673
40
0.814056982840096
40
0.814056982840096
40
1
40
1
40
1
40
1
41
1
10
47.1064938501386
20
-3.41249693592104
30
0
41
1
10
47.1062354882284
20
-3.56668802823489
30
0
41
1
10
47.1131042081243
20
-3.70206242218049
30
0
41
1
10
47.1344094560116
20
-3.87742707133748
30
0
41
1
10
47.1433586652038
20
-3.93123993486941
30
0
41
1
10
47.1651782152197
20
-4.02935200986343
30
0
41
1
10
47.1779898443522
20
-4.07327082947663
30
0
41
1
10
47.2217179780524
20
-4.18846975158363
30
0
41
1
10
47.2580439377261
20
-4.24406338898271
30
0
41
1
10
47.332241204156
20
-4.30288808635018
30
0
41
1
10
47.3661680389654
20
-4.31695132455923
30
0
41
1
10
47.403589587117
20
-4.32108694085093
30
0
0
SPLINE
5
C8
100
AcDbEntity
8
1
62
256
6
ByLayer
370
18
48
1
60
0
100
AcDbSpline
70
4
71
3
72
10
73
6
40
0
40
0
40
0
40
0
40
0.5
40
0.5
40
1
40
1
40
1
40
1
41
1
10
48.9999638839131
20
0.0417736196125418
30
0
41
1
10
48.996229052939
20
0.0264316977223018
30
0
41
1
10
48.991125751447
20
0.0099837370664488
30
0
41
1
10
48.9788199332192
20
-0.0212422012148181
30
0
41
1
10
48.971579561988
20
-0.0360460098688122
30
0
41
1
10
48.9642438801659
20
-0.0480527619568534
30
0
0
SPLINE
5
C9
100
AcDbEntity
8
1
62
256
6
ByLayer
370
18
48
1
60
0
100
AcDbSpline
70
4
71
3
72
65
73
61
40
0
40
0
40
0
40
0
40
0.0625000000000093
40
0.0625000000000093
40
0.0937500000000134
40
0.0937500000000134
40
0.125000000000018
40
0.125000000000018
40
0.14062500000002
40
0.14062500000002
40
0.156250000000022
40
0.156250000000022
40
0.187500000000027
40
0.187500000000027
40
0.203125000000029
40
0.203125000000029
40
0.218750000000032
40
0.218750000000032
40
0.234375000000034
40
0.234375000000034
40
0.250000000000037
40
0.250000000000037
40
0.265625000000039
40
0.265625000000039
40
0.281250000000042
40
0.281250000000042
40
0.296875000000044
40
0.296875000000044
40
0.312500000000047
40
0.312500000000047
40
0.343750000000052
40
0.343750000000052
40
0.375000000000057
40
0.375000000000057
40
0.390625000000059
40
0.390625000000059
40
0.39843750000006
40
0.39843750000006
40
0.402343750000059
40
0.402343750000059
40
0.406250000000059
40
0.406250000000059
40
0.410156250000059
40
0.410156250000059
40
0.414062500000058
40
0.414062500000058
40
0.421875000000058
40
0.437500000000056
40
0.437500000000056
40
0.50000000000005
40
0.50000000000005
40
0.625000000000038
40
0.625000000000038
40
0.750000000000025
40
0.750000000000025
40
0.812500000000019
40
0.812500000000019
40
0.875000000000013
40
0.875000000000013
40
1
40
1
40
1
40
1
41
1
10
4.00109301217685
20
-4.37312936023383
30
0
41
1
10
3.75989412905659
20
-4.32920197984228
30
0
41
1
10
3.52392325762648
20
-4.27445694597628
30
0
41
1
10
3.1825155130862
20
-4.16971918400088
30
0
41
1
10
3.07083438919199
20
-4.13099555580749
30
0
41
1
10
2.85327579097105
20
-4.0437910322068
30
0
41
1
10
2.74822815539221
20
-3.99565589220728
30
0
41
1
10
2.59869798351934
20
-3.9146987000284
30
0
41
1
10
2.55019203230756
20
-3.88623817094998
30
0
41
1
10
2.45642549957009
20
-3.8258310044377
30
0
41
1
10
2.41105524777458
20
-3.79378562903682
30
0
41
1
10
2.28265526089629
20
-3.69268893479432
30
0
41
1
10
2.20662692932086
20
-3.61856709543366
30
0
41
1
10
2.11420850567521
20
-3.49300485555292
30
0
41
1
10
2.08704366536077
20
-3.44873095857358
30
0
41
1
10
2.04215017503267
20
-3.35406968124522
30
0
41
1
10
2.0250660174174
20
-3.30495247141863
30
0
41
1
10
2.00313975969931
20
-3.20281438663062
30
0
41
1
10
1.99830094833564
20
-3.14941687356696
30
0
41
1
10
2.00272731308269
20
-3.03995292048052
30
0
41
1
10
2.01186708848474
20
-2.98492112608685
30
0
41
1
10
2.04348772489658
20
-2.87443197244329
30
0
41
1
10
2.06626545182533
20
-2.81845265370396
30
0
41
1
10
2.12336612509441
20
-2.70891205370037
30
0
41
1
10
2.15734829874253
20
-2.65567900694137
30
0
41
1
10
2.23432654315698
20
-2.55187634646885
30
0
41
1
10
2.27744553791749
20
-2.50121075896678
30
0
41
1
10
2.37097928293528
20
-2.40269751797703
30
0
41
1
10
2.42067276851148
20
-2.35556783633962
30
0
41
1
10
2.57672283480724
20
-2.21935746193034
30
0
41
1
10
2.68995952088002
20
-2.13539673378375
30
0
41
1
10
2.92921742146387
20
-1.97741025303412
30
0
41
1
10
3.05484756555077
20
-1.90378037901081
30
0
41
1
10
3.24802254374839
20
-1.80054712303044
30
0
41
1
10
3.31337359079618
20
-1.76725799239409
30
0
41
1
10
3.41233761620919
20
-1.71898264976104
30
0
41
1
10
3.44548683021443
20
-1.70316480378986
30
0
41
1
10
3.49543740569209
20
-1.67982606371879
30
0
41
1
10
3.51187007984765
20
-1.67161345047299
30
0
41
1
10
3.54571714630953
20
-1.65708489300326
30
0
41
1
10
3.56347852811615
20
-1.65144665829902
30
0
41
1
10
3.601272403824
20
-1.6446023600692
30
0
41
1
10
3.62046519797769
20
-1.6430766151563
30
0
41
1
10
3.65833049914977
20
-1.64294956068721
30
0
41
1
10
3.6772157637208
20
-1.64376746403354
30
0
41
1
10
3.73391021439278
20
-1.64550192863524
30
0
41
1
10
3.84728130311294
20
-1.64930161032254
30
0
41
1
10
3.96059914476274
20
-1.65408904336758
30
0
41
1
10
4.3382077772678
20
-1.67222120122224
30
0
41
1
10
4.64026337831481
20
-1.69372049325827
30
0
41
1
10
5.54226969205047
20
-1.77797295486255
30
0
41
1
10
6.13801819888198
20
-1.86048286204107
30
0
41
1
10
7.31913784827566
20
-2.06997159330379
30
0
41
1
10
7.90449706640788
20
-2.19697072054359
30
0
41
1
10
8.77574335685659
20
-2.41141940299337
30
0
41
1
10
9.06490919692072
20
-2.48680773297511
30
0
41
1
10
9.63857185616553
20
-2.64255089765643
30
0
41
1
10
9.92341488117319
20
-2.72299326024358
30
0
41
1
10
10.7727682173075
20
-2.9684804195501
30
0
41
1
10
11.3320889649457
20
-3.1376296666144
30
0
41
1
10
11.8871206937805
20
-3.30243752270817
30
0
0
SPLINE
5
CA
100
AcDbEntity
8
1
62
256
6
ByLayer
370
18
48
1
60
0
100
AcDbSpline
70
4
71
3
72
28
73
24
40
0
40
0
40
0
40
0
40
0.0624999999999999
40
0.0624999999999999
40
0.125
40
0.125
40
0.1875
40
0.1875
40
0.25
40
0.25
40
0.374999999999997
40
0.374999999999997
40
0.437499999999996
40
0.437499999999996
40
0.499999999999994
40
0.499999999999994
40
0.624999999999996
40
0.624999999999996
40
0.749999999999997
40
0.749999999999997
40
0.874999999999999
40
0.874999999999999
40
1
40
1
40
1
40
1
41
1
10
43.1421617119062
20
1.53234349810305
30
0
41
1
10
43.1354456785464
20
1.39569461970154
30
0
41
1
10
43.1387897037425
20
1.25669508480368
30
0
41
1
10
43.1656595647246
20
0.973980286574658
30
0
41
1
10
43.1895461070814
20
0.829449237884319
30
0
41
1
10
43.2549053903796
20
0.546587197131942
30
0
41
1
10
43.2963904894387
20
0.406961210916649
30
0
41
1
10
43.3951276792549
20
0.130941320285274
30
0
41
1
10
43.4528681592627
20
-0.006378986855907
30
0
41
1
10
43.6434490291415
20
-0.404864917688826
30
0
41
1
10
43.7933508841865
20
-0.653848263727838
30
0
41
1
10
44.0449853148444
20
-1.0077786065483
30
0
41
1
10
44.133735388979
20
-1.12294233201931
30
0
41
1
10
44.3161306613741
20
-1.34389494425491
30
0
41
1
10
44.409991141452
20
-1.45003121863439
30
0
41
1
10
44.6984519449446
20
-1.75722772282862
30
0
41
1
10
44.8998702903418
20
-1.9471756106785
30
0
41
1
10
45.3173202536088
20
-2.30325396816582
30
0
41
1
10
45.5343841901671
20
-2.46994177665684
30
0
41
1
10
45.9736926371361
20
-2.77757851044729
30
0
41
1
10
46.1965017225638
20
-2.91913804704561
30
0
41
1
10
46.6475274611481
20
-3.18124496303815
30
0
41
1
10
46.8757590677003
20
-3.30173423810243
30
0
41
1
10
47.1064938501386
20
-3.41249693592098
30
0
0
SPLINE
5
CB
100
AcDbEntity
8
1
62
256
6
ByLayer
370
18
48
1
60
0
100
AcDbSpline
70
4
71
3
72
52
73
48
40
0
40
0
40
0
40
0
40
0.0489380221782744
40
0.0489380221782744
40
0.0978760443565488
40
0.0978760443565488
40
0.146814066534823
40
0.146814066534823
40
0.195752088713097
40
0.195752088713097
40
0.244690110891372
40
0.244690110891372
40
0.293628133069646
40
0.293628133069646
40
0.342566155247921
40
0.342566155247921
40
0.391504177426195
40
0.391504177426195
40
0.440442199604469
40
0.440442199604469
40
0.489380221782744
40
0.489380221782744
40
0.51384923287188
40
0.51384923287188
40
0.538318243961017
40
0.538318243961017
40
0.587256266139289
40
0.587256266139289
40
0.636194288317561
40
0.636194288317561
40
0.685132310495833
40
0.685132310495833
40
0.734070332674105
40
0.734070332674105
40
0.758539343763241
40
0.758539343763241
40
0.783008354852377
40
0.783008354852377
40
0.83194637703065
40
0.83194637703065
40
0.880884399208923
40
0.880884399208923
40
0.929822421387197
40
0.929822421387197
40
0.97876044356547
40
0.97876044356547
40
1
40
1
40
1
40
1
41
1
10
47.3956089405364
20
-4.54455189890115
30
0
41
1
10
46.9449650227205
20
-4.55571861011583
30
0
41
1
10
46.4946722519475
20
-4.5483344651901
30
0
41
1
10
45.5926340142041
20
-4.49672914740444
30
0
41
1
10
45.1413165907626
20
-4.45247027750221
30
0
41
1
10
44.2400409124492
20
-4.32832516661728
30
0
41
1
10
43.7890119859902
20
-4.24833613696748
30
0
41
1
10
42.8867261529522
20
-4.05437090868688
30
0
41
1
10
42.4363241127451
20
-3.94069215274047
30
0
41
1
10
41.5347844399154
20
-3.68206006768671
30
0
41
1
10
41.0831694688343
20
-3.53697293814358
30
0
41
1
10
40.1815894821398
20
-3.2199323218963
30
0
41
1
10
39.7311267396979
20
-3.04781615440444
30
0
41
1
10
38.8285415466007
20
-2.67949455654505
30
0
41
1
10
38.3778878013244
20
-2.4840313657038
30
0
41
1
10
37.4778767842182
20
-2.07520621109015
30
0
41
1
10
37.0281580352005
20
-1.86169878436905
30
0
41
1
10
36.1268778724739
20
-1.4206117294336
30
0
41
1
10
35.6750774286211
20
-1.19273736654188
30
0
41
1
10
34.7745332648491
20
-0.730673416164251
30
0
41
1
10
34.324827822833
20
-0.496225303295887
30
0
41
1
10
33.6494171828718
20
-0.142673248431009
30
0
41
1
10
33.4241416371142
20
-0.0245028932127695
30
0
41
1
10
32.9730782648198
20
0.212032008102881
30
0
41
1
10
32.7472288799099
20
0.330443183148816
30
0
41
1
10
32.0710293823374
20
0.683439999894972
30
0
41
1
10
31.6211477174174
20
0.916259614141325
30
0
41
1
10
30.7209767634356
20
1.37269892801109
30
0
41
1
10
30.2706689043282
20
1.59637402945441
30
0
41
1
10
29.3675656519532
20
2.03028272996062
30
0
41
1
10
28.9173246324536
20
2.23909350761502
30
0
41
1
10
28.017143956661
20
2.63671234959011
30
0
41
1
10
27.5671798945893
20
2.82548288087671
30
0
41
1
10
26.8907457336585
20
3.09092769121653
30
0
41
1
10
26.6648221187162
20
3.17655229438017
30
0
41
1
10
26.2137220960807
20
3.34085428986907
30
0
41
1
10
25.988461524125
20
3.41959581273545
30
0
41
1
10
25.3130273687055
20
3.64498327298367
30
0
41
1
10
24.8631795773709
20
3.78076978714043
30
0
41
1
10
23.9621017184026
20
4.02094964778101
30
0
41
1
10
23.5101708868767
20
4.12561528452673
30
0
41
1
10
22.6087135016656
20
4.2998881639534
30
0
41
1
10
22.1587606988692
20
4.36963590602301
30
0
41
1
10
21.2581371074908
20
4.47332248752079
30
0
41
1
10
20.8071998345482
20
4.50734661238783
30
0
41
1
10
20.1598866269786
20
4.52957231747337
30
0
41
1
10
19.964195919588
20
4.53281077977039
30
0
41
1
10
19.768632253504
20
4.53258000043849
30
0
0
SPLINE
5
CC
100
AcDbEntity
8
1
62
256
6
ByLayer
370
18
48
1
60
0
100
AcDbSpline
70
4
71
3
72
18
73
14
40
0
40
0
40
0
40
0
40
0.0957532052269774
40
0.0957532052269774
40
0.447463396026004
40
0.447463396026004
40
0.53539094372576
40
0.53539094372576
40
0.623318491425516
40
0.623318491425516
40
0.79917358682503
40
0.79917358682503
40
1
40
1
40
1
40
1
41
1
10
6.17682576075643
20
0.0003205542263061
30
0
41
1
10
6.42152672173151
20
-0.123936429390341
30
0
41
1
10
6.66594679604228
20
-0.248060894098103
30
0
41
1
10
7.80770390908557
20
-0.825735876453365
30
0
41
1
10
8.70359567277472
20
-1.27347805034489
30
0
41
1
10
9.83289346763871
20
-1.80262216980162
30
0
41
1
10
10.059204177919
20
-1.90696323061303
30
0
41
1
10
10.5130001863292
20
-2.11213302440442
30
0
41
1
10
10.7407752382736
20
-2.21308014952851
30
0
41
1
10
11.4211213091066
20
-2.50760248403884
30
0
41
1
10
11.8724112133554
20
-2.69333222137794
30
0
41
1
10
12.8364114536098
20
-3.06505516981815
30
0
41
1
10
13.348606013538
20
-3.24762014168229
30
0
41
1
10
13.8607827719746
20
-3.4123124881788
30
0
0
SPLINE
5
CD
100
AcDbEntity
8
1
62
256
6
ByLayer
370
13
48
1
60
0
100
AcDbSpline
70
4
71
3
72
18
73
14
40
0
40
0
40
0
40
0
40
0.152629444755447
40
0.152629444755447
40
0.330519262508031
40
0.330519262508031
40
0.419464171384323
40
0.419464171384323
40
0.508409080260615
40
0.508409080260615
40
0.864188715765785
40
0.864188715765785
40
1
40
1
40
1
40
1
41
1
10
13.8607837240056
20
-3.41231279430792
30
0
41
1
10
14.2455891844432
20
-3.53604840835212
30
0
41
1
10
14.6303845970388
20
-3.64969541773121
30
0
41
1
10
15.4652366669646
20
-3.87188049403508
30
0
41
1
10
15.9155527189599
20
-3.97652875347811
30
0
41
1
10
16.5939354025992
20
-4.10931226690352
30
0
41
1
10
16.8205517682326
20
-4.14954013582212
30
0
41
1
10
17.2751476547224
20
-4.22154297492386
30
0
41
1
10
17.5023461322859
20
-4.25319030752769
30
0
41
1
10
18.634282299634
20
-4.3888190561953
30
0
41
1
10
19.531142220211
20
-4.42597341924971
30
0
41
1
10
20.7704480834597
20
-4.37934092069585
30
0
41
1
10
21.1128928307633
20
-4.35616766167351
30
0
41
1
10
21.4558613443401
20
-4.32277456119058
30
0
0
SPLINE
5
CE
100
AcDbEntity
8
1
62
256
6
ByLayer
370
18
48
1
60
0
100
AcDbSpline
70
4
71
3
72
8
73
4
40
0
40
0
40
0
40
0
40
1
40
1
40
1
40
1
41
1
10
48.9895293792802
20
0.117753689445294
30
0
41
1
10
48.9901910719318
20
0.0960756740043109
30
0
41
1
10
48.994153302285
20
0.0696293301150206
30
0
41
1
10
48.9999638839061
20
0.0417736196066301
30
0
0
SPLINE
5
CF
100
AcDbEntity
8
1
62
256
6
ByLayer
370
18
48
1
60
0
100
AcDbSpline
70
4
71
3
72
42
73
38
40
0
40
0
40
0
40
0
40
0.0624671929034914
40
0.0624671929034914
40
0.128223988231475
40
0.128223988231475
40
0.193980783559458
40
0.193980783559458
40
0.325494374215425
40
0.325494374215425
40
0.391251169543408
40
0.391251169543408
40
0.457007964871392
40
0.457007964871392
40
0.522764760199375
40
0.522764760199375
40
0.555643157863367
40
0.555643157863367
40
0.572082356695363
40
0.572082356695363
40
0.576192156403362
40
0.576192156403362
40
0.580301956111361
40
0.580301956111361
40
0.588521555527359
40
0.588521555527359
40
0.720035146183325
40
0.720035146183325
40
0.785791941511308
40
0.785791941511308
40
0.851548736839291
40
0.851548736839291
40
0.917305532167274
40
0.917305532167274
40
0.983062327495257
40
0.983062327495257
40
1
40
1
40
1
40
1
41
1
10
11.8871206937804
20
3.30243752268643
30
0
41
1
10
11.8871206937804
20
3.1833396375375
30
0
41
1
10
11.8871206937804
20
3.06814782461257
30
0
41
1
10
11.8871206937804
20
2.83948234567103
30
0
41
1
10
11.8871206937805
20
2.72644322948915
30
0
41
1
10
11.8871206937805
20
2.50882745015611
30
0
41
1
10
11.8871206937804
20
2.40465236067061
30
0
41
1
10
11.8871206937804
20
2.11030827122639
30
0
41
1
10
11.8871206937805
20
1.93617533780665
30
0
41
1
10
11.8871206937805
20
1.70587940287331
30
0
41
1
10
11.8871206937805
20
1.63429314985439
30
0
41
1
10
11.8871206937805
20
1.50141465855518
30
0
41
1
10
11.8871206937805
20
1.43999885920832
30
0
41
1
10
11.8871206937805
20
1.32818931429048
30
0
41
1
10
11.8871206937804
20
1.27791499434002
30
0
41
1
10
11.8871206937804
20
1.21079744239498
30
0
41
1
10
11.8871206937805
20
1.18980148130859
30
0
41
1
10
11.8871206937805
20
1.16040880941154
30
0
41
1
10
11.8871206937805
20
1.15096202050827
30
0
41
1
10
11.8871206937805
20
1.13959063944071
30
0
41
1
10
11.8871206937804
20
1.13733797485349
30
0
41
1
10
11.8871206937804
20
1.13629434169499
30
0
41
1
10
11.8871206937805
20
1.13709309721688
30
0
41
1
10
11.8871206937805
20
1.14336430947003
30
0
41
1
10
11.8871206937805
20
1.15377903244601
30
0
41
1
10
11.8871206937805
20
1.30865429149614
30
0
41
1
10
11.8871206937805
20
1.4778218249468
30
0
41
1
10
11.8871206937805
20
1.7650895745669
30
0
41
1
10
11.8871206937805
20
1.86670860281794
30
0
41
1
10
11.8871206937805
20
2.07925151518106
30
0
41
1
10
11.8871206937805
20
2.19042493762618
30
0
41
1
10
11.8871206937805
20
2.42275997703763
30
0
41
1
10
11.8871206937805
20
2.54392027501302
30
0
41
1
10
11.8871206937805
20
2.79666693413742
30
0
41
1
10
11.8871206937805
20
2.9288526541568
30
0
41
1
10
11.8871206937805
20
3.10026247313178
30
0
41
1
10
11.8871206937805
20
3.13559815570403
30
0
41
1
10
11.8871206937805
20
3.17116205699168
30
0
0
SPLINE
5
D0
100
AcDbEntity
8
1
62
256
6
ByLayer
370
18
48
1
60
0
100
AcDbSpline
70
4
71
3
72
22
73
18
40
0
40
0
40
0
40
0
40
0.128416207727069
40
0.128416207727069
40
0.192624311590604
40
0.192624311590604
40
0.256832415454139
40
0.256832415454139
40
0.513664830908287
40
0.513664830908287
40
0.64208103863536
40
0.64208103863536
40
0.770497246362434
40
0.770497246362434
40
0.898913454089508
40
0.898913454089508
40
1
40
1
40
1
40
1
41
1
10
4.25072317288499
20
-4.15550397218985
30
0
41
1
10
4.54789101048965
20
-4.21122910494105
30
0
41
1
10
4.85238914760902
20
-4.2476102386664
30
0
41
1
10
5.31583541045069
20
-4.2809431358134
30
0
41
1
10
5.47147675561536
20
-4.28843906467449
30
0
41
1
10
5.7847055182049
20
-4.29695259044686
30
0
41
1
10
5.94252893355849
20
-4.29796368911238
30
0
41
1
10
6.73194067841291
20
-4.28848535735625
30
0
41
1
10
7.36522085531232
20
-4.23336420067619
30
0
41
1
10
8.31889339550924
20
-4.09176431057722
30
0
41
1
10
8.63750085038453
20
-4.03448600020951
30
0
41
1
10
9.27711192400506
20
-3.90363875463703
30
0
41
1
10
9.5981133203596
20
-3.82968070671328
30
0
41
1
10
10.2440378211629
20
-3.66489802123357
30
0
41
1
10
10.568968525336
20
-3.57439920396215
30
0
41
1
10
11.1546908598795
20
-3.40228578790123
30
0
41
1
10
11.4143481527661
20
-3.32301725725114
30
0
41
1
10
11.6752474070999
20
-3.24167175516351
30
0
0
SPLINE
5
D1
100
AcDbEntity
8
1
62
256
6
ByLayer
370
18
48
1
60
0
100
AcDbSpline
70
4
71
3
72
16
73
12
40
0
40
0
40
0
40
0
40
0.434159059428275
40
0.434159059428275
40
0.565444590387058
40
0.565444590387058
40
0.696730121345841
40
0.696730121345841
40
0.959301183263408
40
0.959301183263408
40
1
40
1
40
1
40
1
41
1
10
19.9916910183292
20
-4.30526991346423
30
0
41
1
10
19.2504253124382
20
-4.30455451549278
30
0
41
1
10
18.5081773272701
20
-4.25647212320195
30
0
41
1
10
17.5339804384746
20
-4.13205645404256
30
0
41
1
10
17.306967895271
20
-4.09876786199158
30
0
41
1
10
16.8529063941347
20
-4.02381053274189
30
0
41
1
10
16.6265341386794
20
-3.98224746623762
30
0
41
1
10
15.9488326476501
20
-3.8458666945148
30
0
41
1
10
15.4988997036885
20
-3.73937111179165
30
0
41
1
10
14.9802962702068
20
-3.59973396355505
30
0
41
1
10
14.9107222478719
20
-3.58064791709674
30
0
41
1
10
14.8411666096903
20
-3.56122073890179
30
0
0
SPLINE
5
D2
100
AcDbEntity
8
1
62
256
6
ByLayer
370
13
48
1
60
0
100
AcDbSpline
70
4
71
3
72
18
73
14
40
0
40
0
40
0
40
0
40
0.235181462442484
40
0.235181462442484
40
0.36265121870207
40
0.36265121870207
40
0.426386096831862
40
0.426386096831862
40
0.490120974961655
40
0.490120974961655
40
0.745060487480827
40
0.745060487480827
40
1
40
1
40
1
40
1
41
1
10
14.8411656467498
20
-3.56122046994852
30
0
41
1
10
14.0132361651536
20
-3.32997629423167
30
0
41
1
10
13.1879114284627
20
-3.05039907869715
30
0
41
1
10
11.9084211100927
20
-2.55934840880252
30
0
41
1
10
11.4574622764944
20
-2.37516260297178
30
0
41
1
10
10.7777690400375
20
-2.0838411927972
30
0
41
1
10
10.5502600915906
20
-1.98411977803653
30
0
41
1
10
10.0969891208377
20
-1.7816585977715
30
0
41
1
10
9.87092834743228
20
-1.67879589317403
30
0
41
1
10
8.74283785929066
20
-1.15765850274576
30
0
41
1
10
7.84777515107055
20
-0.718283520372296
30
0
41
1
10
6.05503309512716
20
0.16969714944608
30
0
41
1
10
5.1576257118744
20
0.618843895768975
30
0
41
1
10
4.25026344849445
20
1.05479647629414
30
0
0
SPLINE
5
D3
100
AcDbEntity
8
1
62
256
6
ByLayer
370
13
48
1
60
0
100
AcDbSpline
70
4
71
3
72
26
73
22
40
0
40
0
40
0
40
0
40
0.15390542465608
40
0.15390542465608
40
0.23085813698412
40
0.23085813698412
40
0.30781084931216
40
0.3847635616402
40
0.3847635616402
40
0.46171627396824
40
0.46171627396824
40
0.61562169862432
40
0.61562169862432
40
0.69257441095236
40
0.69257441095236
40
0.7695271232804
40
0.7695271232804
40
0.84647983560844
40
0.84647983560844
40
0.92343254793648
40
1
40
1
40
1
40
1
41
1
10
4.25026344849445
20
1.05479647629414
30
0
41
1
10
4.25029481944824
20
1.331035208907
30
0
41
1
10
4.25031817674767
20
1.59728519926236
30
0
41
1
10
4.25034587532758
20
1.98180483586648
30
0
41
1
10
4.25035385524365
20
2.1072571119019
30
0
41
1
10
4.25036788893789
20
2.3485959706108
30
0
41
1
10
4.25038008474093
20
2.58157204333614
30
0
41
1
10
4.25039021512311
20
2.7980628188289
30
0
41
1
10
4.25040004643873
20
3.00619019392798
30
0
41
1
10
4.25040484011379
20
3.10658747704269
30
0
41
1
10
4.25041959123539
20
3.39034962267471
30
0
41
1
10
4.25042995070754
20
3.55617969668762
30
0
41
1
10
4.25044940209858
20
3.77075907308992
30
0
41
1
10
4.25045652431464
20
3.83655012072347
30
0
41
1
10
4.25047243001086
20
3.95629345500805
30
0
41
1
10
4.25048116703746
20
4.00981419588652
30
0
41
1
10
4.25050024329335
20
4.10328520696015
30
0
41
1
10
4.25051063917067
20
4.14349725020369
30
0
41
1
10
4.25053295848772
20
4.20998392747117
30
0
41
1
10
4.25055664741373
20
4.26224413068328
30
0
41
1
10
4.25058286118158
20
4.28709586825241
30
0
41
1
10
4.25059642840645
20
4.29263143039768
30
0
0
SPLINE
5
D4
100
AcDbEntity
8
1
62
256
6
ByLayer
370
18
48
1
60
0
100
AcDbSpline
70
4
71
3
72
8
73
4
40
0
40
0
40
0
40
0
40
1
40
1
40
1
40
1
41
1
10
47.3956089405362
20
4.54455189890115
30
0
41
1
10
47.2561817915543
20
4.54800682782977
30
0
41
1
10
47.1167736595224
20
4.54968632374551
30
0
41
1
10
46.9773526045448
20
4.54959319793463
30
0
0
SPLINE
5
D5
100
AcDbEntity
8
1
62
256
6
ByLayer
370
18
48
1
60
0
100
AcDbSpline
70
4
71
3
72
32
73
28
40
0
40
0
40
0
40
0
40
0.0026964320931162
40
0.0026964320931162
40
0.0396336012748528
40
0.0396336012748528
40
0.113507939638325
40
0.113507939638325
40
0.187382278001797
40
0.187382278001797
40
0.26125661636527
40
0.26125661636527
40
0.335130954728742
40
0.335130954728742
40
0.409005293092215
40
0.409005293092215
40
0.482879631455687
40
0.482879631455687
40
0.519816800637424
40
0.519816800637424
40
0.55675396981916
40
0.55675396981916
40
0.704502646546107
40
0.704502646546107
40
0.852251323273054
40
0.852251323273054
40
1
40
1
40
1
40
1
41
1
10
22.4417054336257
20
-4.32129885341095
30
0
41
1
10
22.4252493807201
20
-4.32389858034571
30
0
41
1
10
22.4087919918611
20
-4.32647502703358
30
0
41
1
10
22.1668720314965
20
-4.36400224647969
30
0
41
1
10
21.9409236238516
20
-4.39462290741065
30
0
41
1
10
21.2639575238658
20
-4.47283237871761
30
0
41
1
10
20.8139660566783
20
-4.50689256116314
30
0
41
1
10
19.9137913931373
20
-4.53823986144116
30
0
41
1
10
19.4635917699902
20
-4.5355580471826
30
0
41
1
10
18.5608007733071
20
-4.49329133186768
30
0
41
1
10
18.1096903395135
20
-4.45371206764489
30
0
41
1
10
17.2091247100572
20
-4.33906213309893
30
0
41
1
10
16.7592449288224
20
-4.26390277475932
30
0
41
1
10
15.8576778094246
20
-4.07935861259168
30
0
41
1
10
15.4054981580471
20
-3.9698715202365
30
0
41
1
10
14.5043337462847
20
-3.72017042727714
30
0
41
1
10
14.0544918462995
20
-3.57981521746504
30
0
41
1
10
13.3788998288552
20
-3.34825379855408
30
0
41
1
10
13.1535669224228
20
-3.26756159952501
30
0
41
1
10
12.7023272097739
20
-3.09953673886619
30
0
41
1
10
12.4762922365604
20
-3.01214779646204
30
0
41
1
10
11.3483145760442
20
-2.56135039790607
30
0
41
1
10
10.4503619772509
20
-2.15425744042355
30
0
41
1
10
8.64306387360119
20
-1.28021466307985
30
0
41
1
10
7.74400593990288
20
-0.816998333441575
30
0
41
1
10
5.93687546089987
20
0.124562202776019
30
0
41
1
10
5.03762300157899
20
0.598671477887734
30
0
41
1
10
4.13425921813672
20
1.05729897970824
30
0
0
SPLINE
5
D6
100
AcDbEntity
8
1
62
256
6
ByLayer
370
18
48
1
60
0
100
AcDbSpline
70
4
71
3
72
10
73
6
40
0
40
0
40
0
40
0
40
0.5
40
0.5
40
1
40
1
40
1
40
1
41
1
10
47.6294538927103
20
-4.4263896408246
30
0
41
1
10
47.5865380885897
20
-4.458354197642
30
0
41
1
10
47.5455270227314
20
-4.4844516837241
30
0
41
1
10
47.4672989332053
20
-4.52419529321003
30
0
41
1
10
47.4301021878911
20
-4.53774310638173
30
0
41
1
10
47.3956089405363
20
-4.54455189890115
30
0
0
SPLINE
5
D7
100
AcDbEntity
8
1
62
256
6
ByLayer
370
18
48
1
60
0
100
AcDbSpline
70
4
71
3
72
20
73
16
40
0
40
0
40
0
40
0
40
0.171319118357392
40
0.171319118357392
40
0.342638236714784
40
0.342638236714784
40
0.513957355072177
40
0.513957355072177
40
0.685276473429569
40
0.685276473429569
40
0.856595591786961
40
0.856595591786961
40
0.942255150965658
40
0.942255150965658
40
1
40
1
40
1
40
1
41
1
10
11.8871206937804
20
-3.30243752270817
30
0
41
1
10
12.2621144006076
20
-3.43805846163579
30
0
41
1
10
12.6364608162566
20
-3.56188756821177
30
0
41
1
10
13.3822370710159
20
-3.78940612016973
30
0
41
1
10
13.7531292772831
20
-3.89348068953487
30
0
41
1
10
14.4950766010825
20
-4.07807801394935
30
0
41
1
10
14.8658031232692
20
-4.15908421075764
30
0
41
1
10
15.6064028477773
20
-4.29870710150624
30
0
41
1
10
15.9770020035258
20
-4.35675107460932
30
0
41
1
10
16.720102984386
20
-4.44864866029036
30
0
41
1
10
17.0917293614657
20
-4.48282069671757
30
0
41
1
10
17.6519722318808
20
-4.51504453456727
30
0
41
1
10
17.8392268514127
20
-4.52263638597174
30
0
41
1
10
18.1533802188953
20
-4.53007281033874
30
0
41
1
10
18.279995086639
20
-4.5316277694219
30
0
41
1
10
18.406410257387
20
-4.53173274113351
30
0
0
SPLINE
5
D8
100
AcDbEntity
8
1
62
256
6
ByLayer
370
18
48
1
60
0
100
AcDbSpline
70
4
71
3
72
24
73
20
40
0
40
0
40
0
40
0
40
0.104630699987216
40
0.104630699987216
40
0.232540599989042
40
0.232540599989042
40
0.360450499990867
40
0.360450499990867
40
0.488360399992693
40
0.488360399992693
40
0.616270299994519
40
0.616270299994519
40
0.744180199996345
40
0.744180199996345
40
0.872090099998171
40
0.872090099998171
40
0.936045049999085
40
0.936045049999085
40
1
40
1
40
1
40
1
41
1
10
38.8891159501549
20
3.24345760458948
30
0
41
1
10
39.1950568834507
20
3.3562192357777
30
0
41
1
10
39.5007664752169
20
3.46325141373808
30
0
41
1
10
40.1821068680117
20
3.68525879120006
30
0
41
1
10
40.5582620181911
20
3.79773288808778
30
0
41
1
10
41.3053504748076
20
4.00032958964365
30
0
41
1
10
41.6777863710582
20
4.08986634434498
30
0
41
1
10
42.4206851004183
20
4.24591880160543
30
0
41
1
10
42.7905939627544
20
4.31271588406662
30
0
41
1
10
43.5312483691404
20
4.42143551949329
30
0
41
1
10
43.9015384206208
20
4.46376475996783
30
0
41
1
10
44.6420209602141
20
4.5241120111225
30
0
41
1
10
45.0129798800248
20
4.54186390935192
30
0
41
1
10
45.757207045806
20
4.55233661881692
30
0
41
1
10
46.1297051784172
20
4.54497163488
30
0
41
1
10
46.6919144161374
20
4.51472165377763
30
0
41
1
10
46.8798819199134
20
4.50146738275814
30
0
41
1
10
47.2549980644239
20
4.46868719385751
30
0
41
1
10
47.4422592969969
20
4.44910436408878
30
0
41
1
10
47.6294538927117
20
4.42638964082354
30
0
0
SPLINE
5
D9
100
AcDbEntity
8
1
62
256
6
ByLayer
370
18
48
1
60
0
100
AcDbSpline
70
4
71
3
72
8
73
4
40
0
40
0
40
0
40
0
40
1
40
1
40
1
40
1
41
1
10
11.6758594023189
20
3.23958058977075
30
0
41
1
10
11.7463523018078
20
3.26058929883607
30
0
41
1
10
11.8167709500269
20
3.28154828369276
30
0
41
1
10
11.8871206937804
20
3.30243752270815
30
0
0
SPLINE
5
DA
100
AcDbEntity
8
1
62
256
6
ByLayer
370
18
48
1
60
0
100
AcDbSpline
70
4
71
3
72
12
73
8
40
0
40
0
40
0
40
0
40
0.500000000000002
40
0.500000000000002
40
0.750000000000001
40
0.750000000000001
40
1
40
1
40
1
40
1
41
1
10
47.6294538927041
20
4.42638964084483
30
0
41
1
10
47.8324197044231
20
3.85454015316441
30
0
41
1
10
48.0450670943253
20
3.28445500235065
30
0
41
1
10
48.3753610367401
20
2.43202401445311
30
0
41
1
10
48.4874654420112
20
2.14817672411195
30
0
41
1
10
48.7143594190605
20
1.58339314095335
30
0
41
1
10
48.8292641652021
20
1.30220377750894
30
0
41
1
10
48.9455528648938
20
1.02205460056319
30
0
0
SPLINE
5
DB
100
AcDbEntity
8
1
62
256
6
ByLayer
370
18
48
1
60
0
100
AcDbSpline
70
4
71
3
72
14
73
10
40
0
40
0
40
0
40
0
40
0.25
40
0.25
40
0.5
40
0.5
40
0.75
40
0.75
40
1
40
1
40
1
40
1
41
1
10
4.00109301217577
20
-4.37312936023716
30
0
41
1
10
4.00368737642651
20
-4.34171849697432
30
0
41
1
10
4.01108940999563
20
-4.30949444597226
30
0
41
1
10
4.03782048152624
20
-4.24915906892244
30
0
41
1
10
4.05764514502636
20
-4.22072038825615
30
0
41
1
10
4.10760741817339
20
-4.17734077071015
30
0
41
1
10
4.13673615033716
20
-4.16322002718857
30
0
41
1
10
4.1950035955249
20
-4.14994656446342
30
0
41
1
10
4.22355574225639
20
-4.15040951549884
30
0
41
1
10
4.25072317261453
20
-4.15550397213912
30
0
0
SPLINE
5
DC
100
AcDbEntity
8
1
62
256
6
ByLayer
370
18
48
1
60
0
100
AcDbSpline
70
4
71
3
72
8
73
4
40
0
40
0
40
0
40
0
40
1
40
1
40
1
40
1
41
1
10
48.964243880166
20
-0.048052761956825
30
0
41
1
10
48.3025845074448
20
-1.13103049295617
30
0
41
1
10
47.6828425812854
20
-2.25206527128592
30
0
41
1
10
47.1064938501386
20
-3.41249693592107
30
0
0
SPLINE
5
DD
100
AcDbEntity
8
1
62
256
6
ByLayer
370
18
48
1
60
0
100
AcDbSpline
70
4
71
3
72
16
73
12
40
0
40
0
40
0
40
0
40
0.0741664497143981
40
0.0741664497143981
40
0.468130149295958
40
0.468130149295958
40
0.86209384887752
40
0.86209384887752
40
0.960584773772909
40
0.960584773772909
40
1
40
1
40
1
40
1
41
1
10
33.4616752328806
20
-0.0429345701840873
30
0
41
1
10
33.6326831146234
20
-0.130058352830815
30
0
41
1
10
33.8039361743871
20
-0.217270575211529
30
0
41
1
10
34.8812652917386
20
-0.764939956618605
30
0
41
1
10
35.7781359317559
20
-1.21644294561958
30
0
41
1
10
37.5708640411052
20
-2.06532232844563
30
0
41
1
10
38.466507993199
20
-2.46322787189698
30
0
41
1
10
39.5961065172086
20
-2.90740814243779
30
0
41
1
10
39.8225409679694
20
-2.99356567892485
30
0
41
1
10
40.1405141512432
20
-3.11009401956
30
0
41
1
10
40.2313970118193
20
-3.14288944927276
30
0
41
1
10
40.3222152541729
20
-3.17513798134138
30
0
0
SPLINE
5
DE
100
AcDbEntity
8
1
62
256
6
ByLayer
370
13
48
1
60
0
100
AcDbSpline
70
4
71
3
72
12
73
8
40
0
40
0
40
0
40
0
40
0.0565867341907193
40
0.0565867341907193
40
0.245269387352576
40
0.245269387352576
40
1
40
1
40
1
40
1
41
1
10
40.3222152537192
20
-3.17513798118037
30
0
41
1
10
40.458333998641
20
-3.22347221004483
30
0
41
1
10
40.59430758432
20
-3.27057788069649
30
0
41
1
10
41.1820650118297
20
-3.46888558007149
30
0
41
1
10
41.6315069503126
20
-3.60700036186455
30
0
41
1
10
43.870886673322
20
-4.22099410553051
30
0
41
1
10
45.6377618802255
20
-4.4648257017823
30
0
41
1
10
47.4479371811368
20
-4.41504767729074
30
0
0
SPLINE
5
DF
100
AcDbEntity
8
1
62
256
6
ByLayer
370
18
48
1
60
0
100
AcDbSpline
70
4
71
3
72
10
73
6
40
0
40
0
40
0
40
0
40
0.304137915489335
40
0.686137326549891
40
1
40
1
40
1
40
1
41
1
10
6.07451356507886
20
4.29640087967786
30
0
41
1
10
5.8891748618567
20
4.29610205181623
30
0
41
1
10
5.47135044106435
20
4.29556397216214
30
0
41
1
10
4.86148565620545
20
4.2968494982841
30
0
41
1
10
4.44021458570114
20
4.29600334561354
30
0
41
1
10
4.25056594497738
20
4.29549838744731
30
0
0
SPLINE
5
E0
100
AcDbEntity
8
1
62
256
6
ByLayer
370
18
48
1
60
0
100
AcDbSpline
70
4
71
3
72
26
73
22
40
0
40
0
40
0
40
0
40
0.0455546844715082
40
0.102161602155734
40
0.143499032597592
40
0.176760497411115
40
0.223540095077437
40
0.284386013175336
40
0.348411170671635
40
0.402608277405391
40
0.451325139790784
40
0.501022754732585
40
0.561895752495275
40
0.634060023196439
40
0.687582992633743
40
0.759604922795866
40
0.844469183110322
40
0.908808169003753
40
0.956655853708462
40
0.988852038614298
40
1
40
1
40
1
40
1
41
1
10
32.9213963550202
20
4.30941664357826
30
0
41
1
10
32.7613632566702
20
4.30874640679488
30
0
41
1
10
32.4037214995256
20
4.30773779303533
30
0
41
1
10
31.9141862828664
20
4.31014891298688
30
0
41
1
10
31.4559965903807
20
4.31012725189663
30
0
41
1
10
31.0325186259739
20
4.31127684058418
30
0
41
1
10
30.5404400279001
20
4.31172978821903
30
0
41
1
10
29.9409391303006
20
4.31000593812641
30
0
41
1
10
29.3155161712232
20
4.30959930672407
30
0
41
1
10
28.7324594692713
20
4.30837011830232
30
0
41
1
10
28.1994412114838
20
4.30857584554974
30
0
41
1
10
27.6431078961176
20
4.30922848650229
30
0
41
1
10
27.0048793637028
20
4.31039034241525
30
0
41
1
10
26.353293442713
20
4.3078197287488
30
0
41
1
10
25.6627629025351
20
4.30706344823653
30
0
41
1
10
24.927917267774
20
4.30776079255548
30
0
41
1
10
24.1552235509886
20
4.30823952684653
30
0
41
1
10
23.4670535377263
20
4.30622545601912
30
0
41
1
10
22.9626757416008
20
4.30637831567239
30
0
41
1
10
22.6443684392887
20
4.30642324598259
30
0
41
1
10
22.4930309571865
20
4.3064155066379
30
0
41
1
10
22.4541074575333
20
4.30641414163753
30
0
0
SPLINE
5
E1
100
AcDbEntity
8
1
62
256
6
ByLayer
370
18
48
1
60
0
100
AcDbSpline
70
4
71
3
72
10
73
6
40
0
40
0
40
0
40
0
40
0.313764313703419
40
0.695644012027502
40
1
40
1
40
1
40
1
41
1
10
4.25056594497735
20
-4.29549838744754
30
0
41
1
10
4.44021458570728
20
-4.29600334561354
30
0
41
1
10
4.86148567125872
20
-4.2968494432713
30
0
41
1
10
5.47154156414965
20
-4.29556378573983
30
0
41
1
10
5.88955675311402
20
-4.29610217940055
30
0
41
1
10
6.07508651728924
20
-4.29640139176394
30
0
0
SPLINE
5
E2
100
AcDbEntity
8
1
62
256
6
ByLayer
370
18
48
1
60
0
100
AcDbSpline
70
4
71
1
72
4
73
2
40
0
40
0
40
1
40
1
41
1
10
47.1359640498343
20
-4.32211635819621
30
0
41
1
10
47.4057605748313
20
-4.32115325153012
30
0
0
SPLINE
5
E3
100
AcDbEntity
8
1
62
256
6
ByLayer
370
18
48
1
60
0
100
AcDbSpline
70
4
71
3
72
30
73
26
40
0
40
0
40
0
40
0
40
0.065227350693093
40
0.125073393201505
40
0.17295016009526
40
0.20551377320535
40
0.239593270124636
40
0.28087440784271
40
0.323973515849318
40
0.377510617303121
40
0.428376306084589
40
0.463200652447065
40
0.50040467407006
40
0.547267255671568
40
0.598883318482617
40
0.641120663357514
40
0.682941177955649
40
0.731028268109049
40
0.788005604498968
40
0.840202970210205
40
0.869670867515564
40
0.894039045797562
40
0.927921751634789
40
0.971426998759008
40
1
40
1
40
1
40
1
41
1
10
19.9330160701826
20
-4.30522808801871
30
0
41
1
10
20.2145305044154
20
-4.30490514842575
30
0
41
1
10
20.7545267890408
20
-4.30459841700991
30
0
41
1
10
21.5046729056215
20
-4.30651533706663
30
0
41
1
10
22.1092172446113
20
-4.30644083833513
30
0
41
1
10
22.6062370207779
20
-4.30642694640537
30
0
41
1
10
23.0738024267542
20
-4.30633873992997
30
0
41
1
10
23.5874849305426
20
-4.30643007889338
30
0
41
1
10
24.1853678983171
20
-4.30821001112756
30
0
41
1
10
24.8248710066679
20
-4.3077814270722
30
0
41
1
10
25.4284587474053
20
-4.30735359102982
30
0
41
1
10
25.9612410355484
20
-4.30714860516821
30
0
41
1
10
26.4766851529341
20
-4.30852747906815
30
0
41
1
10
27.0649242015309
20
-4.31027827206532
30
0
41
1
10
27.6749868614082
20
-4.30919599654382
30
0
41
1
10
28.2631895377104
20
-4.30848262461916
30
0
41
1
10
28.8360898348882
20
-4.30847599342522
30
0
41
1
10
29.4729108792811
20
-4.30991669321037
30
0
41
1
10
30.1546343191704
20
-4.31016486129309
30
0
41
1
10
30.7559208420842
20
-4.31192272770795
30
0
41
1
10
31.2150832729286
20
-4.31074564492425
30
0
41
1
10
31.5959350896437
20
-4.31000367097289
30
0
41
1
10
32.0342469242541
20
-4.31003623020968
30
0
41
1
10
32.4842963160398
20
-4.30738349814106
30
0
41
1
10
32.797326671661
20
-4.30871291994927
30
0
41
1
10
32.921853496849
20
-4.30944635570378
30
0
0
LINE
5
7B
100
AcDbEntity
8
SK1
62
256
6
ByLayer
370
18
48
1
60
0
100
AcDbLine
10
-38.66
20
5
30
0
11
-38.66
21
-5
31
0
39
0
210
0
220
0
230
1
0
LINE
5
7D
100
AcDbEntity
8
SK1
62
256
6
ByLayer
370
18
48
1
60
0
100
AcDbLine
10
-40
20
3.66
30
0
11
-40
21
-3.66
31
0
39
0
210
0
220
0
230
1
0
LINE
5
7E
100
AcDbEntity
8
SK1
62
256
6
ByLayer
370
18
48
1
60
0
100
AcDbLine
10
0
20
-5
30
0
11
0
21
5
31
0
39
0
210
0
220
0
230
1
0
LINE
5
7F
100
AcDbEntity
8
1
62
256
6
ByLayer
370
13
48
1
60
0
100
AcDbLine
10
47.485
20
1.070157
30
0
11
48.989529
21
0.117754
31
0
39
0
210
0
220
0
230
1
0
LINE
5
80
100
AcDbEntity
8
1
62
256
6
ByLayer
370
13
48
1
60
0
100
AcDbLine
10
47.349711
20
0.973985
30
0
11
48.964244
21
-0.048053
31
0
39
0
210
0
220
0
230
1
0
LINE
5
81
100
AcDbEntity
8
1
62
256
6
ByLayer
370
13
48
1
60
0
100
AcDbLine
10
0.570851
20
4.760473
30
0
11
0.570851
21
-4.760473
31
0
39
0
210
0
220
0
230
1
0
LINE
5
82
100
AcDbEntity
8
1
62
256
6
ByLayer
370
13
48
1
60
0
100
AcDbLine
10
1.142201
20
4.520945
30
0
11
1.142201
21
-4.520945
31
0
39
0
210
0
220
0
230
1
0
LINE
5
83
100
AcDbEntity
8
1
62
256
6
ByLayer
370
18
48
1
60
0
100
AcDbLine
10
0
20
-5
30
0
11
0
21
5
31
0
39
0
210
0
220
0
230
1
0
LINE
5
84
100
AcDbEntity
8
80
62
256
6
ByLayer
370
18
48
1
60
0
100
AcDbLine
10
0
20
0
30
0
11
-5
21
0
31
0
39
0
210
0
220
0
230
1
0
LINE
5
85
100
AcDbEntity
8
SK4
62
256
6
ByLayer
370
18
48
0.05
60
0
100
AcDbLine
10
54
20
0
30
0
11
-45
21
0
31
0
39
0
210
0
220
0
230
1
0
LINE
5
87
100
AcDbEntity
8
4
62
256
6
ByLayer
370
18
48
0.05
60
0
100
AcDbLine
10
49
20
0
30
0
11
0
21
0
31
0
39
0
210
0
220
0
230
1
0
LINE
5
89
100
AcDbEntity
8
SK1
62
256
6
ByLayer
370
18
48
1
60
0
100
AcDbLine
10
-38.66
20
-5
30
0
11
0
21
-5
31
0
39
0
210
0
220
0
230
1
0
LINE
5
8A
100
AcDbEntity
8
SK1
62
256
6
ByLayer
370
18
48
1
60
0
100
AcDbLine
10
0
20
5
30
0
11
-38.66
21
5
31
0
39
0
210
0
220
0
230
1
0
LINE
5
8B
100
AcDbEntity
8
SK1
62
256
6
ByLayer
370
18
48
1
60
0
100
AcDbLine
10
-40
20
-3.66
30
0
11
-38.66
21
-5
31
0
39
0
210
0
220
0
230
1
0
LINE
5
8C
100
AcDbEntity
8
SK1
62
256
6
ByLayer
370
18
48
1
60
0
100
AcDbLine
10
-38.66
20
5
30
0
11
-40
21
3.66
31
0
39
0
210
0
220
0
230
1
0
LINE
5
8D
100
AcDbEntity
8
1
62
256
6
ByLayer
370
18
48
1
60
0
100
AcDbLine
10
1.142201
20
-4.520945
30
0
11
4.001073
21
-4.522732
31
0
39
0
210
0
220
0
230
1
0
LINE
5
8E
100
AcDbEntity
8
1
62
256
6
ByLayer
370
18
48
1
60
0
100
AcDbLine
10
18.40922
20
-4.531737
30
0
11
19.777542
21
-4.532593
31
0
39
0
210
0
220
0
230
1
0
LINE
5
8F
100
AcDbEntity
8
1
62
256
6
ByLayer
370
18
48
1
60
0
100
AcDbLine
10
45.605789
20
-4.548735
30
0
11
46.978132
21
-4.549593
31
0
39
0
210
0
220
0
230
1
0
LINE
5
90
100
AcDbEntity
8
1
62
256
6
ByLayer
370
18
48
1
60
0
100
AcDbLine
10
46.978023
20
4.549593
30
0
11
45.605789
21
4.548735
31
0
39
0
210
0
220
0
230
1
0
LINE
5
91
100
AcDbEntity
8
1
62
256
6
ByLayer
370
18
48
1
60
0
100
AcDbLine
10
19.777377
20
4.532592
30
0
11
18.40922
21
4.531737
31
0
39
0
210
0
220
0
230
1
0
LINE
5
92
100
AcDbEntity
8
1
62
256
6
ByLayer
370
18
48
1
60
0
100
AcDbLine
10
4.001073
20
4.522732
30
0
11
1.142201
21
4.520945
31
0
39
0
210
0
220
0
230
1
0
LINE
5
93
100
AcDbEntity
8
81
62
256
6
ByLayer
370
18
48
1
60
0
100
AcDbLine
10
49
20
0
30
0
11
54
21
0
31
0
39
0
210
0
220
0
230
1
0
LINE
5
94
100
AcDbEntity
8
SK2
62
256
6
ByLayer
370
13
48
1
60
0
100
AcDbLine
10
-48.625163
20
-5
30
0
11
-48.625163
21
35.857173
31
0
39
0
210
0
220
0
230
1
0
LINE
5
96
100
AcDbEntity
8
SK2
62
256
6
ByLayer
370
13
48
1
60
0
100
AcDbLine
10
-41.5875
20
5
30
0
11
-50.625163
21
5
31
0
39
0
210
0
220
0
230
1
0
LINE
5
97
100
AcDbEntity
8
SK2
62
256
6
ByLayer
370
13
48
1
60
0
100
AcDbLine
10
-41.5875
20
-5
30
0
11
-50.625163
21
-5
31
0
39
0
210
0
220
0
230
1
0
LINE
5
98
100
AcDbEntity
8
1
62
256
6
ByLayer
370
18
48
1
60
1
100
AcDbLine
10
-48.625163
20
5
30
0
11
-48.164379
21
1.500002
31
0
39
0
210
0
220
0
230
1
0
LINE
5
99
100
AcDbEntity
8
1
62
256
6
ByLayer
370
18
48
1
60
1
100
AcDbLine
10
-48.164379
20
1.500002
30
0
11
-49.085946
21
1.499998
31
0
39
0
210
0
220
0
230
1
0
LINE
5
9A
100
AcDbEntity
8
1
62
256
6
ByLayer
370
18
48
1
60
1
100
AcDbLine
10
-49.085946
20
1.499998
30
0
11
-48.625163
21
5
31
0
39
0
210
0
220
0
230
1
0
LINE
5
9B
100
AcDbEntity
8
1
62
256
6
ByLayer
370
18
48
1
60
1
100
AcDbLine
10
-48.625163
20
-5
30
0
11
-49.085946
21
-1.500002
31
0
39
0
210
0
220
0
230
1
0
LINE
5
9C
100
AcDbEntity
8
1
62
256
6
ByLayer
370
18
48
1
60
1
100
AcDbLine
10
-49.085946
20
-1.500002
30
0
11
-48.164379
21
-1.499998
31
0
39
0
210
0
220
0
230
1
0
LINE
5
9D
100
AcDbEntity
8
1
62
256
6
ByLayer
370
18
48
1
60
1
100
AcDbLine
10
-48.164379
20
-1.499998
30
0
11
-48.625163
21
-5
31
0
39
0
210
0
220
0
230
1
0
LINE
5
9E
100
AcDbEntity
8
2
62
256
6
ByLayer
370
13
48
1
60
0
100
AcDbLine
10
61.083343
20
-4.55
30
0
11
61.083343
21
31.385327
31
0
39
0
210
0
220
0
230
1
0
LINE
5
A0
100
AcDbEntity
8
2
62
256
6
ByLayer
370
13
48
1
60
0
100
AcDbLine
10
49.2391
20
4.55
30
0
11
63.083343
21
4.55
31
0
39
0
210
0
220
0
230
1
0
LINE
5
A1
100
AcDbEntity
8
2
62
256
6
ByLayer
370
13
48
1
60
0
100
AcDbLine
10
49.2391
20
-4.55
30
0
11
63.083343
21
-4.55
31
0
39
0
210
0
220
0
230
1
0
LINE
5
A2
100
AcDbEntity
8
1
62
256
6
ByLayer
370
18
48
1
60
1
100
AcDbLine
10
61.083343
20
4.55
30
0
11
61.544126
21
1.050002
31
0
39
0
210
0
220
0
230
1
0
LINE
5
A3
100
AcDbEntity
8
1
62
256
6
ByLayer
370
18
48
1
60
1
100
AcDbLine
10
61.544126
20
1.050002
30
0
11
60.622559
21
1.049998
31
0
39
0
210
0
220
0
230
1
0
LINE
5
A4
100
AcDbEntity
8
1
62
256
6
ByLayer
370
18
48
1
60
1
100
AcDbLine
10
60.622559
20
1.049998
30
0
11
61.083343
21
4.55
31
0
39
0
210
0
220
0
230
1
0
LINE
5
A5
100
AcDbEntity
8
1
62
256
6
ByLayer
370
18
48
1
60
1
100
AcDbLine
10
61.083343
20
-4.55
30
0
11
60.622559
21
-1.050002
31
0
39
0
210
0
220
0
230
1
0
LINE
5
A6
100
AcDbEntity
8
1
62
256
6
ByLayer
370
18
48
1
60
1
100
AcDbLine
10
60.622559
20
-1.050002
30
0
11
61.544126
21
-1.049998
31
0
39
0
210
0
220
0
230
1
0
LINE
5
A7
100
AcDbEntity
8
1
62
256
6
ByLayer
370
18
48
1
60
1
100
AcDbLine
10
61.544126
20
-1.049998
30
0
11
61.083343
21
-4.55
31
0
39
0
210
0
220
0
230
1
0
LINE
5
EA
100
AcDbEntity
8
1
62
256
6
ByLayer
370
18
48
1
60
1
100
AcDbLine
10
-48.625163
20
5
30
0
11
-48.164379
21
1.500002
31
0
39
0
210
0
220
0
230
1
0
LINE
5
EB
100
AcDbEntity
8
1
62
256
6
ByLayer
370
18
48
1
60
1
100
AcDbLine
10
-48.164379
20
1.500002
30
0
11
-49.085946
21
1.499998
31
0
39
0
210
0
220
0
230
1
0
LINE
5
EC
100
AcDbEntity
8
1
62
256
6
ByLayer
370
18
48
1
60
1
100
AcDbLine
10
-49.085946
20
1.499998
30
0
11
-48.625163
21
5
31
0
39
0
210
0
220
0
230
1
0
LINE
5
EE
100
AcDbEntity
8
1
62
256
6
ByLayer
370
18
48
1
60
1
100
AcDbLine
10
-48.625163
20
-5
30
0
11
-49.085946
21
-1.500002
31
0
39
0
210
0
220
0
230
1
0
LINE
5
EF
100
AcDbEntity
8
1
62
256
6
ByLayer
370
18
48
1
60
1
100
AcDbLine
10
-49.085946
20
-1.500002
30
0
11
-48.164379
21
-1.499998
31
0
39
0
210
0
220
0
230
1
0
LINE
5
F0
100
AcDbEntity
8
1
62
256
6
ByLayer
370
18
48
1
60
1
100
AcDbLine
10
-48.164379
20
-1.499998
30
0
11
-48.625163
21
-5
31
0
39
0
210
0
220
0
230
1
0
LINE
5
F4
100
AcDbEntity
8
1
62
256
6
ByLayer
370
18
48
1
60
1
100
AcDbLine
10
61.083343
20
4.55
30
0
11
61.544126
21
1.050002
31
0
39
0
210
0
220
0
230
1
0
LINE
5
F5
100
AcDbEntity
8
1
62
256
6
ByLayer
370
18
48
1
60
1
100
AcDbLine
10
61.544126
20
1.050002
30
0
11
60.622559
21
1.049998
31
0
39
0
210
0
220
0
230
1
0
LINE
5
F6
100
AcDbEntity
8
1
62
256
6
ByLayer
370
18
48
1
60
1
100
AcDbLine
10
60.622559
20
1.049998
30
0
11
61.083343
21
4.55
31
0
39
0
210
0
220
0
230
1
0
LINE
5
F8
100
AcDbEntity
8
1
62
256
6
ByLayer
370
18
48
1
60
1
100
AcDbLine
10
61.083343
20
-4.55
30
0
11
60.622559
21
-1.050002
31
0
39
0
210
0
220
0
230
1
0
LINE
5
F9
100
AcDbEntity
8
1
62
256
6
ByLayer
370
18
48
1
60
1
100
AcDbLine
10
60.622559
20
-1.050002
30
0
11
61.544126
21
-1.049998
31
0
39
0
210
0
220
0
230
1
0
LINE
5
FA
100
AcDbEntity
8
1
62
256
6
ByLayer
370
18
48
1
60
1
100
AcDbLine
10
61.544126
20
-1.049998
30
0
11
61.083343
21
-4.55
31
0
39
0
210
0
220
0
230
1
0
MTEXT
5
E4
100
AcDbEntity
8
SK6
62
256
6
ByLayer
370
13
48
1
60
0
100
AcDbMText
10
-24.645193
20
37.090328
30
0
210
0
220
0
230
1
1
\W0.7670;462.1-0910-027A0-XM X2BM
40
3.5
41
0
44
1.084337
50
0
71
7
72
5
7
iso_b_vert
0
MTEXT
5
E8
100
AcDbEntity
8
SK2
62
256
6
ByLayer
370
18
48
1
60
0
100
AcDbMText
10
-50.189796
20
18.409024
30
0
210
0
220
0
230
1
1
%%c
40
3.5
41
0
44
1.084337
50
90
71
7
72
5
7
iso_b_vert
0
MTEXT
5
E9
100
AcDbEntity
8
SK2
62
256
6
ByLayer
370
18
48
1
60
0
100
AcDbMText
10
-50.189796
20
23.63168
30
0
210
0
220
0
230
1
1
\W0.6930;10,000
40
3.5
41
0
44
1.084337
50
90
71
7
72
5
7
iso_b_vert
0
MTEXT
5
F2
100
AcDbEntity
8
2
62
256
6
ByLayer
370
18
48
1
60
0
100
AcDbMText
10
59.518709
20
16.55211
30
0
210
0
220
0
230
1
1
%%c
40
3.5
41
0
44
1.084337
50
90
71
7
72
5
7
iso_b_vert
0
MTEXT
5
F3
100
AcDbEntity
8
2
62
256
6
ByLayer
370
18
48
1
60
0
100
AcDbMText
10
59.518709
20
21.774766
30
0
210
0
220
0
230
1
1
\W0.6713;9,100
40
3.5
41
0
44
1.084337
50
90
71
7
72
5
7
iso_b_vert
0
HATCH
5
ED
100
AcDbEntity
8
SK2
62
256
6
ByLayer
370
13
48
1
60
0
100
AcDbHatch
10
0
20
0
30
0
210
0
220
0
230
1
2
ANSI31
70
0
71
0
91
1
92
5
93
3
72
1
10
-48.6251625675374
20
5
11
-48.1643788259847
21
1.50000169255318
72
1
10
-48.1643788259847
20
1.50000169255318
11
-49.0859463090902
21
1.49999830744682
72
1
10
-49.0859463090902
20
1.49999830744682
11
-48.6251625675374
21
5
97
0
75
0
76
1
52
0
41
0.0062
77
0
78
1
53
45
43
0
44
0
45
-0.0139193969876572
46
0.0139193969876572
79
0
47
0
98
1
10
0
20
0
0
HATCH
5
F1
100
AcDbEntity
8
SK2
62
256
6
ByLayer
370
13
48
1
60
0
100
AcDbHatch
10
0
20
0
30
0
210
0
220
0
230
1
2
ANSI31
70
0
71
0
91
1
92
5
93
3
72
1
10
-48.6251625675374
20
-5
11
-49.0859463090902
21
-1.50000169255318
72
1
10
-49.0859463090902
20
-1.50000169255318
11
-48.1643788259847
21
-1.49999830744682
72
1
10
-48.1643788259847
20
-1.49999830744682
11
-48.6251625675374
21
-5
97
0
75
0
76
1
52
0
41
0.0062
77
0
78
1
53
45
43
0
44
0
45
-0.0139193969876572
46
0.0139193969876572
79
0
47
0
98
1
10
0
20
0
0
HATCH
5
F7
100
AcDbEntity
8
2
62
256
6
ByLayer
370
13
48
1
60
0
100
AcDbHatch
10
0
20
0
30
0
210
0
220
0
230
1
2
ANSI31
70
0
71
0
91
1
92
5
93
3
72
1
10
61.083342615295
20
4.55000000000001
11
61.5441263568478
21
1.05000169255319
72
1
10
61.5441263568478
20
1.05000169255319
11
60.6225588737423
21
1.04999830744683
72
1
10
60.6225588737423
20
1.04999830744683
11
61.083342615295
21
4.55000000000001
97
0
75
0
76
1
52
0
41
0.0062
77
0
78
1
53
45
43
0
44
0
45
-0.0139193969876572
46
0.0139193969876572
79
0
47
0
98
1
10
0
20
0
0
HATCH
5
FB
100
AcDbEntity
8
2
62
256
6
ByLayer
370
13
48
1
60
0
100
AcDbHatch
10
0
20
0
30
0
210
0
220
0
230
1
2
ANSI31
70
0
71
0
91
1
92
5
93
3
72
1
10
61.083342615295
20
-4.54999999999998
11
60.6225588737423
21
-1.05000169255317
72
1
10
60.6225588737423
20
-1.05000169255317
11
61.5441263568478
21
-1.0499983074468
72
1
10
61.5441263568478
20
-1.0499983074468
11
61.083342615295
21
-4.54999999999998
97
0
75
0
76
1
52
0
41
0.0062
77
0
78
1
53
45
43
0
44
0
45
-0.0139193969876572
46
0.0139193969876572
79
0
47
0
98
1
10
0
20
0
0
DIMENSION
5
FD
100
AcDbEntity
8
SK2
62
256
6
ByLayer
370
13
48
1
60
0
100
AcDbDimension
2
_U0
10
47.6516
20
-14.763398
30
0
11
23.8258
21
-14.763398
31
0
70
32
71
1
72
1
41
1
210
0
220
0
230
1
3
Standard
100
AcDbAlignedDimension
13
0
23
0
33
0
14
47.6516
24
-4.55
34
0
50
0
100
AcDbRotatedDimension
1001
ACAD
1000
DSTYLE
1002
{
1070
   371
1070
    13
1070
   372
1070
    13
1070
   170
1070
     0
1070
   144
1040
1.0
1070
   277
1070
     2
1070
   278
1070
    44
1070
   146
1040
1.0
1070
   345
1005
16
1070
   347
1005
16
1070
   346
1005
16
1070
   344
1005
0
1070
   343
1005
0
1070
   172
1070
     1
1070
    76
1070
     0
1070
    75
1070
     0
1070
   282
1070
     0
1070
   281
1070
     0
1070
    71
1070
     0
1070
    74
1070
     0
1070
   279
1070
     0
1070
   173
1070
     1
1070
   340
1005
E5
1070
   271
1070
     2
1070
   272
1070
     2
1070
    77
1070
     1
1070
    73
1070
     1
1070
   171
1070
     3
1070
   274
1070
     4
1070
   177
1070
    35
1070
   176
1070
    35
1070
   178
1070
    35
1070
    48
1040
-0.1
1070
    41
1040
3.5
1070
   147
1040
1.75
1070
    42
1040
1.5875
1070
    44
1040
2.0
1070
   140
1040
3.5
1002
}
1001
ACAD_DSTYLE_DIM_LINETYPE
1070
   380
1005
16
1001
ACAD_DSTYLE_DIM_EXT1_LINETYPE
1070
   381
1005
16
1001
ACAD_DSTYLE_DIM_EXT2_LINETYPE
1070
   382
1005
16
0
DIMENSION
5
116
100
AcDbEntity
8
SK2
62
256
6
ByLayer
370
13
48
1
60
0
100
AcDbDimension
2
_U1
10
49
20
-33.692985
30
0
11
4.5
21
-33.692985
31
0
70
32
71
1
72
1
41
1
210
0
220
0
230
1
3
Standard
100
AcDbAlignedDimension
13
-40
23
-5
33
0
14
49
24
0
34
0
50
0
100
AcDbRotatedDimension
1001
ACAD
1000
DSTYLE
1002
{
1070
   371
1070
    13
1070
   372
1070
    13
1070
   170
1070
     0
1070
   144
1040
1.0
1070
   277
1070
     2
1070
   278
1070
    44
1070
   146
1040
1.0
1070
   345
1005
16
1070
   347
1005
16
1070
   346
1005
16
1070
   344
1005
0
1070
   343
1005
0
1070
   172
1070
     1
1070
    76
1070
     0
1070
    75
1070
     0
1070
   282
1070
     0
1070
   281
1070
     0
1070
    71
1070
     0
1070
    74
1070
     0
1070
   279
1070
     0
1070
   173
1070
     1
1070
   340
1005
E5
1070
   271
1070
     2
1070
   272
1070
     2
1070
    77
1070
     1
1070
    73
1070
     1
1070
   171
1070
     3
1070
   274
1070
     4
1070
   177
1070
    35
1070
   176
1070
    35
1070
   178
1070
    35
1070
    48
1040
-0.1
1070
    41
1040
3.5
1070
   147
1040
1.75
1070
    42
1040
1.5875
1070
    44
1040
2.0
1070
   140
1040
3.5
1002
}
1001
ACAD_DSTYLE_DIM_LINETYPE
1070
   380
1005
16
1001
ACAD_DSTYLE_DIM_EXT1_LINETYPE
1070
   381
1005
16
1001
ACAD_DSTYLE_DIM_EXT2_LINETYPE
1070
   382
1005
16
0
DIMENSION
5
12E
100
AcDbEntity
8
SK2
62
256
6
ByLayer
370
13
48
1
60
0
100
AcDbDimension
2
_U2
10
49
20
16.159119
30
0
11
34.675
21
16.159119
31
0
70
32
71
1
72
1
41
1
210
0
220
0
230
1
3
Standard
100
AcDbAlignedDimension
13
20.35
23
4.55
33
0
14
49
24
0
34
0
50
0
100
AcDbRotatedDimension
1001
ACAD
1000
DSTYLE
1002
{
1070
   371
1070
    13
1070
   372
1070
    13
1070
   170
1070
     0
1070
   144
1040
1.0
1070
   277
1070
     2
1070
   278
1070
    44
1070
   146
1040
1.0
1070
   345
1005
16
1070
   347
1005
16
1070
   346
1005
16
1070
   344
1005
0
1070
   343
1005
0
1070
   172
1070
     1
1070
    76
1070
     0
1070
    75
1070
     0
1070
   282
1070
     0
1070
   281
1070
     0
1070
    71
1070
     0
1070
    74
1070
     0
1070
   279
1070
     0
1070
   173
1070
     1
1070
   340
1005
E5
1070
   271
1070
     2
1070
   272
1070
     2
1070
    77
1070
     1
1070
    73
1070
     1
1070
   171
1070
     3
1070
   274
1070
     4
1070
   177
1070
    35
1070
   176
1070
    35
1070
   178
1070
    35
1070
    48
1040
-0.1
1070
    41
1040
3.5
1070
   147
1040
1.75
1070
    42
1040
1.5875
1070
    44
1040
2.0
1070
   140
1040
3.5
1002
}
1001
ACAD_DSTYLE_DIM_LINETYPE
1070
   380
1005
16
1001
ACAD_DSTYLE_DIM_EXT1_LINETYPE
1070
   381
1005
16
1001
ACAD_DSTYLE_DIM_EXT2_LINETYPE
1070
   382
1005
16
0
DIMENSION
5
146
100
AcDbEntity
8
SK2
62
256
6
ByLayer
370
13
48
1
60
0
100
AcDbDimension
2
_U3
10
47.6516
20
-17.352503
30
0
11
66.333333
21
-17.352503
31
0
70
32
71
1
72
1
41
1
210
0
220
0
230
1
3
Standard
100
AcDbAlignedDimension
13
49
23
0
33
0
14
47.6516
24
-4.55
34
0
50
0
100
AcDbRotatedDimension
1001
ACAD
1000
DSTYLE
1002
{
1070
   371
1070
    13
1070
   372
1070
    13
1070
   170
1070
     0
1070
   144
1040
1.0
1070
   277
1070
     2
1070
   278
1070
    44
1070
   146
1040
1.0
1070
   345
1005
16
1070
   347
1005
16
1070
   346
1005
16
1070
   344
1005
0
1070
   343
1005
0
1070
   172
1070
     1
1070
    76
1070
     0
1070
    75
1070
     0
1070
   282
1070
     0
1070
   281
1070
     0
1070
    71
1070
     0
1070
    74
1070
     0
1070
   279
1070
     0
1070
   173
1070
     1
1070
   340
1005
E5
1070
   271
1070
     2
1070
   272
1070
     2
1070
    77
1070
     1
1070
    73
1070
     1
1070
   171
1070
     3
1070
   274
1070
     4
1070
   177
1070
    35
1070
   176
1070
    35
1070
   178
1070
    35
1070
    48
1040
-0.1
1070
    41
1040
3.5
1070
   147
1040
1.75
1070
    42
1040
1.5875
1070
    44
1040
2.0
1070
   140
1040
3.5
1002
}
1001
ACAD_DSTYLE_DIM_LINETYPE
1070
   380
1005
16
1001
ACAD_DSTYLE_DIM_EXT1_LINETYPE
1070
   381
1005
16
1001
ACAD_DSTYLE_DIM_EXT2_LINETYPE
1070
   382
1005
16
0
DIMENSION
5
160
100
AcDbEntity
8
SK2
62
256
6
ByLayer
370
13
48
1
60
0
100
AcDbDimension
2
_U4
10
47.6516
20
-23.343428
30
0
11
3.8258
21
-23.343428
31
0
70
32
71
1
72
1
41
1
210
0
220
0
230
1
3
Standard
100
AcDbAlignedDimension
13
-40
23
-5
33
0
14
47.6516
24
-4.55
34
0
50
0
100
AcDbRotatedDimension
1001
ACAD
1000
DSTYLE
1002
{
1070
   371
1070
    13
1070
   372
1070
    13
1070
   170
1070
     0
1070
   144
1040
1.0
1070
   277
1070
     2
1070
   278
1070
    44
1070
   146
1040
1.0
1070
   345
1005
16
1070
   347
1005
16
1070
   346
1005
16
1070
   344
1005
0
1070
   343
1005
0
1070
   172
1070
     1
1070
    76
1070
     0
1070
    75
1070
     0
1070
   282
1070
     0
1070
   281
1070
     0
1070
    71
1070
     0
1070
    74
1070
     0
1070
   279
1070
     0
1070
   173
1070
     1
1070
   340
1005
E5
1070
   271
1070
     2
1070
   272
1070
     2
1070
    77
1070
     1
1070
    73
1070
     1
1070
   171
1070
     3
1070
   274
1070
     4
1070
   177
1070
    35
1070
   176
1070
    35
1070
   178
1070
    35
1070
    48
1040
-0.1
1070
    41
1040
3.5
1070
   147
1040
1.75
1070
    42
1040
1.5875
1070
    44
1040
2.0
1070
   140
1040
3.5
1002
}
1001
ACAD_DSTYLE_DIM_LINETYPE
1070
   380
1005
16
1001
ACAD_DSTYLE_DIM_EXT1_LINETYPE
1070
   381
1005
16
1001
ACAD_DSTYLE_DIM_EXT2_LINETYPE
1070
   382
1005
16
0
ENDSEC
0
SECTION
2
OBJECTS
0
DICTIONARY
5
1e8
330
0
100
AcDbDictionary
280
0
281
1
3
ACAD_GROUP
350
1e9
3
ACAD_MLINESTYLE
350
1ea
0
DICTIONARY
5
1e9
330
0
100
AcDbDictionary
280
0
281
1
0
DICTIONARY
5
1ea
330
0
100
AcDbDictionary
280
0
281
1
3
Standard
350
18
0
MLINESTYLE
5
18
330
1ea
100
AcDbMlineStyle
2
Standard
70
0
3

62
256
51
90
52
90
71
2
49
-0.5
62
256
6
ByLayer
49
0.5
62
256
6
ByLayer
0
RASTERVARIABLES
5
1d6
330

100
AcDbRasterVariables
90
0
70
1
71
1
72
1
0
ENDSEC
0
EOF
