0
SECTION
2
HEADER
9
$ACADVER
1
AC1015
9
$DWGCODEPAGE
3
ANSI_1252
9
$HANDSEED
5
1f2
9
$ANGBASE
50
0
9
$ANGDIR
70
0
9
$ATTMODE
70
1
9
$AUNITS
70
0
9
$AUPREC
70
0
9
$CECOLOR
62
256
9
$CELTSCALE
40
1
9
$CELTYPE
6
ByLayer
9
$CELWEIGHT
370
18
9
$CLAYER
8
0
9
$CMLJUST
70
0
9
$CMLSCALE
40
1
9
$CMLSTYLE
2
Standard
9
$DIMSTYLE
2
Standard
9
$TEXTSIZE
40
0.2
9
$TEXTSTYLE
7
Standard
9
$LUNITS
70
2
9
$LUPREC
70
4
9
$EXTNAMES
290
1
9
$INSUNITS
70
4
9
$LTSCALE
40
1
9
$LWDISPLAY
290
1
9
$PDMODE
70
0
9
$PDSIZE
40
0
9
$PLINEGEN
70
0
0
ENDSEC
0
SECTION
2
CLASSES
0
CLASS
1
RASTERVARIABLES
2
AcDbRasterVariables
3
ISM
90
0
280
0
281
0
0
ENDSEC
0
SECTION
2
TABLES
0
TABLE
2
VPORT
5
1e8
100
AcDbSymbolTable
0
VPORT
5
1
100
AcDbSymbolTableRecord
100
AcDbViewportTableRecord
2
*Active
70
0
10
0
20
0
11
1
21
1
12
-1
22
1
13
0
23
0
14
0.5
24
0.5
15
10
25
10
16
0
26
0
36
1
17
0
27
0
37
0
0
ENDTAB
0
TABLE
2
LTYPE
5
1e9
100
AcDbSymbolTable
0
LTYPE
5
14
100
AcDbSymbolTableRecord
100
AcDbLinetypeTableRecord
70
0
2
ByBlock
3

72
65
73
0
40
0
0
LTYPE
5
15
100
AcDbSymbolTableRecord
100
AcDbLinetypeTableRecord
70
0
2
ByLayer
3

72
65
73
0
40
0
0
LTYPE
5
16
100
AcDbSymbolTableRecord
100
AcDbLinetypeTableRecord
70
0
2
Continuous
3
Solid line
72
65
73
0
40
0
0
LTYPE
5
6E
100
AcDbSymbolTableRecord
100
AcDbLinetypeTableRecord
70
0
2
CENTER
3
____ _ ____ _ ____ _ ____
72
65
73
4
40
47.5
49
22
74
0
49
-8.5
74
0
49
8.5
74
0
49
-8.5
74
0
0
LTYPE
5
6F
100
AcDbSymbolTableRecord
100
AcDbLinetypeTableRecord
70
0
2
DASHED
3
__ __ __ __ __ __ __ __ __
72
65
73
2
40
25.72
49
12.86
74
0
49
-12.86
74
0
0
ENDTAB
0
TABLE
2
LAYER
5
1ea
100
AcDbSymbolTable
0
LAYER
5
10
100
AcDbSymbolTableRecord
100
AcDbLayerTableRecord
2
0
70
0
62
7
6
Continuous
290
1
370
-3
390
0
0
LAYER
5
71
100
AcDbSymbolTableRecord
100
AcDbLayerTableRecord
2
80
70
0
62
-6
6
Continuous
290
1
370
-3
390
0
0
LAYER
5
73
100
AcDbSymbolTableRecord
100
AcDbLayerTableRecord
2
81
70
0
62
-3
6
Continuous
290
1
370
-3
390
0
0
LAYER
5
75
100
AcDbSymbolTableRecord
100
AcDbLayerTableRecord
2
1
70
0
62
4
6
Continuous
290
1
370
-3
390
0
0
LAYER
5
86
100
AcDbSymbolTableRecord
100
AcDbLayerTableRecord
2
4
70
0
62
-2
6
CENTER
290
1
370
-3
390
0
0
LAYER
5
A1
100
AcDbSymbolTableRecord
100
AcDbLayerTableRecord
2
2
70
0
62
7
6
Continuous
290
1
370
-3
390
0
0
LAYER
5
FD
100
AcDbSymbolTableRecord
100
AcDbLayerTableRecord
2
Defpoints
70
0
62
7
6
Continuous
290
0
370
-3
390
0
0
LAYER
5
1d4
100
AcDbSymbolTableRecord
100
AcDbLayerTableRecord
2
SK1
70
0
62
4
6
Continuous
290
1
370
-3
390
0
0
LAYER
5
1d5
100
AcDbSymbolTableRecord
100
AcDbLayerTableRecord
2
SK4
70
0
62
2
6
CENTER
290
1
370
-3
390
0
0
LAYER
5
1d6
100
AcDbSymbolTableRecord
100
AcDbLayerTableRecord
2
SK2
70
0
62
7
6
Continuous
290
1
370
-3
390
0
0
LAYER
5
1d7
100
AcDbSymbolTableRecord
100
AcDbLayerTableRecord
2
SK6
70
0
62
5
6
Continuous
290
1
370
-3
390
0
0
ENDTAB
0
TABLE
2
STYLE
5
1eb
100
AcDbSymbolTable
0
STYLE
5
11
100
AcDbSymbolTableRecord
100
AcDbTextStyleTableRecord
2
Standard
3
txt
70
0
71
0
40
0
41
1
42
0
50
0
0
STYLE
5
E2
100
AcDbSymbolTableRecord
100
AcDbTextStyleTableRecord
2
iso_b_vert
3
simplex.shx
70
0
71
0
40
0
41
1
42
0
50
0
0
STYLE
5
E3
100
AcDbSymbolTableRecord
100
AcDbTextStyleTableRecord
2
DWGDirectTextStyle
3
simplex
70
0
71
0
40
0
41
1
42
0
50
0
0
ENDTAB
0
TABLE
2
DIMSTYLE
5
1ec
100
AcDbSymbolTable
100
AcDbDimStyleTable
0
DIMSTYLE
105
27
100
AcDbSymbolTableRecord
100
AcDbDimStyleTableRecord
2
Standard
70
0
3
<>
41
0.18
42
0.0625
44
0.18
140
0.18
147
0.09
73
0
74
0
77
1
271
2
275
0
278
52
280
0
340
11
0
ENDTAB
0
TABLE
2
VIEW
5
1ed
100
AcDbSymbolTable
0
ENDTAB
0
TABLE
2
UCS
5
1ee
100
AcDbSymbolTable
0
ENDTAB
0
TABLE
2
APPID
5
1ef
100
AcDbSymbolTable
0
APPID
5
12
100
AcDbSymbolTableRecord
100
AcDbRegAppTableRecord
2
ACAD
70
0
0
APPID
5
F9
100
AcDbSymbolTableRecord
100
AcDbRegAppTableRecord
2
ACAD_DSTYLE_DIMBREAK
70
0
0
APPID
5
193
100
AcDbSymbolTableRecord
100
AcDbRegAppTableRecord
2
ACAD_DSTYLE_DIM_LINETYPE
70
0
0
APPID
5
194
100
AcDbSymbolTableRecord
100
AcDbRegAppTableRecord
2
ACAD_DSTYLE_DIM_EXT1_LINETYPE
70
0
0
APPID
5
195
100
AcDbSymbolTableRecord
100
AcDbRegAppTableRecord
2
ACAD_DSTYLE_DIM_EXT2_LINETYPE
70
0
0
APPID
5
1D0
100
AcDbSymbolTableRecord
100
AcDbRegAppTableRecord
2
ACAD_MLEADERVER
70
0
0
ENDTAB
0
TABLE
2
BLOCK_RECORD
5
1f0
100
AcDbSymbolTable
0
BLOCK_RECORD
5
1F
100
AcDbSymbolTableRecord
100
AcDbBlockTableRecord
2
*Model_Space
340
0
70
0
0
BLOCK_RECORD
5
1B
100
AcDbSymbolTableRecord
100
AcDbBlockTableRecord
2
*Paper_Space
340
0
70
0
0
BLOCK_RECORD
5
23
100
AcDbSymbolTableRecord
100
AcDbBlockTableRecord
2
*Paper_Space0
340
0
70
0
0
BLOCK_RECORD
5
FE
100
AcDbSymbolTableRecord
100
AcDbBlockTableRecord
2
*D1
340
0
70
0
0
BLOCK_RECORD
5
10A
100
AcDbSymbolTableRecord
100
AcDbBlockTableRecord
2
_U0
340
0
70
0
0
BLOCK_RECORD
5
116
100
AcDbSymbolTableRecord
100
AcDbBlockTableRecord
2
*D3
340
0
70
0
0
BLOCK_RECORD
5
122
100
AcDbSymbolTableRecord
100
AcDbBlockTableRecord
2
_U1
340
0
70
0
0
BLOCK_RECORD
5
12E
100
AcDbSymbolTableRecord
100
AcDbBlockTableRecord
2
*D5
340
0
70
0
0
BLOCK_RECORD
5
13A
100
AcDbSymbolTableRecord
100
AcDbBlockTableRecord
2
_U2
340
0
70
0
0
BLOCK_RECORD
5
146
100
AcDbSymbolTableRecord
100
AcDbBlockTableRecord
2
*D7
340
0
70
0
0
BLOCK_RECORD
5
154
100
AcDbSymbolTableRecord
100
AcDbBlockTableRecord
2
_U3
340
0
70
0
0
BLOCK_RECORD
5
160
100
AcDbSymbolTableRecord
100
AcDbBlockTableRecord
2
*D9
340
0
70
0
0
BLOCK_RECORD
5
16C
100
AcDbSymbolTableRecord
100
AcDbBlockTableRecord
2
_U4
340
0
70
0
0
ENDTAB
0
ENDSEC
0
SECTION
2
BLOCKS
0
BLOCK
5
20
100
AcDbEntity
8
0
100
AcDbBlockBegin
2
*Model_Space
70
0
10
0
20
0
30
0
3
*Model_Space
0
ENDBLK
5
21
100
AcDbEntity
8
0
100
AcDbBlockEnd
0
BLOCK
5
1C
100
AcDbEntity
8
0
100
AcDbBlockBegin
2
*Paper_Space
70
0
10
0
20
0
30
0
3
*Paper_Space
0
ENDBLK
5
1D
100
AcDbEntity
8
0
100
AcDbBlockEnd
0
BLOCK
5
24
100
AcDbEntity
8
0
100
AcDbBlockBegin
2
*Paper_Space0
70
0
10
0
20
0
30
0
3
*Paper_Space0
0
ENDBLK
5
25
100
AcDbEntity
8
0
100
AcDbBlockEnd
0
BLOCK
5
FF
100
AcDbEntity
8
0
100
AcDbBlockBegin
2
*D1
70
1
10
0
20
0
30
0
3
*D1
0
LINE
5
101
100
AcDbEntity
8
0
62
256
6
ByLayer
370
-2
48
1
60
0
100
AcDbLine
10
0
20
-1.5875
30
0
11
0
21
-20.213398
31
0
39
0
210
0
220
0
230
1
0
LINE
5
102
100
AcDbEntity
8
0
62
256
6
ByLayer
370
-2
48
1
60
0
100
AcDbLine
10
64.6118
20
-9.5875
30
0
11
64.6118
21
-20.213398
31
0
39
0
210
0
220
0
230
1
0
LINE
5
103
100
AcDbEntity
8
0
62
256
6
ByLayer
370
-2
48
1
60
0
100
AcDbLine
10
3.5
20
-18.213398
30
0
11
61.1118
21
-18.213398
31
0
39
0
210
0
220
0
230
1
0
SOLID
5
104
100
AcDbEntity
8
0
62
256
6
ByLayer
370
-1
48
1
60
0
100
AcDbTrace
10
3.5
20
-17.630065
30
0
11
3.5
21
-18.796732
31
0
12
0
22
-18.213398
32
0
13
0
23
-18.213398
33
0
39
0
210
0
220
0
230
1
0
SOLID
5
105
100
AcDbEntity
8
0
62
256
6
ByLayer
370
-1
48
1
60
0
100
AcDbTrace
10
61.1118
20
-18.796732
30
0
11
61.1118
21
-17.630065
31
0
12
64.6118
22
-18.213398
32
0
13
64.6118
23
-18.213398
33
0
39
0
210
0
220
0
230
1
0
MTEXT
5
106
100
AcDbEntity
8
0
62
256
6
ByLayer
370
18
48
1
60
0
100
AcDbMText
10
32.3059
20
-11.213398
30
0
210
0
220
0
230
1
1
\A1;64.61
40
3.5
41
0
44
1
50
0
71
5
72
5
7
iso_b_vert
0
POINT
5
107
100
AcDbEntity
8
Defpoints
62
0
6
ByLayer
370
-1
48
1
60
0
100
AcDbPoint
10
0
20
0
30
0
39
0
210
0
220
0
230
1
50
360
0
POINT
5
108
100
AcDbEntity
8
Defpoints
62
0
6
ByLayer
370
-1
48
1
60
0
100
AcDbPoint
10
64.6118
20
-8
30
0
39
0
210
0
220
0
230
1
50
360
0
POINT
5
109
100
AcDbEntity
8
Defpoints
62
0
6
ByLayer
370
-1
48
1
60
0
100
AcDbPoint
10
64.6118
20
-18.213398
30
0
39
0
210
0
220
0
230
1
50
360
0
ENDBLK
5
100
100
AcDbEntity
8
0
100
AcDbBlockEnd
0
BLOCK
5
111
100
AcDbEntity
8
0
100
AcDbBlockBegin
2
_U0
70
0
10
0
20
0
30
0
3
_U0
0
MTEXT
5
10B
100
AcDbEntity
8
SK2
62
256
6
ByLayer
370
13
48
1
60
0
100
AcDbMText
10
27.421768
20
-17.180765
30
0
210
0
220
0
230
1
1
\W0.7494;64,61
40
3.5
41
0
44
1.084337
50
0
71
7
72
5
7
iso_b_vert
0
LINE
5
10C
100
AcDbEntity
8
SK2
62
256
6
ByLayer
370
13
48
1
60
0
100
AcDbLine
10
0
20
-1.5875
30
0
11
0
21
-20.213398
31
0
39
0
210
0
220
0
230
1
0
LINE
5
10D
100
AcDbEntity
8
SK2
62
256
6
ByLayer
370
13
48
1
60
0
100
AcDbLine
10
64.6118
20
-9.5875
30
0
11
64.6118
21
-20.213398
31
0
39
0
210
0
220
0
230
1
0
LINE
5
10E
100
AcDbEntity
8
SK2
62
256
6
ByLayer
370
13
48
1
60
0
100
AcDbLine
10
0
20
-18.213398
30
0
11
64.6118
21
-18.213398
31
0
39
0
210
0
220
0
230
1
0
SOLID
5
10F
100
AcDbEntity
8
SK2
62
256
6
ByLayer
370
18
48
1
60
0
100
AcDbTrace
10
0
20
-18.213398
30
0
11
3.499998
21
-17.752615
31
0
12
3.500002
22
-18.674182
32
0
13
3.500002
23
-18.674182
33
0
39
0
210
0
220
0
230
1
0
SOLID
5
110
100
AcDbEntity
8
SK2
62
256
6
ByLayer
370
18
48
1
60
0
100
AcDbTrace
10
64.6118
20
-18.213398
30
0
11
61.111802
21
-18.674182
31
0
12
61.111798
22
-17.752615
32
0
13
61.111798
23
-17.752615
33
0
39
0
210
0
220
0
230
1
0
ENDBLK
5
112
100
AcDbEntity
8
0
100
AcDbBlockEnd
0
BLOCK
5
117
100
AcDbEntity
8
0
100
AcDbBlockBegin
2
*D3
70
1
10
0
20
0
30
0
3
*D3
0
LINE
5
119
100
AcDbEntity
8
0
62
256
6
ByLayer
370
-2
48
1
60
0
100
AcDbLine
10
-48
20
-9.5875
30
0
11
-48
21
-38.692985
31
0
39
0
210
0
220
0
230
1
0
LINE
5
11A
100
AcDbEntity
8
0
62
256
6
ByLayer
370
-2
48
1
60
0
100
AcDbLine
10
67
20
-1.5875
30
0
11
67
21
-38.692985
31
0
39
0
210
0
220
0
230
1
0
LINE
5
11B
100
AcDbEntity
8
0
62
256
6
ByLayer
370
-2
48
1
60
0
100
AcDbLine
10
-44.5
20
-36.692985
30
0
11
63.5
21
-36.692985
31
0
39
0
210
0
220
0
230
1
0
SOLID
5
11C
100
AcDbEntity
8
0
62
256
6
ByLayer
370
-1
48
1
60
0
100
AcDbTrace
10
-44.5
20
-36.109652
30
0
11
-44.5
21
-37.276319
31
0
12
-48
22
-36.692985
32
0
13
-48
23
-36.692985
33
0
39
0
210
0
220
0
230
1
0
SOLID
5
11D
100
AcDbEntity
8
0
62
256
6
ByLayer
370
-1
48
1
60
0
100
AcDbTrace
10
63.5
20
-37.276319
30
0
11
63.5
21
-36.109652
31
0
12
67
22
-36.692985
32
0
13
67
23
-36.692985
33
0
39
0
210
0
220
0
230
1
0
MTEXT
5
11E
100
AcDbEntity
8
0
62
256
6
ByLayer
370
18
48
1
60
0
100
AcDbMText
10
9.5
20
-29.692985
30
0
210
0
220
0
230
1
1
\A1;115.00
40
3.5
41
0
44
1
50
0
71
5
72
5
7
iso_b_vert
0
POINT
5
11F
100
AcDbEntity
8
Defpoints
62
0
6
ByLayer
370
-1
48
1
60
0
100
AcDbPoint
10
-48
20
-8
30
0
39
0
210
0
220
0
230
1
50
360
0
POINT
5
120
100
AcDbEntity
8
Defpoints
62
0
6
ByLayer
370
-1
48
1
60
0
100
AcDbPoint
10
67
20
0
30
0
39
0
210
0
220
0
230
1
50
360
0
POINT
5
121
100
AcDbEntity
8
Defpoints
62
0
6
ByLayer
370
-1
48
1
60
0
100
AcDbPoint
10
67
20
-36.692985
30
0
39
0
210
0
220
0
230
1
50
360
0
ENDBLK
5
118
100
AcDbEntity
8
0
100
AcDbBlockEnd
0
BLOCK
5
129
100
AcDbEntity
8
0
100
AcDbBlockBegin
2
_U1
70
0
10
0
20
0
30
0
3
_U1
0
MTEXT
5
123
100
AcDbEntity
8
SK2
62
256
6
ByLayer
370
13
48
1
60
0
100
AcDbMText
10
3.929835
20
-35.660352
30
0
210
0
220
0
230
1
1
\W0.6440;115,00
40
3.5
41
0
44
1.084337
50
0
71
7
72
5
7
iso_b_vert
0
LINE
5
124
100
AcDbEntity
8
SK2
62
256
6
ByLayer
370
13
48
1
60
0
100
AcDbLine
10
-48
20
-9.5875
30
0
11
-48
21
-38.692985
31
0
39
0
210
0
220
0
230
1
0
LINE
5
125
100
AcDbEntity
8
SK2
62
256
6
ByLayer
370
13
48
1
60
0
100
AcDbLine
10
67
20
-1.5875
30
0
11
67
21
-38.692985
31
0
39
0
210
0
220
0
230
1
0
LINE
5
126
100
AcDbEntity
8
SK2
62
256
6
ByLayer
370
13
48
1
60
0
100
AcDbLine
10
-48
20
-36.692985
30
0
11
67
21
-36.692985
31
0
39
0
210
0
220
0
230
1
0
SOLID
5
127
100
AcDbEntity
8
SK2
62
256
6
ByLayer
370
18
48
1
60
0
100
AcDbTrace
10
-48
20
-36.692985
30
0
11
-44.500002
21
-36.232202
31
0
12
-44.499998
22
-37.153769
32
0
13
-44.499998
23
-37.153769
33
0
39
0
210
0
220
0
230
1
0
SOLID
5
128
100
AcDbEntity
8
SK2
62
256
6
ByLayer
370
18
48
1
60
0
100
AcDbTrace
10
67
20
-36.692985
30
0
11
63.500002
21
-37.153769
31
0
12
63.499998
22
-36.232202
32
0
13
63.499998
23
-36.232202
33
0
39
0
210
0
220
0
230
1
0
ENDBLK
5
12A
100
AcDbEntity
8
0
100
AcDbBlockEnd
0
BLOCK
5
12F
100
AcDbEntity
8
0
100
AcDbBlockBegin
2
*D5
70
1
10
0
20
0
30
0
3
*D5
0
LINE
5
131
100
AcDbEntity
8
0
62
256
6
ByLayer
370
-2
48
1
60
0
100
AcDbLine
10
18
20
9.5875
30
0
11
18
21
21.609119
31
0
39
0
210
0
220
0
230
1
0
LINE
5
132
100
AcDbEntity
8
0
62
256
6
ByLayer
370
-2
48
1
60
0
100
AcDbLine
10
67
20
1.5875
30
0
11
67
21
21.609119
31
0
39
0
210
0
220
0
230
1
0
LINE
5
133
100
AcDbEntity
8
0
62
256
6
ByLayer
370
-2
48
1
60
0
100
AcDbLine
10
21.5
20
19.609119
30
0
11
63.5
21
19.609119
31
0
39
0
210
0
220
0
230
1
0
SOLID
5
134
100
AcDbEntity
8
0
62
256
6
ByLayer
370
-1
48
1
60
0
100
AcDbTrace
10
21.5
20
20.192453
30
0
11
21.5
21
19.025786
31
0
12
18
22
19.609119
32
0
13
18
23
19.609119
33
0
39
0
210
0
220
0
230
1
0
SOLID
5
135
100
AcDbEntity
8
0
62
256
6
ByLayer
370
-1
48
1
60
0
100
AcDbTrace
10
63.5
20
19.025786
30
0
11
63.5
21
20.192453
31
0
12
67
22
19.609119
32
0
13
67
23
19.609119
33
0
39
0
210
0
220
0
230
1
0
MTEXT
5
136
100
AcDbEntity
8
0
62
256
6
ByLayer
370
18
48
1
60
0
100
AcDbMText
10
42.5
20
26.609119
30
0
210
0
220
0
230
1
1
\A1;49.00
40
3.5
41
0
44
1
50
0
71
5
72
5
7
iso_b_vert
0
POINT
5
137
100
AcDbEntity
8
Defpoints
62
0
6
ByLayer
370
-1
48
1
60
0
100
AcDbPoint
10
18
20
8
30
0
39
0
210
0
220
0
230
1
50
360
0
POINT
5
138
100
AcDbEntity
8
Defpoints
62
0
6
ByLayer
370
-1
48
1
60
0
100
AcDbPoint
10
67
20
0
30
0
39
0
210
0
220
0
230
1
50
360
0
POINT
5
139
100
AcDbEntity
8
Defpoints
62
0
6
ByLayer
370
-1
48
1
60
0
100
AcDbPoint
10
67
20
19.609119
30
0
39
0
210
0
220
0
230
1
50
360
0
ENDBLK
5
130
100
AcDbEntity
8
0
100
AcDbBlockEnd
0
BLOCK
5
141
100
AcDbEntity
8
0
100
AcDbBlockBegin
2
_U2
70
0
10
0
20
0
30
0
3
_U2
0
MTEXT
5
13B
100
AcDbEntity
8
SK2
62
256
6
ByLayer
370
13
48
1
60
0
100
AcDbMText
10
37.178435
20
20.641753
30
0
210
0
220
0
230
1
1
\W0.7581;49,00
40
3.5
41
0
44
1.084337
50
0
71
7
72
5
7
iso_b_vert
0
LINE
5
13C
100
AcDbEntity
8
SK2
62
256
6
ByLayer
370
13
48
1
60
0
100
AcDbLine
10
18
20
9.5875
30
0
11
18
21
21.609119
31
0
39
0
210
0
220
0
230
1
0
LINE
5
13D
100
AcDbEntity
8
SK2
62
256
6
ByLayer
370
13
48
1
60
0
100
AcDbLine
10
67
20
1.5875
30
0
11
67
21
21.609119
31
0
39
0
210
0
220
0
230
1
0
LINE
5
13E
100
AcDbEntity
8
SK2
62
256
6
ByLayer
370
13
48
1
60
0
100
AcDbLine
10
18
20
19.609119
30
0
11
67
21
19.609119
31
0
39
0
210
0
220
0
230
1
0
SOLID
5
13F
100
AcDbEntity
8
SK2
62
256
6
ByLayer
370
18
48
1
60
0
100
AcDbTrace
10
18
20
19.609119
30
0
11
21.499998
21
20.069903
31
0
12
21.500002
22
19.148335
32
0
13
21.500002
23
19.148335
33
0
39
0
210
0
220
0
230
1
0
SOLID
5
140
100
AcDbEntity
8
SK2
62
256
6
ByLayer
370
18
48
1
60
0
100
AcDbTrace
10
67
20
19.609119
30
0
11
63.500002
21
19.148335
31
0
12
63.499998
22
20.069903
32
0
13
63.499998
23
20.069903
33
0
39
0
210
0
220
0
230
1
0
ENDBLK
5
142
100
AcDbEntity
8
0
100
AcDbBlockEnd
0
BLOCK
5
147
100
AcDbEntity
8
0
100
AcDbBlockBegin
2
*D7
70
1
10
0
20
0
30
0
3
*D7
0
LINE
5
149
100
AcDbEntity
8
0
62
256
6
ByLayer
370
-2
48
1
60
0
100
AcDbLine
10
67
20
-1.5875
30
0
11
67
21
-22.802503
31
0
39
0
210
0
220
0
230
1
0
LINE
5
14A
100
AcDbEntity
8
0
62
256
6
ByLayer
370
-2
48
1
60
0
100
AcDbLine
10
64.6118
20
-9.5875
30
0
11
64.6118
21
-22.802503
31
0
39
0
210
0
220
0
230
1
0
LINE
5
14B
100
AcDbEntity
8
0
62
256
6
ByLayer
370
-2
48
1
60
0
100
AcDbLine
10
67
20
-20.802503
30
0
11
95
21
-20.802503
31
0
39
0
210
0
220
0
230
1
0
LINE
5
14C
100
AcDbEntity
8
0
62
256
6
ByLayer
370
-2
48
1
60
0
100
AcDbLine
10
70.5
20
-20.802503
30
0
11
74
21
-20.802503
31
0
39
0
210
0
220
0
230
1
0
LINE
5
14D
100
AcDbEntity
8
0
62
256
6
ByLayer
370
-2
48
1
60
0
100
AcDbLine
10
61.1118
20
-20.802503
30
0
11
57.6118
21
-20.802503
31
0
39
0
210
0
220
0
230
1
0
SOLID
5
14E
100
AcDbEntity
8
0
62
256
6
ByLayer
370
-1
48
1
60
0
100
AcDbTrace
10
70.5
20
-20.21917
30
0
11
70.5
21
-21.385837
31
0
12
67
22
-20.802503
32
0
13
67
23
-20.802503
33
0
39
0
210
0
220
0
230
1
0
SOLID
5
14F
100
AcDbEntity
8
0
62
256
6
ByLayer
370
-1
48
1
60
0
100
AcDbTrace
10
61.1118
20
-21.385837
30
0
11
61.1118
21
-20.21917
31
0
12
64.6118
22
-20.802503
32
0
13
64.6118
23
-20.802503
33
0
39
0
210
0
220
0
230
1
0
MTEXT
5
150
100
AcDbEntity
8
0
62
256
6
ByLayer
370
18
48
1
60
0
100
AcDbMText
10
84.5
20
-13.802503
30
0
210
0
220
0
230
1
1
\A1;2.39
40
3.5
41
0
44
1
50
0
71
5
72
5
7
iso_b_vert
0
POINT
5
151
100
AcDbEntity
8
Defpoints
62
0
6
ByLayer
370
-1
48
1
60
0
100
AcDbPoint
10
67
20
0
30
0
39
0
210
0
220
0
230
1
50
360
0
POINT
5
152
100
AcDbEntity
8
Defpoints
62
0
6
ByLayer
370
-1
48
1
60
0
100
AcDbPoint
10
64.6118
20
-8
30
0
39
0
210
0
220
0
230
1
50
360
0
POINT
5
153
100
AcDbEntity
8
Defpoints
62
0
6
ByLayer
370
-1
48
1
60
0
100
AcDbPoint
10
64.6118
20
-20.802503
30
0
39
0
210
0
220
0
230
1
50
360
0
ENDBLK
5
148
100
AcDbEntity
8
0
100
AcDbBlockEnd
0
BLOCK
5
15B
100
AcDbEntity
8
0
100
AcDbBlockBegin
2
_U3
70
0
10
0
20
0
30
0
3
_U3
0
MTEXT
5
155
100
AcDbEntity
8
SK2
62
256
6
ByLayer
370
13
48
1
60
0
100
AcDbMText
10
73.15186
20
-19.76987
30
0
210
0
220
0
230
1
1
\W0.7259;2,39
40
3.5
41
0
44
1.084337
50
0
71
7
72
5
7
iso_b_vert
0
LINE
5
156
100
AcDbEntity
8
SK2
62
256
6
ByLayer
370
13
48
1
60
0
100
AcDbLine
10
67
20
-1.5875
30
0
11
67
21
-22.802503
31
0
39
0
210
0
220
0
230
1
0
LINE
5
157
100
AcDbEntity
8
SK2
62
256
6
ByLayer
370
13
48
1
60
0
100
AcDbLine
10
64.6118
20
-9.5875
30
0
11
64.6118
21
-22.802503
31
0
39
0
210
0
220
0
230
1
0
LINE
5
158
100
AcDbEntity
8
SK2
62
256
6
ByLayer
370
13
48
1
60
0
100
AcDbLine
10
55.8618
20
-20.802503
30
0
11
80.996491
21
-20.802503
31
0
39
0
210
0
220
0
230
1
0
SOLID
5
159
100
AcDbEntity
8
SK2
62
256
6
ByLayer
370
18
48
1
60
0
100
AcDbTrace
10
67
20
-20.802503
30
0
11
70.499998
21
-20.341719
31
0
12
70.500002
22
-21.263287
32
0
13
70.500002
23
-21.263287
33
0
39
0
210
0
220
0
230
1
0
SOLID
5
15A
100
AcDbEntity
8
SK2
62
256
6
ByLayer
370
18
48
1
60
0
100
AcDbTrace
10
64.6118
20
-20.802503
30
0
11
61.111802
21
-21.263287
31
0
12
61.111798
22
-20.341719
32
0
13
61.111798
23
-20.341719
33
0
39
0
210
0
220
0
230
1
0
ENDBLK
5
15C
100
AcDbEntity
8
0
100
AcDbBlockEnd
0
BLOCK
5
161
100
AcDbEntity
8
0
100
AcDbBlockBegin
2
*D9
70
1
10
0
20
0
30
0
3
*D9
0
LINE
5
163
100
AcDbEntity
8
0
62
256
6
ByLayer
370
-2
48
1
60
0
100
AcDbLine
10
-48
20
-9.5875
30
0
11
-48
21
-28.343428
31
0
39
0
210
0
220
0
230
1
0
LINE
5
164
100
AcDbEntity
8
0
62
256
6
ByLayer
370
-2
48
1
60
0
100
AcDbLine
10
64.6118
20
-9.5875
30
0
11
64.6118
21
-28.343428
31
0
39
0
210
0
220
0
230
1
0
LINE
5
165
100
AcDbEntity
8
0
62
256
6
ByLayer
370
-2
48
1
60
0
100
AcDbLine
10
-44.5
20
-26.343428
30
0
11
61.1118
21
-26.343428
31
0
39
0
210
0
220
0
230
1
0
SOLID
5
166
100
AcDbEntity
8
0
62
256
6
ByLayer
370
-1
48
1
60
0
100
AcDbTrace
10
-44.5
20
-25.760095
30
0
11
-44.5
21
-26.926762
31
0
12
-48
22
-26.343428
32
0
13
-48
23
-26.343428
33
0
39
0
210
0
220
0
230
1
0
SOLID
5
167
100
AcDbEntity
8
0
62
256
6
ByLayer
370
-1
48
1
60
0
100
AcDbTrace
10
61.1118
20
-26.926762
30
0
11
61.1118
21
-25.760095
31
0
12
64.6118
22
-26.343428
32
0
13
64.6118
23
-26.343428
33
0
39
0
210
0
220
0
230
1
0
MTEXT
5
168
100
AcDbEntity
8
0
62
256
6
ByLayer
370
18
48
1
60
0
100
AcDbMText
10
8.3059
20
-19.343428
30
0
210
0
220
0
230
1
1
\A1;112.61
40
3.5
41
0
44
1
50
0
71
5
72
5
7
iso_b_vert
0
POINT
5
169
100
AcDbEntity
8
Defpoints
62
0
6
ByLayer
370
-1
48
1
60
0
100
AcDbPoint
10
-48
20
-8
30
0
39
0
210
0
220
0
230
1
50
360
0
POINT
5
16A
100
AcDbEntity
8
Defpoints
62
0
6
ByLayer
370
-1
48
1
60
0
100
AcDbPoint
10
64.6118
20
-8
30
0
39
0
210
0
220
0
230
1
50
360
0
POINT
5
16B
100
AcDbEntity
8
Defpoints
62
0
6
ByLayer
370
-1
48
1
60
0
100
AcDbPoint
10
64.6118
20
-26.343428
30
0
39
0
210
0
220
0
230
1
50
360
0
ENDBLK
5
162
100
AcDbEntity
8
0
100
AcDbBlockEnd
0
BLOCK
5
173
100
AcDbEntity
8
0
100
AcDbBlockBegin
2
_U4
70
0
10
0
20
0
30
0
3
_U4
0
MTEXT
5
16D
100
AcDbEntity
8
SK2
62
256
6
ByLayer
370
13
48
1
60
0
100
AcDbMText
10
3.173168
20
-25.310795
30
0
210
0
220
0
230
1
1
\W0.6303;112,61
40
3.5
41
0
44
1.084337
50
0
71
7
72
5
7
iso_b_vert
0
LINE
5
16E
100
AcDbEntity
8
SK2
62
256
6
ByLayer
370
13
48
1
60
0
100
AcDbLine
10
-48
20
-9.5875
30
0
11
-48
21
-28.343428
31
0
39
0
210
0
220
0
230
1
0
LINE
5
16F
100
AcDbEntity
8
SK2
62
256
6
ByLayer
370
13
48
1
60
0
100
AcDbLine
10
64.6118
20
-9.5875
30
0
11
64.6118
21
-28.343428
31
0
39
0
210
0
220
0
230
1
0
LINE
5
170
100
AcDbEntity
8
SK2
62
256
6
ByLayer
370
13
48
1
60
0
100
AcDbLine
10
-48
20
-26.343428
30
0
11
64.6118
21
-26.343428
31
0
39
0
210
0
220
0
230
1
0
SOLID
5
171
100
AcDbEntity
8
SK2
62
256
6
ByLayer
370
18
48
1
60
0
100
AcDbTrace
10
-48
20
-26.343428
30
0
11
-44.500002
21
-25.882645
31
0
12
-44.499998
22
-26.804212
32
0
13
-44.499998
23
-26.804212
33
0
39
0
210
0
220
0
230
1
0
SOLID
5
172
100
AcDbEntity
8
SK2
62
256
6
ByLayer
370
18
48
1
60
0
100
AcDbTrace
10
64.6118
20
-26.343428
30
0
11
61.111802
21
-26.804212
31
0
12
61.111798
22
-25.882645
32
0
13
61.111798
23
-25.882645
33
0
39
0
210
0
220
0
230
1
0
ENDBLK
5
174
100
AcDbEntity
8
0
100
AcDbBlockEnd
0
ENDSEC
0
SECTION
2
ENTITIES
0
ELLIPSE
5
AA
100
AcDbEntity
8
1
62
256
6
ByLayer
370
13
48
1
60
0
100
AcDbEllipse
10
4.177326
20
-3.084775
30
0
11
-0.0268734408322725
21
-0.0963214315603457
31
0
210
0
220
0
230
1
40
0.573668
41
-1.78055124346947
42
-0.455721254308557
0
ELLIPSE
5
AB
100
AcDbEntity
8
1
62
256
6
ByLayer
370
13
48
1
60
0
100
AcDbEllipse
10
4.250132
20
-3.113832
30
0
11
0.0450918520081835
21
0.0892565117090741
31
0
210
0
220
0
230
1
40
0.195846
41
1.19915716339955
42
2.76029470347985
0
POINT
5
70
100
AcDbEntity
8
80
62
256
6
ByLayer
370
18
48
1
60
0
100
AcDbPoint
10
0
20
0
30
0
39
0
210
0
220
0
230
1
50
360
0
POINT
5
72
100
AcDbEntity
8
81
62
256
6
ByLayer
370
18
48
1
60
0
100
AcDbPoint
10
67
20
0
30
0
39
0
210
0
220
0
230
1
50
360
0
POINT
5
74
100
AcDbEntity
8
1
62
256
6
ByLayer
370
18
48
1
60
1
100
AcDbPoint
10
64.6118
20
-8
30
0
39
0
210
0
220
0
230
1
50
360
0
POINT
5
76
100
AcDbEntity
8
1
62
256
6
ByLayer
370
18
48
1
60
1
100
AcDbPoint
10
-48
20
-8
30
0
39
0
210
0
220
0
230
1
50
360
0
POINT
5
77
100
AcDbEntity
8
1
62
256
6
ByLayer
370
18
48
1
60
1
100
AcDbPoint
10
18
20
8
30
0
39
0
210
0
220
0
230
1
50
360
0
POINT
5
78
100
AcDbEntity
8
1
62
256
6
ByLayer
370
18
48
1
60
1
100
AcDbPoint
10
64.6118
20
-8
30
0
39
0
210
0
220
0
230
1
50
360
0
POINT
5
79
100
AcDbEntity
8
1
62
256
6
ByLayer
370
18
48
1
60
1
100
AcDbPoint
10
-48
20
-8
30
0
39
0
210
0
220
0
230
1
50
360
0
POINT
5
7A
100
AcDbEntity
8
1
62
256
6
ByLayer
370
18
48
1
60
1
100
AcDbPoint
10
64.6118
20
-8
30
0
39
0
210
0
220
0
230
1
50
360
0
SPLINE
5
AC
100
AcDbEntity
8
1
62
256
6
ByLayer
370
18
48
1
60
0
100
AcDbSpline
70
4
71
3
72
66
73
62
40
0
40
0
40
0
40
0
40
0.0312499999999967
40
0.0312499999999967
40
0.0624999999999935
40
0.0624999999999935
40
0.0937499999999902
40
0.0937499999999902
40
0.109374999999988
40
0.109374999999988
40
0.124999999999987
40
0.124999999999987
40
0.156249999999983
40
0.156249999999983
40
0.171874999999981
40
0.171874999999981
40
0.187499999999979
40
0.187499999999979
40
0.203124999999978
40
0.203124999999978
40
0.218749999999976
40
0.218749999999976
40
0.234374999999974
40
0.234374999999974
40
0.249999999999972
40
0.249999999999972
40
0.265624999999971
40
0.265624999999971
40
0.281249999999969
40
0.281249999999969
40
0.312499999999965
40
0.312499999999965
40
0.343749999999961
40
0.343749999999961
40
0.351562499999961
40
0.351562499999961
40
0.35351562499996
40
0.35351562499996
40
0.35546874999996
40
0.35546874999996
40
0.35937499999996
40
0.35937499999996
40
0.363281249999959
40
0.363281249999959
40
0.367187499999959
40
0.367187499999959
40
0.374999999999959
40
0.374999999999959
40
0.437499999999963
40
0.437499999999963
40
0.499999999999966
40
0.499999999999966
40
0.624999999999975
40
0.624999999999975
40
0.749999999999983
40
0.749999999999983
40
0.812499999999987
40
0.812499999999987
40
0.874999999999992
40
0.874999999999992
40
1
40
1
40
1
40
1
41
1
10
4.00000023586517
20
-7.54075119553033
30
0
41
1
10
3.83742280475522
20
-7.58841642786874
30
0
41
1
10
3.67810719282437
20
-7.63345475762995
30
0
41
1
10
3.36801684998824
20
-7.71743157681297
30
0
41
1
10
3.21680709314339
20
-7.75646941232418
30
0
41
1
10
2.93013068978371
20
-7.82611868183594
30
0
41
1
10
2.79423989683059
20
-7.85686394676202
30
0
41
1
10
2.60571670445208
20
-7.89538638711937
30
0
41
1
10
2.54531207994285
20
-7.90697364375978
30
0
41
1
10
2.43201003114581
20
-7.92700320196289
30
0
41
1
10
2.37896859663422
20
-7.93547886848521
30
0
41
1
10
2.23232693642768
20
-7.9557915081524
30
0
41
1
10
2.15090078567786
20
-7.96259500497664
30
0
41
1
10
2.06355443075728
20
-7.9596222386121
30
0
41
1
10
2.04079605065209
20
-7.95641080449616
30
0
41
1
10
2.00951730413269
20
-7.94540278317808
30
0
41
1
10
2.00093183672803
20
-7.93760426949757
30
0
41
1
10
1.99918977242311
20
-7.91721340245081
30
0
41
1
10
2.00622057877254
20
-7.9045011189354
30
0
41
1
10
2.03585347448566
20
-7.87513963850196
30
0
41
1
10
2.05836006252622
20
-7.85844543761272
30
0
41
1
10
2.11800740436956
20
-7.82142782861453
30
0
41
1
10
2.15533010302531
20
-7.80101260673098
30
0
41
1
10
2.24332017268552
20
-7.75730442651596
30
0
41
1
10
2.29331377259754
20
-7.73432616030024
30
0
41
1
10
2.40359332632175
20
-7.68664016166267
30
0
41
1
10
2.46388465455243
20
-7.66193071491895
30
0
41
1
10
2.59347983335812
20
-7.61117179197146
30
0
41
1
10
2.66301856664543
20
-7.58503789235104
30
0
41
1
10
2.88207709982254
20
-7.50565348002502
30
0
41
1
10
3.03989212087322
20
-7.45216827501429
30
0
41
1
10
3.37258044035252
20
-7.34541436983977
30
0
41
1
10
3.54754218849882
20
-7.29213885202822
30
0
41
1
10
3.7747057821102
20
-7.22619379597811
30
0
41
1
10
3.82056598844565
20
-7.21303651887547
30
0
41
1
10
3.87839942490075
20
-7.19663629218431
30
0
41
1
10
3.8900390181131
20
-7.19338246829091
30
0
41
1
10
3.91314286956776
20
-7.18676607412581
30
0
41
1
10
3.92465427171615
20
-7.18339018359236
30
0
41
1
10
3.96044568443853
20
-7.17456408225411
30
0
41
1
10
3.98601170918673
20
-7.17045886044201
30
0
41
1
10
4.03924907323372
20
-7.16448718556953
30
0
41
1
10
4.06683488527477
20
-7.1626866176143
30
0
41
1
10
4.12149749283344
20
-7.16123839101053
30
0
41
1
10
4.14887653435124
20
-7.16122352632246
30
0
41
1
10
4.23097795175121
20
-7.16064843168738
30
0
41
1
10
4.28571800501752
20
-7.16035075848674
30
0
41
1
10
4.77843028587853
20
-7.15844198943694
30
0
41
1
10
5.21628268134464
20
-7.16224804927467
30
0
41
1
10
6.09089431887477
20
-7.18034879840619
30
0
41
1
10
6.52815811851588
20
-7.19467114095389
30
0
41
1
10
7.8305895562315
20
-7.25142670098103
30
0
41
1
10
8.68899305718998
20
-7.30788564817033
30
0
41
1
10
10.3875566711704
20
-7.44261759609014
30
0
41
1
10
11.227651228408
20
-7.52090604667433
30
0
41
1
10
12.4756933717103
20
-7.63798956323703
30
0
41
1
10
12.8900653467421
20
-7.67694912173263
30
0
41
1
10
13.7135411037448
20
-7.75126005303633
30
0
41
1
10
14.1216753341005
20
-7.78652175846733
30
0
41
1
10
15.33665602095
20
-7.88182676605692
30
0
41
1
10
16.1339573196626
20
-7.9312649949355
30
0
41
1
10
16.9229472622116
20
-7.95505077592375
30
0
0
SPLINE
5
AD
100
AcDbEntity
8
1
62
256
6
ByLayer
370
13
48
1
60
0
100
AcDbSpline
70
4
71
3
72
8
73
4
40
0
40
0
40
0
40
0
40
1
40
1
40
1
40
1
41
1
10
4.25021928494647
20
-3.07319076214722
30
0
41
1
10
4.2078217852968
20
-3.06050097969487
30
0
41
1
10
4.16642365129536
20
-3.05245584651152
30
0
41
1
10
4.12887580136589
20
-3.04963995839347
30
0
0
SPLINE
5
AE
100
AcDbEntity
8
1
62
256
6
ByLayer
370
13
48
1
60
0
100
AcDbSpline
70
4
71
3
72
10
73
6
40
0
40
0
40
0
40
0
40
0.0274253058836585
40
0.0274253058836585
40
1
40
1
40
1
40
1
41
1
10
4.12549285007501
20
-3.2787439227657
30
0
41
1
10
4.12552337159525
20
-3.2776997204046
30
0
41
1
10
4.12555390418424
20
-3.27665550824852
30
0
41
1
10
4.1266676076969
20
-3.23858038354979
30
0
41
1
10
4.12776469308676
20
-3.20153714398256
30
0
41
1
10
4.12887580136587
20
-3.1644808621339
30
0
0
SPLINE
5
AF
100
AcDbEntity
8
1
62
256
6
ByLayer
370
18
48
1
60
0
100
AcDbSpline
70
4
71
3
72
8
73
4
40
0
40
0
40
0
40
0
40
1
40
1
40
1
40
1
41
1
10
66.9113032653343
20
-1.76789115986875
30
0
41
1
10
66.9474001162674
20
-1.2227589019854
30
0
41
1
10
66.9733569853009
20
-0.678142589499743
30
0
41
1
10
66.9891578220169
20
-0.134043039093655
30
0
0
SPLINE
5
B0
100
AcDbEntity
8
1
62
256
6
ByLayer
370
18
48
1
60
0
100
AcDbSpline
70
4
71
3
72
66
73
62
40
0
40
0
40
0
40
0
40
0.0097555148208549
40
0.0097555148208549
40
0.0464312364941555
40
0.0464312364941555
40
0.0831069581674561
40
0.0831069581674561
40
0.119782679840757
40
0.119782679840757
40
0.156458401514057
40
0.156458401514057
40
0.193134123187358
40
0.193134123187358
40
0.229809844860658
40
0.229809844860658
40
0.266485566533959
40
0.266485566533959
40
0.30316128820726
40
0.30316128820726
40
0.33983700988056
40
0.33983700988056
40
0.376512731553861
40
0.376512731553861
40
0.413188453227161
40
0.413188453227161
40
0.449864174900462
40
0.449864174900462
40
0.486539896573763
40
0.486539896573763
40
0.504877757410413
40
0.504877757410413
40
0.523215618247063
40
0.523215618247063
40
0.559891339920365
40
0.559891339920365
40
0.596567061593666
40
0.596567061593666
40
0.614904922430317
40
0.614904922430317
40
0.633242783266968
40
0.633242783266968
40
0.669918504940272
40
0.669918504940272
40
0.706594226613575
40
0.706594226613575
40
0.724932087450227
40
0.724932087450227
40
0.743269948286878
40
0.743269948286878
40
0.779945669960181
40
0.779945669960181
40
0.853297113306787
40
0.853297113306787
40
0.88997283498009
40
0.88997283498009
40
0.908310695816742
40
0.908310695816742
40
0.926648556653394
40
0.926648556653394
40
1
40
1
40
1
40
1
41
1
10
50.8400160471634
20
-5.80972551482191
30
0
41
1
10
50.7296957450858
20
-5.8486208945273
30
0
41
1
10
50.6193489419069
20
-5.88695875407632
30
0
41
1
10
50.0940042649013
20
-6.0666619467126
30
0
41
1
10
49.6782453683705
20
-6.19922930260267
30
0
41
1
10
48.84845545439
20
-6.44926199667054
30
0
41
1
10
48.43400651437
20
-6.56636913640821
30
0
41
1
10
47.6059360262117
20
-6.78237168326174
30
0
41
1
10
47.1919773609549
20
-6.88181046284635
30
0
41
1
10
46.3627751314172
20
-7.05972454646943
30
0
41
1
10
45.9475012892843
20
-7.13769203487854
30
0
41
1
10
45.1167214989747
20
-7.27837984157642
30
0
41
1
10
44.7016265706103
20
-7.33981977519639
30
0
41
1
10
43.8722470936888
20
-7.44256133235501
30
0
41
1
10
43.4578625497892
20
-7.48428688019374
30
0
41
1
10
42.6295325233205
20
-7.54492167553255
30
0
41
1
10
42.2153006849001
20
-7.56297757428908
30
0
41
1
10
41.3857756536239
20
-7.58269373471524
30
0
41
1
10
40.9704693879726
20
-7.58357801597575
30
0
41
1
10
40.139581407811
20
-7.56538065672552
30
0
41
1
10
39.7251929466397
20
-7.54648575203555
30
0
41
1
10
38.8963072673804
20
-7.48654481196229
30
0
41
1
10
38.481876707154
20
-7.44504744352159
30
0
41
1
10
37.65355252395
20
-7.34470935953237
30
0
41
1
10
37.2395978147915
20
-7.28369347950962
30
0
41
1
10
36.4100895576881
20
-7.14292310679258
30
0
41
1
10
35.9943781409504
20
-7.06365907976891
30
0
41
1
10
35.1638431554143
20
-6.88693384987005
30
0
41
1
10
34.749654253761
20
-6.78926187221325
30
0
41
1
10
34.1283059343359
20
-6.62932830508603
30
0
41
1
10
33.921212457963
20
-6.57376139975497
30
0
41
1
10
33.5069030805382
20
-6.4572762799512
30
0
41
1
10
33.2996994003403
20
-6.39655555963355
30
0
41
1
10
32.6781617258559
20
-6.20856851267195
30
0
41
1
10
32.2641753472481
20
-6.07535954024519
30
0
41
1
10
31.4348493077982
20
-5.79374493133793
30
0
41
1
10
31.0190400032112
20
-5.6451697149306
30
0
41
1
10
30.3964746471923
20
-5.41126238338043
30
0
41
1
10
30.1891512458021
20
-5.33146890296598
30
0
41
1
10
29.7747680125762
20
-5.16717330856173
30
0
41
1
10
29.5676946704797
20
-5.08293469704913
30
0
41
1
10
28.9464151854735
20
-4.82660419084539
30
0
41
1
10
28.5322301114191
20
-4.65014995488539
30
0
41
1
10
27.7037354091879
20
-4.28533157965364
30
0
41
1
10
27.2896932260367
20
-4.0965473207433
30
0
41
1
10
26.6676897586135
20
-3.80507970274888
30
0
41
1
10
26.4600990582659
20
-3.70660909025048
30
0
41
1
10
26.0445552656649
20
-3.50677358101589
30
0
41
1
10
25.8368925724712
20
-3.40565071054488
30
0
41
1
10
25.2143254057445
20
-3.09965564725584
30
0
41
1
10
24.8000348107135
20
-2.89134951696508
30
0
41
1
10
23.5576429318634
20
-2.2553528602366
30
0
41
1
10
22.7289452692233
20
-1.81934013622632
30
0
41
1
10
21.4836797019551
20
-1.14895166400959
30
0
41
1
10
21.0682688777458
20
-0.92401592378306
30
0
41
1
10
20.4460955874229
20
-0.586329436756643
30
0
41
1
10
20.2387635167799
20
-0.473675860733692
30
0
41
1
10
19.8243686261648
20
-0.247895864147608
30
0
41
1
10
19.6173225777129
20
-0.134739688072756
30
0
41
1
10
18.5824642177939
20
0.431655683966568
30
0
41
1
10
17.7542008505153
20
0.883853737699297
30
0
41
1
10
16.9229472622116
20
1.3302831718712
30
0
0
SPLINE
5
B1
100
AcDbEntity
8
1
62
256
6
ByLayer
370
18
48
1
60
0
100
AcDbSpline
70
4
71
3
72
8
73
4
40
0
40
0
40
0
40
0
40
1
40
1
40
1
40
1
41
1
10
66.9113032653343
20
1.76789115986878
30
0
41
1
10
66.9474043184097
20
1.22269544150973
30
0
41
1
10
66.9733588252651
20
0.678079230597689
30
0
41
1
10
66.9891578220169
20
0.13404303909374
30
0
0
SPLINE
5
B2
100
AcDbEntity
8
1
62
256
6
ByLayer
370
18
48
1
60
0
100
AcDbSpline
70
4
71
3
72
18
73
14
40
0
40
0
40
0
40
0
40
0.155358442069134
40
0.155358442069134
40
0.234260664221996
40
0.234260664221996
40
0.313162886374858
40
0.313162886374858
40
0.628771774986305
40
0.628771774986305
40
0.944380663597753
40
0.944380663597753
40
1
40
1
40
1
40
1
41
1
10
41.8143511667422
20
-0.0121397617436969
30
0
41
1
10
42.4329235909534
20
-0.355186703824899
30
0
41
1
10
43.0517381830057
20
-0.698080229878542
30
0
41
1
10
43.9868190378488
20
-1.21194961149183
30
0
41
1
10
44.3022569346074
20
-1.38449984529461
30
0
41
1
10
44.9307721305628
20
-1.72593301220343
30
0
41
1
10
45.2442731580034
20
-1.8950504777178
30
0
41
1
10
46.8088527244078
20
-2.73121393808444
30
0
41
1
10
48.051133758626
20
-3.37014268620268
30
0
41
1
10
50.5383112916506
20
-4.55324722453867
30
0
41
1
10
51.782883215557
20
-5.09799455856682
30
0
41
1
10
53.260730309066
20
-5.66318743084523
30
0
41
1
10
53.4828031881005
20
-5.74596310448652
30
0
41
1
10
53.7048164652627
20
-5.82648474367701
30
0
0
SPLINE
5
B3
100
AcDbEntity
8
1
62
256
6
ByLayer
370
13
48
1
60
0
100
AcDbSpline
70
4
71
3
72
18
73
14
40
0
40
0
40
0
40
0
40
0.0261251058498826
40
0.0261251058498826
40
0.114659187136255
40
0.114659187136255
40
0.291727349709005
40
0.291727349709005
40
0.645863674854503
40
0.645863674854503
40
0.822931837427251
40
0.822931837427251
40
1
40
1
40
1
40
1
41
1
10
53.7048164644635
20
-5.8264847433872
30
0
41
1
10
53.7977537434113
20
-5.86019201593834
30
0
41
1
10
53.8906805779973
20
-5.89350430170958
30
0
41
1
10
54.298246939153
20
-6.03786086287658
30
0
41
1
10
54.6121305077054
20
-6.14448658491318
30
0
41
1
10
55.5518829631725
20
-6.44945104507113
30
0
41
1
10
56.1758542207548
20
-6.6328965566245
30
0
41
1
10
58.0440618588204
20
-7.12067427974611
30
0
41
1
10
59.2846961463247
20
-7.36193088427666
30
0
41
1
10
61.1539765336162
20
-7.58868183090621
30
0
41
1
10
61.778496859577
20
-7.64174309930448
30
0
41
1
10
63.0329831336466
20
-7.70096218488092
30
0
41
1
10
63.6639571150994
20
-7.70700121519798
30
0
41
1
10
64.2939618607097
20
-7.6888601101802
30
0
0
SPLINE
5
B4
100
AcDbEntity
8
1
62
256
6
ByLayer
370
18
48
1
60
0
100
AcDbSpline
70
4
71
3
72
8
73
4
40
0
40
0
40
0
40
0
40
1
40
1
40
1
40
1
41
1
10
66.9891578220169
20
0.134043039093712
30
0
41
1
10
66.9898787881324
20
0.109216674110826
30
0
41
1
10
66.993926197914
20
0.0796186110666213
30
0
41
1
10
66.9999726592282
20
0.0481943820946071
30
0
0
SPLINE
5
B5
100
AcDbEntity
8
1
62
256
6
ByLayer
370
18
48
1
60
0
100
AcDbSpline
70
4
71
3
72
12
73
8
40
0
40
0
40
0
40
0
40
0.25
40
0.25
40
0.5
40
0.5
40
1
40
1
40
1
40
1
41
1
10
64.5968650834829
20
7.77771225039246
30
0
41
1
10
64.5570748140908
20
7.80758939858961
30
0
41
1
10
64.5180208284112
20
7.8347408872919
30
0
41
1
10
64.4421503706097
20
7.88289512193856
30
0
41
1
10
64.40540177856
20
7.90386993742652
30
0
41
1
10
64.2985940792629
20
7.95755654380366
30
0
41
1
10
64.2319666500583
20
7.98105038738044
30
0
41
1
10
64.1696735089401
20
7.99218957738591
30
0
0
SPLINE
5
B6
100
AcDbEntity
8
1
62
256
6
ByLayer
370
18
48
1
60
0
100
AcDbSpline
70
4
71
3
72
20
73
16
40
0
40
0
40
0
40
0
40
0.249999999999999
40
0.249999999999999
40
0.374999999999999
40
0.374999999999999
40
0.437499999999998
40
0.437499999999998
40
0.499999999999998
40
0.499999999999998
40
0.749999999999998
40
0.749999999999998
40
0.874999999999999
40
0.874999999999999
40
1
40
1
40
1
40
1
41
1
10
63.6707547614832
20
-6.01687865306687
30
0
41
1
10
63.6708309694109
20
-6.28855069817132
30
0
41
1
10
63.683611862972
20
-6.52659844954323
30
0
41
1
10
63.7224131203071
20
-6.83418985820794
30
0
41
1
10
63.7386433459993
20
-6.92842681661114
30
0
41
1
10
63.7682410028929
20
-7.05703010366142
30
0
41
1
10
63.77898062351
20
-7.0977163185606
30
0
41
1
10
63.8020174974455
20
-7.17401377104287
30
0
41
1
10
63.814339090637
20
-7.20973794907476
30
0
41
1
10
63.8799735017372
20
-7.3764742435315
30
0
41
1
10
63.9452639288434
20
-7.47208935162746
30
0
41
1
10
64.0638247959173
20
-7.56018382087387
30
0
41
1
10
64.1069333813586
20
-7.58029958751103
30
0
41
1
10
64.1999375426208
20
-7.60149076122121
30
0
41
1
10
64.2496436055485
20
-7.6025861175394
30
0
41
1
10
64.3026638754125
20
-7.59436239151259
30
0
0
SPLINE
5
B7
100
AcDbEntity
8
1
62
256
6
ByLayer
370
18
48
1
60
0
100
AcDbSpline
70
4
71
3
72
46
73
42
40
0
40
0
40
0
40
0
40
0.125000000000004
40
0.125000000000004
40
0.187500000000004
40
0.187500000000004
40
0.250000000000005
40
0.250000000000005
40
0.375000000000006
40
0.375000000000006
40
0.500000000000007
40
0.500000000000007
40
0.562500000000008
40
0.562500000000008
40
0.625000000000008
40
0.625000000000008
40
0.687500000000009
40
0.687500000000009
40
0.750000000000009
40
0.750000000000009
40
0.81250000000001
40
0.81250000000001
40
0.843750000000012
40
0.843750000000012
40
0.859375000000011
40
0.859375000000011
40
0.867187500000011
40
0.867187500000011
40
0.875000000000011
40
0.875000000000011
40
0.88281250000001
40
0.88281250000001
40
0.88671875000001
40
0.88671875000001
40
0.890625000000009
40
0.890625000000009
40
0.906250000000008
40
0.906250000000008
40
0.937500000000005
40
0.937500000000005
40
1
40
1
40
1
40
1
41
1
10
56.7272224941439
20
3.28362046831356
30
0
41
1
10
57.0305096139591
20
2.97859818663807
30
0
41
1
10
57.3448050585238
20
2.69228869184838
30
0
41
1
10
57.832573700895
20
2.29057573346429
30
0
41
1
10
57.9978922636926
20
2.16131040164532
30
0
41
1
10
58.3341515235739
20
1.91233666906916
30
0
41
1
10
58.5056912402409
20
1.79238113765453
30
0
41
1
10
59.0225459103527
20
1.45211844585859
30
0
41
1
10
59.3714196503589
20
1.24996553652289
30
0
41
1
10
60.0777605425891
20
0.894954267764916
30
0
41
1
10
60.4351972488466
20
0.741921260579574
30
0
41
1
10
60.9786322881249
20
0.554132033500338
30
0
41
1
10
61.161023950082
20
0.498686799480453
30
0
41
1
10
61.5284986529139
20
0.403234938249852
30
0
41
1
10
61.7131963332916
20
0.363389420474476
30
0
41
1
10
62.0798147888423
20
0.301487635686186
30
0
41
1
10
62.262381538229
20
0.279245282714328
30
0
41
1
10
62.6259058460657
20
0.253634799810953
30
0
41
1
10
62.8072457730664
20
0.250315000983392
30
0
41
1
10
63.1661898518998
20
0.265016056425111
30
0
41
1
10
63.3436620561155
20
0.283063631151578
30
0
41
1
10
63.6049268747888
20
0.328127787283137
30
0
41
1
10
63.691233051957
20
0.346154235772786
30
0
41
1
10
63.8191706759315
20
0.377754355806815
30
0
41
1
10
63.8615761529136
20
0.389050701462963
30
0
41
1
10
63.9247881806818
20
0.407157601398524
30
0
41
1
10
63.9457359050124
20
0.413542380883371
30
0
41
1
10
63.9877546359913
20
0.425961854517226
30
0
41
1
10
64.008626736096
20
0.432554438935568
30
0
41
1
10
64.0443401543045
20
0.459186047679964
30
0
41
1
10
64.0589190860154
20
0.478142710711381
30
0
41
1
10
64.0684645579159
20
0.514909387185668
30
0
41
1
10
64.0699189741388
20
0.528271547871299
30
0
41
1
10
64.0732572755915
20
0.55450776705797
30
0
41
1
10
64.074881261009
20
0.56764385359503
30
0
41
1
10
64.0827782141297
20
0.633413035600597
30
0
41
1
10
64.0883838975797
20
0.68633051774907
30
0
41
1
10
64.1031478480444
20
0.845689693786625
30
0
41
1
10
64.1102626968506
20
0.95277416598671
30
0
41
1
10
64.1242561539418
20
1.27630482546451
30
0
41
1
10
64.1237527735605
20
1.49524755191465
30
0
41
1
10
64.1154228297951
20
1.71395893513684
30
0
0
SPLINE
5
B8
100
AcDbEntity
8
1
62
256
6
ByLayer
370
13
48
1
60
0
100
AcDbSpline
70
4
71
3
72
10
73
6
40
0
40
0
40
0
40
0
40
0.5
40
0.5
40
1
40
1
40
1
40
1
41
1
10
4.00000023586517
20
-3.01822246340515
30
0
41
1
10
4.00000023586517
20
-3.04672243233145
30
0
41
1
10
4.01124248010376
20
-3.07585469674692
30
0
41
1
10
4.05444141501755
20
-3.12648466790506
30
0
41
1
10
4.08693905649975
20
-3.14899611146583
30
0
41
1
10
4.12887580136589
20
-3.1644808621339
30
0
0
SPLINE
5
B9
100
AcDbEntity
8
1
62
256
6
ByLayer
370
18
48
1
60
0
100
AcDbSpline
70
4
71
3
72
10
73
6
40
0
40
0
40
0
40
0
40
0.860584225608854
40
0.860584225608854
40
1
40
1
40
1
40
1
41
1
10
4.20177325533447
20
-3.19339190593212
30
0
41
1
10
5.46259474928775
20
-3.82700702263884
30
0
41
1
10
6.71154712547241
20
-4.41554396330801
30
0
41
1
10
8.16225548772451
20
-5.02888069065403
30
0
41
1
10
8.36447585051448
20
-5.11281778673921
30
0
41
1
10
8.5667133421432
20
-5.19511748105111
30
0
0
SPLINE
5
BA
100
AcDbEntity
8
1
62
256
6
ByLayer
370
13
48
1
60
0
100
AcDbSpline
70
4
71
3
72
22
73
18
40
0
40
0
40
0
40
0
40
0.228756249933977
40
0.228756249933977
40
0.297001054868589
40
0.297001054868589
40
0.365245859803202
40
0.365245859803202
40
0.501735469672427
40
0.501735469672427
40
0.774714689410874
40
0.774714689410874
40
0.911204299280099
40
0.911204299280099
40
0.97944910421471
40
0.97944910421471
40
1
40
1
40
1
40
1
41
1
10
8.56671303782383
20
-5.1951173572096
30
0
41
1
10
9.61284510848017
20
-5.6208363999904
30
0
41
1
10
10.6594355077782
20
-6.00274224620057
30
0
41
1
10
12.0275470201668
20
-6.42989444962697
30
0
41
1
10
12.3429625448022
20
-6.52347374577971
30
0
41
1
10
12.9732106445749
20
-6.70024022390072
30
0
41
1
10
13.2874892928104
20
-6.78328782824133
30
0
41
1
10
14.2283458977884
20
-7.01621285641025
30
0
41
1
10
14.8530091502715
20
-7.14985775631826
30
0
41
1
10
16.7229352647939
20
-7.48387496754174
30
0
41
1
10
17.9646108057076
20
-7.61740426897896
30
0
41
1
10
19.8346033495457
20
-7.67871557221923
30
0
41
1
10
20.459250913694
20
-7.67604464632672
30
0
41
1
10
21.4003279703875
20
-7.63655368477893
30
0
41
1
10
21.7146747982353
20
-7.61745339507277
30
0
41
1
10
22.1247635285297
20
-7.58484518418726
30
0
41
1
10
22.2196650369238
20
-7.57676330056088
30
0
41
1
10
22.3145308310348
20
-7.56815310098736
30
0
0
SPLINE
5
BB
100
AcDbEntity
8
1
62
256
6
ByLayer
370
18
48
1
60
0
100
AcDbSpline
70
4
71
3
72
16
73
12
40
0
40
0
40
0
40
0
40
0.250000000000009
40
0.250000000000009
40
0.500000000000018
40
0.500000000000018
40
0.625000000000022
40
0.625000000000022
40
0.750000000000027
40
0.750000000000027
40
1
40
1
40
1
40
1
41
1
10
4.00000023586517
20
-7.44600322643055
30
0
41
1
10
4.00000023586517
20
-7.42932428704148
30
0
41
1
10
4.00389200142186
20
-7.41095155593484
30
0
41
1
10
4.02461878924154
20
-7.36815703581908
30
0
41
1
10
4.04217413317375
20
-7.34344111474468
30
0
41
1
10
4.08127218259656
20
-7.30640911360749
30
0
41
1
10
4.09642779865385
20
-7.29413143270887
30
0
41
1
10
4.12813716464422
20
-7.27198896681006
30
0
41
1
10
4.14463654940508
20
-7.2620997820936
30
0
41
1
10
4.19307496754601
20
-7.23658017865355
30
0
41
1
10
4.22289910729131
20
-7.22527621060587
30
0
41
1
10
4.2504964600937
20
-7.21716363576323
30
0
0
SPLINE
5
BC
100
AcDbEntity
8
1
62
256
6
ByLayer
370
18
48
1
60
0
100
AcDbSpline
70
4
71
3
72
36
73
32
40
0
40
0
40
0
40
0
40
0.0624999999999984
40
0.0624999999999984
40
0.0937499999999975
40
0.0937499999999975
40
0.124999999999997
40
0.124999999999997
40
0.187499999999995
40
0.187499999999995
40
0.218749999999995
40
0.218749999999995
40
0.249999999999994
40
0.249999999999994
40
0.312499999999994
40
0.312499999999994
40
0.374999999999994
40
0.374999999999994
40
0.499999999999994
40
0.499999999999994
40
0.562499999999994
40
0.562499999999994
40
0.624999999999994
40
0.624999999999994
40
0.749999999999996
40
0.749999999999996
40
0.874999999999998
40
0.874999999999998
40
0.937499999999999
40
0.937499999999999
40
1
40
1
40
1
40
1
41
1
10
56.727222494144
20
3.28362046831356
30
0
41
1
10
56.6840311422378
20
3.04169900118754
30
0
41
1
10
56.6596903760035
20
2.79167951906479
30
0
41
1
10
56.6534350493671
20
2.40365271000442
30
0
41
1
10
56.6564819248674
20
2.27194158942515
30
0
41
1
10
56.6725647206715
20
2.00985371850518
30
0
41
1
10
56.685565588745
20
1.87877413692726
30
0
41
1
10
56.7388490540741
20
1.48543274871665
30
0
41
1
10
56.7933714116236
20
1.22306859401888
30
0
41
1
10
56.9021326578516
20
0.829328460083929
30
0
41
1
10
56.9429665944901
20
0.697980635387921
30
0
41
1
10
57.0316969073971
20
0.439926943395619
30
0
41
1
10
57.0797508997742
20
0.312597029002006
30
0
41
1
10
57.2340742797352
20
-0.0647182841028098
30
0
41
1
10
57.3504631265139
20
-0.310048547572535
30
0
41
1
10
57.6067504809847
20
-0.789894202993167
30
0
41
1
10
57.7475330653505
20
-1.02557655688491
30
0
41
1
10
58.1917463724589
20
-1.70369993887749
30
0
41
1
10
58.5181708507318
20
-2.12162555647549
30
0
41
1
10
59.0410632970584
20
-2.7110034616876
30
0
41
1
10
59.2210727331513
20
-2.90102001272007
30
0
41
1
10
59.5924406256683
20
-3.26825208225853
30
0
41
1
10
59.7822418363051
20
-3.44421356193419
30
0
41
1
10
60.3585505162901
20
-3.95002487639886
30
0
41
1
10
60.7535635940598
20
-4.25920368970992
30
0
41
1
10
61.560886402777
20
-4.83270241404438
30
0
41
1
10
61.973235504712
20
-5.09692021633811
30
0
41
1
10
62.6030134077461
20
-5.46405900106507
30
0
41
1
10
62.8150824177359
20
-5.58168830869337
30
0
41
1
10
63.2415541070898
20
-5.80689131961148
30
0
41
1
10
63.4557134102733
20
-5.91434396952207
30
0
41
1
10
63.6707547614832
20
-6.01687865306687
30
0
0
SPLINE
5
BD
100
AcDbEntity
8
1
62
256
6
ByLayer
370
18
48
1
60
0
100
AcDbSpline
70
4
71
3
72
8
73
4
40
0
40
0
40
0
40
0
40
1
40
1
40
1
40
1
41
1
10
66.9999726592282
20
0.0481943820946071
30
0
41
1
10
67.0000091151242
20
0.0160634418781171
30
0
41
1
10
67.000009112056
20
-0.0160661460712106
30
0
41
1
10
66.9999726592282
20
-0.0481943820947492
30
0
0
SPLINE
5
BE
100
AcDbEntity
8
1
62
256
6
ByLayer
370
18
48
1
60
0
100
AcDbSpline
70
4
71
3
72
32
73
28
40
0
40
0
40
0
40
0
40
0.0260870732481275
40
0.0260870732481275
40
0.107246483810783
40
0.107246483810783
40
0.18840589437344
40
0.18840589437344
40
0.269565304936096
40
0.269565304936096
40
0.350724715498752
40
0.350724715498752
40
0.431884126061408
40
0.431884126061408
40
0.513043536624064
40
0.513043536624064
40
0.59420294718672
40
0.59420294718672
40
0.675362357749376
40
0.675362357749376
40
0.756521768312032
40
0.756521768312032
40
0.837681178874688
40
0.837681178874688
40
0.918840589437344
40
0.918840589437344
40
1
40
1
40
1
40
1
41
1
10
41.4002338224903
20
7.57952599936547
30
0
41
1
10
41.5337447260146
20
7.57824610892882
30
0
41
1
10
41.6672127250004
20
7.57600475086934
30
0
41
1
10
42.2155175276793
20
7.5629717492001
30
0
41
1
10
42.6298579548794
20
7.54490424282707
30
0
41
1
10
43.4582203977782
20
7.48425429070844
30
0
41
1
10
43.8725343456907
20
7.44252801536322
30
0
41
1
10
44.7016247310585
20
7.33981773519224
30
0
41
1
10
45.1162472014305
20
7.2784537169978
30
0
41
1
10
45.947047352237
20
7.13777534348148
30
0
41
1
10
46.3627294746251
20
7.05973532029009
30
0
41
1
10
47.1921349038915
20
6.88177568254173
30
0
41
1
10
47.6061078357076
20
6.7823284246642
30
0
41
1
10
48.4340563722329
20
6.56635457256201
30
0
41
1
10
48.8483614436405
20
6.44928653425649
30
0
41
1
10
49.67771741956
20
6.19939217132821
30
0
41
1
10
50.0928426270387
20
6.06704722876401
30
0
41
1
10
50.9233979216737
20
5.78296561663745
30
0
41
1
10
51.3381362894879
20
5.63273007768095
30
0
41
1
10
52.1671060236682
20
5.31838450512268
30
0
41
1
10
52.5812148324074
20
5.15401067522004
30
0
41
1
10
53.4091499839332
20
4.81227497888139
30
0
41
1
10
53.8234488486261
20
4.63575873708083
30
0
41
1
10
54.6529672473046
20
4.2694249670426
30
0
41
1
10
55.0685232509336
20
4.0795074997512
30
0
41
1
10
55.898600615926
20
3.68874582176076
30
0
41
1
10
56.3129558264035
20
3.48819925478503
30
0
41
1
10
56.727222494144
20
3.28362046831359
30
0
0
SPLINE
5
BF
100
AcDbEntity
8
1
62
256
6
ByLayer
370
18
48
1
60
0
100
AcDbSpline
70
4
71
3
72
14
73
10
40
0
40
0
40
0
40
0
40
0.25
40
0.25
40
0.5
40
0.5
40
0.75
40
0.75
40
1
40
1
40
1
40
1
41
1
10
64.3026638754001
20
-7.59436239151452
30
0
41
1
10
64.3061149350247
20
-7.59382711380047
30
0
41
1
10
64.3089446181513
20
-7.59493765359696
30
0
41
1
10
64.3129409493164
20
-7.60155035150567
30
0
41
1
10
64.3140573217585
20
-7.60712547810155
30
0
41
1
10
64.3133381562762
20
-7.62394342013832
30
0
41
1
10
64.3114127740707
20
-7.63526146028997
30
0
41
1
10
64.3044055498063
20
-7.66120168175951
30
0
41
1
10
64.2994310007139
20
-7.67545652353783
30
0
41
1
10
64.2939618608174
20
-7.68886011017707
30
0
0
SPLINE
5
C0
100
AcDbEntity
8
1
62
256
6
ByLayer
370
13
48
1
60
0
100
AcDbSpline
70
4
71
3
72
8
73
4
40
0
40
0
40
0
40
0
40
1
40
1
40
1
40
1
41
1
10
4.12887580136589
20
-3.1644808621339
30
0
41
1
10
4.15165516525767
20
-3.17079034551981
30
0
41
1
10
4.17646999170103
20
-3.18067596603333
30
0
41
1
10
4.20177325533447
20
-3.19339190593212
30
0
0
SPLINE
5
C1
100
AcDbEntity
8
1
62
256
6
ByLayer
370
18
48
1
60
0
100
AcDbSpline
70
4
71
3
72
8
73
4
40
0
40
0
40
0
40
0
40
1
40
1
40
1
40
1
41
1
10
66.9504515293728
20
-0.080682138920821
30
0
41
1
10
65.7821376233754
20
-1.99122223272951
30
0
41
1
10
64.6880295014735
20
-3.96915890856761
30
0
41
1
10
63.6707547614831
20
-6.0168786530669
30
0
0
SPLINE
5
C2
100
AcDbEntity
8
1
62
256
6
ByLayer
370
18
48
1
60
0
100
AcDbSpline
70
4
71
3
72
8
73
4
40
0
40
0
40
0
40
0
40
1
40
1
40
1
40
1
41
1
10
4.25049646098535
20
-7.21716363550112
30
0
41
1
10
4.30694052628414
20
-7.20057122145732
30
0
41
1
10
4.36389343073336
20
-7.1835896814392
30
0
41
1
10
4.42131497873868
20
-7.16623635253711
30
0
0
SPLINE
5
C3
100
AcDbEntity
8
1
62
256
6
ByLayer
370
18
48
1
60
0
100
AcDbSpline
70
4
71
3
72
28
73
24
40
0
40
0
40
0
40
0
40
0.124999999999999
40
0.124999999999999
40
0.249999999999998
40
0.249999999999998
40
0.374999999999997
40
0.374999999999997
40
0.437499999999997
40
0.437499999999997
40
0.499999999999997
40
0.499999999999997
40
0.624999999999997
40
0.624999999999997
40
0.687499999999998
40
0.687499999999998
40
0.749999999999998
40
0.749999999999998
40
0.874999999999999
40
0.874999999999999
40
0.937499999999999
40
0.937499999999999
40
1
40
1
40
1
40
1
41
1
10
16.9229472622116
20
1.3302831718712
30
0
41
1
10
16.3629691907618
20
1.62318657025568
30
0
41
1
10
15.8091650388166
20
1.92169449114576
30
0
41
1
10
14.7085789014392
20
2.51917102185652
30
0
41
1
10
14.16169141841
20
2.81839657833251
30
0
41
1
10
13.0707635102064
20
3.40836281631769
30
0
41
1
10
12.5300615797549
20
3.69703495450696
30
0
41
1
10
11.7235436193685
20
4.11446907724812
30
0
41
1
10
11.4554848097497
20
4.25083797578588
30
0
41
1
10
10.9205588744791
20
4.5183553293891
30
0
41
1
10
10.6536710716262
20
4.64982665507986
30
0
41
1
10
9.85455200530583
20
5.03594530828349
30
0
41
1
10
9.32377523718526
20
5.28251427101671
30
0
41
1
10
8.53077710630856
20
5.63345364582244
30
0
41
1
10
8.26698863241677
20
5.74728035518493
30
0
41
1
10
7.74080163330638
20
5.9680006371043
30
0
41
1
10
7.47841175500193
20
6.0748110803757
30
0
41
1
10
6.69390567093407
20
6.38627274922808
30
0
41
1
10
6.18053217372204
20
6.57835668444383
30
0
41
1
10
5.4341620490469
20
6.8399509023275
30
0
41
1
10
5.18934200568123
20
6.92271361125142
30
0
41
1
10
4.71056915937621
20
7.07807798039707
30
0
41
1
10
4.47656763763177
20
7.15070728538299
30
0
41
1
10
4.25049645990379
20
7.21716363581905
30
0
0
SPLINE
5
C4
100
AcDbEntity
8
1
62
256
6
ByLayer
370
18
48
1
60
0
100
AcDbSpline
70
4
71
3
72
14
73
10
40
0
40
0
40
0
40
0
40
0.25
40
0.25
40
0.5
40
0.5
40
0.75
40
0.75
40
1
40
1
40
1
40
1
41
1
10
4.12549285007503
20
-3.27874392276573
30
0
41
1
10
4.10633394114129
20
-3.26871182487247
30
0
41
1
10
4.08903362593196
20
-3.25661903362928
30
0
41
1
10
4.0580414391606
20
-3.22840515432284
30
0
41
1
10
4.04449420487774
20
-3.21228152332938
30
0
41
1
10
4.02268263718386
20
-3.17773016926802
30
0
41
1
10
4.01413207652163
20
-3.15879758637931
30
0
41
1
10
4.00287633005482
20
-3.12014907003467
30
0
41
1
10
4.00000023586514
20
-3.10031339854893
30
0
41
1
10
4.00000023586514
20
-3.07993954782776
30
0
0
SPLINE
5
C5
100
AcDbEntity
8
1
62
256
6
ByLayer
370
18
48
1
60
0
100
AcDbSpline
70
4
71
3
72
92
73
88
40
0
40
0
40
0
40
0
40
0.033556490077397
40
0.033556490077397
40
0.0503347351160952
40
0.0503347351160952
40
0.0671129801547933
40
0.0671129801547933
40
0.10066947023219
40
0.10066947023219
40
0.134225960309586
40
0.134225960309586
40
0.167782450386982
40
0.167782450386982
40
0.18456069542568
40
0.18456069542568
40
0.201338940464379
40
0.201338940464379
40
0.218117185503077
40
0.218117185503077
40
0.234895430541775
40
0.234895430541775
40
0.268451920619171
40
0.268451920619171
40
0.285230165657869
40
0.285230165657869
40
0.302008410696567
40
0.302008410696567
40
0.335564900773962
40
0.335564900773962
40
0.369121390851358
40
0.369121390851358
40
0.402677880928754
40
0.402677880928754
40
0.419456125967452
40
0.419456125967452
40
0.43623437100615
40
0.43623437100615
40
0.453012616044848
40
0.453012616044848
40
0.469790861083546
40
0.469790861083546
40
0.503347351160943
40
0.503347351160943
40
0.520125596199641
40
0.520125596199641
40
0.536903841238339
40
0.536903841238339
40
0.570460331315735
40
0.570460331315735
40
0.60401682139313
40
0.60401682139313
40
0.637573311470526
40
0.637573311470526
40
0.654351556509224
40
0.654351556509224
40
0.671129801547922
40
0.671129801547922
40
0.68790804658662
40
0.68790804658662
40
0.704686291625318
40
0.704686291625318
40
0.738242781702716
40
0.738242781702716
40
0.755021026741414
40
0.755021026741414
40
0.771799271780112
40
0.771799271780112
40
0.805355761857507
40
0.805355761857507
40
0.822134006896205
40
0.822134006896205
40
0.838912251934903
40
0.838912251934903
40
0.855690496973601
40
0.855690496973601
40
0.872468742012299
40
0.872468742012299
40
0.906025232089694
40
0.906025232089694
40
0.922803477128392
40
0.922803477128392
40
0.93958172216709
40
0.93958172216709
40
0.973138212244485
40
0.973138212244485
40
1
40
1
40
1
40
1
41
1
10
16.9229472622116
20
7.95505077592372
30
0
41
1
10
17.4235214760231
20
7.97324808295429
30
0
41
1
10
17.9232071328593
20
7.97548636014233
30
0
41
1
10
18.6704616898587
20
7.95606224356561
30
0
41
1
10
18.9191396854726
20
7.94577200956277
30
0
41
1
10
19.4153918622997
20
7.91749905048539
30
0
41
1
10
19.6628956732769
20
7.89947659422697
30
0
41
1
10
20.4056919186065
20
7.83429358782075
30
0
41
1
10
20.9009279369041
20
7.77608259561353
30
0
41
1
10
21.8902548040128
20
7.63007238279317
30
0
41
1
10
22.3837039810397
20
7.54176896026357
30
0
41
1
10
23.3738546541276
20
7.33756626332135
30
0
41
1
10
23.8700646056082
20
7.22157163072384
30
0
41
1
10
24.6149946787586
20
7.02555270805766
30
0
41
1
10
24.863314711965
20
6.95642284585031
30
0
41
1
10
25.3613953798929
20
6.81175721025647
30
0
41
1
10
25.6110527871897
20
6.73615130456508
30
0
41
1
10
26.1114583651584
20
6.57824202467009
30
0
41
1
10
26.3625724635455
20
6.49580248568591
30
0
41
1
10
26.8633435897741
20
6.32478565224565
30
0
41
1
10
27.1129703937181
20
6.23607013117584
30
0
41
1
10
27.8602057877168
20
5.96101382500351
30
0
41
1
10
28.3574986985208
20
5.767368908831
30
0
41
1
10
29.1017637439291
20
5.46146430443554
30
0
41
1
10
29.3495631909833
20
5.35690534335984
30
0
41
1
10
29.8443008887888
20
5.14220873034998
30
0
41
1
10
30.0912325568875
20
5.03204731461551
30
0
41
1
10
30.8327331311016
20
4.69591917888249
30
0
41
1
10
31.3275174758588
20
4.46371474625994
30
0
41
1
10
32.3167422805772
20
3.98134513015094
30
0
41
1
10
32.8106532171961
20
3.73025636033469
30
0
41
1
10
33.8027623260375
20
3.21700916874133
30
0
41
1
10
34.3003664957193
20
2.95402691047377
30
0
41
1
10
35.0479608609607
20
2.5477577730897
30
0
41
1
10
35.2973758763483
20
2.41037597549286
30
0
41
1
10
35.7979115543703
20
2.13389517075382
30
0
41
1
10
36.0488700946225
20
1.99459814909039
30
0
41
1
10
36.5490760706003
20
1.71525337242917
30
0
41
1
10
36.7986984676318
20
1.5749938600776
30
0
41
1
10
37.2968419416786
20
1.29304465385715
30
0
41
1
10
37.5452114486098
20
1.15108358447668
30
0
41
1
10
38.2893447579884
20
0.724272537865119
30
0
41
1
10
38.7851137755176
20
0.440242046821368
30
0
41
1
10
39.5275849317101
20
0.0136674594995156
30
0
41
1
10
39.7748842907715
20
-0.128600692030943
30
0
41
1
10
40.2687976831937
20
-0.413822999998473
30
0
41
1
10
40.5155248000476
20
-0.556575371247163
30
0
41
1
10
41.2567232118209
20
-0.982246034029941
30
0
41
1
10
41.7517008088277
20
-1.26348879977377
30
0
41
1
10
42.7420835369269
20
-1.82311252153903
30
0
41
1
10
43.2371118279487
20
-2.10213813687656
30
0
41
1
10
44.232401451083
20
-2.6488960649007
30
0
41
1
10
44.7319868948658
20
-2.9178190830265
30
0
41
1
10
45.4831740321155
20
-3.31636818473268
30
0
41
1
10
45.7330179339792
20
-3.44761965903948
30
0
41
1
10
46.2322066659495
20
-3.70508996455448
30
0
41
1
10
46.4814996538342
20
-3.83155767620565
30
0
41
1
10
46.9793272573733
20
-4.08030329996049
30
0
41
1
10
47.2278646080147
20
-4.20257669697642
30
0
41
1
10
47.7240251946358
20
-4.44318637370068
30
0
41
1
10
47.9714725590628
20
-4.56177479085392
30
0
41
1
10
48.7135098363685
20
-4.9100148495271
30
0
41
1
10
49.2083432499548
20
-5.13144406293847
30
0
41
1
10
49.9499505872674
20
-5.44896005111539
30
0
41
1
10
50.1970451877212
20
-5.5523524088878
30
0
41
1
10
50.6907809912577
20
-5.75447920233592
30
0
41
1
10
50.937624937672
20
-5.85294777100566
30
0
41
1
10
51.6794430340606
20
-6.13895762772469
30
0
41
1
10
52.1752303175685
20
-6.31775427605507
30
0
41
1
10
52.9198099814819
20
-6.56904281831683
30
0
41
1
10
53.1679753080314
20
-6.65014926772608
30
0
41
1
10
53.6653984874515
20
-6.80578879985657
30
0
41
1
10
53.9147492232347
20
-6.88024465092872
30
0
41
1
10
54.4146207835395
20
-7.02253835127854
30
0
41
1
10
54.6654968120311
20
-7.09047680054894
30
0
41
1
10
55.1662984564775
20
-7.21930700902666
30
0
41
1
10
55.4160631774277
20
-7.2801821369786
30
0
41
1
10
56.1632180510719
20
-7.45234470464564
30
0
41
1
10
56.6600052617806
20
-7.55204378665167
30
0
41
1
10
57.4040393310029
20
-7.67921646171754
30
0
41
1
10
57.6517789876184
20
-7.71792322981696
30
0
41
1
10
58.1465253302268
20
-7.78804707929328
30
0
41
1
10
58.3933568489818
20
-7.81951664804913
30
0
41
1
10
59.1341810647605
20
-7.90236367429014
30
0
41
1
10
59.6286192367047
20
-7.94229179849387
30
0
41
1
10
60.5187797225335
20
-7.98718754197455
30
0
41
1
10
60.9140414249225
20
-7.99748109881267
30
0
41
1
10
61.3101891212121
20
-7.99793384439627
30
0
0
SPLINE
5
C6
100
AcDbEntity
8
1
62
256
6
ByLayer
370
18
48
1
60
0
100
AcDbSpline
70
4
71
3
72
14
73
10
40
0
40
0
40
0
40
0
40
0.25
40
0.25
40
0.5
40
0.5
40
0.75
40
0.75
40
1
40
1
40
1
40
1
41
1
10
64.1154228297951
20
1.71395893513684
30
0
41
1
10
64.1146574843977
20
1.73405387877642
30
0
41
1
10
64.1194099268047
20
1.7543024958554
30
0
41
1
10
64.1403402756263
20
1.78923249432336
30
0
41
1
10
64.1564574863207
20
1.80374720785321
30
0
41
1
10
64.1924582596322
20
1.82439486963716
30
0
41
1
10
64.2126503574682
20
1.83108548318515
30
0
41
1
10
64.253269521222
20
1.83895749266802
30
0
41
1
10
64.2740572804334
20
1.84026674032884
30
0
41
1
10
64.2948386040604
20
1.83961164088174
30
0
0
SPLINE
5
C7
100
AcDbEntity
8
1
62
256
6
ByLayer
370
18
48
1
60
0
100
AcDbSpline
70
4
71
3
72
14
73
10
40
0
40
0
40
0
40
0
40
0.25
40
0.25
40
0.5
40
0.5
40
0.75
40
0.75
40
1
40
1
40
1
40
1
41
1
10
64.5968650834789
20
7.77771225040755
30
0
41
1
10
64.7750035061979
20
7.26901524732688
30
0
41
1
10
64.9576441304973
20
6.76286816535782
30
0
41
1
10
65.3304224743314
20
5.7546028334923
30
0
41
1
10
65.5205729068245
20
5.25249336096667
30
0
41
1
10
65.9074802269021
20
4.25166415855387
30
0
41
1
10
66.1042831234865
20
3.75296901478995
30
0
41
1
10
66.5036698862051
20
2.75842361122102
30
0
41
1
10
66.7062114451477
20
2.26255249481716
30
0
41
1
10
66.9113032653343
20
1.76789115986878
30
0
0
SPLINE
5
C8
100
AcDbEntity
8
1
62
256
6
ByLayer
370
18
48
1
60
0
100
AcDbSpline
70
4
71
3
72
14
73
10
40
0
40
0
40
0
40
0
40
0.25
40
0.25
40
0.5
40
0.5
40
0.75
40
0.75
40
1
40
1
40
1
40
1
41
1
10
64.5968650834757
20
-7.77771225041684
30
0
41
1
10
64.7739911790266
20
-7.27190607677471
30
0
41
1
10
64.9559531165231
20
-6.76753423916239
30
0
41
1
10
65.3279205864873
20
-5.76127846815868
30
0
41
1
10
65.5179386091699
20
-5.25939755555157
30
0
41
1
10
65.9050363230943
20
-4.25789712756267
30
0
41
1
10
66.1021637218671
20
-3.75829245854132
30
0
41
1
10
66.5025717037796
20
-2.76111290083679
30
0
41
1
10
66.705874952825
20
-2.26336408126363
30
0
41
1
10
66.9113032653343
20
-1.76789115986875
30
0
0
SPLINE
5
C9
100
AcDbEntity
8
1
62
256
6
ByLayer
370
18
48
1
60
0
100
AcDbSpline
70
4
71
3
72
14
73
10
40
0
40
0
40
0
40
0
40
0.216966815320697
40
0.216966815320697
40
0.433933630641394
40
0.433933630641394
40
0.867867261282788
40
0.867867261282788
40
1
40
1
40
1
40
1
41
1
10
64.302663875469
20
-7.5943623915131
30
0
41
1
10
63.6731084437377
20
-7.60731141009501
30
0
41
1
10
63.0426968239942
20
-7.5964463483846
30
0
41
1
10
61.7892910940322
20
-7.52838664241668
30
0
41
1
10
61.1652403335711
20
-7.47129670911966
30
0
41
1
10
59.2971856786376
20
-7.23361672763605
30
0
41
1
10
58.0570881432436
20
-6.98666786381395
30
0
41
1
10
56.4331549179429
20
-6.55725717501502
30
0
41
1
10
56.0536299983236
20
-6.4494524012683
30
0
41
1
10
55.6733597064017
20
-6.33430527732034
30
0
0
SPLINE
5
CA
100
AcDbEntity
8
1
62
256
6
ByLayer
370
13
48
1
60
0
100
AcDbSpline
70
4
71
3
72
28
73
24
40
0
40
0
40
0
40
0
40
0.0416489498154958
40
0.0416489498154958
40
0.0949084294485833
40
0.0949084294485833
40
0.148167909081671
40
0.148167909081671
40
0.36120582761402
40
0.36120582761402
40
0.57424374614637
40
0.57424374614637
40
0.627503225779457
40
0.627503225779457
40
0.680762705412544
40
0.680762705412544
40
0.787281664678718
40
0.787281664678718
40
0.893800623944892
40
0.893800623944892
40
0.947060103577978
40
0.947060103577978
40
1
40
1
40
1
40
1
41
1
10
55.6733599052125
20
-6.33430533752093
30
0
41
1
10
55.4292123296567
20
-6.26037663171419
30
0
41
1
10
55.1847575031339
20
-6.18342132517012
30
0
41
1
10
54.6268298471123
20
-6.00129849250931
30
0
41
1
10
54.3131138472966
20
-5.89424266000947
30
0
41
1
10
53.6840628610755
20
-5.67069468015586
30
0
41
1
10
53.3689601765525
20
-5.55425886377483
30
0
41
1
10
51.7997970470656
20
-4.95340977931775
30
0
41
1
10
50.5559837204057
20
-4.41024605065761
30
0
41
1
10
48.0701133103499
20
-3.23365360907906
30
0
41
1
10
46.8283694015789
20
-2.59967322972327
30
0
41
1
10
45.264610498464
20
-1.77177216076541
30
0
41
1
10
44.951284540665
20
-1.60440781068132
30
0
41
1
10
44.3231442175216
20
-1.26668203742653
30
0
41
1
10
44.0079296017688
20
-1.09610053367061
30
0
41
1
10
43.063887140665
20
-0.58310450860634
30
0
41
1
10
42.4358043650366
20
-0.239318016173001
30
0
41
1
10
41.1800951289322
20
0.447984840165589
30
0
41
1
10
40.5522834144802
20
0.791155925159444
30
0
41
1
10
39.6086368530258
20
1.30153564569804
30
0
41
1
10
39.293479370596
20
1.47108500941621
30
0
41
1
10
38.6657814578264
20
1.80624576798337
30
0
41
1
10
38.3532580230069
20
1.97186550352046
30
0
41
1
10
38.0409585135222
20
2.13574428213727
30
0
0
SPLINE
5
CB
100
AcDbEntity
8
1
62
256
6
ByLayer
370
18
48
1
60
0
100
AcDbSpline
70
4
71
3
72
64
73
60
40
0
40
0
40
0
40
0
40
0.0424925009521702
40
0.0424925009521702
40
0.0849850019043403
40
0.0849850019043403
40
0.12747750285651
40
0.12747750285651
40
0.148723753332596
40
0.148723753332596
40
0.169970003808681
40
0.169970003808681
40
0.212462504760851
40
0.212462504760851
40
0.233708755236936
40
0.233708755236936
40
0.254955005713021
40
0.254955005713021
40
0.33994000761736
40
0.33994000761736
40
0.361186258093445
40
0.361186258093445
40
0.382432508569531
40
0.382432508569531
40
0.424925009521702
40
0.424925009521702
40
0.446171259997788
40
0.446171259997788
40
0.467417510473874
40
0.467417510473874
40
0.509910011426047
40
0.509910011426047
40
0.552402512378219
40
0.552402512378219
40
0.573648762854305
40
0.573648762854305
40
0.594895013330391
40
0.594895013330391
40
0.637387514282563
40
0.637387514282563
40
0.658633764758649
40
0.658633764758649
40
0.679880015234735
40
0.679880015234735
40
0.764865017139077
40
0.764865017139077
40
0.786111267615163
40
0.786111267615163
40
0.807357518091249
40
0.807357518091249
40
0.84985001904342
40
0.84985001904342
40
0.892342519995591
40
0.892342519995591
40
0.934835020947763
40
0.934835020947763
40
0.977327521899934
40
0.977327521899934
40
1
40
1
40
1
40
1
41
1
10
64.16967350894
20
-7.99218957738591
30
0
41
1
10
63.5435397704999
20
-8.00750246166632
30
0
41
1
10
62.9169707944129
20
-7.99826321731112
30
0
41
1
10
61.6640941573598
20
-7.93097086026364
30
0
41
1
10
61.0392017284838
20
-7.87303367707852
30
0
41
1
10
59.7897720529921
20
-7.70971532007817
30
0
41
1
10
59.1651659311832
20
-7.604360289764
30
0
41
1
10
58.2263553462364
20
-7.41164552779321
30
0
41
1
10
57.9127958240707
20
-7.34155922726163
30
0
41
1
10
57.2864412618729
20
-7.19042713428715
30
0
41
1
10
56.9736418619511
20
-7.1093943304584
30
0
41
1
10
56.0358452288597
20
-6.85039994983586
30
0
41
1
10
55.4114355683732
20
-6.65655463329676
30
0
41
1
10
54.4738912564834
20
-6.33601800179244
30
0
41
1
10
54.1612185313493
20
-6.22421355770626
30
0
41
1
10
53.5351790111506
20
-5.99105298424104
30
0
41
1
10
53.221535401096
20
-5.86957831245371
30
0
41
1
10
51.6557120562308
20
-5.24117589255516
30
0
41
1
10
50.4089717610724
20
-4.67046777281985
30
0
41
1
10
48.8434215531768
20
-3.89210686644972
30
0
41
1
10
48.5297265723497
20
-3.73304638526858
30
0
41
1
10
47.9034614046003
20
-3.40999747804113
30
0
41
1
10
47.5906915453718
20
-3.24591452584804
30
0
41
1
10
46.6529233038893
20
-2.74688889554381
30
0
41
1
10
46.0283909863204
20
-2.40529202963145
30
0
41
1
10
45.0904966617591
20
-1.88294558592639
30
0
41
1
10
44.7776770375394
20
-1.70718078832465
30
0
41
1
10
44.151321768544
20
-1.35291292416215
30
0
41
1
10
43.837617184881
20
-1.17430767216621
30
0
41
1
10
42.8983166939896
20
-0.637211501443062
30
0
41
1
10
42.2734378182591
20
-0.276982560769824
30
0
41
1
10
41.0236054378232
20
0.44306565063772
30
0
41
1
10
40.3985447763869
20
0.80269805361047
30
0
41
1
10
39.458734059491
20
1.33806594803093
30
0
41
1
10
39.145017882234
20
1.51588263134778
30
0
41
1
10
38.5188332086029
20
1.86824207398817
30
0
41
1
10
38.2060710831411
20
2.04293922686142
30
0
41
1
10
37.2682490823628
20
2.56171570691666
30
0
41
1
10
36.6436371172433
20
2.90045105114535
30
0
41
1
10
35.7054284287223
20
3.39427518077289
30
0
41
1
10
35.3924690136014
20
3.55649090710273
30
0
41
1
10
34.7657618189187
20
3.87557746591517
30
0
41
1
10
34.4520570981738
20
4.03241527966199
30
0
41
1
10
32.8865820195383
20
4.79907043811426
30
0
41
1
10
31.6395059174498
20
5.35893527934749
30
0
41
1
10
30.0722485369678
20
5.97148247420856
30
0
41
1
10
29.7586295598543
20
6.08961956370169
30
0
41
1
10
29.1325815681031
20
6.31600744481867
30
0
41
1
10
28.8198697232729
20
6.42434830891634
30
0
41
1
10
27.8820046287378
20
6.73418337133219
30
0
41
1
10
27.2571437636257
20
6.92052443656476
30
0
41
1
10
26.0055520153097
20
7.25038317445336
30
0
41
1
10
25.3779157154869
20
7.39419817120518
30
0
41
1
10
24.1257649358192
20
7.63475511824677
30
0
41
1
10
23.5007937695482
20
7.73177904787616
30
0
41
1
10
22.2503484544144
20
7.87826715188643
30
0
41
1
10
21.6248479831855
20
7.92771605486357
30
0
41
1
10
20.6629720141027
20
7.96620639090582
30
0
41
1
10
20.3286754075666
20
7.97262694878725
30
0
41
1
10
19.9946456881455
20
7.97210640127889
30
0
0
SPLINE
5
CC
100
AcDbEntity
8
1
62
256
6
ByLayer
370
18
48
1
60
0
100
AcDbSpline
70
4
71
3
72
8
73
4
40
0
40
0
40
0
40
0
40
1
40
1
40
1
40
1
41
1
10
66.989157822017
20
-0.134043039093541
30
0
41
1
10
66.9898787881326
20
-0.109216674110769
30
0
41
1
10
66.993926197914
20
-0.0796186110666497
30
0
41
1
10
66.9999726592282
20
-0.0481943820947777
30
0
0
SPLINE
5
CD
100
AcDbEntity
8
1
62
256
6
ByLayer
370
18
48
1
60
0
100
AcDbSpline
70
4
71
3
72
20
73
16
40
0
40
0
40
0
40
0
40
0.125000000000001
40
0.125000000000001
40
0.250000000000002
40
0.250000000000002
40
0.375000000000003
40
0.375000000000003
40
0.500000000000003
40
0.500000000000003
40
0.625000000000004
40
0.625000000000004
40
0.750000000000005
40
0.750000000000005
40
1
40
1
40
1
40
1
41
1
10
4.2504964600937
20
7.21716363576323
30
0
41
1
10
4.23674755301647
20
7.22120529289109
30
0
41
1
10
4.22252991860893
20
7.22605243913489
30
0
41
1
10
4.19280129795277
20
7.23790856301804
30
0
41
1
10
4.1770826891707
20
7.24502330246884
30
0
41
1
10
4.1452120609282
20
7.26177932499874
30
0
41
1
10
4.12866876582947
20
7.27165969903817
30
0
41
1
10
4.09712211954221
20
7.29360624676758
30
0
41
1
10
4.08189939812368
20
7.30587181177174
30
0
41
1
10
4.05568054478138
20
7.33059398779611
30
0
41
1
10
4.04451760197747
20
7.3431368043272
30
0
41
1
10
4.02649527890677
20
7.36713258634666
30
0
41
1
10
4.01969018973122
20
7.37841368507586
30
0
41
1
10
4.00405706347328
20
7.41045467601074
30
0
41
1
10
4.00000023586514
20
7.4292974925981
30
0
41
1
10
4.00000023586514
20
7.44600322643055
30
0
0
SPLINE
5
CE
100
AcDbEntity
8
1
62
256
6
ByLayer
370
18
48
1
60
0
100
AcDbSpline
70
4
71
3
72
8
73
4
40
0
40
0
40
0
40
0
40
1
40
1
40
1
40
1
41
1
10
64.16967350894
20
7.99218957738591
30
0
41
1
10
63.9685063741595
20
7.99710937145991
30
0
41
1
10
63.7673336103409
20
7.99949798453321
30
0
41
1
10
63.5661129731106
20
7.99935619176682
30
0
0
SPLINE
5
CF
100
AcDbEntity
8
1
62
256
6
ByLayer
370
18
48
1
60
0
100
AcDbSpline
70
4
71
3
72
28
73
24
40
0
40
0
40
0
40
0
40
0.0703726230037787
40
0.0703726230037787
40
0.163335360703401
40
0.163335360703401
40
0.256298098403022
40
0.256298098403022
40
0.349260836102644
40
0.349260836102644
40
0.442223573802266
40
0.442223573802266
40
0.535186311501888
40
0.535186311501888
40
0.581667680351699
40
0.581667680351699
40
0.62814904920151
40
0.62814904920151
40
0.721111786901133
40
0.721111786901133
40
0.814074524600755
40
0.814074524600755
40
1
40
1
40
1
40
1
41
1
10
24.3191123083654
20
-7.59392884824859
30
0
41
1
10
23.8459249637329
20
-7.6767703984176
30
0
41
1
10
23.3730833816638
20
-7.74625845253115
30
0
41
1
10
22.2750606286081
20
-7.87598034523361
30
0
41
1
10
21.6492349959209
20
-7.92608371760241
30
0
41
1
10
20.3956774531884
20
-7.97753339760141
30
0
41
1
10
19.7706442992241
20
-7.97881330568316
30
0
41
1
10
18.5209220010367
20
-7.9328682417547
30
0
41
1
10
17.8961820771121
20
-7.88566969939703
30
0
41
1
10
16.6443418946337
20
-7.74326267107679
30
0
41
1
10
16.0169670197457
20
-7.64781431895079
30
0
41
1
10
14.7661032870085
20
-7.41150653216377
30
0
41
1
10
14.1415073174135
20
-7.27056706390891
30
0
41
1
10
13.2038390000699
20
-7.02644305542489
30
0
41
1
10
12.8911426385843
20
-6.9396234478674
30
0
41
1
10
12.2651010094724
20
-6.75536636046499
30
0
41
1
10
11.95149397748
20
-6.6578414286131
30
0
41
1
10
11.0113276849058
20
-6.3504113709636
30
0
41
1
10
10.3859699684931
20
-6.12566002113536
30
0
41
1
10
9.13484142115578
20
-5.64026483888165
30
0
41
1
10
8.50875116981828
20
-5.37950723862818
30
0
41
1
10
6.62769891715584
20
-4.54914942426234
30
0
41
1
10
5.3795156552244
20
-3.93538254374133
30
0
41
1
10
4.12549285007503
20
-3.27874392276573
30
0
0
SPLINE
5
D0
100
AcDbEntity
8
1
62
256
6
ByLayer
370
13
48
1
60
0
100
AcDbSpline
70
4
71
3
72
38
73
34
40
0
40
0
40
0
40
0
40
0.125
40
0.125
40
0.15625
40
0.15625
40
0.1875
40
0.1875
40
0.25
40
0.25
40
0.3125
40
0.3125
40
0.34375
40
0.34375
40
0.375
40
0.375
40
0.5
40
0.5
40
0.5625
40
0.5625
40
0.625
40
0.625
40
0.6875
40
0.6875
40
0.75
40
0.75
40
0.8125
40
0.8125
40
0.84375
40
0.84375
40
0.875
40
0.875
40
1
40
1
40
1
40
1
41
1
10
4.25021928494647
20
-3.07319076214722
30
0
41
1
10
4.25023096488189
20
-2.58376936246907
30
0
41
1
10
4.25023300173069
20
-2.0774474780716
30
0
41
1
10
4.25022897699398
20
-1.42355420475673
30
0
41
1
10
4.25022783926275
20
-1.29163572652308
30
0
41
1
10
4.25022507039233
20
-1.02832177587652
30
0
41
1
10
4.2502234378392
20
-0.896599142270048
30
0
41
1
10
4.25021801829757
20
-0.501237654704937
30
0
41
1
10
4.25021371223261
20
-0.237405736364366
30
0
41
1
10
4.25020480952688
20
0.290768358413857
30
0
41
1
10
4.2502002109957
20
0.555110515138978
30
0
41
1
10
4.2501938628136
20
0.952015526459491
30
0
41
1
10
4.25019183321552
20
1.08473031809817
30
0
41
1
10
4.25018810659381
20
1.34857251730946
30
0
41
1
10
4.25018641372955
20
1.47936968834557
30
0
41
1
10
4.25017905662151
20
2.12785203128942
30
0
41
1
10
4.25017678464724
20
2.62920665605213
30
0
41
1
10
4.25018270062381
20
3.35508539069096
30
0
41
1
10
4.25018624234895
20
3.59360481331729
30
0
41
1
10
4.25019673727104
20
4.05463235942426
30
0
41
1
10
4.25020367856226
20
4.27758668269124
30
0
41
1
10
4.25022107717578
20
4.70828716514757
30
0
41
1
10
4.25023144704031
20
4.91375515079255
30
0
41
1
10
4.2502552043602
20
5.30402581752108
30
0
41
1
10
4.25026860304561
20
5.48910062534864
30
0
41
1
10
4.25029806744402
20
5.8392319339471
30
0
41
1
10
4.25031413413092
20
6.00428971522766
30
0
41
1
10
4.25033985434399
20
6.2364366487721
30
0
41
1
10
4.25034871919371
20
6.31140105684793
30
0
41
1
10
4.25036670267133
20
6.45447899639066
30
0
41
1
10
4.25037583831019
20
6.52276999431714
30
0
41
1
10
4.25042197053654
20
6.848283432031
30
0
41
1
10
4.2504604051914
20
7.05820409806316
30
0
41
1
10
4.25049646009367
20
7.2171636357632
30
0
0
SPLINE
5
D1
100
AcDbEntity
8
1
62
256
6
ByLayer
370
18
48
1
60
0
100
AcDbSpline
70
4
71
3
72
10
73
6
40
0
40
0
40
0
40
0
40
0.5
40
0.5
40
1
40
1
40
1
40
1
41
1
10
66.9999726592282
20
0.0481943820946071
30
0
41
1
10
66.9952294229766
20
0.0265988451297972
30
0
41
1
10
66.9884110237391
20
0.0031310801376776
30
0
41
1
10
66.971338312686
20
-0.0418605597021156
30
0
41
1
10
66.9609702340701
20
-0.0634809338714035
30
0
41
1
10
66.9504515293728
20
-0.080682138920821
30
0
0
SPLINE
5
D2
100
AcDbEntity
8
1
62
256
6
ByLayer
370
18
48
1
60
0
100
AcDbSpline
70
4
71
3
72
22
73
18
40
0
40
0
40
0
40
0
40
0.201639075186889
40
0.201639075186889
40
0.25484271129929
40
0.25484271129929
40
0.308046347411692
40
0.308046347411692
40
0.414453619636494
40
0.414453619636494
40
0.627268164086098
40
0.627268164086098
40
0.7336754363109
40
0.7336754363109
40
0.840082708535702
40
0.840082708535702
40
1
40
1
40
1
40
1
41
1
10
16.9229472622116
20
7.95505077591861
30
0
41
1
10
16.9229472622116
20
7.48341668717774
30
0
41
1
10
16.9229472622116
20
7.01129636223178
30
0
41
1
10
16.9229472622116
20
6.41401430960252
30
0
41
1
10
16.9229472622116
20
6.28928673946749
30
0
41
1
10
16.9229472622116
20
6.03976610311275
30
0
41
1
10
16.9229472622116
20
5.91468825702384
30
0
41
1
10
16.9229472622116
20
5.54170626661067
30
0
41
1
10
16.9229472622116
20
5.29639030164529
30
0
41
1
10
16.9229472622116
20
4.56990332645861
30
0
41
1
10
16.9229472622116
20
4.09814053116978
30
0
41
1
10
16.9229472622116
20
3.40827621891674
30
0
41
1
10
16.9229472622116
20
3.18129891543933
30
0
41
1
10
16.9229472622116
20
2.73327793898818
30
0
41
1
10
16.9229472622116
20
2.51167514113487
30
0
41
1
10
16.9229472622116
20
1.96860997382086
30
0
41
1
10
16.9229472622116
20
1.65268155643841
30
0
41
1
10
16.9229472622116
20
1.34764677588697
30
0
0
SPLINE
5
D3
100
AcDbEntity
8
1
62
256
6
ByLayer
370
13
48
1
60
0
100
AcDbSpline
70
4
71
3
72
10
73
6
40
0
40
0
40
0
40
0
40
0.5
40
0.5
40
1
40
1
40
1
40
1
41
1
10
4.00000023586517
20
-3.01822246340515
30
0
41
1
10
4.00000023586517
20
-3.02466097323466
30
0
41
1
10
4.01122497003306
20
-3.0310506867601
30
0
41
1
10
4.05442504170713
20
-3.0418543396768
30
0
41
1
10
4.08694459113781
20
-3.0464953416741
30
0
41
1
10
4.12887580136589
20
-3.04963995839344
30
0
0
SPLINE
5
D4
100
AcDbEntity
8
1
62
256
6
ByLayer
370
18
48
1
60
0
100
AcDbSpline
70
4
71
3
72
8
73
4
40
0
40
0
40
0
40
0
40
1
40
1
40
1
40
1
41
1
10
16.9229472622116
20
-7.95505077592375
30
0
41
1
10
17.2100246319364
20
-7.96548686091228
30
0
41
1
10
17.4968097572266
20
-7.97067405608883
30
0
41
1
10
17.7831842977887
20
-7.97075785315053
30
0
0
SPLINE
5
D5
100
AcDbEntity
8
1
62
256
6
ByLayer
370
18
48
1
60
0
100
AcDbSpline
70
4
71
3
72
34
73
30
40
0
40
0
40
0
40
0
40
0.0251308698193035
40
0.0251308698193035
40
0.133449662061601
40
0.133449662061601
40
0.187609058182749
40
0.187609058182749
40
0.241768454303898
40
0.241768454303898
40
0.295927850425046
40
0.295927850425046
40
0.350087246546195
40
0.350087246546195
40
0.458406038788494
40
0.458406038788494
40
0.512565434909645
40
0.512565434909645
40
0.566724831030796
40
0.566724831030796
40
0.675043623273097
40
0.675043623273097
40
0.783362415515399
40
0.783362415515399
40
0.891681207757701
40
0.891681207757701
40
0.94584060387885
40
0.94584060387885
40
1
40
1
40
1
40
1
41
1
10
50.840913292127
20
5.81360163826528
30
0
41
1
10
50.9555125776915
20
5.85913445866626
30
0
41
1
10
51.0701589494008
20
5.90404659683571
30
0
41
1
10
51.6794430340607
20
6.13895762772469
30
0
41
1
10
52.1752303175687
20
6.31775427605513
30
0
41
1
10
52.919809981482
20
6.56904281831689
30
0
41
1
10
53.1679753080315
20
6.65014926772614
30
0
41
1
10
53.6653984874516
20
6.8057887998566
30
0
41
1
10
53.9147492232348
20
6.88024465092877
30
0
41
1
10
54.4146207835396
20
7.02253835127857
30
0
41
1
10
54.6654968120311
20
7.09047680054894
30
0
41
1
10
55.1662984564776
20
7.21930700902672
30
0
41
1
10
55.4160631774278
20
7.28018213697868
30
0
41
1
10
56.1632180510721
20
7.45234470464561
30
0
41
1
10
56.6600052617807
20
7.55204378665169
30
0
41
1
10
57.404039331003
20
7.67921646171757
30
0
41
1
10
57.6517789876186
20
7.71792322981699
30
0
41
1
10
58.1465253302271
20
7.78804707929331
30
0
41
1
10
58.3933568489819
20
7.81951664804913
30
0
41
1
10
59.1341810647607
20
7.90236367429017
30
0
41
1
10
59.6286192367048
20
7.9422917984939
30
0
41
1
10
60.6174147661839
20
7.99216225573508
30
0
41
1
10
61.1110306562127
20
8.00201152049291
30
0
41
1
10
62.1021066689788
20
7.99086026602242
30
0
41
1
10
62.599290358684
20
7.97006566579867
30
0
41
1
10
63.346553715113
20
7.9154712508485
30
0
41
1
10
63.5957202536028
20
7.89329014958369
30
0
41
1
10
64.095574221217
20
7.84121830159108
30
0
41
1
10
64.3463602081355
20
7.81132655308218
30
0
41
1
10
64.5968650834847
20
7.77771225039098
30
0
0
SPLINE
5
D6
100
AcDbEntity
8
1
62
256
6
ByLayer
370
18
48
1
60
0
100
AcDbSpline
70
4
71
3
72
8
73
4
40
0
40
0
40
0
40
0
40
1
40
1
40
1
40
1
41
1
10
64.2939618607975
20
-7.68886011022593
30
0
41
1
10
64.2526175139951
20
-7.79018546391995
30
0
41
1
10
64.2111854140315
20
-7.89129385107165
30
0
41
1
10
64.16967350894
20
-7.99218957738591
30
0
0
SPLINE
5
D7
100
AcDbEntity
8
1
62
256
6
ByLayer
370
18
48
1
60
0
100
AcDbSpline
70
4
71
3
72
8
73
4
40
0
40
0
40
0
40
0
40
1
40
1
40
1
40
1
41
1
10
4.00000023586517
20
-7.54075119553036
30
0
41
1
10
4.00000023586517
20
-7.50824649776229
30
0
41
1
10
4.00000023586517
20
-7.47666341090817
30
0
41
1
10
4.00000023586517
20
-7.44600322643055
30
0
0
SPLINE
5
D8
100
AcDbEntity
8
1
62
256
6
ByLayer
370
18
48
1
60
0
100
AcDbSpline
70
4
71
3
72
18
73
14
40
0
40
0
40
0
40
0
40
0.202614612809149
40
0.202614612809149
40
0.405229225618298
40
0.405229225618298
40
0.607843838427448
40
0.607843838427448
40
0.709151144832022
40
0.709151144832022
40
0.810458451236597
40
0.810458451236597
40
1
40
1
40
1
40
1
41
1
10
4.00000023586517
20
7.54075119553033
30
0
41
1
10
3.83742280475525
20
7.58841642786874
30
0
41
1
10
3.67810719282443
20
7.63345475762992
30
0
41
1
10
3.36801684998835
20
7.71743157681291
30
0
41
1
10
3.21680709314353
20
7.75646941232415
30
0
41
1
10
2.93013068978391
20
7.82611868183588
30
0
41
1
10
2.79423989683076
20
7.85686394676199
30
0
41
1
10
2.60571670445231
20
7.89538638711932
30
0
41
1
10
2.54531207994307
20
7.90697364375976
30
0
41
1
10
2.43201003114604
20
7.92700320196283
30
0
41
1
10
2.37896859663445
20
7.93547886848518
30
0
41
1
10
2.23863466119025
20
7.95491776913417
30
0
41
1
10
2.16147631643162
20
7.96168900511984
30
0
41
1
10
2.10422922165566
20
7.96088760535031
30
0
0
SPLINE
5
D9
100
AcDbEntity
8
1
62
256
6
ByLayer
370
18
48
1
60
0
100
AcDbSpline
70
4
71
3
72
20
73
16
40
0
40
0
40
0
40
0
40
0.0880287086665152
40
0.0880287086665152
40
0.189358852148013
40
0.189358852148013
40
0.392019139111012
40
0.392019139111012
40
0.59467942607401
40
0.59467942607401
40
0.696009569555508
40
0.696009569555508
40
0.797339713037007
40
0.797339713037007
40
1
40
1
40
1
40
1
41
1
10
4.51293027016547
20
7.15975438554781
30
0
41
1
10
4.89337313940212
20
7.15953158607948
30
0
41
1
10
5.27368706904696
20
7.16343607648156
30
0
41
1
10
6.09089431887304
20
7.18034879840616
30
0
41
1
10
6.528158118514
20
7.1946711409538
30
0
41
1
10
7.83058955622931
20
7.25142670098089
30
0
41
1
10
8.68899305718782
20
7.30788564817016
30
0
41
1
10
10.3875566711689
20
7.44261759609
30
0
41
1
10
11.2276512284071
20
7.52090604667424
30
0
41
1
10
12.4756933717107
20
7.63798956323708
30
0
41
1
10
12.8900653467434
20
7.67694912173275
30
0
41
1
10
13.7135411037457
20
7.75126005303642
30
0
41
1
10
14.1216753341011
20
7.78652175846739
30
0
41
1
10
15.3366560209502
20
7.88182676605695
30
0
41
1
10
16.1339573196626
20
7.9312649949355
30
0
41
1
10
16.9229472622116
20
7.95505077592375
30
0
0
SPLINE
5
DA
100
AcDbEntity
8
1
62
256
6
ByLayer
370
18
48
1
60
0
100
AcDbSpline
70
4
71
3
72
16
73
12
40
0
40
0
40
0
40
0
40
0.110981945132571
40
0.110981945132571
40
0.565372085579392
40
0.565372085579392
40
0.792567155802801
40
0.792567155802801
40
0.906164690914504
40
0.906164690914504
40
1
40
1
40
1
40
1
41
1
10
20.1634759773328
20
-7.57227200016956
30
0
41
1
10
19.8583848765977
20
-7.57132929110748
30
0
41
1
10
19.5537618696012
20
-7.56489462432796
30
0
41
1
10
18.003519511806
20
-7.50447963672573
30
0
41
1
10
16.762432304744
20
-7.36463476278607
30
0
41
1
10
14.8935024008762
20
-7.02352832461909
30
0
41
1
10
14.2691936047092
20
-6.88792222753224
30
0
41
1
10
13.3289569123148
20
-6.65270619095486
30
0
41
1
10
13.0148981903074
20
-6.56900211564127
30
0
41
1
10
12.4399025046575
20
-6.40661164944052
30
0
41
1
10
12.1796210767017
20
-6.32968613939354
30
0
41
1
10
11.9198847795065
20
-6.24963954007418
30
0
0
SPLINE
5
DB
100
AcDbEntity
8
1
62
256
6
ByLayer
370
13
48
1
60
0
100
AcDbSpline
70
4
71
3
72
12
73
8
40
0
40
0
40
0
40
0
40
0.0212830601797489
40
0.0212830601797489
40
0.510641530089875
40
0.510641530089875
40
1
40
1
40
1
40
1
41
1
10
11.9198847797442
20
-6.24963954014743
30
0
41
1
10
11.8651829039807
20
-6.23278129130648
30
0
41
1
10
11.8105052073008
20
-6.21578460764604
30
0
41
1
10
10.4993719859311
20
-5.80474132630977
30
0
41
1
10
9.25290881002107
20
-5.3372541770388
30
0
41
1
10
6.75776161422152
20
-4.28586179176739
30
0
41
1
10
5.50976586604446
20
-3.70121284443107
30
0
41
1
10
4.2502192849465
20
-3.07319076214722
30
0
0
SPLINE
5
DC
100
AcDbEntity
8
1
62
256
6
ByLayer
370
18
48
1
60
0
100
AcDbSpline
70
4
71
3
72
10
73
6
40
0
40
0
40
0
40
0
40
0.5
40
0.5
40
1
40
1
40
1
40
1
41
1
10
64.2948386040604
20
1.83961164088174
30
0
41
1
10
64.731092374479
20
1.82585940791895
30
0
41
1
10
65.1673658148619
20
1.81190650948673
30
0
41
1
10
66.0396270624583
20
1.78691463320297
30
0
41
1
10
66.4754993958445
20
1.77705367526562
30
0
41
1
10
66.9113032653343
20
1.76789115986878
30
0
0
SPLINE
5
DD
100
AcDbEntity
8
1
62
256
6
ByLayer
370
18
48
1
60
0
100
AcDbSpline
70
4
71
3
72
12
73
8
40
0
40
0
40
0
40
0
40
0.25
40
0.25
40
0.5
40
0.5
40
1
40
1
40
1
40
1
41
1
10
64.596865083482
20
-7.77771225039319
30
0
41
1
10
64.55707481409
20
-7.80758939859024
30
0
41
1
10
64.5180208284104
20
-7.83474088729244
30
0
41
1
10
64.4421503706091
20
-7.8828951219389
30
0
41
1
10
64.4054017785595
20
-7.9038699374268
30
0
41
1
10
64.2985940792627
20
-7.95755654380375
30
0
41
1
10
64.2319666500582
20
-7.98105038738046
30
0
41
1
10
64.16967350894
20
-7.99218957738591
30
0
0
SPLINE
5
DE
100
AcDbEntity
8
1
62
256
6
ByLayer
370
18
48
1
60
0
100
AcDbSpline
70
4
71
3
72
32
73
28
40
0
40
0
40
0
40
0
40
0.0448376091208567
40
0.090424900454143
40
0.138911338542485
40
0.186097382131333
40
0.227136454874669
40
0.260102850195248
40
0.286682380258597
40
0.313915993426654
40
0.342902796124676
40
0.377071910884303
40
0.414072018971002
40
0.455106318574081
40
0.503720678471814
40
0.558770412255256
40
0.615142178486537
40
0.661879213355116
40
0.702260525684726
40
0.737778273410053
40
0.770797651999319
40
0.805923709278428
40
0.849014424550358
40
0.896694038846553
40
0.95110459704868
40
0.985088507762121
40
1
40
1
40
1
40
1
41
1
10
20.1865393359663
20
-7.57192719885276
30
0
41
1
10
20.4876066853532
20
-7.57089966605903
30
0
41
1
10
21.1032601661291
20
-7.56833095256576
30
0
41
1
10
22.0767261169952
20
-7.55716979712756
30
0
41
1
10
23.0915057110031
20
-7.5561057605729
30
0
41
1
10
24.0416658618217
20
-7.56942732474346
30
0
41
1
10
24.882172934834
20
-7.57435817917053
30
0
41
1
10
25.58906946673
20
-7.57490887223463
30
0
41
1
10
26.2059621050784
20
-7.57605932971603
30
0
41
1
10
26.795228007108
20
-7.57618452263466
30
0
41
1
10
27.4376010444571
20
-7.57576349311856
30
0
41
1
10
28.1503406118613
20
-7.5753548778651
30
0
41
1
10
28.9485472250404
20
-7.57501152792213
30
0
41
1
10
29.8495936596039
20
-7.57819683153022
30
0
41
1
10
30.8790285814533
20
-7.57789554056205
30
0
41
1
10
32.0175934268514
20
-7.57627825406561
30
0
41
1
10
33.1427995653753
20
-7.57833229594274
30
0
41
1
10
34.163645009038
20
-7.58134229723137
30
0
41
1
10
35.0361246185772
20
-7.57916501967554
30
0
41
1
10
35.8110154774862
20
-7.578513652163
30
0
41
1
10
36.5485235264597
20
-7.57860971220529
30
0
41
1
10
37.3398758219594
20
-7.58107543531671
30
0
41
1
10
38.2356859041495
20
-7.58125095390037
30
0
41
1
10
39.2679372834779
20
-7.58424958946063
30
0
41
1
10
40.2382903817425
20
-7.5816954393774
30
0
41
1
10
40.9684264982828
20
-7.58081323128638
30
0
41
1
10
41.3103550214788
20
-7.57967196202625
30
0
41
1
10
41.4143663806128
20
-7.57929475499844
30
0
0
SPLINE
5
DF
100
AcDbEntity
8
1
62
256
6
ByLayer
370
18
48
1
60
0
100
AcDbSpline
70
4
71
2
72
6
73
3
40
0
40
0
40
0
40
1
40
1
40
1
41
1
10
63.7459582048192
20
-7.59940626564798
30
0
41
1
10
63.9736866496456
20
-7.60040784022715
30
0
41
1
10
64.1974064186062
20
-7.59754149662885
30
0
0
SPLINE
5
E0
100
AcDbEntity
8
1
62
256
6
ByLayer
370
18
48
1
60
0
100
AcDbSpline
70
4
71
3
72
29
73
25
40
0
40
0
40
0
40
0
40
0.0034919930530654
40
0.0275555069810338
40
0.0620197816079085
40
0.09539452549151
40
0.137515828049841
40
0.186994095817671
40
0.239238175123992
40
0.304543485337509
40
0.363535011413749
40
0.430077789198867
40
0.495710723221032
40
0.54599671235831
40
0.593694923458411
40
0.639185599387701
40
0.685598705171364
40
0.741035929232868
40
0.797392206326882
40
0.848089032279351
40
0.900167038067237
40
0.94860705745465
40
0.973255498897757
40
1
40
1
40
1
40
1
41
1
10
41.4034506790443
20
7.5794328747192
30
0
41
1
10
41.3840494013224
20
7.57952768904366
30
0
41
1
10
41.2308336005117
20
7.58024475485445
30
0
41
1
10
40.8834513416011
20
7.58097801185698
30
0
41
1
10
40.3635306734284
20
7.58150705125968
30
0
41
1
10
39.7335042597791
20
7.58273256854645
30
0
41
1
10
39.0217453009478
20
7.58363214759257
30
0
41
1
10
38.1993003881898
20
7.58122779468536
30
0
41
1
10
37.2452536969889
20
7.58100517721019
30
0
41
1
10
36.2365979359763
20
7.57799554464768
30
0
41
1
10
35.1462778398849
20
7.57889507847327
30
0
41
1
10
34.0542812089305
20
7.58200993903003
30
0
41
1
10
33.011731587892
20
7.57738664875757
30
0
41
1
10
32.0772156731418
20
7.57677434299433
30
0
41
1
10
31.2575037445882
20
7.5770935978905
30
0
41
1
10
30.4599453283384
20
7.5786479285816
30
0
41
1
10
29.6181650856504
20
7.57701503585687
30
0
41
1
10
28.7143173168935
20
7.57490787143229
30
0
41
1
10
27.7859532653568
20
7.57548999055908
30
0
41
1
10
26.8769241492161
20
7.57637559788475
30
0
41
1
10
26.0127233930485
20
7.57568636277534
30
0
41
1
10
25.2985342643494
20
7.57489539630322
30
0
41
1
10
24.7346205727107
20
7.57376094310391
30
0
41
1
10
24.4407602384283
20
7.5734156589273
30
0
41
1
10
24.2877698707266
20
7.57329907059872
30
0
0
LINE
5
7B
100
AcDbEntity
8
SK1
62
256
6
ByLayer
370
18
48
1
60
0
100
AcDbLine
10
0
20
-8
30
0
11
0
21
8
31
0
39
0
210
0
220
0
230
1
0
LINE
5
7D
100
AcDbEntity
8
SK1
62
256
6
ByLayer
370
18
48
1
60
0
100
AcDbLine
10
-45.55
20
8
30
0
11
-45.55
21
-8
31
0
39
0
210
0
220
0
230
1
0
LINE
5
7E
100
AcDbEntity
8
SK1
62
256
6
ByLayer
370
18
48
1
60
0
100
AcDbLine
10
-48
20
5.55
30
0
11
-48
21
-5.55
31
0
39
0
210
0
220
0
230
1
0
LINE
5
7F
100
AcDbEntity
8
1
62
256
6
ByLayer
370
13
48
1
60
0
100
AcDbLine
10
64.115423
20
1.713959
30
0
11
66.950452
21
-0.080682
31
0
39
0
210
0
220
0
230
1
0
LINE
5
80
100
AcDbEntity
8
1
62
256
6
ByLayer
370
13
48
1
60
0
100
AcDbLine
10
64.294839
20
1.839612
30
0
11
66.989158
21
0.134043
31
0
39
0
210
0
220
0
230
1
0
LINE
5
81
100
AcDbEntity
8
1
62
256
6
ByLayer
370
18
48
1
60
0
100
AcDbLine
10
0
20
-8
30
0
11
0
21
8
31
0
39
0
210
0
220
0
230
1
0
LINE
5
82
100
AcDbEntity
8
1
62
256
6
ByLayer
370
18
48
1
60
0
100
AcDbLine
10
1.5
20
7.960565
30
0
11
1.5
21
-7.960565
31
0
39
0
210
0
220
0
230
1
0
LINE
5
83
100
AcDbEntity
8
1
62
256
6
ByLayer
370
18
48
1
60
0
100
AcDbLine
10
4
20
-3.07994
30
0
11
4
21
7.540751
31
0
39
0
210
0
220
0
230
1
0
LINE
5
84
100
AcDbEntity
8
80
62
256
6
ByLayer
370
18
48
1
60
0
100
AcDbLine
10
0
20
0
30
0
11
-5
21
0
31
0
39
0
210
0
220
0
230
1
0
LINE
5
85
100
AcDbEntity
8
4
62
256
6
ByLayer
370
18
48
0.05
60
0
100
AcDbLine
10
67
20
0
30
0
11
0
21
0
31
0
39
0
210
0
220
0
230
1
0
LINE
5
87
100
AcDbEntity
8
SK4
62
256
6
ByLayer
370
18
48
0.05
60
0
100
AcDbLine
10
72
20
0
30
0
11
-53
21
0
31
0
39
0
210
0
220
0
230
1
0
LINE
5
89
100
AcDbEntity
8
SK1
62
256
6
ByLayer
370
18
48
1
60
0
100
AcDbLine
10
-48
20
-5.55
30
0
11
-45.55
21
-8
31
0
39
0
210
0
220
0
230
1
0
LINE
5
8A
100
AcDbEntity
8
SK1
62
256
6
ByLayer
370
18
48
1
60
0
100
AcDbLine
10
-45.55
20
8
30
0
11
-48
21
5.55
31
0
39
0
210
0
220
0
230
1
0
LINE
5
8B
100
AcDbEntity
8
SK1
62
256
6
ByLayer
370
18
48
1
60
0
100
AcDbLine
10
-45.55
20
-8
30
0
11
0
21
-8
31
0
39
0
210
0
220
0
230
1
0
LINE
5
8C
100
AcDbEntity
8
SK1
62
256
6
ByLayer
370
18
48
1
60
0
100
AcDbLine
10
0
20
8
30
0
11
-45.55
21
8
31
0
39
0
210
0
220
0
230
1
0
LINE
5
8D
100
AcDbEntity
8
1
62
256
6
ByLayer
370
18
48
1
60
0
100
AcDbLine
10
1.5
20
7.960565
30
0
11
0
21
8
31
0
39
0
210
0
220
0
230
1
0
LINE
5
8E
100
AcDbEntity
8
1
62
256
6
ByLayer
370
18
48
1
60
0
100
AcDbLine
10
0
20
-8
30
0
11
1.5
21
-7.960565
31
0
39
0
210
0
220
0
230
1
0
LINE
5
8F
100
AcDbEntity
8
1
62
256
6
ByLayer
370
18
48
1
60
0
100
AcDbLine
10
1.5
20
-7.960565
30
0
11
2.121081
21
-7.960953
31
0
39
0
210
0
220
0
230
1
0
LINE
5
90
100
AcDbEntity
8
1
62
256
6
ByLayer
370
18
48
1
60
0
100
AcDbLine
10
17.77763
20
-7.970738
30
0
11
20.01718
21
-7.972138
31
0
39
0
210
0
220
0
230
1
0
LINE
5
91
100
AcDbEntity
8
1
62
256
6
ByLayer
370
18
48
1
60
0
100
AcDbLine
10
61.321828
20
-7.997953
30
0
11
63.567848
21
-7.999357
31
0
39
0
210
0
220
0
230
1
0
LINE
5
92
100
AcDbEntity
8
1
62
256
6
ByLayer
370
18
48
1
60
0
100
AcDbLine
10
63.567829
20
7.999357
30
0
11
61.321828
21
7.997953
31
0
39
0
210
0
220
0
230
1
0
LINE
5
93
100
AcDbEntity
8
1
62
256
6
ByLayer
370
18
48
1
60
0
100
AcDbLine
10
20.017389
20
7.972138
30
0
11
17.77763
21
7.970738
31
0
39
0
210
0
220
0
230
1
0
LINE
5
94
100
AcDbEntity
8
1
62
256
6
ByLayer
370
18
48
1
60
0
100
AcDbLine
10
2.121081
20
7.960953
30
0
11
1.5
21
7.960565
31
0
39
0
210
0
220
0
230
1
0
LINE
5
95
100
AcDbEntity
8
81
62
256
6
ByLayer
370
18
48
1
60
0
100
AcDbLine
10
67
20
0
30
0
11
72
21
0
31
0
39
0
210
0
220
0
230
1
0
LINE
5
96
100
AcDbEntity
8
SK2
62
256
6
ByLayer
370
13
48
1
60
0
100
AcDbLine
10
-56.625163
20
-8
30
0
11
-56.625163
21
38.857173
31
0
39
0
210
0
220
0
230
1
0
LINE
5
98
100
AcDbEntity
8
SK2
62
256
6
ByLayer
370
13
48
1
60
0
100
AcDbLine
10
-49.5875
20
8
30
0
11
-58.625163
21
8
31
0
39
0
210
0
220
0
230
1
0
LINE
5
99
100
AcDbEntity
8
SK2
62
256
6
ByLayer
370
13
48
1
60
0
100
AcDbLine
10
-49.5875
20
-8
30
0
11
-58.625163
21
-8
31
0
39
0
210
0
220
0
230
1
0
LINE
5
9A
100
AcDbEntity
8
1
62
256
6
ByLayer
370
18
48
1
60
1
100
AcDbLine
10
-56.625163
20
8
30
0
11
-56.164379
21
4.500002
31
0
39
0
210
0
220
0
230
1
0
LINE
5
9B
100
AcDbEntity
8
1
62
256
6
ByLayer
370
18
48
1
60
1
100
AcDbLine
10
-56.164379
20
4.500002
30
0
11
-57.085946
21
4.499998
31
0
39
0
210
0
220
0
230
1
0
LINE
5
9C
100
AcDbEntity
8
1
62
256
6
ByLayer
370
18
48
1
60
1
100
AcDbLine
10
-57.085946
20
4.499998
30
0
11
-56.625163
21
8
31
0
39
0
210
0
220
0
230
1
0
LINE
5
9D
100
AcDbEntity
8
1
62
256
6
ByLayer
370
18
48
1
60
1
100
AcDbLine
10
-56.625163
20
-8
30
0
11
-57.085946
21
-4.500002
31
0
39
0
210
0
220
0
230
1
0
LINE
5
9E
100
AcDbEntity
8
1
62
256
6
ByLayer
370
18
48
1
60
1
100
AcDbLine
10
-57.085946
20
-4.500002
30
0
11
-56.164379
21
-4.499998
31
0
39
0
210
0
220
0
230
1
0
LINE
5
9F
100
AcDbEntity
8
1
62
256
6
ByLayer
370
18
48
1
60
1
100
AcDbLine
10
-56.164379
20
-4.499998
30
0
11
-56.625163
21
-8
31
0
39
0
210
0
220
0
230
1
0
LINE
5
A0
100
AcDbEntity
8
2
62
256
6
ByLayer
370
13
48
1
60
0
100
AcDbLine
10
79.083343
20
-8
30
0
11
79.083343
21
37.450259
31
0
39
0
210
0
220
0
230
1
0
LINE
5
A2
100
AcDbEntity
8
2
62
256
6
ByLayer
370
13
48
1
60
0
100
AcDbLine
10
66.1993
20
8
30
0
11
81.083343
21
8
31
0
39
0
210
0
220
0
230
1
0
LINE
5
A3
100
AcDbEntity
8
2
62
256
6
ByLayer
370
13
48
1
60
0
100
AcDbLine
10
66.1993
20
-8
30
0
11
81.083343
21
-8
31
0
39
0
210
0
220
0
230
1
0
LINE
5
A4
100
AcDbEntity
8
1
62
256
6
ByLayer
370
18
48
1
60
1
100
AcDbLine
10
79.083343
20
8
30
0
11
79.544126
21
4.500002
31
0
39
0
210
0
220
0
230
1
0
LINE
5
A5
100
AcDbEntity
8
1
62
256
6
ByLayer
370
18
48
1
60
1
100
AcDbLine
10
79.544126
20
4.500002
30
0
11
78.622559
21
4.499998
31
0
39
0
210
0
220
0
230
1
0
LINE
5
A6
100
AcDbEntity
8
1
62
256
6
ByLayer
370
18
48
1
60
1
100
AcDbLine
10
78.622559
20
4.499998
30
0
11
79.083343
21
8
31
0
39
0
210
0
220
0
230
1
0
LINE
5
A7
100
AcDbEntity
8
1
62
256
6
ByLayer
370
18
48
1
60
1
100
AcDbLine
10
79.083343
20
-8
30
0
11
78.622559
21
-4.500002
31
0
39
0
210
0
220
0
230
1
0
LINE
5
A8
100
AcDbEntity
8
1
62
256
6
ByLayer
370
18
48
1
60
1
100
AcDbLine
10
78.622559
20
-4.500002
30
0
11
79.544126
21
-4.499998
31
0
39
0
210
0
220
0
230
1
0
LINE
5
A9
100
AcDbEntity
8
1
62
256
6
ByLayer
370
18
48
1
60
1
100
AcDbLine
10
79.544126
20
-4.499998
30
0
11
79.083343
21
-8
31
0
39
0
210
0
220
0
230
1
0
LINE
5
E7
100
AcDbEntity
8
1
62
256
6
ByLayer
370
18
48
1
60
1
100
AcDbLine
10
-56.625163
20
8
30
0
11
-56.164379
21
4.500002
31
0
39
0
210
0
220
0
230
1
0
LINE
5
E8
100
AcDbEntity
8
1
62
256
6
ByLayer
370
18
48
1
60
1
100
AcDbLine
10
-56.164379
20
4.500002
30
0
11
-57.085946
21
4.499998
31
0
39
0
210
0
220
0
230
1
0
LINE
5
E9
100
AcDbEntity
8
1
62
256
6
ByLayer
370
18
48
1
60
1
100
AcDbLine
10
-57.085946
20
4.499998
30
0
11
-56.625163
21
8
31
0
39
0
210
0
220
0
230
1
0
LINE
5
EB
100
AcDbEntity
8
1
62
256
6
ByLayer
370
18
48
1
60
1
100
AcDbLine
10
-56.625163
20
-8
30
0
11
-57.085946
21
-4.500002
31
0
39
0
210
0
220
0
230
1
0
LINE
5
EC
100
AcDbEntity
8
1
62
256
6
ByLayer
370
18
48
1
60
1
100
AcDbLine
10
-57.085946
20
-4.500002
30
0
11
-56.164379
21
-4.499998
31
0
39
0
210
0
220
0
230
1
0
LINE
5
ED
100
AcDbEntity
8
1
62
256
6
ByLayer
370
18
48
1
60
1
100
AcDbLine
10
-56.164379
20
-4.499998
30
0
11
-56.625163
21
-8
31
0
39
0
210
0
220
0
230
1
0
LINE
5
F1
100
AcDbEntity
8
1
62
256
6
ByLayer
370
18
48
1
60
1
100
AcDbLine
10
79.083343
20
8
30
0
11
79.544126
21
4.500002
31
0
39
0
210
0
220
0
230
1
0
LINE
5
F2
100
AcDbEntity
8
1
62
256
6
ByLayer
370
18
48
1
60
1
100
AcDbLine
10
79.544126
20
4.500002
30
0
11
78.622559
21
4.499998
31
0
39
0
210
0
220
0
230
1
0
LINE
5
F3
100
AcDbEntity
8
1
62
256
6
ByLayer
370
18
48
1
60
1
100
AcDbLine
10
78.622559
20
4.499998
30
0
11
79.083343
21
8
31
0
39
0
210
0
220
0
230
1
0
LINE
5
F5
100
AcDbEntity
8
1
62
256
6
ByLayer
370
18
48
1
60
1
100
AcDbLine
10
79.083343
20
-8
30
0
11
78.622559
21
-4.500002
31
0
39
0
210
0
220
0
230
1
0
LINE
5
F6
100
AcDbEntity
8
1
62
256
6
ByLayer
370
18
48
1
60
1
100
AcDbLine
10
78.622559
20
-4.500002
30
0
11
79.544126
21
-4.499998
31
0
39
0
210
0
220
0
230
1
0
LINE
5
F7
100
AcDbEntity
8
1
62
256
6
ByLayer
370
18
48
1
60
1
100
AcDbLine
10
79.544126
20
-4.499998
30
0
11
79.083343
21
-8
31
0
39
0
210
0
220
0
230
1
0
MTEXT
5
E1
100
AcDbEntity
8
SK6
62
256
6
ByLayer
370
13
48
1
60
0
100
AcDbMText
10
-19.82946
20
40.540328
30
0
210
0
220
0
230
1
1
\W0.7716;462.1-1600-048A0-XM X2BM
40
3.5
41
0
44
1.084337
50
0
71
7
72
5
7
iso_b_vert
0
MTEXT
5
E5
100
AcDbEntity
8
SK2
62
256
6
ByLayer
370
18
48
1
60
0
100
AcDbMText
10
-58.189796
20
21.409024
30
0
210
0
220
0
230
1
1
%%c
40
3.5
41
0
44
1.084337
50
90
71
7
72
5
7
iso_b_vert
0
MTEXT
5
E6
100
AcDbEntity
8
SK2
62
256
6
ByLayer
370
18
48
1
60
0
100
AcDbMText
10
-58.189796
20
26.63168
30
0
210
0
220
0
230
1
1
\W0.6930;16,000
40
3.5
41
0
44
1.084337
50
90
71
7
72
5
7
iso_b_vert
0
MTEXT
5
EF
100
AcDbEntity
8
2
62
256
6
ByLayer
370
18
48
1
60
0
100
AcDbMText
10
77.518709
20
20.00211
30
0
210
0
220
0
230
1
1
%%c
40
3.5
41
0
44
1.084337
50
90
71
7
72
5
7
iso_b_vert
0
MTEXT
5
F0
100
AcDbEntity
8
2
62
256
6
ByLayer
370
18
48
1
60
0
100
AcDbMText
10
77.518709
20
25.224766
30
0
210
0
220
0
230
1
1
\W0.6930;16,000
40
3.5
41
0
44
1.084337
50
90
71
7
72
5
7
iso_b_vert
0
HATCH
5
EA
100
AcDbEntity
8
SK2
62
256
6
ByLayer
370
13
48
1
60
0
100
AcDbHatch
10
0
20
0
30
0
210
0
220
0
230
1
2
ANSI31
70
0
71
0
91
1
92
5
93
3
72
1
10
-56.6251625675374
20
8
11
-56.1643788259847
21
4.50000169255318
72
1
10
-56.1643788259847
20
4.50000169255318
11
-57.0859463090902
21
4.49999830744682
72
1
10
-57.0859463090902
20
4.49999830744682
11
-56.6251625675374
21
8
97
0
75
0
76
1
52
0
41
0.0062
77
0
78
1
53
45
43
0
44
0
45
-0.0139193969876572
46
0.0139193969876572
79
0
47
0
98
1
10
0
20
0
0
HATCH
5
EE
100
AcDbEntity
8
SK2
62
256
6
ByLayer
370
13
48
1
60
0
100
AcDbHatch
10
0
20
0
30
0
210
0
220
0
230
1
2
ANSI31
70
0
71
0
91
1
92
5
93
3
72
1
10
-56.6251625675374
20
-8
11
-57.0859463090902
21
-4.50000169255318
72
1
10
-57.0859463090902
20
-4.50000169255318
11
-56.1643788259847
21
-4.49999830744682
72
1
10
-56.1643788259847
20
-4.49999830744682
11
-56.6251625675374
21
-8
97
0
75
0
76
1
52
0
41
0.0062
77
0
78
1
53
45
43
0
44
0
45
-0.0139193969876572
46
0.0139193969876572
79
0
47
0
98
1
10
0
20
0
0
HATCH
5
F4
100
AcDbEntity
8
2
62
256
6
ByLayer
370
13
48
1
60
0
100
AcDbHatch
10
0
20
0
30
0
210
0
220
0
230
1
2
ANSI31
70
0
71
0
91
1
92
5
93
3
72
1
10
79.083342615295
20
8
11
79.5441263568478
21
4.50000169255318
72
1
10
79.5441263568478
20
4.50000169255318
11
78.6225588737423
21
4.49999830744682
72
1
10
78.6225588737423
20
4.49999830744682
11
79.083342615295
21
8
97
0
75
0
76
1
52
0
41
0.0062
77
0
78
1
53
45
43
0
44
0
45
-0.0139193969876572
46
0.0139193969876572
79
0
47
0
98
1
10
0
20
0
0
HATCH
5
F8
100
AcDbEntity
8
2
62
256
6
ByLayer
370
13
48
1
60
0
100
AcDbHatch
10
0
20
0
30
0
210
0
220
0
230
1
2
ANSI31
70
0
71
0
91
1
92
5
93
3
72
1
10
79.083342615295
20
-8
11
78.6225588737423
21
-4.50000169255318
72
1
10
78.6225588737423
20
-4.50000169255318
11
79.5441263568478
21
-4.49999830744682
72
1
10
79.5441263568478
20
-4.49999830744682
11
79.083342615295
21
-8
97
0
75
0
76
1
52
0
41
0.0062
77
0
78
1
53
45
43
0
44
0
45
-0.0139193969876572
46
0.0139193969876572
79
0
47
0
98
1
10
0
20
0
0
DIMENSION
5
FA
100
AcDbEntity
8
SK2
62
256
6
ByLayer
370
13
48
1
60
0
100
AcDbDimension
2
_U0
10
64.6118
20
-18.213398
30
0
11
32.3059
21
-18.213398
31
0
70
32
71
1
72
1
41
1
210
0
220
0
230
1
3
Standard
100
AcDbAlignedDimension
13
0
23
0
33
0
14
64.6118
24
-8
34
0
50
0
100
AcDbRotatedDimension
1001
ACAD
1000
DSTYLE
1002
{
1070
   371
1070
    13
1070
   372
1070
    13
1070
   170
1070
     0
1070
   144
1040
1.0
1070
   277
1070
     2
1070
   278
1070
    44
1070
   146
1040
1.0
1070
   345
1005
16
1070
   347
1005
16
1070
   346
1005
16
1070
   344
1005
0
1070
   343
1005
0
1070
   172
1070
     1
1070
    76
1070
     0
1070
    75
1070
     0
1070
   282
1070
     0
1070
   281
1070
     0
1070
    71
1070
     0
1070
    74
1070
     0
1070
   279
1070
     0
1070
   173
1070
     1
1070
   340
1005
E2
1070
   271
1070
     2
1070
   272
1070
     2
1070
    77
1070
     1
1070
    73
1070
     1
1070
   171
1070
     3
1070
   274
1070
     4
1070
   177
1070
    35
1070
   176
1070
    35
1070
   178
1070
    35
1070
    48
1040
-0.1
1070
    41
1040
3.5
1070
   147
1040
1.75
1070
    42
1040
1.5875
1070
    44
1040
2.0
1070
   140
1040
3.5
1002
}
1001
ACAD_DSTYLE_DIM_LINETYPE
1070
   380
1005
16
1001
ACAD_DSTYLE_DIM_EXT1_LINETYPE
1070
   381
1005
16
1001
ACAD_DSTYLE_DIM_EXT2_LINETYPE
1070
   382
1005
16
0
DIMENSION
5
113
100
AcDbEntity
8
SK2
62
256
6
ByLayer
370
13
48
1
60
0
100
AcDbDimension
2
_U1
10
67
20
-36.692985
30
0
11
9.5
21
-36.692985
31
0
70
32
71
1
72
1
41
1
210
0
220
0
230
1
3
Standard
100
AcDbAlignedDimension
13
-48
23
-8
33
0
14
67
24
0
34
0
50
0
100
AcDbRotatedDimension
1001
ACAD
1000
DSTYLE
1002
{
1070
   371
1070
    13
1070
   372
1070
    13
1070
   170
1070
     0
1070
   144
1040
1.0
1070
   277
1070
     2
1070
   278
1070
    44
1070
   146
1040
1.0
1070
   345
1005
16
1070
   347
1005
16
1070
   346
1005
16
1070
   344
1005
0
1070
   343
1005
0
1070
   172
1070
     1
1070
    76
1070
     0
1070
    75
1070
     0
1070
   282
1070
     0
1070
   281
1070
     0
1070
    71
1070
     0
1070
    74
1070
     0
1070
   279
1070
     0
1070
   173
1070
     1
1070
   340
1005
E2
1070
   271
1070
     2
1070
   272
1070
     2
1070
    77
1070
     1
1070
    73
1070
     1
1070
   171
1070
     3
1070
   274
1070
     4
1070
   177
1070
    35
1070
   176
1070
    35
1070
   178
1070
    35
1070
    48
1040
-0.1
1070
    41
1040
3.5
1070
   147
1040
1.75
1070
    42
1040
1.5875
1070
    44
1040
2.0
1070
   140
1040
3.5
1002
}
1001
ACAD_DSTYLE_DIM_LINETYPE
1070
   380
1005
16
1001
ACAD_DSTYLE_DIM_EXT1_LINETYPE
1070
   381
1005
16
1001
ACAD_DSTYLE_DIM_EXT2_LINETYPE
1070
   382
1005
16
0
DIMENSION
5
12B
100
AcDbEntity
8
SK2
62
256
6
ByLayer
370
13
48
1
60
0
100
AcDbDimension
2
_U2
10
67
20
19.609119
30
0
11
42.5
21
19.609119
31
0
70
32
71
1
72
1
41
1
210
0
220
0
230
1
3
Standard
100
AcDbAlignedDimension
13
18
23
8
33
0
14
67
24
0
34
0
50
0
100
AcDbRotatedDimension
1001
ACAD
1000
DSTYLE
1002
{
1070
   371
1070
    13
1070
   372
1070
    13
1070
   170
1070
     0
1070
   144
1040
1.0
1070
   277
1070
     2
1070
   278
1070
    44
1070
   146
1040
1.0
1070
   345
1005
16
1070
   347
1005
16
1070
   346
1005
16
1070
   344
1005
0
1070
   343
1005
0
1070
   172
1070
     1
1070
    76
1070
     0
1070
    75
1070
     0
1070
   282
1070
     0
1070
   281
1070
     0
1070
    71
1070
     0
1070
    74
1070
     0
1070
   279
1070
     0
1070
   173
1070
     1
1070
   340
1005
E2
1070
   271
1070
     2
1070
   272
1070
     2
1070
    77
1070
     1
1070
    73
1070
     1
1070
   171
1070
     3
1070
   274
1070
     4
1070
   177
1070
    35
1070
   176
1070
    35
1070
   178
1070
    35
1070
    48
1040
-0.1
1070
    41
1040
3.5
1070
   147
1040
1.75
1070
    42
1040
1.5875
1070
    44
1040
2.0
1070
   140
1040
3.5
1002
}
1001
ACAD_DSTYLE_DIM_LINETYPE
1070
   380
1005
16
1001
ACAD_DSTYLE_DIM_EXT1_LINETYPE
1070
   381
1005
16
1001
ACAD_DSTYLE_DIM_EXT2_LINETYPE
1070
   382
1005
16
0
DIMENSION
5
143
100
AcDbEntity
8
SK2
62
256
6
ByLayer
370
13
48
1
60
0
100
AcDbDimension
2
_U3
10
64.6118
20
-20.802503
30
0
11
84.5
21
-20.802503
31
0
70
32
71
1
72
1
41
1
210
0
220
0
230
1
3
Standard
100
AcDbAlignedDimension
13
67
23
0
33
0
14
64.6118
24
-8
34
0
50
0
100
AcDbRotatedDimension
1001
ACAD
1000
DSTYLE
1002
{
1070
   371
1070
    13
1070
   372
1070
    13
1070
   170
1070
     0
1070
   144
1040
1.0
1070
   277
1070
     2
1070
   278
1070
    44
1070
   146
1040
1.0
1070
   345
1005
16
1070
   347
1005
16
1070
   346
1005
16
1070
   344
1005
0
1070
   343
1005
0
1070
   172
1070
     1
1070
    76
1070
     0
1070
    75
1070
     0
1070
   282
1070
     0
1070
   281
1070
     0
1070
    71
1070
     0
1070
    74
1070
     0
1070
   279
1070
     0
1070
   173
1070
     1
1070
   340
1005
E2
1070
   271
1070
     2
1070
   272
1070
     2
1070
    77
1070
     1
1070
    73
1070
     1
1070
   171
1070
     3
1070
   274
1070
     4
1070
   177
1070
    35
1070
   176
1070
    35
1070
   178
1070
    35
1070
    48
1040
-0.1
1070
    41
1040
3.5
1070
   147
1040
1.75
1070
    42
1040
1.5875
1070
    44
1040
2.0
1070
   140
1040
3.5
1002
}
1001
ACAD_DSTYLE_DIM_LINETYPE
1070
   380
1005
16
1001
ACAD_DSTYLE_DIM_EXT1_LINETYPE
1070
   381
1005
16
1001
ACAD_DSTYLE_DIM_EXT2_LINETYPE
1070
   382
1005
16
0
DIMENSION
5
15D
100
AcDbEntity
8
SK2
62
256
6
ByLayer
370
13
48
1
60
0
100
AcDbDimension
2
_U4
10
64.6118
20
-26.343428
30
0
11
8.3059
21
-26.343428
31
0
70
32
71
1
72
1
41
1
210
0
220
0
230
1
3
Standard
100
AcDbAlignedDimension
13
-48
23
-8
33
0
14
64.6118
24
-8
34
0
50
0
100
AcDbRotatedDimension
1001
ACAD
1000
DSTYLE
1002
{
1070
   371
1070
    13
1070
   372
1070
    13
1070
   170
1070
     0
1070
   144
1040
1.0
1070
   277
1070
     2
1070
   278
1070
    44
1070
   146
1040
1.0
1070
   345
1005
16
1070
   347
1005
16
1070
   346
1005
16
1070
   344
1005
0
1070
   343
1005
0
1070
   172
1070
     1
1070
    76
1070
     0
1070
    75
1070
     0
1070
   282
1070
     0
1070
   281
1070
     0
1070
    71
1070
     0
1070
    74
1070
     0
1070
   279
1070
     0
1070
   173
1070
     1
1070
   340
1005
E2
1070
   271
1070
     2
1070
   272
1070
     2
1070
    77
1070
     1
1070
    73
1070
     1
1070
   171
1070
     3
1070
   274
1070
     4
1070
   177
1070
    35
1070
   176
1070
    35
1070
   178
1070
    35
1070
    48
1040
-0.1
1070
    41
1040
3.5
1070
   147
1040
1.75
1070
    42
1040
1.5875
1070
    44
1040
2.0
1070
   140
1040
3.5
1002
}
1001
ACAD_DSTYLE_DIM_LINETYPE
1070
   380
1005
16
1001
ACAD_DSTYLE_DIM_EXT1_LINETYPE
1070
   381
1005
16
1001
ACAD_DSTYLE_DIM_EXT2_LINETYPE
1070
   382
1005
16
0
ENDSEC
0
SECTION
2
OBJECTS
0
DICTIONARY
5
1e5
330
0
100
AcDbDictionary
280
0
281
1
3
ACAD_GROUP
350
1e6
3
ACAD_MLINESTYLE
350
1e7
0
DICTIONARY
5
1e6
330
0
100
AcDbDictionary
280
0
281
1
0
DICTIONARY
5
1e7
330
0
100
AcDbDictionary
280
0
281
1
3
Standard
350
18
0
MLINESTYLE
5
18
330
1e7
100
AcDbMlineStyle
2
Standard
70
0
3

62
256
51
90
52
90
71
2
49
-0.5
62
256
6
ByLayer
49
0.5
62
256
6
ByLayer
0
RASTERVARIABLES
5
1d3
330

100
AcDbRasterVariables
90
0
70
1
71
1
72
1
0
ENDSEC
0
EOF
