0
SECTION
2
HEADER
9
$ACADVER
1
AC1015
9
$DWGCODEPAGE
3
ANSI_1252
9
$HANDSEED
5
1f4
9
$ANGBASE
50
0
9
$ANGDIR
70
0
9
$ATTMODE
70
1
9
$AUNITS
70
0
9
$AUPREC
70
0
9
$CECOLOR
62
256
9
$CELTSCALE
40
1
9
$CELTYPE
6
ByLayer
9
$CELWEIGHT
370
18
9
$CLAYER
8
0
9
$CMLJUST
70
0
9
$CMLSCALE
40
1
9
$CMLSTYLE
2
Standard
9
$DIMSTYLE
2
Standard
9
$TEXTSIZE
40
0.2
9
$TEXTSTYLE
7
Standard
9
$LUNITS
70
2
9
$LUPREC
70
4
9
$EXTNAMES
290
1
9
$INSUNITS
70
4
9
$LTSCALE
40
1
9
$LWDISPLAY
290
1
9
$PDMODE
70
0
9
$PDSIZE
40
0
9
$PLINEGEN
70
0
0
ENDSEC
0
SECTION
2
CLASSES
0
CLASS
1
RASTERVARIABLES
2
AcDbRasterVariables
3
ISM
90
0
280
0
281
0
0
ENDSEC
0
SECTION
2
TABLES
0
TABLE
2
VPORT
5
1ea
100
AcDbSymbolTable
0
VPORT
5
1
100
AcDbSymbolTableRecord
100
AcDbViewportTableRecord
2
*Active
70
0
10
0
20
0
11
1
21
1
12
-1
22
1
13
0
23
0
14
0.5
24
0.5
15
10
25
10
16
0
26
0
36
1
17
0
27
0
37
0
0
ENDTAB
0
TABLE
2
LTYPE
5
1eb
100
AcDbSymbolTable
0
LTYPE
5
14
100
AcDbSymbolTableRecord
100
AcDbLinetypeTableRecord
70
0
2
ByBlock
3

72
65
73
0
40
0
0
LTYPE
5
15
100
AcDbSymbolTableRecord
100
AcDbLinetypeTableRecord
70
0
2
ByLayer
3

72
65
73
0
40
0
0
LTYPE
5
16
100
AcDbSymbolTableRecord
100
AcDbLinetypeTableRecord
70
0
2
Continuous
3
Solid line
72
65
73
0
40
0
0
LTYPE
5
6E
100
AcDbSymbolTableRecord
100
AcDbLinetypeTableRecord
70
0
2
CENTER
3
____ _ ____ _ ____ _ ____
72
65
73
4
40
47.5
49
22
74
0
49
-8.5
74
0
49
8.5
74
0
49
-8.5
74
0
0
LTYPE
5
6F
100
AcDbSymbolTableRecord
100
AcDbLinetypeTableRecord
70
0
2
DASHED
3
__ __ __ __ __ __ __ __ __
72
65
73
2
40
25.72
49
12.86
74
0
49
-12.86
74
0
0
ENDTAB
0
TABLE
2
LAYER
5
1ec
100
AcDbSymbolTable
0
LAYER
5
10
100
AcDbSymbolTableRecord
100
AcDbLayerTableRecord
2
0
70
0
62
7
6
Continuous
290
1
370
-3
390
0
0
LAYER
5
71
100
AcDbSymbolTableRecord
100
AcDbLayerTableRecord
2
80
70
0
62
-6
6
Continuous
290
1
370
-3
390
0
0
LAYER
5
73
100
AcDbSymbolTableRecord
100
AcDbLayerTableRecord
2
81
70
0
62
-3
6
Continuous
290
1
370
-3
390
0
0
LAYER
5
75
100
AcDbSymbolTableRecord
100
AcDbLayerTableRecord
2
1
70
0
62
4
6
Continuous
290
1
370
-3
390
0
0
LAYER
5
87
100
AcDbSymbolTableRecord
100
AcDbLayerTableRecord
2
4
70
0
62
-2
6
CENTER
290
1
370
-3
390
0
0
LAYER
5
A0
100
AcDbSymbolTableRecord
100
AcDbLayerTableRecord
2
2
70
0
62
7
6
Continuous
290
1
370
-3
390
0
0
LAYER
5
FF
100
AcDbSymbolTableRecord
100
AcDbLayerTableRecord
2
Defpoints
70
0
62
7
6
Continuous
290
0
370
-3
390
0
0
LAYER
5
1d6
100
AcDbSymbolTableRecord
100
AcDbLayerTableRecord
2
SK1
70
0
62
4
6
Continuous
290
1
370
-3
390
0
0
LAYER
5
1d7
100
AcDbSymbolTableRecord
100
AcDbLayerTableRecord
2
SK4
70
0
62
2
6
CENTER
290
1
370
-3
390
0
0
LAYER
5
1d8
100
AcDbSymbolTableRecord
100
AcDbLayerTableRecord
2
SK2
70
0
62
7
6
Continuous
290
1
370
-3
390
0
0
LAYER
5
1d9
100
AcDbSymbolTableRecord
100
AcDbLayerTableRecord
2
SK6
70
0
62
5
6
Continuous
290
1
370
-3
390
0
0
ENDTAB
0
TABLE
2
STYLE
5
1ed
100
AcDbSymbolTable
0
STYLE
5
11
100
AcDbSymbolTableRecord
100
AcDbTextStyleTableRecord
2
Standard
3
txt
70
0
71
0
40
0
41
1
42
0
50
0
0
STYLE
5
E4
100
AcDbSymbolTableRecord
100
AcDbTextStyleTableRecord
2
iso_b_vert
3
simplex.shx
70
0
71
0
40
0
41
1
42
0
50
0
0
STYLE
5
E5
100
AcDbSymbolTableRecord
100
AcDbTextStyleTableRecord
2
DWGDirectTextStyle
3
simplex
70
0
71
0
40
0
41
1
42
0
50
0
0
ENDTAB
0
TABLE
2
DIMSTYLE
5
1ee
100
AcDbSymbolTable
100
AcDbDimStyleTable
0
DIMSTYLE
105
27
100
AcDbSymbolTableRecord
100
AcDbDimStyleTableRecord
2
Standard
70
0
3
<>
41
0.18
42
0.0625
44
0.18
140
0.18
147
0.09
73
0
74
0
77
1
271
2
275
0
278
52
280
0
340
11
0
ENDTAB
0
TABLE
2
VIEW
5
1ef
100
AcDbSymbolTable
0
ENDTAB
0
TABLE
2
UCS
5
1f0
100
AcDbSymbolTable
0
ENDTAB
0
TABLE
2
APPID
5
1f1
100
AcDbSymbolTable
0
APPID
5
12
100
AcDbSymbolTableRecord
100
AcDbRegAppTableRecord
2
ACAD
70
0
0
APPID
5
FB
100
AcDbSymbolTableRecord
100
AcDbRegAppTableRecord
2
ACAD_DSTYLE_DIMBREAK
70
0
0
APPID
5
195
100
AcDbSymbolTableRecord
100
AcDbRegAppTableRecord
2
ACAD_DSTYLE_DIM_LINETYPE
70
0
0
APPID
5
196
100
AcDbSymbolTableRecord
100
AcDbRegAppTableRecord
2
ACAD_DSTYLE_DIM_EXT1_LINETYPE
70
0
0
APPID
5
197
100
AcDbSymbolTableRecord
100
AcDbRegAppTableRecord
2
ACAD_DSTYLE_DIM_EXT2_LINETYPE
70
0
0
APPID
5
1D2
100
AcDbSymbolTableRecord
100
AcDbRegAppTableRecord
2
ACAD_MLEADERVER
70
0
0
ENDTAB
0
TABLE
2
BLOCK_RECORD
5
1f2
100
AcDbSymbolTable
0
BLOCK_RECORD
5
1F
100
AcDbSymbolTableRecord
100
AcDbBlockTableRecord
2
*Model_Space
340
0
70
0
0
BLOCK_RECORD
5
1B
100
AcDbSymbolTableRecord
100
AcDbBlockTableRecord
2
*Paper_Space
340
0
70
0
0
BLOCK_RECORD
5
23
100
AcDbSymbolTableRecord
100
AcDbBlockTableRecord
2
*Paper_Space0
340
0
70
0
0
BLOCK_RECORD
5
100
100
AcDbSymbolTableRecord
100
AcDbBlockTableRecord
2
*D1
340
0
70
0
0
BLOCK_RECORD
5
10C
100
AcDbSymbolTableRecord
100
AcDbBlockTableRecord
2
_U0
340
0
70
0
0
BLOCK_RECORD
5
118
100
AcDbSymbolTableRecord
100
AcDbBlockTableRecord
2
*D3
340
0
70
0
0
BLOCK_RECORD
5
124
100
AcDbSymbolTableRecord
100
AcDbBlockTableRecord
2
_U1
340
0
70
0
0
BLOCK_RECORD
5
130
100
AcDbSymbolTableRecord
100
AcDbBlockTableRecord
2
*D5
340
0
70
0
0
BLOCK_RECORD
5
13C
100
AcDbSymbolTableRecord
100
AcDbBlockTableRecord
2
_U2
340
0
70
0
0
BLOCK_RECORD
5
148
100
AcDbSymbolTableRecord
100
AcDbBlockTableRecord
2
*D7
340
0
70
0
0
BLOCK_RECORD
5
156
100
AcDbSymbolTableRecord
100
AcDbBlockTableRecord
2
_U3
340
0
70
0
0
BLOCK_RECORD
5
162
100
AcDbSymbolTableRecord
100
AcDbBlockTableRecord
2
*D9
340
0
70
0
0
BLOCK_RECORD
5
16E
100
AcDbSymbolTableRecord
100
AcDbBlockTableRecord
2
_U4
340
0
70
0
0
ENDTAB
0
ENDSEC
0
SECTION
2
BLOCKS
0
BLOCK
5
20
100
AcDbEntity
8
0
100
AcDbBlockBegin
2
*Model_Space
70
0
10
0
20
0
30
0
3
*Model_Space
0
ENDBLK
5
21
100
AcDbEntity
8
0
100
AcDbBlockEnd
0
BLOCK
5
1C
100
AcDbEntity
8
0
100
AcDbBlockBegin
2
*Paper_Space
70
0
10
0
20
0
30
0
3
*Paper_Space
0
ENDBLK
5
1D
100
AcDbEntity
8
0
100
AcDbBlockEnd
0
BLOCK
5
24
100
AcDbEntity
8
0
100
AcDbBlockBegin
2
*Paper_Space0
70
0
10
0
20
0
30
0
3
*Paper_Space0
0
ENDBLK
5
25
100
AcDbEntity
8
0
100
AcDbBlockEnd
0
BLOCK
5
101
100
AcDbEntity
8
0
100
AcDbBlockBegin
2
*D1
70
1
10
0
20
0
30
0
3
*D1
0
LINE
5
103
100
AcDbEntity
8
0
62
256
6
ByLayer
370
-2
48
1
60
0
100
AcDbLine
10
0
20
-1.5875
30
0
11
0
21
-19.463398
31
0
39
0
210
0
220
0
230
1
0
LINE
5
104
100
AcDbEntity
8
0
62
256
6
ByLayer
370
-2
48
1
60
0
100
AcDbLine
10
64.8378
20
-8.8375
30
0
11
64.8378
21
-19.463398
31
0
39
0
210
0
220
0
230
1
0
LINE
5
105
100
AcDbEntity
8
0
62
256
6
ByLayer
370
-2
48
1
60
0
100
AcDbLine
10
3.5
20
-17.463398
30
0
11
61.3378
21
-17.463398
31
0
39
0
210
0
220
0
230
1
0
SOLID
5
106
100
AcDbEntity
8
0
62
256
6
ByLayer
370
-1
48
1
60
0
100
AcDbTrace
10
3.5
20
-16.880065
30
0
11
3.5
21
-18.046732
31
0
12
0
22
-17.463398
32
0
13
0
23
-17.463398
33
0
39
0
210
0
220
0
230
1
0
SOLID
5
107
100
AcDbEntity
8
0
62
256
6
ByLayer
370
-1
48
1
60
0
100
AcDbTrace
10
61.3378
20
-18.046732
30
0
11
61.3378
21
-16.880065
31
0
12
64.8378
22
-17.463398
32
0
13
64.8378
23
-17.463398
33
0
39
0
210
0
220
0
230
1
0
MTEXT
5
108
100
AcDbEntity
8
0
62
256
6
ByLayer
370
18
48
1
60
0
100
AcDbMText
10
32.4189
20
-10.463398
30
0
210
0
220
0
230
1
1
\A1;64.84
40
3.5
41
0
44
1
50
0
71
5
72
5
7
iso_b_vert
0
POINT
5
109
100
AcDbEntity
8
Defpoints
62
0
6
ByLayer
370
-1
48
1
60
0
100
AcDbPoint
10
0
20
0
30
0
39
0
210
0
220
0
230
1
50
360
0
POINT
5
10A
100
AcDbEntity
8
Defpoints
62
0
6
ByLayer
370
-1
48
1
60
0
100
AcDbPoint
10
64.8378
20
-7.25
30
0
39
0
210
0
220
0
230
1
50
360
0
POINT
5
10B
100
AcDbEntity
8
Defpoints
62
0
6
ByLayer
370
-1
48
1
60
0
100
AcDbPoint
10
64.8378
20
-17.463398
30
0
39
0
210
0
220
0
230
1
50
360
0
ENDBLK
5
102
100
AcDbEntity
8
0
100
AcDbBlockEnd
0
BLOCK
5
113
100
AcDbEntity
8
0
100
AcDbBlockBegin
2
_U0
70
0
10
0
20
0
30
0
3
_U0
0
MTEXT
5
10D
100
AcDbEntity
8
SK2
62
256
6
ByLayer
370
13
48
1
60
0
100
AcDbMText
10
26.913068
20
-16.430765
30
0
210
0
220
0
230
1
1
\W0.7756;64,84
40
3.5
41
0
44
1.084337
50
0
71
7
72
5
7
iso_b_vert
0
LINE
5
10E
100
AcDbEntity
8
SK2
62
256
6
ByLayer
370
13
48
1
60
0
100
AcDbLine
10
0
20
-1.5875
30
0
11
0
21
-19.463398
31
0
39
0
210
0
220
0
230
1
0
LINE
5
10F
100
AcDbEntity
8
SK2
62
256
6
ByLayer
370
13
48
1
60
0
100
AcDbLine
10
64.8378
20
-8.8375
30
0
11
64.8378
21
-19.463398
31
0
39
0
210
0
220
0
230
1
0
LINE
5
110
100
AcDbEntity
8
SK2
62
256
6
ByLayer
370
13
48
1
60
0
100
AcDbLine
10
0
20
-17.463398
30
0
11
64.8378
21
-17.463398
31
0
39
0
210
0
220
0
230
1
0
SOLID
5
111
100
AcDbEntity
8
SK2
62
256
6
ByLayer
370
18
48
1
60
0
100
AcDbTrace
10
0
20
-17.463398
30
0
11
3.499998
21
-17.002615
31
0
12
3.500002
22
-17.924182
32
0
13
3.500002
23
-17.924182
33
0
39
0
210
0
220
0
230
1
0
SOLID
5
112
100
AcDbEntity
8
SK2
62
256
6
ByLayer
370
18
48
1
60
0
100
AcDbTrace
10
64.8378
20
-17.463398
30
0
11
61.337802
21
-17.924182
31
0
12
61.337798
22
-17.002615
32
0
13
61.337798
23
-17.002615
33
0
39
0
210
0
220
0
230
1
0
ENDBLK
5
114
100
AcDbEntity
8
0
100
AcDbBlockEnd
0
BLOCK
5
119
100
AcDbEntity
8
0
100
AcDbBlockBegin
2
*D3
70
1
10
0
20
0
30
0
3
*D3
0
LINE
5
11B
100
AcDbEntity
8
0
62
256
6
ByLayer
370
-2
48
1
60
0
100
AcDbLine
10
-48
20
-9.5875
30
0
11
-48
21
-38.692985
31
0
39
0
210
0
220
0
230
1
0
LINE
5
11C
100
AcDbEntity
8
0
62
256
6
ByLayer
370
-2
48
1
60
0
100
AcDbLine
10
67
20
-1.5875
30
0
11
67
21
-38.692985
31
0
39
0
210
0
220
0
230
1
0
LINE
5
11D
100
AcDbEntity
8
0
62
256
6
ByLayer
370
-2
48
1
60
0
100
AcDbLine
10
-44.5
20
-36.692985
30
0
11
63.5
21
-36.692985
31
0
39
0
210
0
220
0
230
1
0
SOLID
5
11E
100
AcDbEntity
8
0
62
256
6
ByLayer
370
-1
48
1
60
0
100
AcDbTrace
10
-44.5
20
-36.109652
30
0
11
-44.5
21
-37.276319
31
0
12
-48
22
-36.692985
32
0
13
-48
23
-36.692985
33
0
39
0
210
0
220
0
230
1
0
SOLID
5
11F
100
AcDbEntity
8
0
62
256
6
ByLayer
370
-1
48
1
60
0
100
AcDbTrace
10
63.5
20
-37.276319
30
0
11
63.5
21
-36.109652
31
0
12
67
22
-36.692985
32
0
13
67
23
-36.692985
33
0
39
0
210
0
220
0
230
1
0
MTEXT
5
120
100
AcDbEntity
8
0
62
256
6
ByLayer
370
18
48
1
60
0
100
AcDbMText
10
9.5
20
-29.692985
30
0
210
0
220
0
230
1
1
\A1;115.00
40
3.5
41
0
44
1
50
0
71
5
72
5
7
iso_b_vert
0
POINT
5
121
100
AcDbEntity
8
Defpoints
62
0
6
ByLayer
370
-1
48
1
60
0
100
AcDbPoint
10
-48
20
-8
30
0
39
0
210
0
220
0
230
1
50
360
0
POINT
5
122
100
AcDbEntity
8
Defpoints
62
0
6
ByLayer
370
-1
48
1
60
0
100
AcDbPoint
10
67
20
0
30
0
39
0
210
0
220
0
230
1
50
360
0
POINT
5
123
100
AcDbEntity
8
Defpoints
62
0
6
ByLayer
370
-1
48
1
60
0
100
AcDbPoint
10
67
20
-36.692985
30
0
39
0
210
0
220
0
230
1
50
360
0
ENDBLK
5
11A
100
AcDbEntity
8
0
100
AcDbBlockEnd
0
BLOCK
5
12B
100
AcDbEntity
8
0
100
AcDbBlockBegin
2
_U1
70
0
10
0
20
0
30
0
3
_U1
0
MTEXT
5
125
100
AcDbEntity
8
SK2
62
256
6
ByLayer
370
13
48
1
60
0
100
AcDbMText
10
3.929835
20
-35.660352
30
0
210
0
220
0
230
1
1
\W0.6440;115,00
40
3.5
41
0
44
1.084337
50
0
71
7
72
5
7
iso_b_vert
0
LINE
5
126
100
AcDbEntity
8
SK2
62
256
6
ByLayer
370
13
48
1
60
0
100
AcDbLine
10
-48
20
-9.5875
30
0
11
-48
21
-38.692985
31
0
39
0
210
0
220
0
230
1
0
LINE
5
127
100
AcDbEntity
8
SK2
62
256
6
ByLayer
370
13
48
1
60
0
100
AcDbLine
10
67
20
-1.5875
30
0
11
67
21
-38.692985
31
0
39
0
210
0
220
0
230
1
0
LINE
5
128
100
AcDbEntity
8
SK2
62
256
6
ByLayer
370
13
48
1
60
0
100
AcDbLine
10
-48
20
-36.692985
30
0
11
67
21
-36.692985
31
0
39
0
210
0
220
0
230
1
0
SOLID
5
129
100
AcDbEntity
8
SK2
62
256
6
ByLayer
370
18
48
1
60
0
100
AcDbTrace
10
-48
20
-36.692985
30
0
11
-44.500002
21
-36.232202
31
0
12
-44.499998
22
-37.153769
32
0
13
-44.499998
23
-37.153769
33
0
39
0
210
0
220
0
230
1
0
SOLID
5
12A
100
AcDbEntity
8
SK2
62
256
6
ByLayer
370
18
48
1
60
0
100
AcDbTrace
10
67
20
-36.692985
30
0
11
63.500002
21
-37.153769
31
0
12
63.499998
22
-36.232202
32
0
13
63.499998
23
-36.232202
33
0
39
0
210
0
220
0
230
1
0
ENDBLK
5
12C
100
AcDbEntity
8
0
100
AcDbBlockEnd
0
BLOCK
5
131
100
AcDbEntity
8
0
100
AcDbBlockBegin
2
*D5
70
1
10
0
20
0
30
0
3
*D5
0
LINE
5
133
100
AcDbEntity
8
0
62
256
6
ByLayer
370
-2
48
1
60
0
100
AcDbLine
10
21.34
20
8.8375
30
0
11
21.34
21
20.859119
31
0
39
0
210
0
220
0
230
1
0
LINE
5
134
100
AcDbEntity
8
0
62
256
6
ByLayer
370
-2
48
1
60
0
100
AcDbLine
10
67
20
1.5875
30
0
11
67
21
20.859119
31
0
39
0
210
0
220
0
230
1
0
LINE
5
135
100
AcDbEntity
8
0
62
256
6
ByLayer
370
-2
48
1
60
0
100
AcDbLine
10
24.84
20
18.859119
30
0
11
63.5
21
18.859119
31
0
39
0
210
0
220
0
230
1
0
SOLID
5
136
100
AcDbEntity
8
0
62
256
6
ByLayer
370
-1
48
1
60
0
100
AcDbTrace
10
24.84
20
19.442453
30
0
11
24.84
21
18.275786
31
0
12
21.34
22
18.859119
32
0
13
21.34
23
18.859119
33
0
39
0
210
0
220
0
230
1
0
SOLID
5
137
100
AcDbEntity
8
0
62
256
6
ByLayer
370
-1
48
1
60
0
100
AcDbTrace
10
63.5
20
18.275786
30
0
11
63.5
21
19.442453
31
0
12
67
22
18.859119
32
0
13
67
23
18.859119
33
0
39
0
210
0
220
0
230
1
0
MTEXT
5
138
100
AcDbEntity
8
0
62
256
6
ByLayer
370
18
48
1
60
0
100
AcDbMText
10
44.17
20
25.859119
30
0
210
0
220
0
230
1
1
\A1;45.66
40
3.5
41
0
44
1
50
0
71
5
72
5
7
iso_b_vert
0
POINT
5
139
100
AcDbEntity
8
Defpoints
62
0
6
ByLayer
370
-1
48
1
60
0
100
AcDbPoint
10
21.34
20
7.25
30
0
39
0
210
0
220
0
230
1
50
360
0
POINT
5
13A
100
AcDbEntity
8
Defpoints
62
0
6
ByLayer
370
-1
48
1
60
0
100
AcDbPoint
10
67
20
0
30
0
39
0
210
0
220
0
230
1
50
360
0
POINT
5
13B
100
AcDbEntity
8
Defpoints
62
0
6
ByLayer
370
-1
48
1
60
0
100
AcDbPoint
10
67
20
18.859119
30
0
39
0
210
0
220
0
230
1
50
360
0
ENDBLK
5
132
100
AcDbEntity
8
0
100
AcDbBlockEnd
0
BLOCK
5
143
100
AcDbEntity
8
0
100
AcDbBlockBegin
2
_U2
70
0
10
0
20
0
30
0
3
_U2
0
MTEXT
5
13D
100
AcDbEntity
8
SK2
62
256
6
ByLayer
370
13
48
1
60
0
100
AcDbMText
10
38.848435
20
19.891753
30
0
210
0
220
0
230
1
1
\W0.7581;45,66
40
3.5
41
0
44
1.084337
50
0
71
7
72
5
7
iso_b_vert
0
LINE
5
13E
100
AcDbEntity
8
SK2
62
256
6
ByLayer
370
13
48
1
60
0
100
AcDbLine
10
21.34
20
8.8375
30
0
11
21.34
21
20.859119
31
0
39
0
210
0
220
0
230
1
0
LINE
5
13F
100
AcDbEntity
8
SK2
62
256
6
ByLayer
370
13
48
1
60
0
100
AcDbLine
10
67
20
1.5875
30
0
11
67
21
20.859119
31
0
39
0
210
0
220
0
230
1
0
LINE
5
140
100
AcDbEntity
8
SK2
62
256
6
ByLayer
370
13
48
1
60
0
100
AcDbLine
10
21.34
20
18.859119
30
0
11
67
21
18.859119
31
0
39
0
210
0
220
0
230
1
0
SOLID
5
141
100
AcDbEntity
8
SK2
62
256
6
ByLayer
370
18
48
1
60
0
100
AcDbTrace
10
21.34
20
18.859119
30
0
11
24.839998
21
19.319903
31
0
12
24.840002
22
18.398335
32
0
13
24.840002
23
18.398335
33
0
39
0
210
0
220
0
230
1
0
SOLID
5
142
100
AcDbEntity
8
SK2
62
256
6
ByLayer
370
18
48
1
60
0
100
AcDbTrace
10
67
20
18.859119
30
0
11
63.500002
21
18.398335
31
0
12
63.499998
22
19.319903
32
0
13
63.499998
23
19.319903
33
0
39
0
210
0
220
0
230
1
0
ENDBLK
5
144
100
AcDbEntity
8
0
100
AcDbBlockEnd
0
BLOCK
5
149
100
AcDbEntity
8
0
100
AcDbBlockBegin
2
*D7
70
1
10
0
20
0
30
0
3
*D7
0
LINE
5
14B
100
AcDbEntity
8
0
62
256
6
ByLayer
370
-2
48
1
60
0
100
AcDbLine
10
67
20
-1.5875
30
0
11
67
21
-22.052503
31
0
39
0
210
0
220
0
230
1
0
LINE
5
14C
100
AcDbEntity
8
0
62
256
6
ByLayer
370
-2
48
1
60
0
100
AcDbLine
10
64.8378
20
-8.8375
30
0
11
64.8378
21
-22.052503
31
0
39
0
210
0
220
0
230
1
0
LINE
5
14D
100
AcDbEntity
8
0
62
256
6
ByLayer
370
-2
48
1
60
0
100
AcDbLine
10
67
20
-20.052503
30
0
11
95.166667
21
-20.052503
31
0
39
0
210
0
220
0
230
1
0
LINE
5
14E
100
AcDbEntity
8
0
62
256
6
ByLayer
370
-2
48
1
60
0
100
AcDbLine
10
70.5
20
-20.052503
30
0
11
74
21
-20.052503
31
0
39
0
210
0
220
0
230
1
0
LINE
5
14F
100
AcDbEntity
8
0
62
256
6
ByLayer
370
-2
48
1
60
0
100
AcDbLine
10
61.3378
20
-20.052503
30
0
11
57.8378
21
-20.052503
31
0
39
0
210
0
220
0
230
1
0
SOLID
5
150
100
AcDbEntity
8
0
62
256
6
ByLayer
370
-1
48
1
60
0
100
AcDbTrace
10
70.5
20
-19.46917
30
0
11
70.5
21
-20.635837
31
0
12
67
22
-20.052503
32
0
13
67
23
-20.052503
33
0
39
0
210
0
220
0
230
1
0
SOLID
5
151
100
AcDbEntity
8
0
62
256
6
ByLayer
370
-1
48
1
60
0
100
AcDbTrace
10
61.3378
20
-20.635837
30
0
11
61.3378
21
-19.46917
31
0
12
64.8378
22
-20.052503
32
0
13
64.8378
23
-20.052503
33
0
39
0
210
0
220
0
230
1
0
MTEXT
5
152
100
AcDbEntity
8
0
62
256
6
ByLayer
370
18
48
1
60
0
100
AcDbMText
10
84.583333
20
-13.052503
30
0
210
0
220
0
230
1
1
\A1;2.16
40
3.5
41
0
44
1
50
0
71
5
72
5
7
iso_b_vert
0
POINT
5
153
100
AcDbEntity
8
Defpoints
62
0
6
ByLayer
370
-1
48
1
60
0
100
AcDbPoint
10
67
20
0
30
0
39
0
210
0
220
0
230
1
50
360
0
POINT
5
154
100
AcDbEntity
8
Defpoints
62
0
6
ByLayer
370
-1
48
1
60
0
100
AcDbPoint
10
64.8378
20
-7.25
30
0
39
0
210
0
220
0
230
1
50
360
0
POINT
5
155
100
AcDbEntity
8
Defpoints
62
0
6
ByLayer
370
-1
48
1
60
0
100
AcDbPoint
10
64.8378
20
-20.052503
30
0
39
0
210
0
220
0
230
1
50
360
0
ENDBLK
5
14A
100
AcDbEntity
8
0
100
AcDbBlockEnd
0
BLOCK
5
15D
100
AcDbEntity
8
0
100
AcDbBlockBegin
2
_U3
70
0
10
0
20
0
30
0
3
_U3
0
MTEXT
5
157
100
AcDbEntity
8
SK2
62
256
6
ByLayer
370
13
48
1
60
0
100
AcDbMText
10
73.589293
20
-19.01987
30
0
210
0
220
0
230
1
1
\W0.6367;2,16
40
3.5
41
0
44
1.084337
50
0
71
7
72
5
7
iso_b_vert
0
LINE
5
158
100
AcDbEntity
8
SK2
62
256
6
ByLayer
370
13
48
1
60
0
100
AcDbLine
10
67
20
-1.5875
30
0
11
67
21
-22.052503
31
0
39
0
210
0
220
0
230
1
0
LINE
5
159
100
AcDbEntity
8
SK2
62
256
6
ByLayer
370
13
48
1
60
0
100
AcDbLine
10
64.8378
20
-8.8375
30
0
11
64.8378
21
-22.052503
31
0
39
0
210
0
220
0
230
1
0
LINE
5
15A
100
AcDbEntity
8
SK2
62
256
6
ByLayer
370
13
48
1
60
0
100
AcDbLine
10
56.0878
20
-20.052503
30
0
11
80.559058
21
-20.052503
31
0
39
0
210
0
220
0
230
1
0
SOLID
5
15B
100
AcDbEntity
8
SK2
62
256
6
ByLayer
370
18
48
1
60
0
100
AcDbTrace
10
67
20
-20.052503
30
0
11
70.499998
21
-19.591719
31
0
12
70.500002
22
-20.513287
32
0
13
70.500002
23
-20.513287
33
0
39
0
210
0
220
0
230
1
0
SOLID
5
15C
100
AcDbEntity
8
SK2
62
256
6
ByLayer
370
18
48
1
60
0
100
AcDbTrace
10
64.8378
20
-20.052503
30
0
11
61.337802
21
-20.513287
31
0
12
61.337798
22
-19.591719
32
0
13
61.337798
23
-19.591719
33
0
39
0
210
0
220
0
230
1
0
ENDBLK
5
15E
100
AcDbEntity
8
0
100
AcDbBlockEnd
0
BLOCK
5
163
100
AcDbEntity
8
0
100
AcDbBlockBegin
2
*D9
70
1
10
0
20
0
30
0
3
*D9
0
LINE
5
165
100
AcDbEntity
8
0
62
256
6
ByLayer
370
-2
48
1
60
0
100
AcDbLine
10
-48
20
-9.5875
30
0
11
-48
21
-28.343428
31
0
39
0
210
0
220
0
230
1
0
LINE
5
166
100
AcDbEntity
8
0
62
256
6
ByLayer
370
-2
48
1
60
0
100
AcDbLine
10
64.8378
20
-8.8375
30
0
11
64.8378
21
-28.343428
31
0
39
0
210
0
220
0
230
1
0
LINE
5
167
100
AcDbEntity
8
0
62
256
6
ByLayer
370
-2
48
1
60
0
100
AcDbLine
10
-44.5
20
-26.343428
30
0
11
61.3378
21
-26.343428
31
0
39
0
210
0
220
0
230
1
0
SOLID
5
168
100
AcDbEntity
8
0
62
256
6
ByLayer
370
-1
48
1
60
0
100
AcDbTrace
10
-44.5
20
-25.760095
30
0
11
-44.5
21
-26.926762
31
0
12
-48
22
-26.343428
32
0
13
-48
23
-26.343428
33
0
39
0
210
0
220
0
230
1
0
SOLID
5
169
100
AcDbEntity
8
0
62
256
6
ByLayer
370
-1
48
1
60
0
100
AcDbTrace
10
61.3378
20
-26.926762
30
0
11
61.3378
21
-25.760095
31
0
12
64.8378
22
-26.343428
32
0
13
64.8378
23
-26.343428
33
0
39
0
210
0
220
0
230
1
0
MTEXT
5
16A
100
AcDbEntity
8
0
62
256
6
ByLayer
370
18
48
1
60
0
100
AcDbMText
10
8.4189
20
-19.343428
30
0
210
0
220
0
230
1
1
\A1;112.84
40
3.5
41
0
44
1
50
0
71
5
72
5
7
iso_b_vert
0
POINT
5
16B
100
AcDbEntity
8
Defpoints
62
0
6
ByLayer
370
-1
48
1
60
0
100
AcDbPoint
10
-48
20
-8
30
0
39
0
210
0
220
0
230
1
50
360
0
POINT
5
16C
100
AcDbEntity
8
Defpoints
62
0
6
ByLayer
370
-1
48
1
60
0
100
AcDbPoint
10
64.8378
20
-7.25
30
0
39
0
210
0
220
0
230
1
50
360
0
POINT
5
16D
100
AcDbEntity
8
Defpoints
62
0
6
ByLayer
370
-1
48
1
60
0
100
AcDbPoint
10
64.8378
20
-26.343428
30
0
39
0
210
0
220
0
230
1
50
360
0
ENDBLK
5
164
100
AcDbEntity
8
0
100
AcDbBlockEnd
0
BLOCK
5
175
100
AcDbEntity
8
0
100
AcDbBlockBegin
2
_U4
70
0
10
0
20
0
30
0
3
_U4
0
MTEXT
5
16F
100
AcDbEntity
8
SK2
62
256
6
ByLayer
370
13
48
1
60
0
100
AcDbMText
10
2.664468
20
-25.310795
30
0
210
0
220
0
230
1
1
\W0.6593;112,84
40
3.5
41
0
44
1.084337
50
0
71
7
72
5
7
iso_b_vert
0
LINE
5
170
100
AcDbEntity
8
SK2
62
256
6
ByLayer
370
13
48
1
60
0
100
AcDbLine
10
-48
20
-9.5875
30
0
11
-48
21
-28.343428
31
0
39
0
210
0
220
0
230
1
0
LINE
5
171
100
AcDbEntity
8
SK2
62
256
6
ByLayer
370
13
48
1
60
0
100
AcDbLine
10
64.8378
20
-8.8375
30
0
11
64.8378
21
-28.343428
31
0
39
0
210
0
220
0
230
1
0
LINE
5
172
100
AcDbEntity
8
SK2
62
256
6
ByLayer
370
13
48
1
60
0
100
AcDbLine
10
-48
20
-26.343428
30
0
11
64.8378
21
-26.343428
31
0
39
0
210
0
220
0
230
1
0
SOLID
5
173
100
AcDbEntity
8
SK2
62
256
6
ByLayer
370
18
48
1
60
0
100
AcDbTrace
10
-48
20
-26.343428
30
0
11
-44.500002
21
-25.882645
31
0
12
-44.499998
22
-26.804212
32
0
13
-44.499998
23
-26.804212
33
0
39
0
210
0
220
0
230
1
0
SOLID
5
174
100
AcDbEntity
8
SK2
62
256
6
ByLayer
370
18
48
1
60
0
100
AcDbTrace
10
64.8378
20
-26.343428
30
0
11
61.337802
21
-26.804212
31
0
12
61.337798
22
-25.882645
32
0
13
61.337798
23
-25.882645
33
0
39
0
210
0
220
0
230
1
0
ENDBLK
5
176
100
AcDbEntity
8
0
100
AcDbBlockEnd
0
ENDSEC
0
SECTION
2
ENTITIES
0
ARC
5
A9
100
AcDbEntity
8
1
62
256
6
ByLayer
370
18
48
1
60
0
100
AcDbCircle
39
0
10
1.379614
20
8.010348
30
0
40
0.8
210
0
220
0
230
1
100
AcDbArc
50
210.428828
51
270.03581
0
ARC
5
AA
100
AcDbEntity
8
1
62
256
6
ByLayer
370
18
48
1
60
0
100
AcDbCircle
39
0
10
0
20
-7.2
30
0
40
0.800000000000001
210
0
220
0
230
1
100
AcDbArc
50
270
51
329.571172
0
ARC
5
AB
100
AcDbEntity
8
1
62
256
6
ByLayer
370
18
48
1
60
0
100
AcDbCircle
39
0
10
1.379614
20
-8.010348
30
0
40
0.8
210
0
220
0
230
1
100
AcDbArc
50
89.96419
51
149.571172
0
ARC
5
AC
100
AcDbEntity
8
1
62
256
6
ByLayer
370
18
48
1
60
0
100
AcDbCircle
39
0
10
0
20
7.2
30
0
40
0.800000000000001
210
0
220
0
230
1
100
AcDbArc
50
30.428828
51
90
0
ELLIPSE
5
AD
100
AcDbEntity
8
1
62
256
6
ByLayer
370
13
48
1
60
0
100
AcDbEllipse
10
4.182674
20
-2.714175
30
0
11
-0.0252467073476801
21
-0.0967605486140948
31
0
210
0
220
0
230
1
40
0.535789
41
-1.79634048074795
42
-0.438894500150684
0
ELLIPSE
5
AE
100
AcDbEntity
8
1
62
256
6
ByLayer
370
13
48
1
60
0
100
AcDbEllipse
10
4.250129
20
-2.738868
30
0
11
0.0418610391843477
21
0.0908165920876054
31
0
210
0
220
0
230
1
40
0.175889
41
1.20434207382522
42
2.76395128911743
0
POINT
5
70
100
AcDbEntity
8
80
62
256
6
ByLayer
370
18
48
1
60
0
100
AcDbPoint
10
0
20
0
30
0
39
0
210
0
220
0
230
1
50
360
0
POINT
5
72
100
AcDbEntity
8
81
62
256
6
ByLayer
370
18
48
1
60
0
100
AcDbPoint
10
67
20
0
30
0
39
0
210
0
220
0
230
1
50
360
0
POINT
5
74
100
AcDbEntity
8
1
62
256
6
ByLayer
370
18
48
1
60
1
100
AcDbPoint
10
64.8378
20
-7.25
30
0
39
0
210
0
220
0
230
1
50
360
0
POINT
5
76
100
AcDbEntity
8
1
62
256
6
ByLayer
370
18
48
1
60
1
100
AcDbPoint
10
-48
20
-8
30
0
39
0
210
0
220
0
230
1
50
360
0
POINT
5
77
100
AcDbEntity
8
1
62
256
6
ByLayer
370
18
48
1
60
1
100
AcDbPoint
10
21.34
20
7.25
30
0
39
0
210
0
220
0
230
1
50
360
0
POINT
5
78
100
AcDbEntity
8
1
62
256
6
ByLayer
370
18
48
1
60
1
100
AcDbPoint
10
64.8378
20
-7.25
30
0
39
0
210
0
220
0
230
1
50
360
0
POINT
5
79
100
AcDbEntity
8
1
62
256
6
ByLayer
370
18
48
1
60
1
100
AcDbPoint
10
-48
20
-8
30
0
39
0
210
0
220
0
230
1
50
360
0
POINT
5
7A
100
AcDbEntity
8
1
62
256
6
ByLayer
370
18
48
1
60
1
100
AcDbPoint
10
64.8378
20
-7.25
30
0
39
0
210
0
220
0
230
1
50
360
0
SPLINE
5
AF
100
AcDbEntity
8
1
62
256
6
ByLayer
370
18
48
1
60
0
100
AcDbSpline
70
4
71
3
72
36
73
32
40
0
40
0
40
0
40
0
40
0.0664042644436892
40
0.0664042644436892
40
0.105304086758536
40
0.105304086758536
40
0.144203909073383
40
0.144203909073383
40
0.222003553703077
40
0.222003553703077
40
0.299803198332771
40
0.299803198332771
40
0.338703020647618
40
0.338703020647618
40
0.377602842962465
40
0.377602842962465
40
0.455402487592157
40
0.455402487592157
40
0.533202132221849
40
0.533202132221849
40
0.611001776851541
40
0.611001776851541
40
0.688801421481233
40
0.688801421481233
40
0.766601066110924
40
0.766601066110924
40
0.844400710740616
40
0.844400710740616
40
0.922200355370308
40
0.922200355370308
40
1
40
1
40
1
40
1
41
1
10
41.270738437761
20
6.86723851754883
30
0
41
1
10
41.6329811011274
20
6.86281120156482
30
0
41
1
10
41.995439127348
20
6.85168636909285
30
0
41
1
10
42.5706690203744
20
6.82419811033199
30
0
41
1
10
42.7834199238077
20
6.81233680111654
30
0
41
1
10
43.2084856166389
20
6.78257215358445
30
0
41
1
10
43.4208445977611
20
6.76474880332606
30
0
41
1
10
44.0575426063642
20
6.70364913320608
30
0
41
1
10
44.4814872907839
20
6.65306383602666
30
0
41
1
10
45.3288435515645
20
6.53394846018918
30
0
41
1
10
45.7525981125953
20
6.4655211464605
30
0
41
1
10
46.3888953718346
20
6.35116773565696
30
0
41
1
10
46.6010557629429
20
6.31116185245011
30
0
41
1
10
47.025459088653
20
6.22560898032347
30
0
41
1
10
47.237716081819
20
6.18016760831321
30
0
41
1
10
47.8747946782685
20
6.03688490106444
30
0
41
1
10
48.3000146807489
20
5.93281019926153
30
0
41
1
10
49.149019359479
20
5.70880809729195
30
0
41
1
10
49.5730937181123
20
5.58895986908729
30
0
41
1
10
50.4207036787398
20
5.3351476665905
30
0
41
1
10
50.8444022494183
20
5.20019368546775
30
0
41
1
10
51.6926763114561
20
4.91504933960772
30
0
41
1
10
52.1170568037752
20
4.76509397693582
30
0
41
1
10
52.9666122814903
20
4.45167769841561
30
0
41
1
10
53.3918064555569
20
4.28884492099678
30
0
41
1
10
54.2410070958676
20
3.95362494057096
30
0
41
1
10
54.665082238247
20
3.78007188606583
30
0
41
1
10
55.5125347852133
20
3.42171930536082
30
0
41
1
10
55.9361821666694
20
3.23765231667764
30
0
41
1
10
56.7844280344274
20
2.86062466271065
30
0
41
1
10
57.2088085170034
20
2.66739728769454
30
0
41
1
10
57.6336061997706
20
2.47027339740006
30
0
0
SPLINE
5
B0
100
AcDbEntity
8
1
62
256
6
ByLayer
370
13
48
1
60
0
100
AcDbSpline
70
4
71
3
72
8
73
4
40
0
40
0
40
0
40
0
40
1
40
1
40
1
40
1
41
1
10
4.2502152666668
20
-2.69945379978066
30
0
41
1
10
4.21114213923445
20
-2.68879766780097
30
0
41
1
10
4.17302132321663
20
-2.68198433627848
30
0
41
1
10
4.1377898020703
20
-2.67935105132693
30
0
0
SPLINE
5
B1
100
AcDbEntity
8
1
62
256
6
ByLayer
370
18
48
1
60
0
100
AcDbSpline
70
4
71
3
72
8
73
4
40
0
40
0
40
0
40
0
40
1
40
1
40
1
40
1
41
1
10
66.9999698296631
20
0.048195348357325
30
0
41
1
10
67.0000100586681
20
0.0160636071376246
30
0
41
1
10
67.0000100548898
20
-0.016066624956153
30
0
41
1
10
66.9999698296631
20
-0.0481953483493385
30
0
0
SPLINE
5
B2
100
AcDbEntity
8
1
62
256
6
ByLayer
370
18
48
1
60
0
100
AcDbSpline
70
4
71
3
72
8
73
4
40
0
40
0
40
0
40
0
40
1
40
1
40
1
40
1
41
1
10
16.8812394935925
20
-7.19652482529969
30
0
41
1
10
17.2570819904649
20
-7.21267720979904
30
0
41
1
10
17.6324280869613
20
-7.22064867183579
30
0
41
1
10
18.0070404201977
20
-7.22074891012869
30
0
0
SPLINE
5
B3
100
AcDbEntity
8
1
62
256
6
ByLayer
370
18
48
1
60
0
100
AcDbSpline
70
4
71
3
72
33
73
29
40
0
40
0
40
0
40
0
40
0.0341793696870442
40
0.0341793696870442
40
0.141492773055152
40
0.141492773055152
40
0.248806176423259
40
0.248806176423259
40
0.302462878107312
40
0.302462878107312
40
0.356119579791364
40
0.356119579791364
40
0.46343298315947
40
0.46343298315947
40
0.517089684843523
40
0.517089684843523
40
0.570746386527577
40
0.570746386527577
40
0.678059789895685
40
0.678059789895685
40
0.731716491579737
40
0.731716491579737
40
0.78537319326379
40
0.839029894947842
40
0.839029894947842
40
0.892686596631895
40
0.892686596631895
40
1
40
1
40
1
40
1
41
1
10
50.8722707226133
20
5.19878240965076
30
0
41
1
10
51.0307492815209
20
5.25649668020478
30
0
41
1
10
51.1892196068397
20
5.31308696189365
30
0
41
1
10
51.8451528054557
20
5.54282107880502
30
0
41
1
10
52.342324905545
20
5.70643920031125
30
0
41
1
10
53.3352259326772
20
6.01313267660078
30
0
41
1
10
53.8324337889217
20
6.15447828154191
30
0
41
1
10
54.5795200027481
20
6.34853117078725
30
0
41
1
10
54.8287238763705
20
6.4102568889717
30
0
41
1
10
55.3272291711644
20
6.52793994863461
30
0
41
1
10
55.5764761660352
20
6.58392482901354
30
0
41
1
10
56.3260060139121
20
6.7417009867259
30
0
41
1
10
56.8277869188834
20
6.83367926930936
30
0
41
1
10
57.5827931889706
20
6.95218398896068
30
0
41
1
10
57.8347855674571
20
6.98848496720885
30
0
41
1
10
58.3370943816498
20
7.05392638275833
30
0
41
1
10
58.5879532478308
20
7.08302869670214
30
0
41
1
10
59.3398541736982
20
7.15964096292367
30
0
41
1
10
59.8401429546966
20
7.19658619296436
30
0
41
1
10
60.5879124358533
20
7.23120210290915
30
0
41
1
10
60.8368170470189
20
7.23921856929962
30
0
41
1
10
61.3348883740641
20
7.24816010234707
30
0
41
1
10
61.8330268400923
20
7.25006172169429
30
0
41
1
10
62.3310243696126
20
7.23803240151096
30
0
41
1
10
62.8287851396864
20
7.21898710024578
30
0
41
1
10
63.0773950516801
20
7.20591581914798
30
0
41
1
10
63.8237339710241
20
7.15619663672243
30
0
41
1
10
64.3225342151185
20
7.10930970027113
30
0
41
1
10
64.8221081978675
20
7.04858939272532
30
0
0
SPLINE
5
B4
100
AcDbEntity
8
1
62
256
6
ByLayer
370
18
48
1
60
0
100
AcDbSpline
70
4
71
3
72
8
73
4
40
0
40
0
40
0
40
0
40
1
40
1
40
1
40
1
41
1
10
64.8221081978672
20
-7.04858939272552
30
0
41
1
10
64.6829928253603
20
-7.15303923281772
30
0
41
1
10
64.559076091452
20
-7.21719345048822
30
0
41
1
10
64.4490221696742
20
-7.24020357159634
30
0
0
SPLINE
5
B5
100
AcDbEntity
8
1
62
256
6
ByLayer
370
18
48
1
60
0
100
AcDbSpline
70
4
71
3
72
18
73
14
40
0
40
0
40
0
40
0
40
0.125000000000006
40
0.125000000000006
40
0.250000000000013
40
0.250000000000013
40
0.375000000000019
40
0.375000000000019
40
0.500000000000026
40
0.500000000000026
40
0.750000000000013
40
0.750000000000013
40
1
40
1
40
1
40
1
41
1
10
4.25052136546606
20
6.50021627918815
30
0
41
1
10
4.2362729995798
20
6.50431683858076
30
0
41
1
10
4.22150583563109
20
6.50924076379013
30
0
41
1
10
4.19050933026588
20
6.52135023091179
30
0
41
1
10
4.17416600854341
20
6.52860761230323
30
0
41
1
10
4.14124048681543
20
6.54560695606125
30
0
41
1
10
4.12434217751525
20
6.55555136995278
30
0
41
1
10
4.09268306052476
20
6.57723090389479
30
0
41
1
10
4.07797750989681
20
6.58892628329639
30
0
41
1
10
4.03998425586619
20
6.62411686244911
30
0
41
1
10
4.02381471547116
20
6.64641032025449
30
0
41
1
10
4.00400158184243
20
6.68567941696361
30
0
41
1
10
4.00000002109925
20
6.70321358781121
30
0
41
1
10
4.00000002110008
20
6.71878852193035
30
0
0
SPLINE
5
B6
100
AcDbEntity
8
1
62
256
6
ByLayer
370
13
48
1
60
0
100
AcDbSpline
70
4
71
3
72
12
73
8
40
0
40
0
40
0
40
0
40
0.500000000000016
40
0.500000000000016
40
0.750000000000008
40
0.750000000000008
40
1
40
1
40
1
40
1
41
1
10
4.00000002110011
20
-2.64404060405903
30
0
41
1
10
4.00000002110011
20
-2.65136709239812
30
0
41
1
10
4.01204648337244
20
-2.65866628591826
30
0
41
1
10
4.04679476341317
20
-2.66781163862672
30
0
41
1
10
4.06136818144981
20
-2.67064702200341
30
0
41
1
10
4.0958993332728
20
-2.67559723775972
30
0
41
1
10
4.11548897505941
20
-2.67768423620609
30
0
41
1
10
4.1377898020703
20
-2.67935105132693
30
0
0
SPLINE
5
B7
100
AcDbEntity
8
1
62
256
6
ByLayer
370
18
48
1
60
0
100
AcDbSpline
70
4
71
3
72
8
73
4
40
0
40
0
40
0
40
0
40
1
40
1
40
1
40
1
41
1
10
66.9891396118988
20
0.134054566525918
30
0
41
1
10
66.9898679336176
20
0.109224510532101
30
0
41
1
10
66.993920101356
20
0.0796231710370989
30
0
41
1
10
66.999969829661
20
0.0481953483603661
30
0
0
SPLINE
5
B8
100
AcDbEntity
8
1
62
256
6
ByLayer
370
18
48
1
60
0
100
AcDbSpline
70
4
71
3
72
16
73
12
40
0
40
0
40
0
40
0
40
0.103874247592042
40
0.103874247592042
40
0.207748495184084
40
0.207748495184084
40
0.415496990368168
40
0.415496990368168
40
0.830993980736337
40
0.830993980736337
40
1
40
1
40
1
40
1
41
1
10
64.5648723400923
20
-6.88082790446717
30
0
41
1
10
64.2489269814806
20
-6.88756723310979
30
0
41
1
10
63.9330248169364
20
-6.88889565976129
30
0
41
1
10
63.3010365449685
20
-6.88077310353498
30
0
41
1
10
62.9847882935185
20
-6.87130415392335
30
0
41
1
10
62.0388432188467
20
-6.82698894217765
30
0
41
1
10
61.4108777277622
20
-6.77626632895641
30
0
41
1
10
59.5316177318874
20
-6.56317520939334
30
0
41
1
10
58.2847135882637
20
-6.33989068035612
30
0
41
1
10
56.5268810336621
20
-5.92061854541834
30
0
41
1
10
56.0181458541413
20
-5.78713606211431
30
0
41
1
10
55.5083352951966
20
-5.64196471599837
30
0
0
SPLINE
5
B9
100
AcDbEntity
8
1
62
256
6
ByLayer
370
13
48
1
60
0
100
AcDbSpline
70
4
71
3
72
28
73
24
40
0
40
0
40
0
40
0
40
0.126653452135248
40
0.126653452135248
40
0.233399998586787
40
0.233399998586787
40
0.340146545038327
40
0.340146545038327
40
0.553639637941404
40
0.553639637941404
40
0.660386184392944
40
0.660386184392944
40
0.713759457618712
40
0.713759457618712
40
0.767132730844481
40
0.767132730844481
40
0.873879277296019
40
0.873879277296019
40
0.927252550521787
40
0.927252550521787
40
0.980625823747554
40
0.980625823747554
40
1
40
1
40
1
40
1
41
1
10
55.5083356507545
20
-5.64196481724539
30
0
41
1
10
54.7647898278996
20
-5.43023608355449
30
0
41
1
10
54.0189565135374
20
-5.19364340172348
30
0
41
1
10
52.6368234483117
20
-4.71504510636893
30
0
41
1
10
52.0071036846829
20
-4.48152458453461
30
0
41
1
10
50.7525215697991
20
-3.99035673758763
30
0
41
1
10
50.1271926615598
20
-3.73271408489262
30
0
41
1
10
48.2539259993114
20
-2.92941559678789
30
0
41
1
10
47.0088463951523
20
-2.35313282789591
30
0
41
1
10
45.1333299822796
20
-1.4533532201296
30
0
41
1
10
44.5068895771274
20
-1.1474465654313
30
0
41
1
10
43.5635686387011
20
-0.682978047630797
30
0
41
1
10
43.248515042216
20
-0.527225543909879
30
0
41
1
10
42.6168637213915
20
-0.214532607502889
30
0
41
1
10
42.3004544940643
20
-0.0576476864623032
30
0
41
1
10
41.3529494011
20
0.412060947693845
30
0
41
1
10
40.7221211503258
20
0.724503106563247
30
0
41
1
10
39.7753288920767
20
1.18847022918297
30
0
41
1
10
39.4596427493659
20
1.34234919692494
30
0
41
1
10
38.8277923754965
20
1.64795202853071
30
0
41
1
10
38.5114368864735
20
1.79976836099007
30
0
41
1
10
38.0807524998529
20
2.00438664124584
30
0
41
1
10
37.96608470769
20
2.0586655100621
30
0
41
1
10
37.8514427091337
20
2.11271552808466
30
0
0
SPLINE
5
BA
100
AcDbEntity
8
1
62
256
6
ByLayer
370
18
48
1
60
0
100
AcDbSpline
70
4
71
3
72
14
73
10
40
0
40
0
40
0
40
0
40
0.25
40
0.25
40
0.5
40
0.5
40
0.75
40
0.75
40
1
40
1
40
1
40
1
41
1
10
64.8221081978622
20
-7.04858939274013
30
0
41
1
10
64.984996546343
20
-6.58986042181749
30
0
41
1
10
65.1512071728833
20
-6.13317615486079
30
0
41
1
10
65.4896094866768
20
-5.22325760174778
30
0
41
1
10
65.6618493897462
20
-4.77005155668971
30
0
41
1
10
66.0117271906509
20
-3.86658431448299
30
0
41
1
10
66.1893971409522
20
-3.41634188934876
30
0
41
1
10
66.5497330473819
20
-2.51845557291492
30
0
41
1
10
66.7324229580845
20
-2.0708254338355
30
0
41
1
10
66.9175093909283
20
-1.62439365721326
30
0
0
SPLINE
5
BB
100
AcDbEntity
8
1
62
256
6
ByLayer
370
18
48
1
60
0
100
AcDbSpline
70
4
71
3
72
18
73
14
40
0
40
0
40
0
40
0
40
0.250000000000001
40
0.250000000000001
40
0.375000000000001
40
0.375000000000001
40
0.500000000000002
40
0.500000000000002
40
0.750000000000001
40
0.750000000000001
40
0.875
40
0.875
40
1
40
1
40
1
40
1
41
1
10
63.9828206863707
20
-5.45287822402199
30
0
41
1
10
63.9828972573137
20
-5.70105921382586
30
0
41
1
10
63.9946728930016
20
-5.91827503090306
30
0
41
1
10
64.0304244589533
20
-6.19852541328575
30
0
41
1
10
64.0453795500101
20
-6.28430286924123
30
0
41
1
10
64.0817502957556
20
-6.44018605736662
30
0
41
1
10
64.1030199611487
20
-6.50952122158134
30
0
41
1
10
64.1755535965497
20
-6.69061164263456
30
0
41
1
10
64.2356837481713
20
-6.77659463269012
30
0
41
1
10
64.3449236079797
20
-6.85460043669769
30
0
41
1
10
64.3846716313615
20
-6.87207821830182
30
0
41
1
10
64.470297132637
20
-6.88947188356715
30
0
41
1
10
64.5160585505824
20
-6.8894351352738
30
0
41
1
10
64.5648723399954
20
-6.8808279044662
30
0
0
SPLINE
5
BC
100
AcDbEntity
8
1
62
256
6
ByLayer
370
18
48
1
60
0
100
AcDbSpline
70
4
71
3
72
8
73
4
40
0
40
0
40
0
40
0
40
1
40
1
40
1
40
1
41
1
10
64.8221081978671
20
7.0485893927256
30
0
41
1
10
64.6829928253603
20
7.15303923281775
30
0
41
1
10
64.559076091452
20
7.21719345048822
30
0
41
1
10
64.4490221696742
20
7.24020357159634
30
0
0
SPLINE
5
BD
100
AcDbEntity
8
1
62
256
6
ByLayer
370
18
48
1
60
0
100
AcDbSpline
70
4
71
3
72
22
73
18
40
0
40
0
40
0
40
0
40
0.135917172089978
40
0.135917172089978
40
0.250093604809904
40
0.250093604809904
40
0.307181821169867
40
0.307181821169867
40
0.364270037529831
40
0.364270037529831
40
0.592622902969683
40
0.592622902969683
40
0.820975768409536
40
0.820975768409536
40
0.935152201129463
40
0.935152201129463
40
1
40
1
40
1
40
1
41
1
10
16.8812394935925
20
7.19652482530597
30
0
41
1
10
16.8812394935925
20
6.90326511915717
30
0
41
1
10
16.8812394935925
20
6.61062518305263
30
0
41
1
10
16.8812394935925
20
6.07325367438787
30
0
41
1
10
16.8812394935925
20
5.82834857505938
30
0
41
1
10
16.8812394935925
20
5.46162504607742
30
0
41
1
10
16.8812394935924
20
5.3394896779173
30
0
41
1
10
16.8812394935924
20
5.0954317858731
30
0
41
1
10
16.8812394935925
20
4.97356598841017
30
0
41
1
10
16.8812394935925
20
4.37035023431991
30
0
41
1
10
16.8812394935925
20
3.9027036671167
30
0
41
1
10
16.8812394935925
20
2.99503362802761
30
0
41
1
10
16.8812394935925
20
2.55502539669058
30
0
41
1
10
16.8812394935925
20
1.91557376776731
30
0
41
1
10
16.8812394935925
20
1.70545469847946
30
0
41
1
10
16.8812394935925
20
1.38430334915475
30
0
41
1
10
16.8812394935924
20
1.26950579985984
30
0
41
1
10
16.8812394935924
20
1.15636682531246
30
0
0
SPLINE
5
BE
100
AcDbEntity
8
1
62
256
6
ByLayer
370
18
48
1
60
0
100
AcDbSpline
70
4
71
3
72
10
73
6
40
0
40
0
40
0
40
0
40
0.651676535653803
40
0.651676535653803
40
1
40
1
40
1
40
1
41
1
10
4.2053278531188
20
-2.82057053446383
30
0
41
1
10
5.47099457264042
20
-3.40062861094731
30
0
41
1
10
6.72707170557976
20
-3.94142647826359
30
0
41
1
10
8.6548685553667
20
-4.68727360777365
30
0
41
1
10
9.32627464575648
20
-4.93163866294472
30
0
41
1
10
9.99910560520848
20
-5.15828349777024
30
0
0
SPLINE
5
BF
100
AcDbEntity
8
1
62
256
6
ByLayer
370
13
48
1
60
0
100
AcDbSpline
70
4
71
3
72
22
73
18
40
0
40
0
40
0
40
0
40
0.139495629446668
40
0.139495629446668
40
0.214413305322318
40
0.214413305322318
40
0.289330981197968
40
0.289330981197968
40
0.439166332949267
40
0.439166332949267
40
0.738837036451861
40
0.738837036451861
40
0.888672388203158
40
0.888672388203158
40
0.963590064078805
40
0.963590064078805
40
1
40
1
40
1
40
1
41
1
10
9.9991056004084
20
-5.15828349615333
30
0
41
1
10
10.5850705423884
20
-5.35566729021576
30
0
41
1
10
11.1721161871979
20
-5.53961104770346
30
0
41
1
10
12.077641140004
20
-5.79936147306205
30
0
41
1
10
12.3941684023817
20
-5.88568477472845
30
0
41
1
10
13.0251211867171
20
-6.0485435357306
30
0
41
1
10
13.3399350947692
20
-6.1251918490492
30
0
41
1
10
14.2828605350149
20
-6.34052596663793
30
0
41
1
10
14.9095187171242
20
-6.46457703348887
30
0
41
1
10
16.7867264588973
20
-6.77592897298942
30
0
41
1
10
18.0349474496377
20
-6.90243114172171
30
0
41
1
10
19.915316469789
20
-6.96472853304164
30
0
41
1
10
20.5435216863404
20
-6.96432012223738
30
0
41
1
10
21.4897766498678
20
-6.93113832049741
30
0
41
1
10
21.8062348830447
20
-6.91460409542429
30
0
41
1
10
22.2762287514176
20
-6.88202070753073
30
0
41
1
10
22.4297647051132
20
-6.87010377305583
30
0
41
1
10
22.5831418652636
20
-6.85694153095804
30
0
0
SPLINE
5
C0
100
AcDbEntity
8
1
62
256
6
ByLayer
370
18
48
1
60
0
100
AcDbSpline
70
4
71
3
72
8
73
4
40
0
40
0
40
0
40
0
40
1
40
1
40
1
40
1
41
1
10
64.5560164081288
20
-6.97466645087363
30
0
41
1
10
64.5204267679578
20
-7.06332209209623
30
0
41
1
10
64.4847601000371
20
-7.1518335392845
30
0
41
1
10
64.4490221696742
20
-7.24020357159634
30
0
0
SPLINE
5
C1
100
AcDbEntity
8
1
62
256
6
ByLayer
370
13
48
1
60
0
100
AcDbSpline
70
4
71
3
72
34
73
30
40
0
40
0
40
0
40
0
40
0.125
40
0.125
40
0.15625
40
0.15625
40
0.1875
40
0.1875
40
0.25
40
0.3125
40
0.3125
40
0.375
40
0.375
40
0.5
40
0.5
40
0.5625
40
0.5625
40
0.625
40
0.625
40
0.65625
40
0.65625
40
0.6875
40
0.6875
40
0.75
40
0.8125
40
0.8125
40
0.875
40
0.875
40
1
40
1
40
1
40
1
41
1
10
4.25021526666683
20
-2.69945379978066
30
0
41
1
10
4.25023222050831
20
-2.26171290596994
30
0
41
1
10
4.25024163715523
20
-1.81008016473552
30
0
41
1
10
4.25024809239306
20
-1.22835906554232
30
0
41
1
10
4.25024911766405
20
-1.11084843294347
30
0
41
1
10
4.25025072136418
20
-0.875902812007695
30
0
41
1
10
4.25025130178184
20
-0.7584458128037
30
0
41
1
10
4.25025254885878
20
-0.406121332380167
30
0
41
1
10
4.25025290019281
20
0.0635208375016703
30
0
41
1
10
4.25025228071809
20
0.532919010700368
30
0
41
1
10
4.2502519409889
20
1.00219306742071
30
0
41
1
10
4.2502519153947
20
1.23806714395457
30
0
41
1
10
4.25025331950673
20
1.93150299780461
30
0
41
1
10
4.25025626340496
20
2.37736577925429
30
0
41
1
10
4.25026667297004
20
3.02187227082044
30
0
41
1
10
4.2502711461027
20
3.23320918554916
30
0
41
1
10
4.25028236884904
20
3.64474092963292
30
0
41
1
10
4.25028907804807
20
3.84369150916419
30
0
41
1
10
4.25030087446532
20
4.13191022418576
30
0
41
1
10
4.25030510179266
20
4.22640034864799
30
0
41
1
10
4.250314060976
20
4.41047682474277
30
0
41
1
10
4.25031879889445
20
4.50023630055506
30
0
41
1
10
4.25033375465227
20
4.76280042125453
30
0
41
1
10
4.25035567996872
20
5.095015664393
30
0
41
1
10
4.25038107857864
20
5.39191041820064
30
0
41
1
10
4.25040785798666
20
5.67078585259483
30
0
41
1
10
4.25042200688711
20
5.80166601512923
30
0
41
1
10
4.2504648181779
20
6.15837288903381
30
0
41
1
10
4.25049411283484
20
6.35146072938636
30
0
41
1
10
4.25052136546606
20
6.50021627918815
30
0
0
SPLINE
5
C2
100
AcDbEntity
8
1
62
256
6
ByLayer
370
18
48
1
60
0
100
AcDbSpline
70
4
71
3
72
20
73
16
40
0
40
0
40
0
40
0
40
0.0810313074280897
40
0.0810313074280897
40
0.1652632922833
40
0.1652632922833
40
0.333727261993721
40
0.333727261993721
40
0.670655201414562
40
0.670655201414562
40
0.839119171124981
40
0.839119171124981
40
0.923351155980191
40
0.923351155980191
40
1
40
1
40
1
40
1
41
1
10
41.9992856745141
20
-0.0189092130111419
30
0
41
1
10
42.3033871263831
20
-0.171856977089448
30
0
41
1
10
42.6079951239455
20
-0.325022517687444
30
0
41
1
10
43.2279958005383
20
-0.636143935522199
30
0
41
1
10
43.5432212915802
20
-0.794009729745568
30
0
41
1
10
44.4870333860236
20
-1.26451528674039
30
0
41
1
10
45.1137609067165
20
-1.57406515201765
30
0
41
1
10
46.9900552793541
20
-2.48362286664238
30
0
41
1
10
48.2355888470105
20
-3.06483663260443
30
0
41
1
10
50.1097758720537
20
-3.8730334570065
30
0
41
1
10
50.7354360399821
20
-4.13191282069295
30
0
41
1
10
51.6769974074309
20
-4.5014694437109
30
0
41
1
10
51.9913786034003
20
-4.62149701381614
30
0
41
1
10
52.5931273182104
20
-4.84420772382342
30
0
41
1
10
52.8805980441982
20
-4.94755562206689
30
0
41
1
10
53.168327625366
20
-5.04771683374483
30
0
0
SPLINE
5
C3
100
AcDbEntity
8
1
62
256
6
ByLayer
370
13
48
1
60
0
100
AcDbSpline
70
4
71
3
72
18
73
14
40
0
40
0
40
0
40
0
40
0.0074463736037125
40
0.0074463736037125
40
0.338297582402475
40
0.338297582402475
40
0.669148791201237
40
0.669148791201237
40
0.834574395600619
40
0.834574395600619
40
0.917287197800309
40
0.917287197800309
40
1
40
1
40
1
40
1
41
1
10
53.1683276252784
20
-5.0477168337143
30
0
41
1
10
53.1967937289314
20
-5.0576261361297
30
0
41
1
10
53.2252623662183
20
-5.06750424775507
30
0
41
1
10
54.5187185767718
20
-5.51484270916876
30
0
41
1
10
55.7715950753203
20
-5.88474358902945
30
0
41
1
10
58.2718130826047
20
-6.4729401293333
30
0
41
1
10
59.5192173625945
20
-6.69057790417145
30
0
41
1
10
61.3996537383311
20
-6.89282301835735
30
0
41
1
10
62.0280743753717
20
-6.93954609361413
30
0
41
1
10
62.9748148638152
20
-6.97727374678954
30
0
41
1
10
63.2913290357786
20
-6.98444521164564
30
0
41
1
10
63.9237470796196
20
-6.98778968251651
30
0
41
1
10
64.2398603997661
20
-6.98398024904833
30
0
41
1
10
64.5560164080513
20
-6.97466645083588
30
0
0
SPLINE
5
C4
100
AcDbEntity
8
1
62
256
6
ByLayer
370
18
48
1
60
0
100
AcDbSpline
70
4
71
3
72
38
73
34
40
0
40
0
40
0
40
0
40
0.124999999999992
40
0.124999999999992
40
0.249999999999984
40
0.249999999999984
40
0.374999999999975
40
0.374999999999975
40
0.499999999999967
40
0.499999999999967
40
0.562499999999963
40
0.562499999999963
40
0.624999999999959
40
0.624999999999959
40
0.74999999999995
40
0.74999999999995
40
0.812499999999946
40
0.812499999999946
40
0.843749999999946
40
0.843749999999946
40
0.851562499999946
40
0.851562499999946
40
0.859374999999946
40
0.859374999999946
40
0.863281249999947
40
0.863281249999947
40
0.867187499999948
40
0.867187499999948
40
0.87109374999995
40
0.87109374999995
40
0.874999999999951
40
0.874999999999951
40
1
40
1
40
1
40
1
41
1
10
57.6336061997707
20
2.47027339739998
30
0
41
1
10
57.924573643519
20
2.21915470080509
30
0
41
1
10
58.2230462214717
20
1.9845839219588
30
0
41
1
10
58.8355439246273
20
1.54973385934952
30
0
41
1
10
59.1497430260676
20
1.34911500483639
30
0
41
1
10
59.7932746512275
20
0.984188517138989
30
0
41
1
10
60.1172577234527
20
0.822815353785813
30
0
41
1
10
60.7698778416752
20
0.544336590282825
30
0
41
1
10
61.0985352621219
20
0.427424787363094
30
0
41
1
10
61.595399363782
20
0.288943480350923
30
0
41
1
10
61.7616686018218
20
0.248945447792522
30
0
41
1
10
62.0956106465484
20
0.182299815409891
30
0
41
1
10
62.2630718247225
20
0.155756835179204
30
0
41
1
10
62.7610691034626
20
0.0990056508123018
30
0
41
1
10
63.0897781146769
20
0.0911218800379174
30
0
41
1
10
63.5744133853597
20
0.13418487232687
30
0
41
1
10
63.7338818592419
20
0.157621089470268
30
0
41
1
10
63.9687589799066
20
0.20742384848748
30
0
41
1
10
64.0463291510067
20
0.226467226510522
30
0
41
1
10
64.1422235293709
20
0.253426342936564
30
0
41
1
10
64.161351068695
20
0.258976530290369
30
0
41
1
10
64.199482619958
20
0.270391153146846
30
0
41
1
10
64.2188613228723
20
0.275332499088108
30
0
41
1
10
64.2465596539856
20
0.286097248170762
30
0
41
1
10
64.2555536428511
20
0.290269989881978
30
0
41
1
10
64.2723954035603
20
0.301421117706013
30
0
41
1
10
64.2801065431486
20
0.308566282748018
30
0
41
1
10
64.2929403104994
20
0.32549972319427
30
0
41
1
10
64.2981607602214
20
0.335492854437376
30
0
41
1
10
64.3042163150851
20
0.357855927698978
30
0
41
1
10
64.3054380643616
20
0.370186418283737
30
0
41
1
10
64.3495422801851
20
0.771259665191451
30
0
41
1
10
64.3523300846741
20
1.17517637492279
30
0
41
1
10
64.3288330215872
20
1.57886517192568
30
0
0
SPLINE
5
C5
100
AcDbEntity
8
1
62
256
6
ByLayer
370
13
48
1
60
0
100
AcDbSpline
70
4
71
3
72
8
73
4
40
0
40
0
40
0
40
0
40
1
40
1
40
1
40
1
41
1
10
4.13462029030845
20
-2.89367449604725
30
0
41
1
10
4.13566530098882
20
-2.8611336137192
30
0
41
1
10
4.13672180120133
20
-2.82858104722516
30
0
41
1
10
4.1377898020703
20
-2.79601623869783
30
0
0
SPLINE
5
C6
100
AcDbEntity
8
1
62
256
6
ByLayer
370
18
48
1
60
0
100
AcDbSpline
70
4
71
3
72
8
73
4
40
0
40
0
40
0
40
0
40
1
40
1
40
1
40
1
41
1
10
66.9504566832478
20
-0.0806854014559235
30
0
41
1
10
65.8934004740124
20
-1.80978520730665
30
0
41
1
10
64.9033977035462
20
-3.59979779437305
30
0
41
1
10
63.9828206863707
20
-5.45287822402199
30
0
0
SPLINE
5
C7
100
AcDbEntity
8
1
62
256
6
ByLayer
370
18
48
1
60
0
100
AcDbSpline
70
4
71
3
72
8
73
4
40
0
40
0
40
0
40
0
40
1
40
1
40
1
40
1
41
1
10
66.9175093909284
20
-1.62439365721326
30
0
41
1
10
66.9507001061177
20
-1.12714089888885
30
0
41
1
10
66.9745818228309
20
-0.630360949239758
30
0
41
1
10
66.9891396118988
20
-0.134054566525862
30
0
0
SPLINE
5
C8
100
AcDbEntity
8
1
62
256
6
ByLayer
370
18
48
1
60
0
100
AcDbSpline
70
4
71
3
72
12
73
8
40
0
40
0
40
0
40
0
40
0.25000000000001
40
0.25000000000001
40
0.50000000000002
40
0.50000000000002
40
1
40
1
40
1
40
1
41
1
10
4.13462029030845
20
-2.89367449604725
30
0
41
1
10
4.11427219481933
20
-2.88397297581642
30
0
41
1
10
4.09582201318085
20
-2.87196852979872
30
0
41
1
10
4.06261744817331
20
-2.84344280976819
30
0
41
1
10
4.0481002776319
20
-2.82699503053985
30
0
41
1
10
4.01285009547001
20
-2.77355184483315
30
0
41
1
10
4.00000002110011
20
-2.73168941897794
30
0
41
1
10
4.00000002110011
20
-2.68912374748223
30
0
0
SPLINE
5
C9
100
AcDbEntity
8
1
62
256
6
ByLayer
370
18
48
1
60
0
100
AcDbSpline
70
4
71
3
72
14
73
10
40
0
40
0
40
0
40
0
40
0.25
40
0.25
40
0.5
40
0.5
40
0.75
40
0.75
40
1
40
1
40
1
40
1
41
1
10
64.5648723399756
20
-6.88082790446967
30
0
41
1
10
64.5682983497864
20
-6.88022380350685
30
0
41
1
10
64.5710744864555
20
-6.88133288486722
30
0
41
1
10
64.5749210573353
20
-6.88803297188019
30
0
41
1
10
64.5759354616609
20
-6.893711998859
30
0
41
1
10
64.5750386676972
20
-6.91063400852613
30
0
41
1
10
64.5730540251456
20
-6.92189583745932
30
0
41
1
10
64.5661748812488
20
-6.94737831127773
30
0
41
1
10
64.5613495242253
20
-6.96138138182064
30
0
41
1
10
64.5560164081451
20
-6.97466645083315
30
0
0
SPLINE
5
CA
100
AcDbEntity
8
1
62
256
6
ByLayer
370
18
48
1
60
0
100
AcDbSpline
70
4
71
3
72
18
73
14
40
0
40
0
40
0
40
0
40
0.114640757936968
40
0.114640757936968
40
0.545629683330249
40
0.545629683330249
40
0.761124146026887
40
0.761124146026887
40
0.868871377375207
40
0.868871377375207
40
0.976618608723526
40
0.976618608723526
40
1
40
1
40
1
40
1
41
1
10
20.3253325292117
20
-6.85967498323399
30
0
41
1
10
19.9911031379152
20
-6.85843017170265
30
0
41
1
10
19.657441523693
20
-6.8512132670335
30
0
41
1
10
18.0712714003964
20
-6.78885292160828
30
0
41
1
10
16.8235684647167
20
-6.65600166768755
30
0
41
1
10
14.9472188149128
20
-6.33751356672065
30
0
41
1
10
14.3208633017634
20
-6.21148623646849
30
0
41
1
10
13.3784706061276
20
-5.99383461197266
30
0
41
1
10
13.0638459538227
20
-5.9165202832298
30
0
41
1
10
12.4333000565169
20
-5.75254582993392
30
0
41
1
10
12.1169926377436
20
-5.66577254877737
30
0
41
1
10
11.7322239897616
20
-5.55491442880205
30
0
41
1
10
11.663644062178
20
-5.53494955629876
30
0
41
1
10
11.5950903076566
20
-5.51478917487461
30
0
0
SPLINE
5
CB
100
AcDbEntity
8
1
62
256
6
ByLayer
370
13
48
1
60
0
100
AcDbSpline
70
4
71
3
72
10
73
6
40
0
40
0
40
0
40
0
40
0.486059211720278
40
0.486059211720278
40
1
40
1
40
1
40
1
41
1
10
11.5950903066996
20
-5.51478917459318
30
0
41
1
10
10.3999934667833
20
-5.1633334694755
30
0
41
1
10
9.21285085868894
20
-4.75246082396038
30
0
41
1
10
6.76997292868759
20
-3.81086754264251
30
0
41
1
10
5.5147519977865
20
-3.27394441741839
30
0
41
1
10
4.25021526666683
20
-2.69945379978068
30
0
0
SPLINE
5
CC
100
AcDbEntity
8
1
62
256
6
ByLayer
370
18
48
1
60
0
100
AcDbSpline
70
4
71
3
72
89
73
85
40
0
40
0
40
0
40
0
40
0.0335441025157992
40
0.0335441025157992
40
0.0503161537736984
40
0.0503161537736984
40
0.0670882050315977
40
0.0670882050315977
40
0.100632307547397
40
0.100632307547397
40
0.134176410063196
40
0.134176410063196
40
0.167720512578995
40
0.167720512578995
40
0.184492563836895
40
0.184492563836895
40
0.201264615094795
40
0.201264615094795
40
0.218036666352694
40
0.218036666352694
40
0.234808717610594
40
0.234808717610594
40
0.268352820126394
40
0.268352820126394
40
0.301896922642194
40
0.301896922642194
40
0.335441025157994
40
0.335441025157994
40
0.352213076415894
40
0.352213076415894
40
0.368985127673793
40
0.368985127673793
40
0.402529230189593
40
0.402529230189593
40
0.436073332705393
40
0.436073332705393
40
0.452845383963293
40
0.452845383963293
40
0.469617435221193
40
0.469617435221193
40
0.503161537736993
40
0.503161537736993
40
0.536705640252793
40
0.536705640252793
40
0.570249742768593
40
0.570249742768593
40
0.587021794026493
40
0.587021794026493
40
0.603793845284393
40
0.620565896542293
40
0.620565896542293
40
0.637337947800193
40
0.637337947800193
40
0.670882050315993
40
0.670882050315993
40
0.687654101573893
40
0.687654101573893
40
0.704426152831792
40
0.704426152831792
40
0.737970255347591
40
0.737970255347591
40
0.754742306605491
40
0.754742306605491
40
0.771514357863391
40
0.771514357863391
40
0.80505846037919
40
0.80505846037919
40
0.838602562894989
40
0.838602562894989
40
0.855374614152888
40
0.855374614152888
40
0.872146665410787
40
0.872146665410787
40
0.905690767926585
40
0.905690767926585
40
0.922462819184484
40
0.922462819184484
40
0.939234870442382
40
0.939234870442382
40
0.97277897295818
40
0.97277897295818
40
0.989551024216079
40
0.989551024216079
40
1
40
1
40
1
40
1
41
1
10
16.8812394935925
20
7.19652482529969
30
0
41
1
10
17.3847152214712
20
7.21816243576276
30
0
41
1
10
17.8873001550909
20
7.22511931850116
30
0
41
1
10
18.6389854660948
20
7.21465028216835
30
0
41
1
10
18.8891524655621
20
7.2076594989322
30
0
41
1
10
19.3884030043652
20
7.18660486614345
30
0
41
1
10
19.6374945084336
20
7.17251668558833
30
0
41
1
10
20.3849196573002
20
7.12001995847459
30
0
41
1
10
20.8830828071152
20
7.07144264394057
30
0
41
1
10
21.8780334410589
20
6.94704085021922
30
0
41
1
10
22.3743367722163
20
6.87077849578583
30
0
41
1
10
23.3695966161132
20
6.6929983914161
30
0
41
1
10
23.8680611475393
20
6.59137151134041
30
0
41
1
10
24.6158211873039
20
6.41851410519413
30
0
41
1
10
24.8651738868952
20
6.35753221115073
30
0
41
1
10
25.3650418511091
20
6.22973409462844
30
0
41
1
10
25.6154596893485
20
6.16284097125452
30
0
41
1
10
26.1171279090114
20
6.02292317986095
30
0
41
1
10
26.3683785805821
20
5.94989957299924
30
0
41
1
10
26.8715600365501
20
5.79743003554069
30
0
41
1
10
27.1236448429478
20
5.71768046090205
30
0
41
1
10
27.8780422112555
20
5.47096315789642
30
0
41
1
10
28.3798454432922
20
5.29703294319401
30
0
41
1
10
29.3803273370225
20
4.92959657136223
30
0
41
1
10
29.8782939868422
20
4.73496666018355
30
0
41
1
10
30.8743068529832
20
4.33085056050109
30
0
41
1
10
31.3722040275778
20
4.12124734777976
30
0
41
1
10
32.117883665243
20
3.7939553011426
30
0
41
1
10
32.3661076267074
20
3.68245525165824
30
0
41
1
10
32.8630613607449
20
3.45660704490302
30
0
41
1
10
33.111782900742
20
3.34225673286798
30
0
41
1
10
33.8585230529452
20
2.99470476341574
30
0
41
1
10
34.3570123794819
20
2.75684529717594
30
0
41
1
10
35.354534886134
20
2.26700400281834
30
0
41
1
10
35.8550373009547
20
2.01775968270667
30
0
41
1
10
36.608538193228
20
1.637660338009
30
0
41
1
10
36.86012810496
20
1.50985150285206
30
0
41
1
10
37.3639067894524
20
1.25142606142001
30
0
41
1
10
37.6153397234494
20
1.12111036372289
30
0
41
1
10
38.3685787156245
20
0.731212023249242
30
0
41
1
10
38.8696392213921
20
0.471707222788467
30
0
41
1
10
39.868491674553
20
-0.0487399156298807
30
0
41
1
10
40.3658051550751
20
-0.310600202566548
30
0
41
1
10
41.361178105644
20
-0.827793769057706
30
0
41
1
10
41.8587485228248
20
-1.08412900718605
30
0
41
1
10
42.6037242907969
20
-1.46755483139415
30
0
41
1
10
42.8519133020184
20
-1.59499653566647
30
0
41
1
10
43.3489787375056
20
-1.84731194219822
30
0
41
1
10
43.8465369259102
20
-2.09743734424862
30
0
41
1
10
44.3448037452336
20
-2.34372196060909
30
0
41
1
10
44.8432638987126
20
-2.58837573291712
30
0
41
1
10
45.0924413160055
20
-2.71016290228795
30
0
41
1
10
45.8411194551689
20
-3.07144938452274
30
0
41
1
10
46.3423180216031
20
-3.3058763617446
30
0
41
1
10
47.0965652398792
20
-3.64907679923931
30
0
41
1
10
47.3487095722232
20
-3.76226468524024
30
0
41
1
10
47.851768598707
20
-3.98525190001794
30
0
41
1
10
48.1027658971422
20
-4.09462877942565
30
0
41
1
10
48.8551578653978
20
-4.41488710076982
30
0
41
1
10
49.3556453886001
20
-4.61851425613366
30
0
41
1
10
50.1037498242999
20
-4.91091508047373
30
0
41
1
10
50.3525384591414
20
-5.0063866587578
30
0
41
1
10
50.8501316917555
20
-5.1916443953414
30
0
41
1
10
51.0989264533349
20
-5.28146267770222
30
0
41
1
10
51.8451528054557
20
-5.54282107880499
30
0
41
1
10
52.3423249055449
20
-5.70643920031122
30
0
41
1
10
53.3352259326772
20
-6.01313267660078
30
0
41
1
10
53.8324337889217
20
-6.15447828154188
30
0
41
1
10
54.5795200027481
20
-6.34853117078725
30
0
41
1
10
54.8287238763705
20
-6.41025688897167
30
0
41
1
10
55.3272291711643
20
-6.52793994863461
30
0
41
1
10
55.576476166035
20
-6.58392482901351
30
0
41
1
10
56.3260060139121
20
-6.74170098672587
30
0
41
1
10
56.8277869188834
20
-6.83367926930936
30
0
41
1
10
57.5827931889706
20
-6.95218398896066
30
0
41
1
10
57.8347855674569
20
-6.98848496720882
30
0
41
1
10
58.3370943816498
20
-7.05392638275833
30
0
41
1
10
58.5879532478307
20
-7.08302869670212
30
0
41
1
10
59.3398541736981
20
-7.15964096292367
30
0
41
1
10
59.8401429546966
20
-7.19658619296436
30
0
41
1
10
60.5879124358534
20
-7.23120210290915
30
0
41
1
10
60.8368170470189
20
-7.23921856929962
30
0
41
1
10
61.2410017485135
20
-7.24647462012896
30
0
41
1
10
61.3961637942248
20
-7.24789362383109
30
0
41
1
10
61.5513222375363
20
-7.24795545504713
30
0
0
SPLINE
5
CD
100
AcDbEntity
8
1
62
256
6
ByLayer
370
18
48
1
60
0
100
AcDbSpline
70
4
71
3
72
28
73
24
40
0
40
0
40
0
40
0
40
0.125
40
0.125
40
0.25
40
0.25
40
0.374999999999999
40
0.374999999999999
40
0.437499999999999
40
0.437499999999999
40
0.5
40
0.5
40
0.625
40
0.625
40
0.6875
40
0.6875
40
0.75
40
0.75
40
0.875
40
0.875
40
0.9375
40
0.9375
40
1
40
1
40
1
40
1
41
1
10
16.8812394935924
20
1.12669942786002
30
0
41
1
10
16.3240284413793
20
1.38192850964256
30
0
41
1
10
15.7720041789488
20
1.64347486665039
30
0
41
1
10
14.6744289142169
20
2.16971231135975
30
0
41
1
10
14.1288432160017
20
2.43472324431991
30
0
41
1
10
13.0409110418999
20
2.96042792724253
30
0
41
1
10
12.501457581722
20
3.21953081623985
30
0
41
1
10
11.6971461157489
20
3.59675991061414
30
0
41
1
10
11.429883125742
20
3.72039999356485
30
0
41
1
10
10.8966709627167
20
3.96406916979547
30
0
41
1
10
10.6307090549567
20
4.08424733757104
30
0
41
1
10
9.83464270248894
20
4.43835674118875
30
0
41
1
10
9.30627204464611
20
4.66610128123699
30
0
41
1
10
8.51736232937117
20
4.99238660591547
30
0
41
1
10
8.25501352935811
20
5.09858893556489
30
0
41
1
10
7.7318043884639
20
5.30522800993006
30
0
41
1
10
7.47095288078964
20
5.40559974920427
30
0
41
1
10
6.69101079946606
20
5.69937479040644
30
0
41
1
10
6.17978999600626
20
5.88229352167823
30
0
41
1
10
5.43533575598087
20
6.13342109437025
30
0
41
1
10
5.19088266103176
20
6.21326891294382
30
0
41
1
10
4.7120391599546
20
6.36397966849268
30
0
41
1
10
4.47759243816378
20
6.43486714180759
30
0
41
1
10
4.25052136416596
20
6.5002162795623
30
0
0
SPLINE
5
CE
100
AcDbEntity
8
1
62
256
6
ByLayer
370
18
48
1
60
0
100
AcDbSpline
70
4
71
3
72
8
73
4
40
0
40
0
40
0
40
0
40
1
40
1
40
1
40
1
41
1
10
66.9175093909284
20
1.62439365721349
30
0
41
1
10
66.9507044195278
20
1.12707627674777
30
0
41
1
10
66.9745837152558
20
0.63029643240003
30
0
41
1
10
66.9891396118989
20
0.134054566525918
30
0
0
SPLINE
5
CF
100
AcDbEntity
8
1
62
256
6
ByLayer
370
18
48
1
60
0
100
AcDbSpline
70
4
71
3
72
62
73
58
40
0
40
0
40
0
40
0
40
0.0312499999999968
40
0.0312499999999968
40
0.0624999999999935
40
0.0624999999999935
40
0.0937499999999903
40
0.0937499999999903
40
0.109374999999989
40
0.109374999999989
40
0.124999999999988
40
0.124999999999988
40
0.140624999999986
40
0.140624999999986
40
0.156249999999985
40
0.156249999999985
40
0.171874999999984
40
0.171874999999984
40
0.187499999999982
40
0.187499999999982
40
0.21874999999998
40
0.21874999999998
40
0.234374999999978
40
0.234374999999978
40
0.249999999999977
40
0.249999999999977
40
0.265624999999976
40
0.265624999999976
40
0.281249999999975
40
0.281249999999975
40
0.312499999999972
40
0.312499999999972
40
0.328124999999971
40
0.328124999999971
40
0.33593749999997
40
0.33984374999997
40
0.33984374999997
40
0.343749999999969
40
0.343749999999969
40
0.351562499999968
40
0.351562499999968
40
0.355468749999968
40
0.355468749999968
40
0.359374999999967
40
0.374999999999967
40
0.374999999999967
40
0.437499999999971
40
0.437499999999971
40
0.499999999999974
40
0.499999999999974
40
0.62499999999998
40
0.62499999999998
40
0.749999999999987
40
0.749999999999987
40
0.874999999999993
40
0.874999999999993
40
1
40
1
40
1
40
1
41
1
10
4.00000002109891
20
-6.78569112542684
30
0
41
1
10
3.83583243321186
20
-6.83295383709248
30
0
41
1
10
3.67481216885983
20
-6.87779388867583
30
0
41
1
10
3.36108220584211
20
-6.961790332053
30
0
41
1
10
3.20911574022261
20
-7.00074097880224
30
0
41
1
10
2.92027352310646
20
-7.07082848078551
30
0
41
1
10
2.78305783778066
20
-7.10206307393787
30
0
41
1
10
2.59239983544543
20
-7.14160632557136
30
0
41
1
10
2.53119480134694
20
-7.15359623686294
30
0
41
1
10
2.41611165683292
20
-7.17450511152347
30
0
41
1
10
2.36231020474929
20
-7.18341469372348
30
0
41
1
10
2.26350898866497
20
-7.19775356069334
30
0
41
1
10
2.21851449838113
20
-7.20318501723881
30
0
41
1
10
2.1390517188884
20
-7.21003654339586
30
0
41
1
10
2.10441489196057
20
-7.21143943608041
30
0
41
1
10
2.04928996207048
20
-7.20958740503968
30
0
41
1
10
2.0286742979082
20
-7.206369827641
30
0
41
1
10
2.00282428891973
20
-7.19505201561901
30
0
41
1
10
1.99762106217554
20
-7.18688255284493
30
0
41
1
10
2.00782924506774
20
-7.15494430102387
30
0
41
1
10
2.04830023806051
20
-7.12453043845625
30
0
41
1
10
2.15601110449669
20
-7.06750423097256
30
0
41
1
10
2.1993006156037
20
-7.04686336175328
30
0
41
1
10
2.29728858282468
20
-7.00359879112756
30
0
41
1
10
2.35217702093237
20
-6.98087458997429
30
0
41
1
10
2.47213018855081
20
-6.93372147257625
30
0
41
1
10
2.53754699516429
20
-6.90916760865252
30
0
41
1
10
2.67554058579839
20
-6.85936108015494
30
0
41
1
10
2.74788555755242
20
-6.83418227795707
30
0
41
1
10
2.97325637167657
20
-6.75818939340601
30
0
41
1
10
3.13451759401144
20
-6.70693163137551
30
0
41
1
10
3.38862832336116
20
-6.63008410427517
30
0
41
1
10
3.4754163155323
20
-6.60446407147521
30
0
41
1
10
3.60828138320747
20
-6.56613594950011
30
0
41
1
10
3.67526800585665
20
-6.54703112647994
30
0
41
1
10
3.74303291558471
20
-6.52802411023194
30
0
41
1
10
3.78837740738828
20
-6.51537546926696
30
0
41
1
10
3.81063478951563
20
-6.5085910147715
30
0
41
1
10
3.88122809333467
20
-6.49194962039869
30
0
41
1
10
3.93509292163731
20
-6.48694475957461
30
0
41
1
10
4.01531954049179
20
-6.48479969039025
30
0
41
1
10
4.0421054797024
20
-6.48462654541333
30
0
41
1
10
4.09565396819224
20
-6.48399024464092
30
0
41
1
10
4.22953112707049
20
-6.48249407242497
30
0
41
1
10
4.36345690381873
20
-6.48147046739578
30
0
41
1
10
4.89920622437504
20
-6.47888286886993
30
0
41
1
10
5.32751756601826
20
-6.48165138096078
30
0
41
1
10
6.18358181419069
20
-6.49643366125642
30
0
41
1
10
6.61188411624815
20
-6.50846746616361
30
0
41
1
10
7.88918410633164
20
-6.5568598412552
30
0
41
1
10
8.73207939495052
20
-6.60573068105396
30
0
41
1
10
10.4020174212633
20
-6.7234598972629
30
0
41
1
10
11.228994350604
20
-6.79235237263615
30
0
41
1
10
12.8688416675969
20
-6.93145714659758
30
0
41
1
10
13.6818859602209
20
-7.00158814883326
30
0
41
1
10
15.2960078728095
20
-7.12077142484026
30
0
41
1
10
16.0923766518271
20
-7.16927912089935
30
0
41
1
10
16.8812394935925
20
-7.19652482529969
30
0
0
SPLINE
5
D0
100
AcDbEntity
8
1
62
256
6
ByLayer
370
13
48
1
60
0
100
AcDbSpline
70
4
71
3
72
8
73
4
40
0
40
0
40
0
40
0
40
1
40
1
40
1
40
1
41
1
10
4.1377898020703
20
-2.79601623869783
30
0
41
1
10
4.1591039713802
20
-2.80153294123701
30
0
41
1
10
4.18197161251655
20
-2.80986631368543
30
0
41
1
10
4.2053278531188
20
-2.82057053446383
30
0
0
SPLINE
5
D1
100
AcDbEntity
8
1
62
256
6
ByLayer
370
18
48
1
60
0
100
AcDbSpline
70
4
71
3
72
10
73
6
40
0
40
0
40
0
40
0
40
0.5
40
0.5
40
1
40
1
40
1
40
1
41
1
10
64.5071558887332
20
1.70520971405548
30
0
41
1
10
64.9089961616648
20
1.69039669665682
30
0
41
1
10
65.3108294130092
20
1.67566594267805
30
0
41
1
10
66.1142321552032
20
1.64929459647365
30
0
41
1
10
66.5158904491745
20
1.63661360579729
30
0
41
1
10
66.9175093909371
20
1.62439365721298
30
0
0
SPLINE
5
D2
100
AcDbEntity
8
1
62
256
6
ByLayer
370
18
48
1
60
0
100
AcDbSpline
70
4
71
3
72
54
73
50
40
0
40
0
40
0
40
0
40
0.0425767049139041
40
0.0425767049139041
40
0.0851534098278082
40
0.0851534098278082
40
0.127730114741712
40
0.127730114741712
40
0.170306819655616
40
0.170306819655616
40
0.255460229483425
40
0.255460229483425
40
0.298036934397329
40
0.298036934397329
40
0.340613639311233
40
0.340613639311233
40
0.361901991768185
40
0.361901991768185
40
0.383190344225138
40
0.383190344225138
40
0.425767049139042
40
0.425767049139042
40
0.468343754052946
40
0.468343754052946
40
0.489632106509898
40
0.489632106509898
40
0.510920458966849
40
0.510920458966849
40
0.553497163880752
40
0.553497163880752
40
0.574785516337704
40
0.574785516337704
40
0.596073868794655
40
0.596073868794655
40
0.681227278622461
40
0.681227278622461
40
0.723803983536364
40
0.723803983536364
40
0.766380688450267
40
0.766380688450267
40
0.80895739336417
40
0.80895739336417
40
0.851534098278073
40
0.851534098278073
40
0.894110803191976
40
0.894110803191976
40
0.936687508105879
40
0.936687508105879
40
1
40
1
40
1
40
1
41
1
10
64.4490221696742
20
-7.24020357159631
30
0
41
1
10
63.8203140080328
20
-7.25671148990716
30
0
41
1
10
63.1912934397672
20
-7.25079178754046
30
0
41
1
10
61.9333112340313
20
-7.19432440641089
30
0
41
1
10
61.3057580007946
20
-7.1438671641624
30
0
41
1
10
60.0511614612253
20
-6.99953451964552
30
0
41
1
10
59.4240349109445
20
-6.90569466160207
30
0
41
1
10
58.1677802170167
20
-6.67580833723878
30
0
41
1
10
57.5379208470055
20
-6.5395557627796
30
0
41
1
10
55.653878029954
20
-6.07288197058458
30
0
41
1
10
54.4015747963377
20
-5.68406963385124
30
0
41
1
10
52.5137047004393
20
-5.00080782585732
30
0
41
1
10
51.8854460247207
20
-4.75727943477239
30
0
41
1
10
50.6304335715495
20
-4.24307759380352
30
0
41
1
10
50.0033112518916
20
-3.97239157914009
30
0
41
1
10
49.0613565426902
20
-3.54890259718931
30
0
41
1
10
48.7471679111528
20
-3.40481682651924
30
0
41
1
10
48.1180914241155
20
-3.11125875235518
30
0
41
1
10
47.8033170251918
20
-2.96183667109378
30
0
41
1
10
46.860640317282
20
-2.50782978467746
30
0
41
1
10
46.2332837488821
20
-2.1971580148284
30
0
41
1
10
44.9783568672147
20
-1.56426924588214
30
0
41
1
10
44.350780597851
20
-1.2420635032928
30
0
41
1
10
43.4074549964525
20
-0.753445653906084
30
0
41
1
10
43.092544694648
20
-0.589624854014858
30
0
41
1
10
42.4638004477502
20
-0.261980557905559
30
0
41
1
10
42.1497344140107
20
-0.098010821400436
30
0
41
1
10
41.2080022918258
20
0.393471847380965
30
0
41
1
10
40.5807805101841
20
0.72051627985195
30
0
41
1
10
39.6390489755398
20
1.20671473274382
30
0
41
1
10
39.3249894280431
20
1.36805432609074
30
0
41
1
10
38.6962517475439
20
1.6886660152818
30
0
41
1
10
38.3813152930157
20
1.84806153716005
30
0
41
1
10
36.8088371340004
20
2.63621621014002
30
0
41
1
10
35.5561964002183
20
3.23898639023594
30
0
41
1
10
33.6702804233526
20
4.07535325075858
30
0
41
1
10
33.0403316943669
20
4.34314778703052
30
0
41
1
10
31.7840713880299
20
4.84853942148627
30
0
41
1
10
31.1566892277137
20
5.08659263005356
30
0
41
1
10
29.9010624033388
20
5.53023363170101
30
0
41
1
10
29.2727986697785
20
5.7361146156895
30
0
41
1
10
28.0136607263587
20
6.11163071515719
30
0
41
1
10
27.3855491728281
20
6.28046251500291
30
0
41
1
10
26.1299101522577
20
6.57838974026132
30
0
41
1
10
25.5025598127313
20
6.70761614965707
30
0
41
1
10
24.2458469415525
20
6.92418393846833
30
0
41
1
10
23.6155867891708
20
7.01162443791398
30
0
41
1
10
22.0522776167992
20
7.17411311429402
30
0
41
1
10
21.1198127722333
20
7.22270691790752
30
0
41
1
10
20.1855886228493
20
7.222094976085
30
0
0
SPLINE
5
D3
100
AcDbEntity
8
1
62
256
6
ByLayer
370
18
48
1
60
0
100
AcDbSpline
70
4
71
3
72
34
73
30
40
0
40
0
40
0
40
0
40
0.0624999999999988
40
0.0624999999999988
40
0.0937499999999981
40
0.0937499999999981
40
0.124999999999997
40
0.124999999999997
40
0.187499999999996
40
0.187499999999996
40
0.218749999999995
40
0.218749999999995
40
0.249999999999994
40
0.249999999999994
40
0.374999999999991
40
0.374999999999991
40
0.437499999999991
40
0.437499999999991
40
0.49999999999999
40
0.49999999999999
40
0.624999999999989
40
0.624999999999989
40
0.68749999999999
40
0.68749999999999
40
0.749999999999991
40
0.749999999999991
40
0.874999999999995
40
0.874999999999995
40
1
40
1
40
1
40
1
41
1
10
57.6336061997705
20
2.47027339739967
30
0
41
1
10
57.6213927425677
20
2.25147232597428
30
0
41
1
10
57.6254749096308
20
2.0287015369386
30
0
41
1
10
57.6562122047932
20
1.68854921573558
30
0
41
1
10
57.670634914244
20
1.57376319054796
30
0
41
1
10
57.7075215791169
20
1.34398285613631
30
0
41
1
10
57.7298157514665
20
1.22984319779132
30
0
41
1
10
57.8074940460965
20
0.889528264191
30
0
41
1
10
57.8736369797641
20
0.665449825849379
30
0
41
1
10
57.9921993030866
20
0.333102978820961
30
0
41
1
10
58.034954894689
20
0.222951145678309
30
0
41
1
10
58.1266742187042
20
0.0038574140547496
30
0
41
1
10
58.1754507112564
20
-0.104592320383659
30
0
41
1
10
58.43042386752
20
-0.636764576098216
30
0
41
1
10
58.6714259400558
20
-1.03591323234053
30
0
41
1
10
59.0741184861631
20
-1.60505525725301
30
0
41
1
10
59.2158615407486
20
-1.79043619897252
30
0
41
1
10
59.5073102777995
20
-2.14565164184302
30
0
41
1
10
59.6575342774358
20
-2.31606001831136
30
0
41
1
10
60.1198003423178
20
-2.80873480915537
30
0
41
1
10
60.443011922625
20
-3.11313016031306
30
0
41
1
10
60.9457929558738
20
-3.54098158532912
30
0
41
1
10
61.1164846502745
20
-3.67879138677034
30
0
41
1
10
61.4632190559933
20
-3.94524060263609
30
0
41
1
10
61.6380169849135
20
-4.07293319616457
30
0
41
1
10
62.1662640909957
20
-4.44111181570821
30
0
41
1
10
62.5235417532959
20
-4.66679470399481
30
0
41
1
10
63.2468038980251
20
-5.08449487840829
30
0
41
1
10
63.6128027880967
20
-5.2764564562566
30
0
41
1
10
63.9828206863708
20
-5.45287822402193
30
0
0
SPLINE
5
D4
100
AcDbEntity
8
1
62
256
6
ByLayer
370
18
48
1
60
0
100
AcDbSpline
70
4
71
3
72
14
73
10
40
0
40
0
40
0
40
0
40
0.25
40
0.25
40
0.5
40
0.5
40
0.75
40
0.75
40
1
40
1
40
1
40
1
41
1
10
64.8221081978601
20
7.04858939274592
30
0
41
1
10
64.9838227894246
20
6.59316597625602
30
0
41
1
10
65.1493044414637
20
6.13838048147741
30
0
41
1
10
65.4870088530909
20
5.23016338857403
30
0
41
1
10
65.6592860883663
20
4.7767425551649
30
0
41
1
10
66.0098829417058
20
3.87127555226647
30
0
41
1
10
66.1883378587006
20
3.41899939628135
30
0
41
1
10
66.5495062569052
20
2.51900277058579
30
0
41
1
10
66.732401175327
20
2.07087797423509
30
0
41
1
10
66.9175093909298
20
1.62439365720988
30
0
0
SPLINE
5
D5
100
AcDbEntity
8
1
62
256
6
ByLayer
370
18
48
1
60
0
100
AcDbSpline
70
4
71
3
72
8
73
4
40
0
40
0
40
0
40
0
40
1
40
1
40
1
40
1
41
1
10
66.9891396118989
20
-0.134054566525748
30
0
41
1
10
66.9898679336178
20
-0.109224510529089
30
0
41
1
10
66.993920101357
20
-0.0796231710301356
30
0
41
1
10
66.9999698296632
20
-0.0481953483494237
30
0
0
SPLINE
5
D6
100
AcDbEntity
8
1
62
256
6
ByLayer
370
18
48
1
60
0
100
AcDbSpline
70
4
71
3
72
8
73
4
40
0
40
0
40
0
40
0
40
1
40
1
40
1
40
1
41
1
10
64.4490221696742
20
7.24020357159634
30
0
41
1
10
64.2113861124101
20
7.24644315437951
30
0
41
1
10
63.9737469186449
20
7.24948179665017
30
0
41
1
10
63.7360450081157
20
7.24932088718191
30
0
0
SPLINE
5
D7
100
AcDbEntity
8
1
62
256
6
ByLayer
370
18
48
1
60
0
100
AcDbSpline
70
4
71
3
72
24
73
20
40
0
40
0
40
0
40
0
40
0.0750169269767691
40
0.0750169269767691
40
0.260013541581416
40
0.260013541581416
40
0.445010156186063
40
0.445010156186063
40
0.537508463488386
40
0.537508463488386
40
0.630006770790708
40
0.630006770790708
40
0.722505078093031
40
0.722505078093031
40
0.768754231744192
40
0.768754231744192
40
0.815003385395354
40
0.815003385395354
40
1
40
1
40
1
40
1
41
1
10
24.51690912104
20
-6.87518841148631
30
0
41
1
10
24.0066914562572
20
-6.95658775166308
30
0
41
1
10
23.4958497582108
20
-7.02408387932027
30
0
41
1
10
21.7295379996015
20
-7.20762350847622
30
0
41
1
10
20.4762734557595
20
-7.25049826954458
30
0
41
1
10
17.957074663512
20
-7.15714282455068
30
0
41
1
10
16.7035975396553
20
-7.02147154312502
30
0
41
1
10
14.8183666970465
20
-6.69111373545684
30
0
41
1
10
14.1880106687804
20
-6.55962830740125
30
0
41
1
10
12.9305774568784
20
-6.25768645081527
30
0
41
1
10
12.302964526009
20
-6.08727118720779
30
0
41
1
10
11.0475152695591
20
-5.71023345087764
30
0
41
1
10
10.419820779421
20
-5.50344094401274
30
0
41
1
10
9.47624276949841
20
-5.16816954024006
30
0
41
1
10
9.16110063435212
20
-5.05215365308106
30
0
41
1
10
8.53180696943338
20
-4.81287523599227
30
0
41
1
10
8.21752233222728
20
-4.68956989270981
30
0
41
1
10
6.64708287168881
20
-4.05601849712224
30
0
41
1
10
5.39416960684039
20
-3.49419964999117
30
0
41
1
10
4.13462029030845
20
-2.89367449604725
30
0
0
SPLINE
5
D8
100
AcDbEntity
8
1
62
256
6
ByLayer
370
18
48
1
60
0
100
AcDbSpline
70
4
71
3
72
8
73
4
40
0
40
0
40
0
40
0
40
1
40
1
40
1
40
1
41
1
10
4.00000002110011
20
-6.78569112542618
30
0
41
1
10
4.00000002110011
20
-6.76285644596575
30
0
41
1
10
4.00000002110011
20
-6.7405546281073
30
0
41
1
10
4.00000002110011
20
-6.71878852192557
30
0
0
SPLINE
5
D9
100
AcDbEntity
8
1
62
256
6
ByLayer
370
18
48
1
60
0
100
AcDbSpline
70
4
71
3
72
16
73
12
40
0
40
0
40
0
40
0
40
0.250000000000009
40
0.250000000000009
40
0.500000000000019
40
0.500000000000019
40
0.625000000000025
40
0.625000000000025
40
0.75000000000003
40
0.75000000000003
40
1
40
1
40
1
40
1
41
1
10
4.00000002109814
20
-6.7187885219268
30
0
41
1
10
4.00000002109843
20
-6.70322429692462
30
0
41
1
10
4.00384044275179
20
-6.68610936139251
30
0
41
1
10
4.02364792549702
20
-6.64663213276921
30
0
41
1
10
4.0400244730273
20
-6.62411931896489
30
0
41
1
10
4.07765223188093
20
-6.58920795321541
30
0
41
1
10
4.0923322433631
20
-6.57749675089417
30
0
41
1
10
4.12392870056755
20
-6.55580950815795
30
0
41
1
10
4.14076587247948
20
-6.54586441982082
30
0
41
1
10
4.19080946821754
20
-6.51999008636827
30
0
41
1
10
4.22196847742387
20
-6.5084335592741
30
0
41
1
10
4.25052136546608
20
-6.50021627918812
30
0
0
SPLINE
5
DA
100
AcDbEntity
8
1
62
256
6
ByLayer
370
18
48
1
60
0
100
AcDbSpline
70
4
71
3
72
10
73
6
40
0
40
0
40
0
40
0
40
0.5
40
0.5
40
1
40
1
40
1
40
1
41
1
10
66.9999698296659
20
0.0481953483616735
30
0
41
1
10
66.9952284306441
20
0.0265996835084081
30
0
41
1
10
66.9884110422501
20
0.0031317173495893
30
0
41
1
10
66.971340346626
20
-0.0418610177180483
30
0
41
1
10
66.9609735002816
20
-0.063482317899485
30
0
41
1
10
66.9504566832478
20
-0.0806854014559235
30
0
0
SPLINE
5
DB
100
AcDbEntity
8
1
62
256
6
ByLayer
370
18
48
1
60
0
100
AcDbSpline
70
4
71
3
72
70
73
66
40
0
40
0
40
0
40
0
40
0.0254315393839187
40
0.0254315393839187
40
0.0629149417153064
40
0.0629149417153064
40
0.100398344046694
40
0.100398344046694
40
0.119140045212388
40
0.119140045212388
40
0.137881746378083
40
0.137881746378083
40
0.17536514870947
40
0.17536514870947
40
0.212848551040858
40
0.212848551040858
40
0.231590252206551
40
0.231590252206551
40
0.250331953372245
40
0.250331953372245
40
0.325298758035019
40
0.325298758035019
40
0.344040459200712
40
0.344040459200712
40
0.362782160366406
40
0.362782160366406
40
0.400265562697793
40
0.400265562697793
40
0.43774896502918
40
0.43774896502918
40
0.475232367360567
40
0.475232367360567
40
0.493974068526261
40
0.493974068526261
40
0.512715769691954
40
0.512715769691954
40
0.550199172023342
40
0.550199172023342
40
0.58768257435473
40
0.58768257435473
40
0.606424275520424
40
0.606424275520424
40
0.625165976686118
40
0.625165976686118
40
0.700132781348896
40
0.700132781348896
40
0.71887448251459
40
0.71887448251459
40
0.737616183680284
40
0.737616183680284
40
0.775099586011673
40
0.775099586011673
40
0.812582988343061
40
0.812582988343061
40
0.850066390674449
40
0.850066390674449
40
0.887549793005837
40
0.887549793005837
40
0.90629149417153
40
0.90629149417153
40
0.925033195337224
40
0.925033195337224
40
0.962516597668612
40
0.962516597668612
40
1
40
1
40
1
40
1
41
1
10
50.8594610965387
20
-5.19279339435244
30
0
41
1
10
50.5717093442243
20
-5.2862153679072
30
0
41
1
10
50.2839013887436
20
-5.37612098104685
30
0
41
1
10
49.571343498241
20
-5.58947123286649
30
0
41
1
10
49.1457988689469
20
-5.709709111005
30
0
41
1
10
48.2952957451292
20
-5.93400344912217
30
0
41
1
10
47.8708803771534
20
-6.03781131850894
30
0
41
1
10
47.2348378878177
20
-6.1807916332917
30
0
41
1
10
47.0228427300316
20
-6.22615666976427
30
0
41
1
10
46.5987749217987
20
-6.31160112411078
30
0
41
1
10
46.3866849715159
20
-6.35157854296511
30
0
41
1
10
45.7503986439187
20
-6.46588909379346
30
0
41
1
10
45.326371198541
20
-6.53433944534788
30
0
41
1
10
44.4778393481494
20
-6.65353288450598
30
0
41
1
10
44.0526945516734
20
-6.70420567574968
30
0
41
1
10
43.414705844556
20
-6.76529132000403
30
0
41
1
10
43.2022172181904
20
-6.78306637256415
30
0
41
1
10
42.7775807459839
20
-6.81268879998575
30
0
41
1
10
42.5654443516681
20
-6.8244766403478
30
0
41
1
10
41.5051422482053
20
-6.87499887834326
30
0
41
1
10
40.6573820036821
20
-6.88149462353894
30
0
41
1
10
39.5970059467661
20
-6.83903337998385
30
0
41
1
10
39.3847734406839
20
-6.82797301907138
30
0
41
1
10
38.9598382410097
20
-6.80033886176153
30
0
41
1
10
38.7470593364532
20
-6.78377960328339
30
0
41
1
10
38.1088291180115
20
-6.72840435386146
30
0
41
1
10
37.6841351423017
20
-6.68227568901079
30
0
41
1
10
36.8356870957408
20
-6.56973733353394
30
0
41
1
10
36.4115612694129
20
-6.50473587242402
30
0
41
1
10
35.5632358513276
20
-6.35820921121174
30
0
41
1
10
35.1391975363573
20
-6.27627120169419
30
0
41
1
10
34.5029027173312
20
-6.13955875133689
30
0
41
1
10
34.2906825333961
20
-6.09184308172053
30
0
41
1
10
33.8657792660341
20
-5.99155482143942
30
0
41
1
10
33.6530164928616
20
-5.93873211769684
30
0
41
1
10
33.0143482729245
20
-5.77406823683296
30
0
41
1
10
32.5892859300736
20
-5.65690546645729
30
0
41
1
10
31.740378744271
20
-5.4076668919526
30
0
41
1
10
31.3161106037783
20
-5.27589110487418
30
0
41
1
10
30.6795858503108
20
-5.06752850102825
30
0
41
1
10
30.4674182395328
20
-4.99637138021333
30
0
41
1
10
30.0430115470493
20
-4.84969858660702
30
0
41
1
10
29.830743993728
20
-4.77391518659618
30
0
41
1
10
28.7692065205514
20
-4.38777230008964
30
0
41
1
10
27.9164735370433
20
-4.05581266282638
30
0
41
1
10
26.8557733881223
20
-3.61314182594404
30
0
41
1
10
26.6437266382226
20
-3.52341302963262
30
0
41
1
10
26.2195962716224
20
-3.34138344912509
30
0
41
1
10
26.0075032447289
20
-3.24899859560529
30
0
41
1
10
25.3712659947724
20
-2.96929061164425
30
0
41
1
10
24.9472522841077
20
-2.77880642050528
30
0
41
1
10
24.0991613908606
20
-2.38906889668598
30
0
41
1
10
23.6747307119282
20
-2.19084496784029
30
0
41
1
10
22.8243916938536
20
-1.78871920735162
30
0
41
1
10
22.3983060030118
20
-1.5843745370797
30
0
41
1
10
21.5488854864977
20
-1.17173607317193
30
0
41
1
10
21.1246628736494
20
-0.96400239265742
30
0
41
1
10
20.48835346102
20
-0.651627430515333
30
0
41
1
10
20.2762603734352
20
-0.547361725540412
30
0
41
1
10
19.8522539165883
20
-0.33830415425561
30
0
41
1
10
19.6403525030888
20
-0.233479574304027
30
0
41
1
10
19.0047671583378
20
0.0815359025096427
30
0
41
1
10
18.5809448739986
20
0.291749076390659
30
0
41
1
10
17.7321035842827
20
0.710606217262637
30
0
41
1
10
17.3070237102766
20
0.919136854022753
30
0
41
1
10
16.8812394935924
20
1.12669942786002
30
0
0
SPLINE
5
DC
100
AcDbEntity
8
1
62
256
6
ByLayer
370
18
48
1
60
0
100
AcDbSpline
70
4
71
3
72
14
73
10
40
0
40
0
40
0
40
0
40
0.25
40
0.25
40
0.5
40
0.5
40
0.75
40
0.75
40
1
40
1
40
1
40
1
41
1
10
64.3288330215872
20
1.57886517192568
30
0
41
1
10
64.3276571861906
20
1.59906648708508
30
0
41
1
10
64.3319475719408
20
1.61953000612581
30
0
41
1
10
64.3523535350376
20
1.65494541508357
30
0
41
1
10
64.3684089586953
20
1.66965610644621
30
0
41
1
10
64.4044182680394
20
1.69041735308727
30
0
41
1
10
64.4246899088882
20
1.69706698769912
30
0
41
1
10
64.4654144751307
20
1.70477824057517
30
0
41
1
10
64.4863220295279
20
1.7059777115403
30
0
41
1
10
64.5071558887332
20
1.70520971405551
30
0
0
SPLINE
5
DD
100
AcDbEntity
8
1
62
256
6
ByLayer
370
18
48
1
60
0
100
AcDbSpline
70
4
71
3
72
20
73
16
40
0
40
0
40
0
40
0
40
0.202305473872864
40
0.202305473872864
40
0.404610947745728
40
0.404610947745728
40
0.606916421618592
40
0.606916421618592
40
0.708069158555022
40
0.708069158555022
40
0.809221895491453
40
0.809221895491453
40
0.910374632427883
40
0.910374632427883
40
1
40
1
40
1
40
1
41
1
10
4.00000002110713
20
6.78569112542448
30
0
41
1
10
3.83583243321985
20
6.8329538370902
30
0
41
1
10
3.67481216886768
20
6.87779388867366
30
0
41
1
10
3.36108220584956
20
6.96179033205107
30
0
41
1
10
3.20911574022972
20
7.00074097880045
30
0
41
1
10
2.92027352311291
20
7.070828480784
30
0
41
1
10
2.78305783778683
20
7.10206307393651
30
0
41
1
10
2.59239983545103
20
7.14160632557022
30
0
41
1
10
2.53119480135234
20
7.15359623686192
30
0
41
1
10
2.41611165683776
20
7.17450511152265
30
0
41
1
10
2.36231020475392
20
7.18341469372277
30
0
41
1
10
2.26350898866903
20
7.19775356069283
30
0
41
1
10
2.21851449838485
20
7.20318501723841
30
0
41
1
10
2.14357950942724
20
7.20964614331797
30
0
41
1
10
2.11237548245231
20
7.21109341788952
30
0
41
1
10
2.08654817715853
20
7.21073972395317
30
0
0
SPLINE
5
DE
100
AcDbEntity
8
1
62
256
6
ByLayer
370
18
48
1
60
0
100
AcDbSpline
70
4
71
3
72
20
73
16
40
0
40
0
40
0
40
0
40
0.007764471667004
40
0.007764471667004
40
0.106988024500304
40
0.106988024500304
40
0.206211577333604
40
0.206211577333604
40
0.404658683000203
40
0.404658683000203
40
0.603105788666802
40
0.603105788666802
40
0.801552894333401
40
0.801552894333401
40
1
40
1
40
1
40
1
41
1
10
4.36999346986659
20
6.48152752438475
30
0
41
1
10
4.40352988315217
20
6.48130645066684
30
0
41
1
10
4.43706787276139
20
6.48111493612876
30
0
41
1
10
4.89920622436853
20
6.47888286886987
30
0
41
1
10
5.32751756601201
20
6.4816513809607
30
0
41
1
10
6.18358181418486
20
6.49643366125625
30
0
41
1
10
6.61188411624261
20
6.50846746616344
30
0
41
1
10
7.88918410632684
20
6.55685984125495
30
0
41
1
10
8.73207939494614
20
6.6057306810537
30
0
41
1
10
10.4020174212599
20
6.72345989726262
30
0
41
1
10
11.2289943506011
20
6.79235237263589
30
0
41
1
10
12.8688416675948
20
6.93145714659738
30
0
41
1
10
13.6818859602191
20
7.00158814883312
30
0
41
1
10
15.2960078728087
20
7.1207714248402
30
0
41
1
10
16.0923766518267
20
7.16927912089932
30
0
41
1
10
16.8812394935925
20
7.19652482529969
30
0
0
SPLINE
5
DF
100
AcDbEntity
8
1
62
256
6
ByLayer
370
13
48
1
60
0
100
AcDbSpline
70
4
71
3
72
12
73
8
40
0
40
0
40
0
40
0
40
0.500000000000014
40
0.500000000000014
40
0.750000000000007
40
0.750000000000007
40
1
40
1
40
1
40
1
41
1
10
4.00000002110011
20
-2.64404060405903
30
0
41
1
10
4.00000002110011
20
-2.67400490193009
30
0
41
1
10
4.01206646084381
20
-2.70477667922276
30
0
41
1
10
4.04681167966572
20
-2.74442969010286
30
0
41
1
10
4.061379319861
20
-2.75691836007371
30
0
41
1
10
4.09589829267463
20
-2.77897824369026
30
0
41
1
10
4.11548328577507
20
-2.78841983483153
30
0
41
1
10
4.1377898020703
20
-2.79601623869783
30
0
0
SPLINE
5
E0
100
AcDbEntity
8
1
62
256
6
ByLayer
370
18
48
1
60
0
100
AcDbSpline
70
4
71
2
72
6
73
3
40
0
40
0
40
0
40
1
40
1
40
1
41
1
10
63.948251661245
20
-6.8869430989543
30
0
41
1
10
64.2070028808755
20
-6.88769364549495
30
0
41
1
10
64.4624515866933
20
-6.88540828798335
30
0
0
SPLINE
5
E1
100
AcDbEntity
8
1
62
256
6
ByLayer
370
18
48
1
60
0
100
AcDbSpline
70
4
71
3
72
33
73
29
40
0
40
0
40
0
40
0
40
0.028379566279228
40
0.05730389284318
40
0.0905856739461991
40
0.139424688831355
40
0.185664659555194
40
0.22636943806834
40
0.262983146198447
40
0.300890306299662
40
0.339821413363833
40
0.387718648059919
40
0.440420033385287
40
0.486344174706077
40
0.528254493172296
40
0.57312631139021
40
0.612370879425933
40
0.653814028941823
40
0.704262160335605
40
0.762939799245401
40
0.824606958775941
40
0.867738171145693
40
0.906511171744441
40
0.938174644553806
40
0.966523089285072
40
0.980674163014165
40
0.994422539947736
40
1
40
1
40
1
40
1
41
1
10
20.3003842310513
20
-6.85977862167726
30
0
41
1
10
20.4201120283918
20
-6.85636084400159
30
0
41
1
10
20.7004000444211
20
-6.84897486567201
30
0
41
1
10
21.3104328166527
20
-6.82357817681489
30
0
41
1
10
22.1060369559847
20
-6.82248017933489
30
0
41
1
10
22.9828687995631
20
-6.84591095798783
30
0
41
1
10
23.9167158240935
20
-6.85649278607474
30
0
41
1
10
24.7720012514261
20
-6.86167901135434
30
0
41
1
10
25.5769668455779
20
-6.86224965727919
30
0
41
1
10
26.3783302054891
20
-6.86382312163158
30
0
41
1
10
27.257525616672
20
-6.86351309034231
30
0
41
1
10
28.2416343528413
20
-6.86301996671284
30
0
41
1
10
29.2748792567278
20
-6.86268132557976
30
0
41
1
10
30.2659475718245
20
-6.86659447518318
30
0
41
1
10
31.2017914885275
20
-6.86482786710997
30
0
41
1
10
32.0905387849339
20
-6.86461309128742
30
0
41
1
10
32.9759899479403
20
-6.86458974977901
30
0
41
1
10
33.9007634375663
20
-6.86890293791279
30
0
41
1
10
34.96256491659
20
-6.8671902988404
30
0
41
1
10
36.167012217434
20
-6.86547722626452
30
0
41
1
10
37.3198002840477
20
-6.86842707051261
30
0
41
1
10
38.3322564379567
20
-6.86874039858952
30
0
41
1
10
39.1331169124641
20
-6.87077774256679
30
0
41
1
10
39.829722389126
20
-6.87082149969223
30
0
41
1
10
40.3526199168021
20
-6.87008793698615
30
0
41
1
10
40.747524889622
20
-6.86953407355003
30
0
41
1
10
40.9786479585092
20
-6.86871605588803
30
0
41
1
10
41.114684328777
20
-6.86849343266687
30
0
41
1
10
41.1540175414046
20
-6.868434569768
30
0
0
SPLINE
5
E2
100
AcDbEntity
8
1
62
256
6
ByLayer
370
18
48
1
60
0
100
AcDbSpline
70
4
71
3
72
29
73
25
40
0
40
0
40
0
40
0
40
0.0270173253712432
40
0.061423259933049
40
0.0951049270183945
40
0.1266712186501
40
0.171924121361311
40
0.216920424204783
40
0.263902958402801
40
0.313158066049751
40
0.365877041258516
40
0.421626495207302
40
0.450304997924629
40
0.474286683200801
40
0.499951293417178
40
0.537024144800684
40
0.643625606719153
40
0.723491423371752
40
0.788333826988269
40
0.850124603141193
40
0.906349967429024
40
0.94518414480392
40
0.995072622084404
40
1
40
1
40
1
40
1
41
1
10
41.267529836301
20
6.86720016683103
30
0
41
1
10
41.1189839779668
20
6.86793363284892
30
0
41
1
10
40.7801039516217
20
6.86934541735656
30
0
41
1
10
40.2501098440342
20
6.87025182394342
30
0
41
1
10
39.6924695825733
20
6.87094251506264
30
0
41
1
10
39.0734420478474
20
6.87048163015277
30
0
41
1
10
38.3910622858273
20
6.86873820210076
30
0
41
1
10
37.6224695604075
20
6.86897908780745
30
0
41
1
10
36.8309241721417
20
6.86648653554352
30
0
41
1
10
35.9975395734518
20
6.86604689246428
30
0
41
1
10
35.113477666664
20
6.86665788985516
30
0
41
1
10
34.3457054809002
20
6.86831315197634
30
0
41
1
10
33.7386343145172
20
6.8677448372149
30
0
41
1
10
33.2998025398877
20
6.86600858514421
30
0
41
1
10
32.8139434659692
20
6.86480754955477
30
0
41
1
10
31.8651866714079
20
6.8642568643883
30
0
41
1
10
30.6127348723266
20
6.86727351145231
30
0
41
1
10
29.2048017781436
20
6.86263792084284
30
0
41
1
10
28.0476243677307
20
6.86304687568494
30
0
41
1
10
27.0238547792352
20
6.86381732407366
30
0
41
1
10
26.1436949166175
20
6.86310623054041
30
0
41
1
10
25.3352901487129
20
6.86218752802716
30
0
41
1
10
24.817724237392
20
6.86119926834314
30
0
41
1
10
24.5171865134121
20
6.85916390888622
30
0
41
1
10
24.4901860423102
20
6.85897065107744
30
0
0
LINE
5
7B
100
AcDbEntity
8
SK1
62
256
6
ByLayer
370
18
48
1
60
0
100
AcDbLine
10
-45.55
20
8
30
0
11
-45.55
21
-8
31
0
39
0
210
0
220
0
230
1
0
LINE
5
7D
100
AcDbEntity
8
SK1
62
256
6
ByLayer
370
18
48
1
60
0
100
AcDbLine
10
0
20
-8
30
0
11
0
21
8
31
0
39
0
210
0
220
0
230
1
0
LINE
5
7E
100
AcDbEntity
8
SK1
62
256
6
ByLayer
370
18
48
1
60
0
100
AcDbLine
10
-48
20
5.55
30
0
11
-48
21
-5.55
31
0
39
0
210
0
220
0
230
1
0
LINE
5
7F
100
AcDbEntity
8
1
62
256
6
ByLayer
370
13
48
1
60
0
100
AcDbLine
10
1.380114
20
7.210348
30
0
11
1.380114
21
-7.210348
31
0
39
0
210
0
220
0
230
1
0
LINE
5
80
100
AcDbEntity
8
1
62
256
6
ByLayer
370
18
48
1
60
0
100
AcDbLine
10
4
20
-2.689124
30
0
11
4
21
6.785691
31
0
39
0
210
0
220
0
230
1
0
LINE
5
81
100
AcDbEntity
8
1
62
256
6
ByLayer
370
13
48
1
60
0
100
AcDbLine
10
64.328833
20
1.578865
30
0
11
66.950457
21
-0.080685
31
0
39
0
210
0
220
0
230
1
0
LINE
5
82
100
AcDbEntity
8
1
62
256
6
ByLayer
370
13
48
1
60
0
100
AcDbLine
10
64.507156
20
1.70521
30
0
11
66.98914
21
0.134055
31
0
39
0
210
0
220
0
230
1
0
LINE
5
83
100
AcDbEntity
8
1
62
256
6
ByLayer
370
13
48
1
60
0
100
AcDbLine
10
0.689807
20
7.605174
30
0
11
0.689807
21
-7.605174
31
0
39
0
210
0
220
0
230
1
0
LINE
5
84
100
AcDbEntity
8
1
62
256
6
ByLayer
370
18
48
1
60
0
100
AcDbLine
10
0
20
-8
30
0
11
0
21
8
31
0
39
0
210
0
220
0
230
1
0
LINE
5
85
100
AcDbEntity
8
80
62
256
6
ByLayer
370
18
48
1
60
0
100
AcDbLine
10
0
20
0
30
0
11
-5
21
0
31
0
39
0
210
0
220
0
230
1
0
LINE
5
86
100
AcDbEntity
8
4
62
256
6
ByLayer
370
18
48
0.05
60
0
100
AcDbLine
10
67
20
0
30
0
11
0
21
0
31
0
39
0
210
0
220
0
230
1
0
LINE
5
88
100
AcDbEntity
8
SK4
62
256
6
ByLayer
370
18
48
0.05
60
0
100
AcDbLine
10
72
20
0
30
0
11
-53
21
0
31
0
39
0
210
0
220
0
230
1
0
LINE
5
8A
100
AcDbEntity
8
1
62
256
6
ByLayer
370
18
48
1
60
0
100
AcDbLine
10
17.999887
20
-7.220736
30
0
11
20.186248
21
-7.222102
31
0
39
0
210
0
220
0
230
1
0
LINE
5
8B
100
AcDbEntity
8
1
62
256
6
ByLayer
370
18
48
1
60
0
100
AcDbLine
10
20.186524
20
7.222102
30
0
11
17.999887
21
7.220736
31
0
39
0
210
0
220
0
230
1
0
LINE
5
8C
100
AcDbEntity
8
SK1
62
256
6
ByLayer
370
18
48
1
60
0
100
AcDbLine
10
-45.55
20
-8
30
0
11
0
21
-8
31
0
39
0
210
0
220
0
230
1
0
LINE
5
8D
100
AcDbEntity
8
SK1
62
256
6
ByLayer
370
18
48
1
60
0
100
AcDbLine
10
0
20
8
30
0
11
-45.55
21
8
31
0
39
0
210
0
220
0
230
1
0
LINE
5
8E
100
AcDbEntity
8
SK1
62
256
6
ByLayer
370
18
48
1
60
0
100
AcDbLine
10
-48
20
-5.55
30
0
11
-45.55
21
-8
31
0
39
0
210
0
220
0
230
1
0
LINE
5
8F
100
AcDbEntity
8
SK1
62
256
6
ByLayer
370
18
48
1
60
0
100
AcDbLine
10
-45.55
20
8
30
0
11
-48
21
5.55
31
0
39
0
210
0
220
0
230
1
0
LINE
5
90
100
AcDbEntity
8
1
62
256
6
ByLayer
370
18
48
1
60
0
100
AcDbLine
10
1.380114
20
-7.210348
30
0
11
2.10255
21
-7.2108
31
0
39
0
210
0
220
0
230
1
0
LINE
5
91
100
AcDbEntity
8
1
62
256
6
ByLayer
370
18
48
1
60
0
100
AcDbLine
10
61.545041
20
-7.247951
30
0
11
63.73717
21
-7.249322
31
0
39
0
210
0
220
0
230
1
0
LINE
5
92
100
AcDbEntity
8
1
62
256
6
ByLayer
370
18
48
1
60
0
100
AcDbLine
10
63.737167
20
7.249322
30
0
11
61.545041
21
7.247951
31
0
39
0
210
0
220
0
230
1
0
LINE
5
93
100
AcDbEntity
8
1
62
256
6
ByLayer
370
18
48
1
60
0
100
AcDbLine
10
2.10255
20
7.2108
30
0
11
1.380114
21
7.210348
31
0
39
0
210
0
220
0
230
1
0
LINE
5
94
100
AcDbEntity
8
81
62
256
6
ByLayer
370
18
48
1
60
0
100
AcDbLine
10
67
20
0
30
0
11
72
21
0
31
0
39
0
210
0
220
0
230
1
0
LINE
5
95
100
AcDbEntity
8
SK2
62
256
6
ByLayer
370
13
48
1
60
0
100
AcDbLine
10
-56.625163
20
-8
30
0
11
-56.625163
21
38.857173
31
0
39
0
210
0
220
0
230
1
0
LINE
5
97
100
AcDbEntity
8
SK2
62
256
6
ByLayer
370
13
48
1
60
0
100
AcDbLine
10
-49.5875
20
8
30
0
11
-58.625163
21
8
31
0
39
0
210
0
220
0
230
1
0
LINE
5
98
100
AcDbEntity
8
SK2
62
256
6
ByLayer
370
13
48
1
60
0
100
AcDbLine
10
-49.5875
20
-8
30
0
11
-58.625163
21
-8
31
0
39
0
210
0
220
0
230
1
0
LINE
5
99
100
AcDbEntity
8
1
62
256
6
ByLayer
370
18
48
1
60
1
100
AcDbLine
10
-56.625163
20
8
30
0
11
-56.164379
21
4.500002
31
0
39
0
210
0
220
0
230
1
0
LINE
5
9A
100
AcDbEntity
8
1
62
256
6
ByLayer
370
18
48
1
60
1
100
AcDbLine
10
-56.164379
20
4.500002
30
0
11
-57.085946
21
4.499998
31
0
39
0
210
0
220
0
230
1
0
LINE
5
9B
100
AcDbEntity
8
1
62
256
6
ByLayer
370
18
48
1
60
1
100
AcDbLine
10
-57.085946
20
4.499998
30
0
11
-56.625163
21
8
31
0
39
0
210
0
220
0
230
1
0
LINE
5
9C
100
AcDbEntity
8
1
62
256
6
ByLayer
370
18
48
1
60
1
100
AcDbLine
10
-56.625163
20
-8
30
0
11
-57.085946
21
-4.500002
31
0
39
0
210
0
220
0
230
1
0
LINE
5
9D
100
AcDbEntity
8
1
62
256
6
ByLayer
370
18
48
1
60
1
100
AcDbLine
10
-57.085946
20
-4.500002
30
0
11
-56.164379
21
-4.499998
31
0
39
0
210
0
220
0
230
1
0
LINE
5
9E
100
AcDbEntity
8
1
62
256
6
ByLayer
370
18
48
1
60
1
100
AcDbLine
10
-56.164379
20
-4.499998
30
0
11
-56.625163
21
-8
31
0
39
0
210
0
220
0
230
1
0
LINE
5
9F
100
AcDbEntity
8
2
62
256
6
ByLayer
370
13
48
1
60
0
100
AcDbLine
10
79.083343
20
-7.25
30
0
11
79.083343
21
37.068792
31
0
39
0
210
0
220
0
230
1
0
LINE
5
A1
100
AcDbEntity
8
2
62
256
6
ByLayer
370
13
48
1
60
0
100
AcDbLine
10
66.4253
20
7.25
30
0
11
81.083343
21
7.25
31
0
39
0
210
0
220
0
230
1
0
LINE
5
A2
100
AcDbEntity
8
2
62
256
6
ByLayer
370
13
48
1
60
0
100
AcDbLine
10
66.4253
20
-7.25
30
0
11
81.083343
21
-7.25
31
0
39
0
210
0
220
0
230
1
0
LINE
5
A3
100
AcDbEntity
8
1
62
256
6
ByLayer
370
18
48
1
60
1
100
AcDbLine
10
79.083343
20
7.25
30
0
11
79.544126
21
3.750002
31
0
39
0
210
0
220
0
230
1
0
LINE
5
A4
100
AcDbEntity
8
1
62
256
6
ByLayer
370
18
48
1
60
1
100
AcDbLine
10
79.544126
20
3.750002
30
0
11
78.622559
21
3.749998
31
0
39
0
210
0
220
0
230
1
0
LINE
5
A5
100
AcDbEntity
8
1
62
256
6
ByLayer
370
18
48
1
60
1
100
AcDbLine
10
78.622559
20
3.749998
30
0
11
79.083343
21
7.25
31
0
39
0
210
0
220
0
230
1
0
LINE
5
A6
100
AcDbEntity
8
1
62
256
6
ByLayer
370
18
48
1
60
1
100
AcDbLine
10
79.083343
20
-7.25
30
0
11
78.622559
21
-3.750002
31
0
39
0
210
0
220
0
230
1
0
LINE
5
A7
100
AcDbEntity
8
1
62
256
6
ByLayer
370
18
48
1
60
1
100
AcDbLine
10
78.622559
20
-3.750002
30
0
11
79.544126
21
-3.749998
31
0
39
0
210
0
220
0
230
1
0
LINE
5
A8
100
AcDbEntity
8
1
62
256
6
ByLayer
370
18
48
1
60
1
100
AcDbLine
10
79.544126
20
-3.749998
30
0
11
79.083343
21
-7.25
31
0
39
0
210
0
220
0
230
1
0
LINE
5
E9
100
AcDbEntity
8
1
62
256
6
ByLayer
370
18
48
1
60
1
100
AcDbLine
10
-56.625163
20
8
30
0
11
-56.164379
21
4.500002
31
0
39
0
210
0
220
0
230
1
0
LINE
5
EA
100
AcDbEntity
8
1
62
256
6
ByLayer
370
18
48
1
60
1
100
AcDbLine
10
-56.164379
20
4.500002
30
0
11
-57.085946
21
4.499998
31
0
39
0
210
0
220
0
230
1
0
LINE
5
EB
100
AcDbEntity
8
1
62
256
6
ByLayer
370
18
48
1
60
1
100
AcDbLine
10
-57.085946
20
4.499998
30
0
11
-56.625163
21
8
31
0
39
0
210
0
220
0
230
1
0
LINE
5
ED
100
AcDbEntity
8
1
62
256
6
ByLayer
370
18
48
1
60
1
100
AcDbLine
10
-56.625163
20
-8
30
0
11
-57.085946
21
-4.500002
31
0
39
0
210
0
220
0
230
1
0
LINE
5
EE
100
AcDbEntity
8
1
62
256
6
ByLayer
370
18
48
1
60
1
100
AcDbLine
10
-57.085946
20
-4.500002
30
0
11
-56.164379
21
-4.499998
31
0
39
0
210
0
220
0
230
1
0
LINE
5
EF
100
AcDbEntity
8
1
62
256
6
ByLayer
370
18
48
1
60
1
100
AcDbLine
10
-56.164379
20
-4.499998
30
0
11
-56.625163
21
-8
31
0
39
0
210
0
220
0
230
1
0
LINE
5
F3
100
AcDbEntity
8
1
62
256
6
ByLayer
370
18
48
1
60
1
100
AcDbLine
10
79.083343
20
7.25
30
0
11
79.544126
21
3.750002
31
0
39
0
210
0
220
0
230
1
0
LINE
5
F4
100
AcDbEntity
8
1
62
256
6
ByLayer
370
18
48
1
60
1
100
AcDbLine
10
79.544126
20
3.750002
30
0
11
78.622559
21
3.749998
31
0
39
0
210
0
220
0
230
1
0
LINE
5
F5
100
AcDbEntity
8
1
62
256
6
ByLayer
370
18
48
1
60
1
100
AcDbLine
10
78.622559
20
3.749998
30
0
11
79.083343
21
7.25
31
0
39
0
210
0
220
0
230
1
0
LINE
5
F7
100
AcDbEntity
8
1
62
256
6
ByLayer
370
18
48
1
60
1
100
AcDbLine
10
79.083343
20
-7.25
30
0
11
78.622559
21
-3.750002
31
0
39
0
210
0
220
0
230
1
0
LINE
5
F8
100
AcDbEntity
8
1
62
256
6
ByLayer
370
18
48
1
60
1
100
AcDbLine
10
78.622559
20
-3.750002
30
0
11
79.544126
21
-3.749998
31
0
39
0
210
0
220
0
230
1
0
LINE
5
F9
100
AcDbEntity
8
1
62
256
6
ByLayer
370
18
48
1
60
1
100
AcDbLine
10
79.544126
20
-3.749998
30
0
11
79.083343
21
-7.25
31
0
39
0
210
0
220
0
230
1
0
MTEXT
5
E3
100
AcDbEntity
8
SK6
62
256
6
ByLayer
370
13
48
1
60
0
100
AcDbMText
10
-20.197993
20
39.790328
30
0
210
0
220
0
230
1
1
\W0.7803;462.1-1450-044A0-XM X2BM
40
3.5
41
0
44
1.084337
50
0
71
7
72
5
7
iso_b_vert
0
MTEXT
5
E7
100
AcDbEntity
8
SK2
62
256
6
ByLayer
370
18
48
1
60
0
100
AcDbMText
10
-58.189796
20
21.409024
30
0
210
0
220
0
230
1
1
%%c
40
3.5
41
0
44
1.084337
50
90
71
7
72
5
7
iso_b_vert
0
MTEXT
5
E8
100
AcDbEntity
8
SK2
62
256
6
ByLayer
370
18
48
1
60
0
100
AcDbMText
10
-58.189796
20
26.63168
30
0
210
0
220
0
230
1
1
\W0.6930;16,000
40
3.5
41
0
44
1.084337
50
90
71
7
72
5
7
iso_b_vert
0
MTEXT
5
F1
100
AcDbEntity
8
2
62
256
6
ByLayer
370
18
48
1
60
0
100
AcDbMText
10
77.518709
20
19.25211
30
0
210
0
220
0
230
1
1
%%c
40
3.5
41
0
44
1.084337
50
90
71
7
72
5
7
iso_b_vert
0
MTEXT
5
F2
100
AcDbEntity
8
2
62
256
6
ByLayer
370
18
48
1
60
0
100
AcDbMText
10
77.518709
20
24.474766
30
0
210
0
220
0
230
1
1
\W0.7145;14,500
40
3.5
41
0
44
1.084337
50
90
71
7
72
5
7
iso_b_vert
0
HATCH
5
EC
100
AcDbEntity
8
SK2
62
256
6
ByLayer
370
13
48
1
60
0
100
AcDbHatch
10
0
20
0
30
0
210
0
220
0
230
1
2
ANSI31
70
0
71
0
91
1
92
5
93
3
72
1
10
-56.6251625675374
20
8
11
-56.1643788259847
21
4.50000169255318
72
1
10
-56.1643788259847
20
4.50000169255318
11
-57.0859463090902
21
4.49999830744682
72
1
10
-57.0859463090902
20
4.49999830744682
11
-56.6251625675374
21
8
97
0
75
0
76
1
52
0
41
0.0062
77
0
78
1
53
45
43
0
44
0
45
-0.0139193969876572
46
0.0139193969876572
79
0
47
0
98
1
10
0
20
0
0
HATCH
5
F0
100
AcDbEntity
8
SK2
62
256
6
ByLayer
370
13
48
1
60
0
100
AcDbHatch
10
0
20
0
30
0
210
0
220
0
230
1
2
ANSI31
70
0
71
0
91
1
92
5
93
3
72
1
10
-56.6251625675374
20
-8
11
-57.0859463090902
21
-4.50000169255318
72
1
10
-57.0859463090902
20
-4.50000169255318
11
-56.1643788259847
21
-4.49999830744682
72
1
10
-56.1643788259847
20
-4.49999830744682
11
-56.6251625675374
21
-8
97
0
75
0
76
1
52
0
41
0.0062
77
0
78
1
53
45
43
0
44
0
45
-0.0139193969876572
46
0.0139193969876572
79
0
47
0
98
1
10
0
20
0
0
HATCH
5
F6
100
AcDbEntity
8
2
62
256
6
ByLayer
370
13
48
1
60
0
100
AcDbHatch
10
0
20
0
30
0
210
0
220
0
230
1
2
ANSI31
70
0
71
0
91
1
92
5
93
3
72
1
10
79.083342615295
20
7.25
11
79.5441263568478
21
3.75000169255318
72
1
10
79.5441263568478
20
3.75000169255318
11
78.6225588737423
21
3.74999830744682
72
1
10
78.6225588737423
20
3.74999830744682
11
79.083342615295
21
7.25
97
0
75
0
76
1
52
0
41
0.0062
77
0
78
1
53
45
43
0
44
0
45
-0.0139193969876572
46
0.0139193969876572
79
0
47
0
98
1
10
0
20
0
0
HATCH
5
FA
100
AcDbEntity
8
2
62
256
6
ByLayer
370
13
48
1
60
0
100
AcDbHatch
10
0
20
0
30
0
210
0
220
0
230
1
2
ANSI31
70
0
71
0
91
1
92
5
93
3
72
1
10
79.083342615295
20
-7.25
11
78.6225588737423
21
-3.75000169255318
72
1
10
78.6225588737423
20
-3.75000169255318
11
79.5441263568478
21
-3.74999830744682
72
1
10
79.5441263568478
20
-3.74999830744682
11
79.083342615295
21
-7.25
97
0
75
0
76
1
52
0
41
0.0062
77
0
78
1
53
45
43
0
44
0
45
-0.0139193969876572
46
0.0139193969876572
79
0
47
0
98
1
10
0
20
0
0
DIMENSION
5
FC
100
AcDbEntity
8
SK2
62
256
6
ByLayer
370
13
48
1
60
0
100
AcDbDimension
2
_U0
10
64.8378
20
-17.463398
30
0
11
32.4189
21
-17.463398
31
0
70
32
71
1
72
1
41
1
210
0
220
0
230
1
3
Standard
100
AcDbAlignedDimension
13
0
23
0
33
0
14
64.8378
24
-7.25
34
0
50
0
100
AcDbRotatedDimension
1001
ACAD
1000
DSTYLE
1002
{
1070
   371
1070
    13
1070
   372
1070
    13
1070
   170
1070
     0
1070
   144
1040
1.0
1070
   277
1070
     2
1070
   278
1070
    44
1070
   146
1040
1.0
1070
   345
1005
16
1070
   347
1005
16
1070
   346
1005
16
1070
   344
1005
0
1070
   343
1005
0
1070
   172
1070
     1
1070
    76
1070
     0
1070
    75
1070
     0
1070
   282
1070
     0
1070
   281
1070
     0
1070
    71
1070
     0
1070
    74
1070
     0
1070
   279
1070
     0
1070
   173
1070
     1
1070
   340
1005
E4
1070
   271
1070
     2
1070
   272
1070
     2
1070
    77
1070
     1
1070
    73
1070
     1
1070
   171
1070
     3
1070
   274
1070
     4
1070
   177
1070
    35
1070
   176
1070
    35
1070
   178
1070
    35
1070
    48
1040
-0.1
1070
    41
1040
3.5
1070
   147
1040
1.75
1070
    42
1040
1.5875
1070
    44
1040
2.0
1070
   140
1040
3.5
1002
}
1001
ACAD_DSTYLE_DIM_LINETYPE
1070
   380
1005
16
1001
ACAD_DSTYLE_DIM_EXT1_LINETYPE
1070
   381
1005
16
1001
ACAD_DSTYLE_DIM_EXT2_LINETYPE
1070
   382
1005
16
0
DIMENSION
5
115
100
AcDbEntity
8
SK2
62
256
6
ByLayer
370
13
48
1
60
0
100
AcDbDimension
2
_U1
10
67
20
-36.692985
30
0
11
9.5
21
-36.692985
31
0
70
32
71
1
72
1
41
1
210
0
220
0
230
1
3
Standard
100
AcDbAlignedDimension
13
-48
23
-8
33
0
14
67
24
0
34
0
50
0
100
AcDbRotatedDimension
1001
ACAD
1000
DSTYLE
1002
{
1070
   371
1070
    13
1070
   372
1070
    13
1070
   170
1070
     0
1070
   144
1040
1.0
1070
   277
1070
     2
1070
   278
1070
    44
1070
   146
1040
1.0
1070
   345
1005
16
1070
   347
1005
16
1070
   346
1005
16
1070
   344
1005
0
1070
   343
1005
0
1070
   172
1070
     1
1070
    76
1070
     0
1070
    75
1070
     0
1070
   282
1070
     0
1070
   281
1070
     0
1070
    71
1070
     0
1070
    74
1070
     0
1070
   279
1070
     0
1070
   173
1070
     1
1070
   340
1005
E4
1070
   271
1070
     2
1070
   272
1070
     2
1070
    77
1070
     1
1070
    73
1070
     1
1070
   171
1070
     3
1070
   274
1070
     4
1070
   177
1070
    35
1070
   176
1070
    35
1070
   178
1070
    35
1070
    48
1040
-0.1
1070
    41
1040
3.5
1070
   147
1040
1.75
1070
    42
1040
1.5875
1070
    44
1040
2.0
1070
   140
1040
3.5
1002
}
1001
ACAD_DSTYLE_DIM_LINETYPE
1070
   380
1005
16
1001
ACAD_DSTYLE_DIM_EXT1_LINETYPE
1070
   381
1005
16
1001
ACAD_DSTYLE_DIM_EXT2_LINETYPE
1070
   382
1005
16
0
DIMENSION
5
12D
100
AcDbEntity
8
SK2
62
256
6
ByLayer
370
13
48
1
60
0
100
AcDbDimension
2
_U2
10
67
20
18.859119
30
0
11
44.17
21
18.859119
31
0
70
32
71
1
72
1
41
1
210
0
220
0
230
1
3
Standard
100
AcDbAlignedDimension
13
21.34
23
7.25
33
0
14
67
24
0
34
0
50
0
100
AcDbRotatedDimension
1001
ACAD
1000
DSTYLE
1002
{
1070
   371
1070
    13
1070
   372
1070
    13
1070
   170
1070
     0
1070
   144
1040
1.0
1070
   277
1070
     2
1070
   278
1070
    44
1070
   146
1040
1.0
1070
   345
1005
16
1070
   347
1005
16
1070
   346
1005
16
1070
   344
1005
0
1070
   343
1005
0
1070
   172
1070
     1
1070
    76
1070
     0
1070
    75
1070
     0
1070
   282
1070
     0
1070
   281
1070
     0
1070
    71
1070
     0
1070
    74
1070
     0
1070
   279
1070
     0
1070
   173
1070
     1
1070
   340
1005
E4
1070
   271
1070
     2
1070
   272
1070
     2
1070
    77
1070
     1
1070
    73
1070
     1
1070
   171
1070
     3
1070
   274
1070
     4
1070
   177
1070
    35
1070
   176
1070
    35
1070
   178
1070
    35
1070
    48
1040
-0.1
1070
    41
1040
3.5
1070
   147
1040
1.75
1070
    42
1040
1.5875
1070
    44
1040
2.0
1070
   140
1040
3.5
1002
}
1001
ACAD_DSTYLE_DIM_LINETYPE
1070
   380
1005
16
1001
ACAD_DSTYLE_DIM_EXT1_LINETYPE
1070
   381
1005
16
1001
ACAD_DSTYLE_DIM_EXT2_LINETYPE
1070
   382
1005
16
0
DIMENSION
5
145
100
AcDbEntity
8
SK2
62
256
6
ByLayer
370
13
48
1
60
0
100
AcDbDimension
2
_U3
10
64.8378
20
-20.052503
30
0
11
84.583333
21
-20.052503
31
0
70
32
71
1
72
1
41
1
210
0
220
0
230
1
3
Standard
100
AcDbAlignedDimension
13
67
23
0
33
0
14
64.8378
24
-7.25
34
0
50
0
100
AcDbRotatedDimension
1001
ACAD
1000
DSTYLE
1002
{
1070
   371
1070
    13
1070
   372
1070
    13
1070
   170
1070
     0
1070
   144
1040
1.0
1070
   277
1070
     2
1070
   278
1070
    44
1070
   146
1040
1.0
1070
   345
1005
16
1070
   347
1005
16
1070
   346
1005
16
1070
   344
1005
0
1070
   343
1005
0
1070
   172
1070
     1
1070
    76
1070
     0
1070
    75
1070
     0
1070
   282
1070
     0
1070
   281
1070
     0
1070
    71
1070
     0
1070
    74
1070
     0
1070
   279
1070
     0
1070
   173
1070
     1
1070
   340
1005
E4
1070
   271
1070
     2
1070
   272
1070
     2
1070
    77
1070
     1
1070
    73
1070
     1
1070
   171
1070
     3
1070
   274
1070
     4
1070
   177
1070
    35
1070
   176
1070
    35
1070
   178
1070
    35
1070
    48
1040
-0.1
1070
    41
1040
3.5
1070
   147
1040
1.75
1070
    42
1040
1.5875
1070
    44
1040
2.0
1070
   140
1040
3.5
1002
}
1001
ACAD_DSTYLE_DIM_LINETYPE
1070
   380
1005
16
1001
ACAD_DSTYLE_DIM_EXT1_LINETYPE
1070
   381
1005
16
1001
ACAD_DSTYLE_DIM_EXT2_LINETYPE
1070
   382
1005
16
0
DIMENSION
5
15F
100
AcDbEntity
8
SK2
62
256
6
ByLayer
370
13
48
1
60
0
100
AcDbDimension
2
_U4
10
64.8378
20
-26.343428
30
0
11
8.4189
21
-26.343428
31
0
70
32
71
1
72
1
41
1
210
0
220
0
230
1
3
Standard
100
AcDbAlignedDimension
13
-48
23
-8
33
0
14
64.8378
24
-7.25
34
0
50
0
100
AcDbRotatedDimension
1001
ACAD
1000
DSTYLE
1002
{
1070
   371
1070
    13
1070
   372
1070
    13
1070
   170
1070
     0
1070
   144
1040
1.0
1070
   277
1070
     2
1070
   278
1070
    44
1070
   146
1040
1.0
1070
   345
1005
16
1070
   347
1005
16
1070
   346
1005
16
1070
   344
1005
0
1070
   343
1005
0
1070
   172
1070
     1
1070
    76
1070
     0
1070
    75
1070
     0
1070
   282
1070
     0
1070
   281
1070
     0
1070
    71
1070
     0
1070
    74
1070
     0
1070
   279
1070
     0
1070
   173
1070
     1
1070
   340
1005
E4
1070
   271
1070
     2
1070
   272
1070
     2
1070
    77
1070
     1
1070
    73
1070
     1
1070
   171
1070
     3
1070
   274
1070
     4
1070
   177
1070
    35
1070
   176
1070
    35
1070
   178
1070
    35
1070
    48
1040
-0.1
1070
    41
1040
3.5
1070
   147
1040
1.75
1070
    42
1040
1.5875
1070
    44
1040
2.0
1070
   140
1040
3.5
1002
}
1001
ACAD_DSTYLE_DIM_LINETYPE
1070
   380
1005
16
1001
ACAD_DSTYLE_DIM_EXT1_LINETYPE
1070
   381
1005
16
1001
ACAD_DSTYLE_DIM_EXT2_LINETYPE
1070
   382
1005
16
0
ENDSEC
0
SECTION
2
OBJECTS
0
DICTIONARY
5
1e7
330
0
100
AcDbDictionary
280
0
281
1
3
ACAD_GROUP
350
1e8
3
ACAD_MLINESTYLE
350
1e9
0
DICTIONARY
5
1e8
330
0
100
AcDbDictionary
280
0
281
1
0
DICTIONARY
5
1e9
330
0
100
AcDbDictionary
280
0
281
1
3
Standard
350
18
0
MLINESTYLE
5
18
330
1e9
100
AcDbMlineStyle
2
Standard
70
0
3

62
256
51
90
52
90
71
2
49
-0.5
62
256
6
ByLayer
49
0.5
62
256
6
ByLayer
0
RASTERVARIABLES
5
1d5
330

100
AcDbRasterVariables
90
0
70
1
71
1
72
1
0
ENDSEC
0
EOF
