0
SECTION
2
HEADER
9
$ACADVER
1
AC1015
9
$DWGCODEPAGE
3
ANSI_1252
9
$HANDSEED
5
1f6
9
$ANGBASE
50
0
9
$ANGDIR
70
0
9
$ATTMODE
70
1
9
$AUNITS
70
0
9
$AUPREC
70
0
9
$CECOLOR
62
256
9
$CELTSCALE
40
1
9
$CELTYPE
6
ByLayer
9
$CELWEIGHT
370
18
9
$CLAYER
8
0
9
$CMLJUST
70
0
9
$CMLSCALE
40
1
9
$CMLSTYLE
2
Standard
9
$DIMSTYLE
2
Standard
9
$TEXTSIZE
40
0.2
9
$TEXTSTYLE
7
Standard
9
$LUNITS
70
2
9
$LUPREC
70
4
9
$EXTNAMES
290
1
9
$INSUNITS
70
4
9
$LTSCALE
40
1
9
$LWDISPLAY
290
1
9
$PDMODE
70
0
9
$PDSIZE
40
0
9
$PLINEGEN
70
0
0
ENDSEC
0
SECTION
2
CLASSES
0
CLASS
1
RASTERVARIABLES
2
AcDbRasterVariables
3
ISM
90
0
280
0
281
0
0
ENDSEC
0
SECTION
2
TABLES
0
TABLE
2
VPORT
5
1ec
100
AcDbSymbolTable
0
VPORT
5
1
100
AcDbSymbolTableRecord
100
AcDbViewportTableRecord
2
*Active
70
0
10
0
20
0
11
1
21
1
12
-1
22
1
13
0
23
0
14
0.5
24
0.5
15
10
25
10
16
0
26
0
36
1
17
0
27
0
37
0
0
ENDTAB
0
TABLE
2
LTYPE
5
1ed
100
AcDbSymbolTable
0
LTYPE
5
14
100
AcDbSymbolTableRecord
100
AcDbLinetypeTableRecord
70
0
2
ByBlock
3

72
65
73
0
40
0
0
LTYPE
5
15
100
AcDbSymbolTableRecord
100
AcDbLinetypeTableRecord
70
0
2
ByLayer
3

72
65
73
0
40
0
0
LTYPE
5
16
100
AcDbSymbolTableRecord
100
AcDbLinetypeTableRecord
70
0
2
Continuous
3
Solid line
72
65
73
0
40
0
0
LTYPE
5
6E
100
AcDbSymbolTableRecord
100
AcDbLinetypeTableRecord
70
0
2
CENTER
3
____ _ ____ _ ____ _ ____
72
65
73
4
40
47.5
49
22
74
0
49
-8.5
74
0
49
8.5
74
0
49
-8.5
74
0
0
LTYPE
5
6F
100
AcDbSymbolTableRecord
100
AcDbLinetypeTableRecord
70
0
2
DASHED
3
__ __ __ __ __ __ __ __ __
72
65
73
2
40
25.72
49
12.86
74
0
49
-12.86
74
0
0
ENDTAB
0
TABLE
2
LAYER
5
1ee
100
AcDbSymbolTable
0
LAYER
5
10
100
AcDbSymbolTableRecord
100
AcDbLayerTableRecord
2
0
70
0
62
7
6
Continuous
290
1
370
-3
390
0
0
LAYER
5
71
100
AcDbSymbolTableRecord
100
AcDbLayerTableRecord
2
80
70
0
62
-6
6
Continuous
290
1
370
-3
390
0
0
LAYER
5
73
100
AcDbSymbolTableRecord
100
AcDbLayerTableRecord
2
81
70
0
62
-3
6
Continuous
290
1
370
-3
390
0
0
LAYER
5
75
100
AcDbSymbolTableRecord
100
AcDbLayerTableRecord
2
1
70
0
62
4
6
Continuous
290
1
370
-3
390
0
0
LAYER
5
87
100
AcDbSymbolTableRecord
100
AcDbLayerTableRecord
2
4
70
0
62
-2
6
CENTER
290
1
370
-3
390
0
0
LAYER
5
A0
100
AcDbSymbolTableRecord
100
AcDbLayerTableRecord
2
2
70
0
62
7
6
Continuous
290
1
370
-3
390
0
0
LAYER
5
100
100
AcDbSymbolTableRecord
100
AcDbLayerTableRecord
2
Defpoints
70
0
62
7
6
Continuous
290
0
370
-3
390
0
0
LAYER
5
1d8
100
AcDbSymbolTableRecord
100
AcDbLayerTableRecord
2
SK1
70
0
62
4
6
Continuous
290
1
370
-3
390
0
0
LAYER
5
1d9
100
AcDbSymbolTableRecord
100
AcDbLayerTableRecord
2
SK4
70
0
62
2
6
CENTER
290
1
370
-3
390
0
0
LAYER
5
1da
100
AcDbSymbolTableRecord
100
AcDbLayerTableRecord
2
SK2
70
0
62
7
6
Continuous
290
1
370
-3
390
0
0
LAYER
5
1db
100
AcDbSymbolTableRecord
100
AcDbLayerTableRecord
2
SK6
70
0
62
5
6
Continuous
290
1
370
-3
390
0
0
ENDTAB
0
TABLE
2
STYLE
5
1ef
100
AcDbSymbolTable
0
STYLE
5
11
100
AcDbSymbolTableRecord
100
AcDbTextStyleTableRecord
2
Standard
3
txt
70
0
71
0
40
0
41
1
42
0
50
0
0
STYLE
5
E5
100
AcDbSymbolTableRecord
100
AcDbTextStyleTableRecord
2
iso_b_vert
3
simplex.shx
70
0
71
0
40
0
41
1
42
0
50
0
0
STYLE
5
E6
100
AcDbSymbolTableRecord
100
AcDbTextStyleTableRecord
2
DWGDirectTextStyle
3
simplex
70
0
71
0
40
0
41
1
42
0
50
0
0
ENDTAB
0
TABLE
2
DIMSTYLE
5
1f0
100
AcDbSymbolTable
100
AcDbDimStyleTable
0
DIMSTYLE
105
27
100
AcDbSymbolTableRecord
100
AcDbDimStyleTableRecord
2
Standard
70
0
3
<>
41
0.18
42
0.0625
44
0.18
140
0.18
147
0.09
73
0
74
0
77
1
271
2
275
0
278
52
280
0
340
11
0
ENDTAB
0
TABLE
2
VIEW
5
1f1
100
AcDbSymbolTable
0
ENDTAB
0
TABLE
2
UCS
5
1f2
100
AcDbSymbolTable
0
ENDTAB
0
TABLE
2
APPID
5
1f3
100
AcDbSymbolTable
0
APPID
5
12
100
AcDbSymbolTableRecord
100
AcDbRegAppTableRecord
2
ACAD
70
0
0
APPID
5
FC
100
AcDbSymbolTableRecord
100
AcDbRegAppTableRecord
2
ACAD_DSTYLE_DIMBREAK
70
0
0
APPID
5
197
100
AcDbSymbolTableRecord
100
AcDbRegAppTableRecord
2
ACAD_DSTYLE_DIM_LINETYPE
70
0
0
APPID
5
198
100
AcDbSymbolTableRecord
100
AcDbRegAppTableRecord
2
ACAD_DSTYLE_DIM_EXT1_LINETYPE
70
0
0
APPID
5
199
100
AcDbSymbolTableRecord
100
AcDbRegAppTableRecord
2
ACAD_DSTYLE_DIM_EXT2_LINETYPE
70
0
0
APPID
5
1D4
100
AcDbSymbolTableRecord
100
AcDbRegAppTableRecord
2
ACAD_MLEADERVER
70
0
0
ENDTAB
0
TABLE
2
BLOCK_RECORD
5
1f4
100
AcDbSymbolTable
0
BLOCK_RECORD
5
1F
100
AcDbSymbolTableRecord
100
AcDbBlockTableRecord
2
*Model_Space
340
0
70
0
0
BLOCK_RECORD
5
1B
100
AcDbSymbolTableRecord
100
AcDbBlockTableRecord
2
*Paper_Space
340
0
70
0
0
BLOCK_RECORD
5
23
100
AcDbSymbolTableRecord
100
AcDbBlockTableRecord
2
*Paper_Space0
340
0
70
0
0
BLOCK_RECORD
5
101
100
AcDbSymbolTableRecord
100
AcDbBlockTableRecord
2
*D1
340
0
70
0
0
BLOCK_RECORD
5
10D
100
AcDbSymbolTableRecord
100
AcDbBlockTableRecord
2
_U0
340
0
70
0
0
BLOCK_RECORD
5
119
100
AcDbSymbolTableRecord
100
AcDbBlockTableRecord
2
*D3
340
0
70
0
0
BLOCK_RECORD
5
125
100
AcDbSymbolTableRecord
100
AcDbBlockTableRecord
2
_U1
340
0
70
0
0
BLOCK_RECORD
5
131
100
AcDbSymbolTableRecord
100
AcDbBlockTableRecord
2
*D5
340
0
70
0
0
BLOCK_RECORD
5
13E
100
AcDbSymbolTableRecord
100
AcDbBlockTableRecord
2
_U2
340
0
70
0
0
BLOCK_RECORD
5
14A
100
AcDbSymbolTableRecord
100
AcDbBlockTableRecord
2
*D7
340
0
70
0
0
BLOCK_RECORD
5
158
100
AcDbSymbolTableRecord
100
AcDbBlockTableRecord
2
_U3
340
0
70
0
0
BLOCK_RECORD
5
164
100
AcDbSymbolTableRecord
100
AcDbBlockTableRecord
2
*D9
340
0
70
0
0
BLOCK_RECORD
5
170
100
AcDbSymbolTableRecord
100
AcDbBlockTableRecord
2
_U4
340
0
70
0
0
ENDTAB
0
ENDSEC
0
SECTION
2
BLOCKS
0
BLOCK
5
20
100
AcDbEntity
8
0
100
AcDbBlockBegin
2
*Model_Space
70
0
10
0
20
0
30
0
3
*Model_Space
0
ENDBLK
5
21
100
AcDbEntity
8
0
100
AcDbBlockEnd
0
BLOCK
5
1C
100
AcDbEntity
8
0
100
AcDbBlockBegin
2
*Paper_Space
70
0
10
0
20
0
30
0
3
*Paper_Space
0
ENDBLK
5
1D
100
AcDbEntity
8
0
100
AcDbBlockEnd
0
BLOCK
5
24
100
AcDbEntity
8
0
100
AcDbBlockBegin
2
*Paper_Space0
70
0
10
0
20
0
30
0
3
*Paper_Space0
0
ENDBLK
5
25
100
AcDbEntity
8
0
100
AcDbBlockEnd
0
BLOCK
5
102
100
AcDbEntity
8
0
100
AcDbBlockBegin
2
*D1
70
1
10
0
20
0
30
0
3
*D1
0
LINE
5
104
100
AcDbEntity
8
0
62
256
6
ByLayer
370
-2
48
1
60
0
100
AcDbLine
10
0
20
-1.5875
30
0
11
0
21
-14.738398
31
0
39
0
210
0
220
0
230
1
0
LINE
5
105
100
AcDbEntity
8
0
62
256
6
ByLayer
370
-2
48
1
60
0
100
AcDbLine
10
29.262
20
-4.1125
30
0
11
29.262
21
-14.738398
31
0
39
0
210
0
220
0
230
1
0
LINE
5
106
100
AcDbEntity
8
0
62
256
6
ByLayer
370
-2
48
1
60
0
100
AcDbLine
10
3.5
20
-12.738398
30
0
11
25.762
21
-12.738398
31
0
39
0
210
0
220
0
230
1
0
SOLID
5
107
100
AcDbEntity
8
0
62
256
6
ByLayer
370
-1
48
1
60
0
100
AcDbTrace
10
3.5
20
-12.155065
30
0
11
3.5
21
-13.321732
31
0
12
0
22
-12.738398
32
0
13
0
23
-12.738398
33
0
39
0
210
0
220
0
230
1
0
SOLID
5
108
100
AcDbEntity
8
0
62
256
6
ByLayer
370
-1
48
1
60
0
100
AcDbTrace
10
25.762
20
-13.321732
30
0
11
25.762
21
-12.155065
31
0
12
29.262
22
-12.738398
32
0
13
29.262
23
-12.738398
33
0
39
0
210
0
220
0
230
1
0
MTEXT
5
109
100
AcDbEntity
8
0
62
256
6
ByLayer
370
18
48
1
60
0
100
AcDbMText
10
14.631
20
-5.738398
30
0
210
0
220
0
230
1
1
\A1;29.26
40
3.5
41
0
44
1
50
0
71
5
72
5
7
iso_b_vert
0
POINT
5
10A
100
AcDbEntity
8
Defpoints
62
0
6
ByLayer
370
-1
48
1
60
0
100
AcDbPoint
10
0
20
0
30
0
39
0
210
0
220
0
230
1
50
360
0
POINT
5
10B
100
AcDbEntity
8
Defpoints
62
0
6
ByLayer
370
-1
48
1
60
0
100
AcDbPoint
10
29.262
20
-2.525
30
0
39
0
210
0
220
0
230
1
50
360
0
POINT
5
10C
100
AcDbEntity
8
Defpoints
62
0
6
ByLayer
370
-1
48
1
60
0
100
AcDbPoint
10
29.262
20
-12.738398
30
0
39
0
210
0
220
0
230
1
50
360
0
ENDBLK
5
103
100
AcDbEntity
8
0
100
AcDbBlockEnd
0
BLOCK
5
114
100
AcDbEntity
8
0
100
AcDbBlockBegin
2
_U0
70
0
10
0
20
0
30
0
3
_U0
0
MTEXT
5
10E
100
AcDbEntity
8
SK2
62
256
6
ByLayer
370
13
48
1
60
0
100
AcDbMText
10
9.493701
20
-11.705765
30
0
210
0
220
0
230
1
1
\W0.7317;29,26
40
3.5
41
0
44
1.084337
50
0
71
7
72
5
7
iso_b_vert
0
LINE
5
10F
100
AcDbEntity
8
SK2
62
256
6
ByLayer
370
13
48
1
60
0
100
AcDbLine
10
0
20
-1.5875
30
0
11
0
21
-14.738398
31
0
39
0
210
0
220
0
230
1
0
LINE
5
110
100
AcDbEntity
8
SK2
62
256
6
ByLayer
370
13
48
1
60
0
100
AcDbLine
10
29.262
20
-4.1125
30
0
11
29.262
21
-14.738398
31
0
39
0
210
0
220
0
230
1
0
LINE
5
111
100
AcDbEntity
8
SK2
62
256
6
ByLayer
370
13
48
1
60
0
100
AcDbLine
10
0
20
-12.738398
30
0
11
29.262
21
-12.738398
31
0
39
0
210
0
220
0
230
1
0
SOLID
5
112
100
AcDbEntity
8
SK2
62
256
6
ByLayer
370
18
48
1
60
0
100
AcDbTrace
10
0
20
-12.738398
30
0
11
3.499998
21
-12.277615
31
0
12
3.500002
22
-13.199182
32
0
13
3.500002
23
-13.199182
33
0
39
0
210
0
220
0
230
1
0
SOLID
5
113
100
AcDbEntity
8
SK2
62
256
6
ByLayer
370
18
48
1
60
0
100
AcDbTrace
10
29.262
20
-12.738398
30
0
11
25.762002
21
-13.199182
31
0
12
25.761998
22
-12.277615
32
0
13
25.761998
23
-12.277615
33
0
39
0
210
0
220
0
230
1
0
ENDBLK
5
115
100
AcDbEntity
8
0
100
AcDbBlockEnd
0
BLOCK
5
11A
100
AcDbEntity
8
0
100
AcDbBlockBegin
2
*D3
70
1
10
0
20
0
30
0
3
*D3
0
LINE
5
11C
100
AcDbEntity
8
0
62
256
6
ByLayer
370
-2
48
1
60
0
100
AcDbLine
10
-36
20
-4.5875
30
0
11
-36
21
-33.692985
31
0
39
0
210
0
220
0
230
1
0
LINE
5
11D
100
AcDbEntity
8
0
62
256
6
ByLayer
370
-2
48
1
60
0
100
AcDbLine
10
30
20
-1.5875
30
0
11
30
21
-33.692985
31
0
39
0
210
0
220
0
230
1
0
LINE
5
11E
100
AcDbEntity
8
0
62
256
6
ByLayer
370
-2
48
1
60
0
100
AcDbLine
10
-32.5
20
-31.692985
30
0
11
26.5
21
-31.692985
31
0
39
0
210
0
220
0
230
1
0
SOLID
5
11F
100
AcDbEntity
8
0
62
256
6
ByLayer
370
-1
48
1
60
0
100
AcDbTrace
10
-32.5
20
-31.109652
30
0
11
-32.5
21
-32.276319
31
0
12
-36
22
-31.692985
32
0
13
-36
23
-31.692985
33
0
39
0
210
0
220
0
230
1
0
SOLID
5
120
100
AcDbEntity
8
0
62
256
6
ByLayer
370
-1
48
1
60
0
100
AcDbTrace
10
26.5
20
-32.276319
30
0
11
26.5
21
-31.109652
31
0
12
30
22
-31.692985
32
0
13
30
23
-31.692985
33
0
39
0
210
0
220
0
230
1
0
MTEXT
5
121
100
AcDbEntity
8
0
62
256
6
ByLayer
370
18
48
1
60
0
100
AcDbMText
10
-3
20
-24.692985
30
0
210
0
220
0
230
1
1
\A1;66.00
40
3.5
41
0
44
1
50
0
71
5
72
5
7
iso_b_vert
0
POINT
5
122
100
AcDbEntity
8
Defpoints
62
0
6
ByLayer
370
-1
48
1
60
0
100
AcDbPoint
10
-36
20
-3
30
0
39
0
210
0
220
0
230
1
50
360
0
POINT
5
123
100
AcDbEntity
8
Defpoints
62
0
6
ByLayer
370
-1
48
1
60
0
100
AcDbPoint
10
30
20
0
30
0
39
0
210
0
220
0
230
1
50
360
0
POINT
5
124
100
AcDbEntity
8
Defpoints
62
0
6
ByLayer
370
-1
48
1
60
0
100
AcDbPoint
10
30
20
-31.692985
30
0
39
0
210
0
220
0
230
1
50
360
0
ENDBLK
5
11B
100
AcDbEntity
8
0
100
AcDbBlockEnd
0
BLOCK
5
12C
100
AcDbEntity
8
0
100
AcDbBlockBegin
2
_U1
70
0
10
0
20
0
30
0
3
_U1
0
MTEXT
5
126
100
AcDbEntity
8
SK2
62
256
6
ByLayer
370
13
48
1
60
0
100
AcDbMText
10
-8.137299
20
-30.660352
30
0
210
0
220
0
230
1
1
\W0.7317;66,00
40
3.5
41
0
44
1.084337
50
0
71
7
72
5
7
iso_b_vert
0
LINE
5
127
100
AcDbEntity
8
SK2
62
256
6
ByLayer
370
13
48
1
60
0
100
AcDbLine
10
-36
20
-4.5875
30
0
11
-36
21
-33.692985
31
0
39
0
210
0
220
0
230
1
0
LINE
5
128
100
AcDbEntity
8
SK2
62
256
6
ByLayer
370
13
48
1
60
0
100
AcDbLine
10
30
20
-1.5875
30
0
11
30
21
-33.692985
31
0
39
0
210
0
220
0
230
1
0
LINE
5
129
100
AcDbEntity
8
SK2
62
256
6
ByLayer
370
13
48
1
60
0
100
AcDbLine
10
-36
20
-31.692985
30
0
11
30
21
-31.692985
31
0
39
0
210
0
220
0
230
1
0
SOLID
5
12A
100
AcDbEntity
8
SK2
62
256
6
ByLayer
370
18
48
1
60
0
100
AcDbTrace
10
-36
20
-31.692985
30
0
11
-32.500002
21
-31.232202
31
0
12
-32.499998
22
-32.153769
32
0
13
-32.499998
23
-32.153769
33
0
39
0
210
0
220
0
230
1
0
SOLID
5
12B
100
AcDbEntity
8
SK2
62
256
6
ByLayer
370
18
48
1
60
0
100
AcDbTrace
10
30
20
-31.692985
30
0
11
26.500002
21
-32.153769
31
0
12
26.499998
22
-31.232202
32
0
13
26.499998
23
-31.232202
33
0
39
0
210
0
220
0
230
1
0
ENDBLK
5
12D
100
AcDbEntity
8
0
100
AcDbBlockEnd
0
BLOCK
5
132
100
AcDbEntity
8
0
100
AcDbBlockBegin
2
*D5
70
1
10
0
20
0
30
0
3
*D5
0
LINE
5
134
100
AcDbEntity
8
0
62
256
6
ByLayer
370
-2
48
1
60
0
100
AcDbLine
10
14.11
20
4.1125
30
0
11
14.11
21
16.134119
31
0
39
0
210
0
220
0
230
1
0
LINE
5
135
100
AcDbEntity
8
0
62
256
6
ByLayer
370
-2
48
1
60
0
100
AcDbLine
10
30
20
1.5875
30
0
11
30
21
16.134119
31
0
39
0
210
0
220
0
230
1
0
LINE
5
136
100
AcDbEntity
8
0
62
256
6
ByLayer
370
-2
48
1
60
0
100
AcDbLine
10
10.61
20
14.134119
30
0
11
7.11
21
14.134119
31
0
39
0
210
0
220
0
230
1
0
LINE
5
137
100
AcDbEntity
8
0
62
256
6
ByLayer
370
-2
48
1
60
0
100
AcDbLine
10
33.5
20
14.134119
30
0
11
37
21
14.134119
31
0
39
0
210
0
220
0
230
1
0
SOLID
5
138
100
AcDbEntity
8
0
62
256
6
ByLayer
370
-1
48
1
60
0
100
AcDbTrace
10
10.61
20
13.550786
30
0
11
10.61
21
14.717453
31
0
12
14.11
22
14.134119
32
0
13
14.11
23
14.134119
33
0
39
0
210
0
220
0
230
1
0
SOLID
5
139
100
AcDbEntity
8
0
62
256
6
ByLayer
370
-1
48
1
60
0
100
AcDbTrace
10
33.5
20
14.717453
30
0
11
33.5
21
13.550786
31
0
12
30
22
14.134119
32
0
13
30
23
14.134119
33
0
39
0
210
0
220
0
230
1
0
MTEXT
5
13A
100
AcDbEntity
8
0
62
256
6
ByLayer
370
18
48
1
60
0
100
AcDbMText
10
22.055
20
21.134119
30
0
210
0
220
0
230
1
1
\A1;15.89
40
3.5
41
0
44
1
50
0
71
5
72
5
7
iso_b_vert
0
POINT
5
13B
100
AcDbEntity
8
Defpoints
62
0
6
ByLayer
370
-1
48
1
60
0
100
AcDbPoint
10
14.11
20
2.525
30
0
39
0
210
0
220
0
230
1
50
360
0
POINT
5
13C
100
AcDbEntity
8
Defpoints
62
0
6
ByLayer
370
-1
48
1
60
0
100
AcDbPoint
10
30
20
0
30
0
39
0
210
0
220
0
230
1
50
360
0
POINT
5
13D
100
AcDbEntity
8
Defpoints
62
0
6
ByLayer
370
-1
48
1
60
0
100
AcDbPoint
10
30
20
14.134119
30
0
39
0
210
0
220
0
230
1
50
360
0
ENDBLK
5
133
100
AcDbEntity
8
0
100
AcDbBlockEnd
0
BLOCK
5
145
100
AcDbEntity
8
0
100
AcDbBlockBegin
2
_U2
70
0
10
0
20
0
30
0
3
_U2
0
MTEXT
5
13F
100
AcDbEntity
8
SK2
62
256
6
ByLayer
370
13
48
1
60
0
100
AcDbMText
10
17.355135
20
15.166753
30
0
210
0
220
0
230
1
1
\W0.6791;15,89
40
3.5
41
0
44
1.084337
50
0
71
7
72
5
7
iso_b_vert
0
LINE
5
140
100
AcDbEntity
8
SK2
62
256
6
ByLayer
370
13
48
1
60
0
100
AcDbLine
10
14.11
20
4.1125
30
0
11
14.11
21
16.134119
31
0
39
0
210
0
220
0
230
1
0
LINE
5
141
100
AcDbEntity
8
SK2
62
256
6
ByLayer
370
13
48
1
60
0
100
AcDbLine
10
30
20
1.5875
30
0
11
30
21
16.134119
31
0
39
0
210
0
220
0
230
1
0
LINE
5
142
100
AcDbEntity
8
SK2
62
256
6
ByLayer
370
13
48
1
60
0
100
AcDbLine
10
14.11
20
14.134119
30
0
11
30
21
14.134119
31
0
39
0
210
0
220
0
230
1
0
SOLID
5
143
100
AcDbEntity
8
SK2
62
256
6
ByLayer
370
18
48
1
60
0
100
AcDbTrace
10
14.11
20
14.134119
30
0
11
17.609998
21
14.594903
31
0
12
17.610002
22
13.673335
32
0
13
17.610002
23
13.673335
33
0
39
0
210
0
220
0
230
1
0
SOLID
5
144
100
AcDbEntity
8
SK2
62
256
6
ByLayer
370
18
48
1
60
0
100
AcDbTrace
10
30
20
14.134119
30
0
11
26.500002
21
13.673335
31
0
12
26.499998
22
14.594903
32
0
13
26.499998
23
14.594903
33
0
39
0
210
0
220
0
230
1
0
ENDBLK
5
146
100
AcDbEntity
8
0
100
AcDbBlockEnd
0
BLOCK
5
14B
100
AcDbEntity
8
0
100
AcDbBlockBegin
2
*D7
70
1
10
0
20
0
30
0
3
*D7
0
LINE
5
14D
100
AcDbEntity
8
0
62
256
6
ByLayer
370
-2
48
1
60
0
100
AcDbLine
10
30
20
-1.5875
30
0
11
30
21
-17.327503
31
0
39
0
210
0
220
0
230
1
0
LINE
5
14E
100
AcDbEntity
8
0
62
256
6
ByLayer
370
-2
48
1
60
0
100
AcDbLine
10
29.262
20
-4.1125
30
0
11
29.262
21
-17.327503
31
0
39
0
210
0
220
0
230
1
0
LINE
5
14F
100
AcDbEntity
8
0
62
256
6
ByLayer
370
-2
48
1
60
0
100
AcDbLine
10
30
20
-15.327503
30
0
11
58.333333
21
-15.327503
31
0
39
0
210
0
220
0
230
1
0
LINE
5
150
100
AcDbEntity
8
0
62
256
6
ByLayer
370
-2
48
1
60
0
100
AcDbLine
10
33.5
20
-15.327503
30
0
11
37
21
-15.327503
31
0
39
0
210
0
220
0
230
1
0
LINE
5
151
100
AcDbEntity
8
0
62
256
6
ByLayer
370
-2
48
1
60
0
100
AcDbLine
10
25.762
20
-15.327503
30
0
11
22.262
21
-15.327503
31
0
39
0
210
0
220
0
230
1
0
SOLID
5
152
100
AcDbEntity
8
0
62
256
6
ByLayer
370
-1
48
1
60
0
100
AcDbTrace
10
33.5
20
-14.74417
30
0
11
33.5
21
-15.910837
31
0
12
30
22
-15.327503
32
0
13
30
23
-15.327503
33
0
39
0
210
0
220
0
230
1
0
SOLID
5
153
100
AcDbEntity
8
0
62
256
6
ByLayer
370
-1
48
1
60
0
100
AcDbTrace
10
25.762
20
-15.910837
30
0
11
25.762
21
-14.74417
31
0
12
29.262
22
-15.327503
32
0
13
29.262
23
-15.327503
33
0
39
0
210
0
220
0
230
1
0
MTEXT
5
154
100
AcDbEntity
8
0
62
256
6
ByLayer
370
18
48
1
60
0
100
AcDbMText
10
47.666667
20
-8.327503
30
0
210
0
220
0
230
1
1
\A1;0.74
40
3.5
41
0
44
1
50
0
71
5
72
5
7
iso_b_vert
0
POINT
5
155
100
AcDbEntity
8
Defpoints
62
0
6
ByLayer
370
-1
48
1
60
0
100
AcDbPoint
10
30
20
0
30
0
39
0
210
0
220
0
230
1
50
360
0
POINT
5
156
100
AcDbEntity
8
Defpoints
62
0
6
ByLayer
370
-1
48
1
60
0
100
AcDbPoint
10
29.262
20
-2.525
30
0
39
0
210
0
220
0
230
1
50
360
0
POINT
5
157
100
AcDbEntity
8
Defpoints
62
0
6
ByLayer
370
-1
48
1
60
0
100
AcDbPoint
10
29.262
20
-15.327503
30
0
39
0
210
0
220
0
230
1
50
360
0
ENDBLK
5
14C
100
AcDbEntity
8
0
100
AcDbBlockEnd
0
BLOCK
5
15F
100
AcDbEntity
8
0
100
AcDbBlockBegin
2
_U3
70
0
10
0
20
0
30
0
3
_U3
0
MTEXT
5
159
100
AcDbEntity
8
SK2
62
256
6
ByLayer
370
13
48
1
60
0
100
AcDbMText
10
35.967593
20
-14.29487
30
0
210
0
220
0
230
1
1
\W0.7383;0,74
40
3.5
41
0
44
1.084337
50
0
71
7
72
5
7
iso_b_vert
0
LINE
5
15A
100
AcDbEntity
8
SK2
62
256
6
ByLayer
370
13
48
1
60
0
100
AcDbLine
10
30
20
-1.5875
30
0
11
30
21
-17.327503
31
0
39
0
210
0
220
0
230
1
0
LINE
5
15B
100
AcDbEntity
8
SK2
62
256
6
ByLayer
370
13
48
1
60
0
100
AcDbLine
10
29.262
20
-4.1125
30
0
11
29.262
21
-17.327503
31
0
39
0
210
0
220
0
230
1
0
LINE
5
15C
100
AcDbEntity
8
SK2
62
256
6
ByLayer
370
13
48
1
60
0
100
AcDbLine
10
20.512
20
-15.327503
30
0
11
44.180758
21
-15.327503
31
0
39
0
210
0
220
0
230
1
0
SOLID
5
15D
100
AcDbEntity
8
SK2
62
256
6
ByLayer
370
18
48
1
60
0
100
AcDbTrace
10
30
20
-15.327503
30
0
11
33.499998
21
-14.866719
31
0
12
33.500002
22
-15.788287
32
0
13
33.500002
23
-15.788287
33
0
39
0
210
0
220
0
230
1
0
SOLID
5
15E
100
AcDbEntity
8
SK2
62
256
6
ByLayer
370
18
48
1
60
0
100
AcDbTrace
10
29.262
20
-15.327503
30
0
11
25.762002
21
-15.788287
31
0
12
25.761998
22
-14.866719
32
0
13
25.761998
23
-14.866719
33
0
39
0
210
0
220
0
230
1
0
ENDBLK
5
160
100
AcDbEntity
8
0
100
AcDbBlockEnd
0
BLOCK
5
165
100
AcDbEntity
8
0
100
AcDbBlockBegin
2
*D9
70
1
10
0
20
0
30
0
3
*D9
0
LINE
5
167
100
AcDbEntity
8
0
62
256
6
ByLayer
370
-2
48
1
60
0
100
AcDbLine
10
-36
20
-4.5875
30
0
11
-36
21
-23.343428
31
0
39
0
210
0
220
0
230
1
0
LINE
5
168
100
AcDbEntity
8
0
62
256
6
ByLayer
370
-2
48
1
60
0
100
AcDbLine
10
29.262
20
-4.1125
30
0
11
29.262
21
-23.343428
31
0
39
0
210
0
220
0
230
1
0
LINE
5
169
100
AcDbEntity
8
0
62
256
6
ByLayer
370
-2
48
1
60
0
100
AcDbLine
10
-32.5
20
-21.343428
30
0
11
25.762
21
-21.343428
31
0
39
0
210
0
220
0
230
1
0
SOLID
5
16A
100
AcDbEntity
8
0
62
256
6
ByLayer
370
-1
48
1
60
0
100
AcDbTrace
10
-32.5
20
-20.760095
30
0
11
-32.5
21
-21.926762
31
0
12
-36
22
-21.343428
32
0
13
-36
23
-21.343428
33
0
39
0
210
0
220
0
230
1
0
SOLID
5
16B
100
AcDbEntity
8
0
62
256
6
ByLayer
370
-1
48
1
60
0
100
AcDbTrace
10
25.762
20
-21.926762
30
0
11
25.762
21
-20.760095
31
0
12
29.262
22
-21.343428
32
0
13
29.262
23
-21.343428
33
0
39
0
210
0
220
0
230
1
0
MTEXT
5
16C
100
AcDbEntity
8
0
62
256
6
ByLayer
370
18
48
1
60
0
100
AcDbMText
10
-3.369
20
-14.343428
30
0
210
0
220
0
230
1
1
\A1;65.26
40
3.5
41
0
44
1
50
0
71
5
72
5
7
iso_b_vert
0
POINT
5
16D
100
AcDbEntity
8
Defpoints
62
0
6
ByLayer
370
-1
48
1
60
0
100
AcDbPoint
10
-36
20
-3
30
0
39
0
210
0
220
0
230
1
50
360
0
POINT
5
16E
100
AcDbEntity
8
Defpoints
62
0
6
ByLayer
370
-1
48
1
60
0
100
AcDbPoint
10
29.262
20
-2.525
30
0
39
0
210
0
220
0
230
1
50
360
0
POINT
5
16F
100
AcDbEntity
8
Defpoints
62
0
6
ByLayer
370
-1
48
1
60
0
100
AcDbPoint
10
29.262
20
-21.343428
30
0
39
0
210
0
220
0
230
1
50
360
0
ENDBLK
5
166
100
AcDbEntity
8
0
100
AcDbBlockEnd
0
BLOCK
5
177
100
AcDbEntity
8
0
100
AcDbBlockBegin
2
_U4
70
0
10
0
20
0
30
0
3
_U4
0
MTEXT
5
171
100
AcDbEntity
8
SK2
62
256
6
ByLayer
370
13
48
1
60
0
100
AcDbMText
10
-8.506299
20
-20.310795
30
0
210
0
220
0
230
1
1
\W0.7317;65,26
40
3.5
41
0
44
1.084337
50
0
71
7
72
5
7
iso_b_vert
0
LINE
5
172
100
AcDbEntity
8
SK2
62
256
6
ByLayer
370
13
48
1
60
0
100
AcDbLine
10
-36
20
-4.5875
30
0
11
-36
21
-23.343428
31
0
39
0
210
0
220
0
230
1
0
LINE
5
173
100
AcDbEntity
8
SK2
62
256
6
ByLayer
370
13
48
1
60
0
100
AcDbLine
10
29.262
20
-4.1125
30
0
11
29.262
21
-23.343428
31
0
39
0
210
0
220
0
230
1
0
LINE
5
174
100
AcDbEntity
8
SK2
62
256
6
ByLayer
370
13
48
1
60
0
100
AcDbLine
10
-36
20
-21.343428
30
0
11
29.262
21
-21.343428
31
0
39
0
210
0
220
0
230
1
0
SOLID
5
175
100
AcDbEntity
8
SK2
62
256
6
ByLayer
370
18
48
1
60
0
100
AcDbTrace
10
-36
20
-21.343428
30
0
11
-32.500002
21
-20.882645
31
0
12
-32.499998
22
-21.804212
32
0
13
-32.499998
23
-21.804212
33
0
39
0
210
0
220
0
230
1
0
SOLID
5
176
100
AcDbEntity
8
SK2
62
256
6
ByLayer
370
18
48
1
60
0
100
AcDbTrace
10
29.262
20
-21.343428
30
0
11
25.762002
21
-21.804212
31
0
12
25.761998
22
-20.882645
32
0
13
25.761998
23
-20.882645
33
0
39
0
210
0
220
0
230
1
0
ENDBLK
5
178
100
AcDbEntity
8
0
100
AcDbBlockEnd
0
ENDSEC
0
SECTION
2
ENTITIES
0
ARC
5
A9
100
AcDbEntity
8
1
62
256
6
ByLayer
370
18
48
1
60
0
100
AcDbCircle
39
0
10
0
20
-2.2
30
0
40
0.800000000000001
210
0
220
0
230
1
100
AcDbArc
50
270
51
316.200004
0
ARC
5
AA
100
AcDbEntity
8
1
62
256
6
ByLayer
370
18
48
1
60
0
100
AcDbCircle
39
0
10
1.154816
20
3.307429
30
0
40
0.800000000000001
210
0
220
0
230
1
100
AcDbArc
50
223.799996
51
270.03581
0
ARC
5
AB
100
AcDbEntity
8
1
62
256
6
ByLayer
370
18
48
1
60
0
100
AcDbCircle
39
0
10
1.154816
20
-3.307429
30
0
40
0.800000000000001
210
0
220
0
230
1
100
AcDbArc
50
89.96419
51
136.200004
0
ARC
5
AC
100
AcDbEntity
8
1
62
256
6
ByLayer
370
18
48
1
60
0
100
AcDbCircle
39
0
10
0
20
2.2
30
0
40
0.800000000000001
210
0
220
0
230
1
100
AcDbArc
50
43.799996
51
90
0
ELLIPSE
5
AD
100
AcDbEntity
8
1
62
256
6
ByLayer
370
13
48
1
60
0
100
AcDbEllipse
10
4.250221
20
0.062209
30
0
11
0.0430360205019365
21
0.0902657240560165
31
0
210
0
220
0
230
1
40
0.011874
41
-3.13076988050276
42
-1.59227187122739
0
ELLIPSE
5
AE
100
AcDbEntity
8
1
62
256
6
ByLayer
370
13
48
1
60
0
100
AcDbEllipse
10
4.185139
20
0.093244
30
0
11
-0.0432655210975408
21
-0.0901559464714239
31
0
210
0
220
0
230
1
40
0.384653
41
-1.35207821126364
42
0.000727430054848576
0
POINT
5
70
100
AcDbEntity
8
80
62
256
6
ByLayer
370
18
48
1
60
0
100
AcDbPoint
10
0
20
0
30
0
39
0
210
0
220
0
230
1
50
360
0
POINT
5
72
100
AcDbEntity
8
81
62
256
6
ByLayer
370
18
48
1
60
0
100
AcDbPoint
10
30
20
0
30
0
39
0
210
0
220
0
230
1
50
360
0
POINT
5
74
100
AcDbEntity
8
1
62
256
6
ByLayer
370
18
48
1
60
1
100
AcDbPoint
10
29.262
20
-2.525
30
0
39
0
210
0
220
0
230
1
50
360
0
POINT
5
76
100
AcDbEntity
8
1
62
256
6
ByLayer
370
18
48
1
60
1
100
AcDbPoint
10
-36
20
-3
30
0
39
0
210
0
220
0
230
1
50
360
0
POINT
5
77
100
AcDbEntity
8
1
62
256
6
ByLayer
370
18
48
1
60
1
100
AcDbPoint
10
14.11
20
2.525
30
0
39
0
210
0
220
0
230
1
50
360
0
POINT
5
78
100
AcDbEntity
8
1
62
256
6
ByLayer
370
18
48
1
60
1
100
AcDbPoint
10
29.262
20
-2.525
30
0
39
0
210
0
220
0
230
1
50
360
0
POINT
5
79
100
AcDbEntity
8
1
62
256
6
ByLayer
370
18
48
1
60
1
100
AcDbPoint
10
-36
20
-3
30
0
39
0
210
0
220
0
230
1
50
360
0
POINT
5
7A
100
AcDbEntity
8
1
62
256
6
ByLayer
370
18
48
1
60
1
100
AcDbPoint
10
29.262
20
-2.525
30
0
39
0
210
0
220
0
230
1
50
360
0
SPLINE
5
AF
100
AcDbEntity
8
1
62
256
6
ByLayer
370
18
48
1
60
0
100
AcDbSpline
70
4
71
3
72
24
73
20
40
0
40
0
40
0
40
0
40
0.0624999999999982
40
0.0624999999999982
40
0.124999999999997
40
0.124999999999997
40
0.187499999999995
40
0.187499999999995
40
0.249999999999993
40
0.249999999999993
40
0.374999999999994
40
0.374999999999994
40
0.499999999999995
40
0.499999999999995
40
0.624999999999997
40
0.624999999999997
40
0.749999999999998
40
0.749999999999998
40
1
40
1
40
1
40
1
41
1
10
26.7688185595981
20
0.811450210424823
30
0
41
1
10
26.7670304730798
20
0.736413197785424
30
0
41
1
10
26.7706515406698
20
0.660396122007711
30
0
41
1
10
26.7885627034638
20
0.506428891734259
30
0
41
1
10
26.803077520812
20
0.427779579819912
30
0
41
1
10
26.8414659699953
20
0.273629468152848
30
0
41
1
10
26.8652788655937
20
0.197777589104305
30
0
41
1
10
26.9210883834703
20
0.0482411524021131
30
0
41
1
10
26.9532723587469
20
-0.0258031849716076
30
0
41
1
10
27.0598551707975
20
-0.242429472119369
30
0
41
1
10
27.1427118171913
20
-0.377239150905211
30
0
41
1
10
27.3260834730953
20
-0.632482393642675
30
0
41
1
10
27.4273953904246
20
-0.753340559708619
30
0
41
1
10
27.6377827330114
20
-0.976411137555488
30
0
41
1
10
27.7475442855687
20
-1.07970817964608
30
0
41
1
10
27.9742762398031
20
-1.27330098927635
30
0
41
1
10
28.0913328710446
20
-1.36359400833717
30
0
41
1
10
28.4514893253388
20
-1.61733423239085
30
0
41
1
10
28.697962676144
20
-1.76033499174983
30
0
41
1
10
28.9494528393315
20
-1.88273035562372
30
0
0
SPLINE
5
B0
100
AcDbEntity
8
1
62
256
6
ByLayer
370
18
48
1
60
0
100
AcDbSpline
70
4
71
3
72
10
73
6
40
0
40
0
40
0
40
0
40
0.5
40
0.5
40
1
40
1
40
1
40
1
41
1
10
29.26860948168
20
-2.43346470228903
30
0
41
1
10
29.3776565884326
20
-2.13907040061676
30
0
41
1
10
29.4899315775683
20
-1.84721306174626
30
0
41
1
10
29.7199196447921
20
-1.26710768786472
30
0
41
1
10
29.8376671318221
20
-0.978894907486648
30
0
41
1
10
29.9579394828809
20
-0.69217036763618
30
0
0
SPLINE
5
B1
100
AcDbEntity
8
1
62
256
6
ByLayer
370
18
48
1
60
0
100
AcDbSpline
70
4
71
3
72
8
73
4
40
0
40
0
40
0
40
0
40
1
40
1
40
1
40
1
41
1
10
29.957939482882
20
-0.692170367633508
30
0
41
1
10
29.9729398195199
20
-0.493027025697955
30
0
41
1
10
29.9836591279287
20
-0.294094089930781
30
0
41
1
10
29.9900885905157
20
-0.0953719937035373
30
0
0
SPLINE
5
B2
100
AcDbEntity
8
1
62
256
6
ByLayer
370
18
48
1
60
0
100
AcDbSpline
70
4
71
3
72
38
73
34
40
0
40
0
40
0
40
0
40
0.0928957665636044
40
0.0928957665636044
40
0.139343649845407
40
0.139343649845407
40
0.185791533127209
40
0.185791533127209
40
0.278687299690813
40
0.278687299690813
40
0.325135182972616
40
0.325135182972616
40
0.371583066254418
40
0.371583066254418
40
0.464478832818021
40
0.464478832818021
40
0.557374599381624
40
0.557374599381624
40
0.603822482663427
40
0.603822482663427
40
0.650270365945229
40
0.650270365945229
40
0.743166132508833
40
0.743166132508833
40
0.789614015790636
40
0.789614015790636
40
0.812837957431538
40
0.812837957431538
40
0.83606189907244
40
0.83606189907244
40
0.928957665636046
40
0.928957665636046
40
1
40
1
40
1
40
1
41
1
10
29.1352770977263
20
-2.51499192770541
30
0
41
1
10
28.611635940597
20
-2.53722426909437
30
0
41
1
10
28.0896672008099
20
-2.52093050725733
30
0
41
1
10
27.3030937033524
20
-2.43988080173628
30
0
41
1
10
27.0409130600884
20
-2.40340779053722
30
0
41
1
10
26.5198261415556
20
-2.31311810968904
30
0
41
1
10
26.2602331440908
20
-2.25928915087269
30
0
41
1
10
25.4826976322242
20
-2.07365789758762
30
0
41
1
10
24.9660298490487
20
-1.91763057237264
30
0
41
1
10
24.1870985744355
20
-1.64348613641795
30
0
41
1
10
23.9268613960393
20
-1.54532907070882
30
0
41
1
10
23.403947744616
20
-1.33723219441743
30
0
41
1
10
23.1409527120995
20
-1.22713410081906
30
0
41
1
10
22.3579963977388
20
-0.886746754162601
30
0
41
1
10
21.8404111516013
20
-0.644905892977619
30
0
41
1
10
20.8051842812429
20
-0.149723214417151
30
0
41
1
10
20.2875878686748
20
0.103712829385728
30
0
41
1
10
19.504624803586
20
0.478705440288337
30
0
41
1
10
19.2416257770622
20
0.603322841398665
30
0
41
1
10
18.7185125784104
20
0.845690599090716
30
0
41
1
10
18.458196349451
20
0.963588957194077
30
0
41
1
10
17.6791980463727
20
1.3041695643081
30
0
41
1
10
17.1624070666234
20
1.51363164920667
30
0
41
1
10
16.3849514933018
20
1.79093698567789
30
0
41
1
10
16.1253533782814
20
1.87711933766192
30
0
41
1
10
15.7345222149804
20
1.99577259767727
30
0
41
1
10
15.6040060597586
20
2.03355370131331
30
0
41
1
10
15.3423710304941
20
2.10537291661291
30
0
41
1
10
15.2110219138691
20
2.13946553136409
30
0
41
1
10
14.5554812885661
20
2.29922786571927
30
0
41
1
10
14.0364006154275
20
2.39250167152329
30
0
41
1
10
13.1222323236124
20
2.49252129929857
30
0
41
1
10
12.7265985062575
20
2.51442879269916
30
0
41
1
10
12.3296636765444
20
2.51440912898627
30
0
0
SPLINE
5
B3
100
AcDbEntity
8
1
62
256
6
ByLayer
370
18
48
1
60
0
100
AcDbSpline
70
4
71
3
72
29
73
25
40
0
40
0
40
0
40
0
40
0.0635306250644393
40
0.0635306250644393
40
0.127061250128879
40
0.127061250128879
40
0.254122500257757
40
0.254122500257757
40
0.381183750386636
40
0.381183750386636
40
0.508245000515515
40
0.508245000515515
40
0.571775625579954
40
0.571775625579954
40
0.635306250644393
40
0.635306250644393
40
0.762367500773272
40
0.762367500773272
40
0.825898125837711
40
0.825898125837711
40
0.88942875090215
40
0.95295937596659
40
0.95295937596659
40
1
40
1
40
1
40
1
41
1
10
4.03299953690839
20
0.151103078240595
30
0
41
1
10
4.03302427141745
20
0.231682713471628
30
0
41
1
10
4.03304789345358
20
0.311824385528723
30
0
41
1
10
4.03309322067577
20
0.471232893809173
30
0
41
1
10
4.03311500625512
20
0.550816454730636
30
0
41
1
10
4.03317701544484
20
0.784715043357039
30
0
41
1
10
4.03321413168112
20
0.93487491978189
30
0
41
1
10
4.03328284709642
20
1.22386561805632
30
0
41
1
10
4.03331469303393
20
1.3638653151429
30
0
41
1
10
4.03337295460588
20
1.62153942891086
30
0
41
1
10
4.03339964370667
20
1.74031852901376
30
0
41
1
10
4.03343756910022
20
1.9032812653528
30
0
41
1
10
4.03344991315683
20
1.955298821273
30
0
41
1
10
4.03347361903002
20
2.05228765099608
30
0
41
1
10
4.03348500614948
20
2.09738224039472
30
0
41
1
10
4.03351798636874
20
2.22270972700673
30
0
41
1
10
4.03353844212828
20
2.29307872196458
30
0
41
1
10
4.03356688289477
20
2.37816000011671
30
0
41
1
10
4.03357589248864
20
2.40281239628638
30
0
41
1
10
4.03359271308719
20
2.4443432481965
30
0
41
1
10
4.03360840145513
20
2.4783011057678
30
0
41
1
10
4.03362155852301
20
2.49727485291777
30
0
41
1
10
4.0336317057172
20
2.50715616149804
30
0
41
1
10
4.03363562318512
20
2.50925699438386
30
0
41
1
10
4.0336390380138
20
2.50922208215823
30
0
0
SPLINE
5
B4
100
AcDbEntity
8
1
62
256
6
ByLayer
370
18
48
1
60
0
100
AcDbSpline
70
4
71
3
72
56
73
52
40
0
40
0
40
0
40
0
40
0.0625000000000225
40
0.0625000000000225
40
0.125000000000045
40
0.125000000000045
40
0.156250000000056
40
0.156250000000056
40
0.187500000000068
40
0.187500000000068
40
0.218750000000079
40
0.218750000000079
40
0.234375000000085
40
0.234375000000085
40
0.250000000000091
40
0.250000000000091
40
0.265625000000098
40
0.265625000000098
40
0.281250000000104
40
0.281250000000104
40
0.296875000000111
40
0.296875000000111
40
0.312500000000117
40
0.312500000000117
40
0.328125000000123
40
0.328125000000123
40
0.34375000000013
40
0.34375000000013
40
0.375000000000142
40
0.375000000000142
40
0.406250000000155
40
0.406250000000155
40
0.437500000000168
40
0.437500000000168
40
0.441406250000168
40
0.441406250000168
40
0.445312500000169
40
0.445312500000169
40
0.453125000000168
40
0.453125000000168
40
0.468750000000164
40
0.468750000000164
40
0.500000000000156
40
0.500000000000156
40
0.625000000000117
40
0.625000000000117
40
0.750000000000078
40
0.750000000000078
40
0.875000000000039
40
0.875000000000039
40
1
40
1
40
1
40
1
41
1
10
4.0336424394705
20
-2.50839660982797
30
0
41
1
10
3.86410306811587
20
-2.5058241856488
30
0
41
1
10
3.69537555913342
20
-2.4977680611494
30
0
41
1
10
3.36033930167201
20
-2.46809730950363
30
0
41
1
10
3.19318483900909
20
-2.44640531934561
30
0
41
1
10
2.94932957663474
20
-2.40034647133027
30
0
41
1
10
2.86921123237349
20
-2.38273857517166
30
0
41
1
10
2.71206649522844
20
-2.34194662881796
30
0
41
1
10
2.63486648849798
20
-2.31870677305633
30
0
41
1
10
2.48642823436677
20
-2.26545104299871
30
0
41
1
10
2.41500649898316
20
-2.23544937165255
30
0
41
1
10
2.31419870587678
20
-2.1833069293636
30
0
41
1
10
2.28166246888037
20
-2.16472420618916
30
0
41
1
10
2.21936025331846
20
-2.12453454883331
30
0
41
1
10
2.18953567130689
20
-2.10286131772742
30
0
41
1
10
2.13465348930535
20
-2.05644944482253
30
0
41
1
10
2.10946004278509
20
-2.03164859801092
30
0
41
1
10
2.06507497364078
20
-1.97792465484068
30
0
41
1
10
2.04606741970167
20
-1.94911090047188
30
0
41
1
10
2.01713686021409
20
-1.88828828455405
30
0
41
1
10
2.00702757321054
20
-1.85610969786299
30
0
41
1
10
1.99807739073364
20
-1.78738800929904
30
0
41
1
10
1.99947519343482
20
-1.75204528728969
30
0
41
1
10
2.0143657679684
20
-1.68039021141567
30
0
41
1
10
2.02811476558463
20
-1.64374581364507
30
0
41
1
10
2.06554627264956
20
-1.5730913896675
30
0
41
1
10
2.08949777384305
20
-1.53831298857631
30
0
41
1
10
2.17211062860727
20
-1.43844467028558
30
0
41
1
10
2.2401777359367
20
-1.37835409647616
30
0
41
1
10
2.39080830302933
20
-1.26698519495346
30
0
41
1
10
2.4714183165427
20
-1.21723784320235
30
0
41
1
10
2.63904791514665
20
-1.12523888459438
30
0
41
1
10
2.72614732327787
20
-1.0830700792651
30
0
41
1
10
2.82674611053233
20
-1.03880382842803
30
0
41
1
10
2.83781583149786
20
-1.03355517692827
30
0
41
1
10
2.86062587032998
20
-1.02485922294349
30
0
41
1
10
2.87265620979082
20
-1.02217286508966
30
0
41
1
10
2.91005934208764
20
-1.0176164529222
30
0
41
1
10
2.93489644595061
20
-1.02023414871064
30
0
41
1
10
3.00927149136436
20
-1.02463411255101
30
0
41
1
10
3.05884135354793
20
-1.02781430547748
30
0
41
1
10
3.20750237402913
20
-1.03808510776102
30
0
41
1
10
3.30649518264556
20
-1.04590195020865
30
0
41
1
10
3.80089485896906
20
-1.08969373824749
30
0
41
1
10
4.1950638131712
20
-1.13994694012544
30
0
41
1
10
4.97432633901923
20
-1.26456100967468
30
0
41
1
10
5.36007016630171
20
-1.33897797277896
30
0
41
1
10
6.12481080341377
20
-1.50335550696221
30
0
41
1
10
6.50379612539547
20
-1.5933125944558
30
0
41
1
10
7.25672611471654
20
-1.77754619948783
30
0
41
1
10
7.63070889094541
20
-1.87178790786149
30
0
41
1
10
8.00124318800971
20
-1.96150883097704
30
0
0
SPLINE
5
B5
100
AcDbEntity
8
1
62
256
6
ByLayer
370
18
48
1
60
0
100
AcDbSpline
70
4
71
3
72
8
73
4
40
0
40
0
40
0
40
0
40
1
40
1
40
1
40
1
41
1
10
4.10456594689265
20
0.02516195678038
30
0
41
1
10
4.11614527934685
20
0.0168763566130679
30
0
41
1
10
4.12855453057287
20
0.0094785092166774
30
0
41
1
10
4.14189887851666
20
0.0030764405943842
30
0
0
SPLINE
5
B6
100
AcDbEntity
8
1
62
256
6
ByLayer
370
18
48
1
60
0
100
AcDbSpline
70
4
71
3
72
26
73
22
40
0
40
0
40
0
40
0
40
0.0823566086268101
40
0.0823566086268101
40
0.174120947764129
40
0.174120947764129
40
0.265885286901448
40
0.265885286901448
40
0.357649626038767
40
0.357649626038767
40
0.449413965176086
40
0.449413965176086
40
0.541178304313405
40
0.541178304313405
40
0.632942643450724
40
0.632942643450724
40
0.816471321725362
40
0.816471321725362
40
0.908235660862681
40
0.908235660862681
40
1
40
1
40
1
40
1
41
1
10
20.3801243314816
20
2.39110186361401
30
0
41
1
10
20.5558807259496
20
2.39135266486937
30
0
41
1
10
20.7316433529722
20
2.38818056880603
30
0
41
1
10
21.1024429328124
20
2.37244861036706
30
0
41
1
10
21.2974922461804
20
2.35817432124119
30
0
41
1
10
21.6880876759701
20
2.31993868320132
30
0
41
1
10
21.8834177178128
20
2.2958362426412
30
0
41
1
10
22.2743905065939
20
2.2391471750629
30
0
41
1
10
22.4704085758885
20
2.20679576756157
30
0
41
1
10
22.8615628403845
20
2.13090996188055
30
0
41
1
10
23.0566384191905
20
2.08744736310524
30
0
41
1
10
23.4468714123605
20
1.9925475516373
30
0
41
1
10
23.6421852828834
20
1.94160202027777
30
0
41
1
10
24.0327740343335
20
1.83300960429088
30
0
41
1
10
24.2280409387682
20
1.77446190890032
30
0
41
1
10
24.8153129274235
20
1.58543229780597
30
0
41
1
10
25.2054240093884
20
1.44359201481069
30
0
41
1
10
25.791203453502
20
1.21721551612228
30
0
41
1
10
25.986477827586
20
1.13920575136655
30
0
41
1
10
26.3773353155648
20
0.978665708343925
30
0
41
1
10
26.5732461591114
20
0.895940023174546
30
0
41
1
10
26.7688185595838
20
0.811450210430991
30
0
0
SPLINE
5
B7
100
AcDbEntity
8
1
62
256
6
ByLayer
370
18
48
1
60
0
100
AcDbSpline
70
4
71
3
72
33
73
29
40
0
40
0
40
0
40
0
40
0.124999999999993
40
0.124999999999993
40
0.249999999999986
40
0.249999999999986
40
0.374999999999978
40
0.374999999999978
40
0.499999999999971
40
0.499999999999971
40
0.624999999999964
40
0.624999999999964
40
0.749999999999957
40
0.749999999999957
40
0.812499999999958
40
0.812499999999958
40
0.828124999999961
40
0.828124999999961
40
0.835937499999962
40
0.835937499999962
40
0.843749999999963
40
0.843749999999963
40
0.851562499999965
40
0.851562499999965
40
0.859374999999966
40
0.874999999999969
40
0.874999999999969
40
1
40
1
40
1
40
1
41
1
10
26.7688185595981
20
0.81145021042488
30
0
41
1
10
26.8669299234431
20
0.737159971973284
30
0
41
1
10
26.9668023642615
20
0.667972675153038
30
0
41
1
10
27.1700614020762
20
0.539780790235625
30
0
41
1
10
27.2734093360058
20
0.480664171048744
30
0
41
1
10
27.4841862691041
20
0.374256331578152
30
0
41
1
10
27.5919633979544
20
0.32653779064762
30
0
41
1
10
27.8068083081393
20
0.245214641965362
30
0
41
1
10
27.9143672780384
20
0.211272406577166
30
0
41
1
10
28.1297831651798
20
0.158053079022324
30
0
41
1
10
28.2376404748483
20
0.138795302298803
30
0
41
1
10
28.4537104372256
20
0.117769941987177
30
0
41
1
10
28.5612295933444
20
0.116159049978307
30
0
41
1
10
28.7186528575127
20
0.128889827823855
30
0
41
1
10
28.7706187766306
20
0.135655295239786
30
0
41
1
10
28.83488665091
20
0.147531769609344
30
0
41
1
10
28.8477025632729
20
0.150078087257072
30
0
41
1
10
28.8668348459727
20
0.154152282425997
30
0
41
1
10
28.8730722335592
20
0.155854257198968
30
0
41
1
10
28.8843003101066
20
0.162319845079736
30
0
41
1
10
28.8894881196821
20
0.167155475482048
30
0
41
1
10
28.8949830583072
20
0.180673455873887
30
0
41
1
10
28.895506909355
20
0.188869593317008
30
0
41
1
10
28.8979428697016
20
0.204340043365505
30
0
41
1
10
28.9014586327468
20
0.227607255153856
30
0
41
1
10
28.9045666366774
20
0.251048095829645
30
0
41
1
10
28.9216333596057
20
0.392219229352008
30
0
41
1
10
28.9256389566746
20
0.522027126006776
30
0
41
1
10
28.9217973757916
20
0.652013044807973
30
0
0
SPLINE
5
B8
100
AcDbEntity
8
1
62
256
6
ByLayer
370
18
48
1
60
0
100
AcDbSpline
70
4
71
3
72
8
73
4
40
0
40
0
40
0
40
0
40
1
40
1
40
1
40
1
41
1
10
29.9790562696364
20
-0.0172571594370083
30
0
41
1
10
29.6123815232219
20
-0.617703688626818
30
0
41
1
10
29.2689050339558
20
-1.23927732451975
30
0
41
1
10
28.9494528393315
20
-1.88273035562372
30
0
0
SPLINE
5
B9
100
AcDbEntity
8
1
62
256
6
ByLayer
370
18
48
1
60
0
100
AcDbSpline
70
4
71
3
72
10
73
6
40
0
40
0
40
0
40
0
40
0.5
40
0.5
40
1
40
1
40
1
40
1
41
1
10
29.2686094816756
20
2.43346470230074
30
0
41
1
10
29.3771272409024
20
2.1404994793065
30
0
41
1
10
29.489260719099
20
1.84893335536054
30
0
41
1
10
29.7195098755777
20
1.26811322375633
30
0
41
1
10
29.8376141948973
20
0.979021107026625
30
0
41
1
10
29.9579394828818
20
0.692170367633963
30
0
0
SPLINE
5
BA
100
AcDbEntity
8
1
62
256
6
ByLayer
370
18
48
1
60
0
100
AcDbSpline
70
4
71
3
72
12
73
8
40
0
40
0
40
0
40
0
40
0.250000000000017
40
0.250000000000017
40
0.500000000000033
40
0.500000000000033
40
1
40
1
40
1
40
1
41
1
10
4.03364243947041
20
-2.50839660982794
30
0
41
1
10
4.04493958910459
20
-2.48881520627865
30
0
41
1
10
4.05928167511422
20
-2.47034340190186
30
0
41
1
10
4.09179178568974
20
-2.43874778991878
30
0
41
1
10
4.11043358437479
20
-2.42515582920853
30
0
41
1
10
4.16861228378431
20
-2.39364374153954
30
0
41
1
10
4.21107836035577
20
-2.38427658504295
30
0
41
1
10
4.25123407931272
20
-2.3844830380433
30
0
0
SPLINE
5
BB
100
AcDbEntity
8
1
62
256
6
ByLayer
370
18
48
1
60
0
100
AcDbSpline
70
4
71
3
72
10
73
6
40
0
40
0
40
0
40
0
40
0.5
40
0.5
40
1
40
1
40
1
40
1
41
1
10
29.2686094816787
20
2.43346470229
30
0
41
1
10
29.2443271438053
20
2.45348198011664
30
0
41
1
10
29.2210768925638
20
2.4703950836001
30
0
41
1
10
29.1766182381767
20
2.49770776737176
30
0
41
1
10
29.1553075260355
20
2.50813874230448
30
0
41
1
10
29.1352770977263
20
2.51499192770541
30
0
0
SPLINE
5
BC
100
AcDbEntity
8
1
62
256
6
ByLayer
370
18
48
1
60
0
100
AcDbSpline
70
4
71
3
72
10
73
6
40
0
40
0
40
0
40
0
40
0.5
40
0.5
40
1
40
1
40
1
40
1
41
1
10
29.0117314202904
20
0.71469551697038
30
0
41
1
10
29.1695332243103
20
0.709905388098349
30
0
41
1
10
29.3273023034292
20
0.705476264121103
30
0
41
1
10
29.6426653968114
20
0.698486349783451
30
0
41
1
10
29.8003338046752
20
0.695090875212912
30
0
41
1
10
29.9579394828818
20
0.692170367633338
30
0
0
SPLINE
5
BD
100
AcDbEntity
8
1
62
256
6
ByLayer
370
18
48
1
60
0
100
AcDbSpline
70
4
71
3
72
8
73
4
40
0
40
0
40
0
40
0
40
1
40
1
40
1
40
1
41
1
10
29.9999614781567
20
0.0321388447616471
30
0
41
1
10
29.9949145475966
20
0.0145548208411981
30
0
41
1
10
29.9871840808038
20
-0.0039474999823597
30
0
41
1
10
29.9790562696364
20
-0.0172571594369231
30
0
0
SPLINE
5
BE
100
AcDbEntity
8
1
62
256
6
ByLayer
370
18
48
1
60
0
100
AcDbSpline
70
4
71
3
72
16
73
12
40
0
40
0
40
0
40
0
40
0.284304282988842
40
0.284304282988842
40
0.426456424483263
40
0.426456424483263
40
0.568608565977684
40
0.568608565977684
40
0.852912848966527
40
0.852912848966527
40
1
40
1
40
1
40
1
41
1
10
4.25123408005669
20
-2.38448303804719
30
0
41
1
10
4.55494933188629
20
-2.38604453228038
30
0
41
1
10
4.86232009047808
20
-2.36831293754256
30
0
41
1
10
5.32775064045336
20
-2.31920633252488
30
0
41
1
10
5.48356174709554
20
-2.29903114193962
30
0
41
1
10
5.79498731130403
20
-2.25222075158447
30
0
41
1
10
5.95083271171211
20
-2.22562745497615
30
0
41
1
10
6.41908555037244
20
-2.13857775338488
30
0
41
1
10
6.73217386897608
20
-2.06862517268371
30
0
41
1
10
7.21051626598751
20
-1.94824421135951
30
0
41
1
10
7.37420311443552
20
-1.90461870731096
30
0
41
1
10
7.53868266701639
20
-1.85910759824793
30
0
0
SPLINE
5
BF
100
AcDbEntity
8
1
62
256
6
ByLayer
370
18
48
1
60
0
100
AcDbSpline
70
4
71
3
72
16
73
12
40
0
40
0
40
0
40
0
40
0.25
40
0.25
40
0.375
40
0.375
40
0.5
40
0.5
40
0.75
40
0.75
40
1
40
1
40
1
40
1
41
1
10
8.00124318800971
20
1.72737711628653
30
0
41
1
10
7.67989793947351
20
1.82104255568842
30
0
41
1
10
7.36153910382842
20
1.9102895723629
30
0
41
1
10
6.88608102029624
20
2.02986603084025
30
0
41
1
10
6.72775659016389
20
2.06755958024908
30
0
41
1
10
6.41278985325198
20
2.13723149231478
30
0
41
1
10
6.2561007622115
20
2.16895148024079
30
0
41
1
10
5.787776513772
20
2.25578639750071
30
0
41
1
10
5.47777733365899
20
2.30347004876319
30
0
41
1
10
4.86157598068942
20
2.36829784181592
30
0
41
1
10
4.55526780920505
20
2.38604616966518
30
0
41
1
10
4.25123408019005
20
2.38448303804788
30
0
0
SPLINE
5
C0
100
AcDbEntity
8
1
62
256
6
ByLayer
370
18
48
1
60
0
100
AcDbSpline
70
4
71
3
72
8
73
4
40
0
40
0
40
0
40
0
40
1
40
1
40
1
40
1
41
1
10
29.957939482882
20
0.692170367633679
30
0
41
1
10
29.972946703781
20
0.492935630764975
30
0
41
1
10
29.9836620779849
20
0.294002909473193
30
0
41
1
10
29.9900885905157
20
0.0953719937035373
30
0
0
SPLINE
5
C1
100
AcDbEntity
8
1
62
256
6
ByLayer
370
18
48
1
60
0
100
AcDbSpline
70
4
71
3
72
16
73
12
40
0
40
0
40
0
40
0
40
0.282094567584585
40
0.282094567584585
40
0.564189135169169
40
0.564189135169169
40
0.705236418961462
40
0.705236418961462
40
0.846283702753754
40
0.846283702753754
40
1
40
1
40
1
40
1
41
1
10
28.9494528393315
20
-1.88273035562372
30
0
41
1
10
28.948948389107
20
-1.97260678868767
30
0
41
1
10
28.9528105322983
20
-2.05243612495457
30
0
41
1
10
28.9692228570511
20
-2.18710418378768
30
0
41
1
10
28.9816990608285
20
-2.24238950738274
30
0
41
1
10
29.0072595619983
20
-2.30748935357352
30
0
41
1
10
29.0169809185603
20
-2.32626759474644
30
0
41
1
10
29.0386419588417
20
-2.35732959913969
30
0
41
1
10
29.0505282376797
20
-2.36958794422529
30
0
41
1
10
29.077607087663
20
-2.38862975548395
30
0
41
1
10
29.092993442155
20
-2.39484233614508
30
0
41
1
10
29.1097132713322
20
-2.3973583776783
30
0
0
SPLINE
5
C2
100
AcDbEntity
8
1
62
256
6
ByLayer
370
18
48
1
60
0
100
AcDbSpline
70
4
71
3
72
14
73
10
40
0
40
0
40
0
40
0
40
0.25
40
0.25
40
0.5
40
0.5
40
0.75
40
0.75
40
1
40
1
40
1
40
1
41
1
10
29.1544348252383
20
-2.39593953920959
30
0
41
1
10
29.157808432458
20
-2.39529238972639
30
0
41
1
10
29.1605413244968
20
-2.39633411155259
30
0
41
1
10
29.1643384112511
20
-2.40277594881891
30
0
41
1
10
29.1653511391906
20
-2.4082583093471
30
0
41
1
10
29.1645474567633
20
-2.42464055730099
30
0
41
1
10
29.1626722021987
20
-2.43547663683833
30
0
41
1
10
29.1561459608824
20
-2.46008409309437
30
0
41
1
10
29.1515372961548
20
-2.47371626832199
30
0
41
1
10
29.1463779496057
20
-2.48682311130312
30
0
0
SPLINE
5
C3
100
AcDbEntity
8
1
62
256
6
ByLayer
370
18
48
1
60
0
100
AcDbSpline
70
4
71
3
72
10
73
6
40
0
40
0
40
0
40
0
40
0.5
40
0.5
40
1
40
1
40
1
40
1
41
1
10
4.10456594688631
20
0.0251619567850412
30
0
41
1
10
4.08403811786172
20
0.0398434861479302
30
0
41
1
10
4.06653119110234
20
0.0581682403402226
30
0
41
1
10
4.04092721086735
20
0.101230600786494
30
0
41
1
10
4.03299176914183
20
0.12579738949222
30
0
41
1
10
4.03299953690828
20
0.151103078240539
30
0
0
SPLINE
5
C4
100
AcDbEntity
8
1
62
256
6
ByLayer
370
18
48
1
60
0
100
AcDbSpline
70
4
71
3
72
35
73
31
40
0
40
0
40
0
40
0
40
0.130699905243751
40
0.130699905243751
40
0.21133890124917
40
0.21133890124917
40
0.291977897254589
40
0.291977897254589
40
0.453255889265426
40
0.453255889265426
40
0.533894885270845
40
0.533894885270845
40
0.574214383273555
40
0.574214383273555
40
0.584294257774232
40
0.589334195024571
40
0.589334195024571
40
0.594374132274909
40
0.594374132274909
40
0.604454006775587
40
0.604454006775587
40
0.614533881276264
40
0.614533881276264
40
0.775811873287102
40
0.775811873287102
40
0.85645086929252
40
0.85645086929252
40
0.937089865297939
40
0.937089865297939
40
1
40
1
40
1
40
1
41
1
10
8.00124318800971
20
1.96150883097695
30
0
41
1
10
8.00124318800971
20
1.83145072677627
30
0
41
1
10
8.00124318800971
20
1.7090654934058
30
0
41
1
10
8.00124318800971
20
1.52346349727358
30
0
41
1
10
8.00124318800971
20
1.45617734332558
30
0
41
1
10
8.00124318800971
20
1.32974967456218
30
0
41
1
10
8.00124318800971
20
1.27036312322412
30
0
41
1
10
8.00124318800971
20
1.10321862875202
30
0
41
1
10
8.00124318800971
20
1.00640036969204
30
0
41
1
10
8.00124318800971
20
0.882739950120538
30
0
41
1
10
8.00124318800974
20
0.845120335368165
30
0
41
1
10
8.00124318800974
20
0.794733832009854
30
0
41
1
10
8.00124318800971
20
0.778915109820616
30
0
41
1
10
8.00124318800971
20
0.760363790613582
30
0
41
1
10
8.00124318800974
20
0.754891105585045
30
0
41
1
10
8.00124318800971
20
0.749557232512103
30
0
41
1
10
8.00124318800971
20
0.746032140850588
30
0
41
1
10
8.00124318800971
20
0.743967963253851
30
0
41
1
10
8.00124318800971
20
0.741380502888035
30
0
41
1
10
8.00124318800971
20
0.744187389704166
30
0
41
1
10
8.00124318800971
20
0.756024189090795
30
0
41
1
10
8.00124318800971
20
0.762006809270162
30
0
41
1
10
8.00124318800971
20
0.864806604465571
30
0
41
1
10
8.00124318800971
20
0.977196642029924
30
0
41
1
10
8.00124318800971
20
1.16798379988487
30
0
41
1
10
8.00124318800971
20
1.2353780079651
30
0
41
1
10
8.00124318800971
20
1.3781067727229
30
0
41
1
10
8.00124318800971
20
1.45387087232703
30
0
41
1
10
8.00124318800971
20
1.59418971208754
30
0
41
1
10
8.00124318800971
20
1.65745114524617
30
0
41
1
10
8.00124318800971
20
1.72250673631118
30
0
0
SPLINE
5
C5
100
AcDbEntity
8
1
62
256
6
ByLayer
370
18
48
1
60
0
100
AcDbSpline
70
4
71
3
72
22
73
18
40
0
40
0
40
0
40
0
40
0.0389153688330071
40
0.0389153688330071
40
0.420260319569459
40
0.420260319569459
40
0.467928438411515
40
0.467928438411515
40
0.515596557253571
40
0.515596557253571
40
0.610932794937682
40
0.610932794937682
40
0.801605270305903
40
0.801605270305903
40
0.992277745674124
40
0.992277745674124
40
1
40
1
40
1
40
1
41
1
10
16.3602184832754
20
1.77733410071454
30
0
41
1
10
16.4667804815151
20
1.74170022909379
30
0
41
1
10
16.5734027386716
20
1.70491699877704
30
0
41
1
10
17.7257710027071
20
1.29578003952662
30
0
41
1
10
18.7517384688475
20
0.830406143476381
30
0
41
1
10
19.9218772550431
20
0.275741014776145
30
0
41
1
10
20.0521081706591
20
0.213675539526463
30
0
41
1
10
20.3131424252501
20
0.0889635039451093
30
0
41
1
10
20.444038783212
20
0.0262723494685702
30
0
41
1
10
20.8351700173355
20
-0.160967589939503
30
0
41
1
10
21.0946687308094
20
-0.285130506283394
30
0
41
1
10
21.8711139680615
20
-0.652073072295309
30
0
41
1
10
22.3859322866456
20
-0.889413174853757
30
0
41
1
10
23.4184614516163
20
-1.3324159718766
30
0
41
1
10
23.9364597867504
20
-1.5386484418818
30
0
41
1
10
24.4804933378029
20
-1.72749290324373
30
0
41
1
10
24.501664256705
20
-1.7347993967814
30
0
41
1
10
24.5228305937631
20
-1.74206148848054
30
0
0
SPLINE
5
C6
100
AcDbEntity
8
1
62
256
6
ByLayer
370
13
48
1
60
0
100
AcDbSpline
70
4
71
3
72
14
73
10
40
0
40
0
40
0
40
0
40
0.324210147791268
40
0.324210147791268
40
0.493157610843451
40
0.493157610843451
40
0.662105073895634
40
0.662105073895634
40
1
40
1
40
1
40
1
41
1
10
24.5228305937879
20
-1.7420614884891
30
0
41
1
10
25.0242885722409
20
-1.91410986005218
30
0
41
1
10
25.5231748644304
20
-2.06123647624759
30
0
41
1
10
26.2840036472932
20
-2.2395842950971
30
0
41
1
10
26.5455665939003
20
-2.29263715659258
30
0
41
1
10
27.0673988030715
20
-2.38082226370975
30
0
41
1
10
27.3274824236381
20
-2.41590023706476
30
0
41
1
10
28.1069315212755
20
-2.49380754643912
30
0
41
1
10
28.6252917903268
20
-2.50941692670574
30
0
41
1
10
29.1463779496037
20
-2.48682311130321
30
0
0
SPLINE
5
C7
100
AcDbEntity
8
1
62
256
6
ByLayer
370
18
48
1
60
0
100
AcDbSpline
70
4
71
3
72
20
73
16
40
0
40
0
40
0
40
0
40
0.189358464616713
40
0.189358464616713
40
0.378716929233426
40
0.378716929233426
40
0.568075393850138
40
0.568075393850138
40
0.757433858466851
40
0.757433858466851
40
0.852113090775208
40
0.852113090775208
40
0.946792323083564
40
0.946792323083564
40
1
40
1
40
1
40
1
41
1
10
8.00124318800971
20
-1.96150883097704
30
0
41
1
10
8.22297688695085
20
-2.02915562923909
30
0
41
1
10
8.44472425947748
20
-2.09052646808073
30
0
41
1
10
8.88808848086146
20
-2.20147105852595
30
0
41
1
10
9.1090820280051
20
-2.25162151902523
30
0
41
1
10
9.55201992635676
20
-2.3388745815854
30
0
41
1
10
9.77396996628397
20
-2.37610587845589
30
0
41
1
10
10.2180255886748
20
-2.43810780703012
30
0
41
1
10
10.4395508621398
20
-2.46240493660323
30
0
41
1
10
10.7719755408539
20
-2.48862680607496
30
0
41
1
10
10.8827511677211
20
-2.49569434850633
30
0
41
1
10
11.1040391936663
20
-2.50649206258441
30
0
41
1
10
11.2145301091139
20
-2.5102060427509
30
0
41
1
10
11.3874507677649
20
-2.51329705752556
30
0
41
1
10
11.4497106529574
20
-2.51387303106057
30
0
41
1
10
11.5120039002735
20
-2.51391043190887
30
0
0
SPLINE
5
C8
100
AcDbEntity
8
1
62
256
6
ByLayer
370
18
48
1
60
0
100
AcDbSpline
70
4
71
3
72
22
73
18
40
0
40
0
40
0
40
0
40
0.12406925052875
40
0.12406925052875
40
0.249202214738929
40
0.249202214738929
40
0.374335178949107
40
0.374335178949107
40
0.499468143159286
40
0.499468143159286
40
0.624601107369464
40
0.624601107369464
40
0.749734071579643
40
0.749734071579643
40
0.874867035789822
40
0.874867035789822
40
1
40
1
40
1
40
1
41
1
10
23.9602032927194
20
1.84541233617165
30
0
41
1
10
24.1803615870468
20
1.91802158644779
30
0
41
1
10
24.3996232382503
20
1.98609155187628
30
0
41
1
10
24.8403553123112
20
2.11090140896439
30
0
41
1
10
25.0619055932026
20
2.16757868799331
30
0
41
1
10
25.5041100618054
20
2.27030076233848
30
0
41
1
10
25.7257744203092
20
2.31540746774374
30
0
41
1
10
26.1698951471677
20
2.39282969409882
30
0
41
1
10
26.3910155483708
20
2.42533555961967
30
0
41
1
10
26.8334606936161
20
2.47662588397836
30
0
41
1
10
27.0549155685625
20
2.49548809329192
30
0
41
1
10
27.4971195552304
20
2.51996942743503
30
0
41
1
10
27.7184170073602
20
2.52535764323861
30
0
41
1
10
28.1625846563228
20
2.52241301923101
30
0
41
1
10
28.3838381599489
20
2.51402921275161
30
0
41
1
10
28.8261879976112
20
2.48372781623672
30
0
41
1
10
29.0475458373675
20
2.46199216821623
30
0
41
1
10
29.26860948168
20
2.433464702289
30
0
0
SPLINE
5
C9
100
AcDbEntity
8
1
62
256
6
ByLayer
370
13
48
1
60
0
100
AcDbSpline
70
4
71
3
72
8
73
4
40
0
40
0
40
0
40
0
40
1
40
1
40
1
40
1
41
1
10
4.25036802005405
20
0.0597595455964495
30
0
41
1
10
4.21277051166325
20
0.0700808863716702
30
0
41
1
10
4.17608172488809
20
0.0801870018555917
30
0
41
1
10
4.14189887851666
20
0.0899283133470306
30
0
0
SPLINE
5
CA
100
AcDbEntity
8
1
62
256
6
ByLayer
370
18
48
1
60
0
100
AcDbSpline
70
4
71
3
72
14
73
10
40
0
40
0
40
0
40
0
40
0.421585545909905
40
0.421585545909905
40
0.632378318864862
40
0.632378318864862
40
0.843171091819819
40
0.843171091819819
40
1
40
1
40
1
40
1
41
1
10
29.154434860858
20
-2.39593953843846
30
0
41
1
10
28.6338620852104
20
-2.4072095355173
30
0
41
1
10
28.115867797983
20
-2.38204645938041
30
0
41
1
10
27.337087442269
20
-2.2923995178372
30
0
41
1
10
27.0772280684038
20
-2.25386902097992
30
0
41
1
10
26.5559169670859
20
-2.15974428609368
30
0
41
1
10
26.2947940285137
20
-2.10427286451537
30
0
41
1
10
25.8408119815066
20
-1.99443733955081
30
0
41
1
10
25.6473197842207
20
-1.94338718208556
30
0
41
1
10
25.4537910252331
20
-1.88843208296916
30
0
0
SPLINE
5
CB
100
AcDbEntity
8
1
62
256
6
ByLayer
370
13
48
1
60
0
100
AcDbSpline
70
4
71
3
72
22
73
18
40
0
40
0
40
0
40
0
40
0.111077004581899
40
0.111077004581899
40
0.28795048931465
40
0.28795048931465
40
0.464823974047401
40
0.464823974047401
40
0.553260716413777
40
0.553260716413777
40
0.597479087596965
40
0.597479087596965
40
0.641697458780153
40
0.641697458780153
40
0.99544442824566
40
0.99544442824566
40
1
40
1
40
1
40
1
41
1
10
25.4537916634709
20
-1.88843226420536
30
0
41
1
10
25.127078575485
20
-1.79565769452736
30
0
41
1
10
24.8002612879987
20
-1.69175411245331
30
0
41
1
10
23.9500852539375
20
-1.39715309260609
30
0
41
1
10
23.4328759202656
20
-1.1938375340074
30
0
41
1
10
22.4010781947584
20
-0.760122121044731
30
0
41
1
10
21.8864015962366
20
-0.529428795037973
30
0
41
1
10
21.1104288642567
20
-0.174980662308314
30
0
41
1
10
20.8510828259334
20
-0.0554948460849687
30
0
41
1
10
20.4602993091965
20
0.124112065709767
30
0
41
1
10
20.3295849332673
20
0.184138971284028
30
0
41
1
10
20.0689706880236
20
0.303351935842045
30
0
41
1
10
19.9389284223389
20
0.362603686929361
30
0
41
1
10
18.7703207792139
20
0.89133474050513
30
0
41
1
10
17.7444592387854
20
1.32929807736832
30
0
41
1
10
16.68651448764
20
1.67647560536634
30
0
41
1
10
16.6730649685877
20
1.68087218747519
30
0
41
1
10
16.6596169166173
20
1.68525114315631
30
0
0
SPLINE
5
CC
100
AcDbEntity
8
1
62
256
6
ByLayer
370
18
48
1
60
0
100
AcDbSpline
70
4
71
3
72
60
73
56
40
0
40
0
40
0
40
0
40
0.0079523443161711
40
0.0079523443161711
40
0.0446948500822387
40
0.0446948500822387
40
0.0814373558483063
40
0.0814373558483063
40
0.118179861614374
40
0.118179861614374
40
0.154922367380441
40
0.154922367380441
40
0.191664873146509
40
0.191664873146509
40
0.228407378912577
40
0.228407378912577
40
0.265149884678644
40
0.265149884678644
40
0.301892390444712
40
0.301892390444712
40
0.33863489621078
40
0.33863489621078
40
0.375377401976847
40
0.375377401976847
40
0.412119907742915
40
0.412119907742915
40
0.448862413508982
40
0.448862413508982
40
0.48560491927505
40
0.48560491927505
40
0.522347425041118
40
0.522347425041118
40
0.559089930807185
40
0.559089930807185
40
0.595832436573253
40
0.595832436573253
40
0.632574942339321
40
0.632574942339321
40
0.669317448105388
40
0.669317448105388
40
0.706059953871456
40
0.706059953871456
40
0.742802459637523
40
0.742802459637523
40
0.779544965403591
40
0.779544965403591
40
0.853029976935727
40
0.853029976935727
40
0.889772482701796
40
0.889772482701796
40
0.926514988467864
40
0.926514988467864
40
0.963257494233932
40
0.963257494233932
40
1
40
1
40
1
40
1
41
1
10
23.9644017560935
20
-1.8514166339331
30
0
41
1
10
23.9220571237877
20
-1.86359095488089
30
0
41
1
10
23.8797222379281
20
-1.87556163639681
30
0
41
1
10
23.6418812814064
20
-1.9416855832639
30
0
41
1
10
23.4464235583276
20
-1.9926619017389
30
0
41
1
10
23.0560956704684
20
-2.08757390145723
30
0
41
1
10
22.8610731818295
20
-2.13101056141846
30
0
41
1
10
22.4702802749181
20
-2.20681504627146
30
0
41
1
10
22.2745642560209
20
-2.23912455891488
30
0
41
1
10
21.8828798456837
20
-2.2959116523343
30
0
41
1
10
21.6872975387091
20
-2.32003158629183
30
0
41
1
10
21.2964365191555
20
-2.35826203735834
30
0
41
1
10
21.1013725989115
20
-2.37251241796244
30
0
41
1
10
20.7107855234002
20
-2.38904702061248
30
0
41
1
10
20.5152630862592
20
-2.39202297250722
30
0
41
1
10
20.1240202362976
20
-2.38974044752791
30
0
41
1
10
19.9280816190637
20
-2.38392565031435
30
0
41
1
10
19.5369164612765
20
-2.36182498373762
30
0
41
1
10
19.3414572557442
20
-2.34540485372594
30
0
41
1
10
18.9512097443514
20
-2.30195438412522
30
0
41
1
10
18.7560328532821
20
-2.2757528230967
30
0
41
1
10
18.3652155125165
20
-2.21336389782519
30
0
41
1
10
18.1696909090487
20
-2.17737255808674
30
0
41
1
10
17.778083850893
20
-2.09708581771733
30
0
41
1
10
17.5825088858601
20
-2.05272097199276
30
0
41
1
10
17.1917657778206
20
-1.95488460113378
30
0
41
1
10
16.9967627549392
20
-1.90111936169333
30
0
41
1
10
16.6063036962718
20
-1.78636816348734
30
0
41
1
10
16.4109526661411
20
-1.72567068604988
30
0
41
1
10
16.0199865855508
20
-1.596811901108
30
0
41
1
10
15.8240886052096
20
-1.5284086622199
30
0
41
1
10
15.4328988055458
20
-1.38585674848932
30
0
41
1
10
15.2374289772065
20
-1.31191200906559
30
0
41
1
10
14.8472617319046
20
-1.1580198107568
30
0
41
1
10
14.6520697117333
20
-1.07898326487171
30
0
41
1
10
14.2613994018946
20
-0.916216359303206
30
0
41
1
10
14.0659144295669
20
-0.832160436649701
30
0
41
1
10
13.6741892356634
20
-0.660914527279601
30
0
41
1
10
13.4784525298905
20
-0.574269008402553
30
0
41
1
10
13.0875042164155
20
-0.398974798120435
30
0
41
1
10
12.8924596668354
20
-0.309823998170145
30
0
41
1
10
12.501838558589
20
-0.131353333302656
30
0
41
1
10
12.3063791367497
20
-0.041824429337538
30
0
41
1
10
11.9152108171115
20
0.137745809675493
30
0
41
1
10
11.7191624064626
20
0.227640614192836
30
0
41
1
10
11.1317739197784
20
0.494216789345131
30
0
41
1
10
10.7414906653276
20
0.670171337427973
30
0
41
1
10
10.1544462123783
20
0.921613715013848
30
0
41
1
10
9.95839854080083
20
1.00366450434416
30
0
41
1
10
9.56661878512131
20
1.1636577455578
30
0
41
1
10
9.37091457842217
20
1.24139539672856
30
0
41
1
10
8.97978490327432
20
1.3912686721832
30
0
41
1
10
8.78455089436278
20
1.46356018188189
30
0
41
1
10
8.39327378103485
20
1.60018982340551
30
0
41
1
10
8.19731906638302
20
1.66525809640984
30
0
41
1
10
8.00124318800971
20
1.72737711628653
30
0
0
SPLINE
5
CD
100
AcDbEntity
8
1
62
256
6
ByLayer
370
18
48
1
60
0
100
AcDbSpline
70
4
71
3
72
72
73
68
40
0
40
0
40
0
40
0
40
0.0334627432620382
40
0.0334627432620382
40
0.0669254865240765
40
0.0669254865240765
40
0.100388229786115
40
0.100388229786115
40
0.133850973048153
40
0.133850973048153
40
0.150582344679172
40
0.150582344679172
40
0.167313716310191
40
0.167313716310191
40
0.200776459572229
40
0.200776459572229
40
0.234239202834266
40
0.234239202834266
40
0.250970574465285
40
0.250970574465285
40
0.267701946096303
40
0.267701946096303
40
0.30116468935834
40
0.30116468935834
40
0.334627432620376
40
0.334627432620376
40
0.351358804251395
40
0.351358804251395
40
0.368090175882413
40
0.368090175882413
40
0.40155291914445
40
0.40155291914445
40
0.435015662406486
40
0.435015662406486
40
0.468478405668523
40
0.468478405668523
40
0.501941148930559
40
0.501941148930559
40
0.535403892192596
40
0.535403892192596
40
0.568866635454632
40
0.568866635454632
40
0.602329378716669
40
0.602329378716669
40
0.635792121978705
40
0.635792121978705
40
0.669254865240742
40
0.669254865240742
40
0.702717608502779
40
0.702717608502779
40
0.736180351764815
40
0.736180351764815
40
0.769643095026852
40
0.769643095026852
40
0.803105838288888
40
0.803105838288888
40
0.836568581550925
40
0.836568581550925
40
0.870031324812961
40
0.870031324812961
40
0.903494068074998
40
0.903494068074998
40
0.936956811337035
40
0.936956811337035
40
0.970419554599071
40
0.970419554599071
40
1
40
1
40
1
40
1
41
1
10
8.00124318800971
20
1.96150883097704
30
0
41
1
10
8.22297688695085
20
2.02915562923909
30
0
41
1
10
8.44472425947748
20
2.09052646808073
30
0
41
1
10
8.88808848086143
20
2.20147105852595
30
0
41
1
10
9.1090820280051
20
2.25162151902523
30
0
41
1
10
9.55201992635676
20
2.3388745815854
30
0
41
1
10
9.77396996628397
20
2.37610587845589
30
0
41
1
10
10.2180255886748
20
2.43810780703012
30
0
41
1
10
10.4395508621398
20
2.46240493660323
30
0
41
1
10
10.7719755408539
20
2.48862680607496
30
0
41
1
10
10.8827511677212
20
2.49569434850633
30
0
41
1
10
11.1040391936664
20
2.50649206258441
30
0
41
1
10
11.2145301091139
20
2.5102060427509
30
0
41
1
10
11.5466486576146
20
2.51614277320502
30
0
41
1
10
11.7686361537516
20
2.51331024846976
30
0
41
1
10
12.2126753583942
20
2.49384440108253
30
0
41
1
10
12.4341209743646
20
2.47722171601626
30
0
41
1
10
12.7665007473864
20
2.44253172898357
30
0
41
1
10
12.8772749589246
20
2.42933171257405
30
0
41
1
10
13.0986003335905
20
2.39953094852612
30
0
41
1
10
13.2090724335334
20
2.38286327752465
30
0
41
1
10
13.5411064899129
20
2.32830477861617
30
0
41
1
10
13.7631071549561
20
2.28582831936794
30
0
41
1
10
14.2071386686247
20
2.18773376631336
30
0
41
1
10
14.4285113420848
20
2.13249960182438
30
0
41
1
10
14.7608356321739
20
2.0418620934031
30
0
41
1
10
14.8716073185693
20
2.01030931887829
30
0
41
1
10
15.0929585798084
20
1.94427729470965
30
0
41
1
10
15.2034342013048
20
1.90964794933802
30
0
41
1
10
15.5353801759851
20
1.80237975112061
30
0
41
1
10
15.7573802792605
20
1.72639418873808
30
0
41
1
10
16.2014140921757
20
1.56393283986881
30
0
41
1
10
16.4227229990199
20
1.47802543283663
30
0
41
1
10
16.8657339834779
20
1.30000306864633
30
0
41
1
10
17.0869976767083
20
1.20715679979065
30
0
41
1
10
17.5294698494807
20
1.01444946688184
30
0
41
1
10
17.7514542136245
20
0.915929094763527
30
0
41
1
10
18.1955004643066
20
0.712704606531304
30
0
41
1
10
18.416754687594
20
0.608544027564903
30
0
41
1
10
18.8596676302993
20
0.399080487548076
30
0
41
1
10
19.0810310185346
20
0.293188426260571
30
0
41
1
10
19.5233755820788
20
0.0786441402577793
30
0
41
1
10
19.7453275570028
20
-0.0281738409852608
30
0
41
1
10
20.1893965409394
20
-0.242656469541117
30
0
41
1
10
20.4106019827064
20
-0.349980371697001
30
0
41
1
10
20.8534158482807
20
-0.560542949423308
30
0
41
1
10
21.0748846707087
20
-0.664097858088383
30
0
41
1
10
21.5170984660586
20
-0.869400292148157
30
0
41
1
10
21.7389992676162
20
-0.96905904988563
30
0
41
1
10
22.1831005996
20
-1.16369108667308
30
0
41
1
10
22.4042644726492
20
-1.25860578322329
30
0
41
1
10
22.8469784769967
20
-1.4397197068169
30
0
41
1
10
23.0685191256688
20
-1.52602463876354
30
0
41
1
10
23.5106728976786
20
-1.69215711039306
30
0
41
1
10
23.7324790638785
20
-1.77023361052309
30
0
41
1
10
24.1766018984781
20
-1.91685394821587
30
0
41
1
10
24.3977419839544
20
-1.9855588039924
30
0
41
1
10
24.8403553123112
20
-2.11090140896439
30
0
41
1
10
25.0619055932026
20
-2.16757868799331
30
0
41
1
10
25.5041100618054
20
-2.27030076233848
30
0
41
1
10
25.7257744203092
20
-2.31540746774371
30
0
41
1
10
26.1698951471677
20
-2.39282969409882
30
0
41
1
10
26.3910155483708
20
-2.42533555961967
30
0
41
1
10
26.8334606936161
20
-2.47662588397836
30
0
41
1
10
27.0549155685626
20
-2.49548809329192
30
0
41
1
10
27.4714676297715
20
-2.51854928338952
30
0
41
1
10
27.6670704336964
20
-2.52401514159581
30
0
41
1
10
27.8632341553011
20
-2.52412075600219
30
0
0
SPLINE
5
CE
100
AcDbEntity
8
1
62
256
6
ByLayer
370
18
48
1
60
0
100
AcDbSpline
70
4
71
3
72
8
73
4
40
0
40
0
40
0
40
0
40
1
40
1
40
1
40
1
41
1
10
4.14143863458546
20
0.0033079009691335
30
0
41
1
10
4.12842803965518
20
0.009579869125929
30
0
41
1
10
4.11614730193736
20
0.016878956959232
30
0
41
1
10
4.10456594689183
20
0.0251619567810906
30
0
0
SPLINE
5
CF
100
AcDbEntity
8
1
62
256
6
ByLayer
370
18
48
1
60
0
100
AcDbSpline
70
4
71
3
72
8
73
4
40
0
40
0
40
0
40
0
40
1
40
1
40
1
40
1
41
1
10
29.1352770977263
20
2.51499192770538
30
0
41
1
10
28.9808647801455
20
2.52154784355039
30
0
41
1
10
28.8265752158084
20
2.52475463829194
30
0
41
1
10
28.6723034942068
20
2.52462958049867
30
0
0
SPLINE
5
D0
100
AcDbEntity
8
1
62
256
6
ByLayer
370
18
48
1
60
0
100
AcDbSpline
70
4
71
3
72
26
73
22
40
0
40
0
40
0
40
0
40
0.0400364943935328
40
0.0400364943935328
40
0.20003041199461
40
0.20003041199461
40
0.280027370795148
40
0.280027370795148
40
0.360024329595686
40
0.360024329595686
40
0.520018247196765
40
0.520018247196765
40
0.680012164797843
40
0.680012164797843
40
0.720010644198112
40
0.720010644198112
40
0.760009123598382
40
0.760009123598382
40
0.840006082398922
40
0.840006082398922
40
1
40
1
40
1
40
1
41
1
10
13.9077239639395
20
-2.39976023402278
30
0
41
1
10
13.7779478101713
20
-2.41848857127042
30
0
41
1
10
13.6482898825402
20
-2.43496156563268
30
0
41
1
10
13.0007488452275
20
-2.50582684772058
30
0
41
1
10
12.4834557374332
20
-2.52589568793272
30
0
41
1
10
11.7023630142368
20
-2.49926965724913
30
0
41
1
10
11.4410492668121
20
-2.48093395054923
30
0
41
1
10
10.9157895496728
20
-2.42525410010859
30
0
41
1
10
10.6545685303818
20
-2.38820718764776
30
0
41
1
10
9.8735347446916
20
-2.25112968035228
30
0
41
1
10
9.35640661892052
20
-2.1250107590337
30
0
41
1
10
8.32003404053739
20
-1.81420592832487
30
0
41
1
10
7.80120423771942
20
-1.62896001148047
30
0
41
1
10
7.1459553666773
20
-1.36814082494334
30
0
41
1
10
7.01444828418124
20
-1.31444432888776
30
0
41
1
10
6.75227254288228
20
-1.20497636283182
30
0
41
1
10
6.62142681207189
20
-1.14913349375686
30
0
41
1
10
6.2293905224555
20
-0.978724091798568
30
0
41
1
10
5.96870351048335
20
-0.861271341645505
30
0
41
1
10
5.18702516850379
20
-0.500639933037519
30
0
41
1
10
4.6661836133477
20
-0.249653920907093
30
0
41
1
10
4.14143863458622
20
0.0033079009687924
30
0
0
SPLINE
5
D1
100
AcDbEntity
8
1
62
256
6
ByLayer
370
18
48
1
60
0
100
AcDbSpline
70
4
71
3
72
10
73
6
40
0
40
0
40
0
40
0
40
0.5
40
0.5
40
1
40
1
40
1
40
1
41
1
10
29.26860948168
20
-2.433464702289
30
0
41
1
10
29.2443271438063
20
-2.45348198011592
30
0
41
1
10
29.2210768925646
20
-2.47039508359958
30
0
41
1
10
29.1766182381771
20
-2.49770776737162
30
0
41
1
10
29.1553075260357
20
-2.50813874230442
30
0
41
1
10
29.1352770977263
20
-2.51499192770541
30
0
0
SPLINE
5
D2
100
AcDbEntity
8
1
62
256
6
ByLayer
370
13
48
1
60
0
100
AcDbSpline
70
4
71
3
72
30
73
26
40
0
40
0
40
0
40
0
40
0.125
40
0.125
40
0.1875
40
0.1875
40
0.25
40
0.25
40
0.375
40
0.375
40
0.4375
40
0.4375
40
0.5
40
0.5
40
0.625
40
0.625
40
0.6875
40
0.6875
40
0.75
40
0.75
40
0.875
40
0.875
40
0.9375
40
0.9375
40
1
40
1
40
1
40
1
41
1
10
4.25036802005405
20
0.0597595455964495
30
0
41
1
10
4.25043880094751
20
0.214466488111725
30
0
41
1
10
4.25050227983206
20
0.367011696184534
30
0
41
1
10
4.25058947327702
20
0.592630153921021
30
0
41
1
10
4.25061726358706
20
0.667514771674547
30
0
41
1
10
4.25066967769314
20
0.813543362017839
30
0
41
1
10
4.25069442599275
20
0.884993965592855
30
0
41
1
10
4.25076514431294
20
1.09474782673791
30
0
41
1
10
4.25080764934242
20
1.22860463644631
30
0
41
1
10
4.25086700278234
20
1.41952413777275
30
0
41
1
10
4.25088582199237
20
1.4807811421426
30
0
41
1
10
4.25092198322648
20
1.59857295404333
30
0
41
1
10
4.25093939155499
20
1.65532217387121
30
0
41
1
10
4.25098932752704
20
1.81643556949746
30
0
41
1
10
4.25101965010128
20
1.9118238515793
30
0
41
1
10
4.25106223449933
20
2.03730013007333
30
0
41
1
10
4.25107593036819
20
2.07617088427418
30
0
41
1
10
4.2511024024603
20
2.14782250777924
30
0
41
1
10
4.25111516372874
20
2.1805369549806
30
0
41
1
10
4.25115126672952
20
2.26741204912568
30
0
41
1
10
4.25117263651583
20
2.3108608553805
30
0
41
1
10
4.25119991785846
20
2.35484146202162
30
0
41
1
10
4.25120820018697
20
2.36594511555788
30
0
41
1
10
4.25122281288361
20
2.38082164834645
30
0
41
1
10
4.25122908377648
20
2.38451068660237
30
0
41
1
10
4.2512340793059
20
2.38448303804341
30
0
0
SPLINE
5
D3
100
AcDbEntity
8
1
62
256
6
ByLayer
370
18
48
1
60
0
100
AcDbSpline
70
4
71
3
72
8
73
4
40
0
40
0
40
0
40
0
40
1
40
1
40
1
40
1
41
1
10
29.9900885905158
20
-0.0953719937034805
30
0
41
1
10
29.9906598866513
20
-0.0777143490574019
30
0
41
1
10
29.9944703808288
20
-0.0554304417561013
30
0
41
1
10
29.9999614781615
20
-0.0321388447414108
30
0
0
SPLINE
5
D4
100
AcDbEntity
8
1
62
256
6
ByLayer
370
18
48
1
60
0
100
AcDbSpline
70
4
71
3
72
8
73
4
40
0
40
0
40
0
40
0
40
1
40
1
40
1
40
1
41
1
10
29.9999614781567
20
0.0321388447615902
30
0
41
1
10
30.0000128459557
20
0.0107107200933854
30
0
41
1
10
30.0000128349729
20
-0.0107153015210883
30
0
41
1
10
29.9999614781568
20
-0.0321388447266315
30
0
0
SPLINE
5
D5
100
AcDbEntity
8
1
62
256
6
ByLayer
370
13
48
1
60
0
100
AcDbSpline
70
4
71
3
72
8
73
4
40
0
40
0
40
0
40
0
40
1
40
1
40
1
40
1
41
1
10
4.03299953689992
20
0.151103078216153
30
0
41
1
10
4.05698731791989
20
0.125376086015365
30
0
41
1
10
4.09412288888106
20
0.103543352651741
30
0
41
1
10
4.14189887851666
20
0.0899283133470306
30
0
0
SPLINE
5
D6
100
AcDbEntity
8
1
62
256
6
ByLayer
370
18
48
1
60
0
100
AcDbSpline
70
4
71
3
72
8
73
4
40
0
40
0
40
0
40
0
40
1
40
1
40
1
40
1
41
1
10
7.54450612893169
20
1.84950160412217
30
0
41
1
10
7.69728556021872
20
1.88729102719469
30
0
41
1
10
7.84955334480068
20
1.92477875533277
30
0
41
1
10
8.00124318800971
20
1.96150883097704
30
0
0
SPLINE
5
D7
100
AcDbEntity
8
1
62
256
6
ByLayer
370
18
48
1
60
0
100
AcDbSpline
70
4
71
3
72
8
73
4
40
0
40
0
40
0
40
0
40
1
40
1
40
1
40
1
41
1
10
29.1463779496053
20
-2.48682311130392
30
0
41
1
10
29.1426805410285
20
-2.49621603600696
30
0
41
1
10
29.1389802219595
20
-2.50560567906356
30
0
41
1
10
29.1352770977263
20
-2.51499192770541
30
0
0
SPLINE
5
D8
100
AcDbEntity
8
1
62
256
6
ByLayer
370
18
48
1
60
0
100
AcDbSpline
70
4
71
3
72
14
73
10
40
0
40
0
40
0
40
0
40
0.25
40
0.25
40
0.5
40
0.5
40
0.75
40
0.75
40
1
40
1
40
1
40
1
41
1
10
4.25123407930894
20
2.38448303804589
30
0
41
1
10
4.2311230077934
20
2.38437964079233
30
0
41
1
10
4.21085399362863
20
2.38657899620202
30
0
41
1
10
4.16995313409919
20
2.39638128148036
30
0
41
1
10
4.14939372031972
20
2.40408324832623
30
0
41
1
10
4.11077584228056
20
2.4249409394879
30
0
41
1
10
4.09203753202041
20
2.43854008880191
30
0
41
1
10
4.05938079075852
20
2.47021626908739
30
0
41
1
10
4.04503283187336
20
2.4886535881412
30
0
41
1
10
4.03364243947044
20
2.50839660982797
30
0
0
SPLINE
5
D9
100
AcDbEntity
8
1
62
256
6
ByLayer
370
18
48
1
60
0
100
AcDbSpline
70
4
71
3
72
12
73
8
40
0
40
0
40
0
40
0
40
0.151166346330129
40
0.151166346330129
40
0.60375628942046
40
0.60375628942046
40
1
40
1
40
1
40
1
41
1
10
12.5443276694997
20
-2.3884101294307
30
0
41
1
10
12.3720682481377
20
-2.38814861945863
30
0
41
1
10
12.1998035976404
20
-2.38395456148416
30
0
41
1
10
11.511207479931
20
-2.35142769823301
30
0
41
1
10
10.9932261009557
20
-2.29181639396904
30
0
41
1
10
10.0135362614503
20
-2.11611110916019
30
0
41
1
10
9.5582135774219
20
-2.00879865354301
30
0
41
1
10
9.10198822208343
20
-1.87976317061586
30
0
0
SPLINE
5
DA
100
AcDbEntity
8
1
62
256
6
ByLayer
370
13
48
1
60
0
100
AcDbSpline
70
4
71
3
72
14
73
10
40
0
40
0
40
0
40
0
40
0.0398455501878043
40
0.0398455501878043
40
0.199871291823171
40
0.199871291823171
40
0.359897033458538
40
0.359897033458538
40
1
40
1
40
1
40
1
41
1
10
9.10198822208457
20
-1.8797631706162
30
0
41
1
10
9.0371125426403
20
-1.86141420221853
30
0
41
1
10
8.97221861017974
20
-1.84262597008538
30
0
41
1
10
8.64656734032693
20
-1.74622942098964
30
0
41
1
10
8.3848046633311
20
-1.66182043184816
30
0
41
1
10
7.86466235481612
20
-1.48208434413556
30
0
41
1
10
7.60571936558477
20
-1.38683865901143
30
0
41
1
10
6.31433168023938
20
-0.888386066195039
30
0
41
1
10
5.29255067291257
20
-0.416964223893359
30
0
41
1
10
4.25036802005408
20
0.0597595455964495
30
0
0
SPLINE
5
DB
100
AcDbEntity
8
1
62
256
6
ByLayer
370
18
48
1
60
0
100
AcDbSpline
70
4
71
3
72
8
73
4
40
0
40
0
40
0
40
0
40
1
40
1
40
1
40
1
41
1
10
29.9900885905158
20
0.0953719937035089
30
0
41
1
10
29.9906598866512
20
0.0777143490625178
30
0
41
1
10
29.9944703808267
20
0.0554304417686922
30
0
41
1
10
29.9999614781567
20
0.0321388447616187
30
0
0
SPLINE
5
DC
100
AcDbEntity
8
1
62
256
6
ByLayer
370
18
48
1
60
0
100
AcDbSpline
70
4
71
3
72
16
73
12
40
0
40
0
40
0
40
0
40
0.180290020654793
40
0.180290020654793
40
0.360580041309587
40
0.360580041309587
40
0.721160082619177
40
0.721160082619177
40
0.901450103273972
40
0.901450103273972
40
1
40
1
40
1
40
1
41
1
10
4.20719874595412
20
-0.0280571946346981
30
0
41
1
10
4.46892549390304
20
-0.152785564198552
30
0
41
1
10
4.73012515025834
20
-0.277082502383678
30
0
41
1
10
5.24972266872044
20
-0.52165770178371
30
0
41
1
10
5.50853472846617
20
-0.642106370346937
30
0
41
1
10
6.28370774136451
20
-0.994538552163164
30
0
41
1
10
6.79887690876433
20
-1.2173740060897
30
0
41
1
10
7.57536540467527
20
-1.52142738450624
30
0
41
1
10
7.83479278291452
20
-1.61779989292549
30
0
41
1
10
8.23770437527517
20
-1.75772009967386
30
0
41
1
10
8.38058709183943
20
-1.80537180429641
30
0
41
1
10
8.52351524626843
20
-1.85093530551725
30
0
0
SPLINE
5
DD
100
AcDbEntity
8
1
62
256
6
ByLayer
370
13
48
1
60
0
100
AcDbSpline
70
4
71
3
72
16
73
12
40
0
40
0
40
0
40
0
40
0.0679336633475792
40
0.0679336633475792
40
0.367609392532704
40
0.367609392532704
40
0.667285121717829
40
0.667285121717829
40
0.966960850902954
40
0.966960850902954
40
1
40
1
40
1
40
1
41
1
10
8.52351536395585
20
-1.85093534303436
30
0
41
1
10
8.64206405431551
20
-1.88872701034214
30
0
41
1
10
8.76064400364896
20
-1.92508209451196
30
0
41
1
10
9.40113558357399
20
-2.11314680658751
30
0
41
1
10
9.92144114256638
20
-2.23670290585582
30
0
41
1
10
10.9678082250661
20
-2.41368808699764
30
0
41
1
10
11.4859972123885
20
-2.4661413201722
30
0
41
1
10
12.5189568126476
20
-2.49726969899183
30
0
41
1
10
13.0341184060416
20
-2.4759528908227
30
0
41
1
10
13.609008120361
20
-2.41204495624749
30
0
41
1
10
13.6661286108289
20
-2.40525894740765
30
0
41
1
10
13.7232885491356
20
-2.39803437000685
30
0
0
SPLINE
5
DE
100
AcDbEntity
8
1
62
256
6
ByLayer
370
18
48
1
60
0
100
AcDbSpline
70
4
71
3
72
12
73
8
40
0
40
0
40
0
40
0
40
0.250000000000072
40
0.250000000000072
40
0.500000000000144
40
0.500000000000144
40
1
40
1
40
1
40
1
41
1
10
28.9217973757917
20
0.652013044807973
30
0
41
1
10
28.9215011104664
20
0.662037647101215
30
0
41
1
10
28.9239768349114
20
0.672114240718599
30
0
41
1
10
28.9345470403506
20
0.689481633440835
30
0
41
1
10
28.94261223435
20
0.696705003097634
30
0
41
1
10
28.9696066650967
20
0.712175146062691
30
0
41
1
10
28.9909678207173
20
0.715325803286959
30
0
41
1
10
29.0117314202904
20
0.714695516970409
30
0
0
SPLINE
5
DF
100
AcDbEntity
8
1
62
256
6
ByLayer
370
18
48
1
60
0
100
AcDbSpline
70
4
71
3
72
21
73
17
40
0
40
0
40
0
40
0
40
0.0858024170905955
40
0.154118428677345
40
0.204956298546042
40
0.264742638961938
40
0.321288754165614
40
0.379007200109794
40
0.441249069754631
40
0.502299479116482
40
0.609563652968364
40
0.721733690043466
40
0.768518925836015
40
0.831986676480697
40
0.920627189569546
40
1
40
1
40
1
40
1
41
1
10
12.51323596807
20
-2.38842985079987
30
0
41
1
10
12.7383388885346
20
-2.3885674255915
30
0
41
1
10
13.1426996582055
20
-2.38884996644356
30
0
41
1
10
13.680601291072
20
-2.38858847071379
30
0
41
1
10
14.1501452252439
20
-2.38951652138044
30
0
41
1
10
14.5888496249267
20
-2.38993633932279
30
0
41
1
10
15.0455997228385
20
-2.38958017980934
30
0
41
1
10
15.5087999351421
20
-2.38971178093581
30
0
41
1
10
15.9838212705856
20
-2.39045565286545
30
0
41
1
10
16.5888635222493
20
-2.38945467042635
30
0
41
1
10
17.3249321459789
20
-2.39189525139795
30
0
41
1
10
18.0235592750231
20
-2.38972116193918
30
0
41
1
10
18.6072561137999
20
-2.3911456184882
30
0
41
1
10
19.1291957972116
20
-2.3915955588142
30
0
41
1
10
19.7366686498373
20
-2.39203651418433
30
0
41
1
10
20.1775686379851
20
-2.39185210047242
30
0
41
1
10
20.3858572748354
20
-2.39168616595694
30
0
0
SPLINE
5
E0
100
AcDbEntity
8
1
62
256
6
ByLayer
370
18
48
1
60
0
100
AcDbSpline
70
4
71
2
72
6
73
3
40
0
40
0
40
0
40
1
40
1
40
1
41
1
10
4.51523758435775
20
2.38140465692047
30
0
41
1
10
4.38316928357588
20
2.38052239682389
30
0
41
1
10
4.25121462866568
20
2.37878912681686
30
0
0
SPLINE
5
E1
100
AcDbEntity
8
1
62
256
6
ByLayer
370
18
48
1
60
0
100
AcDbSpline
70
4
71
2
72
6
73
3
40
0
40
0
40
0
40
1
40
1
40
1
41
1
10
28.7492548895978
20
-2.39738302785523
30
0
41
1
10
28.9329803194934
20
-2.39726938732488
30
0
41
1
10
29.1166024067701
20
-2.39735296377302
30
0
0
SPLINE
5
E2
100
AcDbEntity
8
1
62
256
6
ByLayer
370
18
48
1
60
0
100
AcDbSpline
70
4
71
3
72
20
73
16
40
0
40
0
40
0
40
0
40
0.0837212973722
40
0.17462663652125
40
0.232706452518164
40
0.28440671636537
40
0.335969364777859
40
0.441693142758268
40
0.559013222058593
40
0.67289914558284
40
0.786303942684852
40
0.884358561867053
40
0.932901439680427
40
0.999652772261349
40
1
40
1
40
1
40
1
41
1
10
20.3789986331219
20
2.39163974533938
30
0
41
1
10
20.1988190585404
20
2.39166761009238
30
0
41
1
10
19.8229878766953
20
2.3916140080589
30
0
41
1
10
19.3219700721542
20
2.39226981362015
30
0
41
1
10
18.8900927166344
20
2.39114012214958
30
0
41
1
10
18.5428193707282
20
2.39106189457345
30
0
41
1
10
18.092931799749
20
2.38981397771491
30
0
41
1
10
17.5018049683123
20
2.39164138560253
30
0
41
1
10
16.7765094775156
20
2.38966675149996
30
0
41
1
10
16.0346797884307
20
2.39051109609701
30
0
41
1
10
15.3343214074055
20
2.38942718654985
30
0
41
1
10
14.7746280836061
20
2.38979476741693
30
0
41
1
10
14.3153500873181
20
2.38984925287923
30
0
41
1
10
14.0664404060518
20
2.38922412394862
30
0
41
1
10
13.9220051680164
20
2.38902288409321
30
0
41
1
10
13.9212577311174
20
2.38902184700373
30
0
0
SPLINE
5
E3
100
AcDbEntity
8
1
62
256
6
ByLayer
370
18
48
1
60
0
100
AcDbSpline
70
4
71
2
72
6
73
3
40
0
40
0
40
0
40
1
40
1
40
1
41
1
10
4.32990007089739
20
-2.37974699500302
30
0
41
1
10
4.42168466183958
20
-2.38077539303291
30
0
41
1
10
4.51352456826436
20
-2.38138957430988
30
0
0
LINE
5
7B
100
AcDbEntity
8
SK1
62
256
6
ByLayer
370
18
48
1
60
0
100
AcDbLine
10
-35.065
20
3
30
0
11
-35.065
21
-3
31
0
39
0
210
0
220
0
230
1
0
LINE
5
7D
100
AcDbEntity
8
SK1
62
256
6
ByLayer
370
18
48
1
60
0
100
AcDbLine
10
-36
20
2.065
30
0
11
-36
21
-2.065
31
0
39
0
210
0
220
0
230
1
0
LINE
5
7E
100
AcDbEntity
8
SK1
62
256
6
ByLayer
370
18
48
1
60
0
100
AcDbLine
10
0
20
-3
30
0
11
0
21
3
31
0
39
0
210
0
220
0
230
1
0
LINE
5
7F
100
AcDbEntity
8
1
62
256
6
ByLayer
370
13
48
1
60
0
100
AcDbLine
10
28.921797
20
0.652013
30
0
11
29.979056
21
-0.017257
31
0
39
0
210
0
220
0
230
1
0
LINE
5
80
100
AcDbEntity
8
1
62
256
6
ByLayer
370
13
48
1
60
0
100
AcDbLine
10
0.577408
20
2.753714
30
0
11
0.577408
21
-2.753714
31
0
39
0
210
0
220
0
230
1
0
LINE
5
81
100
AcDbEntity
8
1
62
256
6
ByLayer
370
13
48
1
60
0
100
AcDbLine
10
1.155316
20
2.507429
30
0
11
1.155316
21
-2.507429
31
0
39
0
210
0
220
0
230
1
0
LINE
5
82
100
AcDbEntity
8
1
62
256
6
ByLayer
370
18
48
1
60
0
100
AcDbLine
10
0
20
-3
30
0
11
0
21
3
31
0
39
0
210
0
220
0
230
1
0
LINE
5
83
100
AcDbEntity
8
1
62
256
6
ByLayer
370
18
48
1
60
0
100
AcDbLine
10
4.033639
20
-2.509223
30
0
11
4.033642
21
-2.508397
31
0
39
0
210
0
220
0
230
1
0
LINE
5
84
100
AcDbEntity
8
1
62
256
6
ByLayer
370
13
48
1
60
0
100
AcDbLine
10
29.011731
20
0.714696
30
0
11
29.990089
21
0.095372
31
0
39
0
210
0
220
0
230
1
0
LINE
5
85
100
AcDbEntity
8
80
62
256
6
ByLayer
370
18
48
1
60
0
100
AcDbLine
10
0
20
0
30
0
11
-5
21
0
31
0
39
0
210
0
220
0
230
1
0
LINE
5
86
100
AcDbEntity
8
4
62
256
6
ByLayer
370
18
48
0.05
60
0
100
AcDbLine
10
30
20
0
30
0
11
0
21
0
31
0
39
0
210
0
220
0
230
1
0
LINE
5
88
100
AcDbEntity
8
SK4
62
256
6
ByLayer
370
18
48
0.05
60
0
100
AcDbLine
10
35
20
0
30
0
11
-41
21
0
31
0
39
0
210
0
220
0
230
1
0
LINE
5
8A
100
AcDbEntity
8
SK1
62
256
6
ByLayer
370
18
48
1
60
0
100
AcDbLine
10
-35.065
20
-3
30
0
11
0
21
-3
31
0
39
0
210
0
220
0
230
1
0
LINE
5
8B
100
AcDbEntity
8
SK1
62
256
6
ByLayer
370
18
48
1
60
0
100
AcDbLine
10
0
20
3
30
0
11
-35.065
21
3
31
0
39
0
210
0
220
0
230
1
0
LINE
5
8C
100
AcDbEntity
8
SK1
62
256
6
ByLayer
370
18
48
1
60
0
100
AcDbLine
10
-36
20
-2.065
30
0
11
-35.065
21
-3
31
0
39
0
210
0
220
0
230
1
0
LINE
5
8D
100
AcDbEntity
8
SK1
62
256
6
ByLayer
370
18
48
1
60
0
100
AcDbLine
10
-35.065
20
3
30
0
11
-36
21
2.065
31
0
39
0
210
0
220
0
230
1
0
LINE
5
8E
100
AcDbEntity
8
1
62
256
6
ByLayer
370
18
48
1
60
0
100
AcDbLine
10
1.155316
20
-2.507429
30
0
11
4.033639
21
-2.509228
31
0
39
0
210
0
220
0
230
1
0
LINE
5
8F
100
AcDbEntity
8
1
62
256
6
ByLayer
370
18
48
1
60
0
100
AcDbLine
10
11.512171
20
-2.513902
30
0
11
12.323285
21
-2.514409
31
0
39
0
210
0
220
0
230
1
0
LINE
5
90
100
AcDbEntity
8
1
62
256
6
ByLayer
370
18
48
1
60
0
100
AcDbLine
10
27.862627
20
-2.524121
30
0
11
28.673992
21
-2.524628
31
0
39
0
210
0
220
0
230
1
0
LINE
5
91
100
AcDbEntity
8
1
62
256
6
ByLayer
370
18
48
1
60
0
100
AcDbLine
10
28.674783
20
2.524629
30
0
11
27.862627
21
2.524121
31
0
39
0
210
0
220
0
230
1
0
LINE
5
92
100
AcDbEntity
8
1
62
256
6
ByLayer
370
18
48
1
60
0
100
AcDbLine
10
12.32319
20
2.514409
30
0
11
11.512171
21
2.513902
31
0
39
0
210
0
220
0
230
1
0
LINE
5
93
100
AcDbEntity
8
1
62
256
6
ByLayer
370
18
48
1
60
0
100
AcDbLine
10
4.033639
20
2.509228
30
0
11
1.155316
21
2.507429
31
0
39
0
210
0
220
0
230
1
0
LINE
5
94
100
AcDbEntity
8
81
62
256
6
ByLayer
370
18
48
1
60
0
100
AcDbLine
10
30
20
0
30
0
11
35
21
0
31
0
39
0
210
0
220
0
230
1
0
LINE
5
95
100
AcDbEntity
8
SK2
62
256
6
ByLayer
370
13
48
1
60
0
100
AcDbLine
10
-44.625163
20
32.117107
30
0
11
-44.625163
21
-11.75
31
0
39
0
210
0
220
0
230
1
0
LINE
5
97
100
AcDbEntity
8
SK2
62
256
6
ByLayer
370
13
48
1
60
0
100
AcDbLine
10
-37.5875
20
3
30
0
11
-46.625163
21
3
31
0
39
0
210
0
220
0
230
1
0
LINE
5
98
100
AcDbEntity
8
SK2
62
256
6
ByLayer
370
13
48
1
60
0
100
AcDbLine
10
-37.5875
20
-3
30
0
11
-46.625163
21
-3
31
0
39
0
210
0
220
0
230
1
0
LINE
5
99
100
AcDbEntity
8
1
62
256
6
ByLayer
370
18
48
1
60
1
100
AcDbLine
10
-44.625163
20
3
30
0
11
-45.085946
21
6.499998
31
0
39
0
210
0
220
0
230
1
0
LINE
5
9A
100
AcDbEntity
8
1
62
256
6
ByLayer
370
18
48
1
60
1
100
AcDbLine
10
-45.085946
20
6.499998
30
0
11
-44.164379
21
6.500002
31
0
39
0
210
0
220
0
230
1
0
LINE
5
9B
100
AcDbEntity
8
1
62
256
6
ByLayer
370
18
48
1
60
1
100
AcDbLine
10
-44.164379
20
6.500002
30
0
11
-44.625163
21
3
31
0
39
0
210
0
220
0
230
1
0
LINE
5
9C
100
AcDbEntity
8
1
62
256
6
ByLayer
370
18
48
1
60
1
100
AcDbLine
10
-44.625163
20
-3
30
0
11
-44.164379
21
-6.499998
31
0
39
0
210
0
220
0
230
1
0
LINE
5
9D
100
AcDbEntity
8
1
62
256
6
ByLayer
370
18
48
1
60
1
100
AcDbLine
10
-44.164379
20
-6.499998
30
0
11
-45.085946
21
-6.500002
31
0
39
0
210
0
220
0
230
1
0
LINE
5
9E
100
AcDbEntity
8
1
62
256
6
ByLayer
370
18
48
1
60
1
100
AcDbLine
10
-45.085946
20
-6.500002
30
0
11
-44.625163
21
-3
31
0
39
0
210
0
220
0
230
1
0
LINE
5
9F
100
AcDbEntity
8
2
62
256
6
ByLayer
370
13
48
1
60
0
100
AcDbLine
10
42.083343
20
30.235193
30
0
11
42.083343
21
-11.275
31
0
39
0
210
0
220
0
230
1
0
LINE
5
A1
100
AcDbEntity
8
2
62
256
6
ByLayer
370
13
48
1
60
0
100
AcDbLine
10
30.8495
20
2.525
30
0
11
44.083343
21
2.525
31
0
39
0
210
0
220
0
230
1
0
LINE
5
A2
100
AcDbEntity
8
2
62
256
6
ByLayer
370
13
48
1
60
0
100
AcDbLine
10
30.8495
20
-2.525
30
0
11
44.083343
21
-2.525
31
0
39
0
210
0
220
0
230
1
0
LINE
5
A3
100
AcDbEntity
8
1
62
256
6
ByLayer
370
18
48
1
60
1
100
AcDbLine
10
42.083343
20
2.525
30
0
11
41.622559
21
6.024998
31
0
39
0
210
0
220
0
230
1
0
LINE
5
A4
100
AcDbEntity
8
1
62
256
6
ByLayer
370
18
48
1
60
1
100
AcDbLine
10
41.622559
20
6.024998
30
0
11
42.544126
21
6.025002
31
0
39
0
210
0
220
0
230
1
0
LINE
5
A5
100
AcDbEntity
8
1
62
256
6
ByLayer
370
18
48
1
60
1
100
AcDbLine
10
42.544126
20
6.025002
30
0
11
42.083343
21
2.525
31
0
39
0
210
0
220
0
230
1
0
LINE
5
A6
100
AcDbEntity
8
1
62
256
6
ByLayer
370
18
48
1
60
1
100
AcDbLine
10
42.083343
20
-2.525
30
0
11
42.544126
21
-6.024998
31
0
39
0
210
0
220
0
230
1
0
LINE
5
A7
100
AcDbEntity
8
1
62
256
6
ByLayer
370
18
48
1
60
1
100
AcDbLine
10
42.544126
20
-6.024998
30
0
11
41.622559
21
-6.025002
31
0
39
0
210
0
220
0
230
1
0
LINE
5
A8
100
AcDbEntity
8
1
62
256
6
ByLayer
370
18
48
1
60
1
100
AcDbLine
10
41.622559
20
-6.025002
30
0
11
42.083343
21
-2.525
31
0
39
0
210
0
220
0
230
1
0
LINE
5
EA
100
AcDbEntity
8
1
62
256
6
ByLayer
370
18
48
1
60
1
100
AcDbLine
10
-44.625163
20
3
30
0
11
-45.085946
21
6.499998
31
0
39
0
210
0
220
0
230
1
0
LINE
5
EB
100
AcDbEntity
8
1
62
256
6
ByLayer
370
18
48
1
60
1
100
AcDbLine
10
-45.085946
20
6.499998
30
0
11
-44.164379
21
6.500002
31
0
39
0
210
0
220
0
230
1
0
LINE
5
EC
100
AcDbEntity
8
1
62
256
6
ByLayer
370
18
48
1
60
1
100
AcDbLine
10
-44.164379
20
6.500002
30
0
11
-44.625163
21
3
31
0
39
0
210
0
220
0
230
1
0
LINE
5
EE
100
AcDbEntity
8
1
62
256
6
ByLayer
370
18
48
1
60
1
100
AcDbLine
10
-44.625163
20
-3
30
0
11
-44.164379
21
-6.499998
31
0
39
0
210
0
220
0
230
1
0
LINE
5
EF
100
AcDbEntity
8
1
62
256
6
ByLayer
370
18
48
1
60
1
100
AcDbLine
10
-44.164379
20
-6.499998
30
0
11
-45.085946
21
-6.500002
31
0
39
0
210
0
220
0
230
1
0
LINE
5
F0
100
AcDbEntity
8
1
62
256
6
ByLayer
370
18
48
1
60
1
100
AcDbLine
10
-45.085946
20
-6.500002
30
0
11
-44.625163
21
-3
31
0
39
0
210
0
220
0
230
1
0
LINE
5
F4
100
AcDbEntity
8
1
62
256
6
ByLayer
370
18
48
1
60
1
100
AcDbLine
10
42.083343
20
2.525
30
0
11
41.622559
21
6.024998
31
0
39
0
210
0
220
0
230
1
0
LINE
5
F5
100
AcDbEntity
8
1
62
256
6
ByLayer
370
18
48
1
60
1
100
AcDbLine
10
41.622559
20
6.024998
30
0
11
42.544126
21
6.025002
31
0
39
0
210
0
220
0
230
1
0
LINE
5
F6
100
AcDbEntity
8
1
62
256
6
ByLayer
370
18
48
1
60
1
100
AcDbLine
10
42.544126
20
6.025002
30
0
11
42.083343
21
2.525
31
0
39
0
210
0
220
0
230
1
0
LINE
5
F8
100
AcDbEntity
8
1
62
256
6
ByLayer
370
18
48
1
60
1
100
AcDbLine
10
42.083343
20
-2.525
30
0
11
42.544126
21
-6.024998
31
0
39
0
210
0
220
0
230
1
0
LINE
5
F9
100
AcDbEntity
8
1
62
256
6
ByLayer
370
18
48
1
60
1
100
AcDbLine
10
42.544126
20
-6.024998
30
0
11
41.622559
21
-6.025002
31
0
39
0
210
0
220
0
230
1
0
LINE
5
FA
100
AcDbEntity
8
1
62
256
6
ByLayer
370
18
48
1
60
1
100
AcDbLine
10
41.622559
20
-6.025002
30
0
11
42.083343
21
-2.525
31
0
39
0
210
0
220
0
230
1
0
MTEXT
5
E4
100
AcDbEntity
8
SK6
62
256
6
ByLayer
370
13
48
1
60
0
100
AcDbMText
10
-32.145193
20
35.065328
30
0
210
0
220
0
230
1
1
\W0.7670;462.1-0505-015A0-XM X2BM
40
3.5
41
0
44
1.084337
50
0
71
7
72
5
7
iso_b_vert
0
MTEXT
5
E8
100
AcDbEntity
8
SK2
62
256
6
ByLayer
370
18
48
1
60
0
100
AcDbMText
10
-46.189796
20
16.409024
30
0
210
0
220
0
230
1
1
%%c
40
3.5
41
0
44
1.084337
50
90
71
7
72
5
7
iso_b_vert
0
MTEXT
5
E9
100
AcDbEntity
8
SK2
62
256
6
ByLayer
370
18
48
1
60
0
100
AcDbMText
10
-46.189796
20
21.63168
30
0
210
0
220
0
230
1
1
\W0.7317;6,000
40
3.5
41
0
44
1.084337
50
90
71
7
72
5
7
iso_b_vert
0
MTEXT
5
F2
100
AcDbEntity
8
2
62
256
6
ByLayer
370
18
48
1
60
0
100
AcDbMText
10
40.518709
20
14.52711
30
0
210
0
220
0
230
1
1
%%c
40
3.5
41
0
44
1.084337
50
90
71
7
72
5
7
iso_b_vert
0
MTEXT
5
F3
100
AcDbEntity
8
2
62
256
6
ByLayer
370
18
48
1
60
0
100
AcDbMText
10
40.518709
20
19.749766
30
0
210
0
220
0
230
1
1
\W0.7317;5,050
40
3.5
41
0
44
1.084337
50
90
71
7
72
5
7
iso_b_vert
0
HATCH
5
ED
100
AcDbEntity
8
SK2
62
256
6
ByLayer
370
13
48
1
60
0
100
AcDbHatch
10
0
20
0
30
0
210
0
220
0
230
1
2
ANSI31
70
0
71
0
91
1
92
5
93
3
72
1
10
-44.6251625675374
20
3
11
-45.0859463090902
21
6.49999830744682
72
1
10
-45.0859463090902
20
6.49999830744682
11
-44.1643788259847
21
6.50000169255318
72
1
10
-44.1643788259847
20
6.50000169255318
11
-44.6251625675374
21
3
97
0
75
0
76
1
52
0
41
0.0062
77
0
78
1
53
45
43
0
44
0
45
-0.0139193969876572
46
0.0139193969876572
79
0
47
0
98
1
10
0
20
0
0
HATCH
5
F1
100
AcDbEntity
8
SK2
62
256
6
ByLayer
370
13
48
1
60
0
100
AcDbHatch
10
0
20
0
30
0
210
0
220
0
230
1
2
ANSI31
70
0
71
0
91
1
92
5
93
3
72
1
10
-44.6251625675374
20
-3
11
-44.1643788259847
21
-6.49999830744682
72
1
10
-44.1643788259847
20
-6.49999830744682
11
-45.0859463090902
21
-6.50000169255318
72
1
10
-45.0859463090902
20
-6.50000169255318
11
-44.6251625675374
21
-3
97
0
75
0
76
1
52
0
41
0.0062
77
0
78
1
53
45
43
0
44
0
45
-0.0139193969876572
46
0.0139193969876572
79
0
47
0
98
1
10
0
20
0
0
HATCH
5
F7
100
AcDbEntity
8
2
62
256
6
ByLayer
370
13
48
1
60
0
100
AcDbHatch
10
0
20
0
30
0
210
0
220
0
230
1
2
ANSI31
70
0
71
0
91
1
92
5
93
3
72
1
10
42.083342615295
20
2.52500000000001
11
41.6225588737423
21
6.02499830744682
72
1
10
41.6225588737423
20
6.02499830744682
11
42.5441263568478
21
6.02500169255319
72
1
10
42.5441263568478
20
6.02500169255319
11
42.083342615295
21
2.52500000000001
97
0
75
0
76
1
52
0
41
0.0062
77
0
78
1
53
45
43
0
44
0
45
-0.0139193969876572
46
0.0139193969876572
79
0
47
0
98
1
10
0
20
0
0
HATCH
5
FB
100
AcDbEntity
8
2
62
256
6
ByLayer
370
13
48
1
60
0
100
AcDbHatch
10
0
20
0
30
0
210
0
220
0
230
1
2
ANSI31
70
0
71
0
91
1
92
5
93
3
72
1
10
42.083342615295
20
-2.52499999999998
11
42.5441263568478
21
-6.02499830744679
72
1
10
42.5441263568478
20
-6.02499830744679
11
41.6225588737423
21
-6.02500169255316
72
1
10
41.6225588737423
20
-6.02500169255316
11
42.083342615295
21
-2.52499999999998
97
0
75
0
76
1
52
0
41
0.0062
77
0
78
1
53
45
43
0
44
0
45
-0.0139193969876572
46
0.0139193969876572
79
0
47
0
98
1
10
0
20
0
0
DIMENSION
5
FD
100
AcDbEntity
8
SK2
62
256
6
ByLayer
370
13
48
1
60
0
100
AcDbDimension
2
_U0
10
29.262
20
-12.738398
30
0
11
14.631
21
-12.738398
31
0
70
32
71
1
72
1
41
1
210
0
220
0
230
1
3
Standard
100
AcDbAlignedDimension
13
0
23
0
33
0
14
29.262
24
-2.525
34
0
50
0
100
AcDbRotatedDimension
1001
ACAD
1000
DSTYLE
1002
{
1070
   371
1070
    13
1070
   372
1070
    13
1070
   170
1070
     0
1070
   144
1040
1.0
1070
   277
1070
     2
1070
   278
1070
    44
1070
   146
1040
1.0
1070
   345
1005
16
1070
   347
1005
16
1070
   346
1005
16
1070
   344
1005
0
1070
   343
1005
0
1070
   172
1070
     1
1070
    76
1070
     0
1070
    75
1070
     0
1070
   282
1070
     0
1070
   281
1070
     0
1070
    71
1070
     0
1070
    74
1070
     0
1070
   279
1070
     0
1070
   173
1070
     1
1070
   340
1005
E5
1070
   271
1070
     2
1070
   272
1070
     2
1070
    77
1070
     1
1070
    73
1070
     1
1070
   171
1070
     3
1070
   274
1070
     4
1070
   177
1070
    35
1070
   176
1070
    35
1070
   178
1070
    35
1070
    48
1040
-0.1
1070
    41
1040
3.5
1070
   147
1040
1.75
1070
    42
1040
1.5875
1070
    44
1040
2.0
1070
   140
1040
3.5
1002
}
1001
ACAD_DSTYLE_DIM_LINETYPE
1070
   380
1005
16
1001
ACAD_DSTYLE_DIM_EXT1_LINETYPE
1070
   381
1005
16
1001
ACAD_DSTYLE_DIM_EXT2_LINETYPE
1070
   382
1005
16
0
DIMENSION
5
116
100
AcDbEntity
8
SK2
62
256
6
ByLayer
370
13
48
1
60
0
100
AcDbDimension
2
_U1
10
30
20
-31.692985
30
0
11
-3
21
-31.692985
31
0
70
32
71
1
72
1
41
1
210
0
220
0
230
1
3
Standard
100
AcDbAlignedDimension
13
-36
23
-3
33
0
14
30
24
0
34
0
50
0
100
AcDbRotatedDimension
1001
ACAD
1000
DSTYLE
1002
{
1070
   371
1070
    13
1070
   372
1070
    13
1070
   170
1070
     0
1070
   144
1040
1.0
1070
   277
1070
     2
1070
   278
1070
    44
1070
   146
1040
1.0
1070
   345
1005
16
1070
   347
1005
16
1070
   346
1005
16
1070
   344
1005
0
1070
   343
1005
0
1070
   172
1070
     1
1070
    76
1070
     0
1070
    75
1070
     0
1070
   282
1070
     0
1070
   281
1070
     0
1070
    71
1070
     0
1070
    74
1070
     0
1070
   279
1070
     0
1070
   173
1070
     1
1070
   340
1005
E5
1070
   271
1070
     2
1070
   272
1070
     2
1070
    77
1070
     1
1070
    73
1070
     1
1070
   171
1070
     3
1070
   274
1070
     4
1070
   177
1070
    35
1070
   176
1070
    35
1070
   178
1070
    35
1070
    48
1040
-0.1
1070
    41
1040
3.5
1070
   147
1040
1.75
1070
    42
1040
1.5875
1070
    44
1040
2.0
1070
   140
1040
3.5
1002
}
1001
ACAD_DSTYLE_DIM_LINETYPE
1070
   380
1005
16
1001
ACAD_DSTYLE_DIM_EXT1_LINETYPE
1070
   381
1005
16
1001
ACAD_DSTYLE_DIM_EXT2_LINETYPE
1070
   382
1005
16
0
DIMENSION
5
12E
100
AcDbEntity
8
SK2
62
256
6
ByLayer
370
13
48
1
60
0
100
AcDbDimension
2
_U2
10
30
20
14.134119
30
0
11
22.055
21
14.134119
31
0
70
32
71
1
72
1
41
1
210
0
220
0
230
1
3
Standard
100
AcDbAlignedDimension
13
14.11
23
2.525
33
0
14
30
24
0
34
0
50
0
100
AcDbRotatedDimension
1001
ACAD
1000
DSTYLE
1002
{
1070
   371
1070
    13
1070
   372
1070
    13
1070
   170
1070
     0
1070
   144
1040
1.0
1070
   277
1070
     2
1070
   278
1070
    44
1070
   146
1040
1.0
1070
   345
1005
16
1070
   347
1005
16
1070
   346
1005
16
1070
   344
1005
0
1070
   343
1005
0
1070
   172
1070
     1
1070
    76
1070
     0
1070
    75
1070
     0
1070
   282
1070
     0
1070
   281
1070
     0
1070
    71
1070
     0
1070
    74
1070
     0
1070
   279
1070
     0
1070
   173
1070
     1
1070
   340
1005
E5
1070
   271
1070
     2
1070
   272
1070
     2
1070
    77
1070
     1
1070
    73
1070
     1
1070
   171
1070
     3
1070
   274
1070
     4
1070
   177
1070
    35
1070
   176
1070
    35
1070
   178
1070
    35
1070
    48
1040
-0.1
1070
    41
1040
3.5
1070
   147
1040
1.75
1070
    42
1040
1.5875
1070
    44
1040
2.0
1070
   140
1040
3.5
1002
}
1001
ACAD_DSTYLE_DIM_LINETYPE
1070
   380
1005
16
1001
ACAD_DSTYLE_DIM_EXT1_LINETYPE
1070
   381
1005
16
1001
ACAD_DSTYLE_DIM_EXT2_LINETYPE
1070
   382
1005
16
0
DIMENSION
5
147
100
AcDbEntity
8
SK2
62
256
6
ByLayer
370
13
48
1
60
0
100
AcDbDimension
2
_U3
10
29.262
20
-15.327503
30
0
11
47.666667
21
-15.327503
31
0
70
32
71
1
72
1
41
1
210
0
220
0
230
1
3
Standard
100
AcDbAlignedDimension
13
30
23
0
33
0
14
29.262
24
-2.525
34
0
50
0
100
AcDbRotatedDimension
1001
ACAD
1000
DSTYLE
1002
{
1070
   371
1070
    13
1070
   372
1070
    13
1070
   170
1070
     0
1070
   144
1040
1.0
1070
   277
1070
     2
1070
   278
1070
    44
1070
   146
1040
1.0
1070
   345
1005
16
1070
   347
1005
16
1070
   346
1005
16
1070
   344
1005
0
1070
   343
1005
0
1070
   172
1070
     1
1070
    76
1070
     0
1070
    75
1070
     0
1070
   282
1070
     0
1070
   281
1070
     0
1070
    71
1070
     0
1070
    74
1070
     0
1070
   279
1070
     0
1070
   173
1070
     1
1070
   340
1005
E5
1070
   271
1070
     2
1070
   272
1070
     2
1070
    77
1070
     1
1070
    73
1070
     1
1070
   171
1070
     3
1070
   274
1070
     4
1070
   177
1070
    35
1070
   176
1070
    35
1070
   178
1070
    35
1070
    48
1040
-0.1
1070
    41
1040
3.5
1070
   147
1040
1.75
1070
    42
1040
1.5875
1070
    44
1040
2.0
1070
   140
1040
3.5
1002
}
1001
ACAD_DSTYLE_DIM_LINETYPE
1070
   380
1005
16
1001
ACAD_DSTYLE_DIM_EXT1_LINETYPE
1070
   381
1005
16
1001
ACAD_DSTYLE_DIM_EXT2_LINETYPE
1070
   382
1005
16
0
DIMENSION
5
161
100
AcDbEntity
8
SK2
62
256
6
ByLayer
370
13
48
1
60
0
100
AcDbDimension
2
_U4
10
29.262
20
-21.343428
30
0
11
-3.369
21
-21.343428
31
0
70
32
71
1
72
1
41
1
210
0
220
0
230
1
3
Standard
100
AcDbAlignedDimension
13
-36
23
-3
33
0
14
29.262
24
-2.525
34
0
50
0
100
AcDbRotatedDimension
1001
ACAD
1000
DSTYLE
1002
{
1070
   371
1070
    13
1070
   372
1070
    13
1070
   170
1070
     0
1070
   144
1040
1.0
1070
   277
1070
     2
1070
   278
1070
    44
1070
   146
1040
1.0
1070
   345
1005
16
1070
   347
1005
16
1070
   346
1005
16
1070
   344
1005
0
1070
   343
1005
0
1070
   172
1070
     1
1070
    76
1070
     0
1070
    75
1070
     0
1070
   282
1070
     0
1070
   281
1070
     0
1070
    71
1070
     0
1070
    74
1070
     0
1070
   279
1070
     0
1070
   173
1070
     1
1070
   340
1005
E5
1070
   271
1070
     2
1070
   272
1070
     2
1070
    77
1070
     1
1070
    73
1070
     1
1070
   171
1070
     3
1070
   274
1070
     4
1070
   177
1070
    35
1070
   176
1070
    35
1070
   178
1070
    35
1070
    48
1040
-0.1
1070
    41
1040
3.5
1070
   147
1040
1.75
1070
    42
1040
1.5875
1070
    44
1040
2.0
1070
   140
1040
3.5
1002
}
1001
ACAD_DSTYLE_DIM_LINETYPE
1070
   380
1005
16
1001
ACAD_DSTYLE_DIM_EXT1_LINETYPE
1070
   381
1005
16
1001
ACAD_DSTYLE_DIM_EXT2_LINETYPE
1070
   382
1005
16
0
ENDSEC
0
SECTION
2
OBJECTS
0
DICTIONARY
5
1e9
330
0
100
AcDbDictionary
280
0
281
1
3
ACAD_GROUP
350
1ea
3
ACAD_MLINESTYLE
350
1eb
0
DICTIONARY
5
1ea
330
0
100
AcDbDictionary
280
0
281
1
0
DICTIONARY
5
1eb
330
0
100
AcDbDictionary
280
0
281
1
3
Standard
350
18
0
MLINESTYLE
5
18
330
1eb
100
AcDbMlineStyle
2
Standard
70
0
3

62
256
51
90
52
90
71
2
49
-0.5
62
256
6
ByLayer
49
0.5
62
256
6
ByLayer
0
RASTERVARIABLES
5
1d7
330

100
AcDbRasterVariables
90
0
70
1
71
1
72
1
0
ENDSEC
0
EOF
