0
SECTION
2
HEADER
9
$ACADVER
1
AC1015
9
$DWGCODEPAGE
3
ANSI_1252
9
$HANDSEED
5
209
9
$ANGBASE
50
0
9
$ANGDIR
70
0
9
$ATTMODE
70
1
9
$AUNITS
70
0
9
$AUPREC
70
0
9
$CECOLOR
62
256
9
$CELTSCALE
40
1
9
$CELTYPE
6
ByLayer
9
$CELWEIGHT
370
18
9
$CLAYER
8
0
9
$CMLJUST
70
0
9
$CMLSCALE
40
1
9
$CMLSTYLE
2
Standard
9
$DIMSTYLE
2
Standard
9
$TEXTSIZE
40
0.2
9
$TEXTSTYLE
7
Standard
9
$LUNITS
70
2
9
$LUPREC
70
4
9
$EXTNAMES
290
1
9
$INSUNITS
70
4
9
$LTSCALE
40
1
9
$LWDISPLAY
290
1
9
$PDMODE
70
0
9
$PDSIZE
40
0
9
$PLINEGEN
70
0
0
ENDSEC
0
SECTION
2
CLASSES
0
CLASS
1
RASTERVARIABLES
2
AcDbRasterVariables
3
ISM
90
0
280
0
281
0
0
ENDSEC
0
SECTION
2
TABLES
0
TABLE
2
VPORT
5
1ff
100
AcDbSymbolTable
0
VPORT
5
1
100
AcDbSymbolTableRecord
100
AcDbViewportTableRecord
2
*Active
70
0
10
0
20
0
11
1
21
1
12
-1
22
1
13
0
23
0
14
0.5
24
0.5
15
10
25
10
16
0
26
0
36
1
17
0
27
0
37
0
0
ENDTAB
0
TABLE
2
LTYPE
5
200
100
AcDbSymbolTable
0
LTYPE
5
14
100
AcDbSymbolTableRecord
100
AcDbLinetypeTableRecord
70
0
2
ByBlock
3

72
65
73
0
40
0
0
LTYPE
5
15
100
AcDbSymbolTableRecord
100
AcDbLinetypeTableRecord
70
0
2
ByLayer
3

72
65
73
0
40
0
0
LTYPE
5
16
100
AcDbSymbolTableRecord
100
AcDbLinetypeTableRecord
70
0
2
Continuous
3
Solid line
72
65
73
0
40
0
0
LTYPE
5
6E
100
AcDbSymbolTableRecord
100
AcDbLinetypeTableRecord
70
0
2
CENTER
3
____ _ ____ _ ____ _ ____
72
65
73
4
40
47.5
49
22
74
0
49
-8.5
74
0
49
8.5
74
0
49
-8.5
74
0
0
LTYPE
5
6F
100
AcDbSymbolTableRecord
100
AcDbLinetypeTableRecord
70
0
2
DASHED
3
__ __ __ __ __ __ __ __ __
72
65
73
2
40
25.72
49
12.86
74
0
49
-12.86
74
0
0
ENDTAB
0
TABLE
2
LAYER
5
201
100
AcDbSymbolTable
0
LAYER
5
10
100
AcDbSymbolTableRecord
100
AcDbLayerTableRecord
2
0
70
0
62
7
6
Continuous
290
1
370
-3
390
0
0
LAYER
5
71
100
AcDbSymbolTableRecord
100
AcDbLayerTableRecord
2
80
70
0
62
-6
6
Continuous
290
1
370
-3
390
0
0
LAYER
5
73
100
AcDbSymbolTableRecord
100
AcDbLayerTableRecord
2
81
70
0
62
-3
6
Continuous
290
1
370
-3
390
0
0
LAYER
5
75
100
AcDbSymbolTableRecord
100
AcDbLayerTableRecord
2
1
70
0
62
4
6
Continuous
290
1
370
-3
390
0
0
LAYER
5
8A
100
AcDbSymbolTableRecord
100
AcDbLayerTableRecord
2
4
70
0
62
-2
6
CENTER
290
1
370
-3
390
0
0
LAYER
5
A5
100
AcDbSymbolTableRecord
100
AcDbLayerTableRecord
2
2
70
0
62
7
6
Continuous
290
1
370
-3
390
0
0
LAYER
5
114
100
AcDbSymbolTableRecord
100
AcDbLayerTableRecord
2
Defpoints
70
0
62
7
6
Continuous
290
0
370
-3
390
0
0
LAYER
5
1eb
100
AcDbSymbolTableRecord
100
AcDbLayerTableRecord
2
SK1
70
0
62
4
6
Continuous
290
1
370
-3
390
0
0
LAYER
5
1ec
100
AcDbSymbolTableRecord
100
AcDbLayerTableRecord
2
SK4
70
0
62
2
6
CENTER
290
1
370
-3
390
0
0
LAYER
5
1ed
100
AcDbSymbolTableRecord
100
AcDbLayerTableRecord
2
SK2
70
0
62
7
6
Continuous
290
1
370
-3
390
0
0
LAYER
5
1ee
100
AcDbSymbolTableRecord
100
AcDbLayerTableRecord
2
SK6
70
0
62
5
6
Continuous
290
1
370
-3
390
0
0
ENDTAB
0
TABLE
2
STYLE
5
202
100
AcDbSymbolTable
0
STYLE
5
11
100
AcDbSymbolTableRecord
100
AcDbTextStyleTableRecord
2
Standard
3
txt
70
0
71
0
40
0
41
1
42
0
50
0
0
STYLE
5
F9
100
AcDbSymbolTableRecord
100
AcDbTextStyleTableRecord
2
iso_b_vert
3
simplex.shx
70
0
71
0
40
0
41
1
42
0
50
0
0
STYLE
5
FA
100
AcDbSymbolTableRecord
100
AcDbTextStyleTableRecord
2
DWGDirectTextStyle
3
simplex
70
0
71
0
40
0
41
1
42
0
50
0
0
ENDTAB
0
TABLE
2
DIMSTYLE
5
203
100
AcDbSymbolTable
100
AcDbDimStyleTable
0
DIMSTYLE
105
27
100
AcDbSymbolTableRecord
100
AcDbDimStyleTableRecord
2
Standard
70
0
3
<>
41
0.18
42
0.0625
44
0.18
140
0.18
147
0.09
73
0
74
0
77
1
271
2
275
0
278
52
280
0
340
11
0
ENDTAB
0
TABLE
2
VIEW
5
204
100
AcDbSymbolTable
0
ENDTAB
0
TABLE
2
UCS
5
205
100
AcDbSymbolTable
0
ENDTAB
0
TABLE
2
APPID
5
206
100
AcDbSymbolTable
0
APPID
5
12
100
AcDbSymbolTableRecord
100
AcDbRegAppTableRecord
2
ACAD
70
0
0
APPID
5
110
100
AcDbSymbolTableRecord
100
AcDbRegAppTableRecord
2
ACAD_DSTYLE_DIMBREAK
70
0
0
APPID
5
1AA
100
AcDbSymbolTableRecord
100
AcDbRegAppTableRecord
2
ACAD_DSTYLE_DIM_LINETYPE
70
0
0
APPID
5
1AB
100
AcDbSymbolTableRecord
100
AcDbRegAppTableRecord
2
ACAD_DSTYLE_DIM_EXT1_LINETYPE
70
0
0
APPID
5
1AC
100
AcDbSymbolTableRecord
100
AcDbRegAppTableRecord
2
ACAD_DSTYLE_DIM_EXT2_LINETYPE
70
0
0
APPID
5
1E7
100
AcDbSymbolTableRecord
100
AcDbRegAppTableRecord
2
ACAD_MLEADERVER
70
0
0
ENDTAB
0
TABLE
2
BLOCK_RECORD
5
207
100
AcDbSymbolTable
0
BLOCK_RECORD
5
1F
100
AcDbSymbolTableRecord
100
AcDbBlockTableRecord
2
*Model_Space
340
0
70
0
0
BLOCK_RECORD
5
1B
100
AcDbSymbolTableRecord
100
AcDbBlockTableRecord
2
*Paper_Space
340
0
70
0
0
BLOCK_RECORD
5
23
100
AcDbSymbolTableRecord
100
AcDbBlockTableRecord
2
*Paper_Space0
340
0
70
0
0
BLOCK_RECORD
5
115
100
AcDbSymbolTableRecord
100
AcDbBlockTableRecord
2
*D1
340
0
70
0
0
BLOCK_RECORD
5
121
100
AcDbSymbolTableRecord
100
AcDbBlockTableRecord
2
_U0
340
0
70
0
0
BLOCK_RECORD
5
12D
100
AcDbSymbolTableRecord
100
AcDbBlockTableRecord
2
*D3
340
0
70
0
0
BLOCK_RECORD
5
139
100
AcDbSymbolTableRecord
100
AcDbBlockTableRecord
2
_U1
340
0
70
0
0
BLOCK_RECORD
5
145
100
AcDbSymbolTableRecord
100
AcDbBlockTableRecord
2
*D5
340
0
70
0
0
BLOCK_RECORD
5
151
100
AcDbSymbolTableRecord
100
AcDbBlockTableRecord
2
_U2
340
0
70
0
0
BLOCK_RECORD
5
15D
100
AcDbSymbolTableRecord
100
AcDbBlockTableRecord
2
*D7
340
0
70
0
0
BLOCK_RECORD
5
16B
100
AcDbSymbolTableRecord
100
AcDbBlockTableRecord
2
_U3
340
0
70
0
0
BLOCK_RECORD
5
177
100
AcDbSymbolTableRecord
100
AcDbBlockTableRecord
2
*D9
340
0
70
0
0
BLOCK_RECORD
5
183
100
AcDbSymbolTableRecord
100
AcDbBlockTableRecord
2
_U4
340
0
70
0
0
ENDTAB
0
ENDSEC
0
SECTION
2
BLOCKS
0
BLOCK
5
20
100
AcDbEntity
8
0
100
AcDbBlockBegin
2
*Model_Space
70
0
10
0
20
0
30
0
3
*Model_Space
0
ENDBLK
5
21
100
AcDbEntity
8
0
100
AcDbBlockEnd
0
BLOCK
5
1C
100
AcDbEntity
8
0
100
AcDbBlockBegin
2
*Paper_Space
70
0
10
0
20
0
30
0
3
*Paper_Space
0
ENDBLK
5
1D
100
AcDbEntity
8
0
100
AcDbBlockEnd
0
BLOCK
5
24
100
AcDbEntity
8
0
100
AcDbBlockBegin
2
*Paper_Space0
70
0
10
0
20
0
30
0
3
*Paper_Space0
0
ENDBLK
5
25
100
AcDbEntity
8
0
100
AcDbBlockEnd
0
BLOCK
5
116
100
AcDbEntity
8
0
100
AcDbBlockBegin
2
*D1
70
1
10
0
20
0
30
0
3
*D1
0
LINE
5
118
100
AcDbEntity
8
0
62
256
6
ByLayer
370
-2
48
1
60
0
100
AcDbLine
10
0
20
-1.5875
30
0
11
0
21
-14.413398
31
0
39
0
210
0
220
0
230
1
0
LINE
5
119
100
AcDbEntity
8
0
62
256
6
ByLayer
370
-2
48
1
60
0
100
AcDbLine
10
37.3599
20
-3.7875
30
0
11
37.3599
21
-14.413398
31
0
39
0
210
0
220
0
230
1
0
LINE
5
11A
100
AcDbEntity
8
0
62
256
6
ByLayer
370
-2
48
1
60
0
100
AcDbLine
10
3.5
20
-12.413398
30
0
11
33.8599
21
-12.413398
31
0
39
0
210
0
220
0
230
1
0
SOLID
5
11B
100
AcDbEntity
8
0
62
256
6
ByLayer
370
-1
48
1
60
0
100
AcDbTrace
10
3.5
20
-11.830065
30
0
11
3.5
21
-12.996732
31
0
12
0
22
-12.413398
32
0
13
0
23
-12.413398
33
0
39
0
210
0
220
0
230
1
0
SOLID
5
11C
100
AcDbEntity
8
0
62
256
6
ByLayer
370
-1
48
1
60
0
100
AcDbTrace
10
33.8599
20
-12.996732
30
0
11
33.8599
21
-11.830065
31
0
12
37.3599
22
-12.413398
32
0
13
37.3599
23
-12.413398
33
0
39
0
210
0
220
0
230
1
0
MTEXT
5
11D
100
AcDbEntity
8
0
62
256
6
ByLayer
370
18
48
1
60
0
100
AcDbMText
10
18.67995
20
-5.413398
30
0
210
0
220
0
230
1
1
\A1;37.36
40
3.5
41
0
44
1
50
0
71
5
72
5
7
iso_b_vert
0
POINT
5
11E
100
AcDbEntity
8
Defpoints
62
0
6
ByLayer
370
-1
48
1
60
0
100
AcDbPoint
10
0
20
0
30
0
39
0
210
0
220
0
230
1
50
360
0
POINT
5
11F
100
AcDbEntity
8
Defpoints
62
0
6
ByLayer
370
-1
48
1
60
0
100
AcDbPoint
10
37.3599
20
-2.2
30
0
39
0
210
0
220
0
230
1
50
360
0
POINT
5
120
100
AcDbEntity
8
Defpoints
62
0
6
ByLayer
370
-1
48
1
60
0
100
AcDbPoint
10
37.3599
20
-12.413398
30
0
39
0
210
0
220
0
230
1
50
360
0
ENDBLK
5
117
100
AcDbEntity
8
0
100
AcDbBlockEnd
0
BLOCK
5
128
100
AcDbEntity
8
0
100
AcDbBlockBegin
2
_U0
70
0
10
0
20
0
30
0
3
_U0
0
MTEXT
5
122
100
AcDbEntity
8
SK2
62
256
6
ByLayer
370
13
48
1
60
0
100
AcDbMText
10
13.542651
20
-11.380765
30
0
210
0
220
0
230
1
1
\W0.7317;37,36
40
3.5
41
0
44
1.084337
50
0
71
7
72
5
7
iso_b_vert
0
LINE
5
123
100
AcDbEntity
8
SK2
62
256
6
ByLayer
370
13
48
1
60
0
100
AcDbLine
10
0
20
-1.5875
30
0
11
0
21
-14.413398
31
0
39
0
210
0
220
0
230
1
0
LINE
5
124
100
AcDbEntity
8
SK2
62
256
6
ByLayer
370
13
48
1
60
0
100
AcDbLine
10
37.3599
20
-3.7875
30
0
11
37.3599
21
-14.413398
31
0
39
0
210
0
220
0
230
1
0
LINE
5
125
100
AcDbEntity
8
SK2
62
256
6
ByLayer
370
13
48
1
60
0
100
AcDbLine
10
0
20
-12.413398
30
0
11
37.3599
21
-12.413398
31
0
39
0
210
0
220
0
230
1
0
SOLID
5
126
100
AcDbEntity
8
SK2
62
256
6
ByLayer
370
18
48
1
60
0
100
AcDbTrace
10
0
20
-12.413398
30
0
11
3.499998
21
-11.952615
31
0
12
3.500002
22
-12.874182
32
0
13
3.500002
23
-12.874182
33
0
39
0
210
0
220
0
230
1
0
SOLID
5
127
100
AcDbEntity
8
SK2
62
256
6
ByLayer
370
18
48
1
60
0
100
AcDbTrace
10
37.3599
20
-12.413398
30
0
11
33.859902
21
-12.874182
31
0
12
33.859898
22
-11.952615
32
0
13
33.859898
23
-11.952615
33
0
39
0
210
0
220
0
230
1
0
ENDBLK
5
129
100
AcDbEntity
8
0
100
AcDbBlockEnd
0
BLOCK
5
12E
100
AcDbEntity
8
0
100
AcDbBlockBegin
2
*D3
70
1
10
0
20
0
30
0
3
*D3
0
LINE
5
130
100
AcDbEntity
8
0
62
256
6
ByLayer
370
-2
48
1
60
0
100
AcDbLine
10
-36
20
-4.5875
30
0
11
-36
21
-33.692985
31
0
39
0
210
0
220
0
230
1
0
LINE
5
131
100
AcDbEntity
8
0
62
256
6
ByLayer
370
-2
48
1
60
0
100
AcDbLine
10
38
20
-1.5875
30
0
11
38
21
-33.692985
31
0
39
0
210
0
220
0
230
1
0
LINE
5
132
100
AcDbEntity
8
0
62
256
6
ByLayer
370
-2
48
1
60
0
100
AcDbLine
10
-32.5
20
-31.692985
30
0
11
34.5
21
-31.692985
31
0
39
0
210
0
220
0
230
1
0
SOLID
5
133
100
AcDbEntity
8
0
62
256
6
ByLayer
370
-1
48
1
60
0
100
AcDbTrace
10
-32.5
20
-31.109652
30
0
11
-32.5
21
-32.276319
31
0
12
-36
22
-31.692985
32
0
13
-36
23
-31.692985
33
0
39
0
210
0
220
0
230
1
0
SOLID
5
134
100
AcDbEntity
8
0
62
256
6
ByLayer
370
-1
48
1
60
0
100
AcDbTrace
10
34.5
20
-32.276319
30
0
11
34.5
21
-31.109652
31
0
12
38
22
-31.692985
32
0
13
38
23
-31.692985
33
0
39
0
210
0
220
0
230
1
0
MTEXT
5
135
100
AcDbEntity
8
0
62
256
6
ByLayer
370
18
48
1
60
0
100
AcDbMText
10
1
20
-24.692985
30
0
210
0
220
0
230
1
1
\A1;74.00
40
3.5
41
0
44
1
50
0
71
5
72
5
7
iso_b_vert
0
POINT
5
136
100
AcDbEntity
8
Defpoints
62
0
6
ByLayer
370
-1
48
1
60
0
100
AcDbPoint
10
-36
20
-3
30
0
39
0
210
0
220
0
230
1
50
360
0
POINT
5
137
100
AcDbEntity
8
Defpoints
62
0
6
ByLayer
370
-1
48
1
60
0
100
AcDbPoint
10
38
20
0
30
0
39
0
210
0
220
0
230
1
50
360
0
POINT
5
138
100
AcDbEntity
8
Defpoints
62
0
6
ByLayer
370
-1
48
1
60
0
100
AcDbPoint
10
38
20
-31.692985
30
0
39
0
210
0
220
0
230
1
50
360
0
ENDBLK
5
12F
100
AcDbEntity
8
0
100
AcDbBlockEnd
0
BLOCK
5
140
100
AcDbEntity
8
0
100
AcDbBlockBegin
2
_U1
70
0
10
0
20
0
30
0
3
_U1
0
MTEXT
5
13A
100
AcDbEntity
8
SK2
62
256
6
ByLayer
370
13
48
1
60
0
100
AcDbMText
10
-4.321565
20
-30.660352
30
0
210
0
220
0
230
1
1
\W0.7581;74,00
40
3.5
41
0
44
1.084337
50
0
71
7
72
5
7
iso_b_vert
0
LINE
5
13B
100
AcDbEntity
8
SK2
62
256
6
ByLayer
370
13
48
1
60
0
100
AcDbLine
10
-36
20
-4.5875
30
0
11
-36
21
-33.692985
31
0
39
0
210
0
220
0
230
1
0
LINE
5
13C
100
AcDbEntity
8
SK2
62
256
6
ByLayer
370
13
48
1
60
0
100
AcDbLine
10
38
20
-1.5875
30
0
11
38
21
-33.692985
31
0
39
0
210
0
220
0
230
1
0
LINE
5
13D
100
AcDbEntity
8
SK2
62
256
6
ByLayer
370
13
48
1
60
0
100
AcDbLine
10
-36
20
-31.692985
30
0
11
38
21
-31.692985
31
0
39
0
210
0
220
0
230
1
0
SOLID
5
13E
100
AcDbEntity
8
SK2
62
256
6
ByLayer
370
18
48
1
60
0
100
AcDbTrace
10
-36
20
-31.692985
30
0
11
-32.500002
21
-31.232202
31
0
12
-32.499998
22
-32.153769
32
0
13
-32.499998
23
-32.153769
33
0
39
0
210
0
220
0
230
1
0
SOLID
5
13F
100
AcDbEntity
8
SK2
62
256
6
ByLayer
370
18
48
1
60
0
100
AcDbTrace
10
38
20
-31.692985
30
0
11
34.500002
21
-32.153769
31
0
12
34.499998
22
-31.232202
32
0
13
34.499998
23
-31.232202
33
0
39
0
210
0
220
0
230
1
0
ENDBLK
5
141
100
AcDbEntity
8
0
100
AcDbBlockEnd
0
BLOCK
5
146
100
AcDbEntity
8
0
100
AcDbBlockBegin
2
*D5
70
1
10
0
20
0
30
0
3
*D5
0
LINE
5
148
100
AcDbEntity
8
0
62
256
6
ByLayer
370
-2
48
1
60
0
100
AcDbLine
10
15.36
20
3.7875
30
0
11
15.36
21
15.809119
31
0
39
0
210
0
220
0
230
1
0
LINE
5
149
100
AcDbEntity
8
0
62
256
6
ByLayer
370
-2
48
1
60
0
100
AcDbLine
10
38
20
1.5875
30
0
11
38
21
15.809119
31
0
39
0
210
0
220
0
230
1
0
LINE
5
14A
100
AcDbEntity
8
0
62
256
6
ByLayer
370
-2
48
1
60
0
100
AcDbLine
10
18.86
20
13.809119
30
0
11
34.5
21
13.809119
31
0
39
0
210
0
220
0
230
1
0
SOLID
5
14B
100
AcDbEntity
8
0
62
256
6
ByLayer
370
-1
48
1
60
0
100
AcDbTrace
10
18.86
20
14.392453
30
0
11
18.86
21
13.225786
31
0
12
15.36
22
13.809119
32
0
13
15.36
23
13.809119
33
0
39
0
210
0
220
0
230
1
0
SOLID
5
14C
100
AcDbEntity
8
0
62
256
6
ByLayer
370
-1
48
1
60
0
100
AcDbTrace
10
34.5
20
13.225786
30
0
11
34.5
21
14.392453
31
0
12
38
22
13.809119
32
0
13
38
23
13.809119
33
0
39
0
210
0
220
0
230
1
0
MTEXT
5
14D
100
AcDbEntity
8
0
62
256
6
ByLayer
370
18
48
1
60
0
100
AcDbMText
10
26.68
20
20.809119
30
0
210
0
220
0
230
1
1
\A1;22.64
40
3.5
41
0
44
1
50
0
71
5
72
5
7
iso_b_vert
0
POINT
5
14E
100
AcDbEntity
8
Defpoints
62
0
6
ByLayer
370
-1
48
1
60
0
100
AcDbPoint
10
15.36
20
2.2
30
0
39
0
210
0
220
0
230
1
50
360
0
POINT
5
14F
100
AcDbEntity
8
Defpoints
62
0
6
ByLayer
370
-1
48
1
60
0
100
AcDbPoint
10
38
20
0
30
0
39
0
210
0
220
0
230
1
50
360
0
POINT
5
150
100
AcDbEntity
8
Defpoints
62
0
6
ByLayer
370
-1
48
1
60
0
100
AcDbPoint
10
38
20
13.809119
30
0
39
0
210
0
220
0
230
1
50
360
0
ENDBLK
5
147
100
AcDbEntity
8
0
100
AcDbBlockEnd
0
BLOCK
5
158
100
AcDbEntity
8
0
100
AcDbBlockBegin
2
_U2
70
0
10
0
20
0
30
0
3
_U2
0
MTEXT
5
152
100
AcDbEntity
8
SK2
62
256
6
ByLayer
370
13
48
1
60
0
100
AcDbMText
10
21.358435
20
14.841753
30
0
210
0
220
0
230
1
1
\W0.7495;22,64
40
3.5
41
0
44
1.084337
50
0
71
7
72
5
7
iso_b_vert
0
LINE
5
153
100
AcDbEntity
8
SK2
62
256
6
ByLayer
370
13
48
1
60
0
100
AcDbLine
10
15.36
20
3.7875
30
0
11
15.36
21
15.809119
31
0
39
0
210
0
220
0
230
1
0
LINE
5
154
100
AcDbEntity
8
SK2
62
256
6
ByLayer
370
13
48
1
60
0
100
AcDbLine
10
38
20
1.5875
30
0
11
38
21
15.809119
31
0
39
0
210
0
220
0
230
1
0
LINE
5
155
100
AcDbEntity
8
SK2
62
256
6
ByLayer
370
13
48
1
60
0
100
AcDbLine
10
15.36
20
13.809119
30
0
11
38
21
13.809119
31
0
39
0
210
0
220
0
230
1
0
SOLID
5
156
100
AcDbEntity
8
SK2
62
256
6
ByLayer
370
18
48
1
60
0
100
AcDbTrace
10
15.36
20
13.809119
30
0
11
18.859998
21
14.269903
31
0
12
18.860002
22
13.348335
32
0
13
18.860002
23
13.348335
33
0
39
0
210
0
220
0
230
1
0
SOLID
5
157
100
AcDbEntity
8
SK2
62
256
6
ByLayer
370
18
48
1
60
0
100
AcDbTrace
10
38
20
13.809119
30
0
11
34.500002
21
13.348335
31
0
12
34.499998
22
14.269903
32
0
13
34.499998
23
14.269903
33
0
39
0
210
0
220
0
230
1
0
ENDBLK
5
159
100
AcDbEntity
8
0
100
AcDbBlockEnd
0
BLOCK
5
15E
100
AcDbEntity
8
0
100
AcDbBlockBegin
2
*D7
70
1
10
0
20
0
30
0
3
*D7
0
LINE
5
160
100
AcDbEntity
8
0
62
256
6
ByLayer
370
-2
48
1
60
0
100
AcDbLine
10
38
20
-1.5875
30
0
11
38
21
-17.002503
31
0
39
0
210
0
220
0
230
1
0
LINE
5
161
100
AcDbEntity
8
0
62
256
6
ByLayer
370
-2
48
1
60
0
100
AcDbLine
10
37.3599
20
-3.7875
30
0
11
37.3599
21
-17.002503
31
0
39
0
210
0
220
0
230
1
0
LINE
5
162
100
AcDbEntity
8
0
62
256
6
ByLayer
370
-2
48
1
60
0
100
AcDbLine
10
38
20
-15.002503
30
0
11
66.333333
21
-15.002503
31
0
39
0
210
0
220
0
230
1
0
LINE
5
163
100
AcDbEntity
8
0
62
256
6
ByLayer
370
-2
48
1
60
0
100
AcDbLine
10
41.5
20
-15.002503
30
0
11
45
21
-15.002503
31
0
39
0
210
0
220
0
230
1
0
LINE
5
164
100
AcDbEntity
8
0
62
256
6
ByLayer
370
-2
48
1
60
0
100
AcDbLine
10
33.8599
20
-15.002503
30
0
11
30.3599
21
-15.002503
31
0
39
0
210
0
220
0
230
1
0
SOLID
5
165
100
AcDbEntity
8
0
62
256
6
ByLayer
370
-1
48
1
60
0
100
AcDbTrace
10
41.5
20
-14.41917
30
0
11
41.5
21
-15.585837
31
0
12
38
22
-15.002503
32
0
13
38
23
-15.002503
33
0
39
0
210
0
220
0
230
1
0
SOLID
5
166
100
AcDbEntity
8
0
62
256
6
ByLayer
370
-1
48
1
60
0
100
AcDbTrace
10
33.8599
20
-15.585837
30
0
11
33.8599
21
-14.41917
31
0
12
37.3599
22
-15.002503
32
0
13
37.3599
23
-15.002503
33
0
39
0
210
0
220
0
230
1
0
MTEXT
5
167
100
AcDbEntity
8
0
62
256
6
ByLayer
370
18
48
1
60
0
100
AcDbMText
10
55.666667
20
-8.002503
30
0
210
0
220
0
230
1
1
\A1;0.64
40
3.5
41
0
44
1
50
0
71
5
72
5
7
iso_b_vert
0
POINT
5
168
100
AcDbEntity
8
Defpoints
62
0
6
ByLayer
370
-1
48
1
60
0
100
AcDbPoint
10
38
20
0
30
0
39
0
210
0
220
0
230
1
50
360
0
POINT
5
169
100
AcDbEntity
8
Defpoints
62
0
6
ByLayer
370
-1
48
1
60
0
100
AcDbPoint
10
37.3599
20
-2.2
30
0
39
0
210
0
220
0
230
1
50
360
0
POINT
5
16A
100
AcDbEntity
8
Defpoints
62
0
6
ByLayer
370
-1
48
1
60
0
100
AcDbPoint
10
37.3599
20
-15.002503
30
0
39
0
210
0
220
0
230
1
50
360
0
ENDBLK
5
15F
100
AcDbEntity
8
0
100
AcDbBlockEnd
0
BLOCK
5
172
100
AcDbEntity
8
0
100
AcDbBlockBegin
2
_U3
70
0
10
0
20
0
30
0
3
_U3
0
MTEXT
5
16C
100
AcDbEntity
8
SK2
62
256
6
ByLayer
370
13
48
1
60
0
100
AcDbMText
10
43.967593
20
-13.96987
30
0
210
0
220
0
230
1
1
\W0.7383;0,64
40
3.5
41
0
44
1.084337
50
0
71
7
72
5
7
iso_b_vert
0
LINE
5
16D
100
AcDbEntity
8
SK2
62
256
6
ByLayer
370
13
48
1
60
0
100
AcDbLine
10
38
20
-1.5875
30
0
11
38
21
-17.002503
31
0
39
0
210
0
220
0
230
1
0
LINE
5
16E
100
AcDbEntity
8
SK2
62
256
6
ByLayer
370
13
48
1
60
0
100
AcDbLine
10
37.3599
20
-3.7875
30
0
11
37.3599
21
-17.002503
31
0
39
0
210
0
220
0
230
1
0
LINE
5
16F
100
AcDbEntity
8
SK2
62
256
6
ByLayer
370
13
48
1
60
0
100
AcDbLine
10
28.6099
20
-15.002503
30
0
11
52.180758
21
-15.002503
31
0
39
0
210
0
220
0
230
1
0
SOLID
5
170
100
AcDbEntity
8
SK2
62
256
6
ByLayer
370
18
48
1
60
0
100
AcDbTrace
10
38
20
-15.002503
30
0
11
41.499998
21
-14.541719
31
0
12
41.500002
22
-15.463287
32
0
13
41.500002
23
-15.463287
33
0
39
0
210
0
220
0
230
1
0
SOLID
5
171
100
AcDbEntity
8
SK2
62
256
6
ByLayer
370
18
48
1
60
0
100
AcDbTrace
10
37.3599
20
-15.002503
30
0
11
33.859902
21
-15.463287
31
0
12
33.859898
22
-14.541719
32
0
13
33.859898
23
-14.541719
33
0
39
0
210
0
220
0
230
1
0
ENDBLK
5
173
100
AcDbEntity
8
0
100
AcDbBlockEnd
0
BLOCK
5
178
100
AcDbEntity
8
0
100
AcDbBlockBegin
2
*D9
70
1
10
0
20
0
30
0
3
*D9
0
LINE
5
17A
100
AcDbEntity
8
0
62
256
6
ByLayer
370
-2
48
1
60
0
100
AcDbLine
10
-36
20
-4.5875
30
0
11
-36
21
-23.343428
31
0
39
0
210
0
220
0
230
1
0
LINE
5
17B
100
AcDbEntity
8
0
62
256
6
ByLayer
370
-2
48
1
60
0
100
AcDbLine
10
37.3599
20
-3.7875
30
0
11
37.3599
21
-23.343428
31
0
39
0
210
0
220
0
230
1
0
LINE
5
17C
100
AcDbEntity
8
0
62
256
6
ByLayer
370
-2
48
1
60
0
100
AcDbLine
10
-32.5
20
-21.343428
30
0
11
33.8599
21
-21.343428
31
0
39
0
210
0
220
0
230
1
0
SOLID
5
17D
100
AcDbEntity
8
0
62
256
6
ByLayer
370
-1
48
1
60
0
100
AcDbTrace
10
-32.5
20
-20.760095
30
0
11
-32.5
21
-21.926762
31
0
12
-36
22
-21.343428
32
0
13
-36
23
-21.343428
33
0
39
0
210
0
220
0
230
1
0
SOLID
5
17E
100
AcDbEntity
8
0
62
256
6
ByLayer
370
-1
48
1
60
0
100
AcDbTrace
10
33.8599
20
-21.926762
30
0
11
33.8599
21
-20.760095
31
0
12
37.3599
22
-21.343428
32
0
13
37.3599
23
-21.343428
33
0
39
0
210
0
220
0
230
1
0
MTEXT
5
17F
100
AcDbEntity
8
0
62
256
6
ByLayer
370
18
48
1
60
0
100
AcDbMText
10
0.67995
20
-14.343428
30
0
210
0
220
0
230
1
1
\A1;73.36
40
3.5
41
0
44
1
50
0
71
5
72
5
7
iso_b_vert
0
POINT
5
180
100
AcDbEntity
8
Defpoints
62
0
6
ByLayer
370
-1
48
1
60
0
100
AcDbPoint
10
-36
20
-3
30
0
39
0
210
0
220
0
230
1
50
360
0
POINT
5
181
100
AcDbEntity
8
Defpoints
62
0
6
ByLayer
370
-1
48
1
60
0
100
AcDbPoint
10
37.3599
20
-2.2
30
0
39
0
210
0
220
0
230
1
50
360
0
POINT
5
182
100
AcDbEntity
8
Defpoints
62
0
6
ByLayer
370
-1
48
1
60
0
100
AcDbPoint
10
37.3599
20
-21.343428
30
0
39
0
210
0
220
0
230
1
50
360
0
ENDBLK
5
179
100
AcDbEntity
8
0
100
AcDbBlockEnd
0
BLOCK
5
18A
100
AcDbEntity
8
0
100
AcDbBlockBegin
2
_U4
70
0
10
0
20
0
30
0
3
_U4
0
MTEXT
5
184
100
AcDbEntity
8
SK2
62
256
6
ByLayer
370
13
48
1
60
0
100
AcDbMText
10
-4.457349
20
-20.310795
30
0
210
0
220
0
230
1
1
\W0.7317;73,36
40
3.5
41
0
44
1.084337
50
0
71
7
72
5
7
iso_b_vert
0
LINE
5
185
100
AcDbEntity
8
SK2
62
256
6
ByLayer
370
13
48
1
60
0
100
AcDbLine
10
-36
20
-4.5875
30
0
11
-36
21
-23.343428
31
0
39
0
210
0
220
0
230
1
0
LINE
5
186
100
AcDbEntity
8
SK2
62
256
6
ByLayer
370
13
48
1
60
0
100
AcDbLine
10
37.3599
20
-3.7875
30
0
11
37.3599
21
-23.343428
31
0
39
0
210
0
220
0
230
1
0
LINE
5
187
100
AcDbEntity
8
SK2
62
256
6
ByLayer
370
13
48
1
60
0
100
AcDbLine
10
-36
20
-21.343428
30
0
11
37.3599
21
-21.343428
31
0
39
0
210
0
220
0
230
1
0
SOLID
5
188
100
AcDbEntity
8
SK2
62
256
6
ByLayer
370
18
48
1
60
0
100
AcDbTrace
10
-36
20
-21.343428
30
0
11
-32.500002
21
-20.882645
31
0
12
-32.499998
22
-21.804212
32
0
13
-32.499998
23
-21.804212
33
0
39
0
210
0
220
0
230
1
0
SOLID
5
189
100
AcDbEntity
8
SK2
62
256
6
ByLayer
370
18
48
1
60
0
100
AcDbTrace
10
37.3599
20
-21.343428
30
0
11
33.859902
21
-21.804212
31
0
12
33.859898
22
-20.882645
32
0
13
33.859898
23
-20.882645
33
0
39
0
210
0
220
0
230
1
0
ENDBLK
5
18B
100
AcDbEntity
8
0
100
AcDbBlockEnd
0
ENDSEC
0
SECTION
2
ENTITIES
0
ARC
5
AE
100
AcDbEntity
8
1
62
256
6
ByLayer
370
18
48
1
60
0
100
AcDbCircle
39
0
10
1.39838
20
-2.977518
30
0
40
0.800000000000001
210
0
220
0
230
1
100
AcDbArc
50
89.96419
51
150.925339
0
ARC
5
AF
100
AcDbEntity
8
1
62
256
6
ByLayer
370
18
48
1
60
0
100
AcDbCircle
39
0
10
1.39838
20
2.977518
30
0
40
0.800000000000001
210
0
220
0
230
1
100
AcDbArc
50
209.074661
51
270.03581
0
ARC
5
B0
100
AcDbEntity
8
1
62
256
6
ByLayer
370
18
48
1
60
0
100
AcDbCircle
39
0
10
0
20
-2.2
30
0
40
0.799999999999997
210
0
220
0
230
1
100
AcDbArc
50
270
51
330.925339
0
ARC
5
B1
100
AcDbEntity
8
1
62
256
6
ByLayer
370
18
48
1
60
0
100
AcDbCircle
39
0
10
0
20
2.2
30
0
40
0.799999999999997
210
0
220
0
230
1
100
AcDbArc
50
29.074661
51
90
0
ELLIPSE
5
B2
100
AcDbEntity
8
1
62
256
6
ByLayer
370
13
48
1
60
0
100
AcDbEllipse
10
4.250253
20
-2.108844
30
0
11
-0.013948329408733
21
0.099022442439608
31
0
210
0
220
0
230
1
40
0.503866
41
1.15143763486316
42
1.26173519558098
0
ELLIPSE
5
B3
100
AcDbEntity
8
1
62
256
6
ByLayer
370
18
48
1
60
0
100
AcDbEllipse
10
4.25
20
-2.319688
30
0
11
-0.25
21
3.06151588455594E-17
31
0
210
0
220
0
230
1
40
0.999997
41
-1.56966689397432
42
-0.622268684800812
0
ELLIPSE
5
B4
100
AcDbEntity
8
1
62
256
6
ByLayer
370
18
48
1
60
0
100
AcDbEllipse
10
4.25
20
2.319688
30
0
11
-0.25
21
3.06151588455594E-17
31
0
210
0
220
0
230
1
40
0.999997
41
0.620800031449414
42
0.959008604852317
0
POINT
5
70
100
AcDbEntity
8
80
62
256
6
ByLayer
370
18
48
1
60
0
100
AcDbPoint
10
0
20
0
30
0
39
0
210
0
220
0
230
1
50
360
0
POINT
5
72
100
AcDbEntity
8
81
62
256
6
ByLayer
370
18
48
1
60
0
100
AcDbPoint
10
38
20
0
30
0
39
0
210
0
220
0
230
1
50
360
0
POINT
5
74
100
AcDbEntity
8
1
62
256
6
ByLayer
370
18
48
1
60
1
100
AcDbPoint
10
37.3599
20
-2.2
30
0
39
0
210
0
220
0
230
1
50
360
0
POINT
5
76
100
AcDbEntity
8
1
62
256
6
ByLayer
370
18
48
1
60
1
100
AcDbPoint
10
-36
20
-3
30
0
39
0
210
0
220
0
230
1
50
360
0
POINT
5
77
100
AcDbEntity
8
1
62
256
6
ByLayer
370
18
48
1
60
1
100
AcDbPoint
10
15.36
20
2.2
30
0
39
0
210
0
220
0
230
1
50
360
0
POINT
5
78
100
AcDbEntity
8
1
62
256
6
ByLayer
370
18
48
1
60
1
100
AcDbPoint
10
37.3599
20
-2.2
30
0
39
0
210
0
220
0
230
1
50
360
0
POINT
5
79
100
AcDbEntity
8
1
62
256
6
ByLayer
370
18
48
1
60
1
100
AcDbPoint
10
-36
20
-3
30
0
39
0
210
0
220
0
230
1
50
360
0
POINT
5
7A
100
AcDbEntity
8
1
62
256
6
ByLayer
370
18
48
1
60
1
100
AcDbPoint
10
37.3599
20
-2.2
30
0
39
0
210
0
220
0
230
1
50
360
0
SPLINE
5
B5
100
AcDbEntity
8
SK1
62
256
6
ByLayer
370
18
48
1
60
0
100
AcDbSpline
70
4
71
3
72
12
73
8
40
0
40
0
40
0
40
0
40
0.249999999999999
40
0.249999999999999
40
0.499999999999999
40
0.499999999999999
40
1
40
1
40
1
40
1
41
1
10
-35.65
20
2.15459422191222
30
0
41
1
10
-35.65
20
2.16253409806015
30
0
41
1
10
-35.6543403470552
20
2.16629291567898
30
0
41
1
10
-35.6670034572333
20
2.16792072081895
30
0
41
1
10
-35.6754069618006
20
2.1659507914793
30
0
41
1
10
-35.7033744297258
20
2.15486577803529
30
0
41
1
10
-35.7260009806425
20
2.1406916329793
30
0
41
1
10
-35.7500000000001
20
2.12197893205874
30
0
0
SPLINE
5
B6
100
AcDbEntity
8
SK1
62
256
6
ByLayer
370
18
48
1
60
0
100
AcDbSpline
70
4
71
3
72
8
73
4
40
0
40
0
40
0
40
0
40
1
40
1
40
1
40
1
41
1
10
-35.9999999999999
20
0.912906817972441
30
0
41
1
10
-35.9170224250208
20
0.978603451215918
30
0
41
1
10
-35.8336483848642
20
1.04402013506987
30
0
41
1
10
-35.75
20
1.10924310043913
30
0
0
SPLINE
5
B7
100
AcDbEntity
8
SK1
62
256
6
ByLayer
370
18
48
1
60
0
100
AcDbSpline
70
4
71
3
72
12
73
8
40
0
40
0
40
0
40
0
40
0.499999999999999
40
0.499999999999999
40
0.75
40
0.75
40
1
40
1
40
1
40
1
41
1
10
-35.75
20
1.10924310043905
30
0
41
1
10
-35.7259913046562
20
1.1279633459944
30
0
41
1
10
-35.7033433879313
20
1.15322972606967
30
0
41
1
10
-35.6754686754417
20
1.19668809389859
30
0
41
1
10
-35.667025596347
20
1.21247803073149
30
0
41
1
10
-35.6543350076412
20
1.24489099519573
30
0
41
1
10
-35.65
20
1.26199211770137
30
0
41
1
10
-35.65
20
1.27688983450861
30
0
0
SPLINE
5
B8
100
AcDbEntity
8
SK1
62
256
6
ByLayer
370
18
48
1
60
0
100
AcDbSpline
70
4
71
3
72
8
73
4
40
0
40
0
40
0
40
0
40
1
40
1
40
1
40
1
41
1
10
-35.75
20
2.1219789320586
30
0
41
1
10
-35.8336554104926
20
2.05675048861207
30
0
41
1
10
-35.9170302933806
20
1.99133305314328
30
0
41
1
10
-36
20
1.92564264959191
30
0
0
SPLINE
5
B9
100
AcDbEntity
8
1
62
256
6
ByLayer
370
18
48
1
60
0
100
AcDbSpline
70
4
71
3
72
68
73
64
40
0
40
0
40
0
40
0
40
0.0072132119008569
40
0.0072132119008569
40
0.0404623833987436
40
0.0404623833987436
40
0.0737115548966303
40
0.0737115548966303
40
0.106960726394517
40
0.106960726394517
40
0.140209897892404
40
0.140209897892404
40
0.17345906939029
40
0.17345906939029
40
0.206708240888177
40
0.206708240888177
40
0.239957412386064
40
0.239957412386064
40
0.27320658388395
40
0.27320658388395
40
0.306455755381837
40
0.306455755381837
40
0.339704926879723
40
0.339704926879723
40
0.37295409837761
40
0.37295409837761
40
0.406203269875497
40
0.406203269875497
40
0.439452441373384
40
0.439452441373384
40
0.47270161287127
40
0.47270161287127
40
0.505950784369157
40
0.505950784369157
40
0.539199955867044
40
0.539199955867044
40
0.57244912736493
40
0.57244912736493
40
0.605698298862817
40
0.605698298862817
40
0.638947470360704
40
0.638947470360704
40
0.67219664185859
40
0.67219664185859
40
0.705445813356477
40
0.705445813356477
40
0.738694984854363
40
0.738694984854363
40
0.77194415635225
40
0.77194415635225
40
0.805193327850137
40
0.805193327850137
40
0.838442499348024
40
0.838442499348024
40
0.87169167084591
40
0.87169167084591
40
0.904940842343797
40
0.904940842343797
40
0.938190013841684
40
0.938190013841684
40
0.97143918533957
40
0.97143918533957
40
1
40
1
40
1
40
1
41
1
10
8.81365237013142
20
2.07292015791407
30
0
41
1
10
8.8466340671331
20
2.07297461152558
30
0
41
1
10
8.87959953874383
20
2.07279710888292
30
0
41
1
10
9.06439347602543
20
2.07054843335732
30
0
41
1
10
9.21591831786702
20
2.06295752137922
30
0
41
1
10
9.51974880913616
20
2.03534632124465
30
0
41
1
10
9.67217088911065
20
2.01583384197591
30
0
41
1
10
9.97622678260055
20
1.96731064646306
30
0
41
1
10
10.1274746307111
20
1.9385941538153
30
0
41
1
10
10.4291554983559
20
1.86882959692161
30
0
41
1
10
10.5796486051023
20
1.82866461028274
30
0
41
1
10
10.880157237523
20
1.73978718873252
30
0
41
1
10
11.0301609498022
20
1.6915472077761
30
0
41
1
10
11.3306903034327
20
1.58526914964725
30
0
41
1
10
11.4813056208298
20
1.52699957662927
30
0
41
1
10
11.7831707141856
20
1.40285006176498
30
0
41
1
10
11.9343508675445
20
1.33686204794637
30
0
41
1
10
12.2383361721367
20
1.19818027727061
30
0
41
1
10
12.3905364573037
20
1.12494688950332
30
0
41
1
10
12.6939792213599
20
0.973039252549881
30
0
41
1
10
12.8454487403735
20
0.89422520667614
30
0
41
1
10
13.148719601774
20
0.732708816120066
30
0
41
1
10
13.3010854509534
20
0.649682150232536
30
0
41
1
10
13.6048842864751
20
0.480288392392424
30
0
41
1
10
13.7559644857301
20
0.394328128088745
30
0
41
1
10
14.0572225472762
20
0.221142622404813
30
0
41
1
10
14.207686268195
20
0.134412012458256
30
0
41
1
10
14.508163709225
20
-0.0393931630977704
30
0
41
1
10
14.6581892187182
20
-0.126481265348218
30
0
41
1
10
14.9583833206735
20
-0.3000860280886
30
0
41
1
10
15.1086458320979
20
-0.386449934787891
30
0
41
1
10
15.4104352559058
20
-0.556553746163985
30
0
41
1
10
15.5618167293575
20
-0.640524794659001
30
0
41
1
10
15.8658049621152
20
-0.805997451297827
30
0
41
1
10
16.0177972188904
20
-0.88707001264271
30
0
41
1
10
16.321695679965
20
-1.0434128242581
30
0
41
1
10
16.4734543440713
20
-1.11862797727667
30
0
41
1
10
16.7769944643023
20
-1.26272337000256
30
0
41
1
10
16.9291437509015
20
-1.33202098897775
30
0
41
1
10
17.233080537193
20
-1.46295251054977
30
0
41
1
10
17.384505292344
20
-1.52446024076508
30
0
41
1
10
17.6857729682162
20
-1.63770586812564
30
0
41
1
10
17.8357651226801
20
-1.69005416303034
30
0
41
1
10
18.1360714315433
20
-1.78612507479207
30
0
41
1
10
18.2863245291381
20
-1.82976943328035
30
0
41
1
10
18.5867311357564
20
-1.90633935049183
30
0
41
1
10
18.7369257871212
20
-1.93938920441391
30
0
41
1
10
19.0384146654027
20
-1.99600266654633
30
0
41
1
10
19.1898382824319
20
-2.02011577015952
30
0
41
1
10
19.4940673702752
20
-2.05586253525573
30
0
41
1
10
19.646054578521
20
-2.06757692407598
30
0
41
1
10
19.9493053348928
20
-2.08020282337122
30
0
41
1
10
20.1011426354156
20
-2.08185674713701
30
0
41
1
10
20.4049981265771
20
-2.07356214643065
30
0
41
1
10
20.5573387666877
20
-2.06322718030671
30
0
41
1
10
20.8607324737883
20
-2.03089659331431
30
0
41
1
10
21.0119238162482
20
-2.00964154934809
30
0
41
1
10
21.3138354549904
20
-1.95805600713723
30
0
41
1
10
21.4642306628336
20
-1.92673332737243
30
0
41
1
10
21.7644160184746
20
-1.85302176476884
30
0
41
1
10
21.9144018579376
20
-1.81080174449468
30
0
41
1
10
22.1940325023712
20
-1.72566396575354
30
0
41
1
10
22.3233447682187
20
-1.68290759585301
30
0
41
1
10
22.4528821531627
20
-1.63639750001136
30
0
0
SPLINE
5
BA
100
AcDbEntity
8
1
62
256
6
ByLayer
370
18
48
1
60
0
100
AcDbSpline
70
4
71
3
72
22
73
18
40
0
40
0
40
0
40
0
40
0.0710595713572927
40
0.0710595713572927
40
0.187177124937631
40
0.187177124937631
40
0.303294678517969
40
0.303294678517969
40
0.419412232098308
40
0.419412232098308
40
0.535529785678646
40
0.535529785678646
40
0.767764892839323
40
0.767764892839323
40
0.883882446419662
40
0.883882446419662
40
1
40
1
40
1
40
1
41
1
10
31.3134146387533
20
2.08617216139689
30
0
41
1
10
31.4063844578083
20
2.08595894128524
30
0
41
1
10
31.4993733154473
20
2.08365573324466
30
0
41
1
10
31.7440902445261
20
2.07224905492609
30
0
41
1
10
31.8959499732783
20
2.05986563339752
30
0
41
1
10
32.199497556836
20
2.02508621854591
30
0
41
1
10
32.3511478366708
20
2.00272392025551
30
0
41
1
10
32.6552127077744
20
1.94601561534236
30
0
41
1
10
32.8070777519175
20
1.9118990696864
30
0
41
1
10
33.1091202531347
20
1.8340146036775
30
0
41
1
10
33.2594834680228
20
1.79018379444079
30
0
41
1
10
33.7097735097481
20
1.64468926082259
30
0
41
1
10
34.0099519016284
20
1.53016993138294
30
0
41
1
10
34.4613137816586
20
1.3349689175221
30
0
41
1
10
34.6122233518226
20
1.26608915510997
30
0
41
1
10
34.9157103377999
20
1.12146928191189
30
0
41
1
10
35.0680805563592
20
1.04551527807789
30
0
41
1
10
35.2196936855248
20
0.967044818685366
30
0
0
SPLINE
5
BB
100
AcDbEntity
8
1
62
256
6
ByLayer
370
18
48
1
60
0
100
AcDbSpline
70
4
71
3
72
8
73
4
40
0
40
0
40
0
40
0
40
1
40
1
40
1
40
1
41
1
10
37.4307182026566
20
-0.97084774912895
30
0
41
1
10
37.3117846506014
20
-1.19070861380561
30
0
41
1
10
37.1962079165424
20
-1.41362444653788
30
0
41
1
10
37.0840317945949
20
-1.63963510341063
30
0
0
SPLINE
5
BC
100
AcDbEntity
8
1
62
256
6
ByLayer
370
13
48
1
60
0
100
AcDbSpline
70
4
71
3
72
8
73
4
40
0
40
0
40
0
40
0
40
1
40
1
40
1
40
1
41
1
10
4.19848012254477
20
-2.08541994665094
30
0
41
1
10
4.22155733642367
20
-2.08163267369949
30
0
41
1
10
4.2446304499876
20
-2.07771537883343
30
0
41
1
10
4.26770038450331
20
-2.0736687613682
30
0
0
SPLINE
5
BD
100
AcDbEntity
8
1
62
256
6
ByLayer
370
18
48
1
60
0
100
AcDbSpline
70
4
71
3
72
32
73
28
40
0
40
0
40
0
40
0
40
0.0137639563209093
40
0.0137639563209093
40
0.0671461332393604
40
0.0671461332393604
40
0.173910487076261
40
0.173910487076261
40
0.227292663994712
40
0.227292663994712
40
0.280674840913162
40
0.280674840913162
40
0.387439194750063
40
0.387439194750063
40
0.600967902423866
40
0.600967902423866
40
0.654350079342317
40
0.654350079342317
40
0.707732256260767
40
0.707732256260767
40
0.814496610097667
40
0.814496610097667
40
0.867878787016117
40
0.867878787016117
40
0.921260963934568
40
0.921260963934568
40
1
40
1
40
1
40
1
41
1
10
16.9797348486526
20
1.65804487676968
30
0
41
1
10
17.0243757564008
20
1.64052553486579
30
0
41
1
10
17.0689706769525
20
1.6226392460905
30
0
41
1
10
17.2861222113286
20
1.53371419985473
30
0
41
1
10
17.4581275333374
20
1.45758128130402
30
0
41
1
10
17.9737193682588
20
1.21494432168976
30
0
41
1
10
18.317227660446
20
1.03468588468036
30
0
41
1
10
18.8372097052169
20
0.742945166050475
30
0
41
1
10
19.0104756489893
20
0.642812956216062
30
0
41
1
10
19.3553191176122
20
0.440002615040328
30
0
41
1
10
19.5272225560614
20
0.336970763726527
30
0
41
1
10
20.0426954849201
20
0.0251957754549608
30
0
41
1
10
20.3867459408625
20
-0.185798665787701
30
0
41
1
10
21.4275571751742
20
-0.808983247263853
30
0
41
1
10
22.1063452675498
20
-1.19226643170498
30
0
41
1
10
22.9730028061176
20
-1.57583565202762
30
0
41
1
10
23.1459749921471
20
-1.64707734753298
30
0
41
1
10
23.4899917238654
20
-1.77678231278276
30
0
41
1
10
23.6613083887669
20
-1.83549756958303
30
0
41
1
10
24.174771641916
20
-1.99220786121185
30
0
41
1
10
24.5165641079356
20
-2.07048467621394
30
0
41
1
10
25.033486306824
20
-2.14460873465003
30
0
41
1
10
25.2073415468936
20
-2.16213394068805
30
0
41
1
10
25.5529474126036
20
-2.18158011102278
30
0
41
1
10
25.7247975908416
20
-2.18365270810924
30
0
41
1
10
26.1490967562913
20
-2.17039544206625
30
0
41
1
10
26.4011612264049
20
-2.1462566238846
30
0
41
1
10
26.6536932518857
20
-2.10622446223047
30
0
0
SPLINE
5
BE
100
AcDbEntity
8
1
62
256
6
ByLayer
370
18
48
1
60
0
100
AcDbSpline
70
4
71
3
72
34
73
30
40
0
40
0
40
0
40
0
40
0.0346084409113134
40
0.0346084409113134
40
0.177106593849832
40
0.177106593849832
40
0.31960474678835
40
0.31960474678835
40
0.462102899726869
40
0.462102899726869
40
0.533351976196128
40
0.533351976196128
40
0.568976514430758
40
0.568976514430758
40
0.577882648989415
40
0.577882648989415
40
0.586788783548073
40
0.586788783548073
40
0.59569491810673
40
0.59569491810673
40
0.604601052665388
40
0.604601052665388
40
0.747099205603906
40
0.747099205603906
40
0.889597358542425
40
0.889597358542425
40
0.960846435011684
40
0.960846435011684
40
1
40
1
40
1
40
1
41
1
10
6.17745425401438
20
1.19057043564851
30
0
41
1
10
6.17745425401438
20
1.17047487231923
30
0
41
1
10
6.17745425401438
20
1.1495216141349
30
0
41
1
10
6.17745425401438
20
1.03807110101198
30
0
41
1
10
6.17745425401444
20
0.934108924862926
30
0
41
1
10
6.17745425401444
20
0.701633444892138
30
0
41
1
10
6.17745425401444
20
0.57611500222194
30
0
41
1
10
6.17745425401444
20
0.308779015585543
30
0
41
1
10
6.17745425401444
20
0.166641887179765
30
0
41
1
10
6.17745425401444
20
-0.0576557232244284
30
0
41
1
10
6.17745425401441
20
-0.133746553267713
30
0
41
1
10
6.17745425401441
20
-0.249819032287547
30
0
41
1
10
6.17745425401444
20
-0.288849516682148
30
0
41
1
10
6.17745425401444
20
-0.337960632439547
30
0
41
1
10
6.17745425401444
20
-0.347727802036672
30
0
41
1
10
6.17745425401444
20
-0.367593212640372
30
0
41
1
10
6.17745425401449
20
-0.378215818953151
30
0
41
1
10
6.17745425401449
20
-0.398229790999551
30
0
41
1
10
6.17745425401444
20
-0.407592538575528
30
0
41
1
10
6.17745425401444
20
-0.426773557404658
30
0
41
1
10
6.17745425401444
20
-0.436347124009473
30
0
41
1
10
6.17745425401444
20
-0.598808020405471
30
0
41
1
10
6.17745425401441
20
-0.746702393469661
30
0
41
1
10
6.17745425401441
20
-1.02729418400321
30
0
41
1
10
6.17745425401441
20
-1.15786423950434
30
0
41
1
10
6.17745425401441
20
-1.33792574986353
30
0
41
1
10
6.17745425401444
20
-1.3955071484973
30
0
41
1
10
6.17745425401444
20
-1.4794897821584
30
0
41
1
10
6.17745425401444
20
-1.50810024989229
30
0
41
1
10
6.17745425401444
20
-1.53552699478035
30
0
0
SPLINE
5
BF
100
AcDbEntity
8
1
62
256
6
ByLayer
370
18
48
1
60
0
100
AcDbSpline
70
4
71
3
72
52
73
48
40
0
40
0
40
0
40
0
40
0.125000000000056
40
0.125000000000056
40
0.187500000000083
40
0.187500000000083
40
0.250000000000111
40
0.250000000000111
40
0.312500000000139
40
0.312500000000139
40
0.328125000000146
40
0.328125000000146
40
0.343750000000153
40
0.343750000000153
40
0.35937500000016
40
0.35937500000016
40
0.375000000000167
40
0.375000000000167
40
0.390625000000174
40
0.390625000000174
40
0.406250000000181
40
0.406250000000181
40
0.437500000000194
40
0.437500000000194
40
0.468750000000207
40
0.468750000000207
40
0.50000000000022
40
0.50000000000022
40
0.515625000000225
40
0.515625000000225
40
0.519531250000225
40
0.519531250000225
40
0.523437500000224
40
0.523437500000224
40
0.527343750000224
40
0.527343750000224
40
0.531250000000223
40
0.531250000000223
40
0.562500000000209
40
0.562500000000209
40
0.625000000000178
40
0.625000000000178
40
0.750000000000119
40
0.750000000000119
40
0.875000000000059
40
0.875000000000059
40
1
40
1
40
1
40
1
41
1
10
4.04351566922259
20
-0.438373885721091
30
0
41
1
10
3.77920918365766
20
-0.267019922695056
30
0
41
1
10
3.51369855114243
20
-0.0875547807688122
30
0
41
1
10
3.12697856957939
20
0.190979070056926
30
0
41
1
10
2.99979986389829
20
0.285585011209008
30
0
41
1
10
2.75079658706605
20
0.480616483220928
30
0
41
1
10
2.62831771913972
20
0.581448752607656
30
0
41
1
10
2.39718711025509
20
0.790831987658407
30
0
41
1
10
2.28720020011059
20
0.900073876083724
30
0
41
1
10
2.17219654918634
20
1.04352771920887
30
0
41
1
10
2.15033768162857
20
1.07261597943548
30
0
41
1
10
2.10954619206834
20
1.13187054862746
30
0
41
1
10
2.09052289713654
20
1.16221019026983
30
0
41
1
10
2.05704354457339
20
1.22314154153736
30
0
41
1
10
2.04251937080016
20
1.25378704735854
30
0
41
1
10
2.01909049138956
20
1.3156397742741
30
0
41
1
10
2.010196987189
20
1.34706413798455
30
0
41
1
10
2.00000956729625
20
1.40828131783508
30
0
41
1
10
1.99859078305718
20
1.43831645060999
30
0
41
1
10
2.00406534281973
20
1.49723460402541
30
0
41
1
10
2.01113132693419
20
1.52619357940608
30
0
41
1
10
2.04408464904637
20
1.60688256422432
30
0
41
1
10
2.08268985300003
20
1.65463666997351
30
0
41
1
10
2.17816771385253
20
1.73483356268443
30
0
41
1
10
2.23580945821601
20
1.76863235082018
30
0
41
1
10
2.3589285621164
20
1.82587843143878
30
0
41
1
10
2.42471227348176
20
1.84966262782024
30
0
41
1
10
2.52765432754273
20
1.88086179831649
30
0
41
1
10
2.56274630168406
20
1.89050489906418
30
0
41
1
10
2.60724935021474
20
1.90173180312269
30
0
41
1
10
2.61622779966749
20
1.90387852842733
30
0
41
1
10
2.63400402785342
20
1.90834694856514
30
0
41
1
10
2.64277596032255
20
1.91069348287294
30
0
41
1
10
2.66162081536191
20
1.91394930001883
30
0
41
1
10
2.67198639970766
20
1.91479292673787
30
0
41
1
10
2.69252570377216
20
1.91526692691443
30
0
41
1
10
2.70266465390759
20
1.91483140950052
30
0
41
1
10
2.79400420602565
20
1.91136515675652
30
0
41
1
10
2.87504341811768
20
1.90747739707524
30
0
41
1
10
3.11783691422337
20
1.89395005221209
30
0
41
1
10
3.27884903125232
20
1.88212821023342
30
0
41
1
10
3.75824521755484
20
1.837442994442
30
0
41
1
10
4.07377491297845
20
1.79526431331129
30
0
41
1
10
4.69596703989194
20
1.67921772848987
30
0
41
1
10
4.99958037066858
20
1.60566497656208
30
0
41
1
10
5.59557581855103
20
1.42389315851753
30
0
41
1
10
5.88794818834106
20
1.31557205933208
30
0
41
1
10
6.17745425401438
20
1.19057043563259
30
0
0
SPLINE
5
C0
100
AcDbEntity
8
1
62
256
6
ByLayer
370
18
48
1
60
0
100
AcDbSpline
70
4
71
3
72
40
73
36
40
0
40
0
40
0
40
0
40
0.0896017892685471
40
0.0896017892685471
40
0.134402683902822
40
0.134402683902822
40
0.179203578537097
40
0.179203578537097
40
0.268805367805649
40
0.268805367805649
40
0.313606262439927
40
0.313606262439927
40
0.358407157074204
40
0.358407157074204
40
0.448008946342759
40
0.448008946342759
40
0.492809840977037
40
0.492809840977037
40
0.537610735611314
40
0.537610735611314
40
0.627212524879872
40
0.627212524879872
40
0.672013419514149
40
0.672013419514149
40
0.716814314148426
40
0.716814314148426
40
0.806416103416979
40
0.806416103416979
40
0.896017892685531
40
0.896017892685531
40
0.940818787319807
40
0.940818787319807
40
0.985619681954083
40
0.985619681954083
40
1
40
1
40
1
40
1
41
1
10
37.2410340467598
20
-2.19308078194896
30
0
41
1
10
36.8959449477895
20
-2.20963856274233
30
0
41
1
10
36.5525588753195
20
-2.19533987279289
30
0
41
1
10
36.0353485047752
20
-2.1289317818709
30
0
41
1
10
35.8626022541172
20
-2.09925988307719
30
0
41
1
10
35.5153168632795
20
-2.02498289598847
30
0
41
1
10
35.3421975711631
20
-1.98068450700379
30
0
41
1
10
34.8247609875261
20
-1.82818122136914
30
0
41
1
10
34.4815672021973
20
-1.70022409436351
30
0
41
1
10
33.9635664424067
20
-1.4745962569136
30
0
41
1
10
33.7897820176576
20
-1.3934479142369
30
0
41
1
10
33.4431321866995
20
-1.22235422621111
30
0
41
1
10
33.27078469895
20
-1.13272476785213
30
0
41
1
10
32.7551676503471
20
-0.853965151176141
30
0
41
1
10
32.4132078770753
20
-0.655171376775854
30
0
41
1
10
31.8981011229162
20
-0.34502741357133
30
0
41
1
10
31.7258887007318
20
-0.239888138190224
30
0
41
1
10
31.379407318371
20
-0.0277327833397862
30
0
41
1
10
31.2054210172892
20
0.0791263093945531
30
0
41
1
10
30.687663697709
20
0.394836487214093
30
0
41
1
10
30.3455300234668
20
0.601079755501843
30
0
41
1
10
29.8311867186669
20
0.895012815354363
30
0
41
1
10
29.6594747147571
20
0.99030272845738
30
0
41
1
10
29.3145450092249
20
1.17397161407456
30
0
41
1
10
29.1407955204896
20
1.26281988303302
30
0
41
1
10
28.6207227928164
20
1.51455081502237
30
0
41
1
10
28.2777155371621
20
1.66113440973172
30
0
41
1
10
27.5922848303872
20
1.90566162736053
30
0
41
1
10
27.2493378736997
20
2.00312738087183
30
0
41
1
10
26.7297956764957
20
2.10720704437796
30
0
41
1
10
26.5557091685637
20
2.13463588031669
30
0
41
1
10
26.2104497593215
20
2.17399663671824
30
0
41
1
10
26.0385703697984
20
2.18609803951657
30
0
41
1
10
25.8119322408988
20
2.19211454168192
30
0
41
1
10
25.7568860572357
20
2.19279952120428
30
0
41
1
10
25.7018494449136
20
2.19270795323774
30
0
0
SPLINE
5
C1
100
AcDbEntity
8
1
62
256
6
ByLayer
370
18
48
1
60
0
100
AcDbSpline
70
4
71
3
72
36
73
32
40
0
40
0
40
0
40
0
40
0.0396065664528945
40
0.0396065664528945
40
0.0853395870979947
40
0.0853395870979947
40
0.176805628388196
40
0.176805628388196
40
0.222538649033297
40
0.222538649033297
40
0.268271669678398
40
0.268271669678398
40
0.359737710968599
40
0.359737710968599
40
0.4054707316137
40
0.4054707316137
40
0.451203752258801
40
0.451203752258801
40
0.634135834839202
40
0.634135834839202
40
0.679868855484302
40
0.679868855484302
40
0.725601876129401
40
0.725601876129401
40
0.8170679174196
40
0.8170679174196
40
0.8628009380647
40
0.8628009380647
40
0.908533958709799
40
0.908533958709799
40
1
40
1
40
1
40
1
41
1
10
15.4621984225139
20
-2.10094616428637
30
0
41
1
10
15.3126029802826
20
-2.12612630964631
30
0
41
1
10
15.1622832344496
20
-2.14591534353082
30
0
41
1
10
14.8379680046754
20
-2.17618945642906
30
0
41
1
10
14.665227538766
20
-2.18468576186118
30
0
41
1
10
14.1485465594481
20
-2.1874256865222
30
0
41
1
10
13.8064010694169
20
-2.15890534945842
30
0
41
1
10
13.2904958637845
20
-2.0722393266789
30
0
41
1
10
13.1181783271783
20
-2.03599436299396
30
0
41
1
10
12.7717256256558
20
-1.9490663600923
30
0
41
1
10
12.5972654214588
20
-1.89825830808937
30
0
41
1
10
12.0783654017494
20
-1.7278150034897
30
0
41
1
10
11.735776845618
20
-1.58937469321549
30
0
41
1
10
11.2206815616585
20
-1.3520405225961
30
0
41
1
10
11.0488912834509
20
-1.26784643267962
30
0
41
1
10
10.7039798384233
20
-1.09067316647008
30
0
41
1
10
10.5305712100912
20
-0.997569944349749
30
0
41
1
10
9.66070362504428
20
-0.514577144956235
30
0
41
1
10
8.98197330188628
20
-0.0867433191489511
30
0
41
1
10
8.11572701808893
20
0.43457353735235
30
0
41
1
10
7.94121488568297
20
0.538537680936599
30
0
41
1
10
7.59513202488836
20
0.740223549551104
30
0
41
1
10
7.42290672768158
20
0.838308610842233
30
0
41
1
10
6.90720279731175
20
1.12221368688802
30
0
41
1
10
6.56464759921542
20
1.29762417172938
30
0
41
1
10
6.0471283123764
20
1.53206354113291
30
0
41
1
10
5.87400977890943
20
1.60553335689303
30
0
41
1
10
5.52585831619248
20
1.74140108891896
30
0
41
1
10
5.35255814775971
20
1.80303756974431
30
0
41
1
10
4.83344069940875
20
1.96800898082927
30
0
41
1
10
4.48831899640237
20
2.05141851778481
30
0
41
1
10
4.14076847532166
20
2.10569560364868
30
0
0
SPLINE
5
C2
100
AcDbEntity
8
1
62
256
6
ByLayer
370
18
48
1
60
0
100
AcDbSpline
70
4
71
3
72
8
73
4
40
0
40
0
40
0
40
0
40
1
40
1
40
1
40
1
41
1
10
37.9900499788187
20
-0.0953964358353971
30
0
41
1
10
37.9906375637556
20
-0.0777308243038703
30
0
41
1
10
37.9944576415835
20
-0.0554407826495265
30
0
41
1
10
37.9999557811345
20
-0.0321411342880822
30
0
0
SPLINE
5
C3
100
AcDbEntity
8
1
62
256
6
ByLayer
370
18
48
1
60
0
100
AcDbSpline
70
4
71
3
72
8
73
4
40
0
40
0
40
0
40
0
40
1
40
1
40
1
40
1
41
1
10
4.14076847532164
20
2.10569560364868
30
0
41
1
10
4.13215383004061
20
2.1070409558011
30
0
41
1
10
4.12361937152474
20
2.10840607353345
30
0
41
1
10
4.11531567718427
20
2.10983363402468
30
0
0
SPLINE
5
C4
100
AcDbEntity
8
1
62
256
6
ByLayer
370
18
48
1
60
0
100
AcDbSpline
70
4
71
3
72
10
73
6
40
0
40
0
40
0
40
0
40
0.5
40
0.5
40
1
40
1
40
1
40
1
41
1
10
4.1153156771845
20
2.10983363402462
30
0
41
1
10
4.09492351773685
20
2.11333942794778
30
0
41
1
10
4.07737679524479
20
2.11761128809573
30
0
41
1
10
4.05141750212044
20
2.12708137385738
30
0
41
1
10
4.04317099080939
20
2.13221591679218
30
0
41
1
10
4.0431755195585
20
2.13708550002369
30
0
0
SPLINE
5
C5
100
AcDbEntity
8
1
62
256
6
ByLayer
370
18
48
1
60
0
100
AcDbSpline
70
4
71
3
72
14
73
10
40
0
40
0
40
0
40
0
40
0.241758074058231
40
0.241758074058231
40
0.491508315401852
40
0.491508315401852
40
0.99100879808909
40
0.99100879808909
40
1
40
1
40
1
40
1
41
1
10
25.9017020352424
20
-2.08299154175225
30
0
41
1
10
25.735869872009
20
-2.08290844166905
30
0
41
1
10
25.5696335285004
20
-2.07618270827132
30
0
41
1
10
25.229905317374
20
-2.04859731639266
30
0
41
1
10
25.0564820666132
20
-2.02718623481005
30
0
41
1
10
24.5405176879787
20
-1.94287409658472
30
0
41
1
10
24.1990568285805
20
-1.85953223955588
30
0
41
1
10
23.8508994621062
20
-1.74993903041522
30
0
41
1
10
23.8447430755402
20
-1.74799342329013
30
0
41
1
10
23.8385864333106
20
-1.74604006322139
30
0
0
SPLINE
5
C6
100
AcDbEntity
8
1
62
256
6
ByLayer
370
13
48
1
60
0
100
AcDbSpline
70
4
71
3
72
24
73
20
40
0
40
0
40
0
40
0
40
0.0741709261919683
40
0.0741709261919683
40
0.151111782752173
40
0.151111782752173
40
0.458875208992987
40
0.458875208992987
40
0.612756922113394
40
0.612756922113394
40
0.689697778673598
40
0.689697778673598
40
0.766638635233801
40
0.766638635233801
40
0.920520348354208
40
0.920520348354208
40
0.997461204914412
40
0.997461204914412
40
1
40
1
40
1
40
1
41
1
10
23.8385864332721
20
-1.74604006320917
30
0
41
1
10
23.6737289110083
20
-1.69373458742874
30
0
41
1
10
23.5086880734977
20
-1.63587011605551
30
0
41
1
10
23.1711612730918
20
-1.5072750900182
30
0
41
1
10
22.9982470332784
20
-1.43587561177569
30
0
41
1
10
22.1335928977141
20
-1.05477152537486
30
0
41
1
10
21.4550090339886
20
-0.68082045416179
30
0
41
1
10
20.4156800853679
20
-0.0821124361680177
30
0
41
1
10
20.0724314804844
20
0.118925958625311
30
0
41
1
10
19.5576123042326
20
0.414558535664838
30
0
41
1
10
19.3859171813836
20
0.511941813726168
30
0
41
1
10
19.041475079155
20
0.702868855843207
30
0
41
1
10
18.868384700639
20
0.796828793308521
30
0
41
1
10
18.349549400218
20
1.06932160578123
30
0
41
1
10
18.0064832802984
20
1.23634956393784
30
0
41
1
10
17.491542040261
20
1.45913102999123
30
0
41
1
10
17.3197312120925
20
1.52859424505698
30
0
41
1
10
17.1416198463306
20
1.59475952567217
30
0
41
1
10
17.1359292411196
20
1.59686744696134
30
0
41
1
10
17.1302374639311
20
1.59896974427261
30
0
0
SPLINE
5
C7
100
AcDbEntity
8
1
62
256
6
ByLayer
370
13
48
1
60
0
100
AcDbSpline
70
4
71
3
72
32
73
28
40
0
40
0
40
0
40
0
40
0.117233023195939
40
0.117233023195939
40
0.17584953479391
40
0.17584953479391
40
0.234466046391882
40
0.234466046391882
40
0.293082557989853
40
0.293082557989853
40
0.351699069587824
40
0.351699069587824
40
0.468932092783767
40
0.468932092783767
40
0.527548604381738
40
0.527548604381738
40
0.58616511597971
40
0.58616511597971
40
0.703398139175653
40
0.703398139175653
40
0.820631162371595
40
0.820631162371595
40
0.879247673969568
40
0.879247673969568
40
0.937864185567541
40
0.937864185567541
40
1
40
1
40
1
40
1
41
1
10
37.2534482070583
20
-2.0891164015041
30
0
41
1
10
36.9093798536492
20
-2.0948582088252
30
0
41
1
10
36.5667487145914
20
-2.07140841576322
30
0
41
1
10
36.0507586072474
20
-1.99394672808057
30
0
41
1
10
35.8782118555334
20
-1.96104002836566
30
0
41
1
10
35.5323217085446
20
-1.88159578469381
30
0
41
1
10
35.359828652497
20
-1.83527150752479
30
0
41
1
10
35.0148792042888
20
-1.73021222844133
30
0
41
1
10
34.842426286254
20
-1.67147103957166
30
0
41
1
10
34.4966133796602
20
-1.54245997111613
30
0
41
1
10
34.3238602849257
20
-1.47240700544242
30
0
41
1
10
33.808684330775
20
-1.24904752961029
30
0
41
1
10
33.4678017467315
20
-1.0819553645608
30
0
41
1
10
32.9548476216904
20
-0.812256079775636
30
0
41
1
10
32.7836041834307
20
-0.719163373698166
30
0
41
1
10
32.4397002226409
20
-0.527900874770921
30
0
41
1
10
32.2663729503715
20
-0.429314903608571
30
0
41
1
10
31.7490624058293
20
-0.130930833865165
30
0
41
1
10
31.4075012982189
20
0.0702297518089097
30
0
41
1
10
30.7238214307766
20
0.464580464439081
30
0
41
1
10
30.3819349146351
20
0.658167277749158
30
0
41
1
10
29.8638944439369
20
0.934262684493859
30
0
41
1
10
29.6907967625714
20
1.0235222191761
30
0
41
1
10
29.3470401139411
20
1.19283162556951
30
0
41
1
10
29.1758437304604
20
1.2732974194106
30
0
41
1
10
28.8236999056591
20
1.42967573420941
30
0
41
1
10
28.6426763939664
20
1.50472845826528
30
0
41
1
10
28.4613727313557
20
1.57382275655806
30
0
0
SPLINE
5
C8
100
AcDbEntity
8
1
62
256
6
ByLayer
370
18
48
1
60
0
100
AcDbSpline
70
4
71
3
72
14
73
10
40
0
40
0
40
0
40
0
40
0.0389085574496784
40
0.0389085574496784
40
0.30359925870887
40
0.30359925870887
40
0.56828995996806
40
0.56828995996806
40
1
40
1
40
1
40
1
41
1
10
14.6452622782311
20
-2.07582090751512
30
0
41
1
10
14.6198715463049
20
-2.0757794551869
30
0
41
1
10
14.5944621373709
20
-2.07558136918595
30
0
41
1
10
14.3960385664803
20
-2.07280838061757
30
0
41
1
10
14.222880608583
20
-2.06305917942217
30
0
41
1
10
13.8789093915425
20
-2.02963476386409
30
0
41
1
10
13.7075488790026
20
-2.00588787222441
30
0
41
1
10
13.2571892656075
20
-1.92567194802217
30
0
41
1
10
12.9785813770592
20
-1.85806768634086
30
0
41
1
10
12.6985587635215
20
-1.77378273499025
30
0
0
SPLINE
5
C9
100
AcDbEntity
8
1
62
256
6
ByLayer
370
13
48
1
60
0
100
AcDbSpline
70
4
71
3
72
28
73
24
40
0
40
0
40
0
40
0
40
0.028518533609181
40
0.028518533609181
40
0.105804141950352
40
0.105804141950352
40
0.183089750291524
40
0.183089750291524
40
0.337660966973866
40
0.337660966973866
40
0.414946575315038
40
0.414946575315038
40
0.492232183656211
40
0.492232183656211
40
0.646803400338553
40
0.646803400338553
40
0.724089008679725
40
0.724089008679725
40
0.801374617020896
40
0.801374617020896
40
0.955945833703241
40
0.955945833703241
40
1
40
1
40
1
40
1
41
1
10
12.6985587633356
20
-1.77378273493434
30
0
41
1
10
12.6352056150916
20
-1.75471385706535
30
0
41
1
10
12.5717800529008
20
-1.73479116337882
30
0
41
1
10
12.3361161260644
20
-1.65776143750486
30
0
41
1
10
12.1626562021664
20
-1.59504345904722
30
0
41
1
10
11.8169462314243
20
-1.45939881149124
30
0
41
1
10
11.6449722388196
20
-1.38660104675103
30
0
41
1
10
11.1303396093831
20
-1.15530476939787
30
0
41
1
10
10.7890633870054
20
-0.983879500263811
30
0
41
1
10
10.2744369576822
20
-0.708958138207777
30
0
41
1
10
10.1024747903324
20
-0.614309035305581
30
0
41
1
10
9.75679384177363
20
-0.420452369209414
30
0
41
1
10
9.58325287386199
20
-0.321336259142868
30
0
41
1
10
9.066659807636
20
-0.0240969318799671
30
0
41
1
10
8.7250678291262
20
0.175616356524131
30
0
41
1
10
8.21139791820121
20
0.467896944271615
30
0
41
1
10
8.03998896727538
20
0.56415721538832
30
0
41
1
10
7.69598062552396
20
0.752933902840908
30
0
41
1
10
7.52286797653065
20
0.845654791667897
30
0
41
1
10
7.0035956950737
20
1.11374680616132
30
0
41
1
10
6.66107149265912
20
1.27715273207016
30
0
41
1
10
6.22113033290364
20
1.46183291870506
30
0
41
1
10
6.12358775180644
20
1.50122300164051
30
0
41
1
10
6.02599028938599
20
1.5389344121345
30
0
0
SPLINE
5
CA
100
AcDbEntity
8
1
62
256
6
ByLayer
370
18
48
1
60
0
100
AcDbSpline
70
4
71
3
72
34
73
30
40
0
40
0
40
0
40
0
40
0.125000000000009
40
0.125000000000009
40
0.250000000000018
40
0.250000000000018
40
0.312500000000017
40
0.312500000000017
40
0.375000000000015
40
0.375000000000015
40
0.406250000000014
40
0.406250000000014
40
0.437500000000013
40
0.437500000000013
40
0.468750000000013
40
0.468750000000013
40
0.500000000000012
40
0.500000000000012
40
0.531250000000011
40
0.531250000000011
40
0.56250000000001
40
0.56250000000001
40
0.625000000000009
40
0.625000000000009
40
0.750000000000006
40
0.750000000000006
40
0.875000000000003
40
0.875000000000003
40
1
40
1
40
1
40
1
41
1
10
37.4307182026566
20
-0.97084774912895
30
0
41
1
10
37.3493349647609
20
-0.944215954684353
30
0
41
1
10
37.2674795622773
20
-0.910080705914822
30
0
41
1
10
37.1082114827907
20
-0.827599258137724
30
0
41
1
10
37.0304668739881
20
-0.779537508860471
30
0
41
1
10
36.9182802895075
20
-0.691450976894174
30
0
41
1
10
36.8820600083149
20
-0.659676395909031
30
0
41
1
10
36.8140416890591
20
-0.589525402048082
30
0
41
1
10
36.7815967601847
20
-0.550741258007207
30
0
41
1
10
36.741885888128
20
-0.485193694351523
30
0
41
1
10
36.7302594161174
20
-0.462171198619927
30
0
41
1
10
36.7131552073823
20
-0.414181244515902
30
0
41
1
10
36.7076877461029
20
-0.388787503837108
30
0
41
1
10
36.7077860687317
20
-0.339746971433044
30
0
41
1
10
36.7135755172568
20
-0.317009183282266
30
0
41
1
10
36.7339985087696
20
-0.279485321556621
30
0
41
1
10
36.7483276821939
20
-0.264566970229623
30
0
41
1
10
36.7801268191779
20
-0.241224818805534
30
0
41
1
10
36.7979653534174
20
-0.232452822971112
30
0
41
1
10
36.8346024762122
20
-0.219112744881528
30
0
41
1
10
36.8536160905535
20
-0.214432053045897
30
0
41
1
10
36.9120687191287
20
-0.20443072244197
30
0
41
1
10
36.952404949768
20
-0.2031813663138
30
0
41
1
10
37.0731619730531
20
-0.208447040177077
30
0
41
1
10
37.1548660292209
20
-0.223792054953918
30
0
41
1
10
37.3190997851344
20
-0.267767753262433
30
0
41
1
10
37.4006031794743
20
-0.296425460894426
30
0
41
1
10
37.562555232937
20
-0.36520806848992
30
0
41
1
10
37.6427865014345
20
-0.405248981033992
30
0
41
1
10
37.7209050821141
20
-0.451921363098819
30
0
0
SPLINE
5
CB
100
AcDbEntity
8
1
62
256
6
ByLayer
370
18
48
1
60
0
100
AcDbSpline
70
4
71
3
72
8
73
4
40
0
40
0
40
0
40
0
40
1
40
1
40
1
40
1
41
1
10
37.9999557811298
20
0.0321411343080342
30
0
41
1
10
38.0000147467249
20
0.0107111302237399
30
0
41
1
10
38.00001473189
20
-0.0107165217056604
30
0
41
1
10
37.9999557811299
20
-0.0321411342733597
30
0
0
SPLINE
5
CC
100
AcDbEntity
8
1
62
256
6
ByLayer
370
18
48
1
60
0
100
AcDbSpline
70
4
71
3
72
10
73
6
40
0
40
0
40
0
40
0
40
0.5
40
0.5
40
1
40
1
40
1
40
1
41
1
10
37.1962028624034
20
0.597920675485483
30
0
41
1
10
37.3243624965701
20
0.596050428619833
30
0
41
1
10
37.4522499213701
20
0.59537221594428
30
0
41
1
10
37.7078942559471
20
0.594587329961485
30
0
41
1
10
37.8356229217499
20
0.594604340065445
30
0
41
1
10
37.9630278637165
20
0.596038971779393
30
0
0
SPLINE
5
CD
100
AcDbEntity
8
1
62
256
6
ByLayer
370
13
48
1
60
0
100
AcDbSpline
70
4
71
3
72
24
73
20
40
0
40
0
40
0
40
0
40
0.0413676116776662
40
0.0413676116776662
40
0.115108564625538
40
0.115108564625538
40
0.262590470521282
40
0.262590470521282
40
0.410072376417025
40
0.410072376417025
40
0.557554282312769
40
0.557554282312769
40
0.631295235260641
40
0.631295235260641
40
0.705036188208513
40
0.705036188208513
40
0.852518094104256
40
0.852518094104256
40
1
40
1
40
1
40
1
41
1
10
4.25053294817747
20
-2.06968973650416
30
0
41
1
10
4.25053964257509
20
-2.06971319402595
30
0
41
1
10
4.25054601501634
20
-2.0687117040365
30
0
41
1
10
4.25056297299716
20
-2.06307178717026
30
0
41
1
10
4.25057297237717
20
-2.05624206098923
30
0
41
1
10
4.25060177816687
20
-2.02634474455417
30
0
41
1
10
4.2506194322043
20
-1.99395737207584
30
0
41
1
10
4.25065772488188
20
-1.90342164825506
30
0
41
1
10
4.25067814258918
20
-1.84577006969334
30
0
41
1
10
4.25072459481186
20
-1.70800311251676
30
0
41
1
10
4.25075027121486
20
-1.62903229289134
30
0
41
1
10
4.25079306601901
20
-1.495946360321
30
0
41
1
10
4.25080802569295
20
-1.44912880285315
30
0
41
1
10
4.25083921074074
20
-1.35045676125634
30
0
41
1
10
4.2508554476081
20
-1.29855360511942
30
0
41
1
10
4.25090448096068
20
-1.13868016994459
30
0
41
1
10
4.250938016513
20
-1.02551362159377
30
0
41
1
10
4.25100215561721
20
-0.786099887702335
30
0
41
1
10
4.2510328544376
20
-0.659118513931475
30
0
41
1
10
4.25105765926148
20
-0.529360948021974
30
0
0
SPLINE
5
CE
100
AcDbEntity
8
1
62
256
6
ByLayer
370
18
48
1
60
0
100
AcDbSpline
70
4
71
3
72
10
73
6
40
0
40
0
40
0
40
0
40
0.995621199298218
40
0.995621199298218
40
1
40
1
40
1
40
1
41
1
10
4.04317551955899
20
2.13708550002275
30
0
41
1
10
4.04320147530521
20
2.16499468479898
30
0
41
1
10
4.04321952131542
20
2.17911427822531
30
0
41
1
10
4.04323195048719
20
2.17917161234217
30
0
41
1
10
4.04323310142405
20
2.17917132753298
30
0
41
1
10
4.04323286248064
20
2.17917010053002
30
0
0
SPLINE
5
CF
100
AcDbEntity
8
1
62
256
6
ByLayer
370
18
48
1
60
0
100
AcDbSpline
70
4
71
3
72
10
73
6
40
0
40
0
40
0
40
0
40
0.5
40
0.5
40
1
40
1
40
1
40
1
41
1
10
37.3695636696391
20
2.11455842411888
30
0
41
1
10
37.3457120322956
20
2.1346892161454
30
0
41
1
10
37.3227722508399
20
2.15159125100865
30
0
41
1
10
37.2799029689965
20
2.17781707866266
30
0
41
1
10
37.2598261284016
20
2.18728279039456
30
0
41
1
10
37.2410340467598
20
2.19308078194896
30
0
0
SPLINE
5
D0
100
AcDbEntity
8
1
62
256
6
ByLayer
370
18
48
1
60
0
100
AcDbSpline
70
4
71
3
72
8
73
4
40
0
40
0
40
0
40
0
40
1
40
1
40
1
40
1
41
1
10
37.9900499788187
20
0.0953964358355108
30
0
41
1
10
37.9906375637555
20
0.0777308243089863
30
0
41
1
10
37.9944576415814
20
0.0554407826619752
30
0
41
1
10
37.9999557811298
20
0.0321411343080911
30
0
0
SPLINE
5
D1
100
AcDbEntity
8
1
62
256
6
ByLayer
370
18
48
1
60
0
100
AcDbSpline
70
4
71
3
72
14
73
10
40
0
40
0
40
0
40
0
40
0.25
40
0.25
40
0.5
40
0.5
40
0.75
40
0.75
40
1
40
1
40
1
40
1
41
1
10
37.2534481345796
20
-2.08911640271364
30
0
41
1
10
37.2568455084865
20
-2.08870890008998
30
0
41
1
10
37.2596801252603
20
-2.08980015848243
30
0
41
1
10
37.2638086158318
20
-2.09604160018677
30
0
41
1
10
37.2650674962933
20
-2.10123314117959
30
0
41
1
10
37.2647428598194
20
-2.11719815589649
30
0
41
1
10
37.2630513782082
20
-2.12809296857404
30
0
41
1
10
37.2563123514499
20
-2.15360087614312
30
0
41
1
10
37.2513474483558
20
-2.16787554807436
30
0
41
1
10
37.2458771278738
20
-2.18124865073983
30
0
0
SPLINE
5
D2
100
AcDbEntity
8
1
62
256
6
ByLayer
370
18
48
1
60
0
100
AcDbSpline
70
4
71
3
72
26
73
22
40
0
40
0
40
0
40
0
40
0.0624999999999985
40
0.0624999999999985
40
0.124999999999997
40
0.124999999999997
40
0.187499999999996
40
0.187499999999996
40
0.249999999999994
40
0.249999999999994
40
0.374999999999995
40
0.374999999999995
40
0.499999999999996
40
0.499999999999996
40
0.624999999999997
40
0.624999999999997
40
0.749999999999998
40
0.749999999999998
40
0.874999999999999
40
0.874999999999999
40
1
40
1
40
1
40
1
41
1
10
35.2196936855342
20
0.967044818680591
30
0
41
1
10
35.2045353720367
20
0.901591715688994
30
0
41
1
10
35.1944380324736
20
0.833606883980053
30
0
41
1
10
35.1852868320001
20
0.692112771630008
30
0
41
1
10
35.1863995514847
20
0.619629000898698
30
0
41
1
10
35.1995127532343
20
0.474883712830035
30
0
41
1
10
35.2114719845464
20
0.402071789156821
30
0
41
1
10
35.2458457931681
20
0.255597833574569
30
0
41
1
10
35.2680461194354
20
0.183046993454695
30
0
41
1
10
35.3467144953513
20
-0.0292784580466048
30
0
41
1
10
35.4164327045178
20
-0.166440106232983
30
0
41
1
10
35.5743962993952
20
-0.420098238030334
30
0
41
1
10
35.6631901005096
20
-0.538341606826805
30
0
41
1
10
35.8559447458995
20
-0.761556881952203
30
0
41
1
10
35.9573791563507
20
-0.863618038814508
30
0
41
1
10
36.16754050114
20
-1.05338075064785
30
0
41
1
10
36.2763314047026
20
-1.14107951629367
30
0
41
1
10
36.5000952118375
20
-1.30450939081928
30
0
41
1
10
36.6153082534797
20
-1.38027900750976
30
0
41
1
10
36.8476258958655
20
-1.51889232023018
30
0
41
1
10
36.9651813281719
20
-1.58209412942287
30
0
41
1
10
37.084031794595
20
-1.6396351034106
30
0
0
SPLINE
5
D3
100
AcDbEntity
8
1
62
256
6
ByLayer
370
18
48
1
60
0
100
AcDbSpline
70
4
71
3
72
8
73
4
40
0
40
0
40
0
40
0
40
1
40
1
40
1
40
1
41
1
10
4.14076847532166
20
-2.10569560364868
30
0
41
1
10
4.13215383004061
20
-2.10704095580107
30
0
41
1
10
4.12361937152474
20
-2.10840607353345
30
0
41
1
10
4.11531567718424
20
-2.10983363402468
30
0
0
SPLINE
5
D4
100
AcDbEntity
8
1
62
256
6
ByLayer
370
18
48
1
60
0
100
AcDbSpline
70
4
71
3
72
10
73
6
40
0
40
0
40
0
40
0
40
0.5
40
0.5
40
1
40
1
40
1
40
1
41
1
10
37.369563669639
20
-2.11455842411888
30
0
41
1
10
37.3457120322956
20
-2.1346892161454
30
0
41
1
10
37.3227722508399
20
-2.15159125100865
30
0
41
1
10
37.2799029689965
20
-2.17781707866266
30
0
41
1
10
37.2598261284016
20
-2.18728279039456
30
0
41
1
10
37.2410340467598
20
-2.19308078194896
30
0
0
SPLINE
5
D5
100
AcDbEntity
8
1
62
256
6
ByLayer
370
18
48
1
60
0
100
AcDbSpline
70
4
71
3
72
32
73
28
40
0
40
0
40
0
40
0
40
0.124999999999986
40
0.124999999999986
40
0.249999999999973
40
0.249999999999973
40
0.499999999999945
40
0.499999999999945
40
0.562499999999941
40
0.562499999999941
40
0.624999999999938
40
0.624999999999938
40
0.749999999999918
40
0.749999999999918
40
0.812499999999908
40
0.812499999999908
40
0.843749999999904
40
0.843749999999904
40
0.859374999999907
40
0.859374999999907
40
0.867187499999913
40
0.867187499999913
40
0.874999999999918
40
0.874999999999918
40
0.937499999999959
40
0.937499999999959
40
1
40
1
40
1
40
1
41
1
10
35.2196936855342
20
0.967044818680534
30
0
41
1
10
35.2963743771921
20
0.886848727848587
30
0
41
1
10
35.3758783689599
20
0.811279105477723
30
0
41
1
10
35.5407632117809
20
0.669770117196634
30
0
41
1
10
35.6263730345251
20
0.60362951683797
30
0
41
1
10
35.890794400302
20
0.421315142501442
30
0
41
1
10
36.071325561983
20
0.323831927094289
30
0
41
1
10
36.303158057666
20
0.236896623777113
30
0
41
1
10
36.3498448297985
20
0.221322555373462
30
0
41
1
10
36.4439119967621
20
0.194100858197544
30
0
41
1
10
36.4914866083123
20
0.182431696943865
30
0
41
1
10
36.6334498075293
20
0.154384396954299
30
0
41
1
10
36.7272767050579
20
0.144719205564172
30
0
41
1
10
36.8665779628455
20
0.146166875113636
30
0
41
1
10
36.9125945856758
20
0.149340767001888
30
0
41
1
10
36.9805168203964
20
0.158582403971423
30
0
41
1
10
37.0028310274513
20
0.162863526172714
30
0
41
1
10
37.0364134320971
20
0.168907019964422
30
0
41
1
10
37.0479702573283
20
0.17036613390647
30
0
41
1
10
37.0611410370478
20
0.181931784371813
30
0
41
1
10
37.0641905982833
20
0.187529283472827
30
0
41
1
10
37.0675536206514
20
0.200120572274869
30
0
41
1
10
37.0689054842081
20
0.206611262427145
30
0
41
1
10
37.0812054285133
20
0.264947554991835
30
0
41
1
10
37.0899625512741
20
0.318003240561041
30
0
41
1
10
37.1013666523358
20
0.426022358092666
30
0
41
1
10
37.1044662731072
20
0.480636215143647
30
0
41
1
10
37.1054877738432
20
0.535732622922183
30
0
0
SPLINE
5
D6
100
AcDbEntity
8
1
62
256
6
ByLayer
370
18
48
1
60
0
100
AcDbSpline
70
4
71
3
72
8
73
4
40
0
40
0
40
0
40
0
40
1
40
1
40
1
40
1
41
1
10
37.2410340467598
20
2.19308078194896
30
0
41
1
10
37.1468322296243
20
2.19760069591644
30
0
41
1
10
37.0527090954192
20
2.19982347554523
30
0
41
1
10
36.9586008541954
20
2.19976017345334
30
0
0
SPLINE
5
D7
100
AcDbEntity
8
1
62
256
6
ByLayer
370
18
48
1
60
0
100
AcDbSpline
70
4
71
3
72
38
73
34
40
0
40
0
40
0
40
0
40
0.157996223456509
40
0.157996223456509
40
0.19994957302167
40
0.19994957302167
40
0.24190292258683
40
0.24190292258683
40
0.325809621717152
40
0.325809621717152
40
0.367762971282312
40
0.367762971282312
40
0.409716320847472
40
0.409716320847472
40
0.493623019977792
40
0.493623019977792
40
0.535576369542952
40
0.535576369542952
40
0.577529719108112
40
0.577529719108112
40
0.661436418238432
40
0.661436418238432
40
0.745343117368752
40
0.745343117368752
40
0.829249816499072
40
0.829249816499072
40
0.913156515629392
40
0.913156515629392
40
0.955109865194552
40
0.955109865194552
40
0.997063214759711
40
0.997063214759711
40
1
40
1
40
1
40
1
41
1
10
26.7797445848323
20
-2.09596443576311
30
0
41
1
10
26.1271341450522
20
-2.21358380319532
30
0
41
1
10
25.487495853009
20
-2.22411561461257
30
0
41
1
10
24.663362669638
20
-2.10184150037654
30
0
41
1
10
24.4890170065373
20
-2.0684616333759
30
0
41
1
10
24.1431307778899
20
-1.98806758424706
30
0
41
1
10
23.9710174414327
20
-1.94099474996929
30
0
41
1
10
23.4558743833392
20
-1.78046862004572
30
0
41
1
10
23.1137325786148
20
-1.64800097403324
30
0
41
1
10
22.5971394176872
20
-1.41630291743235
30
0
41
1
10
22.4242481878392
20
-1.33367008866043
30
0
41
1
10
22.0763104654961
20
-1.15863779990875
30
0
41
1
10
21.9034406496704
20
-1.06728340482783
30
0
41
1
10
21.3867689990094
20
-0.783896759199763
30
0
41
1
10
21.044559354588
20
-0.58307830064345
30
0
41
1
10
20.5293375766861
20
-0.272448630860623
30
0
41
1
10
20.357197045156
20
-0.167469811096367
30
0
41
1
10
20.0111675186995
20
0.0438358615919867
30
0
41
1
10
19.8367788084053
20
0.150647198907336
30
0
41
1
10
19.3177811369893
20
0.465850475274436
30
0
41
1
10
18.9749955344911
20
0.66994473549633
30
0
41
1
10
18.2889360109268
20
1.05542044878715
30
0
41
1
10
17.9452370908541
20
1.23615595585321
30
0
41
1
10
17.2496215607728
20
1.56278522963672
30
0
41
1
10
16.9055532620469
20
1.70412898156297
30
0
41
1
10
16.2191320105557
20
1.93616485451338
30
0
41
1
10
15.8765154039378
20
2.02694371280327
30
0
41
1
10
15.3576034111017
20
2.12010836170231
30
0
41
1
10
15.1831604536248
20
2.14401772071798
30
0
41
1
10
14.8368405356956
20
2.17624295840463
30
0
41
1
10
14.6645679558669
20
2.18469961879933
30
0
41
1
10
14.4806116528726
20
2.18566403096432
30
0
41
1
10
14.468578972823
20
2.18569008192804
30
0
41
1
10
14.4565481558024
20
2.18567912284956
30
0
0
SPLINE
5
D8
100
AcDbEntity
8
1
62
256
6
ByLayer
370
18
48
1
60
0
100
AcDbSpline
70
4
71
3
72
8
73
4
40
0
40
0
40
0
40
0
40
1
40
1
40
1
40
1
41
1
10
4.30112634199475
20
-2.07856549216922
30
0
41
1
10
4.24773074840189
20
-2.08829167077025
30
0
41
1
10
4.19428223483393
20
-2.09733834119686
30
0
41
1
10
4.14076847532164
20
-2.10569560364868
30
0
0
SPLINE
5
D9
100
AcDbEntity
8
1
62
256
6
ByLayer
370
18
48
1
60
0
100
AcDbSpline
70
4
71
3
72
27
73
23
40
0
40
0
40
0
40
0
40
0.142269695350839
40
0.142269695350839
40
0.213747220738269
40
0.213747220738269
40
0.285224746125699
40
0.285224746125699
40
0.42817979690056
40
0.42817979690056
40
0.499657322287989
40
0.499657322287989
40
0.57113484767542
40
0.57113484767542
40
0.71408989845028
40
0.71408989845028
40
0.78556742383771
40
0.78556742383771
40
0.85704494922514
40
0.92852247461257
40
0.92852247461257
40
1
40
1
40
1
40
1
41
1
10
4.04323271909013
20
-2.17917082239742
30
0
41
1
10
4.04324561837447
20
-2.17909428685513
30
0
41
1
10
4.04325340468085
20
-2.16521919295255
30
0
41
1
10
4.04326235347383
20
-2.12427716090693
30
0
41
1
10
4.04326487135637
20
-2.10718547882527
30
0
41
1
10
4.04326968597906
20
-2.06601159632032
30
0
41
1
10
4.04327197974001
20
-2.04193383623934
30
0
41
1
10
4.04327938500614
20
-1.96079521626115
30
0
41
1
10
4.04328512003937
20
-1.89449890735534
30
0
41
1
10
4.04329786149958
20
-1.77674322844129
30
0
41
1
10
4.04330281915725
20
-1.73416380181609
30
0
41
1
10
4.04331426498882
20
-1.64396055233223
30
0
41
1
10
4.04332073266795
20
-1.59646140143761
30
0
41
1
10
4.04334249697479
20
-1.4469641102643
30
0
41
1
10
4.04336021366908
20
-1.33803297752559
30
0
41
1
10
4.04339105019864
20
-1.16028699034396
30
0
41
1
10
4.04340195907267
20
-1.09901024721594
30
0
41
1
10
4.04342435424036
20
-0.974207950980144
30
0
41
1
10
4.04344741481077
20
-0.846650580650476
30
0
41
1
10
4.04347082498774
20
-0.713645161516496
30
0
41
1
10
4.04349380106265
20
-0.577868518516198
30
0
41
1
10
4.0435051283541
20
-0.508203541885365
30
0
41
1
10
4.04351566920468
20
-0.438373885721091
30
0
0
SPLINE
5
DA
100
AcDbEntity
8
1
62
256
6
ByLayer
370
18
48
1
60
0
100
AcDbSpline
70
4
71
3
72
8
73
4
40
0
40
0
40
0
40
0
40
1
40
1
40
1
40
1
41
1
10
37.9999557811298
20
0.0321411343080626
30
0
41
1
10
37.9949126736182
20
0.0145561107035519
30
0
41
1
10
37.9871844936387
20
-0.003946852030424
30
0
41
1
10
37.9790598927489
20
-0.0172594529510661
30
0
0
SPLINE
5
DB
100
AcDbEntity
8
1
62
256
6
ByLayer
370
18
48
1
60
0
100
AcDbSpline
70
4
71
3
72
30
73
26
40
0
40
0
40
0
40
0
40
0.0634151613538722
40
0.0634151613538722
40
0.126830322707744
40
0.126830322707744
40
0.253660645415489
40
0.253660645415489
40
0.317075806769361
40
0.317075806769361
40
0.380490968123233
40
0.380490968123233
40
0.507321290830977
40
0.507321290830977
40
0.570736452184849
40
0.570736452184849
40
0.63415161353872
40
0.63415161353872
40
0.760981936246462
40
0.760981936246462
40
0.887812258954205
40
0.887812258954205
40
0.951227420308077
40
0.951227420308077
40
1
40
1
40
1
40
1
41
1
10
6.17745425401438
20
1.19057043563259
30
0
41
1
10
6.34078364384337
20
1.10577825154596
30
0
41
1
10
6.50408822932332
20
1.01909411267837
30
0
41
1
10
6.82986768570197
20
0.841067617524715
30
0
41
1
10
6.99209782134943
20
0.749340227015807
30
0
41
1
10
7.47659680892923
20
0.465568673881421
30
0
41
1
10
7.80119458751699
20
0.272283408199769
30
0
41
1
10
8.28859521395071
20
-0.0271359819896588
30
0
41
1
10
8.45275640070309
20
-0.127197456364286
30
0
41
1
10
8.78049019012653
20
-0.324676724748002
30
0
41
1
10
8.94338202865796
20
-0.422402977307485
30
0
41
1
10
9.42914972731603
20
-0.71245133855092
30
0
41
1
10
9.75337233542001
20
-0.894876160632464
30
0
41
1
10
10.2383511527792
20
-1.15513157471969
30
0
41
1
10
10.4008070003352
20
-1.23809503985797
30
0
41
1
10
10.7275575281927
20
-1.39615940780226
30
0
41
1
10
10.8921062752018
20
-1.47190633551477
30
0
41
1
10
11.3806653923851
20
-1.68471076281983
30
0
41
1
10
11.7054259755161
20
-1.80364464989381
30
0
41
1
10
12.3506419884621
20
-1.99934642423023
30
0
41
1
10
12.6755460434422
20
-2.07246399322276
30
0
41
1
10
13.1646005601054
20
-2.14501938463397
30
0
41
1
10
13.3289744143751
20
-2.16239607711611
30
0
41
1
10
13.6176163294322
20
-2.18101989134948
30
0
41
1
10
13.7426165888099
20
-2.18516404965124
30
0
41
1
10
13.8671348192654
20
-2.18531287053358
30
0
0
SPLINE
5
DC
100
AcDbEntity
8
1
62
256
6
ByLayer
370
18
48
1
60
0
100
AcDbSpline
70
4
71
3
72
62
73
58
40
0
40
0
40
0
40
0
40
0.02112190125973
40
0.02112190125973
40
0.0561531337840726
40
0.0561531337840726
40
0.0911843663084149
40
0.0911843663084149
40
0.126215598832757
40
0.126215598832757
40
0.1612468313571
40
0.1612468313571
40
0.231309296405785
40
0.231309296405785
40
0.266340528930127
40
0.266340528930127
40
0.301371761454468
40
0.301371761454468
40
0.336402993978812
40
0.336402993978812
40
0.371434226503154
40
0.371434226503154
40
0.406465459027497
40
0.406465459027497
40
0.44149669155184
40
0.44149669155184
40
0.476527924076183
40
0.476527924076183
40
0.511559156600526
40
0.511559156600526
40
0.546590389124869
40
0.546590389124869
40
0.581621621649212
40
0.581621621649212
40
0.616652854173554
40
0.616652854173554
40
0.651684086697898
40
0.651684086697898
40
0.68671531922224
40
0.68671531922224
40
0.721746551746583
40
0.721746551746583
40
0.756777784270926
40
0.756777784270926
40
0.791809016795269
40
0.791809016795269
40
0.826840249319612
40
0.826840249319612
40
0.861871481843955
40
0.861871481843955
40
0.896902714368298
40
0.896902714368298
40
0.931933946892641
40
0.931933946892641
40
0.966965179416984
40
0.966965179416984
40
1
40
1
40
1
40
1
41
1
10
22.4617421578111
20
1.61419594989942
30
0
41
1
10
22.5592050719151
20
1.65450657845875
30
0
41
1
10
22.6565508972612
20
1.69314213127095
30
0
41
1
10
22.9151855666443
20
1.7911461681735
30
0
41
1
10
23.0772661364168
20
1.84651102947578
30
0
41
1
10
23.4027900633765
20
1.94593257000287
30
0
41
1
10
23.5663924729571
20
1.99031431467259
30
0
41
1
10
23.8928879517793
20
2.06675799316236
30
0
41
1
10
24.0557604473319
20
2.0980082460689
30
0
41
1
10
24.3806331711242
20
2.14743662357171
30
0
41
1
10
24.5423186523987
20
2.16571411716669
30
0
41
1
10
25.0259876751246
20
2.20057796593216
30
0
41
1
10
25.3501322272278
20
2.19714032988915
30
0
41
1
10
25.8372918844494
20
2.15093389763658
30
0
41
1
10
26.0015900759429
20
2.12871840016351
30
0
41
1
10
26.328529823687
20
2.07161242590522
30
0
41
1
10
26.4909178203342
20
2.03659109663542
30
0
41
1
10
26.8141636714946
20
1.95390095013647
30
0
41
1
10
26.9759015600539
20
1.90687313253426
30
0
41
1
10
27.2994507596615
20
1.80175438337295
30
0
41
1
10
27.460989249477
20
1.74340239802913
30
0
41
1
10
27.7840234636651
20
1.61510228026202
30
0
41
1
10
27.9464836428091
20
1.54621456662119
30
0
41
1
10
28.2730947967699
20
1.398846763504
30
0
41
1
10
28.4372725374775
20
1.31972314779947
30
0
41
1
10
28.7622656243995
20
1.1540088956217
30
0
41
1
10
28.9245504010933
20
1.06842596967906
30
0
41
1
10
29.2485519311134
20
0.891831857567666
30
0
41
1
10
29.4099903497284
20
0.800395563468726
30
0
41
1
10
29.7322117337025
20
0.611842564805386
30
0
41
1
10
29.8939535009635
20
0.516241710070489
30
0
41
1
10
30.2184705601742
20
0.322121666918349
30
0
41
1
10
30.3809331108809
20
0.223076353091244
30
0
41
1
10
30.7069478870495
20
0.0219003256024166
30
0
41
1
10
30.8709439811859
20
-0.0784338509944007
30
0
41
1
10
31.1965130859427
20
-0.276336274055495
30
0
41
1
10
31.35840617178
20
-0.374757704548926
30
0
41
1
10
31.6809254659125
20
-0.569625695385838
30
0
41
1
10
31.8425031603191
20
-0.664533204178895
30
0
41
1
10
32.1660443605989
20
-0.84982475741316
30
0
41
1
10
32.3276985057981
20
-0.94068192312352
30
0
41
1
10
32.6514252252607
20
-1.11764974391002
30
0
41
1
10
32.8143763155218
20
-1.20245810061405
30
0
41
1
10
33.1422973632249
20
-1.36495934185908
30
0
41
1
10
33.3052038978752
20
-1.44215837303756
30
0
41
1
10
33.6289543905118
20
-1.58744823594836
30
0
41
1
10
33.7908291257608
20
-1.6544479710704
30
0
41
1
10
34.1143303917187
20
-1.77792824789182
30
0
41
1
10
34.2756456507742
20
-1.83470245642567
30
0
41
1
10
34.5980676065863
20
-1.93734685092213
30
0
41
1
10
34.7600498546967
20
-1.98249445823069
30
0
41
1
10
35.0853767042951
20
-2.06072664432395
30
0
41
1
10
35.2488370215181
20
-2.09404300493736
30
0
41
1
10
35.5752460693099
20
-2.14758368264322
30
0
41
1
10
35.7386293154307
20
-2.16735278534094
30
0
41
1
10
36.056167636933
20
-2.192751250193
30
0
41
1
10
36.2100120743361
20
-2.19915033490048
30
0
41
1
10
36.3639447189667
20
-2.1993697534665
30
0
0
SPLINE
5
DD
100
AcDbEntity
8
1
62
256
6
ByLayer
370
18
48
1
60
0
100
AcDbSpline
70
4
71
3
72
12
73
8
40
0
40
0
40
0
40
0
40
0.25
40
0.25
40
0.499999999999999
40
0.499999999999999
40
1
40
1
40
1
40
1
41
1
10
37.1054877738432
20
0.535732622922183
30
0
41
1
10
37.1056704623017
20
0.54558624069611
30
0
41
1
10
37.1086391022926
20
0.555365902386711
30
0
41
1
10
37.1196833675954
20
0.572181595578058
30
0
41
1
10
37.1277311885669
20
0.579214694114
30
0
41
1
10
37.154595282103
20
0.594670428277311
30
0
41
1
10
37.1756063413638
20
0.598221242658326
30
0
41
1
10
37.1962028624034
20
0.597920675485483
30
0
0
SPLINE
5
DE
100
AcDbEntity
8
1
62
256
6
ByLayer
370
18
48
1
60
0
100
AcDbSpline
70
4
71
3
72
10
73
6
40
0
40
0
40
0
40
0
40
0.5
40
0.5
40
1
40
1
40
1
40
1
41
1
10
37.369563669639
20
2.11455842411891
30
0
41
1
10
37.4610910832145
20
1.85944947418122
30
0
41
1
10
37.5575004100477
20
1.60534956323173
30
0
41
1
10
37.7564020885775
20
1.0986976443661
30
0
41
1
10
37.8588861949696
20
0.846476340523594
30
0
41
1
10
37.9630278637163
20
0.596038971779137
30
0
0
SPLINE
5
DF
100
AcDbEntity
8
1
62
256
6
ByLayer
370
18
48
1
60
0
100
AcDbSpline
70
4
71
3
72
68
73
64
40
0
40
0
40
0
40
0
40
0.0247946242380871
40
0.0247946242380871
40
0.0579389159191336
40
0.0579389159191336
40
0.0910832076001801
40
0.0910832076001801
40
0.124227499281227
40
0.124227499281227
40
0.157371790962273
40
0.157371790962273
40
0.19051608264332
40
0.19051608264332
40
0.223660374324366
40
0.223660374324366
40
0.256804666005413
40
0.256804666005413
40
0.289948957686459
40
0.289948957686459
40
0.323093249367506
40
0.323093249367506
40
0.356237541048552
40
0.356237541048552
40
0.389381832729599
40
0.389381832729599
40
0.422526124410645
40
0.422526124410645
40
0.455670416091692
40
0.455670416091692
40
0.488814707772739
40
0.488814707772739
40
0.521958999453785
40
0.521958999453785
40
0.555103291134831
40
0.555103291134831
40
0.588247582815878
40
0.588247582815878
40
0.621391874496925
40
0.621391874496925
40
0.654536166177971
40
0.654536166177971
40
0.687680457859018
40
0.687680457859018
40
0.720824749540064
40
0.720824749540064
40
0.753969041221111
40
0.753969041221111
40
0.787113332902157
40
0.787113332902157
40
0.820257624583204
40
0.820257624583204
40
0.85340191626425
40
0.85340191626425
40
0.886546207945297
40
0.886546207945297
40
0.919690499626343
40
0.919690499626343
40
0.95283479130739
40
0.95283479130739
40
0.985979082988436
40
0.985979082988436
40
1
40
1
40
1
40
1
41
1
10
33.7507819706714
20
-1.62400678979736
30
0
41
1
10
33.6386633662611
20
-1.66507675830226
30
0
41
1
10
33.5265305378854
20
-1.70382419019171
30
0
41
1
10
33.2643774922055
20
-1.78869682029151
30
0
41
1
10
33.1140624890547
20
-1.83262902914714
30
0
41
1
10
32.8119321559424
20
-1.91075494116185
30
0
41
1
10
32.6597347934115
20
-1.94504260488884
30
0
41
1
10
32.356549151031
20
-2.00184203335149
30
0
41
1
10
32.2052558056008
20
-2.02428839568472
30
0
41
1
10
31.9022739197729
20
-2.05927372376067
30
0
41
1
10
31.7506211356344
20
-2.07178507496343
30
0
41
1
10
31.4472440655018
20
-2.08623827914982
30
0
41
1
10
31.2956148559373
20
-2.08806421450453
30
0
41
1
10
30.9927211850784
20
-2.08040870405355
30
0
41
1
10
30.8412674469676
20
-2.0711168079086
30
0
41
1
10
30.5383088372248
20
-2.04024735662023
30
0
41
1
10
30.386447745747
20
-2.01800475257471
30
0
41
1
10
30.0831169592177
20
-1.96374524976463
30
0
41
1
10
29.9318729865596
20
-1.93281453797232
30
0
41
1
10
29.6303856450879
20
-1.86057503231854
30
0
41
1
10
29.4803356887198
20
-1.81925921652939
30
0
41
1
10
29.1800063913579
20
-1.72609665239958
30
0
41
1
10
29.0297387454345
20
-1.67531063792589
30
0
41
1
10
28.7289058797778
20
-1.56578874107731
30
0
41
1
10
28.5785545737945
20
-1.50653456898593
30
0
41
1
10
28.2765341442845
20
-1.37882355169094
30
0
41
1
10
28.1243706965022
20
-1.3104160278385
30
0
41
1
10
27.8201178381955
20
-1.16837536159946
30
0
41
1
10
27.6684511027737
20
-1.09434156253818
30
0
41
1
10
27.3655053032165
20
-0.939807605746722
30
0
41
1
10
27.2138285955907
20
-0.859648765257759
30
0
41
1
10
26.9098386924822
20
-0.695953438655039
30
0
41
1
10
26.7575139929756
20
-0.611964845102591
30
0
41
1
10
26.4542346943775
20
-0.440671017174083
30
0
41
1
10
26.3027544736648
20
-0.353703870805106
30
0
41
1
10
25.999242225813
20
-0.17895407130132
30
0
41
1
10
25.8474081298879
20
-0.0910333651139013
30
0
41
1
10
25.5434522304882
20
0.0862861552325285
30
0
41
1
10
25.3918700533389
20
0.174943331462629
30
0
41
1
10
25.0884746235683
20
0.349430834760568
30
0
41
1
10
24.9366984966373
20
0.435691451067839
30
0
41
1
10
24.6333890182672
20
0.606884538609506
30
0
41
1
10
24.4812868270852
20
0.691730667549194
30
0
41
1
10
24.1782471457134
20
0.854993690402011
30
0
41
1
10
24.0271997956286
20
0.933548760700319
30
0
41
1
10
23.7261505684232
20
1.08687341067102
30
0
41
1
10
23.5762958690311
20
1.16115300134047
30
0
41
1
10
23.2762779370623
20
1.30177958175841
30
0
41
1
10
23.1260705311891
20
1.36791817198275
30
0
41
1
10
22.8254933279086
20
1.49425616685878
30
0
41
1
10
22.6753399724202
20
1.55457417272814
30
0
41
1
10
22.373649433704
20
1.66604525322873
30
0
41
1
10
22.2218186302968
20
1.71711482956888
30
0
41
1
10
21.9174079576299
20
1.80997295932798
30
0
41
1
10
21.765790308517
20
1.85268596532049
30
0
41
1
10
21.4627202952009
20
1.92710254040171
30
0
41
1
10
21.3110619461103
20
1.95861981491637
30
0
41
1
10
21.0069638581006
20
2.01039678742319
30
0
41
1
10
20.8545467812346
20
2.03169787670478
30
0
41
1
10
20.5518950757597
20
2.06365959567535
30
0
41
1
10
20.4011494267792
20
2.07373067972881
30
0
41
1
10
20.1869132671038
20
2.0794877958661
30
0
41
1
10
20.1232735978559
20
2.08018005082948
30
0
41
1
10
20.0596870415405
20
2.0799402587719
30
0
0
SPLINE
5
E0
100
AcDbEntity
8
1
62
256
6
ByLayer
370
18
48
1
60
0
100
AcDbSpline
70
4
71
3
72
28
73
24
40
0
40
0
40
0
40
0
40
0.0153958161578888
40
0.0153958161578888
40
0.104905287416263
40
0.104905287416263
40
0.194414758674638
40
0.194414758674638
40
0.283924229933012
40
0.283924229933012
40
0.373433701191386
40
0.373433701191386
40
0.46294317244976
40
0.46294317244976
40
0.552452643708134
40
0.552452643708134
40
0.641962114966508
40
0.641962114966508
40
0.820981057483254
40
0.820981057483254
40
0.910490528741627
40
0.910490528741627
40
1
40
1
40
1
40
1
41
1
10
11.2527685186406
20
-1.61244545250071
30
0
41
1
10
11.226923925495
20
-1.62185504909041
30
0
41
1
10
11.201080430738
20
-1.63112244617207
30
0
41
1
10
11.0249917178596
20
-1.69325324036447
30
0
41
1
10
10.8747015589833
20
-1.74151418354492
30
0
41
1
10
10.5731966158931
20
-1.83045481926595
30
0
41
1
10
10.4219662049425
20
-1.87069124511584
30
0
41
1
10
10.1182109386433
20
-1.94052623516629
30
0
41
1
10
9.96576913477361
20
-1.96918936570467
30
0
41
1
10
9.66177147504604
20
-2.01726873393923
30
0
41
1
10
9.50979640848271
20
-2.03649131149834
30
0
41
1
10
9.2057824125915
20
-2.06362167648356
30
0
41
1
10
9.05365855723258
20
-2.07091783275825
30
0
41
1
10
8.74907408528634
20
-2.07412840534335
30
0
41
1
10
8.59733380154202
20
-2.07096948460941
30
0
41
1
10
8.29479990216799
20
-2.05360930067616
30
0
41
1
10
8.14422078137233
20
-2.03927280548771
30
0
41
1
10
7.69287899101857
20
-1.97839189556575
30
0
41
1
10
7.39192556605607
20
-1.91816713419212
30
0
41
1
10
6.93892992837402
20
-1.79597207017647
30
0
41
1
10
6.78749315610449
20
-1.75026737753268
30
0
41
1
10
6.48293455058592
20
-1.64979271074964
30
0
41
1
10
6.33005999097043
20
-1.59500084982389
30
0
41
1
10
6.17745425401446
20
-1.53552699478152
30
0
0
SPLINE
5
E1
100
AcDbEntity
8
1
62
256
6
ByLayer
370
18
48
1
60
0
100
AcDbSpline
70
4
71
3
72
8
73
4
40
0
40
0
40
0
40
0
40
1
40
1
40
1
40
1
41
1
10
37.2458771278726
20
-2.18124865074248
30
0
41
1
10
37.2442633144729
20
-2.18519388436232
30
0
41
1
10
37.2426489490795
20
-2.18913793412796
30
0
41
1
10
37.2410340467598
20
-2.19308078194894
30
0
0
SPLINE
5
E2
100
AcDbEntity
8
1
62
256
6
ByLayer
370
18
48
1
60
0
100
AcDbSpline
70
4
71
3
72
50
73
46
40
0
40
0
40
0
40
0
40
0.0571199503667312
40
0.0571199503667312
40
0.127373840583003
40
0.127373840583003
40
0.162500785691138
40
0.162500785691138
40
0.197627730799274
40
0.197627730799274
40
0.267881621015544
40
0.267881621015544
40
0.30300856612368
40
0.30300856612368
40
0.338135511231816
40
0.338135511231816
40
0.408389401448086
40
0.408389401448086
40
0.478643291664356
40
0.478643291664356
40
0.548897181880627
40
0.548897181880627
40
0.619151072096897
40
0.619151072096897
40
0.654278017205032
40
0.654278017205032
40
0.689404962313167
40
0.689404962313167
40
0.724531907421302
40
0.724531907421302
40
0.759658852529438
40
0.759658852529438
40
0.794785797637573
40
0.794785797637573
40
0.829912742745708
40
0.829912742745708
40
0.865039687853843
40
0.865039687853843
40
0.900166632961978
40
0.900166632961978
40
0.935293578070113
40
0.935293578070113
40
0.970420523178249
40
0.970420523178249
40
1
40
1
40
1
40
1
41
1
10
11.2375241988829
20
1.62001585148386
30
0
41
1
10
11.502017911045
20
1.72844320437281
30
0
41
1
10
11.7657374278634
20
1.82193783853197
30
0
41
1
10
12.3506419884621
20
1.9993464242302
30
0
41
1
10
12.6755460434422
20
2.07246399322273
30
0
41
1
10
13.1646005601053
20
2.14501938463394
30
0
41
1
10
13.328974414375
20
2.16239607711608
30
0
41
1
10
13.6552894546139
20
2.1834506446406
30
0
41
1
10
13.8176285066802
20
2.18729614209627
30
0
41
1
10
14.3022041506706
20
2.1785039467436
30
0
41
1
10
14.626285288561
20
2.14631886173754
30
0
41
1
10
15.11209926607
20
2.05775768509469
30
0
41
1
10
15.2750074447059
20
2.02189149626903
30
0
41
1
10
15.6029083396244
20
1.93762346497954
30
0
41
1
10
15.7667012785481
20
1.88923019737266
30
0
41
1
10
16.2533804640914
20
1.72644236348904
30
0
41
1
10
16.5775630027975
20
1.59832698145894
30
0
41
1
10
17.2229827535995
20
1.30093385715063
30
0
41
1
10
17.5489288361242
20
1.13687063215741
30
0
41
1
10
18.2028636665345
20
0.774486466496967
30
0
41
1
10
18.5281881918404
20
0.586893936031231
30
0
41
1
10
19.1734219803352
20
0.195782143089986
30
0
41
1
10
19.4976498006214
20
-0.0006552509306914
30
0
41
1
10
19.9846207176808
20
-0.299733021881394
30
0
41
1
10
20.1485856677653
20
-0.398622074201597
30
0
41
1
10
20.4764895380955
20
-0.592789748950992
30
0
41
1
10
20.6398527911264
20
-0.688459316787714
30
0
41
1
10
20.9658066563506
20
-0.876215531583739
30
0
41
1
10
21.1293437690484
20
-0.966855028086741
30
0
41
1
10
21.4574816692397
20
-1.14184205137954
30
0
41
1
10
21.6208238034509
20
-1.22608345471741
30
0
41
1
10
21.9450289980449
20
-1.38673714828977
30
0
41
1
10
22.1070870072024
20
-1.46196154671532
30
0
41
1
10
22.4309690744598
20
-1.60285328190284
30
0
41
1
10
22.5924861683575
20
-1.66886618222441
30
0
41
1
10
22.9151855666442
20
-1.79114616817347
30
0
41
1
10
23.0772661364167
20
-1.84651102947578
30
0
41
1
10
23.4027900633764
20
-1.94593257000287
30
0
41
1
10
23.5663924729572
20
-1.99031431467256
30
0
41
1
10
23.8928879517792
20
-2.06675799316238
30
0
41
1
10
24.0557604473319
20
-2.0980082460689
30
0
41
1
10
24.3806331711242
20
-2.14743662357171
30
0
41
1
10
24.5423186523987
20
-2.16571411716666
30
0
41
1
10
24.8393033153364
20
-2.18712137685839
30
0
41
1
10
24.9753660737947
20
-2.19217770004505
30
0
41
1
10
25.1116500738027
20
-2.19245313433566
30
0
0
SPLINE
5
E3
100
AcDbEntity
8
1
62
256
6
ByLayer
370
18
48
1
60
0
100
AcDbSpline
70
4
71
3
72
22
73
18
40
0
40
0
40
0
40
0
40
0.0572428032021925
40
0.0572428032021925
40
0.191922402744736
40
0.191922402744736
40
0.32660200228728
40
0.32660200228728
40
0.461281601829825
40
0.461281601829825
40
0.595961201372369
40
0.595961201372369
40
0.730640800914912
40
0.730640800914912
40
0.865320400457457
40
0.865320400457457
40
1
40
1
40
1
40
1
41
1
10
33.7462756177826
20
1.6345839218956
30
0
41
1
10
33.8150597574987
20
1.66275520228788
30
0
41
1
10
33.8838309676616
20
1.68994672916278
30
0
41
1
10
34.1143303917188
20
1.77792824789182
30
0
41
1
10
34.2756456507742
20
1.83470245642567
30
0
41
1
10
34.5980676065863
20
1.93734685092213
30
0
41
1
10
34.7600498546967
20
1.98249445823069
30
0
41
1
10
35.0853767042951
20
2.06072664432395
30
0
41
1
10
35.2488370215182
20
2.09404300493736
30
0
41
1
10
35.5752460693099
20
2.14758368264324
30
0
41
1
10
35.7386293154307
20
2.16735278534094
30
0
41
1
10
36.0654811973341
20
2.1934962000793
30
0
41
1
10
36.2286058310334
20
2.19990212475062
30
0
41
1
10
36.5551018869403
20
2.19878141557953
30
0
41
1
10
36.7188036402408
20
2.19128276336684
30
0
41
1
10
37.0449595720289
20
2.16303949216453
30
0
41
1
10
37.207392480606
20
2.14218231002386
30
0
41
1
10
37.3695636696391
20
2.11455842411877
30
0
0
SPLINE
5
E4
100
AcDbEntity
8
1
62
256
6
ByLayer
370
18
48
1
60
0
100
AcDbSpline
70
4
71
3
72
8
73
4
40
0
40
0
40
0
40
0
40
1
40
1
40
1
40
1
41
1
10
37.9790598927489
20
-0.0172594529510377
30
0
41
1
10
37.8914831321106
20
-0.16075874357594
30
0
41
1
10
37.8054262003974
20
-0.305641197905743
30
0
41
1
10
37.7209050821149
20
-0.451921363095892
30
0
0
SPLINE
5
E5
100
AcDbEntity
8
1
62
256
6
ByLayer
370
13
48
1
60
0
100
AcDbSpline
70
4
71
3
72
8
73
4
40
0
40
0
40
0
40
0
40
1
40
1
40
1
40
1
41
1
10
4.14076847532164
20
-2.10569560364868
30
0
41
1
10
4.15935573255041
20
-2.09540645363265
30
0
41
1
10
4.17862287351608
20
-2.08867878121095
30
0
41
1
10
4.19848012254474
20
-2.08541994665094
30
0
0
SPLINE
5
E6
100
AcDbEntity
8
1
62
256
6
ByLayer
370
18
48
1
60
0
100
AcDbSpline
70
4
71
3
72
34
73
30
40
0
40
0
40
0
40
0
40
0.0818642769101853
40
0.0818642769101853
40
0.184644478124986
40
0.184644478124986
40
0.236034578732386
40
0.236034578732386
40
0.287424679339786
40
0.287424679339786
40
0.390204880554586
40
0.390204880554586
40
0.441594981161986
40
0.441594981161986
40
0.492985081769387
40
0.492985081769387
40
0.595765282984188
40
0.595765282984188
40
0.647155383591588
40
0.647155383591588
40
0.698545484198988
40
0.698545484198988
40
0.801325685413788
40
0.801325685413788
40
0.852715786021188
40
0.852715786021188
40
0.904105886628589
40
0.904105886628589
40
1
40
1
40
1
40
1
41
1
10
5.45001721225862
20
1.75739031735768
30
0
41
1
10
5.72450609644903
20
1.66006013597217
30
0
41
1
10
5.99717966601884
20
1.54784786012169
30
0
41
1
10
6.61291330961237
20
1.26697806839067
30
0
41
1
10
6.95583138495687
20
1.09086302860092
30
0
41
1
10
7.4761403322066
20
0.803966997937039
30
0
41
1
10
7.64954157703693
20
0.705131698894832
30
0
41
1
10
7.99397749758811
20
0.504556318268726
30
0
41
1
10
8.1655570614717
20
0.402612292646467
30
0
41
1
10
8.67980017978232
20
0.0941814457713974
30
0
41
1
10
9.02165644898682
20
-0.115423179493689
30
0
41
1
10
9.53912530675623
20
-0.425513943652646
30
0
41
1
10
9.7130735327523
20
-0.528661848278375
30
0
41
1
10
10.0592643256668
20
-0.729705583292116
30
0
41
1
10
10.2314190969025
20
-0.827489725579255
30
0
41
1
10
10.7466547527679
20
-1.11035055393708
30
0
41
1
10
11.0881483136522
20
-1.28546456459364
30
0
41
1
10
11.60350202319
20
-1.51939746630995
30
0
41
1
10
11.7757537519678
20
-1.59265359306798
30
0
41
1
10
12.1221154929951
20
-1.72834995415238
30
0
41
1
10
12.2958473484736
20
-1.79054507726534
30
0
41
1
10
12.8129587003008
20
-1.95626521420286
30
0
41
1
10
13.1546585961394
20
-2.04026299293727
30
0
41
1
10
13.6687935478404
20
-2.12326422756954
30
0
41
1
10
13.8403787514568
20
-2.14379022583199
30
0
41
1
10
14.1848649483019
20
-2.16994116957991
30
0
41
1
10
14.3584531019593
20
-2.17559404185036
30
0
41
1
10
14.8550257408417
20
-2.16973866183116
30
0
41
1
10
15.174883849235
20
-2.13942398728861
30
0
41
1
10
15.4944046977817
20
-2.08422332098834
30
0
0
SPLINE
5
E7
100
AcDbEntity
8
1
62
256
6
ByLayer
370
18
48
1
60
0
100
AcDbSpline
70
4
71
3
72
32
73
28
40
0
40
0
40
0
40
0
40
0.0054134379280063
40
0.0054134379280063
40
0.115923055936003
40
0.115923055936003
40
0.171177864940002
40
0.171177864940002
40
0.226432673944
40
0.226432673944
40
0.336942291952
40
0.336942291952
40
0.44745190996
40
0.44745190996
40
0.502706718964
40
0.502706718964
40
0.557961527967999
40
0.557961527967999
40
0.668471145976
40
0.668471145976
40
0.72372595498
40
0.72372595498
40
0.778980763984
40
0.778980763984
40
0.889490381992
40
0.889490381992
40
1
40
1
40
1
40
1
41
1
10
27.9082979353716
20
1.78345137539753
30
0
41
1
10
27.9251700459137
20
1.77752711143879
30
0
41
1
10
27.9420313203553
20
1.77154693320787
30
0
41
1
10
28.3028392359962
20
1.64231530384487
30
0
41
1
10
28.6443183543725
20
1.49592557588502
30
0
41
1
10
29.157714335808
20
1.24765098464806
30
0
41
1
10
29.3291430877008
20
1.16031900926845
30
0
41
1
10
29.6735781331566
20
0.977466886014497
30
0
41
1
10
29.8472054087822
20
0.881432699623787
30
0
41
1
10
30.3657054207554
20
0.586138968538762
30
0
41
1
10
30.7077511440238
20
0.380730136308784
30
0
41
1
10
31.3921257550072
20
-0.0346238650715804
30
0
41
1
10
31.7341160053681
20
-0.24512681561643
30
0
41
1
10
32.2526030751189
20
-0.555522076482248
30
0
41
1
10
32.4260603104865
20
-0.657490001908428
30
0
41
1
10
32.7702187942502
20
-0.854508409158115
30
0
41
1
10
32.9415853974062
20
-0.949991240429654
30
0
41
1
10
33.4549375040626
20
-1.22548112688523
30
0
41
1
10
33.7961654472185
20
-1.39454316019996
30
0
41
1
10
34.3123288631415
20
-1.61796865699671
30
0
41
1
10
34.4856175008744
20
-1.68759648830132
30
0
41
1
10
34.8318992498341
20
-1.81445983073644
30
0
41
1
10
35.0045978644144
20
-1.87160970323097
30
0
41
1
10
35.522871142804
20
-2.02293650229152
30
0
41
1
10
35.870010135155
20
-2.09703080195308
30
0
41
1
10
36.5585702249698
20
-2.18430989506999
30
0
41
1
10
36.9014010953948
20
-2.19803578828058
30
0
41
1
10
37.2458771278681
20
-2.18124865074012
30
0
0
SPLINE
5
E8
100
AcDbEntity
8
1
62
256
6
ByLayer
370
18
48
1
60
0
100
AcDbSpline
70
4
71
3
72
10
73
6
40
0
40
0
40
0
40
0
40
0.5
40
0.5
40
1
40
1
40
1
40
1
41
1
10
37.369563669639
20
-2.11455842411897
30
0
41
1
10
37.4611304036972
20
-1.85933987852374
30
0
41
1
10
37.5575323770556
20
-1.60526833335032
30
0
41
1
10
37.7563634605148
20
-1.09879584161334
30
0
41
1
10
37.8588753601931
20
-0.846502395732387
30
0
41
1
10
37.9630278637175
20
-0.596038971776181
30
0
0
SPLINE
5
E9
100
AcDbEntity
8
1
62
256
6
ByLayer
370
18
48
1
60
0
100
AcDbSpline
70
4
71
3
72
8
73
4
40
0
40
0
40
0
40
0
40
1
40
1
40
1
40
1
41
1
10
37.9630278637161
20
-0.596038971779905
30
0
41
1
10
37.9754953425398
20
-0.428987131491311
30
0
41
1
10
37.9845049609469
20
-0.262106175146585
30
0
41
1
10
37.9900499788187
20
-0.0953964358355108
30
0
0
SPLINE
5
EA
100
AcDbEntity
8
1
62
256
6
ByLayer
370
18
48
1
60
0
100
AcDbSpline
70
4
71
3
72
12
73
8
40
0
40
0
40
0
40
0
40
0.5
40
0.5
40
0.75
40
0.75
40
1
40
1
40
1
40
1
41
1
10
4.25105765926148
20
-0.529360947957571
30
0
41
1
10
4.21273486800297
20
-0.505124232151815
30
0
41
1
10
4.17467313465903
20
-0.484416518031765
30
0
41
1
10
4.12000471900939
20
-0.460275107750675
30
0
41
1
10
4.10275483994457
20
-0.453647082224137
30
0
41
1
10
4.07057969129283
20
-0.44344547150618
30
0
41
1
10
4.05587378381117
20
-0.439978746493523
30
0
41
1
10
4.04351566922259
20
-0.438373885721091
30
0
0
SPLINE
5
EB
100
AcDbEntity
8
1
62
256
6
ByLayer
370
18
48
1
60
0
100
AcDbSpline
70
4
71
3
72
12
73
8
40
0
40
0
40
0
40
0
40
0.25
40
0.25
40
0.5
40
0.5
40
1
40
1
40
1
40
1
41
1
10
6.17745425401444
20
-1.53552699478149
30
0
41
1
10
6.01309737258919
20
-1.4719756841385
30
0
41
1
10
5.85043402691738
20
-1.40232725018171
30
0
41
1
10
5.52678721394057
20
-1.25239819934308
30
0
41
1
10
5.3654596008563
20
-1.17176598484198
30
0
41
1
10
4.88405134111238
20
-0.916455898830264
30
0
41
1
10
4.56725650676572
20
-0.729336506973056
30
0
41
1
10
4.25105765936357
20
-0.529360948022116
30
0
0
SPLINE
5
EC
100
AcDbEntity
8
1
62
256
6
ByLayer
370
18
48
1
60
0
100
AcDbSpline
70
4
71
3
72
14
73
10
40
0
40
0
40
0
40
0
40
0.272372053017669
40
0.272372053017669
40
0.544744106035338
40
0.544744106035338
40
0.817116159053007
40
0.817116159053007
40
1
40
1
40
1
40
1
41
1
10
37.0840317945949
20
-1.6396351034106
30
0
41
1
10
37.0835823735579
20
-1.71578258144231
30
0
41
1
10
37.0866541933098
20
-1.78268222410102
30
0
41
1
10
37.100043215268
20
-1.89831988072365
30
0
41
1
10
37.1105382483608
20
-1.9473062931911
30
0
41
1
10
37.1386791387857
20
-2.0233303020988
30
0
41
1
10
37.1562969212227
20
-2.05089601182729
30
0
41
1
10
37.1921245173005
20
-2.07990513967815
30
0
41
1
10
37.2082926614671
20
-2.0868791583809
30
0
41
1
10
37.2261140443153
20
-2.08915422644134
30
0
0
SPLINE
5
ED
100
AcDbEntity
8
1
62
256
6
ByLayer
370
18
48
1
60
0
100
AcDbSpline
70
4
71
3
72
22
73
18
40
0
40
0
40
0
40
0
40
0.125
40
0.125
40
0.25
40
0.25
40
0.375
40
0.375
40
0.5
40
0.5
40
0.625
40
0.625
40
0.75
40
0.75
40
0.875
40
0.875
40
1
40
1
40
1
40
1
41
1
10
37.7209050821135
20
-0.451921363097881
30
0
41
1
10
37.7184217695667
20
-0.480660981839691
30
0
41
1
10
37.71265130238
20
-0.514493126669123
30
0
41
1
10
37.695535371978
20
-0.58560917131328
30
0
41
1
10
37.6840315450303
20
-0.623655268903292
30
0
41
1
10
37.6576937684467
20
-0.697603846232738
30
0
41
1
10
37.6427447242194
20
-0.733962095309153
30
0
41
1
10
37.6116431832398
20
-0.801130353512917
30
0
41
1
10
37.5955249476804
20
-0.831936552788079
30
0
41
1
10
37.5635661423552
20
-0.886258684125409
30
0
41
1
10
37.547571804464
20
-0.909957641686702
30
0
41
1
10
37.5177561685408
20
-0.947761205502417
30
0
41
1
10
37.5036478716111
20
-0.962348307910474
30
0
41
1
10
37.4775066032655
20
-0.982207243975893
30
0
41
1
10
37.4658871672116
20
-0.987211572469135
30
0
41
1
10
37.4455507669178
20
-0.986995066209971
30
0
41
1
10
37.4370607946251
20
-0.981621261291764
30
0
41
1
10
37.4307182026566
20
-0.97084774912895
30
0
0
SPLINE
5
EE
100
AcDbEntity
8
1
62
256
6
ByLayer
370
18
48
1
60
0
100
AcDbSpline
70
4
71
3
72
8
73
4
40
0
40
0
40
0
40
0
40
1
40
1
40
1
40
1
41
1
10
37.9630278637162
20
0.596038971779365
30
0
41
1
10
37.9755016791201
20
0.42890222760613
30
0
41
1
10
37.9845077781605
20
0.2620214762415
30
0
41
1
10
37.9900499788187
20
0.0953964358355108
30
0
0
SPLINE
5
EF
100
AcDbEntity
8
1
62
256
6
ByLayer
370
18
48
1
60
0
100
AcDbSpline
70
4
71
1
72
4
73
2
40
0
40
0
40
1
40
1
41
1
10
26.2680114553614
20
-0.337318393393019
30
0
41
1
10
26.3446315755885
20
-0.377711933200345
30
0
0
SPLINE
5
F0
100
AcDbEntity
8
1
62
256
6
ByLayer
370
18
48
1
60
0
100
AcDbSpline
70
4
71
1
72
4
73
2
40
0
40
0
40
1
40
1
41
1
10
37.0207563607636
20
-2.08907864437941
30
0
41
1
10
37.2273857885031
20
-2.08919816801043
30
0
0
SPLINE
5
F1
100
AcDbEntity
8
1
62
256
6
ByLayer
370
18
48
1
60
0
100
AcDbSpline
70
4
71
3
72
20
73
16
40
0
40
0
40
0
40
0
40
0.109707334080237
40
0.184198361482767
40
0.232148645262923
40
0.280936147960147
40
0.330574670932805
40
0.421377565075898
40
0.521037898360373
40
0.660681768190341
40
0.788080891364879
40
0.831735082804446
40
0.873556227290716
40
0.937228345807923
40
1
40
1
40
1
40
1
41
1
10
25.8717032274552
20
-2.08296698431104
30
0
41
1
10
26.0706543317652
20
-2.08325260695352
30
0
41
1
10
26.4047289842103
20
-2.08357600967625
30
0
41
1
10
26.8262306225287
20
-2.08358454342792
30
0
41
1
10
27.136694349714
20
-2.08351201593183
30
0
41
1
10
27.4023791055277
20
-2.08444363809275
30
0
41
1
10
27.7458148527227
20
-2.08423776335587
30
0
41
1
10
28.1815906596793
20
-2.08461179998505
30
0
41
1
10
28.7807192161346
20
-2.08539243111181
30
0
41
1
10
29.4462628246045
20
-2.08702305187211
30
0
41
1
10
30.0101724145355
20
-2.08356012723186
30
0
41
1
10
30.3965113821883
20
-2.08674452227788
30
0
41
1
10
30.6671894857397
20
-2.0879540440034
30
0
41
1
10
30.972580922103
20
-2.08701503580534
30
0
41
1
10
31.2020661360793
20
-2.08657797405942
30
0
41
1
10
31.3159924462386
20
-2.08623376630945
30
0
0
SPLINE
5
F2
100
AcDbEntity
8
1
62
256
6
ByLayer
370
18
48
1
60
0
100
AcDbSpline
70
4
71
3
72
18
73
14
40
0
40
0
40
0
40
0
40
0.0871970894560722
40
0.17758364331338
40
0.257861671560999
40
0.3296374873132
40
0.403172067412901
40
0.480540094362418
40
0.572677394191619
40
0.673975020375398
40
0.768005623848454
40
0.888559508851337
40
1
40
1
40
1
40
1
41
1
10
8.80412684106298
20
2.07336734918997
30
0
41
1
10
8.6734170809388
20
2.0732632748842
30
0
41
1
10
8.40720043239597
20
2.07298232526114
30
0
41
1
10
8.02034673546189
20
2.07335047771195
30
0
41
1
10
7.65701929880728
20
2.07177227257199
30
0
41
1
10
7.31867122128367
20
2.07202354473259
30
0
41
1
10
6.98471312345975
20
2.07135561279603
30
0
41
1
10
6.62021010814468
20
2.07134326834182
30
0
41
1
10
6.2140766373218
20
2.07156120536825
30
0
41
1
10
5.78295085614286
20
2.07029718150216
30
0
41
1
10
5.30918645986054
20
2.07079366266436
30
0
41
1
10
4.82034006412565
20
2.07063378220639
30
0
41
1
10
4.47240725468268
20
2.07007101169066
30
0
41
1
10
4.30526913212174
20
2.06969238535026
30
0
0
SPLINE
5
F3
100
AcDbEntity
8
1
62
256
6
ByLayer
370
18
48
1
60
0
100
AcDbSpline
70
4
71
3
72
20
73
16
40
0
40
0
40
0
40
0
40
0.0840998615873455
40
0.165049731471575
40
0.215610105317416
40
0.265743514133221
40
0.317859509755621
40
0.447071029021128
40
0.596647088577905
40
0.707742867700332
40
0.795499744446214
40
0.883926910625097
40
0.937110157093409
40
0.992799280252852
40
1
40
1
40
1
40
1
41
1
10
20.060223820863
20
2.08031777380103
30
0
41
1
10
19.9322682720349
20
2.08005389085483
30
0
41
1
10
19.681145103101
20
2.07950815536432
30
0
41
1
10
19.3530580966653
20
2.08094920452018
30
0
41
1
10
19.0766817900153
20
2.07906953231947
30
0
41
1
10
18.8441650427765
20
2.07876605389697
30
0
41
1
10
18.4919682389432
20
2.07970579471012
30
0
41
1
10
17.9884579582789
20
2.07766836439549
30
0
41
1
10
17.3952022321948
20
2.07931514149141
30
0
41
1
10
16.8650252571511
20
2.07668626861786
30
0
41
1
10
16.4278903193531
20
2.07821019658607
30
0
41
1
10
16.0788842268308
20
2.07666586603352
30
0
41
1
10
15.7786588458294
20
2.07652200673837
30
0
41
1
10
15.6021478468267
20
2.07658718447848
30
0
41
1
10
15.5064734977277
20
2.07656160068092
30
0
41
1
10
15.4955186058745
20
2.07655795030118
30
0
0
SPLINE
5
F4
100
AcDbEntity
8
1
62
256
6
ByLayer
370
18
48
1
60
0
100
AcDbSpline
70
4
71
3
72
8
73
4
40
0
40
0
40
0
40
0
40
1
40
1
40
1
40
1
41
1
10
30.6017977680934
20
0.0866716594096886
30
0
41
1
10
30.5666113141976
20
0.108041767154759
30
0
41
1
10
30.531485924735
20
0.129797970931008
30
0
41
1
10
30.4964311686818
20
0.151946717856561
30
0
0
SPLINE
5
F5
100
AcDbEntity
8
1
62
256
6
ByLayer
370
18
48
1
60
0
100
AcDbSpline
70
4
71
3
72
19
73
15
40
0
40
0
40
0
40
0
40
0.0776018716196238
40
0.155033435639119
40
0.206257775581625
40
0.260305241574554
40
0.318917082762162
40
0.44703995878586
40
0.579308124248254
40
0.730086879036335
40
0.874063643175193
40
0.931813122227141
40
0.989232173789661
40
1
40
1
40
1
40
1
41
1
10
31.3157964907038
20
2.08623493621209
30
0
41
1
10
31.1993595194164
20
2.08659435458947
30
0
41
1
10
30.9667428879133
20
2.08703612958035
30
0
41
1
10
30.6572611337859
20
2.08795695804949
30
0
41
1
10
30.3831420413711
20
2.08666186356709
30
0
41
1
10
30.1372519358698
20
2.08452607627893
30
0
41
1
10
29.7759639203724
20
2.08579810535835
30
0
41
1
10
29.2973189207494
20
2.08538583111138
30
0
41
1
10
28.6803764071812
20
2.0857368718996
30
0
41
1
10
28.0396434842038
20
2.08377471413778
30
0
41
1
10
27.510729704386
20
2.08478345060681
30
0
41
1
10
27.1218821370761
20
2.08349587364862
30
0
41
1
10
26.9331073368099
20
2.08355811390726
30
0
41
1
10
26.830831003996
20
2.08357210369039
30
0
41
1
10
26.8146785468423
20
2.08357379825415
30
0
0
SPLINE
5
F6
100
AcDbEntity
8
1
62
256
6
ByLayer
370
18
48
1
60
0
100
AcDbSpline
70
4
71
3
72
22
73
18
40
0
40
0
40
0
40
0
40
0.108666043757901
40
0.180783965038322
40
0.231836852190092
40
0.282304960170601
40
0.331676838064064
40
0.379780220535071
40
0.434069693371401
40
0.499124260224945
40
0.60542878620553
40
0.703741945092105
40
0.779731787406838
40
0.82095737114994
40
0.862986004751565
40
0.930573335432375
40
1
40
1
40
1
40
1
41
1
10
14.6206663934479
20
-2.07579743258552
30
0
41
1
10
14.8176921467496
20
-2.07605365663056
30
0
41
1
10
15.1455028600077
20
-2.07635219976478
30
0
41
1
10
15.5661191075842
20
-2.07661911925027
30
0
41
1
10
15.8809487623783
20
-2.07647969390351
30
0
41
1
10
16.1547097099873
20
-2.07702862573822
30
0
41
1
10
16.4230758990802
20
-2.07789356352441
30
0
41
1
10
16.6983868697989
20
-2.07743407126114
30
0
41
1
10
17.0021441295891
20
-2.07702531298091
30
0
41
1
10
17.4114784627557
20
-2.07932261617916
30
0
41
1
10
17.9006756884888
20
-2.07731755140605
30
0
41
1
10
18.4097076129267
20
-2.08015974474782
30
0
41
1
10
18.8006868047696
20
-2.07866100206849
30
0
41
1
10
19.0895588795485
20
-2.07915168317126
30
0
41
1
10
19.3631749739733
20
-2.08095527006176
30
0
41
1
10
19.6879759464837
20
-2.07948138706502
30
0
41
1
10
19.9365042189854
20
-2.08003488024846
30
0
41
1
10
20.0624340492165
20
-2.08031118641321
30
0
0
SPLINE
5
F7
100
AcDbEntity
8
1
62
256
6
ByLayer
370
18
48
1
60
0
100
AcDbSpline
70
4
71
3
72
19
73
15
40
0
40
0
40
0
40
0
40
0.0840227201996758
40
0.176555123000381
40
0.236396602092677
40
0.294745378740063
40
0.355403525616702
40
0.412898498373596
40
0.467565682032088
40
0.668889661036494
40
0.723710941196742
40
0.798701874631571
40
0.903266669181065
40
1
40
1
40
1
40
1
41
1
10
4.25049817299634
20
-2.06961049667885
30
0
41
1
10
4.37826053365538
20
-2.06992143464586
30
0
41
1
10
4.64671400587002
20
-2.07043520870741
30
0
41
1
10
5.00605073289665
20
-2.07071365827332
30
0
41
1
10
5.32644938828034
20
-2.07068426842579
30
0
41
1
10
5.59838600498085
20
-2.07062534261166
30
0
41
1
10
5.86675600073215
20
-2.07046535230791
30
0
41
1
10
6.12952699659922
20
-2.07116464331955
30
0
41
1
10
6.60618005981016
20
-2.0717959556429
30
0
41
1
10
7.07876382792318
20
-2.07182776603165
30
0
41
1
10
7.58225248992096
20
-2.07189856222948
30
0
41
1
10
7.93860892378561
20
-2.07279980954243
30
0
41
1
10
8.35870960637638
20
-2.07326156677826
30
0
41
1
10
8.66476839820686
20
-2.07340710262372
30
0
41
1
10
8.81184283787445
20
-2.07340929584419
30
0
0
LINE
5
7B
100
AcDbEntity
8
SK1
62
256
6
ByLayer
370
18
48
1
60
0
100
AcDbLine
10
-36
20
1.925643
30
0
11
-36
21
0.912901
31
0
39
0
210
0
220
0
230
1
0
LINE
5
7D
100
AcDbEntity
8
SK1
62
256
6
ByLayer
370
18
48
1
60
0
100
AcDbLine
10
0
20
-3
30
0
11
0
21
3
31
0
39
0
210
0
220
0
230
1
0
LINE
5
7E
100
AcDbEntity
8
SK1
62
256
6
ByLayer
370
13
48
1
60
0
100
AcDbLine
10
-35.75
20
2.121979
30
0
11
-35.75
21
1.109193
31
0
39
0
210
0
220
0
230
1
0
LINE
5
7F
100
AcDbEntity
8
SK1
62
256
6
ByLayer
370
18
48
1
60
0
100
AcDbLine
10
-35.065
20
3
30
0
11
-35.065
21
-3
31
0
39
0
210
0
220
0
230
1
0
LINE
5
80
100
AcDbEntity
8
SK1
62
256
6
ByLayer
370
18
48
1
60
0
100
AcDbLine
10
-36
20
2.065
30
0
11
-36
21
1.925643
31
0
39
0
210
0
220
0
230
1
0
LINE
5
81
100
AcDbEntity
8
SK1
62
256
6
ByLayer
370
18
48
1
60
0
100
AcDbLine
10
-35.65
20
1.27689
30
0
11
-35.65
21
2.154594
31
0
39
0
210
0
220
0
230
1
0
LINE
5
82
100
AcDbEntity
8
SK1
62
256
6
ByLayer
370
18
48
1
60
0
100
AcDbLine
10
-36
20
0.912907
30
0
11
-36
21
-2.065
31
0
39
0
210
0
220
0
230
1
0
LINE
5
83
100
AcDbEntity
8
1
62
256
6
ByLayer
370
18
48
1
60
0
100
AcDbLine
10
0
20
-3
30
0
11
0
21
3
31
0
39
0
210
0
220
0
230
1
0
LINE
5
84
100
AcDbEntity
8
1
62
256
6
ByLayer
370
13
48
1
60
0
100
AcDbLine
10
37.105488
20
0.535733
30
0
11
37.97906
21
-0.017259
31
0
39
0
210
0
220
0
230
1
0
LINE
5
85
100
AcDbEntity
8
1
62
256
6
ByLayer
370
13
48
1
60
0
100
AcDbLine
10
37.196203
20
0.597921
30
0
11
37.99005
21
0.095396
31
0
39
0
210
0
220
0
230
1
0
LINE
5
86
100
AcDbEntity
8
1
62
256
6
ByLayer
370
13
48
1
60
0
100
AcDbLine
10
1.39888
20
2.177518
30
0
11
1.39888
21
-2.177518
31
0
39
0
210
0
220
0
230
1
0
LINE
5
87
100
AcDbEntity
8
1
62
256
6
ByLayer
370
13
48
1
60
0
100
AcDbLine
10
0.69919
20
2.588759
30
0
11
0.69919
21
-2.588759
31
0
39
0
210
0
220
0
230
1
0
LINE
5
88
100
AcDbEntity
8
80
62
256
6
ByLayer
370
18
48
1
60
0
100
AcDbLine
10
0
20
0
30
0
11
-5
21
0
31
0
39
0
210
0
220
0
230
1
0
LINE
5
89
100
AcDbEntity
8
4
62
256
6
ByLayer
370
18
48
0.05
60
0
100
AcDbLine
10
38
20
0
30
0
11
0
21
0
31
0
39
0
210
0
220
0
230
1
0
LINE
5
8B
100
AcDbEntity
8
SK4
62
256
6
ByLayer
370
18
48
0.05
60
0
100
AcDbLine
10
43
20
0
30
0
11
-41
21
0
31
0
39
0
210
0
220
0
230
1
0
LINE
5
8D
100
AcDbEntity
8
SK1
62
256
6
ByLayer
370
18
48
1
60
0
100
AcDbLine
10
-36
20
-2.065
30
0
11
-35.065
21
-3
31
0
39
0
210
0
220
0
230
1
0
LINE
5
8E
100
AcDbEntity
8
SK1
62
256
6
ByLayer
370
18
48
1
60
0
100
AcDbLine
10
-35.065
20
3
30
0
11
-36
21
2.065
31
0
39
0
210
0
220
0
230
1
0
LINE
5
8F
100
AcDbEntity
8
SK1
62
256
6
ByLayer
370
18
48
1
60
0
100
AcDbLine
10
-35.065
20
-3
30
0
11
0
21
-3
31
0
39
0
210
0
220
0
230
1
0
LINE
5
90
100
AcDbEntity
8
SK1
62
256
6
ByLayer
370
18
48
1
60
0
100
AcDbLine
10
0
20
3
30
0
11
-35.065
21
3
31
0
39
0
210
0
220
0
230
1
0
LINE
5
91
100
AcDbEntity
8
1
62
256
6
ByLayer
370
18
48
1
60
0
100
AcDbLine
10
1.39888
20
-2.177518
30
0
11
4.043227
21
-2.179171
31
0
39
0
210
0
220
0
230
1
0
LINE
5
92
100
AcDbEntity
8
1
62
256
6
ByLayer
370
18
48
1
60
0
100
AcDbLine
10
13.869498
20
-2.185313
30
0
11
14.458033
21
-2.18568
31
0
39
0
210
0
220
0
230
1
0
LINE
5
93
100
AcDbEntity
8
1
62
256
6
ByLayer
370
18
48
1
60
0
100
AcDbLine
10
25.117399
20
-2.192342
30
0
11
25.7086
21
-2.192712
31
0
39
0
210
0
220
0
230
1
0
LINE
5
94
100
AcDbEntity
8
1
62
256
6
ByLayer
370
18
48
1
60
0
100
AcDbLine
10
36.368617
20
-2.199375
30
0
11
36.958956
21
-2.199743
31
0
39
0
210
0
220
0
230
1
0
LINE
5
95
100
AcDbEntity
8
1
62
256
6
ByLayer
370
18
48
1
60
0
100
AcDbLine
10
36.95893
20
2.199743
30
0
11
36.368617
21
2.199375
31
0
39
0
210
0
220
0
230
1
0
LINE
5
96
100
AcDbEntity
8
1
62
256
6
ByLayer
370
18
48
1
60
0
100
AcDbLine
10
25.70747
20
2.192711
30
0
11
25.117399
21
2.192342
31
0
39
0
210
0
220
0
230
1
0
LINE
5
97
100
AcDbEntity
8
1
62
256
6
ByLayer
370
18
48
1
60
0
100
AcDbLine
10
14.457366
20
2.18568
30
0
11
13.869498
21
2.185313
31
0
39
0
210
0
220
0
230
1
0
LINE
5
98
100
AcDbEntity
8
1
62
256
6
ByLayer
370
18
48
1
60
0
100
AcDbLine
10
4.043227
20
2.179171
30
0
11
1.39888
21
2.177518
31
0
39
0
210
0
220
0
230
1
0
LINE
5
99
100
AcDbEntity
8
81
62
256
6
ByLayer
370
18
48
1
60
0
100
AcDbLine
10
38
20
0
30
0
11
43
21
0
31
0
39
0
210
0
220
0
230
1
0
LINE
5
9A
100
AcDbEntity
8
SK2
62
256
6
ByLayer
370
13
48
1
60
0
100
AcDbLine
10
-44.625163
20
32.117107
30
0
11
-44.625163
21
-11.75
31
0
39
0
210
0
220
0
230
1
0
LINE
5
9C
100
AcDbEntity
8
SK2
62
256
6
ByLayer
370
13
48
1
60
0
100
AcDbLine
10
-37.5875
20
3
30
0
11
-46.625163
21
3
31
0
39
0
210
0
220
0
230
1
0
LINE
5
9D
100
AcDbEntity
8
SK2
62
256
6
ByLayer
370
13
48
1
60
0
100
AcDbLine
10
-37.5875
20
-3
30
0
11
-46.625163
21
-3
31
0
39
0
210
0
220
0
230
1
0
LINE
5
9E
100
AcDbEntity
8
1
62
256
6
ByLayer
370
18
48
1
60
1
100
AcDbLine
10
-44.625163
20
3
30
0
11
-45.085946
21
6.499998
31
0
39
0
210
0
220
0
230
1
0
LINE
5
9F
100
AcDbEntity
8
1
62
256
6
ByLayer
370
18
48
1
60
1
100
AcDbLine
10
-45.085946
20
6.499998
30
0
11
-44.164379
21
6.500002
31
0
39
0
210
0
220
0
230
1
0
LINE
5
A0
100
AcDbEntity
8
1
62
256
6
ByLayer
370
18
48
1
60
1
100
AcDbLine
10
-44.164379
20
6.500002
30
0
11
-44.625163
21
3
31
0
39
0
210
0
220
0
230
1
0
LINE
5
A1
100
AcDbEntity
8
1
62
256
6
ByLayer
370
18
48
1
60
1
100
AcDbLine
10
-44.625163
20
-3
30
0
11
-44.164379
21
-6.499998
31
0
39
0
210
0
220
0
230
1
0
LINE
5
A2
100
AcDbEntity
8
1
62
256
6
ByLayer
370
18
48
1
60
1
100
AcDbLine
10
-44.164379
20
-6.499998
30
0
11
-45.085946
21
-6.500002
31
0
39
0
210
0
220
0
230
1
0
LINE
5
A3
100
AcDbEntity
8
1
62
256
6
ByLayer
370
18
48
1
60
1
100
AcDbLine
10
-45.085946
20
-6.500002
30
0
11
-44.625163
21
-3
31
0
39
0
210
0
220
0
230
1
0
LINE
5
A4
100
AcDbEntity
8
2
62
256
6
ByLayer
370
13
48
1
60
0
100
AcDbLine
10
50.083343
20
30.64726
30
0
11
50.083343
21
-10.95
31
0
39
0
210
0
220
0
230
1
0
LINE
5
A6
100
AcDbEntity
8
2
62
256
6
ByLayer
370
13
48
1
60
0
100
AcDbLine
10
38.9474
20
2.2
30
0
11
52.083343
21
2.2
31
0
39
0
210
0
220
0
230
1
0
LINE
5
A7
100
AcDbEntity
8
2
62
256
6
ByLayer
370
13
48
1
60
0
100
AcDbLine
10
38.9474
20
-2.2
30
0
11
52.083343
21
-2.2
31
0
39
0
210
0
220
0
230
1
0
LINE
5
A8
100
AcDbEntity
8
1
62
256
6
ByLayer
370
18
48
1
60
1
100
AcDbLine
10
50.083343
20
2.2
30
0
11
49.622559
21
5.699998
31
0
39
0
210
0
220
0
230
1
0
LINE
5
A9
100
AcDbEntity
8
1
62
256
6
ByLayer
370
18
48
1
60
1
100
AcDbLine
10
49.622559
20
5.699998
30
0
11
50.544126
21
5.700002
31
0
39
0
210
0
220
0
230
1
0
LINE
5
AA
100
AcDbEntity
8
1
62
256
6
ByLayer
370
18
48
1
60
1
100
AcDbLine
10
50.544126
20
5.700002
30
0
11
50.083343
21
2.2
31
0
39
0
210
0
220
0
230
1
0
LINE
5
AB
100
AcDbEntity
8
1
62
256
6
ByLayer
370
18
48
1
60
1
100
AcDbLine
10
50.083343
20
-2.2
30
0
11
50.544126
21
-5.699998
31
0
39
0
210
0
220
0
230
1
0
LINE
5
AC
100
AcDbEntity
8
1
62
256
6
ByLayer
370
18
48
1
60
1
100
AcDbLine
10
50.544126
20
-5.699998
30
0
11
49.622559
21
-5.700002
31
0
39
0
210
0
220
0
230
1
0
LINE
5
AD
100
AcDbEntity
8
1
62
256
6
ByLayer
370
18
48
1
60
1
100
AcDbLine
10
49.622559
20
-5.700002
30
0
11
50.083343
21
-2.2
31
0
39
0
210
0
220
0
230
1
0
LINE
5
FE
100
AcDbEntity
8
1
62
256
6
ByLayer
370
18
48
1
60
1
100
AcDbLine
10
-44.625163
20
3
30
0
11
-45.085946
21
6.499998
31
0
39
0
210
0
220
0
230
1
0
LINE
5
FF
100
AcDbEntity
8
1
62
256
6
ByLayer
370
18
48
1
60
1
100
AcDbLine
10
-45.085946
20
6.499998
30
0
11
-44.164379
21
6.500002
31
0
39
0
210
0
220
0
230
1
0
LINE
5
100
100
AcDbEntity
8
1
62
256
6
ByLayer
370
18
48
1
60
1
100
AcDbLine
10
-44.164379
20
6.500002
30
0
11
-44.625163
21
3
31
0
39
0
210
0
220
0
230
1
0
LINE
5
102
100
AcDbEntity
8
1
62
256
6
ByLayer
370
18
48
1
60
1
100
AcDbLine
10
-44.625163
20
-3
30
0
11
-44.164379
21
-6.499998
31
0
39
0
210
0
220
0
230
1
0
LINE
5
103
100
AcDbEntity
8
1
62
256
6
ByLayer
370
18
48
1
60
1
100
AcDbLine
10
-44.164379
20
-6.499998
30
0
11
-45.085946
21
-6.500002
31
0
39
0
210
0
220
0
230
1
0
LINE
5
104
100
AcDbEntity
8
1
62
256
6
ByLayer
370
18
48
1
60
1
100
AcDbLine
10
-45.085946
20
-6.500002
30
0
11
-44.625163
21
-3
31
0
39
0
210
0
220
0
230
1
0
LINE
5
108
100
AcDbEntity
8
1
62
256
6
ByLayer
370
18
48
1
60
1
100
AcDbLine
10
50.083343
20
2.2
30
0
11
49.622559
21
5.699998
31
0
39
0
210
0
220
0
230
1
0
LINE
5
109
100
AcDbEntity
8
1
62
256
6
ByLayer
370
18
48
1
60
1
100
AcDbLine
10
49.622559
20
5.699998
30
0
11
50.544126
21
5.700002
31
0
39
0
210
0
220
0
230
1
0
LINE
5
10A
100
AcDbEntity
8
1
62
256
6
ByLayer
370
18
48
1
60
1
100
AcDbLine
10
50.544126
20
5.700002
30
0
11
50.083343
21
2.2
31
0
39
0
210
0
220
0
230
1
0
LINE
5
10C
100
AcDbEntity
8
1
62
256
6
ByLayer
370
18
48
1
60
1
100
AcDbLine
10
50.083343
20
-2.2
30
0
11
50.544126
21
-5.699998
31
0
39
0
210
0
220
0
230
1
0
LINE
5
10D
100
AcDbEntity
8
1
62
256
6
ByLayer
370
18
48
1
60
1
100
AcDbLine
10
50.544126
20
-5.699998
30
0
11
49.622559
21
-5.700002
31
0
39
0
210
0
220
0
230
1
0
LINE
5
10E
100
AcDbEntity
8
1
62
256
6
ByLayer
370
18
48
1
60
1
100
AcDbLine
10
49.622559
20
-5.700002
30
0
11
50.083343
21
-2.2
31
0
39
0
210
0
220
0
230
1
0
MTEXT
5
F8
100
AcDbEntity
8
SK6
62
256
6
ByLayer
370
13
48
1
60
0
100
AcDbMText
10
-28.513727
20
34.740328
30
0
210
0
220
0
230
1
1
\W0.7763;462.1-0440-022A1-XM X2BM
40
3.5
41
0
44
1.084337
50
0
71
7
72
5
7
iso_b_vert
0
MTEXT
5
FC
100
AcDbEntity
8
SK2
62
256
6
ByLayer
370
18
48
1
60
0
100
AcDbMText
10
-46.189796
20
16.409024
30
0
210
0
220
0
230
1
1
%%c
40
3.5
41
0
44
1.084337
50
90
71
7
72
5
7
iso_b_vert
0
MTEXT
5
FD
100
AcDbEntity
8
SK2
62
256
6
ByLayer
370
18
48
1
60
0
100
AcDbMText
10
-46.189796
20
21.63168
30
0
210
0
220
0
230
1
1
\W0.7317;6,000
40
3.5
41
0
44
1.084337
50
90
71
7
72
5
7
iso_b_vert
0
MTEXT
5
106
100
AcDbEntity
8
2
62
256
6
ByLayer
370
18
48
1
60
0
100
AcDbMText
10
48.518709
20
14.20211
30
0
210
0
220
0
230
1
1
%%c
40
3.5
41
0
44
1.084337
50
90
71
7
72
5
7
iso_b_vert
0
MTEXT
5
107
100
AcDbEntity
8
2
62
256
6
ByLayer
370
18
48
1
60
0
100
AcDbMText
10
48.518709
20
19.424766
30
0
210
0
220
0
230
1
1
\W0.7845;4,400
40
3.5
41
0
44
1.084337
50
90
71
7
72
5
7
iso_b_vert
0
HATCH
5
101
100
AcDbEntity
8
SK2
62
256
6
ByLayer
370
13
48
1
60
0
100
AcDbHatch
10
0
20
0
30
0
210
0
220
0
230
1
2
ANSI31
70
0
71
0
91
1
92
5
93
3
72
1
10
-44.6251625675374
20
3
11
-45.0859463090902
21
6.49999830744682
72
1
10
-45.0859463090902
20
6.49999830744682
11
-44.1643788259847
21
6.50000169255318
72
1
10
-44.1643788259847
20
6.50000169255318
11
-44.6251625675374
21
3
97
0
75
0
76
1
52
0
41
0.0062
77
0
78
1
53
45
43
0
44
0
45
-0.0139193969876572
46
0.0139193969876572
79
0
47
0
98
1
10
0
20
0
0
HATCH
5
105
100
AcDbEntity
8
SK2
62
256
6
ByLayer
370
13
48
1
60
0
100
AcDbHatch
10
0
20
0
30
0
210
0
220
0
230
1
2
ANSI31
70
0
71
0
91
1
92
5
93
3
72
1
10
-44.6251625675374
20
-3
11
-44.1643788259847
21
-6.49999830744682
72
1
10
-44.1643788259847
20
-6.49999830744682
11
-45.0859463090902
21
-6.50000169255318
72
1
10
-45.0859463090902
20
-6.50000169255318
11
-44.6251625675374
21
-3
97
0
75
0
76
1
52
0
41
0.0062
77
0
78
1
53
45
43
0
44
0
45
-0.0139193969876572
46
0.0139193969876572
79
0
47
0
98
1
10
0
20
0
0
HATCH
5
10B
100
AcDbEntity
8
2
62
256
6
ByLayer
370
13
48
1
60
0
100
AcDbHatch
10
0
20
0
30
0
210
0
220
0
230
1
2
ANSI31
70
0
71
0
91
1
92
5
93
3
72
1
10
50.083342615295
20
2.20000000000002
11
49.6225588737423
21
5.69999830744683
72
1
10
49.6225588737423
20
5.69999830744683
11
50.5441263568478
21
5.7000016925532
72
1
10
50.5441263568478
20
5.7000016925532
11
50.083342615295
21
2.20000000000002
97
0
75
0
76
1
52
0
41
0.0062
77
0
78
1
53
45
43
0
44
0
45
-0.0139193969876572
46
0.0139193969876572
79
0
47
0
98
1
10
0
20
0
0
HATCH
5
10F
100
AcDbEntity
8
2
62
256
6
ByLayer
370
13
48
1
60
0
100
AcDbHatch
10
0
20
0
30
0
210
0
220
0
230
1
2
ANSI31
70
0
71
0
91
1
92
5
93
3
72
1
10
50.083342615295
20
-2.19999999999999
11
50.5441263568478
21
-5.6999983074468
72
1
10
50.5441263568478
20
-5.6999983074468
11
49.6225588737423
21
-5.70000169255317
72
1
10
49.6225588737423
20
-5.70000169255317
11
50.083342615295
21
-2.19999999999999
97
0
75
0
76
1
52
0
41
0.0062
77
0
78
1
53
45
43
0
44
0
45
-0.0139193969876572
46
0.0139193969876572
79
0
47
0
98
1
10
0
20
0
0
DIMENSION
5
111
100
AcDbEntity
8
SK2
62
256
6
ByLayer
370
13
48
1
60
0
100
AcDbDimension
2
_U0
10
37.3599
20
-12.413398
30
0
11
18.67995
21
-12.413398
31
0
70
32
71
1
72
1
41
1
210
0
220
0
230
1
3
Standard
100
AcDbAlignedDimension
13
0
23
0
33
0
14
37.3599
24
-2.2
34
0
50
0
100
AcDbRotatedDimension
1001
ACAD
1000
DSTYLE
1002
{
1070
   371
1070
    13
1070
   372
1070
    13
1070
   170
1070
     0
1070
   144
1040
1.0
1070
   277
1070
     2
1070
   278
1070
    44
1070
   146
1040
1.0
1070
   345
1005
16
1070
   347
1005
16
1070
   346
1005
16
1070
   344
1005
0
1070
   343
1005
0
1070
   172
1070
     1
1070
    76
1070
     0
1070
    75
1070
     0
1070
   282
1070
     0
1070
   281
1070
     0
1070
    71
1070
     0
1070
    74
1070
     0
1070
   279
1070
     0
1070
   173
1070
     1
1070
   340
1005
F9
1070
   271
1070
     2
1070
   272
1070
     2
1070
    77
1070
     1
1070
    73
1070
     1
1070
   171
1070
     3
1070
   274
1070
     4
1070
   177
1070
    35
1070
   176
1070
    35
1070
   178
1070
    35
1070
    48
1040
-0.1
1070
    41
1040
3.5
1070
   147
1040
1.75
1070
    42
1040
1.5875
1070
    44
1040
2.0
1070
   140
1040
3.5
1002
}
1001
ACAD_DSTYLE_DIM_LINETYPE
1070
   380
1005
16
1001
ACAD_DSTYLE_DIM_EXT1_LINETYPE
1070
   381
1005
16
1001
ACAD_DSTYLE_DIM_EXT2_LINETYPE
1070
   382
1005
16
0
DIMENSION
5
12A
100
AcDbEntity
8
SK2
62
256
6
ByLayer
370
13
48
1
60
0
100
AcDbDimension
2
_U1
10
38
20
-31.692985
30
0
11
1
21
-31.692985
31
0
70
32
71
1
72
1
41
1
210
0
220
0
230
1
3
Standard
100
AcDbAlignedDimension
13
-36
23
-3
33
0
14
38
24
0
34
0
50
0
100
AcDbRotatedDimension
1001
ACAD
1000
DSTYLE
1002
{
1070
   371
1070
    13
1070
   372
1070
    13
1070
   170
1070
     0
1070
   144
1040
1.0
1070
   277
1070
     2
1070
   278
1070
    44
1070
   146
1040
1.0
1070
   345
1005
16
1070
   347
1005
16
1070
   346
1005
16
1070
   344
1005
0
1070
   343
1005
0
1070
   172
1070
     1
1070
    76
1070
     0
1070
    75
1070
     0
1070
   282
1070
     0
1070
   281
1070
     0
1070
    71
1070
     0
1070
    74
1070
     0
1070
   279
1070
     0
1070
   173
1070
     1
1070
   340
1005
F9
1070
   271
1070
     2
1070
   272
1070
     2
1070
    77
1070
     1
1070
    73
1070
     1
1070
   171
1070
     3
1070
   274
1070
     4
1070
   177
1070
    35
1070
   176
1070
    35
1070
   178
1070
    35
1070
    48
1040
-0.1
1070
    41
1040
3.5
1070
   147
1040
1.75
1070
    42
1040
1.5875
1070
    44
1040
2.0
1070
   140
1040
3.5
1002
}
1001
ACAD_DSTYLE_DIM_LINETYPE
1070
   380
1005
16
1001
ACAD_DSTYLE_DIM_EXT1_LINETYPE
1070
   381
1005
16
1001
ACAD_DSTYLE_DIM_EXT2_LINETYPE
1070
   382
1005
16
0
DIMENSION
5
142
100
AcDbEntity
8
SK2
62
256
6
ByLayer
370
13
48
1
60
0
100
AcDbDimension
2
_U2
10
38
20
13.809119
30
0
11
26.68
21
13.809119
31
0
70
32
71
1
72
1
41
1
210
0
220
0
230
1
3
Standard
100
AcDbAlignedDimension
13
15.36
23
2.2
33
0
14
38
24
0
34
0
50
0
100
AcDbRotatedDimension
1001
ACAD
1000
DSTYLE
1002
{
1070
   371
1070
    13
1070
   372
1070
    13
1070
   170
1070
     0
1070
   144
1040
1.0
1070
   277
1070
     2
1070
   278
1070
    44
1070
   146
1040
1.0
1070
   345
1005
16
1070
   347
1005
16
1070
   346
1005
16
1070
   344
1005
0
1070
   343
1005
0
1070
   172
1070
     1
1070
    76
1070
     0
1070
    75
1070
     0
1070
   282
1070
     0
1070
   281
1070
     0
1070
    71
1070
     0
1070
    74
1070
     0
1070
   279
1070
     0
1070
   173
1070
     1
1070
   340
1005
F9
1070
   271
1070
     2
1070
   272
1070
     2
1070
    77
1070
     1
1070
    73
1070
     1
1070
   171
1070
     3
1070
   274
1070
     4
1070
   177
1070
    35
1070
   176
1070
    35
1070
   178
1070
    35
1070
    48
1040
-0.1
1070
    41
1040
3.5
1070
   147
1040
1.75
1070
    42
1040
1.5875
1070
    44
1040
2.0
1070
   140
1040
3.5
1002
}
1001
ACAD_DSTYLE_DIM_LINETYPE
1070
   380
1005
16
1001
ACAD_DSTYLE_DIM_EXT1_LINETYPE
1070
   381
1005
16
1001
ACAD_DSTYLE_DIM_EXT2_LINETYPE
1070
   382
1005
16
0
DIMENSION
5
15A
100
AcDbEntity
8
SK2
62
256
6
ByLayer
370
13
48
1
60
0
100
AcDbDimension
2
_U3
10
37.3599
20
-15.002503
30
0
11
55.666667
21
-15.002503
31
0
70
32
71
1
72
1
41
1
210
0
220
0
230
1
3
Standard
100
AcDbAlignedDimension
13
38
23
0
33
0
14
37.3599
24
-2.2
34
0
50
0
100
AcDbRotatedDimension
1001
ACAD
1000
DSTYLE
1002
{
1070
   371
1070
    13
1070
   372
1070
    13
1070
   170
1070
     0
1070
   144
1040
1.0
1070
   277
1070
     2
1070
   278
1070
    44
1070
   146
1040
1.0
1070
   345
1005
16
1070
   347
1005
16
1070
   346
1005
16
1070
   344
1005
0
1070
   343
1005
0
1070
   172
1070
     1
1070
    76
1070
     0
1070
    75
1070
     0
1070
   282
1070
     0
1070
   281
1070
     0
1070
    71
1070
     0
1070
    74
1070
     0
1070
   279
1070
     0
1070
   173
1070
     1
1070
   340
1005
F9
1070
   271
1070
     2
1070
   272
1070
     2
1070
    77
1070
     1
1070
    73
1070
     1
1070
   171
1070
     3
1070
   274
1070
     4
1070
   177
1070
    35
1070
   176
1070
    35
1070
   178
1070
    35
1070
    48
1040
-0.1
1070
    41
1040
3.5
1070
   147
1040
1.75
1070
    42
1040
1.5875
1070
    44
1040
2.0
1070
   140
1040
3.5
1002
}
1001
ACAD_DSTYLE_DIM_LINETYPE
1070
   380
1005
16
1001
ACAD_DSTYLE_DIM_EXT1_LINETYPE
1070
   381
1005
16
1001
ACAD_DSTYLE_DIM_EXT2_LINETYPE
1070
   382
1005
16
0
DIMENSION
5
174
100
AcDbEntity
8
SK2
62
256
6
ByLayer
370
13
48
1
60
0
100
AcDbDimension
2
_U4
10
37.3599
20
-21.343428
30
0
11
0.67995
21
-21.343428
31
0
70
32
71
1
72
1
41
1
210
0
220
0
230
1
3
Standard
100
AcDbAlignedDimension
13
-36
23
-3
33
0
14
37.3599
24
-2.2
34
0
50
0
100
AcDbRotatedDimension
1001
ACAD
1000
DSTYLE
1002
{
1070
   371
1070
    13
1070
   372
1070
    13
1070
   170
1070
     0
1070
   144
1040
1.0
1070
   277
1070
     2
1070
   278
1070
    44
1070
   146
1040
1.0
1070
   345
1005
16
1070
   347
1005
16
1070
   346
1005
16
1070
   344
1005
0
1070
   343
1005
0
1070
   172
1070
     1
1070
    76
1070
     0
1070
    75
1070
     0
1070
   282
1070
     0
1070
   281
1070
     0
1070
    71
1070
     0
1070
    74
1070
     0
1070
   279
1070
     0
1070
   173
1070
     1
1070
   340
1005
F9
1070
   271
1070
     2
1070
   272
1070
     2
1070
    77
1070
     1
1070
    73
1070
     1
1070
   171
1070
     3
1070
   274
1070
     4
1070
   177
1070
    35
1070
   176
1070
    35
1070
   178
1070
    35
1070
    48
1040
-0.1
1070
    41
1040
3.5
1070
   147
1040
1.75
1070
    42
1040
1.5875
1070
    44
1040
2.0
1070
   140
1040
3.5
1002
}
1001
ACAD_DSTYLE_DIM_LINETYPE
1070
   380
1005
16
1001
ACAD_DSTYLE_DIM_EXT1_LINETYPE
1070
   381
1005
16
1001
ACAD_DSTYLE_DIM_EXT2_LINETYPE
1070
   382
1005
16
0
ENDSEC
0
SECTION
2
OBJECTS
0
DICTIONARY
5
1fc
330
0
100
AcDbDictionary
280
0
281
1
3
ACAD_GROUP
350
1fd
3
ACAD_MLINESTYLE
350
1fe
0
DICTIONARY
5
1fd
330
0
100
AcDbDictionary
280
0
281
1
0
DICTIONARY
5
1fe
330
0
100
AcDbDictionary
280
0
281
1
3
Standard
350
18
0
MLINESTYLE
5
18
330
1fe
100
AcDbMlineStyle
2
Standard
70
0
3

62
256
51
90
52
90
71
2
49
-0.5
62
256
6
ByLayer
49
0.5
62
256
6
ByLayer
0
RASTERVARIABLES
5
1ea
330

100
AcDbRasterVariables
90
0
70
1
71
1
72
1
0
ENDSEC
0
EOF
