0
SECTION
2
HEADER
9
$ACADVER
1
AC1015
9
$DWGCODEPAGE
3
ANSI_1252
9
$HANDSEED
5
20b
9
$ANGBASE
50
0
9
$ANGDIR
70
0
9
$ATTMODE
70
1
9
$AUNITS
70
0
9
$AUPREC
70
0
9
$CECOLOR
62
256
9
$CELTSCALE
40
1
9
$CELTYPE
6
ByLayer
9
$CELWEIGHT
370
18
9
$CLAYER
8
0
9
$CMLJUST
70
0
9
$CMLSCALE
40
1
9
$CMLSTYLE
2
Standard
9
$DIMSTYLE
2
Standard
9
$TEXTSIZE
40
0.2
9
$TEXTSTYLE
7
Standard
9
$LUNITS
70
2
9
$LUPREC
70
4
9
$EXTNAMES
290
1
9
$INSUNITS
70
4
9
$LTSCALE
40
1
9
$LWDISPLAY
290
1
9
$PDMODE
70
0
9
$PDSIZE
40
0
9
$PLINEGEN
70
0
0
ENDSEC
0
SECTION
2
CLASSES
0
CLASS
1
RASTERVARIABLES
2
AcDbRasterVariables
3
ISM
90
0
280
0
281
0
0
ENDSEC
0
SECTION
2
TABLES
0
TABLE
2
VPORT
5
201
100
AcDbSymbolTable
0
VPORT
5
1
100
AcDbSymbolTableRecord
100
AcDbViewportTableRecord
2
*Active
70
0
10
0
20
0
11
1
21
1
12
-1
22
1
13
0
23
0
14
0.5
24
0.5
15
10
25
10
16
0
26
0
36
1
17
0
27
0
37
0
0
ENDTAB
0
TABLE
2
LTYPE
5
202
100
AcDbSymbolTable
0
LTYPE
5
14
100
AcDbSymbolTableRecord
100
AcDbLinetypeTableRecord
70
0
2
ByBlock
3

72
65
73
0
40
0
0
LTYPE
5
15
100
AcDbSymbolTableRecord
100
AcDbLinetypeTableRecord
70
0
2
ByLayer
3

72
65
73
0
40
0
0
LTYPE
5
16
100
AcDbSymbolTableRecord
100
AcDbLinetypeTableRecord
70
0
2
Continuous
3
Solid line
72
65
73
0
40
0
0
LTYPE
5
6E
100
AcDbSymbolTableRecord
100
AcDbLinetypeTableRecord
70
0
2
CENTER
3
____ _ ____ _ ____ _ ____
72
65
73
4
40
47.5
49
22
74
0
49
-8.5
74
0
49
8.5
74
0
49
-8.5
74
0
0
LTYPE
5
6F
100
AcDbSymbolTableRecord
100
AcDbLinetypeTableRecord
70
0
2
DASHED
3
__ __ __ __ __ __ __ __ __
72
65
73
2
40
25.72
49
12.86
74
0
49
-12.86
74
0
0
ENDTAB
0
TABLE
2
LAYER
5
203
100
AcDbSymbolTable
0
LAYER
5
10
100
AcDbSymbolTableRecord
100
AcDbLayerTableRecord
2
0
70
0
62
7
6
Continuous
290
1
370
-3
390
0
0
LAYER
5
71
100
AcDbSymbolTableRecord
100
AcDbLayerTableRecord
2
80
70
0
62
-6
6
Continuous
290
1
370
-3
390
0
0
LAYER
5
73
100
AcDbSymbolTableRecord
100
AcDbLayerTableRecord
2
81
70
0
62
-3
6
Continuous
290
1
370
-3
390
0
0
LAYER
5
75
100
AcDbSymbolTableRecord
100
AcDbLayerTableRecord
2
1
70
0
62
4
6
Continuous
290
1
370
-3
390
0
0
LAYER
5
8A
100
AcDbSymbolTableRecord
100
AcDbLayerTableRecord
2
4
70
0
62
-2
6
CENTER
290
1
370
-3
390
0
0
LAYER
5
A5
100
AcDbSymbolTableRecord
100
AcDbLayerTableRecord
2
2
70
0
62
7
6
Continuous
290
1
370
-3
390
0
0
LAYER
5
116
100
AcDbSymbolTableRecord
100
AcDbLayerTableRecord
2
Defpoints
70
0
62
7
6
Continuous
290
0
370
-3
390
0
0
LAYER
5
1ed
100
AcDbSymbolTableRecord
100
AcDbLayerTableRecord
2
SK1
70
0
62
4
6
Continuous
290
1
370
-3
390
0
0
LAYER
5
1ee
100
AcDbSymbolTableRecord
100
AcDbLayerTableRecord
2
SK4
70
0
62
2
6
CENTER
290
1
370
-3
390
0
0
LAYER
5
1ef
100
AcDbSymbolTableRecord
100
AcDbLayerTableRecord
2
SK2
70
0
62
7
6
Continuous
290
1
370
-3
390
0
0
LAYER
5
1f0
100
AcDbSymbolTableRecord
100
AcDbLayerTableRecord
2
SK6
70
0
62
5
6
Continuous
290
1
370
-3
390
0
0
ENDTAB
0
TABLE
2
STYLE
5
204
100
AcDbSymbolTable
0
STYLE
5
11
100
AcDbSymbolTableRecord
100
AcDbTextStyleTableRecord
2
Standard
3
txt
70
0
71
0
40
0
41
1
42
0
50
0
0
STYLE
5
FB
100
AcDbSymbolTableRecord
100
AcDbTextStyleTableRecord
2
iso_b_vert
3
simplex.shx
70
0
71
0
40
0
41
1
42
0
50
0
0
STYLE
5
FC
100
AcDbSymbolTableRecord
100
AcDbTextStyleTableRecord
2
DWGDirectTextStyle
3
simplex
70
0
71
0
40
0
41
1
42
0
50
0
0
ENDTAB
0
TABLE
2
DIMSTYLE
5
205
100
AcDbSymbolTable
100
AcDbDimStyleTable
0
DIMSTYLE
105
27
100
AcDbSymbolTableRecord
100
AcDbDimStyleTableRecord
2
Standard
70
0
3
<>
41
0.18
42
0.0625
44
0.18
140
0.18
147
0.09
73
0
74
0
77
1
271
2
275
0
278
52
280
0
340
11
0
ENDTAB
0
TABLE
2
VIEW
5
206
100
AcDbSymbolTable
0
ENDTAB
0
TABLE
2
UCS
5
207
100
AcDbSymbolTable
0
ENDTAB
0
TABLE
2
APPID
5
208
100
AcDbSymbolTable
0
APPID
5
12
100
AcDbSymbolTableRecord
100
AcDbRegAppTableRecord
2
ACAD
70
0
0
APPID
5
112
100
AcDbSymbolTableRecord
100
AcDbRegAppTableRecord
2
ACAD_DSTYLE_DIMBREAK
70
0
0
APPID
5
1AC
100
AcDbSymbolTableRecord
100
AcDbRegAppTableRecord
2
ACAD_DSTYLE_DIM_LINETYPE
70
0
0
APPID
5
1AD
100
AcDbSymbolTableRecord
100
AcDbRegAppTableRecord
2
ACAD_DSTYLE_DIM_EXT1_LINETYPE
70
0
0
APPID
5
1AE
100
AcDbSymbolTableRecord
100
AcDbRegAppTableRecord
2
ACAD_DSTYLE_DIM_EXT2_LINETYPE
70
0
0
APPID
5
1E9
100
AcDbSymbolTableRecord
100
AcDbRegAppTableRecord
2
ACAD_MLEADERVER
70
0
0
ENDTAB
0
TABLE
2
BLOCK_RECORD
5
209
100
AcDbSymbolTable
0
BLOCK_RECORD
5
1F
100
AcDbSymbolTableRecord
100
AcDbBlockTableRecord
2
*Model_Space
340
0
70
0
0
BLOCK_RECORD
5
1B
100
AcDbSymbolTableRecord
100
AcDbBlockTableRecord
2
*Paper_Space
340
0
70
0
0
BLOCK_RECORD
5
23
100
AcDbSymbolTableRecord
100
AcDbBlockTableRecord
2
*Paper_Space0
340
0
70
0
0
BLOCK_RECORD
5
117
100
AcDbSymbolTableRecord
100
AcDbBlockTableRecord
2
*D1
340
0
70
0
0
BLOCK_RECORD
5
123
100
AcDbSymbolTableRecord
100
AcDbBlockTableRecord
2
_U0
340
0
70
0
0
BLOCK_RECORD
5
12F
100
AcDbSymbolTableRecord
100
AcDbBlockTableRecord
2
*D3
340
0
70
0
0
BLOCK_RECORD
5
13B
100
AcDbSymbolTableRecord
100
AcDbBlockTableRecord
2
_U1
340
0
70
0
0
BLOCK_RECORD
5
147
100
AcDbSymbolTableRecord
100
AcDbBlockTableRecord
2
*D5
340
0
70
0
0
BLOCK_RECORD
5
153
100
AcDbSymbolTableRecord
100
AcDbBlockTableRecord
2
_U2
340
0
70
0
0
BLOCK_RECORD
5
15F
100
AcDbSymbolTableRecord
100
AcDbBlockTableRecord
2
*D7
340
0
70
0
0
BLOCK_RECORD
5
16D
100
AcDbSymbolTableRecord
100
AcDbBlockTableRecord
2
_U3
340
0
70
0
0
BLOCK_RECORD
5
179
100
AcDbSymbolTableRecord
100
AcDbBlockTableRecord
2
*D9
340
0
70
0
0
BLOCK_RECORD
5
185
100
AcDbSymbolTableRecord
100
AcDbBlockTableRecord
2
_U4
340
0
70
0
0
ENDTAB
0
ENDSEC
0
SECTION
2
BLOCKS
0
BLOCK
5
20
100
AcDbEntity
8
0
100
AcDbBlockBegin
2
*Model_Space
70
0
10
0
20
0
30
0
3
*Model_Space
0
ENDBLK
5
21
100
AcDbEntity
8
0
100
AcDbBlockEnd
0
BLOCK
5
1C
100
AcDbEntity
8
0
100
AcDbBlockBegin
2
*Paper_Space
70
0
10
0
20
0
30
0
3
*Paper_Space
0
ENDBLK
5
1D
100
AcDbEntity
8
0
100
AcDbBlockEnd
0
BLOCK
5
24
100
AcDbEntity
8
0
100
AcDbBlockBegin
2
*Paper_Space0
70
0
10
0
20
0
30
0
3
*Paper_Space0
0
ENDBLK
5
25
100
AcDbEntity
8
0
100
AcDbBlockEnd
0
BLOCK
5
118
100
AcDbEntity
8
0
100
AcDbBlockBegin
2
*D1
70
1
10
0
20
0
30
0
3
*D1
0
LINE
5
11A
100
AcDbEntity
8
0
62
256
6
ByLayer
370
-2
48
1
60
0
100
AcDbLine
10
0
20
-1.5875
30
0
11
0
21
-14.713398
31
0
39
0
210
0
220
0
230
1
0
LINE
5
11B
100
AcDbEntity
8
0
62
256
6
ByLayer
370
-2
48
1
60
0
100
AcDbLine
10
45.2695
20
-4.0875
30
0
11
45.2695
21
-14.713398
31
0
39
0
210
0
220
0
230
1
0
LINE
5
11C
100
AcDbEntity
8
0
62
256
6
ByLayer
370
-2
48
1
60
0
100
AcDbLine
10
3.5
20
-12.713398
30
0
11
41.7695
21
-12.713398
31
0
39
0
210
0
220
0
230
1
0
SOLID
5
11D
100
AcDbEntity
8
0
62
256
6
ByLayer
370
-1
48
1
60
0
100
AcDbTrace
10
3.5
20
-12.130065
30
0
11
3.5
21
-13.296732
31
0
12
0
22
-12.713398
32
0
13
0
23
-12.713398
33
0
39
0
210
0
220
0
230
1
0
SOLID
5
11E
100
AcDbEntity
8
0
62
256
6
ByLayer
370
-1
48
1
60
0
100
AcDbTrace
10
41.7695
20
-13.296732
30
0
11
41.7695
21
-12.130065
31
0
12
45.2695
22
-12.713398
32
0
13
45.2695
23
-12.713398
33
0
39
0
210
0
220
0
230
1
0
MTEXT
5
11F
100
AcDbEntity
8
0
62
256
6
ByLayer
370
18
48
1
60
0
100
AcDbMText
10
22.63475
20
-5.713398
30
0
210
0
220
0
230
1
1
\A1;45.27
40
3.5
41
0
44
1
50
0
71
5
72
5
7
iso_b_vert
0
POINT
5
120
100
AcDbEntity
8
Defpoints
62
0
6
ByLayer
370
-1
48
1
60
0
100
AcDbPoint
10
0
20
0
30
0
39
0
210
0
220
0
230
1
50
360
0
POINT
5
121
100
AcDbEntity
8
Defpoints
62
0
6
ByLayer
370
-1
48
1
60
0
100
AcDbPoint
10
45.2695
20
-2.5
30
0
39
0
210
0
220
0
230
1
50
360
0
POINT
5
122
100
AcDbEntity
8
Defpoints
62
0
6
ByLayer
370
-1
48
1
60
0
100
AcDbPoint
10
45.2695
20
-12.713398
30
0
39
0
210
0
220
0
230
1
50
360
0
ENDBLK
5
119
100
AcDbEntity
8
0
100
AcDbBlockEnd
0
BLOCK
5
12A
100
AcDbEntity
8
0
100
AcDbBlockBegin
2
_U0
70
0
10
0
20
0
30
0
3
_U0
0
MTEXT
5
124
100
AcDbEntity
8
SK2
62
256
6
ByLayer
370
13
48
1
60
0
100
AcDbMText
10
17.313185
20
-11.680765
30
0
210
0
220
0
230
1
1
\W0.7581;45,27
40
3.5
41
0
44
1.084337
50
0
71
7
72
5
7
iso_b_vert
0
LINE
5
125
100
AcDbEntity
8
SK2
62
256
6
ByLayer
370
13
48
1
60
0
100
AcDbLine
10
0
20
-1.5875
30
0
11
0
21
-14.713398
31
0
39
0
210
0
220
0
230
1
0
LINE
5
126
100
AcDbEntity
8
SK2
62
256
6
ByLayer
370
13
48
1
60
0
100
AcDbLine
10
45.2695
20
-4.0875
30
0
11
45.2695
21
-14.713398
31
0
39
0
210
0
220
0
230
1
0
LINE
5
127
100
AcDbEntity
8
SK2
62
256
6
ByLayer
370
13
48
1
60
0
100
AcDbLine
10
0
20
-12.713398
30
0
11
45.2695
21
-12.713398
31
0
39
0
210
0
220
0
230
1
0
SOLID
5
128
100
AcDbEntity
8
SK2
62
256
6
ByLayer
370
18
48
1
60
0
100
AcDbTrace
10
0
20
-12.713398
30
0
11
3.499998
21
-12.252615
31
0
12
3.500002
22
-13.174182
32
0
13
3.500002
23
-13.174182
33
0
39
0
210
0
220
0
230
1
0
SOLID
5
129
100
AcDbEntity
8
SK2
62
256
6
ByLayer
370
18
48
1
60
0
100
AcDbTrace
10
45.2695
20
-12.713398
30
0
11
41.769502
21
-13.174182
31
0
12
41.769498
22
-12.252615
32
0
13
41.769498
23
-12.252615
33
0
39
0
210
0
220
0
230
1
0
ENDBLK
5
12B
100
AcDbEntity
8
0
100
AcDbBlockEnd
0
BLOCK
5
130
100
AcDbEntity
8
0
100
AcDbBlockBegin
2
*D3
70
1
10
0
20
0
30
0
3
*D3
0
LINE
5
132
100
AcDbEntity
8
0
62
256
6
ByLayer
370
-2
48
1
60
0
100
AcDbLine
10
-36
20
-4.5875
30
0
11
-36
21
-33.692985
31
0
39
0
210
0
220
0
230
1
0
LINE
5
133
100
AcDbEntity
8
0
62
256
6
ByLayer
370
-2
48
1
60
0
100
AcDbLine
10
46
20
-1.5875
30
0
11
46
21
-33.692985
31
0
39
0
210
0
220
0
230
1
0
LINE
5
134
100
AcDbEntity
8
0
62
256
6
ByLayer
370
-2
48
1
60
0
100
AcDbLine
10
-32.5
20
-31.692985
30
0
11
42.5
21
-31.692985
31
0
39
0
210
0
220
0
230
1
0
SOLID
5
135
100
AcDbEntity
8
0
62
256
6
ByLayer
370
-1
48
1
60
0
100
AcDbTrace
10
-32.5
20
-31.109652
30
0
11
-32.5
21
-32.276319
31
0
12
-36
22
-31.692985
32
0
13
-36
23
-31.692985
33
0
39
0
210
0
220
0
230
1
0
SOLID
5
136
100
AcDbEntity
8
0
62
256
6
ByLayer
370
-1
48
1
60
0
100
AcDbTrace
10
42.5
20
-32.276319
30
0
11
42.5
21
-31.109652
31
0
12
46
22
-31.692985
32
0
13
46
23
-31.692985
33
0
39
0
210
0
220
0
230
1
0
MTEXT
5
137
100
AcDbEntity
8
0
62
256
6
ByLayer
370
18
48
1
60
0
100
AcDbMText
10
5
20
-24.692985
30
0
210
0
220
0
230
1
1
\A1;82.00
40
3.5
41
0
44
1
50
0
71
5
72
5
7
iso_b_vert
0
POINT
5
138
100
AcDbEntity
8
Defpoints
62
0
6
ByLayer
370
-1
48
1
60
0
100
AcDbPoint
10
-36
20
-3
30
0
39
0
210
0
220
0
230
1
50
360
0
POINT
5
139
100
AcDbEntity
8
Defpoints
62
0
6
ByLayer
370
-1
48
1
60
0
100
AcDbPoint
10
46
20
0
30
0
39
0
210
0
220
0
230
1
50
360
0
POINT
5
13A
100
AcDbEntity
8
Defpoints
62
0
6
ByLayer
370
-1
48
1
60
0
100
AcDbPoint
10
46
20
-31.692985
30
0
39
0
210
0
220
0
230
1
50
360
0
ENDBLK
5
131
100
AcDbEntity
8
0
100
AcDbBlockEnd
0
BLOCK
5
142
100
AcDbEntity
8
0
100
AcDbBlockBegin
2
_U1
70
0
10
0
20
0
30
0
3
_U1
0
MTEXT
5
13C
100
AcDbEntity
8
SK2
62
256
6
ByLayer
370
13
48
1
60
0
100
AcDbMText
10
-0.137299
20
-30.660352
30
0
210
0
220
0
230
1
1
\W0.7317;82,00
40
3.5
41
0
44
1.084337
50
0
71
7
72
5
7
iso_b_vert
0
LINE
5
13D
100
AcDbEntity
8
SK2
62
256
6
ByLayer
370
13
48
1
60
0
100
AcDbLine
10
-36
20
-4.5875
30
0
11
-36
21
-33.692985
31
0
39
0
210
0
220
0
230
1
0
LINE
5
13E
100
AcDbEntity
8
SK2
62
256
6
ByLayer
370
13
48
1
60
0
100
AcDbLine
10
46
20
-1.5875
30
0
11
46
21
-33.692985
31
0
39
0
210
0
220
0
230
1
0
LINE
5
13F
100
AcDbEntity
8
SK2
62
256
6
ByLayer
370
13
48
1
60
0
100
AcDbLine
10
-36
20
-31.692985
30
0
11
46
21
-31.692985
31
0
39
0
210
0
220
0
230
1
0
SOLID
5
140
100
AcDbEntity
8
SK2
62
256
6
ByLayer
370
18
48
1
60
0
100
AcDbTrace
10
-36
20
-31.692985
30
0
11
-32.500002
21
-31.232202
31
0
12
-32.499998
22
-32.153769
32
0
13
-32.499998
23
-32.153769
33
0
39
0
210
0
220
0
230
1
0
SOLID
5
141
100
AcDbEntity
8
SK2
62
256
6
ByLayer
370
18
48
1
60
0
100
AcDbTrace
10
46
20
-31.692985
30
0
11
42.500002
21
-32.153769
31
0
12
42.499998
22
-31.232202
32
0
13
42.499998
23
-31.232202
33
0
39
0
210
0
220
0
230
1
0
ENDBLK
5
143
100
AcDbEntity
8
0
100
AcDbBlockEnd
0
BLOCK
5
148
100
AcDbEntity
8
0
100
AcDbBlockBegin
2
*D5
70
1
10
0
20
0
30
0
3
*D5
0
LINE
5
14A
100
AcDbEntity
8
0
62
256
6
ByLayer
370
-2
48
1
60
0
100
AcDbLine
10
20.27
20
4.0875
30
0
11
20.27
21
16.109119
31
0
39
0
210
0
220
0
230
1
0
LINE
5
14B
100
AcDbEntity
8
0
62
256
6
ByLayer
370
-2
48
1
60
0
100
AcDbLine
10
46
20
1.5875
30
0
11
46
21
16.109119
31
0
39
0
210
0
220
0
230
1
0
LINE
5
14C
100
AcDbEntity
8
0
62
256
6
ByLayer
370
-2
48
1
60
0
100
AcDbLine
10
23.77
20
14.109119
30
0
11
42.5
21
14.109119
31
0
39
0
210
0
220
0
230
1
0
SOLID
5
14D
100
AcDbEntity
8
0
62
256
6
ByLayer
370
-1
48
1
60
0
100
AcDbTrace
10
23.77
20
14.692453
30
0
11
23.77
21
13.525786
31
0
12
20.27
22
14.109119
32
0
13
20.27
23
14.109119
33
0
39
0
210
0
220
0
230
1
0
SOLID
5
14E
100
AcDbEntity
8
0
62
256
6
ByLayer
370
-1
48
1
60
0
100
AcDbTrace
10
42.5
20
13.525786
30
0
11
42.5
21
14.692453
31
0
12
46
22
14.109119
32
0
13
46
23
14.109119
33
0
39
0
210
0
220
0
230
1
0
MTEXT
5
14F
100
AcDbEntity
8
0
62
256
6
ByLayer
370
18
48
1
60
0
100
AcDbMText
10
33.135
20
21.109119
30
0
210
0
220
0
230
1
1
\A1;25.73
40
3.5
41
0
44
1
50
0
71
5
72
5
7
iso_b_vert
0
POINT
5
150
100
AcDbEntity
8
Defpoints
62
0
6
ByLayer
370
-1
48
1
60
0
100
AcDbPoint
10
20.27
20
2.5
30
0
39
0
210
0
220
0
230
1
50
360
0
POINT
5
151
100
AcDbEntity
8
Defpoints
62
0
6
ByLayer
370
-1
48
1
60
0
100
AcDbPoint
10
46
20
0
30
0
39
0
210
0
220
0
230
1
50
360
0
POINT
5
152
100
AcDbEntity
8
Defpoints
62
0
6
ByLayer
370
-1
48
1
60
0
100
AcDbPoint
10
46
20
14.109119
30
0
39
0
210
0
220
0
230
1
50
360
0
ENDBLK
5
149
100
AcDbEntity
8
0
100
AcDbBlockEnd
0
BLOCK
5
15A
100
AcDbEntity
8
0
100
AcDbBlockBegin
2
_U2
70
0
10
0
20
0
30
0
3
_U2
0
MTEXT
5
154
100
AcDbEntity
8
SK2
62
256
6
ByLayer
370
13
48
1
60
0
100
AcDbMText
10
27.997701
20
15.141753
30
0
210
0
220
0
230
1
1
\W0.7317;25,73
40
3.5
41
0
44
1.084337
50
0
71
7
72
5
7
iso_b_vert
0
LINE
5
155
100
AcDbEntity
8
SK2
62
256
6
ByLayer
370
13
48
1
60
0
100
AcDbLine
10
20.27
20
4.0875
30
0
11
20.27
21
16.109119
31
0
39
0
210
0
220
0
230
1
0
LINE
5
156
100
AcDbEntity
8
SK2
62
256
6
ByLayer
370
13
48
1
60
0
100
AcDbLine
10
46
20
1.5875
30
0
11
46
21
16.109119
31
0
39
0
210
0
220
0
230
1
0
LINE
5
157
100
AcDbEntity
8
SK2
62
256
6
ByLayer
370
13
48
1
60
0
100
AcDbLine
10
20.27
20
14.109119
30
0
11
46
21
14.109119
31
0
39
0
210
0
220
0
230
1
0
SOLID
5
158
100
AcDbEntity
8
SK2
62
256
6
ByLayer
370
18
48
1
60
0
100
AcDbTrace
10
20.27
20
14.109119
30
0
11
23.769998
21
14.569903
31
0
12
23.770002
22
13.648335
32
0
13
23.770002
23
13.648335
33
0
39
0
210
0
220
0
230
1
0
SOLID
5
159
100
AcDbEntity
8
SK2
62
256
6
ByLayer
370
18
48
1
60
0
100
AcDbTrace
10
46
20
14.109119
30
0
11
42.500002
21
13.648335
31
0
12
42.499998
22
14.569903
32
0
13
42.499998
23
14.569903
33
0
39
0
210
0
220
0
230
1
0
ENDBLK
5
15B
100
AcDbEntity
8
0
100
AcDbBlockEnd
0
BLOCK
5
160
100
AcDbEntity
8
0
100
AcDbBlockBegin
2
*D7
70
1
10
0
20
0
30
0
3
*D7
0
LINE
5
162
100
AcDbEntity
8
0
62
256
6
ByLayer
370
-2
48
1
60
0
100
AcDbLine
10
46
20
-1.5875
30
0
11
46
21
-17.302503
31
0
39
0
210
0
220
0
230
1
0
LINE
5
163
100
AcDbEntity
8
0
62
256
6
ByLayer
370
-2
48
1
60
0
100
AcDbLine
10
45.2695
20
-4.0875
30
0
11
45.2695
21
-17.302503
31
0
39
0
210
0
220
0
230
1
0
LINE
5
164
100
AcDbEntity
8
0
62
256
6
ByLayer
370
-2
48
1
60
0
100
AcDbLine
10
46
20
-15.302503
30
0
11
74.166667
21
-15.302503
31
0
39
0
210
0
220
0
230
1
0
LINE
5
165
100
AcDbEntity
8
0
62
256
6
ByLayer
370
-2
48
1
60
0
100
AcDbLine
10
49.5
20
-15.302503
30
0
11
53
21
-15.302503
31
0
39
0
210
0
220
0
230
1
0
LINE
5
166
100
AcDbEntity
8
0
62
256
6
ByLayer
370
-2
48
1
60
0
100
AcDbLine
10
41.7695
20
-15.302503
30
0
11
38.2695
21
-15.302503
31
0
39
0
210
0
220
0
230
1
0
SOLID
5
167
100
AcDbEntity
8
0
62
256
6
ByLayer
370
-1
48
1
60
0
100
AcDbTrace
10
49.5
20
-14.71917
30
0
11
49.5
21
-15.885837
31
0
12
46
22
-15.302503
32
0
13
46
23
-15.302503
33
0
39
0
210
0
220
0
230
1
0
SOLID
5
168
100
AcDbEntity
8
0
62
256
6
ByLayer
370
-1
48
1
60
0
100
AcDbTrace
10
41.7695
20
-15.885837
30
0
11
41.7695
21
-14.71917
31
0
12
45.2695
22
-15.302503
32
0
13
45.2695
23
-15.302503
33
0
39
0
210
0
220
0
230
1
0
MTEXT
5
169
100
AcDbEntity
8
0
62
256
6
ByLayer
370
18
48
1
60
0
100
AcDbMText
10
63.583333
20
-8.302503
30
0
210
0
220
0
230
1
1
\A1;0.73
40
3.5
41
0
44
1
50
0
71
5
72
5
7
iso_b_vert
0
POINT
5
16A
100
AcDbEntity
8
Defpoints
62
0
6
ByLayer
370
-1
48
1
60
0
100
AcDbPoint
10
46
20
0
30
0
39
0
210
0
220
0
230
1
50
360
0
POINT
5
16B
100
AcDbEntity
8
Defpoints
62
0
6
ByLayer
370
-1
48
1
60
0
100
AcDbPoint
10
45.2695
20
-2.5
30
0
39
0
210
0
220
0
230
1
50
360
0
POINT
5
16C
100
AcDbEntity
8
Defpoints
62
0
6
ByLayer
370
-1
48
1
60
0
100
AcDbPoint
10
45.2695
20
-15.302503
30
0
39
0
210
0
220
0
230
1
50
360
0
ENDBLK
5
161
100
AcDbEntity
8
0
100
AcDbBlockEnd
0
BLOCK
5
174
100
AcDbEntity
8
0
100
AcDbBlockBegin
2
_U3
70
0
10
0
20
0
30
0
3
_U3
0
MTEXT
5
16E
100
AcDbEntity
8
SK2
62
256
6
ByLayer
370
13
48
1
60
0
100
AcDbMText
10
52.15186
20
-14.26987
30
0
210
0
220
0
230
1
1
\W0.7150;0,73
40
3.5
41
0
44
1.084337
50
0
71
7
72
5
7
iso_b_vert
0
LINE
5
16F
100
AcDbEntity
8
SK2
62
256
6
ByLayer
370
13
48
1
60
0
100
AcDbLine
10
46
20
-1.5875
30
0
11
46
21
-17.302503
31
0
39
0
210
0
220
0
230
1
0
LINE
5
170
100
AcDbEntity
8
SK2
62
256
6
ByLayer
370
13
48
1
60
0
100
AcDbLine
10
45.2695
20
-4.0875
30
0
11
45.2695
21
-17.302503
31
0
39
0
210
0
220
0
230
1
0
LINE
5
171
100
AcDbEntity
8
SK2
62
256
6
ByLayer
370
13
48
1
60
0
100
AcDbLine
10
36.5195
20
-15.302503
30
0
11
59.996491
21
-15.302503
31
0
39
0
210
0
220
0
230
1
0
SOLID
5
172
100
AcDbEntity
8
SK2
62
256
6
ByLayer
370
18
48
1
60
0
100
AcDbTrace
10
46
20
-15.302503
30
0
11
49.499998
21
-14.841719
31
0
12
49.500002
22
-15.763287
32
0
13
49.500002
23
-15.763287
33
0
39
0
210
0
220
0
230
1
0
SOLID
5
173
100
AcDbEntity
8
SK2
62
256
6
ByLayer
370
18
48
1
60
0
100
AcDbTrace
10
45.2695
20
-15.302503
30
0
11
41.769502
21
-15.763287
31
0
12
41.769498
22
-14.841719
32
0
13
41.769498
23
-14.841719
33
0
39
0
210
0
220
0
230
1
0
ENDBLK
5
175
100
AcDbEntity
8
0
100
AcDbBlockEnd
0
BLOCK
5
17A
100
AcDbEntity
8
0
100
AcDbBlockBegin
2
*D9
70
1
10
0
20
0
30
0
3
*D9
0
LINE
5
17C
100
AcDbEntity
8
0
62
256
6
ByLayer
370
-2
48
1
60
0
100
AcDbLine
10
-36
20
-4.5875
30
0
11
-36
21
-23.343428
31
0
39
0
210
0
220
0
230
1
0
LINE
5
17D
100
AcDbEntity
8
0
62
256
6
ByLayer
370
-2
48
1
60
0
100
AcDbLine
10
45.2695
20
-4.0875
30
0
11
45.2695
21
-23.343428
31
0
39
0
210
0
220
0
230
1
0
LINE
5
17E
100
AcDbEntity
8
0
62
256
6
ByLayer
370
-2
48
1
60
0
100
AcDbLine
10
-32.5
20
-21.343428
30
0
11
41.7695
21
-21.343428
31
0
39
0
210
0
220
0
230
1
0
SOLID
5
17F
100
AcDbEntity
8
0
62
256
6
ByLayer
370
-1
48
1
60
0
100
AcDbTrace
10
-32.5
20
-20.760095
30
0
11
-32.5
21
-21.926762
31
0
12
-36
22
-21.343428
32
0
13
-36
23
-21.343428
33
0
39
0
210
0
220
0
230
1
0
SOLID
5
180
100
AcDbEntity
8
0
62
256
6
ByLayer
370
-1
48
1
60
0
100
AcDbTrace
10
41.7695
20
-21.926762
30
0
11
41.7695
21
-20.760095
31
0
12
45.2695
22
-21.343428
32
0
13
45.2695
23
-21.343428
33
0
39
0
210
0
220
0
230
1
0
MTEXT
5
181
100
AcDbEntity
8
0
62
256
6
ByLayer
370
18
48
1
60
0
100
AcDbMText
10
4.63475
20
-14.343428
30
0
210
0
220
0
230
1
1
\A1;81.27
40
3.5
41
0
44
1
50
0
71
5
72
5
7
iso_b_vert
0
POINT
5
182
100
AcDbEntity
8
Defpoints
62
0
6
ByLayer
370
-1
48
1
60
0
100
AcDbPoint
10
-36
20
-3
30
0
39
0
210
0
220
0
230
1
50
360
0
POINT
5
183
100
AcDbEntity
8
Defpoints
62
0
6
ByLayer
370
-1
48
1
60
0
100
AcDbPoint
10
45.2695
20
-2.5
30
0
39
0
210
0
220
0
230
1
50
360
0
POINT
5
184
100
AcDbEntity
8
Defpoints
62
0
6
ByLayer
370
-1
48
1
60
0
100
AcDbPoint
10
45.2695
20
-21.343428
30
0
39
0
210
0
220
0
230
1
50
360
0
ENDBLK
5
17B
100
AcDbEntity
8
0
100
AcDbBlockEnd
0
BLOCK
5
18C
100
AcDbEntity
8
0
100
AcDbBlockBegin
2
_U4
70
0
10
0
20
0
30
0
3
_U4
0
MTEXT
5
186
100
AcDbEntity
8
SK2
62
256
6
ByLayer
370
13
48
1
60
0
100
AcDbMText
10
-0.065115
20
-20.310795
30
0
210
0
220
0
230
1
1
\W0.6713;81,27
40
3.5
41
0
44
1.084337
50
0
71
7
72
5
7
iso_b_vert
0
LINE
5
187
100
AcDbEntity
8
SK2
62
256
6
ByLayer
370
13
48
1
60
0
100
AcDbLine
10
-36
20
-4.5875
30
0
11
-36
21
-23.343428
31
0
39
0
210
0
220
0
230
1
0
LINE
5
188
100
AcDbEntity
8
SK2
62
256
6
ByLayer
370
13
48
1
60
0
100
AcDbLine
10
45.2695
20
-4.0875
30
0
11
45.2695
21
-23.343428
31
0
39
0
210
0
220
0
230
1
0
LINE
5
189
100
AcDbEntity
8
SK2
62
256
6
ByLayer
370
13
48
1
60
0
100
AcDbLine
10
-36
20
-21.343428
30
0
11
45.2695
21
-21.343428
31
0
39
0
210
0
220
0
230
1
0
SOLID
5
18A
100
AcDbEntity
8
SK2
62
256
6
ByLayer
370
18
48
1
60
0
100
AcDbTrace
10
-36
20
-21.343428
30
0
11
-32.500002
21
-20.882645
31
0
12
-32.499998
22
-21.804212
32
0
13
-32.499998
23
-21.804212
33
0
39
0
210
0
220
0
230
1
0
SOLID
5
18B
100
AcDbEntity
8
SK2
62
256
6
ByLayer
370
18
48
1
60
0
100
AcDbTrace
10
45.2695
20
-21.343428
30
0
11
41.769502
21
-21.804212
31
0
12
41.769498
22
-20.882645
32
0
13
41.769498
23
-20.882645
33
0
39
0
210
0
220
0
230
1
0
ENDBLK
5
18D
100
AcDbEntity
8
0
100
AcDbBlockEnd
0
ENDSEC
0
SECTION
2
ENTITIES
0
ARC
5
AE
100
AcDbEntity
8
1
62
256
6
ByLayer
370
18
48
1
60
0
100
AcDbCircle
39
0
10
1.187376
20
-3.272445
30
0
40
0.799999999999997
210
0
220
0
230
1
100
AcDbArc
50
89.96419
51
137.911455
0
ARC
5
AF
100
AcDbEntity
8
1
62
256
6
ByLayer
370
18
48
1
60
0
100
AcDbCircle
39
0
10
1.187376
20
3.272445
30
0
40
0.799999999999997
210
0
220
0
230
1
100
AcDbArc
50
222.088545
51
270.03581
0
ARC
5
B0
100
AcDbEntity
8
1
62
256
6
ByLayer
370
18
48
1
60
0
100
AcDbCircle
39
0
10
0
20
-2.2
30
0
40
0.800000000000002
210
0
220
0
230
1
100
AcDbArc
50
270
51
317.911455
0
ARC
5
B1
100
AcDbEntity
8
1
62
256
6
ByLayer
370
18
48
1
60
0
100
AcDbCircle
39
0
10
0
20
2.2
30
0
40
0.800000000000002
210
0
220
0
230
1
100
AcDbArc
50
42.088545
51
90
0
ELLIPSE
5
B2
100
AcDbEntity
8
1
62
256
6
ByLayer
370
13
48
1
60
0
100
AcDbEllipse
10
4.25026
20
-0.097913
30
0
11
0.0425785468643406
21
0.090482414572784
31
0
210
0
220
0
230
1
40
0.015769
41
1.53321816476553
42
3.07126053634191
0
ELLIPSE
5
B3
100
AcDbEntity
8
1
62
256
6
ByLayer
370
13
48
1
60
0
100
AcDbEllipse
10
4.185811
20
-0.068522
30
0
11
0.0404869798887674
21
0.0914374346724936
31
0
210
0
220
0
230
1
40
0.406303
41
1.72103647471921
42
3.07722917068818
0
POINT
5
70
100
AcDbEntity
8
80
62
256
6
ByLayer
370
18
48
1
60
0
100
AcDbPoint
10
0
20
0
30
0
39
0
210
0
220
0
230
1
50
360
0
POINT
5
72
100
AcDbEntity
8
81
62
256
6
ByLayer
370
18
48
1
60
0
100
AcDbPoint
10
46
20
0
30
0
39
0
210
0
220
0
230
1
50
360
0
POINT
5
74
100
AcDbEntity
8
1
62
256
6
ByLayer
370
18
48
1
60
1
100
AcDbPoint
10
45.2695
20
-2.5
30
0
39
0
210
0
220
0
230
1
50
360
0
POINT
5
76
100
AcDbEntity
8
1
62
256
6
ByLayer
370
18
48
1
60
1
100
AcDbPoint
10
-36
20
-3
30
0
39
0
210
0
220
0
230
1
50
360
0
POINT
5
77
100
AcDbEntity
8
1
62
256
6
ByLayer
370
18
48
1
60
1
100
AcDbPoint
10
20.27
20
2.5
30
0
39
0
210
0
220
0
230
1
50
360
0
POINT
5
78
100
AcDbEntity
8
1
62
256
6
ByLayer
370
18
48
1
60
1
100
AcDbPoint
10
45.2695
20
-2.5
30
0
39
0
210
0
220
0
230
1
50
360
0
POINT
5
79
100
AcDbEntity
8
1
62
256
6
ByLayer
370
18
48
1
60
1
100
AcDbPoint
10
-36
20
-3
30
0
39
0
210
0
220
0
230
1
50
360
0
POINT
5
7A
100
AcDbEntity
8
1
62
256
6
ByLayer
370
18
48
1
60
1
100
AcDbPoint
10
45.2695
20
-2.5
30
0
39
0
210
0
220
0
230
1
50
360
0
SPLINE
5
B4
100
AcDbEntity
8
SK1
62
256
6
ByLayer
370
18
48
1
60
0
100
AcDbSpline
70
4
71
3
72
12
73
8
40
0
40
0
40
0
40
0
40
0.500000000000001
40
0.500000000000001
40
0.75
40
0.75
40
1
40
1
40
1
40
1
41
1
10
-35.75
20
-2.20238248682594
30
0
41
1
10
-35.7259913046562
20
-2.22269013138319
30
0
41
1
10
-35.7033433879313
20
-2.23915504541827
30
0
41
1
10
-35.6754686754417
20
-2.25433435668754
30
0
41
1
10
-35.667025596347
20
-2.25785079727677
30
0
41
1
10
-35.6543350076412
20
-2.25943242139684
30
0
41
1
10
-35.65
20
-2.25739129771301
30
0
41
1
10
-35.65
20
-2.2510342760049
30
0
0
SPLINE
5
B5
100
AcDbEntity
8
SK1
62
256
6
ByLayer
370
18
48
1
60
0
100
AcDbSpline
70
4
71
3
72
8
73
4
40
0
40
0
40
0
40
0
40
1
40
1
40
1
40
1
41
1
10
-36
20
-1.98939770378809
30
0
41
1
10
-35.9170254419627
20
-2.06066254724715
30
0
41
1
10
-35.8336510783831
20
-2.1316266068286
30
0
41
1
10
-35.7499999999999
20
-2.20238248682583
30
0
0
SPLINE
5
B6
100
AcDbEntity
8
SK1
62
256
6
ByLayer
370
18
48
1
60
0
100
AcDbSpline
70
4
71
3
72
8
73
4
40
0
40
0
40
0
40
0
40
1
40
1
40
1
40
1
41
1
10
-35.75
20
-1.30283374163625
30
0
41
1
10
-35.8336554104926
20
-1.23207419734416
30
0
41
1
10
-35.9170302933806
20
-1.16110963529198
30
0
41
1
10
-36
20
-1.08984895859854
30
0
0
SPLINE
5
B7
100
AcDbEntity
8
SK1
62
256
6
ByLayer
370
18
48
1
60
0
100
AcDbSpline
70
4
71
3
72
12
73
8
40
0
40
0
40
0
40
0
40
0.25
40
0.25
40
0.5
40
0.5
40
1
40
1
40
1
40
1
41
1
10
-35.65
20
-1.47142536350731
30
0
41
1
10
-35.65
20
-1.45748696437482
30
0
41
1
10
-35.6543403470552
20
-1.44099937786385
30
0
41
1
10
-35.6670034572333
20
-1.40924250566448
30
0
41
1
10
-35.6754069618006
20
-1.39352189943324
30
0
41
1
10
-35.7033744297257
20
-1.3494000442808
30
0
41
1
10
-35.7260009806424
20
-1.32313320180512
30
0
41
1
10
-35.7500000000001
20
-1.30283374163625
30
0
0
SPLINE
5
B8
100
AcDbEntity
8
1
62
256
6
ByLayer
370
18
48
1
60
0
100
AcDbSpline
70
4
71
3
72
8
73
4
40
0
40
0
40
0
40
0
40
1
40
1
40
1
40
1
41
1
10
45.1543526249854
20
-2.46317969299088
30
0
41
1
10
45.1508205592014
20
-2.47216348780014
30
0
41
1
10
45.1472858489951
20
-2.48114434944918
30
0
41
1
10
45.1437485841167
20
-2.49012218044234
30
0
0
SPLINE
5
B9
100
AcDbEntity
8
1
62
256
6
ByLayer
370
18
48
1
60
0
100
AcDbSpline
70
4
71
3
72
34
73
30
40
0
40
0
40
0
40
0
40
0.125
40
0.125
40
0.25
40
0.25
40
0.3125
40
0.3125
40
0.375000000000001
40
0.375000000000001
40
0.406250000000001
40
0.406250000000001
40
0.437500000000001
40
0.437500000000001
40
0.468750000000001
40
0.468750000000001
40
0.500000000000001
40
0.500000000000001
40
0.531250000000001
40
0.531250000000001
40
0.562500000000001
40
0.562500000000001
40
0.625000000000001
40
0.625000000000001
40
0.75
40
0.75
40
0.875
40
0.875
40
1
40
1
40
1
40
1
41
1
10
45.237711568347
20
-1.32134812642033
30
0
41
1
10
45.1431456813004
20
-1.29264762618672
30
0
41
1
10
45.0481132633225
20
-1.2552423964776
30
0
41
1
10
44.8617206070218
20
-1.16347962368795
30
0
41
1
10
44.7706859625655
20
-1.10972396181052
30
0
41
1
10
44.6390838512082
20
-1.0110598364129
30
0
41
1
10
44.5962516775424
20
-0.975230912605184
30
0
41
1
10
44.5152185665251
20
-0.89561262896396
30
0
41
1
10
44.4773320752242
20
-0.852520883048527
30
0
41
1
10
44.4295357078197
20
-0.778948262935472
30
0
41
1
10
44.4149019422607
20
-0.752366503088041
30
0
41
1
10
44.3927364133116
20
-0.696706611585796
30
0
41
1
10
44.3852008135566
20
-0.667316290538793
30
0
41
1
10
44.3828321718211
20
-0.610064726574478
30
0
41
1
10
44.3884065001073
20
-0.582771420810303
30
0
41
1
10
44.4107619122201
20
-0.53752650557476
30
0
41
1
10
44.4270295591529
20
-0.519496208218442
30
0
41
1
10
44.4634129304612
20
-0.491190104634967
30
0
41
1
10
44.4839778122778
20
-0.480465839485276
30
0
41
1
10
44.526409082951
20
-0.463968112115396
30
0
41
1
10
44.5484322957359
20
-0.458093564549415
30
0
41
1
10
44.6161135096216
20
-0.445208030585661
30
0
41
1
10
44.6632286666451
20
-0.44294568559036
30
0
41
1
10
44.8042952399927
20
-0.446964523773175
30
0
41
1
10
44.9001949087256
20
-0.463769585608389
30
0
41
1
10
45.0919705754154
20
-0.513243620676491
30
0
41
1
10
45.1873058215872
20
-0.546085451304066
30
0
41
1
10
45.3769872587728
20
-0.626275615036178
30
0
41
1
10
45.4702662155735
20
-0.673097070738748
30
0
41
1
10
45.561319977282
20
-0.728643936642328
30
0
0
SPLINE
5
BA
100
AcDbEntity
8
1
62
256
6
ByLayer
370
18
48
1
60
0
100
AcDbSpline
70
4
71
3
72
8
73
4
40
0
40
0
40
0
40
0
40
1
40
1
40
1
40
1
41
1
10
45.9582700014818
20
-0.685586970568352
30
0
41
1
10
45.9731071545724
20
-0.488641202039048
30
0
41
1
10
45.9837153799552
20
-0.291903285138574
30
0
41
1
10
45.9900859780654
20
-0.0953736474501738
30
0
0
SPLINE
5
BB
100
AcDbEntity
8
1
62
256
6
ByLayer
370
18
48
1
60
0
100
AcDbSpline
70
4
71
3
72
14
73
10
40
0
40
0
40
0
40
0
40
0.334166934913767
40
0.334166934913767
40
0.501250402370649
40
0.501250402370649
40
0.66833386982753
40
0.66833386982753
40
1
40
1
40
1
40
1
41
1
10
4.20768683933659
20
-0.188124642427084
30
0
41
1
10
4.63791668588505
20
-0.389987585535152
30
0
41
1
10
5.06684106920716
20
-0.588993274202437
30
0
41
1
10
5.71155060083709
20
-0.876567647967249
30
0
41
1
10
5.92713869969126
20
-0.970784694424225
30
0
41
1
10
6.3566735462374
20
-1.1531198568419
30
0
41
1
10
6.57061303094628
20
-1.24120583582354
30
0
41
1
10
7.20760265249194
20
-1.49342374653003
30
0
41
1
10
7.62900056434535
20
-1.64707554181217
30
0
41
1
10
8.05043076239778
20
-1.78329953949122
30
0
0
SPLINE
5
BC
100
AcDbEntity
8
1
62
256
6
ByLayer
370
13
48
1
60
0
100
AcDbSpline
70
4
71
3
72
18
73
14
40
0
40
0
40
0
40
0
40
0.239906514169789
40
0.239906514169789
40
0.358968753624899
40
0.358968753624899
40
0.47803099308001
40
0.47803099308001
40
0.716155471990228
40
0.716155471990228
40
0.954279950900446
40
0.954279950900446
40
1
40
1
40
1
40
1
41
1
10
8.05043085148773
20
-1.78329956828884
30
0
41
1
10
8.47821629427344
20
-1.92157784635992
30
0
41
1
10
8.90603500452588
20
-2.04189873452259
30
0
41
1
10
9.54971304889676
20
-2.18981184655885
30
0
41
1
10
9.76379475059878
20
-2.23360422093165
30
0
41
1
10
10.1936967185569
20
-2.30989953324521
30
0
41
1
10
10.408942732545
20
-2.34226331317825
30
0
41
1
10
11.050976441289
20
-2.420749282602
30
0
41
1
10
11.4761710483642
20
-2.44868748375987
30
0
41
1
10
12.3254997841754
20
-2.45548095181013
30
0
41
1
10
12.7496253215904
20
-2.43436671935803
30
0
41
1
10
13.2572174737306
20
-2.3802818673785
30
0
41
1
10
13.3390409915602
20
-2.37067837820487
30
0
41
1
10
13.4209437488039
20
-2.36018632128622
30
0
0
SPLINE
5
BD
100
AcDbEntity
8
1
62
256
6
ByLayer
370
18
48
1
60
0
100
AcDbSpline
70
4
71
3
72
22
73
18
40
0
40
0
40
0
40
0
40
0.0626059637477542
40
0.0626059637477542
40
0.139612013114952
40
0.139612013114952
40
0.293624111849348
40
0.293624111849348
40
0.601648309318141
40
0.601648309318141
40
0.678654358685338
40
0.678654358685338
40
0.755660408052534
40
0.755660408052534
40
0.909672506786926
40
0.909672506786926
40
1
40
1
40
1
40
1
41
1
10
32.4878533081355
20
1.72057075164452
30
0
41
1
10
32.661113418482
20
1.66186292513728
30
0
41
1
10
32.8347387217575
20
1.60017801159151
30
0
41
1
10
33.223086967915
20
1.45638049011006
30
0
41
1
10
33.4385820558219
20
1.37262167424606
30
0
41
1
10
34.0812633223802
20
1.11291195358171
30
0
41
1
10
34.5064780547098
20
0.928088256624989
30
0
41
1
10
35.7790204760684
20
0.352502366864002
30
0
41
1
10
36.623384524976
20
-0.0592112970372511
30
0
41
1
10
37.6968987026486
20
-0.559411322397239
30
0
41
1
10
37.9118728193113
20
-0.658437419032339
30
0
41
1
10
38.3392684409779
20
-0.851599680239019
30
0
41
1
10
38.552226477749
20
-0.945987041166291
30
0
41
1
10
39.1897472015809
20
-1.22084719838571
30
0
41
1
10
39.6130960461202
20
-1.39273544324507
30
0
41
1
10
40.2854710928338
20
-1.64144507883455
30
0
41
1
10
40.5342109415399
20
-1.72818439649507
30
0
41
1
10
40.7835887226527
20
-1.80892617287975
30
0
0
SPLINE
5
BE
100
AcDbEntity
8
1
62
256
6
ByLayer
370
13
48
1
60
0
100
AcDbSpline
70
4
71
3
72
14
73
10
40
0
40
0
40
0
40
0
40
0.121137670899204
40
0.121137670899204
40
0.267614725749335
40
0.267614725749335
40
0.414091780599466
40
0.414091780599466
40
1
40
1
40
1
40
1
41
1
10
40.7835887221192
20
-1.80892617270697
30
0
41
1
10
40.9594103359715
20
-1.86585245285701
30
0
41
1
10
41.1355490552516
20
-1.91979745650636
30
0
41
1
10
41.5257289799797
20
-2.03177079503786
30
0
41
1
10
41.7403489536483
20
-2.08838452098647
30
0
41
1
10
42.1699795752597
20
-2.19072692424046
30
0
41
1
10
42.3839919825527
20
-2.23624078860979
30
0
41
1
10
43.4514492433083
20
-2.43465715686625
30
0
41
1
10
44.2980270748736
20
-2.49974069753347
30
0
41
1
10
45.1543526249776
20
-2.4631796929873
30
0
0
SPLINE
5
BF
100
AcDbEntity
8
1
62
256
6
ByLayer
370
18
48
1
60
0
100
AcDbSpline
70
4
71
3
72
10
73
6
40
0
40
0
40
0
40
0
40
0.5
40
0.5
40
1
40
1
40
1
40
1
41
1
10
45.2752272412637
20
-2.40988494754836
30
0
41
1
10
45.3833025262971
20
-2.11833383637205
30
0
41
1
10
45.4944301725864
20
-1.82921972396335
30
0
41
1
10
45.7222515863496
20
-1.2547370374414
30
0
41
1
10
45.8389871892647
20
-0.969405544729341
30
0
41
1
10
45.9582700014828
20
-0.685586970565879
30
0
0
SPLINE
5
C0
100
AcDbEntity
8
1
62
256
6
ByLayer
370
13
48
1
60
0
100
AcDbSpline
70
4
71
3
72
8
73
4
40
0
40
0
40
0
40
0
40
1
40
1
40
1
40
1
41
1
10
4.1076286149038
20
-0.139069727173961
30
0
41
1
10
4.11866053402287
20
-0.146410573624934
30
0
41
1
10
4.13042721871892
20
-0.152987436095202
30
0
41
1
10
4.14301788457385
20
-0.158711720218037
30
0
0
SPLINE
5
C1
100
AcDbEntity
8
1
62
256
6
ByLayer
370
18
48
1
60
0
100
AcDbSpline
70
4
71
3
72
8
73
4
40
0
40
0
40
0
40
0
40
1
40
1
40
1
40
1
41
1
10
45.9999610925626
20
0.032138999724026
30
0
41
1
10
46.0000129745924
20
0.0107107500356847
30
0
41
1
10
46.0000129633745
20
-0.0107153832192637
30
0
41
1
10
45.9999610925627
20
-0.0321389996892663
30
0
0
SPLINE
5
C2
100
AcDbEntity
8
1
62
256
6
ByLayer
370
18
48
1
60
0
100
AcDbSpline
70
4
71
3
72
12
73
8
40
0
40
0
40
0
40
0
40
0.724491408239621
40
0.724491408239621
40
0.905614260299531
40
0.905614260299531
40
1
40
1
40
1
40
1
41
1
10
45.1624609931483
20
-2.37228431481179
30
0
41
1
10
44.3069304914488
20
-2.39043180791782
30
0
41
1
10
43.4605471133751
20
-2.3111328036459
30
0
41
1
10
42.3936999034557
20
-2.10171207708441
30
0
41
1
10
42.1798462014648
20
-2.05433372496435
30
0
41
1
10
41.8533995165545
20
-1.97421096378753
30
0
41
1
10
41.7416871892299
20
-1.94540299508211
30
0
41
1
10
41.6301552009019
20
-1.91532816724606
30
0
0
SPLINE
5
C3
100
AcDbEntity
8
1
62
256
6
ByLayer
370
13
48
1
60
0
100
AcDbSpline
70
4
71
3
72
22
73
18
40
0
40
0
40
0
40
0
40
0.0355469851972891
40
0.0355469851972891
40
0.184004307287438
40
0.184004307287438
40
0.332461629377587
40
0.332461629377587
40
0.406690290422662
40
0.406690290422662
40
0.480918951467736
40
0.480918951467736
40
0.777833595648038
40
0.777833595648038
40
0.926290917738187
40
0.926290917738187
40
1
40
1
40
1
40
1
41
1
10
41.6301548010611
20
-1.91532805942816
30
0
41
1
10
41.5276610343454
20
-1.88769040357096
30
0
41
1
10
41.4253195626956
20
-1.85898289421735
30
0
41
1
10
40.896576390133
20
-1.70521414271511
30
0
41
1
10
40.4725565157551
20
-1.56349665280939
30
0
41
1
10
39.6253447745454
20
-1.25258348101178
30
0
41
1
10
39.202118685737
20
-1.08333864428405
30
0
41
1
10
38.5648392275243
20
-0.814642935411371
30
0
41
1
10
38.3519906027045
20
-0.722647662563219
30
0
41
1
10
37.9248967191309
20
-0.534946077072249
30
0
41
1
10
37.7100938357354
20
-0.438990359391625
30
0
41
1
10
36.6383835941027
20
0.0439657114444572
30
0
41
1
10
35.794244320836
20
0.437651258373108
30
0
41
1
10
34.5222504774878
20
0.982412193767146
30
0
41
1
10
34.0972167189449
20
1.15623666318729
30
0
41
1
10
33.4565916915409
20
1.39824043197166
30
0
41
1
10
33.2429668203894
20
1.47561481099197
30
0
41
1
10
33.0305508021819
20
1.54861624151681
30
0
0
SPLINE
5
C4
100
AcDbEntity
8
1
62
256
6
ByLayer
370
18
48
1
60
0
100
AcDbSpline
70
4
71
3
72
16
73
12
40
0
40
0
40
0
40
0
40
0.0797841349923943
40
0.0797841349923943
40
0.451739280292515
40
0.451739280292515
40
0.637716852942577
40
0.637716852942577
40
0.823694425592639
40
0.823694425592639
40
1
40
1
40
1
40
1
41
1
10
12.2090976515757
20
-2.35433538463769
30
0
41
1
10
12.1180831847497
20
-2.35421654605838
30
0
41
1
10
12.0270659984003
20
-2.35301798349457
30
0
41
1
10
11.51159384487
20
-2.34011482467304
30
0
41
1
10
11.0866394712714
20
-2.30597049596224
30
0
41
1
10
10.445255550716
20
-2.22004548851848
30
0
41
1
10
10.2302856921534
20
-2.18550583003494
30
0
41
1
10
9.80098769923453
20
-2.10557574470008
30
0
41
1
10
9.58715169721054
20
-2.06030584552909
30
0
41
1
10
9.17166049322321
20
-1.96248838050752
30
0
41
1
10
8.96994699746796
20
-1.91043138125042
30
0
41
1
10
8.76849309001042
20
-1.85428854159412
30
0
0
SPLINE
5
C5
100
AcDbEntity
8
1
62
256
6
ByLayer
370
13
48
1
60
0
100
AcDbSpline
70
4
71
3
72
14
73
10
40
0
40
0
40
0
40
0
40
0.432785529206768
40
0.432785529206768
40
0.574589146905076
40
0.574589146905076
40
0.716392764603384
40
0.716392764603384
40
1
40
1
40
1
40
1
41
1
10
8.7684930905223
20
-1.85428854173674
30
0
41
1
10
8.11992489644737
20
-1.67354019795371
30
0
41
1
10
7.47404727682195
20
-1.45044303539319
30
0
41
1
10
6.61009397559513
20
-1.11433305043636
30
0
41
1
10
6.39635082101552
20
-1.02816603986213
30
0
41
1
10
5.96735933008992
20
-0.850321676304901
30
0
41
1
10
5.75211526017401
20
-0.758708039445224
30
0
41
1
10
5.10832624825406
20
-0.479761747557916
30
0
41
1
10
4.67999523038253
20
-0.287642351818732
30
0
41
1
10
4.25043425143897
20
-0.09384281212823
30
0
0
SPLINE
5
C6
100
AcDbEntity
8
1
62
256
6
ByLayer
370
18
48
1
60
0
100
AcDbSpline
70
4
71
3
72
60
73
56
40
0
40
0
40
0
40
0
40
0.0695628094306288
40
0.0695628094306288
40
0.104344214145943
40
0.104344214145943
40
0.139125618861258
40
0.139125618861258
40
0.173907023576572
40
0.173907023576572
40
0.208688428291886
40
0.208688428291886
40
0.243469833007201
40
0.243469833007201
40
0.278251237722515
40
0.278251237722515
40
0.347814047153145
40
0.347814047153145
40
0.382595451868461
40
0.382595451868461
40
0.417376856583776
40
0.417376856583776
40
0.452158261299091
40
0.452158261299091
40
0.486939666014407
40
0.486939666014407
40
0.521721070729723
40
0.521721070729723
40
0.556502475445038
40
0.556502475445038
40
0.591283880160354
40
0.591283880160354
40
0.626065284875669
40
0.626065284875669
40
0.660846689590984
40
0.660846689590984
40
0.6956280943063
40
0.6956280943063
40
0.730409499021616
40
0.730409499021616
40
0.765190903736931
40
0.765190903736931
40
0.799972308452247
40
0.799972308452247
40
0.834753713167562
40
0.834753713167562
40
0.869535117882878
40
0.869535117882878
40
0.904316522598193
40
0.904316522598193
40
0.939097927313509
40
0.939097927313509
40
0.973879332028824
40
0.973879332028824
40
1
40
1
40
1
40
1
41
1
10
7.98175922430482
20
1.5965491351597
30
0
41
1
10
8.34749406291931
20
1.47502993509858
30
0
41
1
10
8.71088078869701
20
1.34280991509084
30
0
41
1
10
9.25358885741031
20
1.13166399084929
30
0
41
1
10
9.43410387671588
20
1.05900811012555
30
0
41
1
10
9.79515925517882
20
0.910840205032713
30
0
41
1
10
9.97559288191493
20
0.835178491362512
30
0
41
1
10
10.3362527187863
20
0.680809856278444
30
0
41
1
10
10.5164288811019
20
0.601935235624183
30
0
41
1
10
10.8773957131543
20
0.442524985075494
30
0
41
1
10
11.0582158811791
20
0.362100590888446
30
0
41
1
10
11.4203223317309
20
0.199666198947085
30
0
41
1
10
11.6015800927971
20
0.117588948046546
30
0
41
1
10
11.9650553417744
20
-0.0473864875388017
30
0
41
1
10
12.1476235818735
20
-0.129976671700518
30
0
41
1
10
12.6962912005124
20
-0.376683760629561
30
0
41
1
10
13.0603588003708
20
-0.540347810007006
30
0
41
1
10
13.6073071926561
20
-0.776406215451885
30
0
41
1
10
13.7897058097614
20
-0.853807059571238
30
0
41
1
10
14.1546222097388
20
-1.00606785111898
30
0
41
1
10
14.3373301489312
20
-1.08076656029402
30
0
41
1
10
14.7028010822518
20
-1.22502392590781
30
0
41
1
10
14.8854234237846
20
-1.29459500265517
30
0
41
1
10
15.2502862758977
20
-1.42979629447387
30
0
41
1
10
15.4324495824421
20
-1.49519821690745
30
0
41
1
10
15.796857952379
20
-1.61928918910362
30
0
41
1
10
15.9792917059975
20
-1.67811318306616
30
0
41
1
10
16.3446032631418
20
-1.79014110578885
30
0
41
1
10
16.5277598067168
20
-1.84389387164023
30
0
41
1
10
16.8922406785776
20
-1.94283803158922
30
0
41
1
10
17.0738291870382
20
-1.98810325830044
30
0
41
1
10
17.436643097511
20
-2.07147314561624
30
0
41
1
10
17.6177436528354
20
-2.10988846396666
30
0
41
1
10
17.9792081095835
20
-2.17942075599447
30
0
41
1
10
18.1594413878086
20
-2.20934863765282
30
0
41
1
10
18.5201781867567
20
-2.26107568647697
30
0
41
1
10
18.7006398511086
20
-2.28297709619875
30
0
41
1
10
19.0615112344036
20
-2.3200539167523
30
0
41
1
10
19.2418686008959
20
-2.33483601141282
30
0
41
1
10
19.6031670105968
20
-2.35356213007356
30
0
41
1
10
19.7842434822156
20
-2.35861426623776
30
0
41
1
10
20.1471611491526
20
-2.36103947011563
30
0
41
1
10
20.3289011278784
20
-2.35881586761045
30
0
41
1
10
20.6934350786126
20
-2.34409902358797
30
0
41
1
10
20.8763622815553
20
-2.33151991723108
30
0
41
1
10
21.2406139021858
20
-2.2991237738861
30
0
41
1
10
21.4222906730093
20
-2.27916049235657
30
0
41
1
10
21.7847163965224
20
-2.23154306633592
30
0
41
1
10
21.9653167949724
20
-2.20282220273958
30
0
41
1
10
22.3264762895261
20
-2.13763147685202
30
0
41
1
10
22.5070277219242
20
-2.1016197300643
30
0
41
1
10
22.8678338752617
20
-2.02267650113441
30
0
41
1
10
23.0480410778909
20
-1.97935165701332
30
0
41
1
10
23.363841542637
20
-1.89645595718051
30
0
41
1
10
23.4994564215695
20
-1.85892556876215
30
0
41
1
10
23.6352219541824
20
-1.81971043970054
30
0
0
SPLINE
5
C7
100
AcDbEntity
8
1
62
256
6
ByLayer
370
18
48
1
60
0
100
AcDbSpline
70
4
71
3
72
28
73
24
40
0
40
0
40
0
40
0
40
0.0578157962798237
40
0.0578157962798237
40
0.143468905708933
40
0.143468905708933
40
0.229122015138041
40
0.229122015138041
40
0.31477512456715
40
0.31477512456715
40
0.486081343425363
40
0.486081343425363
40
0.571734452854469
40
0.571734452854469
40
0.657387562283575
40
0.657387562283575
40
0.743040671712682
40
0.743040671712682
40
0.828693781141788
40
0.828693781141788
40
0.914346890570894
40
0.914346890570894
40
1
40
1
40
1
40
1
41
1
10
36.4640961309186
20
2.3683886086028
30
0
41
1
10
36.5866210001469
20
2.36807305213219
30
0
41
1
10
36.7089462828469
20
2.36597751405026
30
0
41
1
10
37.0118834848842
20
2.35517528724543
30
0
41
1
10
37.1922166304478
20
2.34372254160684
30
0
41
1
10
37.5529686948042
20
2.31230801627299
30
0
41
1
10
37.7333044629025
20
2.29239055640406
30
0
41
1
10
38.0937917562755
20
2.24438854770062
30
0
41
1
10
38.2739157968188
20
2.21623750861821
30
0
41
1
10
38.8150343647274
20
2.1208835039842
30
0
41
1
10
39.1768495071154
20
2.04412970357788
30
0
41
1
10
39.7218006444579
20
1.9026199787057
30
0
41
1
10
39.9043074215111
20
1.85150650881096
30
0
41
1
10
40.2697373557541
20
1.74321452135643
30
0
41
1
10
40.4518145365936
20
1.685989791639
30
0
41
1
10
40.8147554910045
20
1.56525416019241
30
0
41
1
10
40.9956278772063
20
1.50175737566539
30
0
41
1
10
41.3572141446556
20
1.37082062818496
30
0
41
1
10
41.5378419477901
20
1.30328509670599
30
0
41
1
10
41.8985489272998
20
1.16335391938475
30
0
41
1
10
42.078593467299
20
1.09080280168442
30
0
41
1
10
42.4388894918381
20
0.94233842412234
30
0
41
1
10
42.6192353898789
20
0.86677946216787
30
0
41
1
10
42.7996952158815
20
0.789508966214356
30
0
0
SPLINE
5
C8
100
AcDbEntity
8
1
62
256
6
ByLayer
370
18
48
1
60
0
100
AcDbSpline
70
4
71
3
72
14
73
10
40
0
40
0
40
0
40
0
40
0.25
40
0.25
40
0.5
40
0.5
40
0.75
40
0.75
40
1
40
1
40
1
40
1
41
1
10
4.25169936329024
20
2.34585952287637
30
0
41
1
10
4.55369747519981
20
2.33658144734019
30
0
41
1
10
4.85957539011722
20
2.30881827375771
30
0
41
1
10
5.4775840672628
20
2.22436525486353
30
0
41
1
10
5.78709390077452
20
2.16815289308772
30
0
41
1
10
6.40792139290548
20
2.03445445030428
30
0
41
1
10
6.71932518252811
20
1.95827402201471
30
0
41
1
10
7.34654495766998
20
1.7871664814769
30
0
41
1
10
7.66235443381191
20
1.69390814434692
30
0
41
1
10
7.98175922430479
20
1.5965491351597
30
0
0
SPLINE
5
C9
100
AcDbEntity
8
1
62
256
6
ByLayer
370
18
48
1
60
0
100
AcDbSpline
70
4
71
3
72
8
73
4
40
0
40
0
40
0
40
0
40
1
40
1
40
1
40
1
41
1
10
45.9900859780655
20
0.0953736474501454
30
0
41
1
10
45.9906583761699
20
0.077715463691959
30
0
41
1
10
45.9944695187697
20
0.055431141347384
30
0
41
1
10
45.9999610925626
20
0.0321389997240544
30
0
0
SPLINE
5
CA
100
AcDbEntity
8
1
62
256
6
ByLayer
370
18
48
1
60
0
100
AcDbSpline
70
4
71
3
72
32
73
28
40
0
40
0
40
0
40
0
40
0.130057632333864
40
0.130057632333864
40
0.293769467269572
40
0.293769467269572
40
0.457481302205282
40
0.457481302205282
40
0.539337219673136
40
0.539337219673136
40
0.580265178407063
40
0.590497168090545
40
0.590497168090545
40
0.600729157774027
40
0.600729157774027
40
0.605845152615768
40
0.605845152615768
40
0.610961147457509
40
0.621193137140991
40
0.621193137140991
40
0.784904972076701
40
0.784904972076701
40
0.866760889544556
40
0.866760889544556
40
0.948616807012411
40
0.948616807012411
40
1
40
1
40
1
40
1
41
1
10
7.98175922430479
20
2.02555536165986
30
0
41
1
10
7.98175922430479
20
1.89157298934413
30
0
41
1
10
7.98175922430482
20
1.76436836735101
30
0
41
1
10
7.98175922430482
20
1.49235897603444
30
0
41
1
10
7.98175922430477
20
1.35634095425093
30
0
41
1
10
7.98175922430477
20
1.11246188415765
30
0
41
1
10
7.98175922430479
20
1.00462557775879
30
0
41
1
10
7.98175922430479
20
0.863845451561275
30
0
41
1
10
7.98175922430479
20
0.820562588272765
30
0
41
1
10
7.98175922430479
20
0.76160173122588
30
0
41
1
10
7.98175922430482
20
0.73823345238759
30
0
41
1
10
7.98175922430479
20
0.716395445553303
30
0
41
1
10
7.98175922430479
20
0.707782749358159
30
0
41
1
10
7.98175922430548
20
0.707250905561722
30
0
41
1
10
7.98175922430548
20
0.712973852880452
30
0
41
1
10
7.98175922430482
20
0.715886776419694
30
0
41
1
10
7.98175922430482
20
0.721062398000868
30
0
41
1
10
7.98175922430477
20
0.72887443208711
30
0
41
1
10
7.98175922430479
20
0.73683245558135
30
0
41
1
10
7.98175922430479
20
0.828129618794691
30
0
41
1
10
7.98175922430479
20
0.930041487114806
30
0
41
1
10
7.98175922430479
20
1.10576260477885
30
0
41
1
10
7.98175922430479
20
1.168236915953
30
0
41
1
10
7.98175922430479
20
1.30133339923745
30
0
41
1
10
7.98175922430479
20
1.3723562747499
30
0
41
1
10
7.98175922430479
20
1.49327691091355
30
0
41
1
10
7.98175922430479
20
1.54112645143695
30
0
41
1
10
7.98175922430479
20
1.59020702496775
30
0
0
SPLINE
5
CB
100
AcDbEntity
8
1
62
256
6
ByLayer
370
18
48
1
60
0
100
AcDbSpline
70
4
71
3
72
8
73
4
40
0
40
0
40
0
40
0
40
1
40
1
40
1
40
1
41
1
10
45.979056514873
20
-0.0172573146746515
30
0
41
1
10
45.8362406067342
20
-0.251134592773525
30
0
41
1
10
45.6969773823034
20
-0.488247336353368
30
0
41
1
10
45.5613199772819
20
-0.728643936642328
30
0
0
SPLINE
5
CC
100
AcDbEntity
8
1
62
256
6
ByLayer
370
18
48
1
60
0
100
AcDbSpline
70
4
71
3
72
14
73
10
40
0
40
0
40
0
40
0
40
0.0344981025874977
40
0.0344981025874977
40
0.356332068391665
40
0.356332068391665
40
0.678166034195833
40
0.678166034195833
40
1
40
1
40
1
40
1
41
1
10
7.13147357623183
20
-1.84561105432746
30
0
41
1
10
7.0976376820943
20
-1.85499665948694
30
0
41
1
10
7.06382000447863
20
-1.86429970066448
30
0
41
1
10
6.71468575200819
20
-1.95949112404398
30
0
41
1
10
6.40084637355511
20
-2.03613947283304
30
0
41
1
10
5.77930510991192
20
-2.16966496777201
30
0
41
1
10
5.47100249687492
20
-2.22538269665532
30
0
41
1
10
4.85825547836248
20
-2.30887906501516
30
0
41
1
10
4.55378310255998
20
-2.3365788167053
30
0
41
1
10
4.25169936245109
20
-2.34585952290215
30
0
0
SPLINE
5
CD
100
AcDbEntity
8
1
62
256
6
ByLayer
370
18
48
1
60
0
100
AcDbSpline
70
4
71
3
72
10
73
6
40
0
40
0
40
0
40
0
40
0.5
40
0.5
40
1
40
1
40
1
40
1
41
1
10
45.2752272412624
20
2.40988494754941
30
0
41
1
10
45.2512970993145
20
2.42957334201205
30
0
41
1
10
45.2283720549512
20
2.44621850523035
30
0
41
1
10
45.1845142359124
20
2.47310902219004
30
0
41
1
10
45.1634688997209
20
2.48338436317147
30
0
41
1
10
45.1437485841167
20
2.49012218044234
30
0
0
SPLINE
5
CE
100
AcDbEntity
8
1
62
256
6
ByLayer
370
18
48
1
60
0
100
AcDbSpline
70
4
71
3
72
8
73
4
40
0
40
0
40
0
40
0
40
1
40
1
40
1
40
1
41
1
10
45.1437485841168
20
2.49012218044234
30
0
41
1
10
44.9897274023461
20
2.49658615811924
30
0
41
1
10
44.8357755674754
20
2.49975229994809
30
0
41
1
10
44.681793615133
20
2.4996319240511
30
0
0
SPLINE
5
CF
100
AcDbEntity
8
1
62
256
6
ByLayer
370
18
48
1
60
0
100
AcDbSpline
70
4
71
3
72
42
73
38
40
0
40
0
40
0
40
0
40
0.0073983691680541
40
0.0073983691680541
40
0.0788805550945999
40
0.0788805550945999
40
0.114621648057872
40
0.114621648057872
40
0.150362741021144
40
0.150362741021144
40
0.293327112874231
40
0.293327112874231
40
0.364809298800774
40
0.364809298800774
40
0.400550391764046
40
0.400550391764046
40
0.436291484727317
40
0.436291484727317
40
0.472032577690589
40
0.472032577690589
40
0.50777367065386
40
0.50777367065386
40
0.579255856580403
40
0.579255856580403
40
0.650738042506946
40
0.650738042506946
40
0.686479135470218
40
0.686479135470218
40
0.722220228433489
40
0.722220228433489
40
0.865184600286575
40
0.865184600286575
40
0.936666786213118
40
0.936666786213118
40
0.97240787917639
40
0.97240787917639
40
1
40
1
40
1
40
1
41
1
10
29.8987801516349
20
-2.37848070526797
30
0
41
1
10
29.8548502900657
20
-2.38468590739998
30
0
41
1
10
29.8109299614864
20
-2.39063545541552
30
0
41
1
10
29.3427312956903
20
-2.45132803334812
30
0
41
1
10
28.9190129883434
20
-2.48228820725535
30
0
41
1
10
28.2810001351649
20
-2.4913352696345
30
0
41
1
10
28.0679163493043
20
-2.48811561608855
30
0
41
1
10
27.6402632026422
20
-2.46906366013437
30
0
41
1
10
27.4251366513295
20
-2.45317214769108
30
0
41
1
10
26.3515777881639
20
-2.34266359233556
30
0
41
1
10
25.506624674805
20
-2.15616892257597
30
0
41
1
10
24.2322813026199
20
-1.76027432332592
30
0
41
1
10
23.8063047585053
20
-1.60909883584424
30
0
41
1
10
23.1621093420828
20
-1.35810330885144
30
0
41
1
10
22.9468172886118
20
-1.27055931380647
30
0
41
1
10
22.5176065240732
20
-1.08997659755806
30
0
41
1
10
22.3032394316934
20
-0.996799134911356
30
0
41
1
10
21.8743566612719
20
-0.805889071316955
30
0
41
1
10
21.6598763096398
20
-0.708087185910216
30
0
41
1
10
21.2302161964322
20
-0.509004569856927
30
0
41
1
10
21.0148595722136
20
-0.407687196505918
30
0
41
1
10
20.3723792710301
20
-0.103265127983235
30
0
41
1
10
19.9470242458238
20
0.101183318921869
30
0
41
1
10
19.0977536994621
20
0.503493734287161
30
0
41
1
10
18.6738220223471
20
0.701313817924017
30
0
41
1
10
18.0353322749403
20
0.985389962767186
30
0
41
1
10
17.8221245141727
20
1.07808516534561
30
0
41
1
10
17.3943041941591
20
1.25813282669293
30
0
41
1
10
17.1791063380328
20
1.34562934393873
30
0
41
1
10
16.104872337727
20
1.76395332073883
30
0
41
1
10
15.2596839985539
20
2.03415518255164
30
0
41
1
10
13.9846493531118
20
2.30659720090765
30
0
41
1
10
13.5585991193358
20
2.37553210142826
30
0
41
1
10
12.914201561788
20
2.44223587436869
30
0
41
1
10
12.6988853613557
20
2.45829072642195
30
0
41
1
10
12.3196541917932
20
2.47545660359501
30
0
41
1
10
12.154859966669
20
2.4791827405096
30
0
41
1
10
11.9903621577417
20
2.47919424428693
30
0
0
SPLINE
5
D0
100
AcDbEntity
8
1
62
256
6
ByLayer
370
18
48
1
60
0
100
AcDbSpline
70
4
71
3
72
8
73
4
40
0
40
0
40
0
40
0
40
1
40
1
40
1
40
1
41
1
10
45.020539852345
20
0.70911956849514
30
0
41
1
10
45.3332964938678
20
0.700010213261834
30
0
41
1
10
45.6461006052089
20
0.690641800337318
30
0
41
1
10
45.9582700014817
20
0.685586970568096
30
0
0
SPLINE
5
D1
100
AcDbEntity
8
1
62
256
6
ByLayer
370
18
48
1
60
0
100
AcDbSpline
70
4
71
3
72
16
73
12
40
0
40
0
40
0
40
0
40
0.25
40
0.25
40
0.5
40
0.5
40
0.75
40
0.75
40
0.875
40
0.875
40
1
40
1
40
1
40
1
41
1
10
44.9594821999701
20
-1.8646811050786
30
0
41
1
10
44.9590085586195
20
-1.9532326237248
30
0
41
1
10
44.9627336251231
20
-2.03075022836617
30
0
41
1
10
44.9788460928057
20
-2.1640982437288
30
0
41
1
10
44.9914458852016
20
-2.22014089309437
30
0
41
1
10
45.0251389270118
20
-2.3059766870511
30
0
41
1
10
45.0462222991598
20
-2.33647301557878
30
0
41
1
10
45.0847456067615
20
-2.36390241107435
30
0
41
1
10
45.0988017163185
20
-2.36997558378894
30
0
41
1
10
45.129021767094
20
-2.37579377943339
30
0
41
1
10
45.145191832912
20
-2.37557495251551
30
0
41
1
10
45.1624609931478
20
-2.37228431481179
30
0
0
SPLINE
5
D2
100
AcDbEntity
8
1
62
256
6
ByLayer
370
18
48
1
60
0
100
AcDbSpline
70
4
71
3
72
12
73
8
40
0
40
0
40
0
40
0
40
0.249999999999984
40
0.249999999999984
40
0.499999999999969
40
0.499999999999969
40
1
40
1
40
1
40
1
41
1
10
4.03463392026651
20
2.47202720596729
30
0
41
1
10
4.0460133333749
20
2.45286198175722
30
0
41
1
10
4.06037798496527
20
2.43469940545884
30
0
41
1
10
4.092866671905
20
2.40335066333614
30
0
41
1
10
4.11146039923213
20
2.3897085447523
30
0
41
1
10
4.16943963702522
20
2.35754895531937
30
0
41
1
10
4.21171813670117
20
2.3470878379658
30
0
41
1
10
4.25169936181032
20
2.34585952292181
30
0
0
SPLINE
5
D3
100
AcDbEntity
8
1
62
256
6
ByLayer
370
18
48
1
60
0
100
AcDbSpline
70
4
71
3
72
59
73
55
40
0
40
0
40
0
40
0
40
0.0625000000000104
40
0.0625000000000104
40
0.0937500000000165
40
0.0937500000000165
40
0.125000000000023
40
0.125000000000023
40
0.156250000000029
40
0.156250000000029
40
0.187500000000035
40
0.187500000000035
40
0.218750000000041
40
0.218750000000041
40
0.234375000000045
40
0.234375000000045
40
0.250000000000049
40
0.250000000000049
40
0.265625000000053
40
0.265625000000053
40
0.281250000000057
40
0.281250000000057
40
0.29687500000006
40
0.29687500000006
40
0.312500000000064
40
0.312500000000064
40
0.328125000000068
40
0.328125000000068
40
0.343750000000072
40
0.343750000000072
40
0.375000000000079
40
0.375000000000079
40
0.406250000000087
40
0.406250000000087
40
0.437500000000095
40
0.437500000000095
40
0.441406250000095
40
0.441406250000095
40
0.445312500000096
40
0.445312500000096
40
0.449218750000097
40
0.449218750000097
40
0.453125000000098
40
0.468750000000096
40
0.468750000000096
40
0.500000000000091
40
0.500000000000091
40
0.625000000000068
40
0.625000000000068
40
0.750000000000045
40
0.750000000000045
40
0.875000000000023
40
0.875000000000023
40
1
40
1
40
1
40
1
41
1
10
4.03463392026629
20
-2.47202720596732
30
0
41
1
10
3.86536058929966
20
-2.47590902011785
30
0
41
1
10
3.69690811897669
20
-2.47453975110099
30
0
41
1
10
3.44604058835483
20
-2.46278431491226
30
0
41
1
10
3.36272422613737
20
-2.45723836028941
30
0
41
1
10
3.19688688600337
20
-2.44236190195693
30
0
41
1
10
3.11423366100016
20
-2.43300886762748
30
0
41
1
10
2.9515709848136
20
-2.40996257076446
30
0
41
1
10
2.87139997672557
20
-2.39626880512475
30
0
41
1
10
2.71412832715635
20
-2.36353265921841
30
0
41
1
10
2.63685386721704
20
-2.34444384400521
30
0
41
1
10
2.48823057935005
20
-2.29972573782442
30
0
41
1
10
2.41670272472209
20
-2.27411368091853
30
0
41
1
10
2.31570305282483
20
-2.22883693646463
30
0
41
1
10
2.28309734297139
20
-2.21259022890439
30
0
41
1
10
2.22064189959247
20
-2.17719713963524
30
0
41
1
10
2.19066150034814
20
-2.15794940739497
30
0
41
1
10
2.13542661141827
20
-2.11639283689985
30
0
41
1
10
2.1100862968548
20
-2.09406845790286
30
0
41
1
10
2.06546332235766
20
-2.04544740582884
30
0
41
1
10
2.04622828158568
20
-2.0190643234686
30
0
41
1
10
2.01708630431398
20
-1.96321421845707
30
0
41
1
10
2.00696434170538
20
-1.93356697071707
30
0
41
1
10
1.99806726630339
20
-1.87009075911331
30
0
41
1
10
1.99954466921145
20
-1.83686588030844
30
0
41
1
10
2.01476829316994
20
-1.76991158771406
30
0
41
1
10
2.0287712503455
20
-1.7355109268569
30
0
41
1
10
2.06677368197529
20
-1.66899854151509
30
0
41
1
10
2.09094372149914
20
-1.63630906311124
30
0
41
1
10
2.17446231740738
20
-1.54188625652222
30
0
41
1
10
2.24276807990074
20
-1.48511247205499
30
0
41
1
10
2.39398356764332
20
-1.37931365189749
30
0
41
1
10
2.47521199554234
20
-1.33163570175745
30
0
41
1
10
2.64415936035854
20
-1.24328524030724
30
0
41
1
10
2.73216206673956
20
-1.20258410716374
30
0
41
1
10
2.8331072270062
20
-1.16005624279609
30
0
41
1
10
2.84410774815237
20
-1.15478100743235
30
0
41
1
10
2.86756624648487
20
-1.14848027471328
30
0
41
1
10
2.87995243207328
20
-1.14693183363877
30
0
41
1
10
2.90476960669659
20
-1.14565121691274
30
0
41
1
10
2.91710513351063
20
-1.14618556846284
30
0
41
1
10
2.94175817401879
20
-1.14754358961682
30
0
41
1
10
3.00338600382827
20
-1.15101169079077
30
0
41
1
10
3.06499194565166
20
-1.15484419349221
30
0
41
1
10
3.21279819098629
20
-1.16473106649818
30
0
41
1
10
3.31122286104881
20
-1.17223715957982
30
0
41
1
10
3.80279022316933
20
-1.21419754800454
30
0
41
1
10
4.19482153596854
20
-1.26209721681042
30
0
41
1
10
4.97001105817893
20
-1.38017129247527
30
0
41
1
10
5.3537435646931
20
-1.45036587822665
30
0
41
1
10
6.11447840590188
20
-1.60431054885186
30
0
41
1
10
6.49145037487546
20
-1.68810885216323
30
0
41
1
10
7.24032367344071
20
-1.85811789947692
30
0
41
1
10
7.61265368709533
20
-1.9444172771239
30
0
41
1
10
7.98175922430477
20
-2.02555536166079
30
0
0
SPLINE
5
D4
100
AcDbEntity
8
1
62
256
6
ByLayer
370
18
48
1
60
0
100
AcDbSpline
70
4
71
3
72
10
73
6
40
0
40
0
40
0
40
0
40
0.5
40
0.5
40
1
40
1
40
1
40
1
41
1
10
4.10762861490366
20
-0.139069727171233
30
0
41
1
10
4.08653082608771
20
-0.124474855445811
30
0
41
1
10
4.06846699262738
20
-0.106076053833107
30
0
41
1
10
4.0420040649436
20
-0.0625623765524779
30
0
41
1
10
4.03375044872672
20
-0.0375924678686488
30
0
41
1
10
4.03376107723039
20
-0.0118045104777877
30
0
0
SPLINE
5
D5
100
AcDbEntity
8
1
62
256
6
ByLayer
370
18
48
1
60
0
100
AcDbSpline
70
4
71
3
72
8
73
4
40
0
40
0
40
0
40
0
40
1
40
1
40
1
40
1
41
1
10
45.9999610925626
20
0.0321389997240544
30
0
41
1
10
45.9949144207606
20
0.0145549081778427
30
0
41
1
10
45.9871841087594
20
-0.0039474561273778
30
0
41
1
10
45.979056514873
20
-0.0172573146746515
30
0
0
SPLINE
5
D6
100
AcDbEntity
8
1
62
256
6
ByLayer
370
18
48
1
60
0
100
AcDbSpline
70
4
71
3
72
14
73
10
40
0
40
0
40
0
40
0
40
0.25
40
0.25
40
0.5
40
0.5
40
0.75
40
0.75
40
1
40
1
40
1
40
1
41
1
10
45.1624609931477
20
-2.37228431481179
30
0
41
1
10
45.16582808227
20
-2.37164271613148
30
0
41
1
10
45.1685516327547
20
-2.37269599212797
30
0
41
1
10
45.1723262158434
20
-2.37916698255631
30
0
41
1
10
45.1733254412367
20
-2.38466726914299
30
0
41
1
10
45.1724986883256
20
-2.40107416927705
30
0
41
1
10
45.1706161371108
20
-2.41190717625517
30
0
41
1
10
45.1640951914672
20
-2.43648432317286
30
0
41
1
10
45.1594996164682
20
-2.45008834130249
30
0
41
1
10
45.154352624987
20
-2.46317969298687
30
0
0
SPLINE
5
D7
100
AcDbEntity
8
1
62
256
6
ByLayer
370
13
48
1
60
0
100
AcDbSpline
70
4
71
3
72
8
73
4
40
0
40
0
40
0
40
0
40
1
40
1
40
1
40
1
41
1
10
4.03376107722275
20
-0.0118045105006672
30
0
41
1
10
4.05796062984825
20
-0.0346926512198422
30
0
41
1
10
4.09523170112027
20
-0.0539858816128458
30
0
41
1
10
4.14301788457385
20
-0.0659429532948366
30
0
0
SPLINE
5
D8
100
AcDbEntity
8
1
62
256
6
ByLayer
370
13
48
1
60
0
100
AcDbSpline
70
4
71
3
72
8
73
4
40
0
40
0
40
0
40
0
40
1
40
1
40
1
40
1
41
1
10
4.14301788457385
20
-0.0659429532948366
30
0
41
1
10
4.17691781189734
20
-0.074425402230645
30
0
41
1
10
4.21322457842729
20
-0.0837648446387789
30
0
41
1
10
4.250434251439
20
-0.09384281212823
30
0
0
SPLINE
5
D9
100
AcDbEntity
8
1
62
256
6
ByLayer
370
18
48
1
60
0
100
AcDbSpline
70
4
71
3
72
24
73
20
40
0
40
0
40
0
40
0
40
0.125
40
0.125
40
0.1875
40
0.1875
40
0.25
40
0.25
40
0.375
40
0.375
40
0.5
40
0.5
40
0.625
40
0.625
40
0.75
40
0.75
40
0.875
40
0.875
40
1
40
1
40
1
40
1
41
1
10
45.561319977282
20
-0.728643936642328
30
0
41
1
10
45.5580093321325
20
-0.761534664144961
30
0
41
1
10
45.5511546262808
20
-0.799866269544253
30
0
41
1
10
45.5364678859021
20
-0.859981266716886
30
0
41
1
10
45.5307474921365
20
-0.880874672369686
30
0
41
1
10
45.5182039682875
20
-0.922500701052712
30
0
41
1
10
45.5113841676903
20
-0.943280056142498
30
0
41
1
10
45.489385918084
20
-1.00553158839133
30
0
41
1
10
45.4729645814845
20
-1.04602706272652
30
0
41
1
10
45.4385945590719
20
-1.12159955599128
30
0
41
1
10
45.4209483436375
20
-1.15608185381242
30
0
41
1
10
45.3856772632641
20
-1.21763034765567
30
0
41
1
10
45.3680977193316
20
-1.24450869458528
30
0
41
1
10
45.3352009432716
20
-1.2878849847053
30
0
41
1
10
45.3195362963812
20
-1.30493161152779
30
0
41
1
10
45.2905420309554
20
-1.3287114179216
30
0
41
1
10
45.2775740987227
20
-1.33521987615023
30
0
41
1
10
45.2547036973427
20
-1.3370330655965
30
0
41
1
10
45.2450715973669
20
-1.33216584527906
30
0
41
1
10
45.237711568347
20
-1.32134812642036
30
0
0
SPLINE
5
DA
100
AcDbEntity
8
1
62
256
6
ByLayer
370
18
48
1
60
0
100
AcDbSpline
70
4
71
3
72
12
73
8
40
0
40
0
40
0
40
0
40
0.0048465333059257
40
0.0048465333059257
40
0.408726201167905
40
0.408726201167905
40
1
40
1
40
1
40
1
41
1
10
28.5694244861716
20
-2.36469603932758
30
0
41
1
10
28.5643087798344
20
-2.36469386814036
30
0
41
1
10
28.5591934740678
20
-2.36468827856584
30
0
41
1
10
28.1278341974317
20
-2.36392879283477
30
0
41
1
10
27.704153428255
20
-2.33938672942853
30
0
41
1
10
26.6615668960203
20
-2.22296745984372
30
0
41
1
10
26.0431582615254
20
-2.10488352574561
30
0
41
1
10
25.4192518978055
20
-1.94358400506945
30
0
0
SPLINE
5
DB
100
AcDbEntity
8
1
62
256
6
ByLayer
370
13
48
1
60
0
100
AcDbSpline
70
4
71
3
72
26
73
22
40
0
40
0
40
0
40
0
40
0.0760841669776738
40
0.0760841669776738
40
0.218028282656647
40
0.218028282656647
40
0.289000340496134
40
0.289000340496134
40
0.359972398335622
40
0.359972398335622
40
0.501916514014597
40
0.501916514014597
40
0.643860629693571
40
0.643860629693571
40
0.714832687533057
40
0.714832687533057
40
0.785804745372544
40
0.785804745372544
40
0.927748861051517
40
0.927748861051517
40
1
40
1
40
1
40
1
41
1
10
25.4192518977408
20
-1.94358400505268
30
0
41
1
10
25.1908184640689
20
-1.88452674021144
30
0
41
1
10
24.9616480365685
20
-1.81967624342033
30
0
41
1
10
24.3019002052386
20
-1.61803953217461
30
0
41
1
10
23.8736226358556
20
-1.46940323747123
30
0
41
1
10
23.2311300644713
20
-1.22632629578956
30
0
41
1
10
23.0168503275693
20
-1.14197345424762
30
0
41
1
10
22.5875504419928
20
-0.967620112903091
30
0
41
1
10
22.3726626528343
20
-0.877657173049784
30
0
41
1
10
21.7312840175935
20
-0.603237349150618
30
0
41
1
10
21.3063969949953
20
-0.413478200784198
30
0
41
1
10
20.457640025479
20
-0.0302182575150027
30
0
41
1
10
20.0336961726868
20
0.163116451165479
30
0
41
1
10
19.3955537055211
20
0.449147571581875
30
0
41
1
10
19.1824322174734
20
0.543747962739758
30
0
41
1
10
18.7548588507829
20
0.730289230786667
30
0
41
1
10
18.5398341679615
20
0.82243079975575
30
0
41
1
10
17.8963739022171
20
1.09106156861543
30
0
41
1
10
17.4706345862728
20
1.25957851149934
30
0
41
1
10
16.8296743885321
20
1.49160536134801
30
0
41
1
10
16.6137477730828
20
1.56609364559429
30
0
41
1
10
16.3978151644811
20
1.63636028963182
30
0
0
SPLINE
5
DC
100
AcDbEntity
8
1
62
256
6
ByLayer
370
18
48
1
60
0
100
AcDbSpline
70
4
71
3
72
78
73
74
40
0
40
0
40
0
40
0
40
0.0221068505296107
40
0.0221068505296107
40
0.0767560568262668
40
0.0767560568262668
40
0.104080659974595
40
0.104080659974595
40
0.131405263122923
40
0.131405263122923
40
0.158729866271251
40
0.158729866271251
40
0.186054469419579
40
0.186054469419579
40
0.213379072567907
40
0.213379072567907
40
0.240703675716235
40
0.240703675716235
40
0.268028278864563
40
0.268028278864563
40
0.295352882012891
40
0.295352882012891
40
0.322677485161219
40
0.322677485161219
40
0.350002088309547
40
0.350002088309547
40
0.377326691457875
40
0.377326691457875
40
0.404651294606203
40
0.404651294606203
40
0.431975897754531
40
0.431975897754531
40
0.45930050090286
40
0.45930050090286
40
0.486625104051187
40
0.486625104051187
40
0.513949707199515
40
0.513949707199515
40
0.541274310347844
40
0.541274310347844
40
0.568598913496172
40
0.568598913496172
40
0.5959235166445
40
0.5959235166445
40
0.623248119792828
40
0.623248119792828
40
0.650572722941156
40
0.650572722941156
40
0.677897326089484
40
0.677897326089484
40
0.705221929237812
40
0.705221929237812
40
0.73254653238614
40
0.73254653238614
40
0.759871135534468
40
0.759871135534468
40
0.787195738682796
40
0.787195738682796
40
0.814520341831124
40
0.814520341831124
40
0.841844944979452
40
0.841844944979452
40
0.86916954812778
40
0.86916954812778
40
0.896494151276108
40
0.896494151276108
40
0.923818754424436
40
0.923818754424436
40
0.951143357572764
40
0.951143357572764
40
0.978467960721092
40
0.978467960721092
40
1
40
1
40
1
40
1
41
1
10
39.9742176515342
20
-1.83064212827728
30
0
41
1
10
39.8281989412682
20
-1.87287305552616
30
0
41
1
10
39.6823549240916
20
-1.91290253164146
30
0
41
1
10
39.1764925630804
20
-2.04412303704004
30
0
41
1
10
38.8159576573423
20
-2.12069941661267
30
0
41
1
10
38.2746851385474
20
-2.21611259549405
30
0
41
1
10
38.0941332911218
20
-2.24435044236319
30
0
41
1
10
37.7319889409895
20
-2.29255833670825
30
0
41
1
10
37.5504273981594
20
-2.31259496736354
30
0
41
1
10
37.186384386723
20
-2.34416323653963
30
0
41
1
10
37.0034852497892
20
-2.35565052612714
30
0
41
1
10
36.6390530828397
20
-2.36828434711302
30
0
41
1
10
36.4573442717319
20
-2.369595965896
30
0
41
1
10
36.0945879073661
20
-2.36548311593586
30
0
41
1
10
35.913706575452
20
-2.35969205305224
30
0
41
1
10
35.5526336378626
20
-2.33920409648604
30
0
41
1
10
35.3722697677831
20
-2.32425929736519
30
0
41
1
10
35.0115689855535
20
-2.28672810392285
30
0
41
1
10
34.8312828130693
20
-2.26434725737639
30
0
41
1
10
34.4709395142509
20
-2.21096756790104
30
0
41
1
10
34.2907612718666
20
-2.17985928603741
30
0
41
1
10
33.9295076319127
20
-2.1090913809611
30
0
41
1
10
33.7485494976804
20
-2.07033015920405
30
0
41
1
10
33.3861869649533
20
-1.98567934656214
30
0
41
1
10
33.2048205240721
20
-1.93939080210018
30
0
41
1
10
32.8405270065208
20
-1.83900429150529
30
0
41
1
10
32.657258933391
20
-1.78479630424718
30
0
41
1
10
32.2922991931525
20
-1.67190655678775
30
0
41
1
10
32.1104879812334
20
-1.61246884776082
30
0
41
1
10
31.7478738383499
20
-1.48747033917144
30
0
41
1
10
31.5669114090298
20
-1.42205202587803
30
0
41
1
10
31.2052633854806
20
-1.28720257761756
30
0
41
1
10
31.0246306148761
20
-1.21789758300039
30
0
41
1
10
30.6638920112952
20
-1.07421287999455
30
0
41
1
10
30.4836604328405
20
-1.00010413483037
30
0
41
1
10
30.1226626785677
20
-0.84886695314205
30
0
41
1
10
29.9419669342664
20
-0.771964863082673
30
0
41
1
10
29.5804028589204
20
-0.615054852739092
30
0
41
1
10
29.3995634975367
20
-0.534783265457747
30
0
41
1
10
29.0366746946164
20
-0.372678526413523
30
0
41
1
10
28.8546003450422
20
-0.29084317709777
30
0
41
1
10
28.4895763017417
20
-0.126077110070355
30
0
41
1
10
28.306466491656
20
-0.0426592761241125
30
0
41
1
10
27.9423321278274
20
0.123316553736572
30
0
41
1
10
27.7607814599193
20
0.205613365034566
30
0
41
1
10
27.3982692480548
20
0.368511720648001
30
0
41
1
10
27.2173406481484
20
0.449390729838029
30
0
41
1
10
26.8563269924487
20
0.609675077480773
30
0
41
1
10
26.676108923148
20
0.688801708086885
30
0
41
1
10
26.3154946457697
20
0.843258588496496
30
0
41
1
10
26.1351305174072
20
0.918912678002215
30
0
41
1
10
25.7745331498723
20
1.06768374466441
30
0
41
1
10
25.5943405222646
20
1.14071984836821
30
0
41
1
10
25.2330570417656
20
1.28140824853114
30
0
41
1
10
25.0519776851613
20
1.34913608322023
30
0
41
1
10
24.6891863146059
20
1.48078513931199
30
0
41
1
10
24.5075704690412
20
1.54473489697625
30
0
41
1
10
24.1430842009934
20
1.66652863552514
30
0
41
1
10
23.9598336532513
20
1.72386730520975
30
0
41
1
10
23.5950233352859
20
1.83222719270051
30
0
41
1
10
23.4130998543717
20
1.88348071434063
30
0
41
1
10
23.0504176337995
20
1.97877222983206
30
0
41
1
10
22.8695317198651
20
2.02228745185568
30
0
41
1
10
22.5078920531813
20
2.10144805947863
30
0
41
1
10
22.3271621990077
20
2.13749753305856
30
0
41
1
10
21.9661305751146
20
2.20268540457565
30
0
41
1
10
21.7858700446509
20
2.23136289451344
30
0
41
1
10
21.4247458557529
20
2.27886623242838
30
0
41
1
10
21.2439646123252
20
2.29876084820671
30
0
41
1
10
20.8819846873116
20
2.33108319404465
30
0
41
1
10
20.7009342166042
20
2.34363313044113
30
0
41
1
10
20.3763308824482
20
2.35702314074916
30
0
41
1
10
20.2328573840729
20
2.35975192386346
30
0
41
1
10
20.0890350979129
20
2.36009677149039
30
0
0
SPLINE
5
DD
100
AcDbEntity
8
1
62
256
6
ByLayer
370
18
48
1
60
0
100
AcDbSpline
70
4
71
3
72
40
73
36
40
0
40
0
40
0
40
0
40
0.0761729551345591
40
0.0761729551345591
40
0.11425943270184
40
0.11425943270184
40
0.15234591026912
40
0.15234591026912
40
0.190432387836401
40
0.190432387836401
40
0.228518865403681
40
0.228518865403681
40
0.304691820538242
40
0.304691820538242
40
0.342778298105524
40
0.342778298105524
40
0.380864775672806
40
0.380864775672806
40
0.457037730807371
40
0.457037730807371
40
0.533210685941936
40
0.533210685941936
40
0.571297163509217
40
0.571297163509217
40
0.609383641076499
40
0.609383641076499
40
0.761729551345619
40
0.761729551345619
40
0.7998160289129
40
0.7998160289129
40
0.837902506480182
40
0.837902506480182
40
0.914075461614745
40
0.914075461614745
40
1
40
1
40
1
40
1
41
1
10
45.1437485841167
20
-2.49012218044234
30
0
41
1
10
44.7153438997287
20
-2.50810151474383
30
0
41
1
10
44.2878299759169
20
-2.50055238949972
30
0
41
1
10
43.64469034921
20
-2.45148906289341
30
0
41
1
10
43.4297066750795
20
-2.42878963306597
30
0
41
1
10
43.0007627179826
20
-2.37125843930727
30
0
41
1
10
42.7866661951361
20
-2.3364113214414
30
0
41
1
10
42.3585765780778
20
-2.25504045770594
30
0
41
1
10
42.1445443479261
20
-2.20855223404959
30
0
41
1
10
41.7159379573501
20
-2.10448974623535
30
0
41
1
10
41.5010478109441
20
-2.04681535792056
30
0
41
1
10
40.8573685808842
20
-1.85892163386964
30
0
41
1
10
40.429748297578
20
-1.71389095412715
30
0
41
1
10
39.7869201960501
20
-1.47218440875312
30
0
41
1
10
39.5720052456795
20
-1.38745897334238
30
0
41
1
10
39.1430001290448
20
-1.21168327706695
30
0
41
1
10
38.929398085026
20
-1.12081640065776
30
0
41
1
10
38.2903573851127
20
-0.841202993126103
30
0
41
1
10
37.8665931022269
20
-0.645623929342065
30
0
41
1
10
37.0189449446983
20
-0.245862999756014
30
0
41
1
10
36.5951058220281
20
-0.04158860592716
30
0
41
1
10
35.9559250496035
20
0.264217219143546
30
0
41
1
10
35.7422559143109
20
0.365966001187644
30
0
41
1
10
35.3131315060698
20
0.567869082344515
30
0
41
1
10
35.0984023781631
20
0.667708651522929
30
0
41
1
10
34.0307505882961
20
1.15441532244179
30
0
41
1
10
33.1876868132372
20
1.50696418489204
30
0
41
1
10
32.1246347006411
20
1.8606695641997
30
0
41
1
10
31.9115498906068
20
1.92705811685264
30
0
41
1
10
31.483851207653
20
2.0501759183698
30
0
41
1
10
31.2686194937875
20
2.1070532673879
30
0
41
1
10
30.6258397543203
20
2.26039532327655
30
0
41
1
10
30.2006102042098
20
2.33976509795036
30
0
41
1
10
29.2978628028987
20
2.45753776279375
30
0
41
1
10
28.8205824711476
20
2.48922991685842
30
0
41
1
10
28.341213416667
20
2.48932132881154
30
0
0
SPLINE
5
DE
100
AcDbEntity
8
1
62
256
6
ByLayer
370
18
48
1
60
0
100
AcDbSpline
70
4
71
3
72
22
73
18
40
0
40
0
40
0
40
0
40
0.185117478107135
40
0.185117478107135
40
0.25302435493154
40
0.25302435493154
40
0.320931231755945
40
0.320931231755945
40
0.456744985404756
40
0.456744985404756
40
0.592558739053567
40
0.592558739053567
40
0.728372492702378
40
0.728372492702378
40
0.864186246351189
40
0.864186246351189
40
1
40
1
40
1
40
1
41
1
10
13.5966350152756
20
-2.36175233331775
30
0
41
1
10
13.0174320888872
20
-2.44559621829777
30
0
41
1
10
12.4408226241311
20
-2.48526894762142
30
0
41
1
10
11.6481127291111
20
-2.47592930972755
30
0
41
1
10
11.4349302302622
20
-2.46720129907087
30
0
41
1
10
11.0070744449738
20
-2.43721485814967
30
0
41
1
10
10.7919342930515
20
-2.41589234921466
30
0
41
1
10
10.1473142692951
20
-2.33359658549128
30
0
41
1
10
9.71911474952097
20
-2.25449195663589
30
0
41
1
10
8.86099257400838
20
-2.05197134195092
30
0
41
1
10
8.43038600946286
20
-1.92821761204891
30
0
41
1
10
7.57250196217632
20
-1.64510743531443
30
0
41
1
10
7.14406837341829
20
-1.48557460082441
30
0
41
1
10
6.28343026337586
20
-1.13816194500484
30
0
41
1
10
5.85556253132671
20
-0.951840608248745
30
0
41
1
10
5.00008393384331
20
-0.564436873265748
30
0
41
1
10
4.57237830133744
20
-0.363373513492746
30
0
41
1
10
4.14258686973221
20
-0.159282679657849
30
0
0
SPLINE
5
DF
100
AcDbEntity
8
1
62
256
6
ByLayer
370
18
48
1
60
0
100
AcDbSpline
70
4
71
3
72
12
73
8
40
0
40
0
40
0
40
0
40
0.25
40
0.25
40
0.5
40
0.5
40
1
40
1
40
1
40
1
41
1
10
44.9308826408147
20
0.64626185443268
30
0
41
1
10
44.9305764179933
20
0.656276924283873
30
0
41
1
10
44.9330247650282
20
0.666349726137213
30
0
41
1
10
44.9435244928901
20
0.683735119614454
30
0
41
1
10
44.9515521060564
20
0.690983410162147
30
0
41
1
10
44.9784693183664
20
0.706531172631742
30
0
41
1
10
44.9998014117927
20
0.709723596665611
30
0
41
1
10
45.020539852345
20
0.70911956849514
30
0
0
SPLINE
5
E0
100
AcDbEntity
8
1
62
256
6
ByLayer
370
18
48
1
60
0
100
AcDbSpline
70
4
71
3
72
24
73
20
40
0
40
0
40
0
40
0
40
0.0624999999999995
40
0.0624999999999995
40
0.124999999999999
40
0.124999999999999
40
0.187499999999998
40
0.187499999999998
40
0.249999999999998
40
0.249999999999998
40
0.374999999999997
40
0.374999999999997
40
0.499999999999996
40
0.499999999999996
40
0.749999999999994
40
0.749999999999994
40
0.874999999999997
40
0.874999999999997
40
1
40
1
40
1
40
1
41
1
10
42.7996952158812
20
0.789508966214441
30
0
41
1
10
42.7986118629387
20
0.715304761347369
30
0
41
1
10
42.8028392325616
20
0.640219115668884
30
0
41
1
10
42.8217241490255
20
0.488316688150889
30
0
41
1
10
42.836604879196
20
0.410797445750319
30
0
41
1
10
42.8755263825145
20
0.258829709124399
30
0
41
1
10
42.8994960212348
20
0.1841168483638
30
0
41
1
10
42.9554390141251
20
0.0369472895376362
30
0
41
1
10
42.9875669797673
20
-0.0358028956757153
30
0
41
1
10
43.0939543085972
20
-0.248974823375931
30
0
41
1
10
43.1763704719113
20
-0.381441672418532
30
0
41
1
10
43.3579420602308
20
-0.63232153374409
30
0
41
1
10
43.4579508238411
20
-0.75130853527196
30
0
41
1
10
43.7695385112982
20
-1.08136641616548
30
0
41
1
10
43.9943712323201
20
-1.26972878699377
30
0
41
1
10
44.349205404145
20
-1.51971200428122
30
0
41
1
10
44.4695745155395
20
-1.59674337515432
30
0
41
1
10
44.7125436788903
20
-1.73907741003217
30
0
41
1
10
44.8353852213939
20
-1.80452500953416
30
0
41
1
10
44.9594821999702
20
-1.86468110507857
30
0
0
SPLINE
5
E1
100
AcDbEntity
8
1
62
256
6
ByLayer
370
18
48
1
60
0
100
AcDbSpline
70
4
71
3
72
8
73
4
40
0
40
0
40
0
40
0
40
1
40
1
40
1
40
1
41
1
10
45.9900859780654
20
-0.0953736474500886
30
0
41
1
10
45.99065837617
20
-0.0777154636868715
30
0
41
1
10
45.9944695187718
20
-0.0554311413349069
30
0
41
1
10
45.9999610925673
20
-0.0321389997040455
30
0
0
SPLINE
5
E2
100
AcDbEntity
8
1
62
256
6
ByLayer
370
18
48
1
60
0
100
AcDbSpline
70
4
71
3
72
72
73
68
40
0
40
0
40
0
40
0
40
0.0596676471974641
40
0.0596676471974641
40
0.0895014707961966
40
0.0895014707961966
40
0.119335294394929
40
0.119335294394929
40
0.149169117993662
40
0.149169117993662
40
0.179002941592394
40
0.179002941592394
40
0.208836765191126
40
0.208836765191126
40
0.238670588789859
40
0.238670588789859
40
0.268504412388591
40
0.268504412388591
40
0.298338235987324
40
0.298338235987324
40
0.328172059586056
40
0.328172059586056
40
0.358005883184789
40
0.358005883184789
40
0.387839706783521
40
0.387839706783521
40
0.417673530382254
40
0.417673530382254
40
0.447507353980986
40
0.447507353980986
40
0.477341177579719
40
0.477341177579719
40
0.507175001178451
40
0.507175001178451
40
0.537008824777184
40
0.537008824777184
40
0.566842648375916
40
0.566842648375916
40
0.596676471974648
40
0.596676471974648
40
0.626510295573381
40
0.626510295573381
40
0.656344119172113
40
0.656344119172113
40
0.686177942770846
40
0.686177942770846
40
0.716011766369578
40
0.716011766369578
40
0.745845589968311
40
0.745845589968311
40
0.775679413567043
40
0.775679413567043
40
0.805513237165776
40
0.805513237165776
40
0.835347060764508
40
0.835347060764508
40
0.865180884363241
40
0.865180884363241
40
0.895014707961973
40
0.895014707961973
40
0.924848531560706
40
0.924848531560706
40
0.954682355159438
40
0.954682355159438
40
0.984516178758171
40
0.984516178758171
40
1
40
1
40
1
40
1
41
1
10
7.98175922430479
20
2.02555536166082
30
0
41
1
10
8.37239408950327
20
2.13435401005091
30
0
41
1
10
8.76240871838132
20
2.22199171748718
30
0
41
1
10
9.34264928185198
20
2.32765434084567
30
0
41
1
10
9.53570532060161
20
2.35800418307633
30
0
41
1
10
9.92231041962137
20
2.4084095661961
30
0
41
1
10
10.1156555941307
20
2.42865340131365
30
0
41
1
10
10.5018781541257
20
2.45935451582162
30
0
41
1
10
10.6947020800061
20
2.4697221190672
30
0
41
1
10
11.0819919403737
20
2.47996940137082
30
0
41
1
10
11.2761838358111
20
2.47998879910426
30
0
41
1
10
11.6652077818001
20
2.46968202456984
30
0
41
1
10
11.8597604954577
20
2.45920432102469
30
0
41
1
10
12.2512204995331
20
2.4278887003739
30
0
41
1
10
12.4465757879666
20
2.40724328933192
30
0
41
1
10
12.835776787192
20
2.35605712215551
30
0
41
1
10
13.0293852281312
20
2.32525337139072
30
0
41
1
10
13.4162854986503
20
2.25440000430385
30
0
41
1
10
13.6097698172624
20
2.21458643420217
30
0
41
1
10
13.9963749337789
20
2.12602123002301
30
0
41
1
10
14.1893152163304
20
2.07704469921168
30
0
41
1
10
14.5750985689723
20
1.97018066889626
30
0
41
1
10
14.7684373416848
20
1.91293737151074
30
0
41
1
10
15.155868937567
20
1.79082872298602
30
0
41
1
10
15.3498692687997
20
1.72583574860065
30
0
41
1
10
15.7381725616152
20
1.58716410503936
30
0
41
1
10
15.9330423864046
20
1.51439859047164
30
0
41
1
10
16.3247556853501
20
1.36304661233973
30
0
41
1
10
16.5201252233831
20
1.28479178162621
30
0
41
1
10
16.9086662073313
20
1.12205217246876
30
0
41
1
10
17.1022476473766
20
1.03813642931527
30
0
41
1
10
17.4895155946007
20
0.868246747923564
30
0
41
1
10
17.6829718199381
20
0.781825253870892
30
0
41
1
10
18.0690171429875
20
0.604976663228427
30
0
41
1
10
18.2614607000395
20
0.514223360321864
30
0
41
1
10
18.647521929855
20
0.33296098948918
30
0
41
1
10
18.8408896989693
20
0.241945434327533
30
0
41
1
10
19.2278212298057
20
0.0581104388181188
30
0
41
1
10
19.4210872330337
20
-0.0353803412746458
30
0
41
1
10
19.8093769775886
20
-0.22081005049526
30
0
41
1
10
20.0043739758346
20
-0.312784322396482
30
0
41
1
10
20.395594692243
20
-0.496343773879232
30
0
41
1
10
20.5910131925924
20
-0.588233114180184
30
0
41
1
10
20.9810447255123
20
-0.76830418196559
30
0
41
1
10
21.1762475824877
20
-0.856020779323302
30
0
41
1
10
21.5666036894332
20
-1.0277607674694
30
0
41
1
10
21.7615888352191
20
-1.11209890162721
30
0
41
1
10
22.1516447196933
20
-1.27668560867102
30
0
41
1
10
22.3475248427193
20
-1.35601970034941
30
0
41
1
10
22.7387592638285
20
-1.50812717830235
30
0
41
1
10
22.9340515963202
20
-1.58111193489879
30
0
41
1
10
23.323616768941
20
-1.72138140022963
30
0
41
1
10
23.5184798692411
20
-1.78770805161685
30
0
41
1
10
23.9090008293876
20
-1.91199612721783
30
0
41
1
10
24.1045266871442
20
-1.9701810883349
30
0
41
1
10
24.4954136912867
20
-2.07933101508229
30
0
41
1
10
24.6905427108399
20
-2.12966530851932
30
0
41
1
10
25.0810588927583
20
-2.22012108302832
30
0
41
1
10
25.276311323679
20
-2.2606046342504
30
0
41
1
10
25.6662602716277
20
-2.33250595626785
30
0
41
1
10
25.860826967356
20
-2.36392228592862
30
0
41
1
10
26.2515476537861
20
-2.41599962057316
30
0
41
1
10
26.4477359815179
20
-2.43693822364176
30
0
41
1
10
26.8378085716808
20
-2.46854990120912
30
0
41
1
10
27.0316693674852
20
-2.4792737245391
30
0
41
1
10
27.3260531170429
20
-2.48748498082929
30
0
41
1
10
27.4266030210196
20
-2.48889088838646
30
0
41
1
10
27.5270855789178
20
-2.48891332639627
30
0
0
SPLINE
5
E3
100
AcDbEntity
8
1
62
256
6
ByLayer
370
18
48
1
60
0
100
AcDbSpline
70
4
71
3
72
26
73
22
40
0
40
0
40
0
40
0
40
0.0085925348591954
40
0.0085925348591954
40
0.11874891987484
40
0.11874891987484
40
0.228905304890486
40
0.228905304890486
40
0.339061689906131
40
0.339061689906131
40
0.449218074921775
40
0.449218074921775
40
0.55937445993742
40
0.55937445993742
40
0.669530844953065
40
0.669530844953065
40
0.77968722996871
40
0.77968722996871
40
0.889843614984355
40
0.889843614984355
40
1
40
1
40
1
40
1
41
1
10
39.9768890255446
20
1.82927288461309
30
0
41
1
10
39.9920257298616
20
1.83421948496186
30
0
41
1
10
40.0071680177254
20
1.83914006985313
30
0
41
1
10
40.2165181732746
20
1.90677303201392
30
0
41
1
10
40.4114368289854
20
1.96558672727039
30
0
41
1
10
40.8022724723249
20
2.07584405455978
30
0
41
1
10
40.9972508485333
20
2.12730828106768
30
0
41
1
10
41.3873275693152
20
2.21970609741197
30
0
41
1
10
41.5824662037607
20
2.26101265925342
30
0
41
1
10
41.9724225535373
20
2.3344133374647
30
0
41
1
10
42.1669262712238
20
2.36667269010673
30
0
41
1
10
42.5570570063571
20
2.42064964553813
30
0
41
1
10
42.7530824330065
20
2.44244051677708
30
0
41
1
10
43.1434565423632
20
2.47571790069205
30
0
41
1
10
43.3377230332426
20
2.48726981247591
30
0
41
1
10
43.7255390570877
20
2.49979206201445
30
0
41
1
10
43.9194797695876
20
2.50076822363974
30
0
41
1
10
44.3070932424046
20
2.49249976261393
30
0
41
1
10
44.5006394710124
20
2.48322428136115
30
0
41
1
10
44.8873250039285
20
2.45411153118158
30
0
41
1
10
45.0810426730237
20
2.43446411247621
30
0
41
1
10
45.2752272412637
20
2.40988494754836
30
0
0
SPLINE
5
E4
100
AcDbEntity
8
1
62
256
6
ByLayer
370
18
48
1
60
0
100
AcDbSpline
70
4
71
3
72
10
73
6
40
0
40
0
40
0
40
0
40
0.5
40
0.5
40
1
40
1
40
1
40
1
41
1
10
45.2752272412637
20
-2.40988494754836
30
0
41
1
10
45.2512970993155
20
-2.42957334201128
30
0
41
1
10
45.228372054952
20
-2.44621850522984
30
0
41
1
10
45.1845142359128
20
-2.47310902218987
30
0
41
1
10
45.163468899721
20
-2.48338436317138
30
0
41
1
10
45.1437485841166
20
-2.49012218044234
30
0
0
SPLINE
5
E5
100
AcDbEntity
8
1
62
256
6
ByLayer
370
18
48
1
60
0
100
AcDbSpline
70
4
71
3
72
8
73
4
40
0
40
0
40
0
40
0
40
1
40
1
40
1
40
1
41
1
10
4.14258686973162
20
-0.159282679657537
30
0
41
1
10
4.13029937131057
20
-0.153447836023929
30
0
41
1
10
4.11865556784204
20
-0.146697870814791
30
0
41
1
10
4.10762861490969
20
-0.139069727175468
30
0
0
SPLINE
5
E6
100
AcDbEntity
8
1
62
256
6
ByLayer
370
18
48
1
60
0
100
AcDbSpline
70
4
71
3
72
10
73
6
40
0
40
0
40
0
40
0
40
0.5
40
0.5
40
1
40
1
40
1
40
1
41
1
10
45.2752272412594
20
2.40988494756019
30
0
41
1
10
45.3827801078901
20
2.1197431471777
30
0
41
1
10
45.4937539150813
20
1.83095422352037
30
0
41
1
10
45.7218260400611
20
1.25578102686521
30
0
41
1
10
45.83893308169
20
0.969534286954854
30
0
41
1
10
45.9582700014818
20
0.685586970568153
30
0
0
SPLINE
5
E7
100
AcDbEntity
8
1
62
256
6
ByLayer
370
18
48
1
60
0
100
AcDbSpline
70
4
71
3
72
24
73
20
40
0
40
0
40
0
40
0
40
0.121575370874003
40
0.121575370874003
40
0.268579917905885
40
0.268579917905885
40
0.342082191421825
40
0.342082191421825
40
0.415584464937766
40
0.415584464937766
40
0.562589011969648
40
0.562589011969648
40
0.709593559001531
40
0.709593559001531
40
0.783095832517473
40
0.783095832517473
40
0.856598106033415
40
0.856598106033415
40
1
40
1
40
1
40
1
41
1
10
15.9612714493651
20
1.77165231845396
30
0
41
1
10
16.3124884860218
20
1.65712935983998
30
0
41
1
10
16.6632019790186
20
1.53067534050584
30
0
41
1
10
17.4397897184818
20
1.2295137031735
30
0
41
1
10
17.8658751329464
20
1.04995495160472
30
0
41
1
10
18.5103175023263
20
0.765351277177132
30
0
41
1
10
18.725616247516
20
0.668018519476419
30
0
41
1
10
19.1535730535208
20
0.471470217086079
30
0
41
1
10
19.3668557763914
20
0.372094245245904
30
0
41
1
10
20.0054325081283
20
0.0724383486016791
30
0
41
1
10
20.4295498765674
20
-0.129163264485698
30
0
41
1
10
21.2788489478382
20
-0.526741486284635
30
0
41
1
10
21.7040193044056
20
-0.722747223976512
30
0
41
1
10
22.3462364657499
20
-1.00464172211193
30
0
41
1
10
22.5614873167453
20
-1.09685076706981
30
0
41
1
10
22.9913251954927
20
-1.27494177196397
30
0
41
1
10
23.205864272406
20
-1.36078989253707
30
0
41
1
10
23.8386366134266
20
-1.60325770554076
30
0
41
1
10
24.2570858321128
20
-1.74955076492432
30
0
41
1
10
24.6765170137255
20
-1.87791491845965
30
0
0
SPLINE
5
E8
100
AcDbEntity
8
1
62
256
6
ByLayer
370
13
48
1
60
0
100
AcDbSpline
70
4
71
3
72
16
73
12
40
0
40
0
40
0
40
0
40
0.0061964669731037
40
0.0061964669731037
40
0.511884249786797
40
0.511884249786797
40
0.764728141193646
40
0.764728141193646
40
0.891150086897067
40
0.891150086897067
40
1
40
1
40
1
40
1
41
1
10
24.6765170137199
20
-1.87791491845795
30
0
41
1
10
24.6870542876052
20
-1.88113978180178
30
0
41
1
10
24.6975921812599
20
-1.88435332925096
30
0
41
1
10
25.5681699128813
20
-2.14888150210686
30
0
41
1
10
26.4124874930388
20
-2.3274533268409
30
0
41
1
10
27.6824433591807
20
-2.45127439515738
30
0
41
1
10
28.1063491793262
20
-2.46866940702995
30
0
41
1
10
28.7464461394335
20
-2.45744075806462
30
0
41
1
10
28.9605484411696
20
-2.44748768508808
30
0
41
1
10
29.3608701833176
20
-2.41716074481414
30
0
41
1
10
29.5454532448503
20
-2.39854612540938
30
0
41
1
10
29.7294970110052
20
-2.37555102184871
30
0
0
SPLINE
5
E9
100
AcDbEntity
8
1
62
256
6
ByLayer
370
13
48
1
60
0
100
AcDbSpline
70
4
71
3
72
8
73
4
40
0
40
0
40
0
40
0
40
1
40
1
40
1
40
1
41
1
10
4.14301788457385
20
-0.158711720218037
30
0
41
1
10
4.16353544252536
20
-0.167777174610194
30
0
41
1
10
4.18536592692828
20
-0.177651717064634
30
0
41
1
10
4.20768683933659
20
-0.188124642427084
30
0
0
SPLINE
5
EA
100
AcDbEntity
8
1
62
256
6
ByLayer
370
13
48
1
60
0
100
AcDbSpline
70
4
71
3
72
8
73
4
40
0
40
0
40
0
40
0
40
1
40
1
40
1
40
1
41
1
10
4.14258686973167
20
-0.159282679657252
30
0
41
1
10
4.14273034812234
20
-0.159092602947908
30
0
41
1
10
4.14287401977015
20
-0.158902283597882
30
0
41
1
10
4.14301788457385
20
-0.158711720218037
30
0
0
SPLINE
5
EB
100
AcDbEntity
8
1
62
256
6
ByLayer
370
13
48
1
60
0
100
AcDbSpline
70
4
71
3
72
27
73
23
40
0
40
0
40
0
40
0
40
0.125
40
0.125
40
0.25
40
0.25
40
0.3125
40
0.3125
40
0.375
40
0.4375
40
0.4375
40
0.499999999999999
40
0.499999999999999
40
0.624999999999999
40
0.624999999999999
40
0.6875
40
0.6875
40
0.75
40
0.75
40
0.875
40
0.875
40
1
40
1
40
1
40
1
41
1
10
4.25043425143897
20
-0.09384281212823
30
0
41
1
10
4.2505311037549
20
0.0585173869357618
30
0
41
1
10
4.25062188710379
20
0.211048391554897
30
0
41
1
10
4.25079036642654
20
0.508454759523005
30
0
41
1
10
4.25086872377514
20
0.654363892520109
30
0
41
1
10
4.25097987230407
20
0.868905988872655
30
0
41
1
10
4.25101563960112
20
0.93929845811067
30
0
41
1
10
4.25108397630675
20
1.0757102402124
30
0
41
1
10
4.25114946107664
20
1.20841554547931
30
0
41
1
10
4.25121006458124
20
1.3338001331509
30
0
41
1
10
4.2512685213942
20
1.45546807761903
30
0
41
1
10
4.25129682102315
20
1.51474806614385
30
0
41
1
10
4.25137753985669
20
1.68416898691817
30
0
41
1
10
4.25142581439326
20
1.78586053643639
30
0
41
1
10
4.25149103734788
20
1.92193219358128
30
0
41
1
10
4.25151156097672
20
1.96452610914267
30
0
41
1
10
4.2515501305613
20
2.04402227185491
30
0
41
1
10
4.25156815764319
20
2.08088142364161
30
0
41
1
10
4.25161725064137
20
2.1804902179251
30
0
41
1
10
4.25164368664582
20
2.2329474498716
30
0
41
1
10
4.25168283173747
20
2.31058122344237
30
0
41
1
10
4.2516955016464
20
2.33570328453564
30
0
41
1
10
4.25169936180495
20
2.34585952292065
30
0
0
SPLINE
5
EC
100
AcDbEntity
8
1
62
256
6
ByLayer
370
18
48
1
60
0
100
AcDbSpline
70
4
71
3
72
8
73
4
40
0
40
0
40
0
40
0
40
1
40
1
40
1
40
1
41
1
10
45.2377115683471
20
-1.32134812642033
30
0
41
1
10
45.1430212553461
20
-1.50068579321751
30
0
41
1
10
45.0502722138027
20
-1.68179139583631
30
0
41
1
10
44.9594821999702
20
-1.8646811050786
30
0
0
SPLINE
5
ED
100
AcDbEntity
8
1
62
256
6
ByLayer
370
18
48
1
60
0
100
AcDbSpline
70
4
71
3
72
29
73
25
40
0
40
0
40
0
40
0
40
0.0625
40
0.0625
40
0.125
40
0.125
40
0.25
40
0.25
40
0.375
40
0.375
40
0.5
40
0.5
40
0.5625
40
0.5625
40
0.625
40
0.625
40
0.75
40
0.75
40
0.8125
40
0.8125
40
0.875
40
0.9375
40
0.9375
40
1
40
1
40
1
40
1
41
1
10
4.03376107723051
20
-0.0118045104777309
30
0
41
1
10
4.03379382090341
20
0.0676415214113035
30
0
41
1
10
4.03382555551883
20
0.146899923276123
30
0
41
1
10
4.03388727157676
20
0.305042090063608
30
0
41
1
10
4.033917373457
20
0.384258255469888
30
0
41
1
10
4.03400418065365
20
0.61796591685038
30
0
41
1
10
4.03405761686432
20
0.768983573147665
30
0
41
1
10
4.0341580903542
20
1.06164076723726
30
0
41
1
10
4.03420552654813
20
1.20455855681928
30
0
41
1
10
4.03429242797444
20
1.47009567697666
30
0
41
1
10
4.03433224939113
20
1.59369500562877
30
0
41
1
10
4.03438772536356
20
1.76526399769506
30
0
41
1
10
4.03440558795234
20
1.82040928714403
30
0
41
1
10
4.03443939453541
20
1.92415193854521
30
0
41
1
10
4.03445535455239
20
1.97280136676898
30
0
41
1
10
4.03450059467866
20
2.10932632178873
30
0
41
1
10
4.03452728752623
20
2.18786510941399
30
0
41
1
10
4.03456192096951
20
2.28635018300469
30
0
41
1
10
4.0345724711492
20
2.31570367996287
30
0
41
1
10
4.03459122881341
20
2.36676356769385
30
0
41
1
10
4.03460774707273
20
2.41047104489937
30
0
41
1
10
4.03461955202613
20
2.43965173946407
30
0
41
1
10
4.03462876978807
20
2.46145788170551
30
0
41
1
10
4.0346320915134
20
2.46868190750189
30
0
41
1
10
4.03463392026228
20
2.47202720596729
30
0
0
SPLINE
5
EE
100
AcDbEntity
8
1
62
256
6
ByLayer
370
18
48
1
60
0
100
AcDbSpline
70
4
71
3
72
8
73
4
40
0
40
0
40
0
40
0
40
1
40
1
40
1
40
1
41
1
10
45.9582700014818
20
0.685586970568096
30
0
41
1
10
45.9731140252556
20
0.488550001794977
30
0
41
1
10
45.9837183292955
20
0.291812299525475
30
0
41
1
10
45.9900859780654
20
0.095373647450117
30
0
0
SPLINE
5
EF
100
AcDbEntity
8
1
62
256
6
ByLayer
370
18
48
1
60
0
100
AcDbSpline
70
4
71
3
72
14
73
10
40
0
40
0
40
0
40
0
40
0.25
40
0.25
40
0.5
40
0.5
40
0.75
40
0.75
40
1
40
1
40
1
40
1
41
1
10
4.25169936180475
20
-2.34585952292187
30
0
41
1
10
4.23167619559598
20
-2.34647468056699
30
0
41
1
10
4.21149395923217
20
-2.34929714164034
30
0
41
1
10
4.17076469620238
20
-2.36011404302309
30
0
41
1
10
4.15028494466614
20
-2.3682016297025
30
0
41
1
10
4.11179572226098
20
-2.38949485702605
30
0
41
1
10
4.09311062954799
20
-2.40314444042255
30
0
41
1
10
4.06047393004451
20
-2.4345779543778
30
0
41
1
10
4.04610413917345
20
-2.45270904649845
30
0
41
1
10
4.03463392026654
20
-2.47202720596729
30
0
0
SPLINE
5
F0
100
AcDbEntity
8
1
62
256
6
ByLayer
370
18
48
1
60
0
100
AcDbSpline
70
4
71
3
72
8
73
4
40
0
40
0
40
0
40
0
40
1
40
1
40
1
40
1
41
1
10
4.03463392026657
20
2.47202720596729
30
0
41
1
10
3.97682843853741
20
2.47335281429363
30
0
41
1
10
3.91911868291643
20
2.47406605831767
30
0
41
1
10
3.86152004881305
20
2.47411848833315
30
0
0
SPLINE
5
F1
100
AcDbEntity
8
1
62
256
6
ByLayer
370
18
48
1
60
0
100
AcDbSpline
70
4
71
3
72
8
73
4
40
0
40
0
40
0
40
0
40
1
40
1
40
1
40
1
41
1
10
7.13155970084856
20
1.83364230097124
30
0
41
1
10
7.41650629386146
20
1.89870626561705
30
0
41
1
10
7.70007175380732
20
1.96363382570391
30
0
41
1
10
7.98175922430477
20
2.02555536166082
30
0
0
SPLINE
5
F2
100
AcDbEntity
8
1
62
256
6
ByLayer
370
18
48
1
60
0
100
AcDbSpline
70
4
71
3
72
30
73
26
40
0
40
0
40
0
40
0
40
0.249999999999966
40
0.249999999999966
40
0.374999999999954
40
0.374999999999954
40
0.499999999999942
40
0.499999999999942
40
0.62499999999993
40
0.62499999999993
40
0.749999999999918
40
0.749999999999918
40
0.812499999999907
40
0.812499999999907
40
0.820312499999912
40
0.820312499999912
40
0.828124999999916
40
0.828124999999916
40
0.835937499999921
40
0.835937499999921
40
0.843749999999926
40
0.843749999999926
40
0.874999999999941
40
0.874999999999941
40
1
40
1
40
1
40
1
41
1
10
42.7996952158812
20
0.789508966214498
30
0
41
1
10
42.9952872788604
20
0.64345603908356
30
0
41
1
10
43.1974852689291
20
0.517120947888969
30
0
41
1
10
43.5117495784546
20
0.360354352638524
30
0
41
1
10
43.6188975193993
20
0.313559883216328
30
0
41
1
10
43.8324955985972
20
0.234227819443106
30
0
41
1
10
43.9393831969412
20
0.201391070064773
30
0
41
1
10
44.1533460555963
20
0.150189282610938
30
0
41
1
10
44.2604210736122
20
0.131805559727042
30
0
41
1
10
44.4747909969785
20
0.111994911719876
30
0
41
1
10
44.5815238644942
20
0.110769910501972
30
0
41
1
10
44.7376316296308
20
0.124227409516124
30
0
41
1
10
44.7891429560929
20
0.13124526686866
30
0
41
1
10
44.8464535974081
20
0.142227470102938
30
0
41
1
10
44.8528137636813
20
0.143490956423108
30
0
41
1
10
44.8655072730553
20
0.146103103781087
30
0
41
1
10
44.8719389544523
20
0.14712796609129
30
0
41
1
10
44.8843714671725
20
0.150604331860507
30
0
41
1
10
44.8902624013924
20
0.153419166482252
30
0
41
1
10
44.8995963600208
20
0.162621415680007
30
0
41
1
10
44.9028236276289
20
0.169104265854941
30
0
41
1
10
44.9090218068344
20
0.20691314969028
30
0
41
1
10
44.9132650534362
20
0.237490618646831
30
0
41
1
10
44.9311316031204
20
0.391509297436642
30
0
41
1
10
44.9347793416475
20
0.518819585959676
30
0
41
1
10
44.9308826408147
20
0.64626185443268
30
0
0
SPLINE
5
F3
100
AcDbEntity
8
1
62
256
6
ByLayer
370
18
48
1
60
0
100
AcDbSpline
70
4
71
3
72
16
73
12
40
0
40
0
40
0
40
0
40
0.365630267000882
40
0.365630267000882
40
0.548445400501326
40
0.548445400501326
40
0.73126053400177
40
0.73126053400177
40
0.914075667502213
40
0.914075667502213
40
1
40
1
40
1
40
1
41
1
10
7.98175922430479
20
-2.02555536166079
30
0
41
1
10
8.37239408950327
20
-2.13435401005091
30
0
41
1
10
8.76240871838132
20
-2.22199171748721
30
0
41
1
10
9.342649281852
20
-2.32765434084567
30
0
41
1
10
9.53570532060161
20
-2.35800418307633
30
0
41
1
10
9.92231041962137
20
-2.4084095661961
30
0
41
1
10
10.1156555941307
20
-2.42865340131365
30
0
41
1
10
10.5018781541257
20
-2.45935451582162
30
0
41
1
10
10.6947020800061
20
-2.4697221190672
30
0
41
1
10
10.9793614193859
20
-2.47725390574558
30
0
41
1
10
11.0704966566368
20
-2.47853449188835
30
0
41
1
10
11.1617291647781
20
-2.47868040215158
30
0
0
SPLINE
5
F4
100
AcDbEntity
8
1
62
256
6
ByLayer
370
18
48
1
60
0
100
AcDbSpline
70
4
71
3
72
76
73
72
40
0
40
0
40
0
40
0
40
0.0048046293230328
40
0.0048046293230328
40
0.0335733348280601
40
0.0335733348280601
40
0.0623420403330875
40
0.0623420403330875
40
0.0911107458381149
40
0.0911107458381149
40
0.119879451343142
40
0.119879451343142
40
0.14864815684817
40
0.14864815684817
40
0.177416862353198
40
0.177416862353198
40
0.206185567858226
40
0.206185567858226
40
0.234954273363254
40
0.234954273363254
40
0.263722978868282
40
0.263722978868282
40
0.29249168437331
40
0.29249168437331
40
0.321260389878338
40
0.321260389878338
40
0.350029095383367
40
0.350029095383367
40
0.378797800888395
40
0.378797800888395
40
0.407566506393423
40
0.407566506393423
40
0.436335211898451
40
0.436335211898451
40
0.465103917403479
40
0.465103917403479
40
0.493872622908507
40
0.493872622908507
40
0.522641328413536
40
0.522641328413536
40
0.551410033918564
40
0.551410033918564
40
0.580178739423592
40
0.580178739423592
40
0.60894744492862
40
0.60894744492862
40
0.637716150433648
40
0.637716150433648
40
0.666484855938676
40
0.666484855938676
40
0.724022266948733
40
0.724022266948733
40
0.752790972453761
40
0.752790972453761
40
0.781559677958789
40
0.781559677958789
40
0.810328383463817
40
0.810328383463817
40
0.839097088968845
40
0.839097088968845
40
0.867865794473873
40
0.867865794473873
40
0.896634499978902
40
0.896634499978902
40
0.92540320548393
40
0.92540320548393
40
0.954171910988958
40
0.954171910988958
40
0.982940616493986
40
0.982940616493986
40
1
40
1
40
1
40
1
41
1
10
23.6159414213768
20
1.81836803141388
30
0
41
1
10
23.6485309643368
20
1.8289782156337
30
0
41
1
10
23.6811301149739
20
1.83947348318441
30
0
41
1
10
23.9090008293876
20
1.91199612721783
30
0
41
1
10
24.1045266871442
20
1.9701810883349
30
0
41
1
10
24.4954136912867
20
2.07933101508229
30
0
41
1
10
24.6905427108399
20
2.12966530851929
30
0
41
1
10
25.0810588927583
20
2.22012108302832
30
0
41
1
10
25.276311323679
20
2.2606046342504
30
0
41
1
10
25.6662602716277
20
2.33250595626785
30
0
41
1
10
25.860826967356
20
2.36392228592862
30
0
41
1
10
26.2515476537861
20
2.41599962057316
30
0
41
1
10
26.447735981518
20
2.43693822364176
30
0
41
1
10
26.8378085716809
20
2.46854990120912
30
0
41
1
10
27.0316693674852
20
2.4792737245391
30
0
41
1
10
27.419270836429
20
2.49008510595786
30
0
41
1
10
27.6129486473024
20
2.49029462518001
30
0
41
1
10
27.9995686517773
20
2.48055291516769
30
0
41
1
10
28.1922392534099
20
2.47048993923204
30
0
41
1
10
28.5778035271624
20
2.44015777819101
30
0
41
1
10
28.7709577858441
20
2.4200565804058
30
0
41
1
10
29.1575898144992
20
2.36998335818586
30
0
41
1
10
29.3509121055658
20
2.33988692329004
30
0
41
1
10
29.7380134220539
20
2.26948636137428
30
0
41
1
10
29.9323185513795
20
2.22963833388616
30
0
41
1
10
30.3224055726656
20
2.14074581526535
30
0
41
1
10
30.5185339533713
20
2.0914780676618
30
0
41
1
10
30.9079214052696
20
1.98373043372081
30
0
41
1
10
31.1020614914418
20
1.92587705814847
30
0
41
1
10
31.4899454015996
20
1.80348372491366
30
0
41
1
10
31.6835596678025
20
1.73878600835741
30
0
41
1
10
32.0694599582552
20
1.60129396597711
30
0
41
1
10
32.2619752846503
20
1.52881219645551
30
0
41
1
10
32.6478435514937
20
1.37935593779355
30
0
41
1
10
32.8409400121476
20
1.30198476117931
30
0
41
1
10
33.2269759171844
20
1.14102863498877
30
0
41
1
10
33.419705592642
20
1.05698293844017
30
0
41
1
10
33.8069723837742
20
0.88634389154663
30
0
41
1
10
34.0012910970089
20
0.799377723724916
30
0
41
1
10
34.3908250527278
20
0.621092568662192
30
0
41
1
10
34.5861422175901
20
0.528901105547078
30
0
41
1
10
34.9766751099819
20
0.344299296555789
30
0
41
1
10
35.1719822454918
20
0.251962853878268
30
0
41
1
10
35.5621736307451
20
0.0661673607044122
30
0
41
1
10
35.7568021939109
20
-0.0278297880865352
30
0
41
1
10
36.1464091468375
20
-0.21533093885941
30
0
41
1
10
36.3417507172034
20
-0.308069444533118
30
0
41
1
10
36.7331136619145
20
-0.492353185675654
30
0
41
1
10
36.9283006873096
20
-0.583885332847927
30
0
41
1
10
37.5107401661943
20
-0.854684900935126
30
0
41
1
10
37.8982903035648
20
-1.02531235281307
30
0
41
1
10
38.4764668591943
20
-1.27086775779105
30
0
41
1
10
38.6691362517792
20
-1.35003042551096
30
0
41
1
10
39.0552463162153
20
-1.50151722915044
30
0
41
1
10
39.2485222444612
20
-1.57416270730354
30
0
41
1
10
39.6349067016515
20
-1.71416059422151
30
0
41
1
10
39.8281145336951
20
-1.78129479394008
30
0
41
1
10
40.2165181732745
20
-1.90677303201389
30
0
41
1
10
40.4114368289854
20
-1.96558672727039
30
0
41
1
10
40.8022724723249
20
-2.07584405455978
30
0
41
1
10
40.9972508485333
20
-2.12730828106768
30
0
41
1
10
41.3873275693152
20
-2.21970609741197
30
0
41
1
10
41.5824662037607
20
-2.26101265925342
30
0
41
1
10
41.9724225535373
20
-2.3344133374647
30
0
41
1
10
42.1669262712238
20
-2.36667269010673
30
0
41
1
10
42.5570570063571
20
-2.42064964553813
30
0
41
1
10
42.7530824330064
20
-2.44244051677708
30
0
41
1
10
43.1434565423631
20
-2.47571790069205
30
0
41
1
10
43.3377230332426
20
-2.48726981247591
30
0
41
1
10
43.6466154034184
20
-2.49724368436893
30
0
41
1
10
43.7616112601786
20
-2.49909807946028
30
0
41
1
10
43.8765838615214
20
-2.49913052249963
30
0
0
SPLINE
5
F5
100
AcDbEntity
8
1
62
256
6
ByLayer
370
18
48
1
60
0
100
AcDbSpline
70
4
71
3
72
21
73
17
40
0
40
0
40
0
40
0
40
0.0902642588590887
40
0.200806495180625
40
0.301843964889378
40
0.387217410881133
40
0.456360243320542
40
0.531122673554132
40
0.625180781442842
40
0.723835153783603
40
0.793112826676215
40
0.816660143895489
40
0.851869859276572
40
0.909158441683585
40
0.988472973019462
40
1
40
1
40
1
40
1
41
1
10
36.4513504005133
20
2.36841863802579
30
0
41
1
10
36.2572631317332
20
2.36707700251111
30
0
41
1
10
35.8244154694804
20
2.3651480757506
30
0
41
1
10
35.1610830151332
20
2.36290397027136
30
0
41
1
10
34.5219431911264
20
2.36976947451717
30
0
41
1
10
33.9665023240252
20
2.36659297149416
30
0
41
1
10
33.465581157737
20
2.36744550926221
30
0
41
1
10
32.94729217773
20
2.36747751938921
30
0
41
1
10
32.3633391618338
20
2.36599502673644
30
0
41
1
10
31.7917577248226
20
2.36724609538797
30
0
41
1
10
31.3737683881791
20
2.36586353263078
30
0
41
1
10
31.0946461880109
20
2.36586620888841
30
0
41
1
10
30.841578930787
20
2.36584524881999
30
0
41
1
10
30.4666944680171
20
2.36561253779715
30
0
41
1
10
30.1434367478873
20
2.36506592638469
30
0
41
1
10
29.945200842159
20
2.36496111022379
30
0
41
1
10
29.9200465783252
20
2.36495091286625
30
0
0
SPLINE
5
F6
100
AcDbEntity
8
1
62
256
6
ByLayer
370
18
48
1
60
0
100
AcDbSpline
70
4
71
3
72
20
73
16
40
0
40
0
40
0
40
0
40
0.0930262605614761
40
0.204939701589327
40
0.300624204341994
40
0.379216831004792
40
0.438996222235993
40
0.481711466705759
40
0.534501482139246
40
0.607349069788152
40
0.720835505136687
40
0.814862497697916
40
0.89500734745949
40
0.99121818323952
40
1
40
1
40
1
40
1
41
1
10
20.0706139320817
20
2.36046892879287
30
0
41
1
10
19.8692800130769
20
2.36039828961537
30
0
41
1
10
19.425406056949
20
2.36031307832735
30
0
41
1
10
18.7724948843899
20
2.35656883222953
30
0
41
1
10
18.151199569392
20
2.36001690662863
30
0
41
1
10
17.6462998370373
20
2.35871179109557
30
0
41
1
10
17.2533065652562
20
2.35782587418498
30
0
41
1
10
16.9161977952309
20
2.35856756489312
30
0
41
1
10
16.5509944403023
20
2.35877033826742
30
0
41
1
10
16.0318609564096
20
2.35663434088582
30
0
41
1
10
15.4229933976104
20
2.3581271509868
30
0
41
1
10
14.798979920511
20
2.35599907879208
30
0
41
1
10
14.2101898071296
20
2.35678625950615
30
0
41
1
10
13.8139056922216
20
2.35538365312993
30
0
41
1
10
13.5871813069429
20
2.35414623401249
30
0
41
1
10
13.5682060589647
20
2.35404063340027
30
0
0
SPLINE
5
F7
100
AcDbEntity
8
1
62
256
6
ByLayer
370
18
48
1
60
0
100
AcDbSpline
70
4
71
3
72
20
73
16
40
0
40
0
40
0
40
0
40
0.0952206485302453
40
0.185274931660677
40
0.264368056172597
40
0.330253634754127
40
0.407551462694502
40
0.500846533760634
40
0.567943312190013
40
0.613497218699135
40
0.658420027747571
40
0.723402141536582
40
0.807835784936469
40
0.90967298939473
40
1
40
1
40
1
40
1
41
1
10
12.1719267171627
20
-2.35429743483797
30
0
41
1
10
12.4176773145829
20
-2.35207778754443
30
0
41
1
10
12.8979399481378
20
-2.34953094579578
30
0
41
1
10
13.5982250119141
20
-2.35462019559256
30
0
41
1
10
14.2101902371152
20
-2.35678649544758
30
0
41
1
10
14.7989785118278
20
-2.35599830581921
30
0
41
1
10
15.4230002843897
20
-2.35813092989963
30
0
41
1
10
16.0508805916976
20
-2.35657243972761
30
0
41
1
10
16.5948299176005
20
-2.35902750987341
30
0
41
1
10
17.0104023485323
20
-2.35831367919431
30
0
41
1
10
17.4214160807808
20
-2.35764156276903
30
0
41
1
10
17.9327576921408
20
-2.36095953870336
30
0
41
1
10
18.5938470906974
20
-2.35621919833724
30
0
41
1
10
19.3256279792191
20
-2.36055521330479
30
0
41
1
10
19.8317970535226
20
-2.36047223489194
30
0
41
1
10
20.0696200324006
20
-2.36051030145669
30
0
0
SPLINE
5
F8
100
AcDbEntity
8
1
62
256
6
ByLayer
370
18
48
1
60
0
100
AcDbSpline
70
4
71
3
72
21
73
17
40
0
40
0
40
0
40
0
40
0.118444907184178
40
0.213296843933699
40
0.284473142817783
40
0.336748067221628
40
0.379421289802487
40
0.414195005311001
40
0.453210068413868
40
0.499171890533752
40
0.603892565154728
40
0.69570767590869
40
0.747982032153237
40
0.821901992476877
40
0.917313538036797
40
1
40
1
40
1
40
1
41
1
10
28.525793361849
20
-2.36466563326235
30
0
41
1
10
28.8361262681072
20
-2.36493526393738
30
0
41
1
10
29.3949813242029
20
-2.36542997850009
30
0
41
1
10
30.1402158501932
20
-2.36538694004187
30
0
41
1
10
30.7122700781948
20
-2.36634068972697
30
0
41
1
10
31.1473177013576
20
-2.36588581384052
30
0
41
1
10
31.4872074058771
20
-2.36619565250098
30
0
41
1
10
31.7923300718408
20
-2.36693570804815
30
0
41
1
10
32.106076428455
20
-2.36694440501137
30
0
41
1
10
32.6030885609588
20
-2.36597221705114
30
0
41
1
10
33.2384430921288
20
-2.36828234240821
30
0
41
1
10
33.8903212425937
20
-2.36656513557045
30
0
41
1
10
34.4615175603035
20
-2.36911611582715
30
0
41
1
10
35.0421001434099
20
-2.3672596721664
30
0
41
1
10
35.7023766890301
20
-2.36818270010491
30
0
41
1
10
36.1689973387033
20
-2.36869255750992
30
0
41
1
10
36.3856402396312
20
-2.36907886099692
30
0
0
SPLINE
5
F9
100
AcDbEntity
8
1
62
256
6
ByLayer
370
18
48
1
60
0
100
AcDbSpline
70
4
71
1
72
4
73
2
40
0
40
0
40
1
40
1
41
1
10
44.8201842986085
20
-2.37465019352072
30
0
41
1
10
45.1083736536685
20
-2.37130440403044
30
0
0
LINE
5
7B
100
AcDbEntity
8
SK1
62
256
6
ByLayer
370
18
48
1
60
0
100
AcDbLine
10
-36
20
2.065
30
0
11
-36
21
-1.089849
31
0
39
0
210
0
220
0
230
1
0
LINE
5
7D
100
AcDbEntity
8
SK1
62
256
6
ByLayer
370
18
48
1
60
0
100
AcDbLine
10
0
20
-3
30
0
11
0
21
3
31
0
39
0
210
0
220
0
230
1
0
LINE
5
7E
100
AcDbEntity
8
SK1
62
256
6
ByLayer
370
13
48
1
60
0
100
AcDbLine
10
-35.75
20
-1.302802
30
0
11
-35.75
21
-2.202382
31
0
39
0
210
0
220
0
230
1
0
LINE
5
7F
100
AcDbEntity
8
SK1
62
256
6
ByLayer
370
18
48
1
60
0
100
AcDbLine
10
-35.65
20
-2.251034
30
0
11
-35.65
21
-1.471425
31
0
39
0
210
0
220
0
230
1
0
LINE
5
80
100
AcDbEntity
8
SK1
62
256
6
ByLayer
370
18
48
1
60
0
100
AcDbLine
10
-35.065
20
3
30
0
11
-35.065
21
-3
31
0
39
0
210
0
220
0
230
1
0
LINE
5
81
100
AcDbEntity
8
SK1
62
256
6
ByLayer
370
18
48
1
60
0
100
AcDbLine
10
-36
20
-2.065
30
0
11
-36
21
-1.989398
31
0
39
0
210
0
220
0
230
1
0
LINE
5
82
100
AcDbEntity
8
SK1
62
256
6
ByLayer
370
18
48
1
60
0
100
AcDbLine
10
-36
20
-1.089825
30
0
11
-36
21
-1.989398
31
0
39
0
210
0
220
0
230
1
0
LINE
5
83
100
AcDbEntity
8
1
62
256
6
ByLayer
370
13
48
1
60
0
100
AcDbLine
10
1.187876
20
2.472445
30
0
11
1.187876
21
-2.472445
31
0
39
0
210
0
220
0
230
1
0
LINE
5
84
100
AcDbEntity
8
1
62
256
6
ByLayer
370
13
48
1
60
0
100
AcDbLine
10
45.02054
20
0.70912
30
0
11
45.990086
21
0.095374
31
0
39
0
210
0
220
0
230
1
0
LINE
5
85
100
AcDbEntity
8
1
62
256
6
ByLayer
370
18
48
1
60
0
100
AcDbLine
10
0
20
-3
30
0
11
0
21
3
31
0
39
0
210
0
220
0
230
1
0
LINE
5
86
100
AcDbEntity
8
1
62
256
6
ByLayer
370
13
48
1
60
0
100
AcDbLine
10
44.930883
20
0.646262
30
0
11
45.979057
21
-0.017257
31
0
39
0
210
0
220
0
230
1
0
LINE
5
87
100
AcDbEntity
8
1
62
256
6
ByLayer
370
13
48
1
60
0
100
AcDbLine
10
0.593688
20
2.736223
30
0
11
0.593688
21
-2.736223
31
0
39
0
210
0
220
0
230
1
0
LINE
5
88
100
AcDbEntity
8
80
62
256
6
ByLayer
370
18
48
1
60
0
100
AcDbLine
10
0
20
0
30
0
11
-5
21
0
31
0
39
0
210
0
220
0
230
1
0
LINE
5
89
100
AcDbEntity
8
4
62
256
6
ByLayer
370
18
48
0.05
60
0
100
AcDbLine
10
46
20
0
30
0
11
0
21
0
31
0
39
0
210
0
220
0
230
1
0
LINE
5
8B
100
AcDbEntity
8
SK4
62
256
6
ByLayer
370
18
48
0.05
60
0
100
AcDbLine
10
51
20
0
30
0
11
-41
21
0
31
0
39
0
210
0
220
0
230
1
0
LINE
5
8D
100
AcDbEntity
8
SK1
62
256
6
ByLayer
370
18
48
1
60
0
100
AcDbLine
10
-36
20
-2.065
30
0
11
-35.065
21
-3
31
0
39
0
210
0
220
0
230
1
0
LINE
5
8E
100
AcDbEntity
8
SK1
62
256
6
ByLayer
370
18
48
1
60
0
100
AcDbLine
10
-35.065
20
3
30
0
11
-36
21
2.065
31
0
39
0
210
0
220
0
230
1
0
LINE
5
8F
100
AcDbEntity
8
SK1
62
256
6
ByLayer
370
18
48
1
60
0
100
AcDbLine
10
-35.065
20
-3
30
0
11
0
21
-3
31
0
39
0
210
0
220
0
230
1
0
LINE
5
90
100
AcDbEntity
8
SK1
62
256
6
ByLayer
370
18
48
1
60
0
100
AcDbLine
10
0
20
3
30
0
11
-35.065
21
3
31
0
39
0
210
0
220
0
230
1
0
LINE
5
91
100
AcDbEntity
8
1
62
256
6
ByLayer
370
18
48
1
60
0
100
AcDbLine
10
11.171345
20
-2.478685
30
0
11
11.982412
21
-2.479192
31
0
39
0
210
0
220
0
230
1
0
LINE
5
92
100
AcDbEntity
8
1
62
256
6
ByLayer
370
18
48
1
60
0
100
AcDbLine
10
27.521844
20
-2.488904
30
0
11
28.332827
21
-2.489411
31
0
39
0
210
0
220
0
230
1
0
LINE
5
93
100
AcDbEntity
8
1
62
256
6
ByLayer
370
18
48
1
60
0
100
AcDbLine
10
28.332418
20
2.489411
30
0
11
27.521844
21
2.488904
31
0
39
0
210
0
220
0
230
1
0
LINE
5
94
100
AcDbEntity
8
1
62
256
6
ByLayer
370
18
48
1
60
0
100
AcDbLine
10
11.982673
20
2.479192
30
0
11
11.171345
21
2.478685
31
0
39
0
210
0
220
0
230
1
0
LINE
5
95
100
AcDbEntity
8
1
62
256
6
ByLayer
370
18
48
1
60
0
100
AcDbLine
10
1.187876
20
-2.472445
30
0
11
3.86173
21
-2.474117
31
0
39
0
210
0
220
0
230
1
0
LINE
5
96
100
AcDbEntity
8
1
62
256
6
ByLayer
370
18
48
1
60
0
100
AcDbLine
10
43.873794
20
-2.499124
30
0
11
44.683978
21
-2.49963
31
0
39
0
210
0
220
0
230
1
0
LINE
5
97
100
AcDbEntity
8
1
62
256
6
ByLayer
370
18
48
1
60
0
100
AcDbLine
10
44.683588
20
2.49963
30
0
11
43.873794
21
2.499124
31
0
39
0
210
0
220
0
230
1
0
LINE
5
98
100
AcDbEntity
8
1
62
256
6
ByLayer
370
18
48
1
60
0
100
AcDbLine
10
3.86173
20
2.474117
30
0
11
1.187876
21
2.472445
31
0
39
0
210
0
220
0
230
1
0
LINE
5
99
100
AcDbEntity
8
81
62
256
6
ByLayer
370
18
48
1
60
0
100
AcDbLine
10
46
20
0
30
0
11
51
21
0
31
0
39
0
210
0
220
0
230
1
0
LINE
5
9A
100
AcDbEntity
8
SK2
62
256
6
ByLayer
370
13
48
1
60
0
100
AcDbLine
10
-44.625163
20
32.117107
30
0
11
-44.625163
21
-11.75
31
0
39
0
210
0
220
0
230
1
0
LINE
5
9C
100
AcDbEntity
8
SK2
62
256
6
ByLayer
370
13
48
1
60
0
100
AcDbLine
10
-37.5875
20
3
30
0
11
-46.625163
21
3
31
0
39
0
210
0
220
0
230
1
0
LINE
5
9D
100
AcDbEntity
8
SK2
62
256
6
ByLayer
370
13
48
1
60
0
100
AcDbLine
10
-37.5875
20
-3
30
0
11
-46.625163
21
-3
31
0
39
0
210
0
220
0
230
1
0
LINE
5
9E
100
AcDbEntity
8
1
62
256
6
ByLayer
370
18
48
1
60
1
100
AcDbLine
10
-44.625163
20
3
30
0
11
-45.085946
21
6.499998
31
0
39
0
210
0
220
0
230
1
0
LINE
5
9F
100
AcDbEntity
8
1
62
256
6
ByLayer
370
18
48
1
60
1
100
AcDbLine
10
-45.085946
20
6.499998
30
0
11
-44.164379
21
6.500002
31
0
39
0
210
0
220
0
230
1
0
LINE
5
A0
100
AcDbEntity
8
1
62
256
6
ByLayer
370
18
48
1
60
1
100
AcDbLine
10
-44.164379
20
6.500002
30
0
11
-44.625163
21
3
31
0
39
0
210
0
220
0
230
1
0
LINE
5
A1
100
AcDbEntity
8
1
62
256
6
ByLayer
370
18
48
1
60
1
100
AcDbLine
10
-44.625163
20
-3
30
0
11
-44.164379
21
-6.499998
31
0
39
0
210
0
220
0
230
1
0
LINE
5
A2
100
AcDbEntity
8
1
62
256
6
ByLayer
370
18
48
1
60
1
100
AcDbLine
10
-44.164379
20
-6.499998
30
0
11
-45.085946
21
-6.500002
31
0
39
0
210
0
220
0
230
1
0
LINE
5
A3
100
AcDbEntity
8
1
62
256
6
ByLayer
370
18
48
1
60
1
100
AcDbLine
10
-45.085946
20
-6.500002
30
0
11
-44.625163
21
-3
31
0
39
0
210
0
220
0
230
1
0
LINE
5
A4
100
AcDbEntity
8
2
62
256
6
ByLayer
370
13
48
1
60
0
100
AcDbLine
10
58.083343
20
30.210193
30
0
11
58.083343
21
-11.25
31
0
39
0
210
0
220
0
230
1
0
LINE
5
A6
100
AcDbEntity
8
2
62
256
6
ByLayer
370
13
48
1
60
0
100
AcDbLine
10
46.857
20
2.5
30
0
11
60.083343
21
2.5
31
0
39
0
210
0
220
0
230
1
0
LINE
5
A7
100
AcDbEntity
8
2
62
256
6
ByLayer
370
13
48
1
60
0
100
AcDbLine
10
46.857
20
-2.5
30
0
11
60.083343
21
-2.5
31
0
39
0
210
0
220
0
230
1
0
LINE
5
A8
100
AcDbEntity
8
1
62
256
6
ByLayer
370
18
48
1
60
1
100
AcDbLine
10
58.083343
20
2.5
30
0
11
57.622559
21
5.999998
31
0
39
0
210
0
220
0
230
1
0
LINE
5
A9
100
AcDbEntity
8
1
62
256
6
ByLayer
370
18
48
1
60
1
100
AcDbLine
10
57.622559
20
5.999998
30
0
11
58.544126
21
6.000002
31
0
39
0
210
0
220
0
230
1
0
LINE
5
AA
100
AcDbEntity
8
1
62
256
6
ByLayer
370
18
48
1
60
1
100
AcDbLine
10
58.544126
20
6.000002
30
0
11
58.083343
21
2.5
31
0
39
0
210
0
220
0
230
1
0
LINE
5
AB
100
AcDbEntity
8
1
62
256
6
ByLayer
370
18
48
1
60
1
100
AcDbLine
10
58.083343
20
-2.5
30
0
11
58.544126
21
-5.999998
31
0
39
0
210
0
220
0
230
1
0
LINE
5
AC
100
AcDbEntity
8
1
62
256
6
ByLayer
370
18
48
1
60
1
100
AcDbLine
10
58.544126
20
-5.999998
30
0
11
57.622559
21
-6.000002
31
0
39
0
210
0
220
0
230
1
0
LINE
5
AD
100
AcDbEntity
8
1
62
256
6
ByLayer
370
18
48
1
60
1
100
AcDbLine
10
57.622559
20
-6.000002
30
0
11
58.083343
21
-2.5
31
0
39
0
210
0
220
0
230
1
0
LINE
5
100
100
AcDbEntity
8
1
62
256
6
ByLayer
370
18
48
1
60
1
100
AcDbLine
10
-44.625163
20
3
30
0
11
-45.085946
21
6.499998
31
0
39
0
210
0
220
0
230
1
0
LINE
5
101
100
AcDbEntity
8
1
62
256
6
ByLayer
370
18
48
1
60
1
100
AcDbLine
10
-45.085946
20
6.499998
30
0
11
-44.164379
21
6.500002
31
0
39
0
210
0
220
0
230
1
0
LINE
5
102
100
AcDbEntity
8
1
62
256
6
ByLayer
370
18
48
1
60
1
100
AcDbLine
10
-44.164379
20
6.500002
30
0
11
-44.625163
21
3
31
0
39
0
210
0
220
0
230
1
0
LINE
5
104
100
AcDbEntity
8
1
62
256
6
ByLayer
370
18
48
1
60
1
100
AcDbLine
10
-44.625163
20
-3
30
0
11
-44.164379
21
-6.499998
31
0
39
0
210
0
220
0
230
1
0
LINE
5
105
100
AcDbEntity
8
1
62
256
6
ByLayer
370
18
48
1
60
1
100
AcDbLine
10
-44.164379
20
-6.499998
30
0
11
-45.085946
21
-6.500002
31
0
39
0
210
0
220
0
230
1
0
LINE
5
106
100
AcDbEntity
8
1
62
256
6
ByLayer
370
18
48
1
60
1
100
AcDbLine
10
-45.085946
20
-6.500002
30
0
11
-44.625163
21
-3
31
0
39
0
210
0
220
0
230
1
0
LINE
5
10A
100
AcDbEntity
8
1
62
256
6
ByLayer
370
18
48
1
60
1
100
AcDbLine
10
58.083343
20
2.5
30
0
11
57.622559
21
5.999998
31
0
39
0
210
0
220
0
230
1
0
LINE
5
10B
100
AcDbEntity
8
1
62
256
6
ByLayer
370
18
48
1
60
1
100
AcDbLine
10
57.622559
20
5.999998
30
0
11
58.544126
21
6.000002
31
0
39
0
210
0
220
0
230
1
0
LINE
5
10C
100
AcDbEntity
8
1
62
256
6
ByLayer
370
18
48
1
60
1
100
AcDbLine
10
58.544126
20
6.000002
30
0
11
58.083343
21
2.5
31
0
39
0
210
0
220
0
230
1
0
LINE
5
10E
100
AcDbEntity
8
1
62
256
6
ByLayer
370
18
48
1
60
1
100
AcDbLine
10
58.083343
20
-2.5
30
0
11
58.544126
21
-5.999998
31
0
39
0
210
0
220
0
230
1
0
LINE
5
10F
100
AcDbEntity
8
1
62
256
6
ByLayer
370
18
48
1
60
1
100
AcDbLine
10
58.544126
20
-5.999998
30
0
11
57.622559
21
-6.000002
31
0
39
0
210
0
220
0
230
1
0
LINE
5
110
100
AcDbEntity
8
1
62
256
6
ByLayer
370
18
48
1
60
1
100
AcDbLine
10
57.622559
20
-6.000002
30
0
11
58.083343
21
-2.5
31
0
39
0
210
0
220
0
230
1
0
MTEXT
5
FA
100
AcDbEntity
8
SK6
62
256
6
ByLayer
370
13
48
1
60
0
100
AcDbMText
10
-24.145193
20
35.040328
30
0
210
0
220
0
230
1
1
\W0.7670;462.1-0500-025A1-XM X2BM
40
3.5
41
0
44
1.084337
50
0
71
7
72
5
7
iso_b_vert
0
MTEXT
5
FE
100
AcDbEntity
8
SK2
62
256
6
ByLayer
370
18
48
1
60
0
100
AcDbMText
10
-46.189796
20
16.409024
30
0
210
0
220
0
230
1
1
%%c
40
3.5
41
0
44
1.084337
50
90
71
7
72
5
7
iso_b_vert
0
MTEXT
5
FF
100
AcDbEntity
8
SK2
62
256
6
ByLayer
370
18
48
1
60
0
100
AcDbMText
10
-46.189796
20
21.63168
30
0
210
0
220
0
230
1
1
\W0.7317;6,000
40
3.5
41
0
44
1.084337
50
90
71
7
72
5
7
iso_b_vert
0
MTEXT
5
108
100
AcDbEntity
8
2
62
256
6
ByLayer
370
18
48
1
60
0
100
AcDbMText
10
56.518709
20
14.50211
30
0
210
0
220
0
230
1
1
%%c
40
3.5
41
0
44
1.084337
50
90
71
7
72
5
7
iso_b_vert
0
MTEXT
5
109
100
AcDbEntity
8
2
62
256
6
ByLayer
370
18
48
1
60
0
100
AcDbMText
10
56.518709
20
19.724766
30
0
210
0
220
0
230
1
1
\W0.7317;5,000
40
3.5
41
0
44
1.084337
50
90
71
7
72
5
7
iso_b_vert
0
HATCH
5
103
100
AcDbEntity
8
SK2
62
256
6
ByLayer
370
13
48
1
60
0
100
AcDbHatch
10
0
20
0
30
0
210
0
220
0
230
1
2
ANSI31
70
0
71
0
91
1
92
5
93
3
72
1
10
-44.6251625675374
20
3
11
-45.0859463090902
21
6.49999830744682
72
1
10
-45.0859463090902
20
6.49999830744682
11
-44.1643788259847
21
6.50000169255318
72
1
10
-44.1643788259847
20
6.50000169255318
11
-44.6251625675374
21
3
97
0
75
0
76
1
52
0
41
0.0062
77
0
78
1
53
45
43
0
44
0
45
-0.0139193969876572
46
0.0139193969876572
79
0
47
0
98
1
10
0
20
0
0
HATCH
5
107
100
AcDbEntity
8
SK2
62
256
6
ByLayer
370
13
48
1
60
0
100
AcDbHatch
10
0
20
0
30
0
210
0
220
0
230
1
2
ANSI31
70
0
71
0
91
1
92
5
93
3
72
1
10
-44.6251625675374
20
-3
11
-44.1643788259847
21
-6.49999830744682
72
1
10
-44.1643788259847
20
-6.49999830744682
11
-45.0859463090902
21
-6.50000169255318
72
1
10
-45.0859463090902
20
-6.50000169255318
11
-44.6251625675374
21
-3
97
0
75
0
76
1
52
0
41
0.0062
77
0
78
1
53
45
43
0
44
0
45
-0.0139193969876572
46
0.0139193969876572
79
0
47
0
98
1
10
0
20
0
0
HATCH
5
10D
100
AcDbEntity
8
2
62
256
6
ByLayer
370
13
48
1
60
0
100
AcDbHatch
10
0
20
0
30
0
210
0
220
0
230
1
2
ANSI31
70
0
71
0
91
1
92
5
93
3
72
1
10
58.083342615295
20
2.5
11
57.6225588737423
21
5.99999830744682
72
1
10
57.6225588737423
20
5.99999830744682
11
58.5441263568478
21
6.00000169255318
72
1
10
58.5441263568478
20
6.00000169255318
11
58.083342615295
21
2.5
97
0
75
0
76
1
52
0
41
0.0062
77
0
78
1
53
45
43
0
44
0
45
-0.0139193969876572
46
0.0139193969876572
79
0
47
0
98
1
10
0
20
0
0
HATCH
5
111
100
AcDbEntity
8
2
62
256
6
ByLayer
370
13
48
1
60
0
100
AcDbHatch
10
0
20
0
30
0
210
0
220
0
230
1
2
ANSI31
70
0
71
0
91
1
92
5
93
3
72
1
10
58.083342615295
20
-2.5
11
58.5441263568478
21
-5.99999830744682
72
1
10
58.5441263568478
20
-5.99999830744682
11
57.6225588737423
21
-6.00000169255318
72
1
10
57.6225588737423
20
-6.00000169255318
11
58.083342615295
21
-2.5
97
0
75
0
76
1
52
0
41
0.0062
77
0
78
1
53
45
43
0
44
0
45
-0.0139193969876572
46
0.0139193969876572
79
0
47
0
98
1
10
0
20
0
0
DIMENSION
5
113
100
AcDbEntity
8
SK2
62
256
6
ByLayer
370
13
48
1
60
0
100
AcDbDimension
2
_U0
10
45.2695
20
-12.713398
30
0
11
22.63475
21
-12.713398
31
0
70
32
71
1
72
1
41
1
210
0
220
0
230
1
3
Standard
100
AcDbAlignedDimension
13
0
23
0
33
0
14
45.2695
24
-2.5
34
0
50
0
100
AcDbRotatedDimension
1001
ACAD
1000
DSTYLE
1002
{
1070
   371
1070
    13
1070
   372
1070
    13
1070
   170
1070
     0
1070
   144
1040
1.0
1070
   277
1070
     2
1070
   278
1070
    44
1070
   146
1040
1.0
1070
   345
1005
16
1070
   347
1005
16
1070
   346
1005
16
1070
   344
1005
0
1070
   343
1005
0
1070
   172
1070
     1
1070
    76
1070
     0
1070
    75
1070
     0
1070
   282
1070
     0
1070
   281
1070
     0
1070
    71
1070
     0
1070
    74
1070
     0
1070
   279
1070
     0
1070
   173
1070
     1
1070
   340
1005
FB
1070
   271
1070
     2
1070
   272
1070
     2
1070
    77
1070
     1
1070
    73
1070
     1
1070
   171
1070
     3
1070
   274
1070
     4
1070
   177
1070
    35
1070
   176
1070
    35
1070
   178
1070
    35
1070
    48
1040
-0.1
1070
    41
1040
3.5
1070
   147
1040
1.75
1070
    42
1040
1.5875
1070
    44
1040
2.0
1070
   140
1040
3.5
1002
}
1001
ACAD_DSTYLE_DIM_LINETYPE
1070
   380
1005
16
1001
ACAD_DSTYLE_DIM_EXT1_LINETYPE
1070
   381
1005
16
1001
ACAD_DSTYLE_DIM_EXT2_LINETYPE
1070
   382
1005
16
0
DIMENSION
5
12C
100
AcDbEntity
8
SK2
62
256
6
ByLayer
370
13
48
1
60
0
100
AcDbDimension
2
_U1
10
46
20
-31.692985
30
0
11
5
21
-31.692985
31
0
70
32
71
1
72
1
41
1
210
0
220
0
230
1
3
Standard
100
AcDbAlignedDimension
13
-36
23
-3
33
0
14
46
24
0
34
0
50
0
100
AcDbRotatedDimension
1001
ACAD
1000
DSTYLE
1002
{
1070
   371
1070
    13
1070
   372
1070
    13
1070
   170
1070
     0
1070
   144
1040
1.0
1070
   277
1070
     2
1070
   278
1070
    44
1070
   146
1040
1.0
1070
   345
1005
16
1070
   347
1005
16
1070
   346
1005
16
1070
   344
1005
0
1070
   343
1005
0
1070
   172
1070
     1
1070
    76
1070
     0
1070
    75
1070
     0
1070
   282
1070
     0
1070
   281
1070
     0
1070
    71
1070
     0
1070
    74
1070
     0
1070
   279
1070
     0
1070
   173
1070
     1
1070
   340
1005
FB
1070
   271
1070
     2
1070
   272
1070
     2
1070
    77
1070
     1
1070
    73
1070
     1
1070
   171
1070
     3
1070
   274
1070
     4
1070
   177
1070
    35
1070
   176
1070
    35
1070
   178
1070
    35
1070
    48
1040
-0.1
1070
    41
1040
3.5
1070
   147
1040
1.75
1070
    42
1040
1.5875
1070
    44
1040
2.0
1070
   140
1040
3.5
1002
}
1001
ACAD_DSTYLE_DIM_LINETYPE
1070
   380
1005
16
1001
ACAD_DSTYLE_DIM_EXT1_LINETYPE
1070
   381
1005
16
1001
ACAD_DSTYLE_DIM_EXT2_LINETYPE
1070
   382
1005
16
0
DIMENSION
5
144
100
AcDbEntity
8
SK2
62
256
6
ByLayer
370
13
48
1
60
0
100
AcDbDimension
2
_U2
10
46
20
14.109119
30
0
11
33.135
21
14.109119
31
0
70
32
71
1
72
1
41
1
210
0
220
0
230
1
3
Standard
100
AcDbAlignedDimension
13
20.27
23
2.5
33
0
14
46
24
0
34
0
50
0
100
AcDbRotatedDimension
1001
ACAD
1000
DSTYLE
1002
{
1070
   371
1070
    13
1070
   372
1070
    13
1070
   170
1070
     0
1070
   144
1040
1.0
1070
   277
1070
     2
1070
   278
1070
    44
1070
   146
1040
1.0
1070
   345
1005
16
1070
   347
1005
16
1070
   346
1005
16
1070
   344
1005
0
1070
   343
1005
0
1070
   172
1070
     1
1070
    76
1070
     0
1070
    75
1070
     0
1070
   282
1070
     0
1070
   281
1070
     0
1070
    71
1070
     0
1070
    74
1070
     0
1070
   279
1070
     0
1070
   173
1070
     1
1070
   340
1005
FB
1070
   271
1070
     2
1070
   272
1070
     2
1070
    77
1070
     1
1070
    73
1070
     1
1070
   171
1070
     3
1070
   274
1070
     4
1070
   177
1070
    35
1070
   176
1070
    35
1070
   178
1070
    35
1070
    48
1040
-0.1
1070
    41
1040
3.5
1070
   147
1040
1.75
1070
    42
1040
1.5875
1070
    44
1040
2.0
1070
   140
1040
3.5
1002
}
1001
ACAD_DSTYLE_DIM_LINETYPE
1070
   380
1005
16
1001
ACAD_DSTYLE_DIM_EXT1_LINETYPE
1070
   381
1005
16
1001
ACAD_DSTYLE_DIM_EXT2_LINETYPE
1070
   382
1005
16
0
DIMENSION
5
15C
100
AcDbEntity
8
SK2
62
256
6
ByLayer
370
13
48
1
60
0
100
AcDbDimension
2
_U3
10
45.2695
20
-15.302503
30
0
11
63.583333
21
-15.302503
31
0
70
32
71
1
72
1
41
1
210
0
220
0
230
1
3
Standard
100
AcDbAlignedDimension
13
46
23
0
33
0
14
45.2695
24
-2.5
34
0
50
0
100
AcDbRotatedDimension
1001
ACAD
1000
DSTYLE
1002
{
1070
   371
1070
    13
1070
   372
1070
    13
1070
   170
1070
     0
1070
   144
1040
1.0
1070
   277
1070
     2
1070
   278
1070
    44
1070
   146
1040
1.0
1070
   345
1005
16
1070
   347
1005
16
1070
   346
1005
16
1070
   344
1005
0
1070
   343
1005
0
1070
   172
1070
     1
1070
    76
1070
     0
1070
    75
1070
     0
1070
   282
1070
     0
1070
   281
1070
     0
1070
    71
1070
     0
1070
    74
1070
     0
1070
   279
1070
     0
1070
   173
1070
     1
1070
   340
1005
FB
1070
   271
1070
     2
1070
   272
1070
     2
1070
    77
1070
     1
1070
    73
1070
     1
1070
   171
1070
     3
1070
   274
1070
     4
1070
   177
1070
    35
1070
   176
1070
    35
1070
   178
1070
    35
1070
    48
1040
-0.1
1070
    41
1040
3.5
1070
   147
1040
1.75
1070
    42
1040
1.5875
1070
    44
1040
2.0
1070
   140
1040
3.5
1002
}
1001
ACAD_DSTYLE_DIM_LINETYPE
1070
   380
1005
16
1001
ACAD_DSTYLE_DIM_EXT1_LINETYPE
1070
   381
1005
16
1001
ACAD_DSTYLE_DIM_EXT2_LINETYPE
1070
   382
1005
16
0
DIMENSION
5
176
100
AcDbEntity
8
SK2
62
256
6
ByLayer
370
13
48
1
60
0
100
AcDbDimension
2
_U4
10
45.2695
20
-21.343428
30
0
11
4.63475
21
-21.343428
31
0
70
32
71
1
72
1
41
1
210
0
220
0
230
1
3
Standard
100
AcDbAlignedDimension
13
-36
23
-3
33
0
14
45.2695
24
-2.5
34
0
50
0
100
AcDbRotatedDimension
1001
ACAD
1000
DSTYLE
1002
{
1070
   371
1070
    13
1070
   372
1070
    13
1070
   170
1070
     0
1070
   144
1040
1.0
1070
   277
1070
     2
1070
   278
1070
    44
1070
   146
1040
1.0
1070
   345
1005
16
1070
   347
1005
16
1070
   346
1005
16
1070
   344
1005
0
1070
   343
1005
0
1070
   172
1070
     1
1070
    76
1070
     0
1070
    75
1070
     0
1070
   282
1070
     0
1070
   281
1070
     0
1070
    71
1070
     0
1070
    74
1070
     0
1070
   279
1070
     0
1070
   173
1070
     1
1070
   340
1005
FB
1070
   271
1070
     2
1070
   272
1070
     2
1070
    77
1070
     1
1070
    73
1070
     1
1070
   171
1070
     3
1070
   274
1070
     4
1070
   177
1070
    35
1070
   176
1070
    35
1070
   178
1070
    35
1070
    48
1040
-0.1
1070
    41
1040
3.5
1070
   147
1040
1.75
1070
    42
1040
1.5875
1070
    44
1040
2.0
1070
   140
1040
3.5
1002
}
1001
ACAD_DSTYLE_DIM_LINETYPE
1070
   380
1005
16
1001
ACAD_DSTYLE_DIM_EXT1_LINETYPE
1070
   381
1005
16
1001
ACAD_DSTYLE_DIM_EXT2_LINETYPE
1070
   382
1005
16
0
ENDSEC
0
SECTION
2
OBJECTS
0
DICTIONARY
5
1fe
330
0
100
AcDbDictionary
280
0
281
1
3
ACAD_GROUP
350
1ff
3
ACAD_MLINESTYLE
350
200
0
DICTIONARY
5
1ff
330
0
100
AcDbDictionary
280
0
281
1
0
DICTIONARY
5
200
330
0
100
AcDbDictionary
280
0
281
1
3
Standard
350
18
0
MLINESTYLE
5
18
330
200
100
AcDbMlineStyle
2
Standard
70
0
3

62
256
51
90
52
90
71
2
49
-0.5
62
256
6
ByLayer
49
0.5
62
256
6
ByLayer
0
RASTERVARIABLES
5
1ec
330

100
AcDbRasterVariables
90
0
70
1
71
1
72
1
0
ENDSEC
0
EOF
