0
SECTION
2
HEADER
9
$ACADVER
1
AC1015
9
$DWGCODEPAGE
3
ANSI_1252
9
$HANDSEED
5
1f8
9
$ANGBASE
50
0
9
$ANGDIR
70
0
9
$ATTMODE
70
1
9
$AUNITS
70
0
9
$AUPREC
70
0
9
$CECOLOR
62
256
9
$CELTSCALE
40
1
9
$CELTYPE
6
ByLayer
9
$CELWEIGHT
370
18
9
$CLAYER
8
0
9
$CMLJUST
70
0
9
$CMLSCALE
40
1
9
$CMLSTYLE
2
Standard
9
$DIMSTYLE
2
Standard
9
$TEXTSIZE
40
0.2
9
$TEXTSTYLE
7
Standard
9
$LUNITS
70
2
9
$LUPREC
70
4
9
$EXTNAMES
290
1
9
$INSUNITS
70
4
9
$LTSCALE
40
1
9
$LWDISPLAY
290
1
9
$PDMODE
70
0
9
$PDSIZE
40
0
9
$PLINEGEN
70
0
0
ENDSEC
0
SECTION
2
CLASSES
0
CLASS
1
RASTERVARIABLES
2
AcDbRasterVariables
3
ISM
90
0
280
0
281
0
0
ENDSEC
0
SECTION
2
TABLES
0
TABLE
2
VPORT
5
1ee
100
AcDbSymbolTable
0
VPORT
5
1
100
AcDbSymbolTableRecord
100
AcDbViewportTableRecord
2
*Active
70
0
10
0
20
0
11
1
21
1
12
-1
22
1
13
0
23
0
14
0.5
24
0.5
15
10
25
10
16
0
26
0
36
1
17
0
27
0
37
0
0
ENDTAB
0
TABLE
2
LTYPE
5
1ef
100
AcDbSymbolTable
0
LTYPE
5
14
100
AcDbSymbolTableRecord
100
AcDbLinetypeTableRecord
70
0
2
ByBlock
3

72
65
73
0
40
0
0
LTYPE
5
15
100
AcDbSymbolTableRecord
100
AcDbLinetypeTableRecord
70
0
2
ByLayer
3

72
65
73
0
40
0
0
LTYPE
5
16
100
AcDbSymbolTableRecord
100
AcDbLinetypeTableRecord
70
0
2
Continuous
3
Solid line
72
65
73
0
40
0
0
LTYPE
5
6E
100
AcDbSymbolTableRecord
100
AcDbLinetypeTableRecord
70
0
2
CENTER
3
____ _ ____ _ ____ _ ____
72
65
73
4
40
47.5
49
22
74
0
49
-8.5
74
0
49
8.5
74
0
49
-8.5
74
0
0
LTYPE
5
6F
100
AcDbSymbolTableRecord
100
AcDbLinetypeTableRecord
70
0
2
DASHED
3
__ __ __ __ __ __ __ __ __
72
65
73
2
40
25.72
49
12.86
74
0
49
-12.86
74
0
0
ENDTAB
0
TABLE
2
LAYER
5
1f0
100
AcDbSymbolTable
0
LAYER
5
10
100
AcDbSymbolTableRecord
100
AcDbLayerTableRecord
2
0
70
0
62
7
6
Continuous
290
1
370
-3
390
0
0
LAYER
5
71
100
AcDbSymbolTableRecord
100
AcDbLayerTableRecord
2
80
70
0
62
-6
6
Continuous
290
1
370
-3
390
0
0
LAYER
5
73
100
AcDbSymbolTableRecord
100
AcDbLayerTableRecord
2
81
70
0
62
-3
6
Continuous
290
1
370
-3
390
0
0
LAYER
5
75
100
AcDbSymbolTableRecord
100
AcDbLayerTableRecord
2
1
70
0
62
4
6
Continuous
290
1
370
-3
390
0
0
LAYER
5
87
100
AcDbSymbolTableRecord
100
AcDbLayerTableRecord
2
4
70
0
62
-2
6
CENTER
290
1
370
-3
390
0
0
LAYER
5
A0
100
AcDbSymbolTableRecord
100
AcDbLayerTableRecord
2
2
70
0
62
7
6
Continuous
290
1
370
-3
390
0
0
LAYER
5
103
100
AcDbSymbolTableRecord
100
AcDbLayerTableRecord
2
Defpoints
70
0
62
7
6
Continuous
290
0
370
-3
390
0
0
LAYER
5
1da
100
AcDbSymbolTableRecord
100
AcDbLayerTableRecord
2
SK1
70
0
62
4
6
Continuous
290
1
370
-3
390
0
0
LAYER
5
1db
100
AcDbSymbolTableRecord
100
AcDbLayerTableRecord
2
SK4
70
0
62
2
6
CENTER
290
1
370
-3
390
0
0
LAYER
5
1dc
100
AcDbSymbolTableRecord
100
AcDbLayerTableRecord
2
SK2
70
0
62
7
6
Continuous
290
1
370
-3
390
0
0
LAYER
5
1dd
100
AcDbSymbolTableRecord
100
AcDbLayerTableRecord
2
SK6
70
0
62
5
6
Continuous
290
1
370
-3
390
0
0
ENDTAB
0
TABLE
2
STYLE
5
1f1
100
AcDbSymbolTable
0
STYLE
5
11
100
AcDbSymbolTableRecord
100
AcDbTextStyleTableRecord
2
Standard
3
txt
70
0
71
0
40
0
41
1
42
0
50
0
0
STYLE
5
E8
100
AcDbSymbolTableRecord
100
AcDbTextStyleTableRecord
2
iso_b_vert
3
simplex.shx
70
0
71
0
40
0
41
1
42
0
50
0
0
STYLE
5
E9
100
AcDbSymbolTableRecord
100
AcDbTextStyleTableRecord
2
DWGDirectTextStyle
3
simplex
70
0
71
0
40
0
41
1
42
0
50
0
0
ENDTAB
0
TABLE
2
DIMSTYLE
5
1f2
100
AcDbSymbolTable
100
AcDbDimStyleTable
0
DIMSTYLE
105
27
100
AcDbSymbolTableRecord
100
AcDbDimStyleTableRecord
2
Standard
70
0
3
<>
41
0.18
42
0.0625
44
0.18
140
0.18
147
0.09
73
0
74
0
77
1
271
2
275
0
278
52
280
0
340
11
0
ENDTAB
0
TABLE
2
VIEW
5
1f3
100
AcDbSymbolTable
0
ENDTAB
0
TABLE
2
UCS
5
1f4
100
AcDbSymbolTable
0
ENDTAB
0
TABLE
2
APPID
5
1f5
100
AcDbSymbolTable
0
APPID
5
12
100
AcDbSymbolTableRecord
100
AcDbRegAppTableRecord
2
ACAD
70
0
0
APPID
5
FF
100
AcDbSymbolTableRecord
100
AcDbRegAppTableRecord
2
ACAD_DSTYLE_DIMBREAK
70
0
0
APPID
5
199
100
AcDbSymbolTableRecord
100
AcDbRegAppTableRecord
2
ACAD_DSTYLE_DIM_LINETYPE
70
0
0
APPID
5
19A
100
AcDbSymbolTableRecord
100
AcDbRegAppTableRecord
2
ACAD_DSTYLE_DIM_EXT1_LINETYPE
70
0
0
APPID
5
19B
100
AcDbSymbolTableRecord
100
AcDbRegAppTableRecord
2
ACAD_DSTYLE_DIM_EXT2_LINETYPE
70
0
0
APPID
5
1D6
100
AcDbSymbolTableRecord
100
AcDbRegAppTableRecord
2
ACAD_MLEADERVER
70
0
0
ENDTAB
0
TABLE
2
BLOCK_RECORD
5
1f6
100
AcDbSymbolTable
0
BLOCK_RECORD
5
1F
100
AcDbSymbolTableRecord
100
AcDbBlockTableRecord
2
*Model_Space
340
0
70
0
0
BLOCK_RECORD
5
1B
100
AcDbSymbolTableRecord
100
AcDbBlockTableRecord
2
*Paper_Space
340
0
70
0
0
BLOCK_RECORD
5
23
100
AcDbSymbolTableRecord
100
AcDbBlockTableRecord
2
*Paper_Space0
340
0
70
0
0
BLOCK_RECORD
5
104
100
AcDbSymbolTableRecord
100
AcDbBlockTableRecord
2
*D1
340
0
70
0
0
BLOCK_RECORD
5
110
100
AcDbSymbolTableRecord
100
AcDbBlockTableRecord
2
_U0
340
0
70
0
0
BLOCK_RECORD
5
11C
100
AcDbSymbolTableRecord
100
AcDbBlockTableRecord
2
*D3
340
0
70
0
0
BLOCK_RECORD
5
128
100
AcDbSymbolTableRecord
100
AcDbBlockTableRecord
2
_U1
340
0
70
0
0
BLOCK_RECORD
5
134
100
AcDbSymbolTableRecord
100
AcDbBlockTableRecord
2
*D5
340
0
70
0
0
BLOCK_RECORD
5
140
100
AcDbSymbolTableRecord
100
AcDbBlockTableRecord
2
_U2
340
0
70
0
0
BLOCK_RECORD
5
14C
100
AcDbSymbolTableRecord
100
AcDbBlockTableRecord
2
*D7
340
0
70
0
0
BLOCK_RECORD
5
15A
100
AcDbSymbolTableRecord
100
AcDbBlockTableRecord
2
_U3
340
0
70
0
0
BLOCK_RECORD
5
166
100
AcDbSymbolTableRecord
100
AcDbBlockTableRecord
2
*D9
340
0
70
0
0
BLOCK_RECORD
5
172
100
AcDbSymbolTableRecord
100
AcDbBlockTableRecord
2
_U4
340
0
70
0
0
ENDTAB
0
ENDSEC
0
SECTION
2
BLOCKS
0
BLOCK
5
20
100
AcDbEntity
8
0
100
AcDbBlockBegin
2
*Model_Space
70
0
10
0
20
0
30
0
3
*Model_Space
0
ENDBLK
5
21
100
AcDbEntity
8
0
100
AcDbBlockEnd
0
BLOCK
5
1C
100
AcDbEntity
8
0
100
AcDbBlockBegin
2
*Paper_Space
70
0
10
0
20
0
30
0
3
*Paper_Space
0
ENDBLK
5
1D
100
AcDbEntity
8
0
100
AcDbBlockEnd
0
BLOCK
5
24
100
AcDbEntity
8
0
100
AcDbBlockBegin
2
*Paper_Space0
70
0
10
0
20
0
30
0
3
*Paper_Space0
0
ENDBLK
5
25
100
AcDbEntity
8
0
100
AcDbBlockEnd
0
BLOCK
5
105
100
AcDbEntity
8
0
100
AcDbBlockBegin
2
*D1
70
1
10
0
20
0
30
0
3
*D1
0
LINE
5
107
100
AcDbEntity
8
0
62
256
6
ByLayer
370
-2
48
1
60
0
100
AcDbLine
10
0
20
-1.5875
30
0
11
0
21
-17.413398
31
0
39
0
210
0
220
0
230
1
0
LINE
5
108
100
AcDbEntity
8
0
62
256
6
ByLayer
370
-2
48
1
60
0
100
AcDbLine
10
55.4557
20
-6.7875
30
0
11
55.4557
21
-17.413398
31
0
39
0
210
0
220
0
230
1
0
LINE
5
109
100
AcDbEntity
8
0
62
256
6
ByLayer
370
-2
48
1
60
0
100
AcDbLine
10
3.5
20
-15.413398
30
0
11
51.9557
21
-15.413398
31
0
39
0
210
0
220
0
230
1
0
SOLID
5
10A
100
AcDbEntity
8
0
62
256
6
ByLayer
370
-1
48
1
60
0
100
AcDbTrace
10
3.5
20
-14.830065
30
0
11
3.5
21
-15.996732
31
0
12
0
22
-15.413398
32
0
13
0
23
-15.413398
33
0
39
0
210
0
220
0
230
1
0
SOLID
5
10B
100
AcDbEntity
8
0
62
256
6
ByLayer
370
-1
48
1
60
0
100
AcDbTrace
10
51.9557
20
-15.996732
30
0
11
51.9557
21
-14.830065
31
0
12
55.4557
22
-15.413398
32
0
13
55.4557
23
-15.413398
33
0
39
0
210
0
220
0
230
1
0
MTEXT
5
10C
100
AcDbEntity
8
0
62
256
6
ByLayer
370
18
48
1
60
0
100
AcDbMText
10
27.72785
20
-8.413398
30
0
210
0
220
0
230
1
1
\A1;55.46
40
3.5
41
0
44
1
50
0
71
5
72
5
7
iso_b_vert
0
POINT
5
10D
100
AcDbEntity
8
Defpoints
62
0
6
ByLayer
370
-1
48
1
60
0
100
AcDbPoint
10
0
20
0
30
0
39
0
210
0
220
0
230
1
50
360
0
POINT
5
10E
100
AcDbEntity
8
Defpoints
62
0
6
ByLayer
370
-1
48
1
60
0
100
AcDbPoint
10
55.4557
20
-5.2
30
0
39
0
210
0
220
0
230
1
50
360
0
POINT
5
10F
100
AcDbEntity
8
Defpoints
62
0
6
ByLayer
370
-1
48
1
60
0
100
AcDbPoint
10
55.4557
20
-15.413398
30
0
39
0
210
0
220
0
230
1
50
360
0
ENDBLK
5
106
100
AcDbEntity
8
0
100
AcDbBlockEnd
0
BLOCK
5
117
100
AcDbEntity
8
0
100
AcDbBlockBegin
2
_U0
70
0
10
0
20
0
30
0
3
_U0
0
MTEXT
5
111
100
AcDbEntity
8
SK2
62
256
6
ByLayer
370
13
48
1
60
0
100
AcDbMText
10
22.406285
20
-14.380765
30
0
210
0
220
0
230
1
1
\W0.7581;55,46
40
3.5
41
0
44
1.084337
50
0
71
7
72
5
7
iso_b_vert
0
LINE
5
112
100
AcDbEntity
8
SK2
62
256
6
ByLayer
370
13
48
1
60
0
100
AcDbLine
10
0
20
-1.5875
30
0
11
0
21
-17.413398
31
0
39
0
210
0
220
0
230
1
0
LINE
5
113
100
AcDbEntity
8
SK2
62
256
6
ByLayer
370
13
48
1
60
0
100
AcDbLine
10
55.4557
20
-6.7875
30
0
11
55.4557
21
-17.413398
31
0
39
0
210
0
220
0
230
1
0
LINE
5
114
100
AcDbEntity
8
SK2
62
256
6
ByLayer
370
13
48
1
60
0
100
AcDbLine
10
0
20
-15.413398
30
0
11
55.4557
21
-15.413398
31
0
39
0
210
0
220
0
230
1
0
SOLID
5
115
100
AcDbEntity
8
SK2
62
256
6
ByLayer
370
18
48
1
60
0
100
AcDbTrace
10
0
20
-15.413398
30
0
11
3.499998
21
-14.952615
31
0
12
3.500002
22
-15.874182
32
0
13
3.500002
23
-15.874182
33
0
39
0
210
0
220
0
230
1
0
SOLID
5
116
100
AcDbEntity
8
SK2
62
256
6
ByLayer
370
18
48
1
60
0
100
AcDbTrace
10
55.4557
20
-15.413398
30
0
11
51.955702
21
-15.874182
31
0
12
51.955698
22
-14.952615
32
0
13
51.955698
23
-14.952615
33
0
39
0
210
0
220
0
230
1
0
ENDBLK
5
118
100
AcDbEntity
8
0
100
AcDbBlockEnd
0
BLOCK
5
11D
100
AcDbEntity
8
0
100
AcDbBlockBegin
2
*D3
70
1
10
0
20
0
30
0
3
*D3
0
LINE
5
11F
100
AcDbEntity
8
0
62
256
6
ByLayer
370
-2
48
1
60
0
100
AcDbLine
10
-45
20
-7.5875
30
0
11
-45
21
-36.692985
31
0
39
0
210
0
220
0
230
1
0
LINE
5
120
100
AcDbEntity
8
0
62
256
6
ByLayer
370
-2
48
1
60
0
100
AcDbLine
10
57
20
-1.5875
30
0
11
57
21
-36.692985
31
0
39
0
210
0
220
0
230
1
0
LINE
5
121
100
AcDbEntity
8
0
62
256
6
ByLayer
370
-2
48
1
60
0
100
AcDbLine
10
-41.5
20
-34.692985
30
0
11
53.5
21
-34.692985
31
0
39
0
210
0
220
0
230
1
0
SOLID
5
122
100
AcDbEntity
8
0
62
256
6
ByLayer
370
-1
48
1
60
0
100
AcDbTrace
10
-41.5
20
-34.109652
30
0
11
-41.5
21
-35.276319
31
0
12
-45
22
-34.692985
32
0
13
-45
23
-34.692985
33
0
39
0
210
0
220
0
230
1
0
SOLID
5
123
100
AcDbEntity
8
0
62
256
6
ByLayer
370
-1
48
1
60
0
100
AcDbTrace
10
53.5
20
-35.276319
30
0
11
53.5
21
-34.109652
31
0
12
57
22
-34.692985
32
0
13
57
23
-34.692985
33
0
39
0
210
0
220
0
230
1
0
MTEXT
5
124
100
AcDbEntity
8
0
62
256
6
ByLayer
370
18
48
1
60
0
100
AcDbMText
10
6
20
-27.692985
30
0
210
0
220
0
230
1
1
\A1;102.00
40
3.5
41
0
44
1
50
0
71
5
72
5
7
iso_b_vert
0
POINT
5
125
100
AcDbEntity
8
Defpoints
62
0
6
ByLayer
370
-1
48
1
60
0
100
AcDbPoint
10
-45
20
-6
30
0
39
0
210
0
220
0
230
1
50
360
0
POINT
5
126
100
AcDbEntity
8
Defpoints
62
0
6
ByLayer
370
-1
48
1
60
0
100
AcDbPoint
10
57
20
0
30
0
39
0
210
0
220
0
230
1
50
360
0
POINT
5
127
100
AcDbEntity
8
Defpoints
62
0
6
ByLayer
370
-1
48
1
60
0
100
AcDbPoint
10
57
20
-34.692985
30
0
39
0
210
0
220
0
230
1
50
360
0
ENDBLK
5
11E
100
AcDbEntity
8
0
100
AcDbBlockEnd
0
BLOCK
5
12F
100
AcDbEntity
8
0
100
AcDbBlockBegin
2
_U1
70
0
10
0
20
0
30
0
3
_U1
0
MTEXT
5
129
100
AcDbEntity
8
SK2
62
256
6
ByLayer
370
13
48
1
60
0
100
AcDbMText
10
-0.007599
20
-33.660352
30
0
210
0
220
0
230
1
1
\W0.6930;102,00
40
3.5
41
0
44
1.084337
50
0
71
7
72
5
7
iso_b_vert
0
LINE
5
12A
100
AcDbEntity
8
SK2
62
256
6
ByLayer
370
13
48
1
60
0
100
AcDbLine
10
-45
20
-7.5875
30
0
11
-45
21
-36.692985
31
0
39
0
210
0
220
0
230
1
0
LINE
5
12B
100
AcDbEntity
8
SK2
62
256
6
ByLayer
370
13
48
1
60
0
100
AcDbLine
10
57
20
-1.5875
30
0
11
57
21
-36.692985
31
0
39
0
210
0
220
0
230
1
0
LINE
5
12C
100
AcDbEntity
8
SK2
62
256
6
ByLayer
370
13
48
1
60
0
100
AcDbLine
10
-45
20
-34.692985
30
0
11
57
21
-34.692985
31
0
39
0
210
0
220
0
230
1
0
SOLID
5
12D
100
AcDbEntity
8
SK2
62
256
6
ByLayer
370
18
48
1
60
0
100
AcDbTrace
10
-45
20
-34.692985
30
0
11
-41.500002
21
-34.232202
31
0
12
-41.499998
22
-35.153769
32
0
13
-41.499998
23
-35.153769
33
0
39
0
210
0
220
0
230
1
0
SOLID
5
12E
100
AcDbEntity
8
SK2
62
256
6
ByLayer
370
18
48
1
60
0
100
AcDbTrace
10
57
20
-34.692985
30
0
11
53.500002
21
-35.153769
31
0
12
53.499998
22
-34.232202
32
0
13
53.499998
23
-34.232202
33
0
39
0
210
0
220
0
230
1
0
ENDBLK
5
130
100
AcDbEntity
8
0
100
AcDbBlockEnd
0
BLOCK
5
135
100
AcDbEntity
8
0
100
AcDbBlockBegin
2
*D5
70
1
10
0
20
0
30
0
3
*D5
0
LINE
5
137
100
AcDbEntity
8
0
62
256
6
ByLayer
370
-2
48
1
60
0
100
AcDbLine
10
24.26
20
6.7875
30
0
11
24.26
21
18.809119
31
0
39
0
210
0
220
0
230
1
0
LINE
5
138
100
AcDbEntity
8
0
62
256
6
ByLayer
370
-2
48
1
60
0
100
AcDbLine
10
57
20
1.5875
30
0
11
57
21
18.809119
31
0
39
0
210
0
220
0
230
1
0
LINE
5
139
100
AcDbEntity
8
0
62
256
6
ByLayer
370
-2
48
1
60
0
100
AcDbLine
10
27.76
20
16.809119
30
0
11
53.5
21
16.809119
31
0
39
0
210
0
220
0
230
1
0
SOLID
5
13A
100
AcDbEntity
8
0
62
256
6
ByLayer
370
-1
48
1
60
0
100
AcDbTrace
10
27.76
20
17.392453
30
0
11
27.76
21
16.225786
31
0
12
24.26
22
16.809119
32
0
13
24.26
23
16.809119
33
0
39
0
210
0
220
0
230
1
0
SOLID
5
13B
100
AcDbEntity
8
0
62
256
6
ByLayer
370
-1
48
1
60
0
100
AcDbTrace
10
53.5
20
16.225786
30
0
11
53.5
21
17.392453
31
0
12
57
22
16.809119
32
0
13
57
23
16.809119
33
0
39
0
210
0
220
0
230
1
0
MTEXT
5
13C
100
AcDbEntity
8
0
62
256
6
ByLayer
370
18
48
1
60
0
100
AcDbMText
10
40.63
20
23.809119
30
0
210
0
220
0
230
1
1
\A1;32.74
40
3.5
41
0
44
1
50
0
71
5
72
5
7
iso_b_vert
0
POINT
5
13D
100
AcDbEntity
8
Defpoints
62
0
6
ByLayer
370
-1
48
1
60
0
100
AcDbPoint
10
24.26
20
5.2
30
0
39
0
210
0
220
0
230
1
50
360
0
POINT
5
13E
100
AcDbEntity
8
Defpoints
62
0
6
ByLayer
370
-1
48
1
60
0
100
AcDbPoint
10
57
20
0
30
0
39
0
210
0
220
0
230
1
50
360
0
POINT
5
13F
100
AcDbEntity
8
Defpoints
62
0
6
ByLayer
370
-1
48
1
60
0
100
AcDbPoint
10
57
20
16.809119
30
0
39
0
210
0
220
0
230
1
50
360
0
ENDBLK
5
136
100
AcDbEntity
8
0
100
AcDbBlockEnd
0
BLOCK
5
147
100
AcDbEntity
8
0
100
AcDbBlockBegin
2
_U2
70
0
10
0
20
0
30
0
3
_U2
0
MTEXT
5
141
100
AcDbEntity
8
SK2
62
256
6
ByLayer
370
13
48
1
60
0
100
AcDbMText
10
35.308435
20
17.841753
30
0
210
0
220
0
230
1
1
\W0.7495;32,74
40
3.5
41
0
44
1.084337
50
0
71
7
72
5
7
iso_b_vert
0
LINE
5
142
100
AcDbEntity
8
SK2
62
256
6
ByLayer
370
13
48
1
60
0
100
AcDbLine
10
24.26
20
6.7875
30
0
11
24.26
21
18.809119
31
0
39
0
210
0
220
0
230
1
0
LINE
5
143
100
AcDbEntity
8
SK2
62
256
6
ByLayer
370
13
48
1
60
0
100
AcDbLine
10
57
20
1.5875
30
0
11
57
21
18.809119
31
0
39
0
210
0
220
0
230
1
0
LINE
5
144
100
AcDbEntity
8
SK2
62
256
6
ByLayer
370
13
48
1
60
0
100
AcDbLine
10
24.26
20
16.809119
30
0
11
57
21
16.809119
31
0
39
0
210
0
220
0
230
1
0
SOLID
5
145
100
AcDbEntity
8
SK2
62
256
6
ByLayer
370
18
48
1
60
0
100
AcDbTrace
10
24.26
20
16.809119
30
0
11
27.759998
21
17.269903
31
0
12
27.760002
22
16.348335
32
0
13
27.760002
23
16.348335
33
0
39
0
210
0
220
0
230
1
0
SOLID
5
146
100
AcDbEntity
8
SK2
62
256
6
ByLayer
370
18
48
1
60
0
100
AcDbTrace
10
57
20
16.809119
30
0
11
53.500002
21
16.348335
31
0
12
53.499998
22
17.269903
32
0
13
53.499998
23
17.269903
33
0
39
0
210
0
220
0
230
1
0
ENDBLK
5
148
100
AcDbEntity
8
0
100
AcDbBlockEnd
0
BLOCK
5
14D
100
AcDbEntity
8
0
100
AcDbBlockBegin
2
*D7
70
1
10
0
20
0
30
0
3
*D7
0
LINE
5
14F
100
AcDbEntity
8
0
62
256
6
ByLayer
370
-2
48
1
60
0
100
AcDbLine
10
57
20
-1.5875
30
0
11
57
21
-20.002503
31
0
39
0
210
0
220
0
230
1
0
LINE
5
150
100
AcDbEntity
8
0
62
256
6
ByLayer
370
-2
48
1
60
0
100
AcDbLine
10
55.4557
20
-6.7875
30
0
11
55.4557
21
-20.002503
31
0
39
0
210
0
220
0
230
1
0
LINE
5
151
100
AcDbEntity
8
0
62
256
6
ByLayer
370
-2
48
1
60
0
100
AcDbLine
10
57
20
-18.002503
30
0
11
84.833333
21
-18.002503
31
0
39
0
210
0
220
0
230
1
0
LINE
5
152
100
AcDbEntity
8
0
62
256
6
ByLayer
370
-2
48
1
60
0
100
AcDbLine
10
60.5
20
-18.002503
30
0
11
64
21
-18.002503
31
0
39
0
210
0
220
0
230
1
0
LINE
5
153
100
AcDbEntity
8
0
62
256
6
ByLayer
370
-2
48
1
60
0
100
AcDbLine
10
51.9557
20
-18.002503
30
0
11
48.4557
21
-18.002503
31
0
39
0
210
0
220
0
230
1
0
SOLID
5
154
100
AcDbEntity
8
0
62
256
6
ByLayer
370
-1
48
1
60
0
100
AcDbTrace
10
60.5
20
-17.41917
30
0
11
60.5
21
-18.585837
31
0
12
57
22
-18.002503
32
0
13
57
23
-18.002503
33
0
39
0
210
0
220
0
230
1
0
SOLID
5
155
100
AcDbEntity
8
0
62
256
6
ByLayer
370
-1
48
1
60
0
100
AcDbTrace
10
51.9557
20
-18.585837
30
0
11
51.9557
21
-17.41917
31
0
12
55.4557
22
-18.002503
32
0
13
55.4557
23
-18.002503
33
0
39
0
210
0
220
0
230
1
0
MTEXT
5
156
100
AcDbEntity
8
0
62
256
6
ByLayer
370
18
48
1
60
0
100
AcDbMText
10
74.416667
20
-11.002503
30
0
210
0
220
0
230
1
1
\A1;1.54
40
3.5
41
0
44
1
50
0
71
5
72
5
7
iso_b_vert
0
POINT
5
157
100
AcDbEntity
8
Defpoints
62
0
6
ByLayer
370
-1
48
1
60
0
100
AcDbPoint
10
57
20
0
30
0
39
0
210
0
220
0
230
1
50
360
0
POINT
5
158
100
AcDbEntity
8
Defpoints
62
0
6
ByLayer
370
-1
48
1
60
0
100
AcDbPoint
10
55.4557
20
-5.2
30
0
39
0
210
0
220
0
230
1
50
360
0
POINT
5
159
100
AcDbEntity
8
Defpoints
62
0
6
ByLayer
370
-1
48
1
60
0
100
AcDbPoint
10
55.4557
20
-18.002503
30
0
39
0
210
0
220
0
230
1
50
360
0
ENDBLK
5
14E
100
AcDbEntity
8
0
100
AcDbBlockEnd
0
BLOCK
5
161
100
AcDbEntity
8
0
100
AcDbBlockBegin
2
_U3
70
0
10
0
20
0
30
0
3
_U3
0
MTEXT
5
15B
100
AcDbEntity
8
SK2
62
256
6
ByLayer
370
13
48
1
60
0
100
AcDbMText
10
63.405026
20
-16.96987
30
0
210
0
220
0
230
1
1
\W0.6611;1,54
40
3.5
41
0
44
1.084337
50
0
71
7
72
5
7
iso_b_vert
0
LINE
5
15C
100
AcDbEntity
8
SK2
62
256
6
ByLayer
370
13
48
1
60
0
100
AcDbLine
10
57
20
-1.5875
30
0
11
57
21
-20.002503
31
0
39
0
210
0
220
0
230
1
0
LINE
5
15D
100
AcDbEntity
8
SK2
62
256
6
ByLayer
370
13
48
1
60
0
100
AcDbLine
10
55.4557
20
-6.7875
30
0
11
55.4557
21
-20.002503
31
0
39
0
210
0
220
0
230
1
0
LINE
5
15E
100
AcDbEntity
8
SK2
62
256
6
ByLayer
370
13
48
1
60
0
100
AcDbLine
10
46.7057
20
-18.002503
30
0
11
70.743324
21
-18.002503
31
0
39
0
210
0
220
0
230
1
0
SOLID
5
15F
100
AcDbEntity
8
SK2
62
256
6
ByLayer
370
18
48
1
60
0
100
AcDbTrace
10
57
20
-18.002503
30
0
11
60.499998
21
-17.541719
31
0
12
60.500002
22
-18.463287
32
0
13
60.500002
23
-18.463287
33
0
39
0
210
0
220
0
230
1
0
SOLID
5
160
100
AcDbEntity
8
SK2
62
256
6
ByLayer
370
18
48
1
60
0
100
AcDbTrace
10
55.4557
20
-18.002503
30
0
11
51.955702
21
-18.463287
31
0
12
51.955698
22
-17.541719
32
0
13
51.955698
23
-17.541719
33
0
39
0
210
0
220
0
230
1
0
ENDBLK
5
162
100
AcDbEntity
8
0
100
AcDbBlockEnd
0
BLOCK
5
167
100
AcDbEntity
8
0
100
AcDbBlockBegin
2
*D9
70
1
10
0
20
0
30
0
3
*D9
0
LINE
5
169
100
AcDbEntity
8
0
62
256
6
ByLayer
370
-2
48
1
60
0
100
AcDbLine
10
-45
20
-7.5875
30
0
11
-45
21
-26.343428
31
0
39
0
210
0
220
0
230
1
0
LINE
5
16A
100
AcDbEntity
8
0
62
256
6
ByLayer
370
-2
48
1
60
0
100
AcDbLine
10
55.4557
20
-6.7875
30
0
11
55.4557
21
-26.343428
31
0
39
0
210
0
220
0
230
1
0
LINE
5
16B
100
AcDbEntity
8
0
62
256
6
ByLayer
370
-2
48
1
60
0
100
AcDbLine
10
-41.5
20
-24.343428
30
0
11
51.9557
21
-24.343428
31
0
39
0
210
0
220
0
230
1
0
SOLID
5
16C
100
AcDbEntity
8
0
62
256
6
ByLayer
370
-1
48
1
60
0
100
AcDbTrace
10
-41.5
20
-23.760095
30
0
11
-41.5
21
-24.926762
31
0
12
-45
22
-24.343428
32
0
13
-45
23
-24.343428
33
0
39
0
210
0
220
0
230
1
0
SOLID
5
16D
100
AcDbEntity
8
0
62
256
6
ByLayer
370
-1
48
1
60
0
100
AcDbTrace
10
51.9557
20
-24.926762
30
0
11
51.9557
21
-23.760095
31
0
12
55.4557
22
-24.343428
32
0
13
55.4557
23
-24.343428
33
0
39
0
210
0
220
0
230
1
0
MTEXT
5
16E
100
AcDbEntity
8
0
62
256
6
ByLayer
370
18
48
1
60
0
100
AcDbMText
10
5.22785
20
-17.343428
30
0
210
0
220
0
230
1
1
\A1;100.46
40
3.5
41
0
44
1
50
0
71
5
72
5
7
iso_b_vert
0
POINT
5
16F
100
AcDbEntity
8
Defpoints
62
0
6
ByLayer
370
-1
48
1
60
0
100
AcDbPoint
10
-45
20
-6
30
0
39
0
210
0
220
0
230
1
50
360
0
POINT
5
170
100
AcDbEntity
8
Defpoints
62
0
6
ByLayer
370
-1
48
1
60
0
100
AcDbPoint
10
55.4557
20
-5.2
30
0
39
0
210
0
220
0
230
1
50
360
0
POINT
5
171
100
AcDbEntity
8
Defpoints
62
0
6
ByLayer
370
-1
48
1
60
0
100
AcDbPoint
10
55.4557
20
-24.343428
30
0
39
0
210
0
220
0
230
1
50
360
0
ENDBLK
5
168
100
AcDbEntity
8
0
100
AcDbBlockEnd
0
BLOCK
5
179
100
AcDbEntity
8
0
100
AcDbBlockBegin
2
_U4
70
0
10
0
20
0
30
0
3
_U4
0
MTEXT
5
173
100
AcDbEntity
8
SK2
62
256
6
ByLayer
370
13
48
1
60
0
100
AcDbMText
10
-0.964015
20
-23.310795
30
0
210
0
220
0
230
1
1
\W0.7145;100,46
40
3.5
41
0
44
1.084337
50
0
71
7
72
5
7
iso_b_vert
0
LINE
5
174
100
AcDbEntity
8
SK2
62
256
6
ByLayer
370
13
48
1
60
0
100
AcDbLine
10
-45
20
-7.5875
30
0
11
-45
21
-26.343428
31
0
39
0
210
0
220
0
230
1
0
LINE
5
175
100
AcDbEntity
8
SK2
62
256
6
ByLayer
370
13
48
1
60
0
100
AcDbLine
10
55.4557
20
-6.7875
30
0
11
55.4557
21
-26.343428
31
0
39
0
210
0
220
0
230
1
0
LINE
5
176
100
AcDbEntity
8
SK2
62
256
6
ByLayer
370
13
48
1
60
0
100
AcDbLine
10
-45
20
-24.343428
30
0
11
55.4557
21
-24.343428
31
0
39
0
210
0
220
0
230
1
0
SOLID
5
177
100
AcDbEntity
8
SK2
62
256
6
ByLayer
370
18
48
1
60
0
100
AcDbTrace
10
-45
20
-24.343428
30
0
11
-41.500002
21
-23.882645
31
0
12
-41.499998
22
-24.804212
32
0
13
-41.499998
23
-24.804212
33
0
39
0
210
0
220
0
230
1
0
SOLID
5
178
100
AcDbEntity
8
SK2
62
256
6
ByLayer
370
18
48
1
60
0
100
AcDbTrace
10
55.4557
20
-24.343428
30
0
11
51.955702
21
-24.804212
31
0
12
51.955698
22
-23.882645
32
0
13
51.955698
23
-23.882645
33
0
39
0
210
0
220
0
230
1
0
ENDBLK
5
17A
100
AcDbEntity
8
0
100
AcDbBlockEnd
0
ENDSEC
0
SECTION
2
ENTITIES
0
ARC
5
A9
100
AcDbEntity
8
1
62
256
6
ByLayer
370
18
48
1
60
0
100
AcDbCircle
39
0
10
1.404596
20
-5.96623
30
0
40
0.8
210
0
220
0
230
1
100
AcDbArc
50
89.96419
51
151.386807
0
ARC
5
AA
100
AcDbEntity
8
1
62
256
6
ByLayer
370
18
48
1
60
0
100
AcDbCircle
39
0
10
0
20
-5.2
30
0
40
0.799999999999997
210
0
220
0
230
1
100
AcDbArc
50
270
51
331.386807
0
ARC
5
AB
100
AcDbEntity
8
1
62
256
6
ByLayer
370
18
48
1
60
0
100
AcDbCircle
39
0
10
1.404596
20
5.96623
30
0
40
0.8
210
0
220
0
230
1
100
AcDbArc
50
208.613193
51
270.03581
0
ARC
5
AC
100
AcDbEntity
8
1
62
256
6
ByLayer
370
18
48
1
60
0
100
AcDbCircle
39
0
10
0
20
5.2
30
0
40
0.799999999999997
210
0
220
0
230
1
100
AcDbArc
50
28.613193
51
90
0
ELLIPSE
5
AD
100
AcDbEntity
8
1
62
256
6
ByLayer
370
13
48
1
60
0
100
AcDbEllipse
10
4.250148
20
0.780293
30
0
11
0.0429563790016665
21
0.0903036516596377
31
0
210
0
220
0
230
1
40
0.068448
41
3.01682976832843
42
-1.71143437065971
0
ELLIPSE
5
AE
100
AcDbEntity
8
1
62
256
6
ByLayer
370
13
48
1
60
0
100
AcDbEllipse
10
4.184752
20
0.813546
30
0
11
-0.0479496742557056
21
-0.0877543659242759
31
0
210
0
220
0
230
1
40
0.331142
41
-1.2276344444531
42
-0.62607099053979
0
ELLIPSE
5
AF
100
AcDbEntity
8
1
62
256
6
ByLayer
370
18
48
1
60
0
100
AcDbEllipse
10
4.25
20
5.158563
30
0
11
0.25
21
0
31
0
210
0
220
0
230
1
40
1
41
-3.14152589882621
42
-1.55995895833729
0
ELLIPSE
5
B0
100
AcDbEntity
8
1
62
256
6
ByLayer
370
18
48
1
60
0
100
AcDbEllipse
10
4.25
20
-5.158563
30
0
11
0.25
21
0
31
0
210
0
220
0
230
1
40
1
41
1.57673478771531
42
2.85485080277682
0
ELLIPSE
5
B1
100
AcDbEntity
8
1
62
256
6
ByLayer
370
18
48
1
60
0
100
AcDbEllipse
10
4.25
20
-5.158563
30
0
11
0.25
21
0
31
0
210
0
220
0
230
1
40
1
41
2.87964189121578
42
3.14152589882924
0
POINT
5
70
100
AcDbEntity
8
80
62
256
6
ByLayer
370
18
48
1
60
0
100
AcDbPoint
10
0
20
0
30
0
39
0
210
0
220
0
230
1
50
360
0
POINT
5
72
100
AcDbEntity
8
81
62
256
6
ByLayer
370
18
48
1
60
0
100
AcDbPoint
10
57
20
0
30
0
39
0
210
0
220
0
230
1
50
360
0
POINT
5
74
100
AcDbEntity
8
1
62
256
6
ByLayer
370
18
48
1
60
1
100
AcDbPoint
10
55.4557
20
-5.2
30
0
39
0
210
0
220
0
230
1
50
360
0
POINT
5
76
100
AcDbEntity
8
1
62
256
6
ByLayer
370
18
48
1
60
1
100
AcDbPoint
10
-45
20
-6
30
0
39
0
210
0
220
0
230
1
50
360
0
POINT
5
77
100
AcDbEntity
8
1
62
256
6
ByLayer
370
18
48
1
60
1
100
AcDbPoint
10
24.26
20
5.2
30
0
39
0
210
0
220
0
230
1
50
360
0
POINT
5
78
100
AcDbEntity
8
1
62
256
6
ByLayer
370
18
48
1
60
1
100
AcDbPoint
10
55.4557
20
-5.2
30
0
39
0
210
0
220
0
230
1
50
360
0
POINT
5
79
100
AcDbEntity
8
1
62
256
6
ByLayer
370
18
48
1
60
1
100
AcDbPoint
10
-45
20
-6
30
0
39
0
210
0
220
0
230
1
50
360
0
POINT
5
7A
100
AcDbEntity
8
1
62
256
6
ByLayer
370
18
48
1
60
1
100
AcDbPoint
10
55.4557
20
-5.2
30
0
39
0
210
0
220
0
230
1
50
360
0
SPLINE
5
B2
100
AcDbEntity
8
1
62
256
6
ByLayer
370
13
48
1
60
0
100
AcDbSpline
70
4
71
3
72
8
73
4
40
0
40
0
40
0
40
0
40
1
40
1
40
1
40
1
41
1
10
4.25061817470811
20
-4.90854520422101
30
0
41
1
10
4.25064126818586
20
-4.90759200457953
30
0
41
1
10
4.25066412318557
20
-4.88167100709234
30
0
41
1
10
4.25068525967401
20
-4.83159126661718
30
0
0
SPLINE
5
B3
100
AcDbEntity
8
1
62
256
6
ByLayer
370
18
48
1
60
0
100
AcDbSpline
70
4
71
3
72
14
73
10
40
0
40
0
40
0
40
0
40
0.25
40
0.25
40
0.5
40
0.5
40
0.75
40
0.75
40
1
40
1
40
1
40
1
41
1
10
55.0843791840187
20
1.1491755082798
30
0
41
1
10
55.0833044103098
20
1.16455263257046
30
0
41
1
10
55.0863328208224
20
1.18018009379466
30
0
41
1
10
55.1015054774599
20
1.20731943484466
30
0
41
1
10
55.1136176425296
20
1.21862332694931
30
0
41
1
10
55.1409051240136
20
1.23453614842342
30
0
41
1
10
55.1563092529128
20
1.23961352879141
30
0
41
1
10
55.1872569376038
20
1.24547806762058
30
0
41
1
10
55.2031694340332
20
1.24637270538256
30
0
41
1
10
55.2190051536164
20
1.24576682284189
30
0
0
SPLINE
5
B4
100
AcDbEntity
8
1
62
256
6
ByLayer
370
18
48
1
60
0
100
AcDbSpline
70
4
71
3
72
10
73
6
40
0
40
0
40
0
40
0
40
0.5
40
0.5
40
1
40
1
40
1
40
1
41
1
10
56.9999579265008
20
0.0482005586416108
30
0
41
1
10
56.9962141886589
20
0.032951046114988
30
0
41
1
10
56.991122104923
20
0.0166274429406315
30
0
41
1
10
56.9788756162544
20
-0.0143475431420654
30
0
41
1
10
56.9716895106443
20
-0.0290132138106287
30
0
41
1
10
56.9644075019763
20
-0.0409274491614724
30
0
0
SPLINE
5
B5
100
AcDbEntity
8
1
62
256
6
ByLayer
370
18
48
1
60
0
100
AcDbSpline
70
4
71
3
72
10
73
6
40
0
40
0
40
0
40
0
40
0.5
40
0.5
40
1
40
1
40
1
40
1
41
1
10
55.2190051536165
20
1.24576682284191
30
0
41
1
10
55.5055072595965
20
1.23480510916883
30
0
41
1
10
55.7919842838716
20
1.22414594396727
30
0
41
1
10
56.3648120959392
20
1.20435034317884
30
0
41
1
10
56.651207956096
20
1.19467022146981
30
0
41
1
10
56.9375832980689
20
1.18523760068533
30
0
0
SPLINE
5
B6
100
AcDbEntity
8
1
62
256
6
ByLayer
370
18
48
1
60
0
100
AcDbSpline
70
4
71
3
72
8
73
4
40
0
40
0
40
0
40
0
40
1
40
1
40
1
40
1
41
1
10
56.9644075019763
20
-0.0409274491615008
30
0
41
1
10
56.2062902206035
20
-1.28129780927804
30
0
41
1
10
55.4962966541848
20
-2.56537130343119
30
0
41
1
10
54.8361273592695
20
-3.89469227729063
30
0
0
SPLINE
5
B7
100
AcDbEntity
8
1
62
256
6
ByLayer
370
18
48
1
60
0
100
AcDbSpline
70
4
71
3
72
72
73
68
40
0
40
0
40
0
40
0
40
0.0093193950808788
40
0.0093193950808788
40
0.0460112693371413
40
0.0460112693371413
40
0.0827031435934037
40
0.0827031435934037
40
0.101049080721535
40
0.101049080721535
40
0.119395017849666
40
0.119395017849666
40
0.15608689210593
40
0.15608689210593
40
0.192778766362193
40
0.192778766362193
40
0.229470640618457
40
0.229470640618457
40
0.26616251487472
40
0.26616251487472
40
0.302854389130984
40
0.302854389130984
40
0.321200326259115
40
0.321200326259115
40
0.339546263387247
40
0.339546263387247
40
0.37623813764351
40
0.37623813764351
40
0.412930011899774
40
0.412930011899774
40
0.449621886156037
40
0.449621886156037
40
0.46796782328417
40
0.46796782328417
40
0.486313760412302
40
0.486313760412302
40
0.523005634668566
40
0.523005634668566
40
0.559697508924831
40
0.559697508924831
40
0.596389383181095
40
0.596389383181095
40
0.63308125743736
40
0.63308125743736
40
0.651427194565492
40
0.651427194565492
40
0.669773131693623
40
0.669773131693623
40
0.706465005949887
40
0.706465005949887
40
0.74315688020615
40
0.74315688020615
40
0.779848754462414
40
0.779848754462414
40
0.798194691590546
40
0.798194691590546
40
0.816540628718677
40
0.816540628718677
40
0.853232502974942
40
0.853232502974942
40
0.889924377231206
40
0.889924377231206
40
0.926616251487471
40
0.926616251487471
40
0.963308125743735
40
0.963308125743735
40
1
40
1
40
1
40
1
41
1
10
44.8762751754538
20
-3.69257113608461
30
0
41
1
10
44.7792969783409
20
-3.72290675417372
30
0
41
1
10
44.6822933406426
20
-3.75270972268169
30
0
41
1
10
44.2032201294404
20
-3.89714951272657
30
0
41
1
10
43.8210635677123
20
-4.00589645138047
30
0
41
1
10
43.0556819203305
20
-4.20725342223878
30
0
41
1
10
42.6734545655176
20
-4.29885788010497
30
0
41
1
10
42.100868024012
20
-4.4234976158879
30
0
41
1
10
41.9101738533474
20
-4.46281729452835
30
0
41
1
10
41.5287355957215
20
-4.53590355151749
30
0
41
1
10
41.3379489671914
20
-4.5697105075368
30
0
41
1
10
40.7654202849457
20
-4.6653025099333
30
0
41
1
10
40.3834679063589
20
-4.72079774977018
30
0
41
1
10
39.6192909170668
20
-4.81352629827421
30
0
41
1
10
39.2364461552581
20
-4.85071492777192
30
0
41
1
10
38.4721767069371
20
-4.90250752325215
30
0
41
1
10
38.0904752806429
20
-4.91606781603952
30
0
41
1
10
37.3277382411304
20
-4.92794410714129
30
0
41
1
10
36.9462512971433
20
-4.9245879782143
30
0
41
1
10
36.1826369817755
20
-4.89861014929576
30
0
41
1
10
35.8006685290616
20
-4.87591900590576
30
0
41
1
10
35.2267572142581
20
-4.82497664529666
30
0
41
1
10
35.0355772877467
20
-4.80508138942344
30
0
41
1
10
34.653390610607
20
-4.76139515863005
30
0
41
1
10
34.4623880443486
20
-4.73740480560511
30
0
41
1
10
33.8897604530971
20
-4.65781028154333
30
0
41
1
10
33.5085297288474
20
-4.59400934425491
30
0
41
1
10
32.7453123111009
20
-4.45097352345866
30
0
41
1
10
32.3634049842331
20
-4.37118906307029
30
0
41
1
10
31.5992140102487
20
-4.1931449708955
30
0
41
1
10
31.2164593502283
20
-4.09552114870121
30
0
41
1
10
30.6433156291492
20
-3.93545739177219
30
0
41
1
10
30.452327450791
20
-3.87983127513056
30
0
41
1
10
30.0705809075495
20
-3.76507452541614
30
0
41
1
10
29.8798605315137
20
-3.70597258607364
30
0
41
1
10
29.3078408197574
20
-3.52351569036213
30
0
41
1
10
28.9264179755234
20
-3.39529311566582
30
0
41
1
10
28.1627286456446
20
-3.12534200129062
30
0
41
1
10
27.780471315912
20
-2.98283351262913
30
0
41
1
10
27.015240669411
20
-2.68497627831627
30
0
41
1
10
26.6329718568644
20
-2.53151867854737
30
0
41
1
10
25.8692611536284
20
-2.21531125595863
30
0
41
1
10
25.4880349457784
20
-2.05196241478345
30
0
41
1
10
24.915534462323
20
-1.80181370627793
30
0
41
1
10
24.7246372428776
20
-1.71757109899772
30
0
41
1
10
24.3424635127334
20
-1.54703036120114
30
0
41
1
10
24.1511881904713
20
-1.46074135018821
30
0
41
1
10
23.5773790531258
20
-1.19956588365577
30
0
41
1
10
23.1945770197202
20
-1.02235660465752
30
0
41
1
10
22.4301376584752
20
-0.666434025623289
30
0
41
1
10
22.0483105190884
20
-0.4871074675697
30
0
41
1
10
21.285265687522
20
-0.125907728854401
30
0
41
1
10
20.9035716831745
20
0.0549495397771693
30
0
41
1
10
20.3302435559711
20
0.325439676587166
30
0
41
1
10
20.1390361593366
20
0.415542202650443
30
0
41
1
10
19.7564199505024
20
0.595642044677987
30
0
41
1
10
19.564887650009
20
0.685552048373296
30
0
41
1
10
18.990679922773
20
0.953400901755003
30
0
41
1
10
18.608070837129
20
1.13027432041929
30
0
41
1
10
17.8431899422512
20
1.47928160184784
30
0
41
1
10
17.4611797930278
20
1.6519786806534
30
0
41
1
10
16.6956121188301
20
1.98831307387644
30
0
41
1
10
16.3119327237818
20
2.1514135127135
30
0
41
1
10
15.5465256343371
20
2.46996938198305
30
0
41
1
10
15.1643011751001
20
2.62532752190916
30
0
41
1
10
14.3992569018195
20
2.9244532560374
30
0
41
1
10
14.0163960864469
20
3.06807876743491
30
0
41
1
10
13.6331014936185
20
3.20495761115001
30
0
0
SPLINE
5
B8
100
AcDbEntity
8
1
62
256
6
ByLayer
370
18
48
1
60
0
100
AcDbSpline
70
4
71
3
72
14
73
10
40
0
40
0
40
0
40
0
40
0.355035322850257
40
0.355035322850257
40
0.639410848710385
40
0.639410848710385
40
0.923786374570514
40
0.923786374570514
40
1
40
1
40
1
40
1
41
1
10
22.1664398398788
20
-4.91920071204834
30
0
41
1
10
21.5064466856019
20
-4.91776449210931
30
0
41
1
10
20.8450375133023
20
-4.88657871378368
30
0
41
1
10
19.6474136163609
20
-4.77627643475003
30
0
41
1
10
19.1110884972591
20
-4.70758172434745
30
0
41
1
10
18.0458614079598
20
-4.53479122919939
30
0
41
1
10
17.5154300757171
20
-4.43066335624658
30
0
41
1
10
16.8443388528807
20
-4.27764295256799
30
0
41
1
10
16.7025836950556
20
-4.24410993839169
30
0
41
1
10
16.5608918565013
20
-4.20941589412041
30
0
0
SPLINE
5
B9
100
AcDbEntity
8
1
62
256
6
ByLayer
370
13
48
1
60
0
100
AcDbSpline
70
4
71
3
72
18
73
14
40
0
40
0
40
0
40
0
40
0.224003791190503
40
0.224003791190503
40
0.353336492658751
40
0.353336492658751
40
0.418002843392876
40
0.418002843392876
40
0.482669194127
40
0.482669194127
40
0.7413345970635
40
0.7413345970635
40
1
40
1
40
1
40
1
41
1
10
16.5608918564175
20
-4.20941589409992
30
0
41
1
10
15.6451955738626
20
-3.98520250474343
30
0
41
1
10
14.7321438251902
20
-3.71249861026683
30
0
41
1
10
13.2865434743082
20
-3.21854518456922
30
0
41
1
10
12.7563552569127
20
-3.02409145493274
30
0
41
1
10
11.9579859927709
20
-2.71444060229027
30
0
41
1
10
11.6913018170958
20
-2.60827716575867
30
0
41
1
10
11.1565227925031
20
-2.39050220452631
30
0
41
1
10
10.8889465009035
20
-2.279095022641
30
0
41
1
10
9.55540489792548
20
-1.71332600644516
30
0
41
1
10
8.49709625673145
20
-1.22985894564763
30
0
41
1
10
6.37902674153466
20
-0.24033528404189
30
0
41
1
10
5.31953346665352
20
0.266258723232426
30
0
41
1
10
4.25024633316298
20
0.764723225862696
30
0
0
SPLINE
5
BA
100
AcDbEntity
8
1
62
256
6
ByLayer
370
18
48
1
60
0
100
AcDbSpline
70
4
71
3
72
8
73
4
40
0
40
0
40
0
40
0
40
1
40
1
40
1
40
1
41
1
10
3.99999954579584
20
-5.09513855084285
30
0
41
1
10
3.99999954579584
20
-5.09166459604569
30
0
41
1
10
3.99999954579587
20
-5.0881929600983
30
0
41
1
10
3.99999954579587
20
-5.0847236432142
30
0
0
SPLINE
5
BB
100
AcDbEntity
8
1
62
256
6
ByLayer
370
13
48
1
60
0
100
AcDbSpline
70
4
71
3
72
8
73
4
40
0
40
0
40
0
40
0
40
1
40
1
40
1
40
1
41
1
10
4.25024633316295
20
0.764723225862724
30
0
41
1
10
4.2124419761916
20
0.775295185517621
30
0
41
1
10
4.17556940528863
20
0.786821804788985
30
0
41
1
10
4.14125374804735
20
0.798972394052043
30
0
0
SPLINE
5
BC
100
AcDbEntity
8
1
62
256
6
ByLayer
370
18
48
1
60
0
100
AcDbSpline
70
4
71
3
72
8
73
4
40
0
40
0
40
0
40
0
40
1
40
1
40
1
40
1
41
1
10
56.9893365413637
20
-0.12510464978584
30
0
41
1
10
56.9899994040471
20
-0.10318761299672
30
0
41
1
10
56.9940384108814
20
-0.0763997019104465
30
0
41
1
10
56.9999579264924
20
-0.0482005586072205
30
0
0
SPLINE
5
BD
100
AcDbEntity
8
1
62
256
6
ByLayer
370
18
48
1
60
0
100
AcDbSpline
70
4
71
3
72
41
73
37
40
0
40
0
40
0
40
0
40
0.0498685846972542
40
0.0498685846972542
40
0.117500119912284
40
0.117500119912284
40
0.185131655127314
40
0.185131655127314
40
0.320394725557374
40
0.320394725557374
40
0.455657795987434
40
0.455657795987434
40
0.523289331202464
40
0.523289331202464
40
0.557105098809979
40
0.557105098809979
40
0.574012982613736
40
0.578239953564676
40
0.578239953564676
40
0.582466924515615
40
0.582466924515615
40
0.586693895466554
40
0.586693895466554
40
0.590920866417493
40
0.590920866417493
40
0.726183936847553
40
0.726183936847553
40
0.793815472062583
40
0.793815472062583
40
0.861447007277612
40
0.861447007277612
40
0.929078542492642
40
0.929078542492642
40
0.996710077707672
40
0.996710077707672
40
1
40
1
40
1
40
1
41
1
10
13.6331014936185
20
4.13252140482334
30
0
41
1
10
13.6331014936185
20
4.01589752966677
30
0
41
1
10
13.6331014936185
20
3.90170060920252
30
0
41
1
10
13.6331014936185
20
3.63820837023968
30
0
41
1
10
13.6331014936185
20
3.49092486390163
30
0
41
1
10
13.6331014936185
20
3.20509355497083
30
0
41
1
10
13.6331014936185
20
3.06592726528376
30
0
41
1
10
13.6331014936185
20
2.66774137083479
30
0
41
1
10
13.6331014936185
20
2.42716534666704
30
0
41
1
10
13.6331014936185
20
1.99202254700984
30
0
41
1
10
13.6331014936185
20
1.79748148498243
30
0
41
1
10
13.6331014936185
20
1.54006208320001
30
0
41
1
10
13.6331014936185
20
1.46006048150733
30
0
41
1
10
13.6331014936185
20
1.34990869488522
30
0
41
1
10
13.6331014936185
20
1.31477779025809
30
0
41
1
10
13.6331014936185
20
1.2644513141841
30
0
41
1
10
13.6331014936185
20
1.24398048059427
30
0
41
1
10
13.6331014936185
20
1.22414171032884
30
0
41
1
10
13.6331014936185
20
1.21625626462878
30
0
41
1
10
13.6331014936185
20
1.2132963109176
30
0
41
1
10
13.6331014936185
20
1.21128069352886
30
0
41
1
10
13.6331014936185
20
1.2119171877653
30
0
41
1
10
13.6331014936185
20
1.21652944622022
30
0
41
1
10
13.6331014936185
20
1.22095040093316
30
0
41
1
10
13.6331014936185
20
1.36245678834933
30
0
41
1
10
13.6331014936185
20
1.52757458681251
30
0
41
1
10
13.6331014936185
20
1.81569171193934
30
0
41
1
10
13.6331014936185
20
1.91873391500766
30
0
41
1
10
13.6331014936185
20
2.13643910002884
30
0
41
1
10
13.6331014936185
20
2.25135254821262
30
0
41
1
10
13.6331014936185
20
2.49347153707919
30
0
41
1
10
13.6331014936185
20
2.62067583080383
30
0
41
1
10
13.6331014936185
20
2.88783383057606
30
0
41
1
10
13.6331014936185
20
3.02804023798689
30
0
41
1
10
13.6331014936185
20
3.18160629401444
30
0
41
1
10
13.6331014936185
20
3.18874091707704
30
0
41
1
10
13.6331014936185
20
3.19588650944021
30
0
0
SPLINE
5
BE
100
AcDbEntity
8
1
62
256
6
ByLayer
370
18
48
1
60
0
100
AcDbSpline
70
4
71
3
72
8
73
4
40
0
40
0
40
0
40
0
40
1
40
1
40
1
40
1
41
1
10
55.2374718560533
20
-5.03030311920139
30
0
41
1
10
55.2158486780203
20
-5.08444076078439
30
0
41
1
10
55.1941843040249
20
-5.13851427238751
30
0
41
1
10
55.1724837307559
20
-5.19251836671171
30
0
0
SPLINE
5
BF
100
AcDbEntity
8
1
62
256
6
ByLayer
370
18
48
1
60
0
100
AcDbSpline
70
4
71
3
72
52
73
48
40
0
40
0
40
0
40
0
40
0.0480249113511389
40
0.0480249113511389
40
0.0960498227022777
40
0.0960498227022777
40
0.144074734053417
40
0.144074734053417
40
0.192099645404556
40
0.192099645404556
40
0.240124556755694
40
0.240124556755694
40
0.288149468106833
40
0.288149468106833
40
0.384199290809111
40
0.384199290809111
40
0.40821174648468
40
0.40821174648468
40
0.43222420216025
40
0.43222420216025
40
0.480249113511389
40
0.480249113511389
40
0.504261569186958
40
0.504261569186958
40
0.528274024862527
40
0.528274024862527
40
0.576298936213665
40
0.576298936213665
40
0.624323847564804
40
0.624323847564804
40
0.648336303240374
40
0.648336303240374
40
0.672348758915944
40
0.672348758915944
40
0.720373670267084
40
0.720373670267084
40
0.744386125942655
40
0.744386125942655
40
0.768398581618225
40
0.768398581618225
40
0.864448404320505
40
0.864448404320505
40
0.912473315671645
40
0.912473315671645
40
0.960498227022786
40
0.960498227022786
40
1
40
1
40
1
40
1
41
1
10
55.1724837307559
20
-5.19251836671174
30
0
41
1
10
54.640697138589
20
-5.20631860015482
30
0
41
1
10
54.1091710062968
20
-5.1996351615017
30
0
41
1
10
53.0443643461799
20
-5.1455170977045
30
0
41
1
10
52.5130243697619
20
-5.09815843334141
30
0
41
1
10
51.4515518078028
20
-4.96416063033143
30
0
41
1
10
50.9211184326615
20
-4.87754273526107
30
0
41
1
10
49.8584573557926
20
-4.66652733785065
30
0
41
1
10
49.3254786036489
20
-4.54191848420476
30
0
41
1
10
48.2629872406056
20
-4.25875449939255
30
0
41
1
10
47.7325705270837
20
-4.10019444572222
30
0
41
1
10
46.6708857694983
20
-3.75228395125205
30
0
41
1
10
46.1392391170891
20
-3.56269341202349
30
0
41
1
10
44.5423334735126
20
-2.95329678426083
30
0
41
1
10
43.4831067452515
20
-2.49677043170962
30
0
41
1
10
42.1539604031939
20
-1.88381344973754
30
0
41
1
10
41.8876151275014
20
-1.75900718974034
30
0
41
1
10
41.3554207610952
20
-1.50657056889511
30
0
41
1
10
41.0896484049957
20
-1.37892246086972
30
0
41
1
10
40.2928717264728
20
-0.992549097136077
30
0
41
1
10
39.7623817554325
20
-0.730443893344273
30
0
41
1
10
38.9657641520007
20
-0.334334478727214
30
0
41
1
10
38.7000816222191
20
-0.201799125444978
30
0
41
1
10
38.1681773470158
20
0.0637670041325009
30
0
41
1
10
37.9017300177325
20
0.196916922861249
30
0
41
1
10
37.1036704352399
20
0.59462375081867
30
0
41
1
10
36.5727944634991
20
0.857668550803567
30
0
41
1
10
35.5110673764108
20
1.37503665327643
30
0
41
1
10
34.9801966638669
20
1.62931996237307
30
0
41
1
10
34.1820571074124
20
2.00056895570859
30
0
41
1
10
33.915582391401
20
2.12267197520274
30
0
41
1
10
33.3836344485722
20
2.36190568428921
30
0
41
1
10
33.1179498580226
20
2.47918545735868
30
0
41
1
10
32.321275294845
20
2.82317935424095
30
0
41
1
10
31.7906359516756
20
3.04199818481993
30
0
41
1
10
30.9936071728793
20
3.35149745673991
30
0
41
1
10
30.7277804555273
20
3.45158582913757
30
0
41
1
10
30.1954687841492
20
3.64501786973247
30
0
41
1
10
29.9290558407922
20
3.73833321959884
30
0
41
1
10
28.5994984916424
20
4.18507694834045
30
0
41
1
10
27.5398831585489
20
4.48042677587839
30
0
41
1
10
25.9422646369331
20
4.81414625358636
30
0
41
1
10
25.4103628741636
20
4.90657387014227
30
0
41
1
10
24.3480056925064
20
5.05211007921798
30
0
41
1
10
23.8173509696911
20
5.10539884288886
30
0
41
1
10
22.8485044821197
20
5.16574622120191
30
0
41
1
10
22.4100773443404
20
5.17930393099351
30
0
41
1
10
21.972343715741
20
5.1790776957468
30
0
0
SPLINE
5
C0
100
AcDbEntity
8
1
62
256
6
ByLayer
370
18
48
1
60
0
100
AcDbSpline
70
4
71
3
72
38
73
34
40
0
40
0
40
0
40
0
40
0.124999999999999
40
0.124999999999999
40
0.249999999999998
40
0.249999999999998
40
0.312499999999997
40
0.312499999999997
40
0.374999999999996
40
0.374999999999996
40
0.5
40
0.5
40
0.562500000000004
40
0.562500000000004
40
0.625000000000008
40
0.625000000000008
40
0.750000000000016
40
0.750000000000016
40
0.812500000000018
40
0.812500000000018
40
0.843750000000018
40
0.843750000000018
40
0.85156250000002
40
0.85156250000002
40
0.855468750000019
40
0.855468750000019
40
0.859375000000018
40
0.859375000000018
40
0.875000000000016
40
0.875000000000016
40
0.937500000000008
40
0.937500000000008
40
1
40
1
40
1
40
1
41
1
10
50.3123630798527
20
1.56700395680144
30
0
41
1
10
50.5274567610234
20
1.39534798680933
30
0
41
1
10
50.7473436165739
20
1.23583869787228
30
0
41
1
10
51.1966320009063
20
0.940931844696109
30
0
41
1
10
51.4260165414996
20
0.805491229632395
30
0
41
1
10
51.7777839923615
20
0.62181963570464
30
0
41
1
10
51.8959162745451
20
0.564103652425558
30
0
41
1
10
52.1321521631274
20
0.456810564290578
30
0
41
1
10
52.2505236902678
20
0.407093859558756
30
0
41
1
10
52.6064211417514
20
0.270076086232592
30
0
41
1
10
52.8447215567571
20
0.194777500767572
30
0
41
1
10
53.2038633474211
20
0.108038095107531
30
0
41
1
10
53.3238609712309
20
0.0835214331740985
30
0
41
1
10
53.5644791497109
20
0.0441418307894139
30
0
41
1
10
53.6853292894837
20
0.0292933568954652
30
0
41
1
10
54.044204281819
20
0.0014315117369392
30
0
41
1
10
54.2799542438638
20
0.0045652577329065
30
0
41
1
10
54.6273517795652
20
0.0478902245646395
30
0
41
1
10
54.7415049129915
20
0.0687487769241386
30
0
41
1
10
54.9095455540526
20
0.110381041590699
30
0
41
1
10
54.965164835142
20
0.125586260539365
30
0
41
1
10
55.0334721798189
20
0.147800319906054
30
0
41
1
10
55.0468126573078
20
0.153637106002463
30
0
41
1
10
55.0623538277828
20
0.169295450929724
30
0
41
1
10
55.0668577205915
20
0.175512789257482
30
0
41
1
10
55.0731930555923
20
0.190095941489659
30
0
41
1
10
55.0750540096441
20
0.198403807652795
30
0
41
1
10
55.0795454943972
20
0.24092432845103
30
0
41
1
10
55.0826080855173
20
0.275164459693542
30
0
41
1
10
55.0962678228169
20
0.446825327295699
30
0
41
1
10
55.1009460750404
20
0.58642774415199
30
0
41
1
10
55.0999192197011
20
0.866834165243233
30
0
41
1
10
55.0942659373397
20
1.00772262997876
30
0
41
1
10
55.0843791840186
20
1.1491755082798
30
0
0
SPLINE
5
C1
100
AcDbEntity
8
1
62
256
6
ByLayer
370
18
48
1
60
0
100
AcDbSpline
70
4
71
3
72
96
73
92
40
0
40
0
40
0
40
0
40
0.0331922943363025
40
0.0331922943363025
40
0.066384588672605
40
0.066384588672605
40
0.0995768830089075
40
0.0995768830089075
40
0.13276917734521
40
0.13276917734521
40
0.149365324513362
40
0.149365324513362
40
0.165961471681513
40
0.165961471681513
40
0.199153766017818
40
0.199153766017818
40
0.21574991318597
40
0.21574991318597
40
0.232346060354123
40
0.232346060354123
40
0.248942207522275
40
0.248942207522275
40
0.265538354690428
40
0.265538354690428
40
0.298730649026734
40
0.298730649026734
40
0.315326796194886
40
0.315326796194886
40
0.331922943363039
40
0.331922943363039
40
0.348519090531192
40
0.348519090531192
40
0.365115237699345
40
0.365115237699345
40
0.39830753203565
40
0.39830753203565
40
0.414903679203803
40
0.414903679203803
40
0.431499826371955
40
0.431499826371955
40
0.448095973540108
40
0.448095973540108
40
0.46469212070826
40
0.46469212070826
40
0.497884415044564
40
0.497884415044564
40
0.531076709380869
40
0.531076709380869
40
0.564269003717173
40
0.564269003717173
40
0.597461298053477
40
0.597461298053477
40
0.614057445221629
40
0.614057445221629
40
0.630653592389781
40
0.630653592389781
40
0.663845886726084
40
0.663845886726084
40
0.697038181062388
40
0.697038181062388
40
0.713634328230539
40
0.713634328230539
40
0.730230475398691
40
0.730230475398691
40
0.763422769734994
40
0.763422769734994
40
0.780018916903144
40
0.780018916903144
40
0.796615064071295
40
0.796615064071295
40
0.813211211239446
40
0.813211211239446
40
0.829807358407597
40
0.829807358407597
40
0.862999652743897
40
0.862999652743897
40
0.879595799912048
40
0.879595799912048
40
0.896191947080199
40
0.896191947080199
40
0.91278809424835
40
0.91278809424835
40
0.929384241416501
40
0.929384241416501
40
0.962576535752803
40
0.962576535752803
40
0.979172682920955
40
0.979172682920955
40
0.995768830089107
40
0.995768830089107
40
1
40
1
40
1
40
1
41
1
10
13.6331014936185
20
4.13252140482624
30
0
41
1
10
14.0719680305424
20
4.26544478962432
30
0
41
1
10
14.5100306748519
20
4.38494629558008
30
0
41
1
10
15.3830974326932
20
4.60035833376614
30
0
41
1
10
15.8172676294212
20
4.69685358259838
30
0
41
1
10
16.6858509087301
20
4.86303504720524
30
0
41
1
10
17.1199825974547
20
4.93322255961567
30
0
41
1
10
17.986296152391
20
5.04866484976426
30
0
41
1
10
18.4198187067897
20
5.09307940320474
30
0
41
1
10
19.071414257644
20
5.1396678730888
30
0
41
1
10
19.2887590751361
20
5.15188777562099
30
0
41
1
10
19.7234289325789
20
5.16963856908003
30
0
41
1
10
19.9409018384368
20
5.1751188702253
30
0
41
1
10
20.5950380168724
20
5.18123582254668
30
0
41
1
10
21.0331077955857
20
5.17175726338962
30
0
41
1
10
21.6919425483147
20
5.13647143249787
30
0
41
1
10
21.9110780630249
20
5.12119374161441
30
0
41
1
10
22.3487820644615
20
5.08406939280547
30
0
41
1
10
22.5673622333934
20
5.0622076248842
30
0
41
1
10
23.00384862369
20
5.01195362431127
30
0
41
1
10
23.2217664876065
20
4.98357001460801
30
0
41
1
10
23.6566523752086
20
4.92010107674221
30
0
41
1
10
23.873591242623
20
4.88496910647407
30
0
41
1
10
24.5246483830274
20
4.77061979734671
30
0
41
1
10
24.9587229389069
20
4.68242296005545
30
0
41
1
10
25.608786766961
20
4.53136561228652
30
0
41
1
10
25.8251701171016
20
4.47771584139457
30
0
41
1
10
26.2585378949933
20
4.36502137976521
30
0
41
1
10
26.4754791326158
20
4.3059555956853
30
0
41
1
10
26.9097517993965
20
4.18230124306893
30
0
41
1
10
27.1270833222383
20
4.1177145732795
30
0
41
1
10
27.5619294317292
20
3.98269078649807
30
0
41
1
10
27.7792928625059
20
3.91203097921294
30
0
41
1
10
28.4328459910491
20
3.69269593534457
30
0
41
1
10
28.8706507153136
20
3.53705680622545
30
0
41
1
10
29.529631561404
20
3.28785486239056
30
0
41
1
10
29.748897698156
20
3.20208341171795
30
0
41
1
10
30.1863631952425
20
3.02717458677782
30
0
41
1
10
30.4048422381359
20
2.93813206283062
30
0
41
1
10
30.8412371181937
20
2.75683110044713
30
0
41
1
10
31.0591453801976
20
2.66455991434108
30
0
41
1
10
31.4942015234833
20
2.47646050272113
30
0
41
1
10
31.7112050771911
20
2.38036322937179
30
0
41
1
10
32.3617379898398
20
2.08792194132206
30
0
41
1
10
32.7955004105459
20
1.88879701006454
30
0
41
1
10
33.6622698216935
20
1.48066787732762
30
0
41
1
10
34.094701491097
20
1.27046846655483
30
0
41
1
10
34.9625099201416
20
0.847385159770568
30
0
41
1
10
35.3972672747552
20
0.63332556097609
30
0
41
1
10
36.2676922934077
20
0.198274929724619
30
0
41
1
10
36.7048328569596
20
-0.0196227692792661
30
0
41
1
10
37.3633627091206
20
-0.347219239284556
30
0
41
1
10
37.5831561716638
20
-0.456694972117049
30
0
41
1
10
38.0207790071179
20
-0.67492144841458
30
0
41
1
10
38.2391813782974
20
-0.783325023061536
30
0
41
1
10
38.8938366825748
20
-1.10508553436875
30
0
41
1
10
39.3292988385219
20
-1.3155592023277
30
0
41
1
10
40.1967363523966
20
-1.73160315195028
30
0
41
1
10
40.6300765109451
20
-1.93442217357736
30
0
41
1
10
41.2801758190867
20
-2.2297871922633
30
0
41
1
10
41.4968201773873
20
-2.32689885899316
30
0
41
1
10
41.9296921383129
20
-2.5189516773523
30
0
41
1
10
42.1460820577246
20
-2.61358747894315
30
0
41
1
10
42.796375957818
20
-2.8910906896331
30
0
41
1
10
43.2311013751999
20
-3.0681685219628
30
0
41
1
10
43.8836852099794
20
-3.32394800314708
30
0
41
1
10
44.1013360857664
20
-3.40747881991345
30
0
41
1
10
44.5379177553025
20
-3.5693945364124
30
0
41
1
10
44.7567526863205
20
-3.6479432642156
30
0
41
1
10
45.1953720926944
20
-3.80043066786766
30
0
41
1
10
45.4154025057392
20
-3.87442536337775
30
0
41
1
10
45.8535341174535
20
-4.01725588499818
30
0
41
1
10
46.0718850068405
20
-4.0862025995595
30
0
41
1
10
46.7265361864122
20
-4.28341095314858
30
0
41
1
10
47.1621575982637
20
-4.40260198564977
30
0
41
1
10
47.8132902534485
20
-4.56456165293761
30
0
41
1
10
48.0298280548093
20
-4.61582069500696
30
0
41
1
10
48.4631006823378
20
-4.71172068072747
30
0
41
1
10
48.6797853106032
20
-4.75643425935513
30
0
41
1
10
49.1131279747515
20
-4.83958533130328
30
0
41
1
10
49.3297866773044
20
-4.87802403231427
30
0
41
1
10
49.762863925698
20
-4.94874160159068
30
0
41
1
10
49.9791311144502
20
-4.9810948614967
30
0
41
1
10
50.628786922289
20
-5.06802887094656
30
0
41
1
10
51.0631686930038
20
-5.11258503122252
30
0
41
1
10
51.7157380406253
20
-5.15967429000219
30
0
41
1
10
51.9332639300441
20
-5.17208762387483
30
0
41
1
10
52.36923282244
20
-5.18999595893044
30
0
41
1
10
52.5877751278142
20
-5.19549455496164
30
0
41
1
10
52.8626963877355
20
-5.19807795396858
30
0
41
1
10
52.9185985278268
20
-5.19837885542307
30
0
41
1
10
52.9745326221202
20
-5.19845534035781
30
0
0
SPLINE
5
C2
100
AcDbEntity
8
1
62
256
6
ByLayer
370
18
48
1
60
0
100
AcDbSpline
70
4
71
3
72
8
73
4
40
0
40
0
40
0
40
0
40
1
40
1
40
1
40
1
41
1
10
55.4363271360227
20
5.05673953618063
30
0
41
1
10
55.3395099402343
20
5.12921437294801
30
0
41
1
10
55.2515708086559
20
5.17548135431514
30
0
41
1
10
55.1724837307559
20
5.19251836671174
30
0
0
SPLINE
5
C3
100
AcDbEntity
8
1
62
256
6
ByLayer
370
18
48
1
60
0
100
AcDbSpline
70
4
71
3
72
18
73
14
40
0
40
0
40
0
40
0
40
0.273499361628097
40
0.273499361628097
40
0.410249042442145
40
0.410249042442145
40
0.546998723256193
40
0.546998723256193
40
0.82049808488429
40
0.82049808488429
40
0.957247765698339
40
0.957247765698339
40
1
40
1
40
1
40
1
41
1
10
54.8361273592694
20
-3.89469227729063
30
0
41
1
10
54.8356619199495
20
-4.07382148148517
30
0
41
1
10
54.8435717542163
20
-4.23086320168406
30
0
41
1
10
54.8683805270845
20
-4.43389550849801
30
0
41
1
10
54.8788240896281
20
-4.49612004900672
30
0
41
1
10
54.9043341074549
20
-4.60937912123759
30
0
41
1
10
54.919296498257
20
-4.65984759140187
30
0
41
1
10
54.9704418314537
20
-4.79198788251239
30
0
41
1
10
55.0129780988195
20
-4.85521008590987
30
0
41
1
10
55.0904353646842
20
-4.91353374458842
30
0
41
1
10
55.1186445478058
20
-4.92687162019962
30
0
41
1
10
55.1585593492316
20
-4.93611123503123
30
0
41
1
10
55.1682728255506
20
-4.93769938414113
30
0
41
1
10
55.1781955020507
20
-4.93867859406456
30
0
0
SPLINE
5
C4
100
AcDbEntity
8
1
62
256
6
ByLayer
370
18
48
1
60
0
100
AcDbSpline
70
4
71
3
72
12
73
8
40
0
40
0
40
0
40
0
40
0.25
40
0.25
40
0.499999999999999
40
0.499999999999999
40
1
40
1
40
1
40
1
41
1
10
4.13869013433376
20
0.74670127477151
30
0
41
1
10
4.11780813521631
20
0.756973863901607
30
0
41
1
10
4.09883930223217
20
0.769838229539914
30
0
41
1
10
4.06463271591863
20
0.80060374378661
30
0
41
1
10
4.04968118852363
20
0.818382561705135
30
0
41
1
10
4.01328842581205
20
0.876284460783182
30
0
41
1
10
3.99999954579584
20
0.921675360745041
30
0
41
1
10
3.99999954579584
20
0.967492785636296
30
0
0
SPLINE
5
C5
100
AcDbEntity
8
1
62
256
6
ByLayer
370
18
48
1
60
0
100
AcDbSpline
70
4
71
3
72
8
73
4
40
0
40
0
40
0
40
0
40
1
40
1
40
1
40
1
41
1
10
55.4363271360232
20
-5.05673953618026
30
0
41
1
10
55.3395099402346
20
-5.12921437294787
30
0
41
1
10
55.251570808656
20
-5.17548135431511
30
0
41
1
10
55.1724837307559
20
-5.19251836671174
30
0
0
SPLINE
5
C6
100
AcDbEntity
8
1
62
256
6
ByLayer
370
18
48
1
60
0
100
AcDbSpline
70
4
71
3
72
8
73
4
40
0
40
0
40
0
40
0
40
1
40
1
40
1
40
1
41
1
10
11.9817892197752
20
3.72973409420024
30
0
41
1
10
12.5357391457334
20
3.86378718966537
30
0
41
1
10
13.0857482751935
20
4.00013060021888
30
0
41
1
10
13.6331014936185
20
4.13252140482624
30
0
0
SPLINE
5
C7
100
AcDbEntity
8
1
62
256
6
ByLayer
370
18
48
1
60
0
100
AcDbSpline
70
4
71
3
72
16
73
12
40
0
40
0
40
0
40
0
40
0.025394806288233
40
0.025394806288233
40
0.126190612028795
40
0.126190612028795
40
0.529373834991039
40
0.529373834991039
40
0.932557057953283
40
0.932557057953283
40
1
40
1
40
1
40
1
41
1
10
38.3245743841306
20
-0.0139251949373715
30
0
41
1
10
38.3918619657047
20
-0.0464797917352939
30
0
41
1
10
38.4591059089804
20
-0.0790104956163304
30
0
41
1
10
38.7929520822161
20
-0.240467791930485
30
0
41
1
10
39.0590003083966
20
-0.368999414668849
30
0
41
1
10
40.3867835671302
20
-1.00829626485233
30
0
41
1
10
41.441348821912
20
-1.50851501754755
30
0
41
1
10
43.5534307992587
20
-2.44946851892405
30
0
41
1
10
44.6112244799629
20
-2.88969418429392
30
0
41
1
10
45.8583327352142
20
-3.34818309616904
30
0
41
1
10
46.0374136073256
20
-3.41255544999083
30
0
41
1
10
46.2162780961954
20
-3.47530939300816
30
0
0
SPLINE
5
C8
100
AcDbEntity
8
1
62
256
6
ByLayer
370
13
48
1
60
0
100
AcDbSpline
70
4
71
3
72
20
73
16
40
0
40
0
40
0
40
0
40
0.0292029307691049
40
0.0292029307691049
40
0.117457209790095
40
0.117457209790095
40
0.293965767832079
40
0.293965767832079
40
0.646982883916043
40
0.646982883916043
40
0.823491441958024
40
0.823491441958024
40
0.911745720979012
40
0.911745720979012
40
1
40
1
40
1
40
1
41
1
10
46.2162780963512
20
-3.47530939306281
30
0
41
1
10
46.3047327623607
20
-3.50634338480356
30
0
41
1
10
46.393134508732
20
-3.53698157087405
30
0
41
1
10
46.748200109912
20
-3.65847986992694
30
0
41
1
10
47.0143450802402
20
-3.74602134653307
30
0
41
1
10
47.8112874161611
20
-3.99686609973446
30
0
41
1
10
48.3405293763789
20
-4.14848180112861
30
0
41
1
10
49.9256886933164
20
-4.55325106367826
30
0
41
1
10
50.9793248643091
20
-4.75550951071207
30
0
41
1
10
52.5682840121232
20
-4.94587463606166
30
0
41
1
10
53.0994175776118
20
-4.99055793267132
30
0
41
1
10
53.900014209314
20
-5.0279928813622
30
0
41
1
10
54.1677752534483
20
-5.03552938522739
30
0
41
1
10
54.7027037179641
20
-5.04048983163574
30
0
41
1
10
54.970067696078
20
-5.03793247896493
30
0
41
1
10
55.2374718560291
20
-5.03030311918991
30
0
0
SPLINE
5
C9
100
AcDbEntity
8
1
62
256
6
ByLayer
370
18
48
1
60
0
100
AcDbSpline
70
4
71
3
72
8
73
4
40
0
40
0
40
0
40
0
40
1
40
1
40
1
40
1
41
1
10
55.1724837307559
20
5.19251836671174
30
0
41
1
10
54.988537985178
20
5.19729188726907
30
0
41
1
10
54.8045645139356
20
5.19961293657641
30
0
41
1
10
54.6205590311917
20
5.19948676364726
30
0
0
SPLINE
5
CA
100
AcDbEntity
8
1
62
256
6
ByLayer
370
18
48
1
60
0
100
AcDbSpline
70
4
71
3
72
36
73
32
40
0
40
0
40
0
40
0
40
0.0895971138242918
40
0.0895971138242918
40
0.165464021005602
40
0.165464021005602
40
0.241330928186913
40
0.241330928186913
40
0.279264381777568
40
0.279264381777568
40
0.317197835368223
40
0.317197835368223
40
0.393064742549532
40
0.393064742549532
40
0.468931649730841
40
0.468931649730841
40
0.506865103321496
40
0.506865103321496
40
0.544798556912151
40
0.544798556912151
40
0.620665464093459
40
0.620665464093459
40
0.658598917684114
40
0.658598917684114
40
0.696532371274769
40
0.696532371274769
40
0.772399278456077
40
0.772399278456077
40
0.848266185637385
40
0.848266185637385
40
1
40
1
40
1
40
1
41
1
10
25.1675366538298
20
-4.93795247662879
30
0
41
1
10
24.5402367328555
20
-5.03223037988138
30
0
41
1
10
23.9135026105218
20
-5.0994204461328
30
0
41
1
10
22.753548100783
20
-5.17165179938223
30
0
41
1
10
22.2203161088841
20
-5.18451842690772
30
0
41
1
10
21.1572937609825
20
-5.16948290736619
30
0
41
1
10
20.6265602047341
20
-5.14165357411218
30
0
41
1
10
19.8296049238923
20
-5.06992536707159
30
0
41
1
10
19.563824791091
20
-5.04101982846794
30
0
41
1
10
19.0317717246058
20
-4.97326022417559
30
0
41
1
10
18.7652340749397
20
-4.93436596715986
30
0
41
1
10
17.9666616473106
20
-4.80345088583385
30
0
41
1
10
17.4354377417451
20
-4.6972263248125
30
0
41
1
10
16.3732312761325
20
-4.44884653309151
30
0
41
1
10
15.8422242344004
20
-4.30668537542698
30
0
41
1
10
15.043823918493
20
-4.06850791776713
30
0
41
1
10
14.7772002190435
20
-3.98489379372049
30
0
41
1
10
14.2449146226818
20
-3.81034522911651
30
0
41
1
10
13.9790549548273
20
-3.71935765378208
30
0
41
1
10
13.1818552674799
20
-3.43597306472304
30
0
41
1
10
12.6510272319284
20
-3.23295555167667
30
0
41
1
10
11.8538226967264
20
-2.91020100829527
30
0
41
1
10
11.5878967208224
20
-2.79963064415992
30
0
41
1
10
11.0553655134221
20
-2.57299909023129
30
0
41
1
10
10.7887345375838
20
-2.45692158104836
30
0
41
1
10
9.99024155979373
20
-2.10247175539689
30
0
41
1
10
9.45891333908369
20
-1.8573246183611
30
0
41
1
10
8.39568793148396
20
-1.35416813539024
30
0
41
1
10
7.86312944854444
20
-1.09594324299636
30
0
41
1
10
6.26502657502351
20
-0.311322972894828
30
0
41
1
10
5.20443566727749
20
0.222423598308751
30
0
41
1
10
4.13869013433373
20
0.74670127477151
30
0
0
SPLINE
5
CB
100
AcDbEntity
8
1
62
256
6
ByLayer
370
18
48
1
60
0
100
AcDbSpline
70
4
71
3
72
8
73
4
40
0
40
0
40
0
40
0
40
1
40
1
40
1
40
1
41
1
10
56.9375832980689
20
-1.18523760068533
30
0
41
1
10
56.9614044561895
20
-0.83152632028316
30
0
41
1
10
56.97865902179
20
-0.478148493039498
30
0
41
1
10
56.9893365413636
20
-0.125104649785953
30
0
0
SPLINE
5
CC
100
AcDbEntity
8
1
62
256
6
ByLayer
370
18
48
1
60
0
100
AcDbSpline
70
4
71
3
72
8
73
4
40
0
40
0
40
0
40
0
40
1
40
1
40
1
40
1
41
1
10
56.937583298069
20
1.18523760068533
30
0
41
1
10
56.9614088158961
20
0.831461584667352
30
0
41
1
10
56.9786609762917
20
0.478083868969577
30
0
41
1
10
56.9893365413636
20
0.12510464978601
30
0
0
SPLINE
5
CD
100
AcDbEntity
8
1
62
256
6
ByLayer
370
18
48
1
60
0
100
AcDbSpline
70
4
71
3
72
32
73
28
40
0
40
0
40
0
40
0
40
0.016368857876491
40
0.016368857876491
40
0.105789870796808
40
0.105789870796808
40
0.195210883717125
40
0.195210883717125
40
0.284631896637442
40
0.284631896637442
40
0.329342403097602
40
0.329342403097602
40
0.374052909557761
40
0.374052909557761
40
0.463473922478081
40
0.463473922478081
40
0.552894935398401
40
0.552894935398401
40
0.642315948318721
40
0.642315948318721
40
0.731736961239041
40
0.731736961239041
40
0.821157974159361
40
0.821157974159361
40
0.91057898707968
40
0.91057898707968
40
1
40
1
40
1
40
1
41
1
10
37.4978543464972
20
4.92434131925879
30
0
41
1
10
37.5678920406117
20
4.92388383152036
30
0
41
1
10
37.6379297283991
20
4.92311077553612
30
0
41
1
10
38.0905409620345
20
4.91608549639861
30
0
41
1
10
38.4728741105784
20
4.90246832532978
30
0
41
1
10
39.2365552913357
20
4.85069946002986
30
0
41
1
10
39.6178299501439
20
4.8136708224682
30
0
41
1
10
40.3809003318712
20
4.72114189379025
30
0
41
1
10
40.7630132251428
20
4.66568073516635
30
0
41
1
10
41.3367461432092
20
4.56992309645301
30
0
41
1
10
41.5282265258546
20
4.53600090847777
30
0
41
1
10
41.9106452418835
20
4.46272715755836
30
0
41
1
10
42.1016091369434
20
4.42334263736987
30
0
41
1
10
42.6744329972318
20
4.2986321640997
30
0
41
1
10
43.0560995213235
20
4.20712988356036
30
0
41
1
10
43.818843898927
20
4.00649404664648
30
0
41
1
10
44.2000546239965
20
3.89805994879447
30
0
41
1
10
44.9639302201892
20
3.66784024807475
30
0
41
1
10
45.346659991643
20
3.54385399097828
30
0
41
1
10
46.1111278168315
20
3.28080338674218
30
0
41
1
10
46.4928976839939
20
3.1427886317154
30
0
41
1
10
47.2563580400755
20
2.85620576055487
30
0
41
1
10
47.6377627628178
20
2.70754853703437
30
0
41
1
10
48.4007188340137
20
2.39837528940268
30
0
41
1
10
48.782674083726
20
2.23808290180762
30
0
41
1
10
49.5476293457532
20
1.90812966804447
30
0
41
1
10
49.9301281374885
20
1.73841881192638
30
0
41
1
10
50.3123630798445
20
1.56700395680508
30
0
0
SPLINE
5
CE
100
AcDbEntity
8
1
62
256
6
ByLayer
370
18
48
1
60
0
100
AcDbSpline
70
4
71
3
72
8
73
4
40
0
40
0
40
0
40
0
40
1
40
1
40
1
40
1
41
1
10
56.9999579264924
20
0.0482005586140133
30
0
41
1
10
57.0000140271105
20
0.0160653587028889
30
0
41
1
10
57.00001402071
20
-0.0160690250038158
30
0
41
1
10
56.9999579264924
20
-0.048200558606851
30
0
0
SPLINE
5
CF
100
AcDbEntity
8
1
62
256
6
ByLayer
370
18
48
1
60
0
100
AcDbSpline
70
4
71
3
72
16
73
12
40
0
40
0
40
0
40
0
40
0.224485944164194
40
0.224485944164194
40
0.6319010979959
40
0.6319010979959
40
0.733754886453828
40
0.733754886453828
40
0.835608674911755
40
0.835608674911755
40
1
40
1
40
1
40
1
41
1
10
5.64337696742984
20
0.0012411194866502
30
0
41
1
10
6.22923540257503
20
-0.281081148092113
30
0
41
1
10
6.8133187006012
20
-0.562669970953692
30
0
41
1
10
8.45697762496599
20
-1.34376629105591
30
0
41
1
10
9.51591129859139
20
-1.83439126205442
30
0
41
1
10
10.8505522532335
20
-2.40670337697387
30
0
41
1
10
11.1183845212509
20
-2.51930790061453
30
0
41
1
10
11.6536071987582
20
-2.73918361351588
30
0
41
1
10
11.9204905138427
20
-2.84625343290904
30
0
41
1
10
12.6166018649438
20
-3.11806704416301
30
0
41
1
10
13.045011981657
20
-3.27772840967532
30
0
41
1
10
13.4725935274024
20
-3.42833784248558
30
0
0
SPLINE
5
D0
100
AcDbEntity
8
1
62
256
6
ByLayer
370
13
48
1
60
0
100
AcDbSpline
70
4
71
3
72
18
73
14
40
0
40
0
40
0
40
0
40
0.0296586565734562
40
0.0296586565734562
40
0.336996858166191
40
0.336996858166191
40
0.490665958962559
40
0.490665958962559
40
0.644335059758926
40
0.644335059758926
40
0.951673261351665
40
0.951673261351665
40
1
40
1
40
1
40
1
41
1
10
13.472593527396
20
-3.42833784248336
30
0
41
1
10
13.5748550288511
20
-3.46435798153223
30
0
41
1
10
13.677069137095
20
-3.49986036148132
30
0
41
1
10
14.8380284394654
20
-3.89723618988643
30
0
41
1
10
15.8921198800026
20
-4.20358677743812
30
0
41
1
10
17.4807191506575
20
-4.56039197751721
30
0
41
1
10
18.0114955137309
20
-4.66227701368177
30
0
41
1
10
19.0775589573017
20
-4.82953686202001
30
0
41
1
10
19.6143704490347
20
-4.894920946523
30
0
41
1
10
21.2133518881382
20
-5.03067261120853
30
0
41
1
10
22.2698977141803
20
-5.04226943946219
30
0
41
1
10
23.4922464580028
20
-4.96620749162986
30
0
41
1
10
23.6583365538978
20
-4.95396690213664
30
0
41
1
10
23.8244611960555
20
-4.9398321303608
30
0
0
SPLINE
5
D1
100
AcDbEntity
8
1
62
256
6
ByLayer
370
18
48
1
60
0
100
AcDbSpline
70
4
71
3
72
66
73
62
40
0
40
0
40
0
40
0
40
0.0624999999999952
40
0.0624999999999952
40
0.0937499999999928
40
0.0937499999999928
40
0.12499999999999
40
0.12499999999999
40
0.156249999999988
40
0.156249999999988
40
0.171874999999987
40
0.171874999999987
40
0.187499999999986
40
0.187499999999986
40
0.203124999999984
40
0.203124999999984
40
0.210937499999984
40
0.210937499999984
40
0.218749999999983
40
0.234374999999981
40
0.234374999999981
40
0.24999999999998
40
0.24999999999998
40
0.265624999999979
40
0.265624999999979
40
0.281249999999977
40
0.281249999999977
40
0.312499999999974
40
0.312499999999974
40
0.343749999999971
40
0.343749999999971
40
0.359374999999969
40
0.359374999999969
40
0.367187499999967
40
0.367187499999967
40
0.371093749999967
40
0.371093749999967
40
0.373046874999966
40
0.373046874999966
40
0.374999999999966
40
0.374999999999966
40
0.378906249999966
40
0.378906249999966
40
0.382812499999967
40
0.382812499999967
40
0.390624999999968
40
0.406249999999968
40
0.406249999999968
40
0.437499999999969
40
0.437499999999969
40
0.499999999999973
40
0.499999999999973
40
0.562499999999976
40
0.562499999999976
40
0.624999999999979
40
0.624999999999979
40
0.749999999999986
40
0.749999999999986
40
0.874999999999993
40
0.874999999999993
40
1
40
1
40
1
40
1
41
1
10
3.99999954580972
20
-5.09513855083867
30
0
41
1
10
3.72826194899255
20
-5.06172230547642
30
0
41
1
10
3.46334303075753
20
-5.01580902965543
30
0
41
1
10
3.0843364718375
20
-4.9191235777229
30
0
41
1
10
2.96210204388029
20
-4.88243075159173
30
0
41
1
10
2.72863312264971
20
-4.79771564370964
30
0
41
1
10
2.61734226649656
20
-4.74974246695368
30
0
41
1
10
2.4106001766929
20
-4.63827678033005
30
0
41
1
10
2.31473462460087
20
-4.5743548170137
30
0
41
1
10
2.19427168370896
20
-4.46495758695045
30
0
41
1
10
2.15785029220115
20
-4.42614325924083
30
0
41
1
10
2.09433733415798
20
-4.34279556498086
30
0
41
1
10
2.06745834051372
20
-4.29836920704992
30
0
41
1
10
2.02649569240557
20
-4.205439222818
30
0
41
1
10
2.0121916954171
20
-4.15667947380118
30
0
41
1
10
2.0015393840149
20
-4.07966662357416
30
0
41
1
10
1.99980848412102
20
-4.05321353706995
30
0
41
1
10
2.00021403730165
20
-4.00003830090375
30
0
41
1
10
2.00653305853422
20
-3.91962378469816
30
0
41
1
10
2.02972702098526
20
-3.83737956927308
30
0
41
1
10
2.07538091576708
20
-3.72630253252507
30
0
41
1
10
2.10569603379352
20
-3.67013816553012
30
0
41
1
10
2.17744003340942
20
-3.56075155949134
30
0
41
1
10
2.2190801443686
20
-3.50697171674957
30
0
41
1
10
2.31222026620787
20
-3.40109903553559
30
0
41
1
10
2.36324449869088
20
-3.34957687829751
30
0
41
1
10
2.52522167651549
20
-3.20041226481129
30
0
41
1
10
2.64575127433125
20
-3.10721532860293
30
0
41
1
10
2.90411123434836
20
-2.93002808465525
30
0
41
1
10
3.04119086351693
20
-2.84670717544191
30
0
41
1
10
3.25302515601493
20
-2.72909571494208
30
0
41
1
10
3.32482719638727
20
-2.69104398600243
30
0
41
1
10
3.4340855129993
20
-2.63550743362572
30
0
41
1
10
3.47078567224142
20
-2.61724268640148
30
0
41
1
10
3.52610079033192
20
-2.59026177479237
30
0
41
1
10
3.54459244791872
20
-2.58135164347806
30
0
41
1
10
3.57237010942541
20
-2.56803872732547
30
0
41
1
10
3.58166167072673
20
-2.56365738347475
30
0
41
1
10
3.60096868494401
20
-2.5562434742065
30
0
41
1
10
3.61101482016443
20
-2.55326879437243
30
0
41
1
10
3.64193145711903
20
-2.54579971549441
30
0
41
1
10
3.66378499559176
20
-2.54277681669532
30
0
41
1
10
3.70690191102278
20
-2.54010035519065
30
0
41
1
10
3.72844589709754
20
-2.54039453659377
30
0
41
1
10
3.79308377820809
20
-2.54060915105907
30
0
41
1
10
3.92235655922639
20
-2.54137469633238
30
0
41
1
10
4.05162043484785
20
-2.54314472647346
30
0
41
1
10
4.31013640170301
20
-2.5480125238945
30
0
41
1
10
4.48249021594484
20
-2.55302941789654
30
0
41
1
10
4.9988322269374
20
-2.57327325236548
30
0
41
1
10
5.34231830442957
20
-2.59368240782757
30
0
41
1
10
6.02784915682159
20
-2.64760537337355
30
0
41
1
10
6.36989566136276
20
-2.6811026957736
30
0
41
1
10
7.05258279425212
20
-2.76034733490962
30
0
41
1
10
7.39336720160827
20
-2.80613429531294
30
0
41
1
10
8.40834249393674
20
-2.95908638404535
30
0
41
1
10
9.07691573296063
20
-3.08217766193536
30
0
41
1
10
10.3996899782282
20
-3.3561980224832
30
0
41
1
10
11.0539150673495
20
-3.50698633828142
30
0
41
1
10
12.3509888313385
20
-3.81789603301962
30
0
41
1
10
12.993856431418
20
-3.97790430333276
30
0
41
1
10
13.6331014936185
20
-4.13252140482624
30
0
0
SPLINE
5
D2
100
AcDbEntity
8
1
62
256
6
ByLayer
370
18
48
1
60
0
100
AcDbSpline
70
4
71
3
72
10
73
6
40
0
40
0
40
0
40
0
40
0.5
40
0.5
40
1
40
1
40
1
40
1
41
1
10
55.4363271360199
20
-5.05673953619134
30
0
41
1
10
55.6710482108672
20
-4.40216294493496
30
0
41
1
10
55.9143252973306
20
-3.75314817764183
30
0
41
1
10
56.4154145519911
20
-2.46336235723487
30
0
41
1
10
56.6732215192432
20
-1.82260776866207
30
0
41
1
10
56.937583298069
20
-1.18523760068533
30
0
0
SPLINE
5
D3
100
AcDbEntity
8
1
62
256
6
ByLayer
370
18
48
1
60
0
100
AcDbSpline
70
4
71
3
72
18
73
14
40
0
40
0
40
0
40
0
40
0.249999999999996
40
0.249999999999996
40
0.374999999999997
40
0.374999999999997
40
0.499999999999997
40
0.499999999999997
40
0.624999999999998
40
0.624999999999998
40
0.749999999999998
40
0.749999999999998
40
1
40
1
40
1
40
1
41
1
10
3.99999954579837
20
-5.08472364321915
30
0
41
1
10
3.99999954579806
20
-5.05319383220217
30
0
41
1
10
4.00443166332064
20
-5.02110443034405
30
0
41
1
10
4.02072643075604
20
-4.9722395352953
30
0
41
1
10
4.02765903617356
20
-4.95628837553431
30
0
41
1
10
4.04531005272281
20
-4.92520727086992
30
0
41
1
10
4.05601002805889
20
-4.91024220063153
30
0
41
1
10
4.08081776242091
20
-4.88329820797824
30
0
41
1
10
4.09505385875914
20
-4.87125824727616
30
0
41
1
10
4.12521719315583
20
-4.85188779419406
30
0
41
1
10
4.1414292451183
20
-4.84436681548226
30
0
41
1
10
4.18966353663157
20
-4.82891606673042
30
0
41
1
10
4.22133381176064
20
-4.82757122890729
30
0
41
1
10
4.25068525967401
20
-4.83159126661772
30
0
0
SPLINE
5
D4
100
AcDbEntity
8
1
62
256
6
ByLayer
370
18
48
1
60
0
100
AcDbSpline
70
4
71
3
72
8
73
4
40
0
40
0
40
0
40
0
40
1
40
1
40
1
40
1
41
1
10
56.9893365413636
20
0.125104649785982
30
0
41
1
10
56.9899994040469
20
0.103187613003143
30
0
41
1
10
56.9940384108791
20
0.0763997019258511
30
0
41
1
10
56.9999579264872
20
0.0482005586316632
30
0
0
SPLINE
5
D5
100
AcDbEntity
8
1
62
256
6
ByLayer
370
18
48
1
60
0
100
AcDbSpline
70
4
71
3
72
22
73
18
40
0
40
0
40
0
40
0
40
0.146022834359815
40
0.146022834359815
40
0.29204566871963
40
0.29204566871963
40
0.438068503079445
40
0.438068503079445
40
0.584091337439259
40
0.584091337439259
40
0.657102754619166
40
0.657102754619166
40
0.730114171799072
40
0.730114171799072
40
0.876137006158885
40
0.876137006158885
40
1
40
1
40
1
40
1
41
1
10
13.6331014936185
20
3.20495761115001
30
0
41
1
10
13.2240104121501
20
3.34107994273293
30
0
41
1
10
12.8180022939246
20
3.47451608100297
30
0
41
1
10
12.0101495933698
20
3.73285709379266
30
0
41
1
10
11.60828477037
20
3.85723840000205
30
0
41
1
10
10.806479987276
20
4.09006158240967
30
0
41
1
10
10.4077742202132
20
4.19782697752888
30
0
41
1
10
9.61374134356964
20
4.39340951399041
30
0
41
1
10
9.2182712450541
20
4.48215572972669
30
0
41
1
10
8.6265895418411
20
4.59829646963334
30
0
41
1
10
8.42961971135432
20
4.63417699687693
30
0
41
1
10
8.03611520333519
20
4.70001222437628
30
0
41
1
10
7.83954516177474
20
4.72998057325998
30
0
41
1
10
7.25329896181751
20
4.80991008069171
30
0
41
1
10
6.86619168192502
20
4.84976919620985
30
0
41
1
10
6.15823500141235
20
4.89780610974535
30
0
41
1
10
5.83618867796264
20
4.91001877201396
30
0
41
1
10
5.51820816912178
20
4.90989763092787
30
0
0
SPLINE
5
D6
100
AcDbEntity
8
1
62
256
6
ByLayer
370
13
48
1
60
0
100
AcDbSpline
70
4
71
3
72
30
73
26
40
0
40
0
40
0
40
0
40
0.140389238650252
40
0.140389238650252
40
0.210583857975378
40
0.210583857975378
40
0.280778477300504
40
0.35097309662563
40
0.35097309662563
40
0.421167715950756
40
0.421167715950756
40
0.561556954601008
40
0.561556954601008
40
0.631751573926134
40
0.631751573926134
40
0.70194619325126
40
0.70194619325126
40
0.772140812576386
40
0.772140812576386
40
0.842335431901512
40
0.912530051226638
40
0.912530051226638
40
0.982724670551764
40
0.982724670551764
40
1
40
1
40
1
40
1
41
1
10
4.25024633316298
20
0.764723225862724
30
0
41
1
10
4.25027577373746
20
1.08886993801605
30
0
41
1
10
4.25029800520335
20
1.40434182544732
30
0
41
1
10
4.25032479656119
20
1.86462849562355
30
0
41
1
10
4.25033259142827
20
2.01533818280001
30
0
41
1
10
4.25034646016138
20
2.30702030111826
30
0
41
1
10
4.25035868595893
20
2.59028765574348
30
0
41
1
10
4.25036907976789
20
2.85693773713359
30
0
41
1
10
4.25037922563365
20
3.11513838194961
30
0
41
1
10
4.25038420306612
20
3.2406621333505
30
0
41
1
10
4.25039943178868
20
3.59750456213925
30
0
41
1
10
4.25041005872919
20
3.8102442110482
30
0
41
1
10
4.25042952309042
20
4.0923433684263
30
0
41
1
10
4.25043658625236
20
4.18016325291347
30
0
41
1
10
4.25045220757232
20
4.34293426367415
30
0
41
1
10
4.25046067796629
20
4.41693939785011
30
0
41
1
10
4.25047905792775
20
4.55006300682413
30
0
41
1
10
4.25048901696925
20
4.60942016379954
30
0
41
1
10
4.25051016685501
20
4.71190870837785
30
0
41
1
10
4.25053252404459
20
4.79829299380674
30
0
41
1
10
4.25055697935227
20
4.85322876056884
30
0
41
1
10
4.25058222066849
20
4.89235108843758
30
0
41
1
10
4.25059526153825
20
4.90401287712797
30
0
41
1
10
4.25061169462558
20
4.90832197295182
30
0
41
1
10
4.25061493955425
20
4.908679250821
30
0
41
1
10
4.25061817978596
20
4.90854499422403
30
0
0
SPLINE
5
D7
100
AcDbEntity
8
1
62
256
6
ByLayer
370
18
48
1
60
0
100
AcDbSpline
70
4
71
3
72
20
73
16
40
0
40
0
40
0
40
0
40
0.150596777389349
40
0.150596777389349
40
0.225895166084023
40
0.225895166084023
40
0.301193554778698
40
0.301193554778698
40
0.602387109557395
40
0.602387109557395
40
0.752983886946743
40
0.752983886946743
40
0.903580664336091
40
0.903580664336091
40
1
40
1
40
1
40
1
41
1
10
4.25068525979563
20
-4.83159126663438
30
0
41
1
10
4.60619767761401
20
-4.88028301534058
30
0
41
1
10
4.97406609129607
20
-4.90321285954391
30
0
41
1
10
5.53626419671289
20
-4.91136471765589
30
0
41
1
10
5.72548806404112
20
-4.90957323003724
30
0
41
1
10
6.10692316264189
20
-4.89806926057153
30
0
41
1
10
6.29935879737161
20
-4.88833670285987
30
0
41
1
10
7.26407617956733
20
-4.82233366182828
30
0
41
1
10
8.04481968193079
20
-4.71285795385421
30
0
41
1
10
9.22801518009049
20
-4.48005649885917
30
0
41
1
10
9.62491834059443
20
-4.39082243717755
30
0
41
1
10
10.4186113646095
20
-4.19498696344479
30
0
41
1
10
10.8160089297558
20
-4.08738745873524
30
0
41
1
10
11.4701403121122
20
-3.89729107753246
30
0
41
1
10
11.7260585460557
20
-3.81980617185215
30
0
41
1
10
11.9828372396417
20
-3.73985612515193
30
0
0
SPLINE
5
D8
100
AcDbEntity
8
1
62
256
6
ByLayer
370
13
48
1
60
0
100
AcDbSpline
70
4
71
3
72
10
73
6
40
0
40
0
40
0
40
0
40
0.5
40
0.5
40
1
40
1
40
1
40
1
41
1
10
3.99999954579584
20
0.966086834939915
30
0
41
1
10
3.99999954579584
20
0.932652210656443
30
0
41
1
10
4.01238564380878
20
0.898507458169178
30
0
41
1
10
4.05999102903087
20
0.840288315866076
30
0
41
1
10
4.09572040276103
20
0.815094975428337
30
0
41
1
10
4.14125374804735
20
0.798972394052043
30
0
0
SPLINE
5
D9
100
AcDbEntity
8
1
62
256
6
ByLayer
370
18
48
1
60
0
100
AcDbSpline
70
4
71
3
72
32
73
28
40
0
40
0
40
0
40
0
40
0.0624999999999993
40
0.0624999999999993
40
0.093749999999999
40
0.093749999999999
40
0.124999999999999
40
0.124999999999999
40
0.187499999999998
40
0.187499999999998
40
0.249999999999997
40
0.249999999999997
40
0.374999999999996
40
0.374999999999996
40
0.437499999999997
40
0.437499999999997
40
0.499999999999998
40
0.499999999999998
40
0.624999999999997
40
0.624999999999997
40
0.749999999999995
40
0.749999999999995
40
0.812499999999996
40
0.812499999999996
40
0.874999999999998
40
0.874999999999998
40
1
40
1
40
1
40
1
41
1
10
50.3123630798527
20
1.56700395680147
30
0
41
1
10
50.3136167731431
20
1.41263476848087
30
0
41
1
10
50.3257645947758
20
1.25670877981923
30
0
41
1
10
50.3599285142175
20
1.02054161528105
30
0
41
1
10
50.3739782874181
20
0.94143884869041
30
0
41
1
10
50.40739001332
20
0.782474190722041
30
0
41
1
10
50.4266828749575
20
0.703034661662628
30
0
41
1
10
50.4911556980905
20
0.467692234733818
30
0
41
1
10
50.5431390303696
20
0.313563266718035
30
0
41
1
10
50.6629821176298
20
0.01018386899446
30
0
41
1
10
50.731128721219
20
-0.139592337741192
30
0
41
1
10
50.9558418837767
20
-0.578644383509641
30
0
41
1
10
51.1288859652755
20
-0.851026834861329
30
0
41
1
10
51.4139542250976
20
-1.23729929100091
30
0
41
1
10
51.5132682478366
20
-1.36230412827624
30
0
41
1
10
51.7196105054064
20
-1.60556784487196
30
0
41
1
10
51.82600577939
20
-1.72304164522902
30
0
41
1
10
52.1509037204033
20
-2.06171256501531
30
0
41
1
10
52.3762245322114
20
-2.27066061940124
30
0
41
1
10
52.8406999034676
20
-2.66185958922094
30
0
41
1
10
53.079889719482
20
-2.84404246456367
30
0
41
1
10
53.4476072745684
20
-3.10007770119933
30
0
41
1
10
53.5717361380659
20
-3.18255288201931
30
0
41
1
10
53.8209636970236
20
-3.34090217532301
30
0
41
1
10
53.9462952343837
20
-3.41694652733901
30
0
41
1
10
54.3243054676573
20
-3.63628903106655
30
0
41
1
10
54.5789920888372
20
-3.77083019402897
30
0
41
1
10
54.8361273592695
20
-3.8946922772906
30
0
0
SPLINE
5
DA
100
AcDbEntity
8
1
62
256
6
ByLayer
370
18
48
1
60
0
100
AcDbSpline
70
4
71
3
72
16
73
12
40
0
40
0
40
0
40
0
40
0.109433295855318
40
0.109433295855318
40
0.218866591710637
40
0.218866591710637
40
0.437733183421278
40
0.437733183421278
40
0.875466366842561
40
0.875466366842561
40
1
40
1
40
1
40
1
41
1
10
55.2467033736169
20
-4.93634389350927
30
0
41
1
10
54.9795072076356
20
-4.94109904182375
30
0
41
1
10
54.7123520425135
20
-4.94090166323525
30
0
41
1
10
54.1778520943543
20
-4.93066799334827
30
0
41
1
10
53.9103646802561
20
-4.92061318152963
30
0
41
1
10
53.1105637049692
20
-4.87601180180218
30
0
41
1
10
52.5798650141422
20
-4.82704984461057
30
0
41
1
10
50.9919850673915
20
-4.62529882520485
30
0
41
1
10
49.938728644668
20
-4.41743708822307
30
0
41
1
10
48.5818969460441
20
-4.06647517033574
30
0
41
1
10
48.2810947081854
20
-3.98352169152284
30
0
41
1
10
47.9798027545211
20
-3.89554739691849
30
0
0
SPLINE
5
DB
100
AcDbEntity
8
1
62
256
6
ByLayer
370
13
48
1
60
0
100
AcDbSpline
70
4
71
3
72
26
73
22
40
0
40
0
40
0
40
0
40
0.0501724319081049
40
0.0501724319081049
40
0.108376237135633
40
0.108376237135633
40
0.166580042363162
40
0.166580042363162
40
0.399395263273275
40
0.399395263273275
40
0.632210484183388
40
0.632210484183388
40
0.690414289410915
40
0.690414289410915
40
0.748618094638441
40
0.748618094638441
40
0.865025705093494
40
0.865025705093494
40
0.981433315548547
40
0.981433315548547
40
1
40
1
40
1
40
1
41
1
10
47.9798024351131
20
-3.89554730365447
30
0
41
1
10
47.7515769555342
20
-3.82890770004309
30
0
41
1
10
47.5230704817433
20
-3.75938720116247
30
0
41
1
10
47.0286795779956
20
-3.60318239026682
30
0
41
1
10
46.7626836157817
20
-3.51551157307938
30
0
41
1
10
46.2294443888214
20
-3.33296820147473
30
0
41
1
10
45.9617543250785
20
-3.2379254156107
30
0
41
1
10
44.6276202702751
20
-2.74866108946242
30
0
41
1
10
43.5704370082653
20
-2.31203710206475
30
0
41
1
10
41.4593850581121
20
-1.38218364544249
30
0
41
1
10
40.4051741864087
20
-0.88960530434781
30
0
41
1
10
39.0781149004317
20
-0.262082396647571
30
0
41
1
10
38.81222329772
20
-0.136018682470279
30
0
41
1
10
38.2792259305376
20
0.116709408456927
30
0
41
1
10
38.0117837905943
20
0.243551304198405
30
0
41
1
10
37.209960787521
20
0.622793814181335
30
0
41
1
10
36.6766870444421
20
0.873461076378845
30
0
41
1
10
35.6104117506405
20
1.36572117862315
30
0
41
1
10
35.0773824698411
20
1.60726708624358
30
0
41
1
10
34.4582024884125
20
1.87941069900961
30
0
41
1
10
34.372995773707
20
1.91667024325989
30
0
41
1
10
34.2877675913052
20
1.95373882141612
30
0
0
SPLINE
5
DC
100
AcDbEntity
8
1
62
256
6
ByLayer
370
18
48
1
60
0
100
AcDbSpline
70
4
71
3
72
14
73
10
40
0
40
0
40
0
40
0
40
0.25
40
0.25
40
0.5
40
0.5
40
0.75
40
0.75
40
1
40
1
40
1
40
1
41
1
10
55.2467033735757
20
-4.93634389351001
30
0
41
1
10
55.2500734252337
20
-4.93582180563806
30
0
41
1
10
55.2527823321291
20
-4.93703251823021
30
0
41
1
10
55.2564781498514
20
-4.94394710658113
30
0
41
1
10
55.257407269708
20
-4.94975157635113
30
0
41
1
10
55.2563672281756
20
-4.96680003050807
30
0
41
1
10
55.2543368306569
20
-4.9780311631317
30
0
41
1
10
55.247504041333
20
-5.00324419200339
30
0
41
1
10
55.2427432240254
20
-5.01710527060152
30
0
41
1
10
55.2374718560582
20
-5.03030311918911
30
0
0
SPLINE
5
DD
100
AcDbEntity
8
1
62
256
6
ByLayer
370
18
48
1
60
0
100
AcDbSpline
70
4
71
3
72
12
73
8
40
0
40
0
40
0
40
0
40
0.5
40
0.5
40
0.75
40
0.75
40
1
40
1
40
1
40
1
41
1
10
55.4363271360174
20
5.05673953619831
30
0
41
1
10
55.6696488822551
20
4.4060653118338
30
0
41
1
10
55.9124894946443
20
3.75796964893493
30
0
41
1
10
56.2887101135146
20
2.78944740910981
30
0
41
1
10
56.4162152929853
20
2.46701241702314
30
0
41
1
10
56.674521509152
20
1.82432545113883
30
0
41
1
10
56.8052762673206
20
1.50422680853188
30
0
41
1
10
56.9375832980689
20
1.18523760068536
30
0
0
SPLINE
5
DE
100
AcDbEntity
8
1
62
256
6
ByLayer
370
18
48
1
60
0
100
AcDbSpline
70
4
71
3
72
20
73
16
40
0
40
0
40
0
40
0
40
0.194779995069625
40
0.194779995069625
40
0.389559990139249
40
0.389559990139249
40
0.584339985208874
40
0.584339985208874
40
0.779119980278499
40
0.779119980278499
40
0.876509977813309
40
0.876509977813309
40
0.973899975348119
40
0.973899975348119
40
1
40
1
40
1
40
1
41
1
10
13.6331014936185
20
-4.13252140482624
30
0
41
1
10
14.0719680305423
20
-4.26544478962432
30
0
41
1
10
14.5100306748519
20
-4.38494629558008
30
0
41
1
10
15.3830974326932
20
-4.60035833376617
30
0
41
1
10
15.8172676294212
20
-4.69685358259838
30
0
41
1
10
16.6858509087301
20
-4.86303504720524
30
0
41
1
10
17.1199825974548
20
-4.93322255961567
30
0
41
1
10
17.986296152391
20
-5.04866484976426
30
0
41
1
10
18.4198187067897
20
-5.09307940320474
30
0
41
1
10
19.0714142576441
20
-5.1396678730888
30
0
41
1
10
19.2887590751362
20
-5.15188777562099
30
0
41
1
10
19.7234289325789
20
-5.16963856908003
30
0
41
1
10
19.9409018384368
20
-5.1751188702253
30
0
41
1
10
20.217382288972
20
-5.17770429171622
30
0
41
1
10
20.2758528801482
20
-5.17800731732166
30
0
41
1
10
20.3343570184029
20
-5.1780657551102
30
0
0
SPLINE
5
DF
100
AcDbEntity
8
1
62
256
6
ByLayer
370
18
48
1
60
0
100
AcDbSpline
70
4
71
3
72
34
73
30
40
0
40
0
40
0
40
0
40
0.0107580161119635
40
0.0107580161119635
40
0.0725856401049653
40
0.0725856401049653
40
0.134413264097967
40
0.134413264097967
40
0.25806851208397
40
0.25806851208397
40
0.319896136076974
40
0.319896136076974
40
0.381723760069977
40
0.381723760069977
40
0.44355138406298
40
0.44355138406298
40
0.505379008055983
40
0.505379008055983
40
0.629034256041987
40
0.629034256041987
40
0.690861880034989
40
0.690861880034989
40
0.75268950402799
40
0.75268950402799
40
0.814517128020992
40
0.814517128020992
40
0.876344752013994
40
0.876344752013994
40
1
40
1
40
1
40
1
41
1
10
44.8616261108404
20
3.68417780870871
30
0
41
1
10
44.8997569193672
20
3.69758434719412
30
0
41
1
10
44.9379024673235
20
3.710920550163
30
0
41
1
10
45.1953720926945
20
3.80043066786769
30
0
41
1
10
45.4154025057392
20
3.87442536337778
30
0
41
1
10
45.8535341174535
20
4.01725588499815
30
0
41
1
10
46.0718850068405
20
4.0862025995595
30
0
41
1
10
46.7265361864122
20
4.28341095314863
30
0
41
1
10
47.1621575982637
20
4.40260198564977
30
0
41
1
10
47.8132902534486
20
4.56456165293761
30
0
41
1
10
48.0298280548093
20
4.61582069500699
30
0
41
1
10
48.4631006823378
20
4.71172068072747
30
0
41
1
10
48.6797853106032
20
4.75643425935513
30
0
41
1
10
49.1131279747515
20
4.83958533130331
30
0
41
1
10
49.3297866773044
20
4.87802403231427
30
0
41
1
10
49.762863925698
20
4.94874160159071
30
0
41
1
10
49.9791311144503
20
4.98109486149673
30
0
41
1
10
50.6287869222891
20
5.06802887094659
30
0
41
1
10
51.0631686930039
20
5.11258503122252
30
0
41
1
10
51.7157380406253
20
5.15967429000219
30
0
41
1
10
51.9332639300441
20
5.17208762387483
30
0
41
1
10
52.36923282244
20
5.18999595893044
30
0
41
1
10
52.5877751278141
20
5.19549455496164
30
0
41
1
10
53.0259144879624
20
5.19961169304057
30
0
41
1
10
53.2457620304465
20
5.19822515266355
30
0
41
1
10
53.6847672814636
20
5.18850295565855
30
0
41
1
10
53.9037743757889
20
5.18014405065685
30
0
41
1
10
54.5604351602972
20
5.14466388780687
30
0
41
1
10
54.998484129164
20
5.10745071087885
30
0
41
1
10
55.436327136024
20
5.05673953617966
30
0
0
SPLINE
5
E0
100
AcDbEntity
8
1
62
256
6
ByLayer
370
18
48
1
60
0
100
AcDbSpline
70
4
71
1
72
4
73
2
40
0
40
0
40
1
40
1
41
1
10
3.99999954579584
20
-5.07547115865799
30
0
41
1
10
3.99999954579584
20
-5.09059377449739
30
0
0
SPLINE
5
E1
100
AcDbEntity
8
1
62
256
6
ByLayer
370
18
48
1
60
0
100
AcDbSpline
70
4
71
2
72
6
73
3
40
0
40
0
40
0
40
1
40
1
40
1
41
1
10
5.52368442499784
20
4.90980671004181
30
0
41
1
10
4.88715805444136
20
4.91009778439999
30
0
41
1
10
4.25059669489042
20
4.90827936866722
30
0
0
SPLINE
5
E2
100
AcDbEntity
8
1
62
256
6
ByLayer
370
18
48
1
60
0
100
AcDbSpline
70
4
71
3
72
27
73
23
40
0
40
0
40
0
40
0
40
0.0515032187709717
40
0.105033839568558
40
0.152891808182335
40
0.200747303521304
40
0.242391354723787
40
0.277377765942363
40
0.305958344764248
40
0.340185824600545
40
0.386546290465665
40
0.444924086831765
40
0.486510564127545
40
0.522241261547547
40
0.573577669211543
40
0.659854400100561
40
0.733125163505384
40
0.794569598731201
40
0.857274763093738
40
0.946184485406815
40
0.9898730365696
40
1
40
1
40
1
40
1
41
1
10
37.4972525054352
20
4.92452825754773
30
0
41
1
10
37.2850390899871
20
4.92426837599658
30
0
41
1
10
36.8525311373277
20
4.92412170297098
30
0
41
1
10
36.2246655533422
20
4.92596529945533
30
0
41
1
10
35.6108733891436
20
4.92713771274697
30
0
41
1
10
35.0454034811617
20
4.92553289481407
30
0
41
1
10
34.5328629140974
20
4.92500886934181
30
0
41
1
10
34.0996974480428
20
4.92473011937628
30
0
41
1
10
33.6970610689947
20
4.92397949778214
30
0
41
1
10
33.2475972411967
20
4.92259667207281
30
0
41
1
10
32.6754506758164
20
4.92281203723942
30
0
41
1
10
32.0730069516044
20
4.92340032515645
30
0
41
1
10
31.5143278994433
20
4.92398829840738
30
0
41
1
10
30.9846382413004
20
4.92491283382285
30
0
41
1
10
30.2709594001652
20
4.92215878239472
30
0
41
1
10
29.4027118575369
20
4.92148476094863
30
0
41
1
10
28.492853362253
20
4.92247264049834
30
0
41
1
10
27.6800358707052
20
4.92270653258731
30
0
41
1
10
26.8028483259262
20
4.92015869297799
30
0
41
1
10
25.9988452246226
20
4.92083778678412
30
0
41
1
10
25.4110319008229
20
4.92095233801516
30
0
41
1
10
25.1896737337855
20
4.92090503260178
30
0
41
1
10
25.1480202273179
20
4.9208940277872
30
0
0
SPLINE
5
E3
100
AcDbEntity
8
1
62
256
6
ByLayer
370
18
48
1
60
0
100
AcDbSpline
70
4
71
2
72
6
73
3
40
0
40
0
40
0
40
1
40
1
40
1
41
1
10
4.25059669489062
20
-4.90827936866725
30
0
41
1
10
4.88702127267729
20
-4.91009754451969
30
0
41
1
10
5.52341086898792
20
-4.90980668356818
30
0
0
SPLINE
5
E4
100
AcDbEntity
8
1
62
256
6
ByLayer
370
18
48
1
60
0
100
AcDbSpline
70
4
71
3
72
31
73
27
40
0
40
0
40
0
40
0
40
0.0500508919720873
40
0.0995562647615008
40
0.146286299441943
40
0.182669054708728
40
0.217241440596111
40
0.268297922915916
40
0.316355123215779
40
0.355635119541411
40
0.393765636373812
40
0.435384096409225
40
0.484832949118408
40
0.539784095670088
40
0.576198144109452
40
0.602925338292188
40
0.62791240081461
40
0.66316406267652
40
0.705432502737999
40
0.739436663962871
40
0.763811921667882
40
0.812232416270362
40
0.877327299976017
40
0.915727339440599
40
0.958678973426213
40
1
40
1
40
1
40
1
41
1
10
22.1216682541183
20
-4.91916734905013
30
0
41
1
10
22.3743697812833
20
-4.9185657241612
30
0
41
1
10
22.8784346917205
20
-4.91792705230318
30
0
41
1
10
23.6343581313132
20
-4.91872803460151
30
0
41
1
10
24.3036827789544
20
-4.92069225009936
30
0
41
1
10
24.9088917236728
20
-4.92081019329689
30
0
41
1
10
25.5340317627633
20
-4.92097840705338
30
0
41
1
10
26.220348043609
20
-4.92072772460639
30
0
41
1
10
26.9303920066124
20
-4.9205421954901
30
0
41
1
10
27.5741831051565
20
-4.92232810937864
30
0
41
1
10
28.18495139171
20
-4.92264708084193
30
0
41
1
10
28.8478907783864
20
-4.92212783958456
30
0
41
1
10
29.5971467175438
20
-4.92146029358202
30
0
41
1
10
30.3196958676967
20
-4.9223606451751
30
0
41
1
10
30.9256485322735
20
-4.92482294003466
30
0
41
1
10
31.3778555794831
20
-4.92418915422127
30
0
41
1
10
31.8240974843638
20
-4.92368889853154
30
0
41
1
10
32.3500851684251
20
-4.92309080945765
30
0
41
1
10
32.922342415497
20
-4.92258591033519
30
0
41
1
10
33.4387881506568
20
-4.92308401775546
30
0
41
1
10
33.9868076442299
20
-4.92479329337431
30
0
41
1
10
34.6943021067257
20
-4.92470815140993
30
0
41
1
10
35.4740397369372
20
-4.92726404240952
30
0
41
1
10
36.2246645468519
20
-4.92599723282808
30
0
41
1
10
36.852511600372
20
-4.92411257031677
30
0
41
1
10
37.2849993969981
20
-4.92426840573745
30
0
41
1
10
37.4971929270653
20
-4.92452825155945
30
0
0
SPLINE
5
E5
100
AcDbEntity
8
1
62
256
6
ByLayer
370
18
48
1
60
0
100
AcDbSpline
70
4
71
2
72
6
73
3
40
0
40
0
40
0
40
1
40
1
40
1
41
1
10
54.8167183491239
20
-4.93963142595004
30
0
41
1
10
54.9998330898338
20
-4.93984410031601
30
0
41
1
10
55.1811566586749
20
-4.93868941493972
30
0
0
SPLINE
5
E6
100
AcDbEntity
8
1
62
256
6
ByLayer
370
18
48
1
60
0
100
AcDbSpline
70
4
71
1
72
4
73
2
40
0
40
0
40
1
40
1
41
1
10
5.63914634168705
20
0.00327891926392
30
0
41
1
10
5.63913127938667
20
0.0032860939704165
30
0
0
LINE
5
7B
100
AcDbEntity
8
SK1
62
256
6
ByLayer
370
18
48
1
60
0
100
AcDbLine
10
-43.255
20
6
30
0
11
-43.255
21
-6
31
0
39
0
210
0
220
0
230
1
0
LINE
5
7D
100
AcDbEntity
8
SK1
62
256
6
ByLayer
370
18
48
1
60
0
100
AcDbLine
10
0
20
-6
30
0
11
0
21
6
31
0
39
0
210
0
220
0
230
1
0
LINE
5
7E
100
AcDbEntity
8
SK1
62
256
6
ByLayer
370
18
48
1
60
0
100
AcDbLine
10
-45
20
4.255
30
0
11
-45
21
-4.255
31
0
39
0
210
0
220
0
230
1
0
LINE
5
7F
100
AcDbEntity
8
1
62
256
6
ByLayer
370
13
48
1
60
0
100
AcDbLine
10
1.405096
20
5.166231
30
0
11
1.405096
21
-5.166231
31
0
39
0
210
0
220
0
230
1
0
LINE
5
80
100
AcDbEntity
8
1
62
256
6
ByLayer
370
13
48
1
60
0
100
AcDbLine
10
55.219005
20
1.245767
30
0
11
56.989337
21
0.125105
31
0
39
0
210
0
220
0
230
1
0
LINE
5
81
100
AcDbEntity
8
1
62
256
6
ByLayer
370
18
48
1
60
0
100
AcDbLine
10
4
20
0.967493
30
0
11
4
21
5.167852
31
0
39
0
210
0
220
0
230
1
0
LINE
5
82
100
AcDbEntity
8
1
62
256
6
ByLayer
370
13
48
1
60
0
100
AcDbLine
10
0.702298
20
5.583115
30
0
11
0.702298
21
-5.583115
31
0
39
0
210
0
220
0
230
1
0
LINE
5
83
100
AcDbEntity
8
1
62
256
6
ByLayer
370
18
48
1
60
0
100
AcDbLine
10
0
20
-6
30
0
11
0
21
6
31
0
39
0
210
0
220
0
230
1
0
LINE
5
84
100
AcDbEntity
8
1
62
256
6
ByLayer
370
13
48
1
60
0
100
AcDbLine
10
55.084379
20
1.149176
30
0
11
56.964408
21
-0.040927
31
0
39
0
210
0
220
0
230
1
0
LINE
5
85
100
AcDbEntity
8
80
62
256
6
ByLayer
370
18
48
1
60
0
100
AcDbLine
10
0
20
0
30
0
11
-5
21
0
31
0
39
0
210
0
220
0
230
1
0
LINE
5
86
100
AcDbEntity
8
4
62
256
6
ByLayer
370
18
48
0.05
60
0
100
AcDbLine
10
57
20
0
30
0
11
0
21
0
31
0
39
0
210
0
220
0
230
1
0
LINE
5
88
100
AcDbEntity
8
SK4
62
256
6
ByLayer
370
18
48
0.05
60
0
100
AcDbLine
10
62
20
0
30
0
11
-50
21
0
31
0
39
0
210
0
220
0
230
1
0
LINE
5
8A
100
AcDbEntity
8
SK1
62
256
6
ByLayer
370
18
48
1
60
0
100
AcDbLine
10
-43.255
20
-6
30
0
11
0
21
-6
31
0
39
0
210
0
220
0
230
1
0
LINE
5
8B
100
AcDbEntity
8
SK1
62
256
6
ByLayer
370
18
48
1
60
0
100
AcDbLine
10
0
20
6
30
0
11
-43.255
21
6
31
0
39
0
210
0
220
0
230
1
0
LINE
5
8C
100
AcDbEntity
8
SK1
62
256
6
ByLayer
370
18
48
1
60
0
100
AcDbLine
10
-45
20
-4.255
30
0
11
-43.255
21
-6
31
0
39
0
210
0
220
0
230
1
0
LINE
5
8D
100
AcDbEntity
8
SK1
62
256
6
ByLayer
370
18
48
1
60
0
100
AcDbLine
10
-43.255
20
6
30
0
11
-45
21
4.255
31
0
39
0
210
0
220
0
230
1
0
LINE
5
8E
100
AcDbEntity
8
1
62
256
6
ByLayer
370
18
48
1
60
0
100
AcDbLine
10
20.342658
20
-5.178067
30
0
11
21.971184
21
-5.179084
31
0
39
0
210
0
220
0
230
1
0
LINE
5
8F
100
AcDbEntity
8
1
62
256
6
ByLayer
370
18
48
1
60
0
100
AcDbLine
10
21.971394
20
5.179085
30
0
11
20.342658
21
5.178067
31
0
39
0
210
0
220
0
230
1
0
LINE
5
90
100
AcDbEntity
8
1
62
256
6
ByLayer
370
18
48
1
60
0
100
AcDbLine
10
1.405096
20
-5.166231
30
0
11
4
21
-5.167852
31
0
39
0
210
0
220
0
230
1
0
LINE
5
91
100
AcDbEntity
8
1
62
256
6
ByLayer
370
18
48
1
60
0
100
AcDbLine
10
52.991356
20
-5.198472
30
0
11
54.621512
21
-5.199491
31
0
39
0
210
0
220
0
230
1
0
LINE
5
92
100
AcDbEntity
8
1
62
256
6
ByLayer
370
18
48
1
60
0
100
AcDbLine
10
54.62145
20
5.199491
30
0
11
52.991356
21
5.198472
31
0
39
0
210
0
220
0
230
1
0
LINE
5
93
100
AcDbEntity
8
1
62
256
6
ByLayer
370
18
48
1
60
0
100
AcDbLine
10
4
20
5.167852
30
0
11
1.405096
21
5.166231
31
0
39
0
210
0
220
0
230
1
0
LINE
5
94
100
AcDbEntity
8
81
62
256
6
ByLayer
370
18
48
1
60
0
100
AcDbLine
10
57
20
0
30
0
11
62
21
0
31
0
39
0
210
0
220
0
230
1
0
LINE
5
95
100
AcDbEntity
8
SK2
62
256
6
ByLayer
370
13
48
1
60
0
100
AcDbLine
10
-53.625163
20
-6
30
0
11
-53.625163
21
36.857173
31
0
39
0
210
0
220
0
230
1
0
LINE
5
97
100
AcDbEntity
8
SK2
62
256
6
ByLayer
370
13
48
1
60
0
100
AcDbLine
10
-46.5875
20
6
30
0
11
-55.625163
21
6
31
0
39
0
210
0
220
0
230
1
0
LINE
5
98
100
AcDbEntity
8
SK2
62
256
6
ByLayer
370
13
48
1
60
0
100
AcDbLine
10
-46.5875
20
-6
30
0
11
-55.625163
21
-6
31
0
39
0
210
0
220
0
230
1
0
LINE
5
99
100
AcDbEntity
8
1
62
256
6
ByLayer
370
18
48
1
60
1
100
AcDbLine
10
-53.625163
20
6
30
0
11
-53.164379
21
2.500002
31
0
39
0
210
0
220
0
230
1
0
LINE
5
9A
100
AcDbEntity
8
1
62
256
6
ByLayer
370
18
48
1
60
1
100
AcDbLine
10
-53.164379
20
2.500002
30
0
11
-54.085946
21
2.499998
31
0
39
0
210
0
220
0
230
1
0
LINE
5
9B
100
AcDbEntity
8
1
62
256
6
ByLayer
370
18
48
1
60
1
100
AcDbLine
10
-54.085946
20
2.499998
30
0
11
-53.625163
21
6
31
0
39
0
210
0
220
0
230
1
0
LINE
5
9C
100
AcDbEntity
8
1
62
256
6
ByLayer
370
18
48
1
60
1
100
AcDbLine
10
-53.625163
20
-6
30
0
11
-54.085946
21
-2.500002
31
0
39
0
210
0
220
0
230
1
0
LINE
5
9D
100
AcDbEntity
8
1
62
256
6
ByLayer
370
18
48
1
60
1
100
AcDbLine
10
-54.085946
20
-2.500002
30
0
11
-53.164379
21
-2.499998
31
0
39
0
210
0
220
0
230
1
0
LINE
5
9E
100
AcDbEntity
8
1
62
256
6
ByLayer
370
18
48
1
60
1
100
AcDbLine
10
-53.164379
20
-2.499998
30
0
11
-53.625163
21
-6
31
0
39
0
210
0
220
0
230
1
0
LINE
5
9F
100
AcDbEntity
8
2
62
256
6
ByLayer
370
13
48
1
60
0
100
AcDbLine
10
69.083343
20
-5.2
30
0
11
69.083343
21
35.018792
31
0
39
0
210
0
220
0
230
1
0
LINE
5
A1
100
AcDbEntity
8
2
62
256
6
ByLayer
370
13
48
1
60
0
100
AcDbLine
10
57.0432
20
5.2
30
0
11
71.083343
21
5.2
31
0
39
0
210
0
220
0
230
1
0
LINE
5
A2
100
AcDbEntity
8
2
62
256
6
ByLayer
370
13
48
1
60
0
100
AcDbLine
10
57.0432
20
-5.2
30
0
11
71.083343
21
-5.2
31
0
39
0
210
0
220
0
230
1
0
LINE
5
A3
100
AcDbEntity
8
1
62
256
6
ByLayer
370
18
48
1
60
1
100
AcDbLine
10
69.083343
20
5.2
30
0
11
69.544126
21
1.700002
31
0
39
0
210
0
220
0
230
1
0
LINE
5
A4
100
AcDbEntity
8
1
62
256
6
ByLayer
370
18
48
1
60
1
100
AcDbLine
10
69.544126
20
1.700002
30
0
11
68.622559
21
1.699998
31
0
39
0
210
0
220
0
230
1
0
LINE
5
A5
100
AcDbEntity
8
1
62
256
6
ByLayer
370
18
48
1
60
1
100
AcDbLine
10
68.622559
20
1.699998
30
0
11
69.083343
21
5.2
31
0
39
0
210
0
220
0
230
1
0
LINE
5
A6
100
AcDbEntity
8
1
62
256
6
ByLayer
370
18
48
1
60
1
100
AcDbLine
10
69.083343
20
-5.2
30
0
11
68.622559
21
-1.700002
31
0
39
0
210
0
220
0
230
1
0
LINE
5
A7
100
AcDbEntity
8
1
62
256
6
ByLayer
370
18
48
1
60
1
100
AcDbLine
10
68.622559
20
-1.700002
30
0
11
69.544126
21
-1.699998
31
0
39
0
210
0
220
0
230
1
0
LINE
5
A8
100
AcDbEntity
8
1
62
256
6
ByLayer
370
18
48
1
60
1
100
AcDbLine
10
69.544126
20
-1.699998
30
0
11
69.083343
21
-5.2
31
0
39
0
210
0
220
0
230
1
0
LINE
5
ED
100
AcDbEntity
8
1
62
256
6
ByLayer
370
18
48
1
60
1
100
AcDbLine
10
-53.625163
20
6
30
0
11
-53.164379
21
2.500002
31
0
39
0
210
0
220
0
230
1
0
LINE
5
EE
100
AcDbEntity
8
1
62
256
6
ByLayer
370
18
48
1
60
1
100
AcDbLine
10
-53.164379
20
2.500002
30
0
11
-54.085946
21
2.499998
31
0
39
0
210
0
220
0
230
1
0
LINE
5
EF
100
AcDbEntity
8
1
62
256
6
ByLayer
370
18
48
1
60
1
100
AcDbLine
10
-54.085946
20
2.499998
30
0
11
-53.625163
21
6
31
0
39
0
210
0
220
0
230
1
0
LINE
5
F1
100
AcDbEntity
8
1
62
256
6
ByLayer
370
18
48
1
60
1
100
AcDbLine
10
-53.625163
20
-6
30
0
11
-54.085946
21
-2.500002
31
0
39
0
210
0
220
0
230
1
0
LINE
5
F2
100
AcDbEntity
8
1
62
256
6
ByLayer
370
18
48
1
60
1
100
AcDbLine
10
-54.085946
20
-2.500002
30
0
11
-53.164379
21
-2.499998
31
0
39
0
210
0
220
0
230
1
0
LINE
5
F3
100
AcDbEntity
8
1
62
256
6
ByLayer
370
18
48
1
60
1
100
AcDbLine
10
-53.164379
20
-2.499998
30
0
11
-53.625163
21
-6
31
0
39
0
210
0
220
0
230
1
0
LINE
5
F7
100
AcDbEntity
8
1
62
256
6
ByLayer
370
18
48
1
60
1
100
AcDbLine
10
69.083343
20
5.2
30
0
11
69.544126
21
1.700002
31
0
39
0
210
0
220
0
230
1
0
LINE
5
F8
100
AcDbEntity
8
1
62
256
6
ByLayer
370
18
48
1
60
1
100
AcDbLine
10
69.544126
20
1.700002
30
0
11
68.622559
21
1.699998
31
0
39
0
210
0
220
0
230
1
0
LINE
5
F9
100
AcDbEntity
8
1
62
256
6
ByLayer
370
18
48
1
60
1
100
AcDbLine
10
68.622559
20
1.699998
30
0
11
69.083343
21
5.2
31
0
39
0
210
0
220
0
230
1
0
LINE
5
FB
100
AcDbEntity
8
1
62
256
6
ByLayer
370
18
48
1
60
1
100
AcDbLine
10
69.083343
20
-5.2
30
0
11
68.622559
21
-1.700002
31
0
39
0
210
0
220
0
230
1
0
LINE
5
FC
100
AcDbEntity
8
1
62
256
6
ByLayer
370
18
48
1
60
1
100
AcDbLine
10
68.622559
20
-1.700002
30
0
11
69.544126
21
-1.699998
31
0
39
0
210
0
220
0
230
1
0
LINE
5
FD
100
AcDbEntity
8
1
62
256
6
ByLayer
370
18
48
1
60
1
100
AcDbLine
10
69.544126
20
-1.699998
30
0
11
69.083343
21
-5.2
31
0
39
0
210
0
220
0
230
1
0
MTEXT
5
E7
100
AcDbEntity
8
SK6
62
256
6
ByLayer
370
13
48
1
60
0
100
AcDbMText
10
-22.892027
20
37.740328
30
0
210
0
220
0
230
1
1
\W0.7610;462.1-1040-031A0-XM X2BM
40
3.5
41
0
44
1.084337
50
0
71
7
72
5
7
iso_b_vert
0
MTEXT
5
EB
100
AcDbEntity
8
SK2
62
256
6
ByLayer
370
18
48
1
60
0
100
AcDbMText
10
-55.189796
20
19.409024
30
0
210
0
220
0
230
1
1
%%c
40
3.5
41
0
44
1.084337
50
90
71
7
72
5
7
iso_b_vert
0
MTEXT
5
EC
100
AcDbEntity
8
SK2
62
256
6
ByLayer
370
18
48
1
60
0
100
AcDbMText
10
-55.189796
20
24.63168
30
0
210
0
220
0
230
1
1
\W0.6930;12,000
40
3.5
41
0
44
1.084337
50
90
71
7
72
5
7
iso_b_vert
0
MTEXT
5
F5
100
AcDbEntity
8
2
62
256
6
ByLayer
370
18
48
1
60
0
100
AcDbMText
10
67.518709
20
17.20211
30
0
210
0
220
0
230
1
1
%%c
40
3.5
41
0
44
1.084337
50
90
71
7
72
5
7
iso_b_vert
0
MTEXT
5
F6
100
AcDbEntity
8
2
62
256
6
ByLayer
370
18
48
1
60
0
100
AcDbMText
10
67.518709
20
22.424766
30
0
210
0
220
0
230
1
1
\W0.7145;10,400
40
3.5
41
0
44
1.084337
50
90
71
7
72
5
7
iso_b_vert
0
HATCH
5
F0
100
AcDbEntity
8
SK2
62
256
6
ByLayer
370
13
48
1
60
0
100
AcDbHatch
10
0
20
0
30
0
210
0
220
0
230
1
2
ANSI31
70
0
71
0
91
1
92
5
93
3
72
1
10
-53.6251625675374
20
6
11
-53.1643788259847
21
2.50000169255318
72
1
10
-53.1643788259847
20
2.50000169255318
11
-54.0859463090902
21
2.49999830744682
72
1
10
-54.0859463090902
20
2.49999830744682
11
-53.6251625675374
21
6
97
0
75
0
76
1
52
0
41
0.0062
77
0
78
1
53
45
43
0
44
0
45
-0.0139193969876572
46
0.0139193969876572
79
0
47
0
98
1
10
0
20
0
0
HATCH
5
F4
100
AcDbEntity
8
SK2
62
256
6
ByLayer
370
13
48
1
60
0
100
AcDbHatch
10
0
20
0
30
0
210
0
220
0
230
1
2
ANSI31
70
0
71
0
91
1
92
5
93
3
72
1
10
-53.6251625675374
20
-6
11
-54.0859463090902
21
-2.50000169255318
72
1
10
-54.0859463090902
20
-2.50000169255318
11
-53.1643788259847
21
-2.49999830744682
72
1
10
-53.1643788259847
20
-2.49999830744682
11
-53.6251625675374
21
-6
97
0
75
0
76
1
52
0
41
0.0062
77
0
78
1
53
45
43
0
44
0
45
-0.0139193969876572
46
0.0139193969876572
79
0
47
0
98
1
10
0
20
0
0
HATCH
5
FA
100
AcDbEntity
8
2
62
256
6
ByLayer
370
13
48
1
60
0
100
AcDbHatch
10
0
20
0
30
0
210
0
220
0
230
1
2
ANSI31
70
0
71
0
91
1
92
5
93
3
72
1
10
69.083342615295
20
5.20000000000002
11
69.5441263568477
21
1.7000016925532
72
1
10
69.5441263568477
20
1.7000016925532
11
68.6225588737422
21
1.69999830744683
72
1
10
68.6225588737422
20
1.69999830744683
11
69.083342615295
21
5.20000000000002
97
0
75
0
76
1
52
0
41
0.0062
77
0
78
1
53
45
43
0
44
0
45
-0.0139193969876572
46
0.0139193969876572
79
0
47
0
98
1
10
0
20
0
0
HATCH
5
FE
100
AcDbEntity
8
2
62
256
6
ByLayer
370
13
48
1
60
0
100
AcDbHatch
10
0
20
0
30
0
210
0
220
0
230
1
2
ANSI31
70
0
71
0
91
1
92
5
93
3
72
1
10
69.083342615295
20
-5.19999999999999
11
68.6225588737422
21
-1.70000169255317
72
1
10
68.6225588737422
20
-1.70000169255317
11
69.5441263568477
21
-1.69999830744681
72
1
10
69.5441263568477
20
-1.69999830744681
11
69.083342615295
21
-5.19999999999999
97
0
75
0
76
1
52
0
41
0.0062
77
0
78
1
53
45
43
0
44
0
45
-0.0139193969876572
46
0.0139193969876572
79
0
47
0
98
1
10
0
20
0
0
DIMENSION
5
100
100
AcDbEntity
8
SK2
62
256
6
ByLayer
370
13
48
1
60
0
100
AcDbDimension
2
_U0
10
55.4557
20
-15.413398
30
0
11
27.72785
21
-15.413398
31
0
70
32
71
1
72
1
41
1
210
0
220
0
230
1
3
Standard
100
AcDbAlignedDimension
13
0
23
0
33
0
14
55.4557
24
-5.2
34
0
50
0
100
AcDbRotatedDimension
1001
ACAD
1000
DSTYLE
1002
{
1070
   371
1070
    13
1070
   372
1070
    13
1070
   170
1070
     0
1070
   144
1040
1.0
1070
   277
1070
     2
1070
   278
1070
    44
1070
   146
1040
1.0
1070
   345
1005
16
1070
   347
1005
16
1070
   346
1005
16
1070
   344
1005
0
1070
   343
1005
0
1070
   172
1070
     1
1070
    76
1070
     0
1070
    75
1070
     0
1070
   282
1070
     0
1070
   281
1070
     0
1070
    71
1070
     0
1070
    74
1070
     0
1070
   279
1070
     0
1070
   173
1070
     1
1070
   340
1005
E8
1070
   271
1070
     2
1070
   272
1070
     2
1070
    77
1070
     1
1070
    73
1070
     1
1070
   171
1070
     3
1070
   274
1070
     4
1070
   177
1070
    35
1070
   176
1070
    35
1070
   178
1070
    35
1070
    48
1040
-0.1
1070
    41
1040
3.5
1070
   147
1040
1.75
1070
    42
1040
1.5875
1070
    44
1040
2.0
1070
   140
1040
3.5
1002
}
1001
ACAD_DSTYLE_DIM_LINETYPE
1070
   380
1005
16
1001
ACAD_DSTYLE_DIM_EXT1_LINETYPE
1070
   381
1005
16
1001
ACAD_DSTYLE_DIM_EXT2_LINETYPE
1070
   382
1005
16
0
DIMENSION
5
119
100
AcDbEntity
8
SK2
62
256
6
ByLayer
370
13
48
1
60
0
100
AcDbDimension
2
_U1
10
57
20
-34.692985
30
0
11
6
21
-34.692985
31
0
70
32
71
1
72
1
41
1
210
0
220
0
230
1
3
Standard
100
AcDbAlignedDimension
13
-45
23
-6
33
0
14
57
24
0
34
0
50
0
100
AcDbRotatedDimension
1001
ACAD
1000
DSTYLE
1002
{
1070
   371
1070
    13
1070
   372
1070
    13
1070
   170
1070
     0
1070
   144
1040
1.0
1070
   277
1070
     2
1070
   278
1070
    44
1070
   146
1040
1.0
1070
   345
1005
16
1070
   347
1005
16
1070
   346
1005
16
1070
   344
1005
0
1070
   343
1005
0
1070
   172
1070
     1
1070
    76
1070
     0
1070
    75
1070
     0
1070
   282
1070
     0
1070
   281
1070
     0
1070
    71
1070
     0
1070
    74
1070
     0
1070
   279
1070
     0
1070
   173
1070
     1
1070
   340
1005
E8
1070
   271
1070
     2
1070
   272
1070
     2
1070
    77
1070
     1
1070
    73
1070
     1
1070
   171
1070
     3
1070
   274
1070
     4
1070
   177
1070
    35
1070
   176
1070
    35
1070
   178
1070
    35
1070
    48
1040
-0.1
1070
    41
1040
3.5
1070
   147
1040
1.75
1070
    42
1040
1.5875
1070
    44
1040
2.0
1070
   140
1040
3.5
1002
}
1001
ACAD_DSTYLE_DIM_LINETYPE
1070
   380
1005
16
1001
ACAD_DSTYLE_DIM_EXT1_LINETYPE
1070
   381
1005
16
1001
ACAD_DSTYLE_DIM_EXT2_LINETYPE
1070
   382
1005
16
0
DIMENSION
5
131
100
AcDbEntity
8
SK2
62
256
6
ByLayer
370
13
48
1
60
0
100
AcDbDimension
2
_U2
10
57
20
16.809119
30
0
11
40.63
21
16.809119
31
0
70
32
71
1
72
1
41
1
210
0
220
0
230
1
3
Standard
100
AcDbAlignedDimension
13
24.26
23
5.2
33
0
14
57
24
0
34
0
50
0
100
AcDbRotatedDimension
1001
ACAD
1000
DSTYLE
1002
{
1070
   371
1070
    13
1070
   372
1070
    13
1070
   170
1070
     0
1070
   144
1040
1.0
1070
   277
1070
     2
1070
   278
1070
    44
1070
   146
1040
1.0
1070
   345
1005
16
1070
   347
1005
16
1070
   346
1005
16
1070
   344
1005
0
1070
   343
1005
0
1070
   172
1070
     1
1070
    76
1070
     0
1070
    75
1070
     0
1070
   282
1070
     0
1070
   281
1070
     0
1070
    71
1070
     0
1070
    74
1070
     0
1070
   279
1070
     0
1070
   173
1070
     1
1070
   340
1005
E8
1070
   271
1070
     2
1070
   272
1070
     2
1070
    77
1070
     1
1070
    73
1070
     1
1070
   171
1070
     3
1070
   274
1070
     4
1070
   177
1070
    35
1070
   176
1070
    35
1070
   178
1070
    35
1070
    48
1040
-0.1
1070
    41
1040
3.5
1070
   147
1040
1.75
1070
    42
1040
1.5875
1070
    44
1040
2.0
1070
   140
1040
3.5
1002
}
1001
ACAD_DSTYLE_DIM_LINETYPE
1070
   380
1005
16
1001
ACAD_DSTYLE_DIM_EXT1_LINETYPE
1070
   381
1005
16
1001
ACAD_DSTYLE_DIM_EXT2_LINETYPE
1070
   382
1005
16
0
DIMENSION
5
149
100
AcDbEntity
8
SK2
62
256
6
ByLayer
370
13
48
1
60
0
100
AcDbDimension
2
_U3
10
55.4557
20
-18.002503
30
0
11
74.416667
21
-18.002503
31
0
70
32
71
1
72
1
41
1
210
0
220
0
230
1
3
Standard
100
AcDbAlignedDimension
13
57
23
0
33
0
14
55.4557
24
-5.2
34
0
50
0
100
AcDbRotatedDimension
1001
ACAD
1000
DSTYLE
1002
{
1070
   371
1070
    13
1070
   372
1070
    13
1070
   170
1070
     0
1070
   144
1040
1.0
1070
   277
1070
     2
1070
   278
1070
    44
1070
   146
1040
1.0
1070
   345
1005
16
1070
   347
1005
16
1070
   346
1005
16
1070
   344
1005
0
1070
   343
1005
0
1070
   172
1070
     1
1070
    76
1070
     0
1070
    75
1070
     0
1070
   282
1070
     0
1070
   281
1070
     0
1070
    71
1070
     0
1070
    74
1070
     0
1070
   279
1070
     0
1070
   173
1070
     1
1070
   340
1005
E8
1070
   271
1070
     2
1070
   272
1070
     2
1070
    77
1070
     1
1070
    73
1070
     1
1070
   171
1070
     3
1070
   274
1070
     4
1070
   177
1070
    35
1070
   176
1070
    35
1070
   178
1070
    35
1070
    48
1040
-0.1
1070
    41
1040
3.5
1070
   147
1040
1.75
1070
    42
1040
1.5875
1070
    44
1040
2.0
1070
   140
1040
3.5
1002
}
1001
ACAD_DSTYLE_DIM_LINETYPE
1070
   380
1005
16
1001
ACAD_DSTYLE_DIM_EXT1_LINETYPE
1070
   381
1005
16
1001
ACAD_DSTYLE_DIM_EXT2_LINETYPE
1070
   382
1005
16
0
DIMENSION
5
163
100
AcDbEntity
8
SK2
62
256
6
ByLayer
370
13
48
1
60
0
100
AcDbDimension
2
_U4
10
55.4557
20
-24.343428
30
0
11
5.22785
21
-24.343428
31
0
70
32
71
1
72
1
41
1
210
0
220
0
230
1
3
Standard
100
AcDbAlignedDimension
13
-45
23
-6
33
0
14
55.4557
24
-5.2
34
0
50
0
100
AcDbRotatedDimension
1001
ACAD
1000
DSTYLE
1002
{
1070
   371
1070
    13
1070
   372
1070
    13
1070
   170
1070
     0
1070
   144
1040
1.0
1070
   277
1070
     2
1070
   278
1070
    44
1070
   146
1040
1.0
1070
   345
1005
16
1070
   347
1005
16
1070
   346
1005
16
1070
   344
1005
0
1070
   343
1005
0
1070
   172
1070
     1
1070
    76
1070
     0
1070
    75
1070
     0
1070
   282
1070
     0
1070
   281
1070
     0
1070
    71
1070
     0
1070
    74
1070
     0
1070
   279
1070
     0
1070
   173
1070
     1
1070
   340
1005
E8
1070
   271
1070
     2
1070
   272
1070
     2
1070
    77
1070
     1
1070
    73
1070
     1
1070
   171
1070
     3
1070
   274
1070
     4
1070
   177
1070
    35
1070
   176
1070
    35
1070
   178
1070
    35
1070
    48
1040
-0.1
1070
    41
1040
3.5
1070
   147
1040
1.75
1070
    42
1040
1.5875
1070
    44
1040
2.0
1070
   140
1040
3.5
1002
}
1001
ACAD_DSTYLE_DIM_LINETYPE
1070
   380
1005
16
1001
ACAD_DSTYLE_DIM_EXT1_LINETYPE
1070
   381
1005
16
1001
ACAD_DSTYLE_DIM_EXT2_LINETYPE
1070
   382
1005
16
0
ENDSEC
0
SECTION
2
OBJECTS
0
DICTIONARY
5
1eb
330
0
100
AcDbDictionary
280
0
281
1
3
ACAD_GROUP
350
1ec
3
ACAD_MLINESTYLE
350
1ed
0
DICTIONARY
5
1ec
330
0
100
AcDbDictionary
280
0
281
1
0
DICTIONARY
5
1ed
330
0
100
AcDbDictionary
280
0
281
1
3
Standard
350
18
0
MLINESTYLE
5
18
330
1ed
100
AcDbMlineStyle
2
Standard
70
0
3

62
256
51
90
52
90
71
2
49
-0.5
62
256
6
ByLayer
49
0.5
62
256
6
ByLayer
0
RASTERVARIABLES
5
1d9
330

100
AcDbRasterVariables
90
0
70
1
71
1
72
1
0
ENDSEC
0
EOF
