0
SECTION
2
HEADER
9
$ACADVER
1
AC1015
9
$DWGCODEPAGE
3
ANSI_1252
9
$HANDSEED
5
1f7
9
$ANGBASE
50
0
9
$ANGDIR
70
0
9
$ATTMODE
70
1
9
$AUNITS
70
0
9
$AUPREC
70
0
9
$CECOLOR
62
256
9
$CELTSCALE
40
1
9
$CELTYPE
6
ByLayer
9
$CELWEIGHT
370
18
9
$CLAYER
8
0
9
$CMLJUST
70
0
9
$CMLSCALE
40
1
9
$CMLSTYLE
2
Standard
9
$DIMSTYLE
2
Standard
9
$TEXTSIZE
40
0.2
9
$TEXTSTYLE
7
Standard
9
$LUNITS
70
2
9
$LUPREC
70
4
9
$EXTNAMES
290
1
9
$INSUNITS
70
4
9
$LTSCALE
40
1
9
$LWDISPLAY
290
1
9
$PDMODE
70
0
9
$PDSIZE
40
0
9
$PLINEGEN
70
0
0
ENDSEC
0
SECTION
2
CLASSES
0
CLASS
1
RASTERVARIABLES
2
AcDbRasterVariables
3
ISM
90
0
280
0
281
0
0
ENDSEC
0
SECTION
2
TABLES
0
TABLE
2
VPORT
5
1ed
100
AcDbSymbolTable
0
VPORT
5
1
100
AcDbSymbolTableRecord
100
AcDbViewportTableRecord
2
*Active
70
0
10
0
20
0
11
1
21
1
12
-1
22
1
13
0
23
0
14
0.5
24
0.5
15
10
25
10
16
0
26
0
36
1
17
0
27
0
37
0
0
ENDTAB
0
TABLE
2
LTYPE
5
1ee
100
AcDbSymbolTable
0
LTYPE
5
14
100
AcDbSymbolTableRecord
100
AcDbLinetypeTableRecord
70
0
2
ByBlock
3

72
65
73
0
40
0
0
LTYPE
5
15
100
AcDbSymbolTableRecord
100
AcDbLinetypeTableRecord
70
0
2
ByLayer
3

72
65
73
0
40
0
0
LTYPE
5
16
100
AcDbSymbolTableRecord
100
AcDbLinetypeTableRecord
70
0
2
Continuous
3
Solid line
72
65
73
0
40
0
0
LTYPE
5
6E
100
AcDbSymbolTableRecord
100
AcDbLinetypeTableRecord
70
0
2
CENTER
3
____ _ ____ _ ____ _ ____
72
65
73
4
40
47.5
49
22
74
0
49
-8.5
74
0
49
8.5
74
0
49
-8.5
74
0
0
LTYPE
5
6F
100
AcDbSymbolTableRecord
100
AcDbLinetypeTableRecord
70
0
2
DASHED
3
__ __ __ __ __ __ __ __ __
72
65
73
2
40
25.72
49
12.86
74
0
49
-12.86
74
0
0
ENDTAB
0
TABLE
2
LAYER
5
1ef
100
AcDbSymbolTable
0
LAYER
5
10
100
AcDbSymbolTableRecord
100
AcDbLayerTableRecord
2
0
70
0
62
7
6
Continuous
290
1
370
-3
390
0
0
LAYER
5
71
100
AcDbSymbolTableRecord
100
AcDbLayerTableRecord
2
80
70
0
62
-6
6
Continuous
290
1
370
-3
390
0
0
LAYER
5
73
100
AcDbSymbolTableRecord
100
AcDbLayerTableRecord
2
81
70
0
62
-3
6
Continuous
290
1
370
-3
390
0
0
LAYER
5
75
100
AcDbSymbolTableRecord
100
AcDbLayerTableRecord
2
1
70
0
62
4
6
Continuous
290
1
370
-3
390
0
0
LAYER
5
87
100
AcDbSymbolTableRecord
100
AcDbLayerTableRecord
2
4
70
0
62
-2
6
CENTER
290
1
370
-3
390
0
0
LAYER
5
A0
100
AcDbSymbolTableRecord
100
AcDbLayerTableRecord
2
2
70
0
62
7
6
Continuous
290
1
370
-3
390
0
0
LAYER
5
102
100
AcDbSymbolTableRecord
100
AcDbLayerTableRecord
2
Defpoints
70
0
62
7
6
Continuous
290
0
370
-3
390
0
0
LAYER
5
1d9
100
AcDbSymbolTableRecord
100
AcDbLayerTableRecord
2
SK1
70
0
62
4
6
Continuous
290
1
370
-3
390
0
0
LAYER
5
1da
100
AcDbSymbolTableRecord
100
AcDbLayerTableRecord
2
SK4
70
0
62
2
6
CENTER
290
1
370
-3
390
0
0
LAYER
5
1db
100
AcDbSymbolTableRecord
100
AcDbLayerTableRecord
2
SK2
70
0
62
7
6
Continuous
290
1
370
-3
390
0
0
LAYER
5
1dc
100
AcDbSymbolTableRecord
100
AcDbLayerTableRecord
2
SK6
70
0
62
5
6
Continuous
290
1
370
-3
390
0
0
ENDTAB
0
TABLE
2
STYLE
5
1f0
100
AcDbSymbolTable
0
STYLE
5
11
100
AcDbSymbolTableRecord
100
AcDbTextStyleTableRecord
2
Standard
3
txt
70
0
71
0
40
0
41
1
42
0
50
0
0
STYLE
5
E7
100
AcDbSymbolTableRecord
100
AcDbTextStyleTableRecord
2
iso_b_vert
3
simplex.shx
70
0
71
0
40
0
41
1
42
0
50
0
0
STYLE
5
E8
100
AcDbSymbolTableRecord
100
AcDbTextStyleTableRecord
2
DWGDirectTextStyle
3
simplex
70
0
71
0
40
0
41
1
42
0
50
0
0
ENDTAB
0
TABLE
2
DIMSTYLE
5
1f1
100
AcDbSymbolTable
100
AcDbDimStyleTable
0
DIMSTYLE
105
27
100
AcDbSymbolTableRecord
100
AcDbDimStyleTableRecord
2
Standard
70
0
3
<>
41
0.18
42
0.0625
44
0.18
140
0.18
147
0.09
73
0
74
0
77
1
271
2
275
0
278
52
280
0
340
11
0
ENDTAB
0
TABLE
2
VIEW
5
1f2
100
AcDbSymbolTable
0
ENDTAB
0
TABLE
2
UCS
5
1f3
100
AcDbSymbolTable
0
ENDTAB
0
TABLE
2
APPID
5
1f4
100
AcDbSymbolTable
0
APPID
5
12
100
AcDbSymbolTableRecord
100
AcDbRegAppTableRecord
2
ACAD
70
0
0
APPID
5
FE
100
AcDbSymbolTableRecord
100
AcDbRegAppTableRecord
2
ACAD_DSTYLE_DIMBREAK
70
0
0
APPID
5
198
100
AcDbSymbolTableRecord
100
AcDbRegAppTableRecord
2
ACAD_DSTYLE_DIM_LINETYPE
70
0
0
APPID
5
199
100
AcDbSymbolTableRecord
100
AcDbRegAppTableRecord
2
ACAD_DSTYLE_DIM_EXT1_LINETYPE
70
0
0
APPID
5
19A
100
AcDbSymbolTableRecord
100
AcDbRegAppTableRecord
2
ACAD_DSTYLE_DIM_EXT2_LINETYPE
70
0
0
APPID
5
1D5
100
AcDbSymbolTableRecord
100
AcDbRegAppTableRecord
2
ACAD_MLEADERVER
70
0
0
ENDTAB
0
TABLE
2
BLOCK_RECORD
5
1f5
100
AcDbSymbolTable
0
BLOCK_RECORD
5
1F
100
AcDbSymbolTableRecord
100
AcDbBlockTableRecord
2
*Model_Space
340
0
70
0
0
BLOCK_RECORD
5
1B
100
AcDbSymbolTableRecord
100
AcDbBlockTableRecord
2
*Paper_Space
340
0
70
0
0
BLOCK_RECORD
5
23
100
AcDbSymbolTableRecord
100
AcDbBlockTableRecord
2
*Paper_Space0
340
0
70
0
0
BLOCK_RECORD
5
103
100
AcDbSymbolTableRecord
100
AcDbBlockTableRecord
2
*D1
340
0
70
0
0
BLOCK_RECORD
5
10F
100
AcDbSymbolTableRecord
100
AcDbBlockTableRecord
2
_U0
340
0
70
0
0
BLOCK_RECORD
5
11B
100
AcDbSymbolTableRecord
100
AcDbBlockTableRecord
2
*D3
340
0
70
0
0
BLOCK_RECORD
5
127
100
AcDbSymbolTableRecord
100
AcDbBlockTableRecord
2
_U1
340
0
70
0
0
BLOCK_RECORD
5
133
100
AcDbSymbolTableRecord
100
AcDbBlockTableRecord
2
*D5
340
0
70
0
0
BLOCK_RECORD
5
13F
100
AcDbSymbolTableRecord
100
AcDbBlockTableRecord
2
_U2
340
0
70
0
0
BLOCK_RECORD
5
14B
100
AcDbSymbolTableRecord
100
AcDbBlockTableRecord
2
*D7
340
0
70
0
0
BLOCK_RECORD
5
159
100
AcDbSymbolTableRecord
100
AcDbBlockTableRecord
2
_U3
340
0
70
0
0
BLOCK_RECORD
5
165
100
AcDbSymbolTableRecord
100
AcDbBlockTableRecord
2
*D9
340
0
70
0
0
BLOCK_RECORD
5
171
100
AcDbSymbolTableRecord
100
AcDbBlockTableRecord
2
_U4
340
0
70
0
0
ENDTAB
0
ENDSEC
0
SECTION
2
BLOCKS
0
BLOCK
5
20
100
AcDbEntity
8
0
100
AcDbBlockBegin
2
*Model_Space
70
0
10
0
20
0
30
0
3
*Model_Space
0
ENDBLK
5
21
100
AcDbEntity
8
0
100
AcDbBlockEnd
0
BLOCK
5
1C
100
AcDbEntity
8
0
100
AcDbBlockBegin
2
*Paper_Space
70
0
10
0
20
0
30
0
3
*Paper_Space
0
ENDBLK
5
1D
100
AcDbEntity
8
0
100
AcDbBlockEnd
0
BLOCK
5
24
100
AcDbEntity
8
0
100
AcDbBlockBegin
2
*Paper_Space0
70
0
10
0
20
0
30
0
3
*Paper_Space0
0
ENDBLK
5
25
100
AcDbEntity
8
0
100
AcDbBlockEnd
0
BLOCK
5
104
100
AcDbEntity
8
0
100
AcDbBlockBegin
2
*D1
70
1
10
0
20
0
30
0
3
*D1
0
LINE
5
106
100
AcDbEntity
8
0
62
256
6
ByLayer
370
-2
48
1
60
0
100
AcDbLine
10
0
20
-1.5875
30
0
11
0
21
-17.263398
31
0
39
0
210
0
220
0
230
1
0
LINE
5
107
100
AcDbEntity
8
0
62
256
6
ByLayer
370
-2
48
1
60
0
100
AcDbLine
10
55.5009
20
-6.6375
30
0
11
55.5009
21
-17.263398
31
0
39
0
210
0
220
0
230
1
0
LINE
5
108
100
AcDbEntity
8
0
62
256
6
ByLayer
370
-2
48
1
60
0
100
AcDbLine
10
3.5
20
-15.263398
30
0
11
52.0009
21
-15.263398
31
0
39
0
210
0
220
0
230
1
0
SOLID
5
109
100
AcDbEntity
8
0
62
256
6
ByLayer
370
-1
48
1
60
0
100
AcDbTrace
10
3.5
20
-14.680065
30
0
11
3.5
21
-15.846732
31
0
12
0
22
-15.263398
32
0
13
0
23
-15.263398
33
0
39
0
210
0
220
0
230
1
0
SOLID
5
10A
100
AcDbEntity
8
0
62
256
6
ByLayer
370
-1
48
1
60
0
100
AcDbTrace
10
52.0009
20
-15.846732
30
0
11
52.0009
21
-14.680065
31
0
12
55.5009
22
-15.263398
32
0
13
55.5009
23
-15.263398
33
0
39
0
210
0
220
0
230
1
0
MTEXT
5
10B
100
AcDbEntity
8
0
62
256
6
ByLayer
370
18
48
1
60
0
100
AcDbMText
10
27.75045
20
-8.263398
30
0
210
0
220
0
230
1
1
\A1;55.50
40
3.5
41
0
44
1
50
0
71
5
72
5
7
iso_b_vert
0
POINT
5
10C
100
AcDbEntity
8
Defpoints
62
0
6
ByLayer
370
-1
48
1
60
0
100
AcDbPoint
10
0
20
0
30
0
39
0
210
0
220
0
230
1
50
360
0
POINT
5
10D
100
AcDbEntity
8
Defpoints
62
0
6
ByLayer
370
-1
48
1
60
0
100
AcDbPoint
10
55.5009
20
-5.05
30
0
39
0
210
0
220
0
230
1
50
360
0
POINT
5
10E
100
AcDbEntity
8
Defpoints
62
0
6
ByLayer
370
-1
48
1
60
0
100
AcDbPoint
10
55.5009
20
-15.263398
30
0
39
0
210
0
220
0
230
1
50
360
0
ENDBLK
5
105
100
AcDbEntity
8
0
100
AcDbBlockEnd
0
BLOCK
5
116
100
AcDbEntity
8
0
100
AcDbBlockBegin
2
_U0
70
0
10
0
20
0
30
0
3
_U0
0
MTEXT
5
110
100
AcDbEntity
8
SK2
62
256
6
ByLayer
370
13
48
1
60
0
100
AcDbMText
10
22.613151
20
-14.230765
30
0
210
0
220
0
230
1
1
\W0.7317;55,50
40
3.5
41
0
44
1.084337
50
0
71
7
72
5
7
iso_b_vert
0
LINE
5
111
100
AcDbEntity
8
SK2
62
256
6
ByLayer
370
13
48
1
60
0
100
AcDbLine
10
0
20
-1.5875
30
0
11
0
21
-17.263398
31
0
39
0
210
0
220
0
230
1
0
LINE
5
112
100
AcDbEntity
8
SK2
62
256
6
ByLayer
370
13
48
1
60
0
100
AcDbLine
10
55.5009
20
-6.6375
30
0
11
55.5009
21
-17.263398
31
0
39
0
210
0
220
0
230
1
0
LINE
5
113
100
AcDbEntity
8
SK2
62
256
6
ByLayer
370
13
48
1
60
0
100
AcDbLine
10
0
20
-15.263398
30
0
11
55.5009
21
-15.263398
31
0
39
0
210
0
220
0
230
1
0
SOLID
5
114
100
AcDbEntity
8
SK2
62
256
6
ByLayer
370
18
48
1
60
0
100
AcDbTrace
10
0
20
-15.263398
30
0
11
3.499998
21
-14.802615
31
0
12
3.500002
22
-15.724182
32
0
13
3.500002
23
-15.724182
33
0
39
0
210
0
220
0
230
1
0
SOLID
5
115
100
AcDbEntity
8
SK2
62
256
6
ByLayer
370
18
48
1
60
0
100
AcDbTrace
10
55.5009
20
-15.263398
30
0
11
52.000902
21
-15.724182
31
0
12
52.000898
22
-14.802615
32
0
13
52.000898
23
-14.802615
33
0
39
0
210
0
220
0
230
1
0
ENDBLK
5
117
100
AcDbEntity
8
0
100
AcDbBlockEnd
0
BLOCK
5
11C
100
AcDbEntity
8
0
100
AcDbBlockBegin
2
*D3
70
1
10
0
20
0
30
0
3
*D3
0
LINE
5
11E
100
AcDbEntity
8
0
62
256
6
ByLayer
370
-2
48
1
60
0
100
AcDbLine
10
-45
20
-7.5875
30
0
11
-45
21
-36.692985
31
0
39
0
210
0
220
0
230
1
0
LINE
5
11F
100
AcDbEntity
8
0
62
256
6
ByLayer
370
-2
48
1
60
0
100
AcDbLine
10
57
20
-1.5875
30
0
11
57
21
-36.692985
31
0
39
0
210
0
220
0
230
1
0
LINE
5
120
100
AcDbEntity
8
0
62
256
6
ByLayer
370
-2
48
1
60
0
100
AcDbLine
10
-41.5
20
-34.692985
30
0
11
53.5
21
-34.692985
31
0
39
0
210
0
220
0
230
1
0
SOLID
5
121
100
AcDbEntity
8
0
62
256
6
ByLayer
370
-1
48
1
60
0
100
AcDbTrace
10
-41.5
20
-34.109652
30
0
11
-41.5
21
-35.276319
31
0
12
-45
22
-34.692985
32
0
13
-45
23
-34.692985
33
0
39
0
210
0
220
0
230
1
0
SOLID
5
122
100
AcDbEntity
8
0
62
256
6
ByLayer
370
-1
48
1
60
0
100
AcDbTrace
10
53.5
20
-35.276319
30
0
11
53.5
21
-34.109652
31
0
12
57
22
-34.692985
32
0
13
57
23
-34.692985
33
0
39
0
210
0
220
0
230
1
0
MTEXT
5
123
100
AcDbEntity
8
0
62
256
6
ByLayer
370
18
48
1
60
0
100
AcDbMText
10
6
20
-27.692985
30
0
210
0
220
0
230
1
1
\A1;102.00
40
3.5
41
0
44
1
50
0
71
5
72
5
7
iso_b_vert
0
POINT
5
124
100
AcDbEntity
8
Defpoints
62
0
6
ByLayer
370
-1
48
1
60
0
100
AcDbPoint
10
-45
20
-6
30
0
39
0
210
0
220
0
230
1
50
360
0
POINT
5
125
100
AcDbEntity
8
Defpoints
62
0
6
ByLayer
370
-1
48
1
60
0
100
AcDbPoint
10
57
20
0
30
0
39
0
210
0
220
0
230
1
50
360
0
POINT
5
126
100
AcDbEntity
8
Defpoints
62
0
6
ByLayer
370
-1
48
1
60
0
100
AcDbPoint
10
57
20
-34.692985
30
0
39
0
210
0
220
0
230
1
50
360
0
ENDBLK
5
11D
100
AcDbEntity
8
0
100
AcDbBlockEnd
0
BLOCK
5
12E
100
AcDbEntity
8
0
100
AcDbBlockBegin
2
_U1
70
0
10
0
20
0
30
0
3
_U1
0
MTEXT
5
128
100
AcDbEntity
8
SK2
62
256
6
ByLayer
370
13
48
1
60
0
100
AcDbMText
10
-0.007599
20
-33.660352
30
0
210
0
220
0
230
1
1
\W0.6930;102,00
40
3.5
41
0
44
1.084337
50
0
71
7
72
5
7
iso_b_vert
0
LINE
5
129
100
AcDbEntity
8
SK2
62
256
6
ByLayer
370
13
48
1
60
0
100
AcDbLine
10
-45
20
-7.5875
30
0
11
-45
21
-36.692985
31
0
39
0
210
0
220
0
230
1
0
LINE
5
12A
100
AcDbEntity
8
SK2
62
256
6
ByLayer
370
13
48
1
60
0
100
AcDbLine
10
57
20
-1.5875
30
0
11
57
21
-36.692985
31
0
39
0
210
0
220
0
230
1
0
LINE
5
12B
100
AcDbEntity
8
SK2
62
256
6
ByLayer
370
13
48
1
60
0
100
AcDbLine
10
-45
20
-34.692985
30
0
11
57
21
-34.692985
31
0
39
0
210
0
220
0
230
1
0
SOLID
5
12C
100
AcDbEntity
8
SK2
62
256
6
ByLayer
370
18
48
1
60
0
100
AcDbTrace
10
-45
20
-34.692985
30
0
11
-41.500002
21
-34.232202
31
0
12
-41.499998
22
-35.153769
32
0
13
-41.499998
23
-35.153769
33
0
39
0
210
0
220
0
230
1
0
SOLID
5
12D
100
AcDbEntity
8
SK2
62
256
6
ByLayer
370
18
48
1
60
0
100
AcDbTrace
10
57
20
-34.692985
30
0
11
53.500002
21
-35.153769
31
0
12
53.499998
22
-34.232202
32
0
13
53.499998
23
-34.232202
33
0
39
0
210
0
220
0
230
1
0
ENDBLK
5
12F
100
AcDbEntity
8
0
100
AcDbBlockEnd
0
BLOCK
5
134
100
AcDbEntity
8
0
100
AcDbBlockBegin
2
*D5
70
1
10
0
20
0
30
0
3
*D5
0
LINE
5
136
100
AcDbEntity
8
0
62
256
6
ByLayer
370
-2
48
1
60
0
100
AcDbLine
10
25.2
20
6.6375
30
0
11
25.2
21
18.659119
31
0
39
0
210
0
220
0
230
1
0
LINE
5
137
100
AcDbEntity
8
0
62
256
6
ByLayer
370
-2
48
1
60
0
100
AcDbLine
10
57
20
1.5875
30
0
11
57
21
18.659119
31
0
39
0
210
0
220
0
230
1
0
LINE
5
138
100
AcDbEntity
8
0
62
256
6
ByLayer
370
-2
48
1
60
0
100
AcDbLine
10
28.7
20
16.659119
30
0
11
53.5
21
16.659119
31
0
39
0
210
0
220
0
230
1
0
SOLID
5
139
100
AcDbEntity
8
0
62
256
6
ByLayer
370
-1
48
1
60
0
100
AcDbTrace
10
28.7
20
17.242453
30
0
11
28.7
21
16.075786
31
0
12
25.2
22
16.659119
32
0
13
25.2
23
16.659119
33
0
39
0
210
0
220
0
230
1
0
SOLID
5
13A
100
AcDbEntity
8
0
62
256
6
ByLayer
370
-1
48
1
60
0
100
AcDbTrace
10
53.5
20
16.075786
30
0
11
53.5
21
17.242453
31
0
12
57
22
16.659119
32
0
13
57
23
16.659119
33
0
39
0
210
0
220
0
230
1
0
MTEXT
5
13B
100
AcDbEntity
8
0
62
256
6
ByLayer
370
18
48
1
60
0
100
AcDbMText
10
41.1
20
23.659119
30
0
210
0
220
0
230
1
1
\A1;31.80
40
3.5
41
0
44
1
50
0
71
5
72
5
7
iso_b_vert
0
POINT
5
13C
100
AcDbEntity
8
Defpoints
62
0
6
ByLayer
370
-1
48
1
60
0
100
AcDbPoint
10
25.2
20
5.05
30
0
39
0
210
0
220
0
230
1
50
360
0
POINT
5
13D
100
AcDbEntity
8
Defpoints
62
0
6
ByLayer
370
-1
48
1
60
0
100
AcDbPoint
10
57
20
0
30
0
39
0
210
0
220
0
230
1
50
360
0
POINT
5
13E
100
AcDbEntity
8
Defpoints
62
0
6
ByLayer
370
-1
48
1
60
0
100
AcDbPoint
10
57
20
16.659119
30
0
39
0
210
0
220
0
230
1
50
360
0
ENDBLK
5
135
100
AcDbEntity
8
0
100
AcDbBlockEnd
0
BLOCK
5
146
100
AcDbEntity
8
0
100
AcDbBlockBegin
2
_U2
70
0
10
0
20
0
30
0
3
_U2
0
MTEXT
5
140
100
AcDbEntity
8
SK2
62
256
6
ByLayer
370
13
48
1
60
0
100
AcDbMText
10
36.400135
20
17.691753
30
0
210
0
220
0
230
1
1
\W0.6713;31,80
40
3.5
41
0
44
1.084337
50
0
71
7
72
5
7
iso_b_vert
0
LINE
5
141
100
AcDbEntity
8
SK2
62
256
6
ByLayer
370
13
48
1
60
0
100
AcDbLine
10
25.2
20
6.6375
30
0
11
25.2
21
18.659119
31
0
39
0
210
0
220
0
230
1
0
LINE
5
142
100
AcDbEntity
8
SK2
62
256
6
ByLayer
370
13
48
1
60
0
100
AcDbLine
10
57
20
1.5875
30
0
11
57
21
18.659119
31
0
39
0
210
0
220
0
230
1
0
LINE
5
143
100
AcDbEntity
8
SK2
62
256
6
ByLayer
370
13
48
1
60
0
100
AcDbLine
10
25.2
20
16.659119
30
0
11
57
21
16.659119
31
0
39
0
210
0
220
0
230
1
0
SOLID
5
144
100
AcDbEntity
8
SK2
62
256
6
ByLayer
370
18
48
1
60
0
100
AcDbTrace
10
25.2
20
16.659119
30
0
11
28.699998
21
17.119903
31
0
12
28.700002
22
16.198335
32
0
13
28.700002
23
16.198335
33
0
39
0
210
0
220
0
230
1
0
SOLID
5
145
100
AcDbEntity
8
SK2
62
256
6
ByLayer
370
18
48
1
60
0
100
AcDbTrace
10
57
20
16.659119
30
0
11
53.500002
21
16.198335
31
0
12
53.499998
22
17.119903
32
0
13
53.499998
23
17.119903
33
0
39
0
210
0
220
0
230
1
0
ENDBLK
5
147
100
AcDbEntity
8
0
100
AcDbBlockEnd
0
BLOCK
5
14C
100
AcDbEntity
8
0
100
AcDbBlockBegin
2
*D7
70
1
10
0
20
0
30
0
3
*D7
0
LINE
5
14E
100
AcDbEntity
8
0
62
256
6
ByLayer
370
-2
48
1
60
0
100
AcDbLine
10
57
20
-1.5875
30
0
11
57
21
-19.852503
31
0
39
0
210
0
220
0
230
1
0
LINE
5
14F
100
AcDbEntity
8
0
62
256
6
ByLayer
370
-2
48
1
60
0
100
AcDbLine
10
55.5009
20
-6.6375
30
0
11
55.5009
21
-19.852503
31
0
39
0
210
0
220
0
230
1
0
LINE
5
150
100
AcDbEntity
8
0
62
256
6
ByLayer
370
-2
48
1
60
0
100
AcDbLine
10
57
20
-17.852503
30
0
11
84.666667
21
-17.852503
31
0
39
0
210
0
220
0
230
1
0
LINE
5
151
100
AcDbEntity
8
0
62
256
6
ByLayer
370
-2
48
1
60
0
100
AcDbLine
10
60.5
20
-17.852503
30
0
11
64
21
-17.852503
31
0
39
0
210
0
220
0
230
1
0
LINE
5
152
100
AcDbEntity
8
0
62
256
6
ByLayer
370
-2
48
1
60
0
100
AcDbLine
10
52.0009
20
-17.852503
30
0
11
48.5009
21
-17.852503
31
0
39
0
210
0
220
0
230
1
0
SOLID
5
153
100
AcDbEntity
8
0
62
256
6
ByLayer
370
-1
48
1
60
0
100
AcDbTrace
10
60.5
20
-17.26917
30
0
11
60.5
21
-18.435837
31
0
12
57
22
-17.852503
32
0
13
57
23
-17.852503
33
0
39
0
210
0
220
0
230
1
0
SOLID
5
154
100
AcDbEntity
8
0
62
256
6
ByLayer
370
-1
48
1
60
0
100
AcDbTrace
10
52.0009
20
-18.435837
30
0
11
52.0009
21
-17.26917
31
0
12
55.5009
22
-17.852503
32
0
13
55.5009
23
-17.852503
33
0
39
0
210
0
220
0
230
1
0
MTEXT
5
155
100
AcDbEntity
8
0
62
256
6
ByLayer
370
18
48
1
60
0
100
AcDbMText
10
74.333333
20
-10.852503
30
0
210
0
220
0
230
1
1
\A1;1.50
40
3.5
41
0
44
1
50
0
71
5
72
5
7
iso_b_vert
0
POINT
5
156
100
AcDbEntity
8
Defpoints
62
0
6
ByLayer
370
-1
48
1
60
0
100
AcDbPoint
10
57
20
0
30
0
39
0
210
0
220
0
230
1
50
360
0
POINT
5
157
100
AcDbEntity
8
Defpoints
62
0
6
ByLayer
370
-1
48
1
60
0
100
AcDbPoint
10
55.5009
20
-5.05
30
0
39
0
210
0
220
0
230
1
50
360
0
POINT
5
158
100
AcDbEntity
8
Defpoints
62
0
6
ByLayer
370
-1
48
1
60
0
100
AcDbPoint
10
55.5009
20
-17.852503
30
0
39
0
210
0
220
0
230
1
50
360
0
ENDBLK
5
14D
100
AcDbEntity
8
0
100
AcDbBlockEnd
0
BLOCK
5
160
100
AcDbEntity
8
0
100
AcDbBlockBegin
2
_U3
70
0
10
0
20
0
30
0
3
_U3
0
MTEXT
5
15A
100
AcDbEntity
8
SK2
62
256
6
ByLayer
370
13
48
1
60
0
100
AcDbMText
10
63.589293
20
-16.81987
30
0
210
0
220
0
230
1
1
\W0.6367;1,50
40
3.5
41
0
44
1.084337
50
0
71
7
72
5
7
iso_b_vert
0
LINE
5
15B
100
AcDbEntity
8
SK2
62
256
6
ByLayer
370
13
48
1
60
0
100
AcDbLine
10
57
20
-1.5875
30
0
11
57
21
-19.852503
31
0
39
0
210
0
220
0
230
1
0
LINE
5
15C
100
AcDbEntity
8
SK2
62
256
6
ByLayer
370
13
48
1
60
0
100
AcDbLine
10
55.5009
20
-6.6375
30
0
11
55.5009
21
-19.852503
31
0
39
0
210
0
220
0
230
1
0
LINE
5
15D
100
AcDbEntity
8
SK2
62
256
6
ByLayer
370
13
48
1
60
0
100
AcDbLine
10
46.7509
20
-17.852503
30
0
11
70.559058
21
-17.852503
31
0
39
0
210
0
220
0
230
1
0
SOLID
5
15E
100
AcDbEntity
8
SK2
62
256
6
ByLayer
370
18
48
1
60
0
100
AcDbTrace
10
57
20
-17.852503
30
0
11
60.499998
21
-17.391719
31
0
12
60.500002
22
-18.313287
32
0
13
60.500002
23
-18.313287
33
0
39
0
210
0
220
0
230
1
0
SOLID
5
15F
100
AcDbEntity
8
SK2
62
256
6
ByLayer
370
18
48
1
60
0
100
AcDbTrace
10
55.5009
20
-17.852503
30
0
11
52.000902
21
-18.313287
31
0
12
52.000898
22
-17.391719
32
0
13
52.000898
23
-17.391719
33
0
39
0
210
0
220
0
230
1
0
ENDBLK
5
161
100
AcDbEntity
8
0
100
AcDbBlockEnd
0
BLOCK
5
166
100
AcDbEntity
8
0
100
AcDbBlockBegin
2
*D9
70
1
10
0
20
0
30
0
3
*D9
0
LINE
5
168
100
AcDbEntity
8
0
62
256
6
ByLayer
370
-2
48
1
60
0
100
AcDbLine
10
-45
20
-7.5875
30
0
11
-45
21
-26.343428
31
0
39
0
210
0
220
0
230
1
0
LINE
5
169
100
AcDbEntity
8
0
62
256
6
ByLayer
370
-2
48
1
60
0
100
AcDbLine
10
55.5009
20
-6.6375
30
0
11
55.5009
21
-26.343428
31
0
39
0
210
0
220
0
230
1
0
LINE
5
16A
100
AcDbEntity
8
0
62
256
6
ByLayer
370
-2
48
1
60
0
100
AcDbLine
10
-41.5
20
-24.343428
30
0
11
52.0009
21
-24.343428
31
0
39
0
210
0
220
0
230
1
0
SOLID
5
16B
100
AcDbEntity
8
0
62
256
6
ByLayer
370
-1
48
1
60
0
100
AcDbTrace
10
-41.5
20
-23.760095
30
0
11
-41.5
21
-24.926762
31
0
12
-45
22
-24.343428
32
0
13
-45
23
-24.343428
33
0
39
0
210
0
220
0
230
1
0
SOLID
5
16C
100
AcDbEntity
8
0
62
256
6
ByLayer
370
-1
48
1
60
0
100
AcDbTrace
10
52.0009
20
-24.926762
30
0
11
52.0009
21
-23.760095
31
0
12
55.5009
22
-24.343428
32
0
13
55.5009
23
-24.343428
33
0
39
0
210
0
220
0
230
1
0
MTEXT
5
16D
100
AcDbEntity
8
0
62
256
6
ByLayer
370
18
48
1
60
0
100
AcDbMText
10
5.25045
20
-17.343428
30
0
210
0
220
0
230
1
1
\A1;100.50
40
3.5
41
0
44
1
50
0
71
5
72
5
7
iso_b_vert
0
POINT
5
16E
100
AcDbEntity
8
Defpoints
62
0
6
ByLayer
370
-1
48
1
60
0
100
AcDbPoint
10
-45
20
-6
30
0
39
0
210
0
220
0
230
1
50
360
0
POINT
5
16F
100
AcDbEntity
8
Defpoints
62
0
6
ByLayer
370
-1
48
1
60
0
100
AcDbPoint
10
55.5009
20
-5.05
30
0
39
0
210
0
220
0
230
1
50
360
0
POINT
5
170
100
AcDbEntity
8
Defpoints
62
0
6
ByLayer
370
-1
48
1
60
0
100
AcDbPoint
10
55.5009
20
-24.343428
30
0
39
0
210
0
220
0
230
1
50
360
0
ENDBLK
5
167
100
AcDbEntity
8
0
100
AcDbBlockEnd
0
BLOCK
5
178
100
AcDbEntity
8
0
100
AcDbBlockBegin
2
_U4
70
0
10
0
20
0
30
0
3
_U4
0
MTEXT
5
172
100
AcDbEntity
8
SK2
62
256
6
ByLayer
370
13
48
1
60
0
100
AcDbMText
10
-0.757149
20
-23.310795
30
0
210
0
220
0
230
1
1
\W0.6930;100,50
40
3.5
41
0
44
1.084337
50
0
71
7
72
5
7
iso_b_vert
0
LINE
5
173
100
AcDbEntity
8
SK2
62
256
6
ByLayer
370
13
48
1
60
0
100
AcDbLine
10
-45
20
-7.5875
30
0
11
-45
21
-26.343428
31
0
39
0
210
0
220
0
230
1
0
LINE
5
174
100
AcDbEntity
8
SK2
62
256
6
ByLayer
370
13
48
1
60
0
100
AcDbLine
10
55.5009
20
-6.6375
30
0
11
55.5009
21
-26.343428
31
0
39
0
210
0
220
0
230
1
0
LINE
5
175
100
AcDbEntity
8
SK2
62
256
6
ByLayer
370
13
48
1
60
0
100
AcDbLine
10
-45
20
-24.343428
30
0
11
55.5009
21
-24.343428
31
0
39
0
210
0
220
0
230
1
0
SOLID
5
176
100
AcDbEntity
8
SK2
62
256
6
ByLayer
370
18
48
1
60
0
100
AcDbTrace
10
-45
20
-24.343428
30
0
11
-41.500002
21
-23.882645
31
0
12
-41.499998
22
-24.804212
32
0
13
-41.499998
23
-24.804212
33
0
39
0
210
0
220
0
230
1
0
SOLID
5
177
100
AcDbEntity
8
SK2
62
256
6
ByLayer
370
18
48
1
60
0
100
AcDbTrace
10
55.5009
20
-24.343428
30
0
11
52.000902
21
-24.804212
31
0
12
52.000898
22
-23.882645
32
0
13
52.000898
23
-23.882645
33
0
39
0
210
0
220
0
230
1
0
ENDBLK
5
179
100
AcDbEntity
8
0
100
AcDbBlockEnd
0
ENDSEC
0
SECTION
2
ENTITIES
0
ARC
5
A9
100
AcDbEntity
8
1
62
256
6
ByLayer
370
18
48
1
60
0
100
AcDbCircle
39
0
10
1.476563
20
-5.816247
30
0
40
0.799999999999999
210
0
220
0
230
1
100
AcDbArc
50
89.96419
51
157.346671
0
ARC
5
AA
100
AcDbEntity
8
1
62
256
6
ByLayer
370
18
48
1
60
0
100
AcDbCircle
39
0
10
0
20
-5.2
30
0
40
0.800000000000004
210
0
220
0
230
1
100
AcDbArc
50
270
51
337.346671
0
ARC
5
AB
100
AcDbEntity
8
1
62
256
6
ByLayer
370
18
48
1
60
0
100
AcDbCircle
39
0
10
1.476563
20
5.816247
30
0
40
0.799999999999999
210
0
220
0
230
1
100
AcDbArc
50
202.653329
51
270.03581
0
ARC
5
AC
100
AcDbEntity
8
1
62
256
6
ByLayer
370
18
48
1
60
0
100
AcDbCircle
39
0
10
0
20
5.2
30
0
40
0.800000000000004
210
0
220
0
230
1
100
AcDbArc
50
22.653329
51
90
0
ELLIPSE
5
AD
100
AcDbEntity
8
1
62
256
6
ByLayer
370
13
48
1
60
0
100
AcDbEllipse
10
4.25015
20
0.776751
30
0
11
0.0419307931708166
21
0.0907844071637096
31
0
210
0
220
0
230
1
40
0.068513
41
3.0132244447103
42
-1.71568863770053
0
ELLIPSE
5
AE
100
AcDbEntity
8
1
62
256
6
ByLayer
370
13
48
1
60
0
100
AcDbEllipse
10
4.186272
20
0.808341
30
0
11
-0.0469669084674492
21
-0.0882842540264698
31
0
210
0
220
0
230
1
40
0.323004
41
-1.2325621285506
42
-0.620435983273693
0
ELLIPSE
5
AF
100
AcDbEntity
8
1
62
256
6
ByLayer
370
18
48
1
60
0
100
AcDbEllipse
10
4.25
20
5.016141
30
0
11
0.25
21
0
31
0
210
0
220
0
230
1
40
1
41
-3.14156690097309
42
-1.56264015057818
0
ELLIPSE
5
B0
100
AcDbEntity
8
1
62
256
6
ByLayer
370
18
48
1
60
0
100
AcDbEllipse
10
4.25
20
-5.016141
30
0
11
0.25
21
0
31
0
210
0
220
0
230
1
40
1
41
1.57338316291794
42
2.852603169334
0
ELLIPSE
5
B1
100
AcDbEntity
8
1
62
256
6
ByLayer
370
18
48
1
60
0
100
AcDbEllipse
10
4.25
20
-5.016141
30
0
11
0.25
21
0
31
0
210
0
220
0
230
1
40
1
41
2.88637089779594
42
3.141566900973
0
POINT
5
70
100
AcDbEntity
8
80
62
256
6
ByLayer
370
18
48
1
60
0
100
AcDbPoint
10
0
20
0
30
0
39
0
210
0
220
0
230
1
50
360
0
POINT
5
72
100
AcDbEntity
8
81
62
256
6
ByLayer
370
18
48
1
60
0
100
AcDbPoint
10
57
20
0
30
0
39
0
210
0
220
0
230
1
50
360
0
POINT
5
74
100
AcDbEntity
8
1
62
256
6
ByLayer
370
18
48
1
60
1
100
AcDbPoint
10
55.5009
20
-5.05
30
0
39
0
210
0
220
0
230
1
50
360
0
POINT
5
76
100
AcDbEntity
8
1
62
256
6
ByLayer
370
18
48
1
60
1
100
AcDbPoint
10
-45
20
-6
30
0
39
0
210
0
220
0
230
1
50
360
0
POINT
5
77
100
AcDbEntity
8
1
62
256
6
ByLayer
370
18
48
1
60
1
100
AcDbPoint
10
25.2
20
5.05
30
0
39
0
210
0
220
0
230
1
50
360
0
POINT
5
78
100
AcDbEntity
8
1
62
256
6
ByLayer
370
18
48
1
60
1
100
AcDbPoint
10
55.5009
20
-5.05
30
0
39
0
210
0
220
0
230
1
50
360
0
POINT
5
79
100
AcDbEntity
8
1
62
256
6
ByLayer
370
18
48
1
60
1
100
AcDbPoint
10
-45
20
-6
30
0
39
0
210
0
220
0
230
1
50
360
0
POINT
5
7A
100
AcDbEntity
8
1
62
256
6
ByLayer
370
18
48
1
60
1
100
AcDbPoint
10
55.5009
20
-5.05
30
0
39
0
210
0
220
0
230
1
50
360
0
SPLINE
5
B2
100
AcDbEntity
8
1
62
256
6
ByLayer
370
18
48
1
60
0
100
AcDbSpline
70
4
71
3
72
40
73
36
40
0
40
0
40
0
40
0
40
0.0480446868847155
40
0.0480446868847155
40
0.0960893737694309
40
0.0960893737694309
40
0.144134060654146
40
0.144134060654146
40
0.192178747538862
40
0.192178747538862
40
0.288268121308293
40
0.288268121308293
40
0.384357495077724
40
0.384357495077724
40
0.43240218196244
40
0.43240218196244
40
0.480446868847156
40
0.480446868847156
40
0.528491555731872
40
0.528491555731872
40
0.576536242616588
40
0.576536242616588
40
0.624580929501304
40
0.624580929501304
40
0.67262561638602
40
0.67262561638602
40
0.768714990155453
40
0.768714990155453
40
0.864804363924886
40
0.864804363924886
40
0.912849050809602
40
0.912849050809602
40
0.960893737694319
40
0.960893737694319
40
1
40
1
40
1
40
1
41
1
10
55.2276239664712
20
-5.04220318208129
30
0
41
1
10
54.6952705691948
20
-5.05611423609164
30
0
41
1
10
54.1631775143755
20
-5.05009263969652
30
0
41
1
10
53.0973329951223
20
-4.99839050207328
30
0
41
1
10
52.5654201231962
20
-4.9527759406493
30
0
41
1
10
51.5028653197608
20
-4.82331154004095
30
0
41
1
10
50.9719296691991
20
-4.73947316655173
30
0
41
1
10
49.9084226105045
20
-4.53504004746088
30
0
41
1
10
49.3749237540505
20
-4.41424344477934
30
0
41
1
10
47.7791040386361
20
-4.00223524578499
30
0
41
1
10
46.7188826220771
20
-3.66136666143879
30
0
41
1
10
44.5870421486245
20
-2.87198946304363
30
0
41
1
10
43.5262289957759
20
-2.4279447277936
30
0
41
1
10
41.9304491246328
20
-1.71391869071277
30
0
41
1
10
41.3968973003877
20
-1.46741702751365
30
0
41
1
10
40.3329543712316
20
-0.966296505013077
30
0
41
1
10
39.8018255789626
20
-0.711540707836576
30
0
41
1
10
38.7389627174918
20
-0.198356345837141
30
0
41
1
10
38.2073112855304
20
0.0602443772089032
30
0
41
1
10
37.1410654133899
20
0.576293511516496
30
0
41
1
10
36.6092380189682
20
0.832226225624254
30
0
41
1
10
35.5462854852187
20
1.33513778898177
30
0
41
1
10
35.0151105039302
20
1.58217520558068
30
0
41
1
10
33.9510571620187
20
2.06278787655864
30
0
41
1
10
33.4173954678222
20
2.29655601250056
30
0
41
1
10
31.8212115319171
20
2.96574481180585
30
0
41
1
10
30.760342378507
20
3.37045665916835
30
0
41
1
10
28.6274561577748
20
4.06605498496182
30
0
41
1
10
27.5666247203122
20
4.35271853051913
30
0
41
1
10
25.9701684619383
20
4.67601991335241
30
0
41
1
10
25.4363624466747
20
4.76593225570173
30
0
41
1
10
24.3719586051458
20
4.90703266290001
30
0
41
1
10
23.8407545031082
20
4.95852343522955
30
0
41
1
10
22.8764828346373
20
5.016324589063
30
0
41
1
10
22.4433966948828
20
5.02927042542774
30
0
41
1
10
22.0096377863613
20
5.02907843087496
30
0
0
SPLINE
5
B3
100
AcDbEntity
8
1
62
256
6
ByLayer
370
18
48
1
60
0
100
AcDbSpline
70
4
71
3
72
8
73
4
40
0
40
0
40
0
40
0
40
1
40
1
40
1
40
1
41
1
10
56.9644086859464
20
-0.040928198642348
30
0
41
1
10
56.2284967228862
20
-1.24508585379789
30
0
41
1
10
55.5392845548853
20
-2.49165412192792
30
0
41
1
10
54.8984217367337
20
-3.78213105307088
30
0
0
SPLINE
5
B4
100
AcDbEntity
8
1
62
256
6
ByLayer
370
18
48
1
60
0
100
AcDbSpline
70
4
71
3
72
8
73
4
40
0
40
0
40
0
40
0
40
1
40
1
40
1
40
1
41
1
10
56.9893296248077
20
-0.12510902813213
30
0
41
1
10
56.9899951512476
20
-0.103190611796492
30
0
41
1
10
56.994035896373
20
-0.0764015230851385
30
0
41
1
10
56.9999566759556
20
-0.0482010197034697
30
0
0
SPLINE
5
B5
100
AcDbEntity
8
1
62
256
6
ByLayer
370
18
48
1
60
0
100
AcDbSpline
70
4
71
3
72
18
73
14
40
0
40
0
40
0
40
0
40
0.0245141391768569
40
0.0245141391768569
40
0.121423121951571
40
0.121423121951571
40
0.509059053050428
40
0.509059053050428
40
0.896694984149285
40
0.896694984149285
40
0.993603966924001
40
0.993603966924001
40
1
40
1
40
1
40
1
41
1
10
38.3625580481848
20
-0.0149660655746402
30
0
41
1
10
38.4302504068745
20
-0.0467938158193988
30
0
41
1
10
38.4979069520754
20
-0.078601644562923
30
0
41
1
10
38.8327275618043
20
-0.235962232451556
30
0
41
1
10
39.0993204804545
20
-0.361108129903755
30
0
41
1
10
40.4297155773872
20
-0.983441439526842
30
0
41
1
10
41.4858170836553
20
-1.47039799986078
30
0
41
1
10
43.5997661518912
20
-2.38455877781496
30
0
41
1
10
44.6574590334637
20
-2.8121998621211
30
0
41
1
10
45.991347494105
20
-3.2883356320593
30
0
41
1
10
46.2590783137852
20
-3.38073774221903
30
0
41
1
10
46.5444060022194
20
-3.47552445558855
30
0
41
1
10
46.5620687619221
20
-3.4813770387147
30
0
41
1
10
46.5797285253855
20
-3.48721352544857
30
0
0
SPLINE
5
B6
100
AcDbEntity
8
1
62
256
6
ByLayer
370
13
48
1
60
0
100
AcDbSpline
70
4
71
3
72
16
73
12
40
0
40
0
40
0
40
0
40
0.0854215858581284
40
0.0854215858581284
40
0.268337268686502
40
0.268337268686502
40
0.634168634343251
40
0.634168634343251
40
0.817084317171626
40
0.817084317171626
40
1
40
1
40
1
40
1
41
1
10
46.579728526016
20
-3.48721352565696
30
0
41
1
10
46.8296392537606
20
-3.56980810004473
30
0
41
1
10
47.0789499465624
20
-3.64917916770389
30
0
41
1
10
47.8605881947559
20
-3.88794617316046
30
0
41
1
10
48.3911722958458
20
-4.03536136879674
30
0
41
1
10
49.9795741485665
20
-4.42838197192745
30
0
41
1
10
51.0340927553972
20
-4.62414372035872
30
0
41
1
10
52.622243153872
20
-4.80770623293643
30
0
41
1
10
53.1527269617752
20
-4.85060833363886
30
0
41
1
10
54.2180081624901
20
-4.89817586199746
30
0
41
1
10
54.7538608723993
20
-4.90276732243549
30
0
41
1
10
55.2893171471941
20
-4.88753474112858
30
0
0
SPLINE
5
B7
100
AcDbEntity
8
1
62
256
6
ByLayer
370
18
48
1
60
0
100
AcDbSpline
70
4
71
3
72
16
73
12
40
0
40
0
40
0
40
0
40
0.230434371098734
40
0.230434371098734
40
0.65578592079324
40
0.65578592079324
40
0.762123808216867
40
0.762123808216867
40
0.868461695640494
40
0.868461695640494
40
1
40
1
40
1
40
1
41
1
10
5.67591431219509
20
0.0022442354123768
30
0
41
1
10
6.25287430472955
20
-0.267904288252197
30
0
41
1
10
6.8283663616792
20
-0.537474705510419
30
0
41
1
10
8.46618740954818
20
-1.29389620493262
30
0
41
1
10
9.5281329106619
20
-1.77251631351231
30
0
41
1
10
10.866911213058
20
-2.33073291064628
30
0
41
1
10
11.1352504900337
20
-2.44043014959132
30
0
41
1
10
11.6697549413239
20
-2.65397915905203
30
0
41
1
10
11.936360537517
20
-2.75801788953604
30
0
41
1
10
12.5316136541382
20
-2.98414466544045
30
0
41
1
10
12.8600594192845
20
-3.10458607442158
30
0
41
1
10
13.1880387327316
20
-3.22002634765451
30
0
0
SPLINE
5
B8
100
AcDbEntity
8
1
62
256
6
ByLayer
370
13
48
1
60
0
100
AcDbSpline
70
4
71
3
72
20
73
16
40
0
40
0
40
0
40
0
40
0.0569033724246182
40
0.0569033724246182
40
0.355210675830885
40
0.355210675830885
40
0.504364327534019
40
0.504364327534019
40
0.578941153385587
40
0.578941153385587
40
0.653517979237156
40
0.653517979237156
40
0.951825282643429
40
0.951825282643429
40
1
40
1
40
1
40
1
41
1
10
13.188037789456
20
-3.22002601564574
30
0
41
1
10
13.3903473252715
20
-3.2912337687292
30
0
41
1
10
13.5924793821995
20
-3.36053865492198
30
0
41
1
10
14.8535086706222
20
-3.78069759558937
30
0
41
1
10
15.9088061786315
20
-4.07948441041697
30
0
41
1
10
17.5000257145402
20
-4.42779698127191
30
0
41
1
10
18.0318099948914
20
-4.52732439023308
30
0
41
1
10
18.8330116643742
20
-4.64993905891998
30
0
41
1
10
19.1011176529799
20
-4.68641239878892
30
0
41
1
10
19.6365420118172
20
-4.74982704457645
30
0
41
1
10
19.9036123754056
20
-4.77676177886246
30
0
41
1
10
21.2361362646504
20
-4.88736506733835
30
0
41
1
10
22.2933940508367
20
-4.89928104074124
30
0
41
1
10
23.5213849284378
20
-4.82565937971239
30
0
41
1
10
23.6921325906614
20
-4.81346383630856
30
0
41
1
10
23.8629233099439
20
-4.79932144631127
30
0
0
SPLINE
5
B9
100
AcDbEntity
8
1
62
256
6
ByLayer
370
18
48
1
60
0
100
AcDbSpline
70
4
71
3
72
18
73
14
40
0
40
0
40
0
40
0
40
0.273733497322897
40
0.273733497322897
40
0.410600245984346
40
0.410600245984346
40
0.547466994645794
40
0.547466994645794
40
0.821200491968692
40
0.821200491968692
40
0.958067240630139
40
0.958067240630139
40
1
40
1
40
1
40
1
41
1
10
54.8984217367337
20
-3.78213105307088
30
0
41
1
10
54.8979644801657
20
-3.95643339841658
30
0
41
1
10
54.9056720456002
20
-4.10920314054553
30
0
41
1
10
54.9298523413173
20
-4.30664711104717
30
0
41
1
10
54.9400318761654
20
-4.36714614419941
30
0
41
1
10
54.9648986773798
20
-4.47723486758142
30
0
41
1
10
54.9794802441319
20
-4.52625925453694
30
0
41
1
10
55.0293288730652
20
-4.65457931932409
30
0
41
1
10
55.0707873807541
20
-4.71589039592249
30
0
41
1
10
55.1462884510569
20
-4.77227292259474
30
0
41
1
10
55.1737887040473
20
-4.78511761919273
30
0
41
1
10
55.2125023592209
20
-4.79387657663366
30
0
41
1
10
55.2217752579749
20
-4.79535779137669
30
0
41
1
10
55.2312438828465
20
-4.79626926824301
30
0
0
SPLINE
5
BA
100
AcDbEntity
8
1
62
256
6
ByLayer
370
18
48
1
60
0
100
AcDbSpline
70
4
71
3
72
40
73
36
40
0
40
0
40
0
40
0
40
0.124999999999991
40
0.124999999999991
40
0.249999999999982
40
0.249999999999982
40
0.312499999999979
40
0.312499999999979
40
0.374999999999977
40
0.374999999999977
40
0.499999999999973
40
0.499999999999973
40
0.56249999999997
40
0.56249999999997
40
0.624999999999968
40
0.624999999999968
40
0.749999999999968
40
0.749999999999968
40
0.812499999999968
40
0.812499999999968
40
0.828124999999971
40
0.828124999999971
40
0.835937499999972
40
0.835937499999972
40
0.843749999999973
40
0.843749999999973
40
0.851562499999974
40
0.851562499999974
40
0.855468749999974
40
0.855468749999974
40
0.859374999999975
40
0.859374999999975
40
0.874999999999977
40
0.874999999999977
40
1
40
1
40
1
40
1
41
1
10
50.5079106447067
20
1.41561149758755
30
0
41
1
10
50.7190735057422
20
1.2547585510836
30
0
41
1
10
50.9344171731177
20
1.1054150194814
30
0
41
1
10
51.3735097352178
20
0.829866853663759
30
0
41
1
10
51.5972521730672
20
0.703644444203803
30
0
41
1
10
51.9397340761343
20
0.533218545368868
30
0
41
1
10
52.0549898809946
20
0.479644964423073
30
0
41
1
10
52.2851575784672
20
0.380404356246203
30
0
41
1
10
52.4004016758569
20
0.334567402444719
30
0
41
1
10
52.7466231867064
20
0.208606626454667
30
0
41
1
10
52.9780828895109
20
0.139869293272852
30
0
41
1
10
53.3263368263194
20
0.0618925668813404
30
0
41
1
10
53.4426000235807
20
0.0401157952290134
30
0
41
1
10
53.6755192793922
20
0.0058374117424478
30
0
41
1
10
53.7925467544306
20
-0.0066474809657393
30
0
41
1
10
54.1404108374721
20
-0.0282975621358332
30
0
41
1
10
54.3685701071776
20
-0.0220438028092929
30
0
41
1
10
54.7042243717889
20
0.0236603270992646
30
0
41
1
10
54.8147920049003
20
0.0449805782344299
30
0
41
1
10
54.9502908029956
20
0.0797313036787273
30
0
41
1
10
54.9772647768211
20
0.0870886643008077
30
0
41
1
10
55.0175018521974
20
0.0987411731954637
30
0
41
1
10
55.0308782863099
20
0.102728447907936
30
0
41
1
10
55.0575584785062
20
0.110911581999858
30
0
41
1
10
55.0711092328635
20
0.114454502449036
30
0
41
1
10
55.0965946707723
20
0.125764439204033
30
0
41
1
10
55.1081340805946
20
0.134501071480656
30
0
41
1
10
55.1193340723795
20
0.154038122234823
30
0
41
1
10
55.1217853532985
20
0.161738331370913
30
0
41
1
10
55.1243599135687
20
0.178023866999894
30
0
41
1
10
55.1249710643863
20
0.186508304699515
30
0
41
1
10
55.1289354172906
20
0.228417681912418
30
0
41
1
10
55.1317144087028
20
0.26208831650959
30
0
41
1
10
55.1533416571783
20
0.566230642568854
30
0
41
1
10
55.1485939185832
20
0.844219680218743
30
0
41
1
10
55.1277792573528
20
1.12170222230125
30
0
0
SPLINE
5
BB
100
AcDbEntity
8
1
62
256
6
ByLayer
370
18
48
1
60
0
100
AcDbSpline
70
4
71
3
72
20
73
16
40
0
40
0
40
0
40
0
40
0.193648450515201
40
0.193648450515201
40
0.387296901030401
40
0.387296901030401
40
0.580945351545602
40
0.580945351545602
40
0.7745938020608
40
0.7745938020608
40
0.871418027318397
40
0.871418027318397
40
0.968242252575993
40
0.968242252575993
40
1
40
1
40
1
40
1
41
1
10
13.6308174259814
20
-3.99893771464329
30
0
41
1
10
14.0696190429115
20
-4.12876679398065
30
0
41
1
10
14.5076102495509
20
-4.24558559265526
30
0
41
1
10
15.3805858179421
20
-4.45640338083516
30
0
41
1
10
15.8147768377986
20
-4.55098199795367
30
0
41
1
10
16.6833106996367
20
-4.71410730285717
30
0
41
1
10
17.1173723466515
20
-4.78316072130278
30
0
41
1
10
17.9835465417176
20
-4.89711375762536
30
0
41
1
10
18.4169587770516
20
-4.94116739143075
30
0
41
1
10
19.0682301727557
20
-4.98783063281499
30
0
41
1
10
19.2854438883588
20
-5.00017729688454
30
0
41
1
10
19.7198284575188
20
-5.01838980066162
30
0
41
1
10
19.9371525124257
20
-5.0242032397226
30
0
41
1
10
20.226462659161
20
-5.02749317256701
30
0
41
1
10
20.2979670311793
20
-5.02795236065867
30
0
41
1
10
20.3695171159357
20
-5.02805616743447
30
0
0
SPLINE
5
BC
100
AcDbEntity
8
1
62
256
6
ByLayer
370
18
48
1
60
0
100
AcDbSpline
70
4
71
3
72
34
73
30
40
0
40
0
40
0
40
0
40
0.0130158770267922
40
0.0130158770267922
40
0.0747023847126149
40
0.0747023847126149
40
0.136388892398437
40
0.136388892398437
40
0.259761907770085
40
0.259761907770085
40
0.321448415455911
40
0.321448415455911
40
0.383134923141736
40
0.383134923141736
40
0.444821430827562
40
0.444821430827562
40
0.506507938513387
40
0.506507938513387
40
0.629880953885039
40
0.629880953885039
40
0.691567461570865
40
0.691567461570865
40
0.753253969256693
40
0.753253969256693
40
0.814940476942519
40
0.814940476942519
40
0.876626984628346
40
0.876626984628346
40
1
40
1
40
1
40
1
41
1
10
44.8259449876372
20
3.54992927995309
30
0
41
1
10
44.8719814282134
20
3.56576954770705
30
0
41
1
10
44.9180344089224
20
3.58151005202092
30
0
41
1
10
45.1824385305735
20
3.67128356351117
30
0
41
1
10
45.4011452113191
20
3.74317699318092
30
0
41
1
10
45.8390013491738
20
3.88285377035109
30
0
41
1
10
46.058455891915
20
3.95058970226668
30
0
41
1
10
46.716620013727
20
4.14442589777215
30
0
41
1
10
47.1552149542865
20
4.26187384103312
30
0
41
1
10
47.8115875978236
20
4.42190135413409
30
0
41
1
10
48.0300914497856
20
4.47254086363719
30
0
41
1
10
48.4676683841376
20
4.56730432617556
30
0
41
1
10
48.6866522923925
20
4.61153525826347
30
0
41
1
10
49.1248668814196
20
4.69387009627019
30
0
41
1
10
49.3441057029862
20
4.7319700304343
30
0
41
1
10
49.7825787854064
20
4.80214665699563
30
0
41
1
10
50.0018970980396
20
4.83426457130102
30
0
41
1
10
50.6600603947155
20
4.92027368919022
30
0
41
1
10
51.098791917301
20
4.96416734207324
30
0
41
1
10
51.7557338825798
20
5.01048652131411
30
0
41
1
10
51.9743860051868
20
5.02266123887782
30
0
41
1
10
52.4122340428597
20
5.04016915791149
30
0
41
1
10
52.6313916171046
20
5.04553755290647
30
0
41
1
10
53.070045739267
20
5.04958297164907
30
0
41
1
10
53.2895426220835
20
5.04826206372729
30
0
41
1
10
53.7286617613165
20
5.03884549403872
30
0
41
1
10
53.9477602349063
20
5.03071271424417
30
0
41
1
10
54.6050384373127
20
4.99630278589478
30
0
41
1
10
55.0434240417812
20
4.96022207505683
30
0
41
1
10
55.4813645980192
20
4.91092323905585
30
0
0
SPLINE
5
BD
100
AcDbEntity
8
1
62
256
6
ByLayer
370
13
48
1
60
0
100
AcDbSpline
70
4
71
3
72
8
73
4
40
0
40
0
40
0
40
0
40
1
40
1
40
1
40
1
41
1
10
4.25025081107924
20
0.760800293065017
30
0
41
1
10
4.21337305097583
20
0.770807454689361
30
0
41
1
10
4.17741721431614
20
0.781747263618286
30
0
41
1
10
4.14378664923277
20
0.793356924566098
30
0
0
SPLINE
5
BE
100
AcDbEntity
8
1
62
256
6
ByLayer
370
18
48
1
60
0
100
AcDbSpline
70
4
71
3
72
37
73
33
40
0
40
0
40
0
40
0
40
0.0373745225774374
40
0.0373745225774374
40
0.106810002131434
40
0.106810002131434
40
0.176245481685429
40
0.176245481685429
40
0.315116440793422
40
0.315116440793422
40
0.453987399901414
40
0.453987399901414
40
0.52342287945541
40
0.52342287945541
40
0.558140619232408
40
0.558140619232408
40
0.575499489120907
40
0.579839206593032
40
0.579839206593032
40
0.584178924065157
40
0.584178924065157
40
0.588518641537282
40
0.588518641537282
40
0.592858359009406
40
0.592858359009406
40
0.731729318117399
40
0.731729318117399
40
0.801164797671395
40
0.801164797671395
40
0.87060027722539
40
0.87060027722539
40
1
40
1
40
1
40
1
41
1
10
13.6308174259814
20
3.99893771463991
30
0
41
1
10
13.6308174259814
20
3.91494590100871
30
0
41
1
10
13.6308174259814
20
3.8322374363062
30
0
41
1
10
13.6308174259814
20
3.59947308120766
30
0
41
1
10
13.6308174259814
20
3.45253215588738
30
0
41
1
10
13.6308174259814
20
3.1673816044393
30
0
41
1
10
13.6308174259814
20
3.02854839608435
30
0
41
1
10
13.6308174259814
20
2.63100038006667
30
0
41
1
10
13.6308174259814
20
2.39085273534289
30
0
41
1
10
13.6308174259814
20
1.95661801043573
30
0
41
1
10
13.6308174259814
20
1.76255601046409
30
0
41
1
10
13.6308174259814
20
1.50593073989398
30
0
41
1
10
13.6308174259814
20
1.4261972272021
30
0
41
1
10
13.6308174259814
20
1.31647843031149
30
0
41
1
10
13.6308174259814
20
1.28149663708285
30
0
41
1
10
13.6308174259814
20
1.23140143865424
30
0
41
1
10
13.6308174259814
20
1.21102719186598
30
0
41
1
10
13.6308174259814
20
1.19128700493585
30
0
41
1
10
13.6308174259814
20
1.18344110509656
30
0
41
1
10
13.6308174259814
20
1.17934295432687
30
0
41
1
10
13.6308174259814
20
1.17564014689674
30
0
41
1
10
13.6308174259814
20
1.17545253962376
30
0
41
1
10
13.6308174259814
20
1.17855119321587
30
0
41
1
10
13.6308174259814
20
1.18218899660729
30
0
41
1
10
13.6308174259814
20
1.32515736041901
30
0
41
1
10
13.6308174259814
20
1.491875420176
30
0
41
1
10
13.6308174259814
20
1.78224302465014
30
0
41
1
10
13.6308174259814
20
1.8861333710945
30
0
41
1
10
13.6308174259814
20
2.10559889814581
30
0
41
1
10
13.6308174259814
20
2.22134240935711
30
0
41
1
10
13.6308174259814
20
2.57017031804889
30
0
41
1
10
13.6308174259814
20
2.81812235298409
30
0
41
1
10
13.6308174259814
20
3.08884688071223
30
0
0
SPLINE
5
BF
100
AcDbEntity
8
1
62
256
6
ByLayer
370
18
48
1
60
0
100
AcDbSpline
70
4
71
3
72
8
73
4
40
0
40
0
40
0
40
0
40
1
40
1
40
1
40
1
41
1
10
55.2276239664711
20
5.04220318208129
30
0
41
1
10
55.0368285700747
20
5.0471889022397
30
0
41
1
10
54.8460074950281
20
5.04961276216042
30
0
41
1
10
54.6551543764194
20
5.04948016724714
30
0
0
SPLINE
5
C0
100
AcDbEntity
8
1
62
256
6
ByLayer
370
18
48
1
60
0
100
AcDbSpline
70
4
71
3
72
40
73
36
40
0
40
0
40
0
40
0
40
0.0128706666881633
40
0.0128706666881633
40
0.0888036923275345
40
0.0888036923275345
40
0.12677020514722
40
0.12677020514722
40
0.164736717966906
40
0.164736717966906
40
0.240669743606279
40
0.240669743606279
40
0.316602769245652
40
0.316602769245652
40
0.354569282065339
40
0.354569282065339
40
0.392535794885025
40
0.392535794885025
40
0.468468820524397
40
0.468468820524397
40
0.506435333344083
40
0.506435333344083
40
0.544401846163769
40
0.544401846163769
40
0.69626789744251
40
0.69626789744251
40
0.734234410262196
40
0.734234410262196
40
0.772200923081882
40
0.772200923081882
40
0.848133948721255
40
0.848133948721255
40
0.924066974360627
40
0.924066974360627
40
1
40
1
40
1
40
1
41
1
10
25.1747071142662
20
-4.79898180716233
30
0
41
1
10
25.0844889394008
20
-4.81203135267776
30
0
41
1
10
24.9942949184704
20
-4.82453415303456
30
0
41
1
10
24.3721116602114
20
-4.90701139546951
30
0
41
1
10
23.8409485746648
20
-4.95850978281197
30
0
41
1
10
23.0434031404151
20
-5.00631992619347
30
0
41
1
10
22.7774198916945
20
-5.01735694955616
30
0
41
1
10
22.2448882387055
20
-5.02954720490467
30
0
41
1
10
21.9780941749167
20
-5.03069446247599
30
0
41
1
10
21.1786644294287
20
-5.01924820726668
30
0
41
1
10
20.6470112496552
20
-4.99179539109468
30
0
41
1
10
19.5837580665581
20
-4.89813935092826
30
0
41
1
10
19.0523083494095
20
-4.83187469482777
30
0
41
1
10
18.2534190440383
20
-4.70418929415754
30
0
41
1
10
17.9865756712979
20
-4.65687999913135
30
0
41
1
10
17.453583280675
20
-4.55330784763513
30
0
41
1
10
17.187401513934
20
-4.49704853080291
30
0
41
1
10
16.389409861332
20
-4.315264650502
30
0
41
1
10
15.8581399024453
20
-4.17672862417308
30
0
41
1
10
15.0603861126076
20
-3.94508220604786
30
0
41
1
10
14.7943309697417
20
-3.86389139626692
30
0
41
1
10
14.2616411986479
20
-3.69393168462372
30
0
41
1
10
13.9947656371405
20
-3.60507707216232
30
0
41
1
10
12.6621982372731
20
-3.14423761623576
30
0
41
1
10
11.6013990567328
20
-2.72140442282151
30
0
41
1
10
10.2693227432379
20
-2.1467321382151
30
0
41
1
10
10.0024239063547
20
-2.02935873181247
30
0
41
1
10
9.46930526986716
20
-1.79097093570277
30
0
41
1
10
9.20299034684376
20
-1.66994618398726
30
0
41
1
10
8.40418370922941
20
-1.30255607118133
30
0
41
1
10
7.87186315116222
20
-1.05181207114794
30
0
41
1
10
6.80539074774867
20
-0.543249563062062
30
0
41
1
10
6.27212115176681
20
-0.285804095680248
30
0
41
1
10
5.2071346384437
20
0.228675449800193
30
0
41
1
10
4.67471766860348
20
0.485756581291667
30
0
41
1
10
4.14129890354789
20
0.740439742318699
30
0
0
SPLINE
5
C1
100
AcDbEntity
8
1
62
256
6
ByLayer
370
18
48
1
60
0
100
AcDbSpline
70
4
71
3
72
8
73
4
40
0
40
0
40
0
40
0
40
1
40
1
40
1
40
1
41
1
10
56.9999566759556
20
0.0482010197119962
30
0
41
1
10
57.0000144440333
20
0.0160655127593259
30
0
41
1
10
57.0000144373171
20
-0.0160692488739755
30
0
41
1
10
56.9999566759556
20
-0.0482010197031002
30
0
0
SPLINE
5
C2
100
AcDbEntity
8
1
62
256
6
ByLayer
370
18
48
1
60
0
100
AcDbSpline
70
4
71
3
72
8
73
4
40
0
40
0
40
0
40
0
40
1
40
1
40
1
40
1
41
1
10
56.9893296248076
20
0.125109028132243
30
0
41
1
10
56.9899951512474
20
0.103190611803569
30
0
41
1
10
56.9940358963704
20
0.0764015231021347
30
0
41
1
10
56.9999566759499
20
0.0482010197304419
30
0
0
SPLINE
5
C3
100
AcDbEntity
8
1
62
256
6
ByLayer
370
18
48
1
60
0
100
AcDbSpline
70
4
71
3
72
8
73
4
40
0
40
0
40
0
40
0
40
1
40
1
40
1
40
1
41
1
10
11.9789456122552
20
3.60932866482108
30
0
41
1
10
12.5327979013512
20
3.73872985563278
30
0
41
1
10
13.0830365856472
20
3.87059724393254
30
0
41
1
10
13.6308174259814
20
3.99893771464329
30
0
0
SPLINE
5
C4
100
AcDbEntity
8
1
62
256
6
ByLayer
370
18
48
1
60
0
100
AcDbSpline
70
4
71
3
72
10
73
6
40
0
40
0
40
0
40
0
40
0.5
40
0.5
40
1
40
1
40
1
40
1
41
1
10
55.4813645980184
20
-4.9109232390565
30
0
41
1
10
55.4349017872694
20
-4.94569948767369
30
0
41
1
10
55.3905408484031
20
-4.97423030725127
30
0
41
1
10
55.3059613973008
20
-5.01823727893947
30
0
41
1
10
55.26561971766
20
-5.03374091053237
30
0
41
1
10
55.2276239664712
20
-5.04220318208129
30
0
0
SPLINE
5
C5
100
AcDbEntity
8
1
62
256
6
ByLayer
370
18
48
1
60
0
100
AcDbSpline
70
4
71
3
72
14
73
10
40
0
40
0
40
0
40
0
40
0.25
40
0.25
40
0.5
40
0.5
40
0.75
40
0.75
40
1
40
1
40
1
40
1
41
1
10
55.1277792573529
20
1.12170222230125
30
0
41
1
10
55.1266244852997
20
1.13709661576723
30
0
41
1
10
55.1295580235023
20
1.15276260132137
30
0
41
1
10
55.1446145134073
20
1.17999887661216
30
0
41
1
10
55.1567075732137
20
1.19134596706473
30
0
41
1
10
55.1839915820633
20
1.20729068550097
30
0
41
1
10
55.1994074861879
20
1.21236322196543
30
0
41
1
10
55.2303759704282
20
1.21820330277552
30
0
41
1
10
55.2463079966625
20
1.21907877214935
30
0
41
1
10
55.2621529050971
20
1.21845326264051
30
0
0
SPLINE
5
C6
100
AcDbEntity
8
1
62
256
6
ByLayer
370
13
48
1
60
0
100
AcDbSpline
70
4
71
3
72
10
73
6
40
0
40
0
40
0
40
0
40
0.5
40
0.5
40
1
40
1
40
1
40
1
41
1
10
3.99999957242491
20
0.962020559590712
30
0
41
1
10
3.99999957242491
20
0.928127322655286
30
0
41
1
10
4.01261341158147
20
0.893531561683602
30
0
41
1
10
4.06113782139749
20
0.834666912226197
30
0
41
1
10
4.09753035261357
20
0.809325134410983
30
0
41
1
10
4.14378664923277
20
0.793356924566098
30
0
0
SPLINE
5
C7
100
AcDbEntity
8
1
62
256
6
ByLayer
370
18
48
1
60
0
100
AcDbSpline
70
4
71
3
72
24
73
20
40
0
40
0
40
0
40
0
40
0.142151487695667
40
0.142151487695667
40
0.284302975391333
40
0.284302975391333
40
0.426454463087
40
0.426454463087
40
0.568605950782666
40
0.568605950782666
40
0.639681694630499
40
0.639681694630499
40
0.710757438478333
40
0.710757438478333
40
0.852908926173999
40
0.852908926173999
40
0.995060413869666
40
0.995060413869666
40
1
40
1
40
1
40
1
41
1
10
13.6308174259814
20
3.09645511399322
30
0
41
1
10
13.2221772627236
20
3.22766852130167
30
0
41
1
10
12.8164468991154
20
3.35655412593016
30
0
41
1
10
12.0089992483589
20
3.60674955218724
30
0
41
1
10
11.6072700560187
20
3.72760790936149
30
0
41
1
10
10.8057715612491
20
3.95421206104987
30
0
41
1
10
10.4072409374311
20
4.059020790912
30
0
41
1
10
9.61353397295147
20
4.25058503629259
30
0
41
1
10
9.21825363438629
20
4.33763656808003
30
0
41
1
10
8.62694372290954
20
4.45211697808239
30
0
41
1
10
8.4301119816738
20
4.487619221302
30
0
41
1
10
8.03691701185261
20
4.55302606449888
30
0
41
1
10
7.84039966928836
20
4.58298306863756
30
0
41
1
10
7.25421267302056
20
4.66304525140052
30
0
41
1
10
6.86722670158753
20
4.70305401604438
30
0
41
1
10
6.10103557193594
20
4.75739018824936
30
0
41
1
10
5.72201639776762
20
4.77076004776242
30
0
41
1
10
5.33581688095086
20
4.76694422140744
30
0
41
1
10
5.3228543531564
20
4.76679579804892
30
0
41
1
10
5.30989878563682
20
4.76662671752337
30
0
0
SPLINE
5
C8
100
AcDbEntity
8
1
62
256
6
ByLayer
370
18
48
1
60
0
100
AcDbSpline
70
4
71
3
72
16
73
12
40
0
40
0
40
0
40
0
40
0.250000000000002
40
0.250000000000002
40
0.500000000000004
40
0.500000000000004
40
0.625000000000002
40
0.625000000000002
40
0.750000000000001
40
0.750000000000001
40
1
40
1
40
1
40
1
41
1
10
3.99999957242494
20
-4.95084600654445
30
0
41
1
10
3.99999957242494
20
-4.91954401819086
30
0
41
1
10
4.00439248155681
20
-4.88795270320449
30
0
41
1
10
4.02555415615618
20
-4.82378988805263
30
0
41
1
10
4.04302904212739
20
-4.79106706445492
30
0
41
1
10
4.07965178890541
20
-4.75061592926659
30
0
41
1
10
4.09375912700403
20
-4.73839059399751
30
0
41
1
10
4.12403734944914
20
-4.71845850617731
30
0
41
1
10
4.1401694223496
20
-4.71073292587386
30
0
41
1
10
4.18892412347219
20
-4.6944766148487
30
0
41
1
10
4.22106535313236
20
-4.69280902060748
30
0
41
1
10
4.25076441387745
20
-4.69665459578158
30
0
0
SPLINE
5
C9
100
AcDbEntity
8
1
62
256
6
ByLayer
370
18
48
1
60
0
100
AcDbSpline
70
4
71
3
72
8
73
4
40
0
40
0
40
0
40
0
40
1
40
1
40
1
40
1
41
1
10
56.938817330138
20
-1.15657576860397
30
0
41
1
10
56.9620589067284
20
-0.812428507761524
30
0
41
1
10
56.9788997483148
20
-0.468606087876651
30
0
41
1
10
56.9893296248076
20
-0.125109028132243
30
0
0
SPLINE
5
CA
100
AcDbEntity
8
1
62
256
6
ByLayer
370
18
48
1
60
0
100
AcDbSpline
70
4
71
3
72
22
73
18
40
0
40
0
40
0
40
0
40
0.15073864470579
40
0.15073864470579
40
0.226107967058686
40
0.226107967058686
40
0.301477289411582
40
0.301477289411582
40
0.452215934117373
40
0.452215934117373
40
0.602954578823165
40
0.602954578823165
40
0.753693223528957
40
0.753693223528957
40
0.904431868234749
40
0.904431868234749
40
1
40
1
40
1
40
1
41
1
10
4.25076441379994
20
-4.69665459577155
30
0
41
1
10
4.60676355844006
20
-4.74275105264275
30
0
41
1
10
4.97485669425282
20
-4.76340634729556
30
0
41
1
10
5.53711902308558
20
-4.76891883753103
30
0
41
1
10
5.7263105010471
20
-4.76639608057963
30
0
41
1
10
6.10761691549882
20
-4.75364957236613
30
0
41
1
10
6.29997115468967
20
-4.74338434642536
30
0
41
1
10
6.87862871323097
20
-4.70203407438854
30
0
41
1
10
7.26662697252866
20
-4.66159343966811
30
0
41
1
10
8.04672487311291
20
-4.55455174584608
30
0
41
1
10
8.43875566147648
20
-4.48870459786534
30
0
41
1
10
9.22696382177514
20
-4.33579324575567
30
0
41
1
10
9.6236612127162
20
-4.24827832372441
30
0
41
1
10
10.4173042510035
20
-4.05645088941262
30
0
41
1
10
10.8147380064576
20
-3.95176032528445
30
0
41
1
10
11.4663763769869
20
-3.76738813495129
30
0
41
1
10
11.7197814186724
20
-3.69279973193875
30
0
41
1
10
11.9739956590685
20
-3.61599141981995
30
0
0
SPLINE
5
CB
100
AcDbEntity
8
1
62
256
6
ByLayer
370
18
48
1
60
0
100
AcDbSpline
70
4
71
3
72
96
73
92
40
0
40
0
40
0
40
0
40
0.0331895122861962
40
0.0331895122861962
40
0.0663790245723925
40
0.0663790245723925
40
0.0995685368585887
40
0.0995685368585887
40
0.132758049144785
40
0.132758049144785
40
0.149352805287883
40
0.149352805287883
40
0.165947561430981
40
0.165947561430981
40
0.199137073717178
40
0.199137073717178
40
0.215731829860276
40
0.215731829860276
40
0.232326586003374
40
0.232326586003374
40
0.248921342146473
40
0.248921342146473
40
0.265516098289571
40
0.265516098289571
40
0.298705610575767
40
0.298705610575767
40
0.315300366718866
40
0.315300366718866
40
0.331895122861964
40
0.331895122861964
40
0.348489879005063
40
0.348489879005063
40
0.365084635148161
40
0.365084635148161
40
0.398274147434357
40
0.398274147434357
40
0.414868903577455
40
0.414868903577455
40
0.431463659720553
40
0.431463659720553
40
0.44805841586365
40
0.44805841586365
40
0.464653172006748
40
0.464653172006748
40
0.497842684292944
40
0.497842684292944
40
0.53103219657914
40
0.53103219657914
40
0.564221708865337
40
0.564221708865337
40
0.597411221151533
40
0.597411221151533
40
0.614005977294631
40
0.614005977294631
40
0.630600733437729
40
0.630600733437729
40
0.663790245723925
40
0.663790245723925
40
0.696979758010122
40
0.696979758010122
40
0.713574514153219
40
0.713574514153219
40
0.730169270296317
40
0.730169270296317
40
0.763358782582513
40
0.763358782582513
40
0.779953538725611
40
0.779953538725611
40
0.796548294868709
40
0.796548294868709
40
0.813143051011808
40
0.813143051011808
40
0.829737807154906
40
0.829737807154906
40
0.862927319441103
40
0.862927319441103
40
0.879522075584201
40
0.879522075584201
40
0.8961168317273
40
0.8961168317273
40
0.912711587870399
40
0.912711587870399
40
0.929306344013497
40
0.929306344013497
40
0.962495856299694
40
0.962495856299694
40
0.979090612442792
40
0.979090612442792
40
0.99568536858589
40
0.99568536858589
40
1
40
1
40
1
40
1
41
1
10
13.6308174259814
20
3.99893771464329
30
0
41
1
10
14.0696190429115
20
4.12876679398062
30
0
41
1
10
14.5076102495509
20
4.24558559265523
30
0
41
1
10
15.3805858179421
20
4.45640338083516
30
0
41
1
10
15.8147768377986
20
4.55098199795367
30
0
41
1
10
16.6833106996367
20
4.71410730285714
30
0
41
1
10
17.1173723466515
20
4.78316072130281
30
0
41
1
10
17.9835465417177
20
4.89711375762533
30
0
41
1
10
18.4169587770516
20
4.94116739143075
30
0
41
1
10
19.0682301727557
20
4.98783063281499
30
0
41
1
10
19.2854438883588
20
5.00017729688452
30
0
41
1
10
19.7198284575187
20
5.01838980066162
30
0
41
1
10
19.9371525124257
20
5.0242032397226
30
0
41
1
10
20.5907176327751
20
5.03163535152257
30
0
41
1
10
21.0282594819054
20
5.02345105824764
30
0
41
1
10
21.6861117110412
20
4.99078346559503
30
0
41
1
10
21.9057292193686
20
4.97644241764718
30
0
41
1
10
22.3438824007473
20
4.94137740606706
30
0
41
1
10
22.5626636930742
20
4.92063166136609
30
0
41
1
10
22.9995064075196
20
4.8727793383899
30
0
41
1
10
23.2175812794914
20
4.84568250186763
30
0
41
1
10
23.6527381368147
20
4.78495367462503
30
0
41
1
10
23.8698211447498
20
4.75129457462245
30
0
41
1
10
24.5212024949812
20
4.64162070507018
30
0
41
1
10
24.9553493171929
20
4.55687421123955
30
0
41
1
10
25.6053098950549
20
4.41147570172504
30
0
41
1
10
25.8216498731312
20
4.35981642289372
30
0
41
1
10
26.2548627684517
20
4.25130165589226
30
0
41
1
10
26.4716779192325
20
4.19440756047541
30
0
41
1
10
26.9055998859698
20
4.07525745902083
30
0
41
1
10
27.1227080337154
20
4.01300485963739
30
0
41
1
10
27.557008338549
20
3.88280850380602
30
0
41
1
10
27.7740647527677
20
3.81465820796447
30
0
41
1
10
28.4266026914324
20
3.60322580280266
30
0
41
1
10
28.8634807219356
20
3.45317646433509
30
0
41
1
10
29.5206910237669
20
3.21285240349184
30
0
41
1
10
29.7402570495439
20
3.12976681670787
30
0
41
1
10
30.1787378465534
20
2.96023699638994
30
0
41
1
10
30.3976790731578
20
2.87393106985545
30
0
41
1
10
30.8348916020178
20
2.69815859486636
30
0
41
1
10
31.0531573904629
20
2.60868232587009
30
0
41
1
10
31.4888346464727
20
2.42623596700037
30
0
41
1
10
31.7060978572173
20
2.33297931618603
30
0
41
1
10
32.3573831064347
20
2.04942763048322
30
0
41
1
10
32.791428210903
20
1.85641228373194
30
0
41
1
10
33.6582369336065
20
1.46062690970672
30
0
41
1
10
34.0905326664206
20
1.25685136809426
30
0
41
1
10
34.9575120737028
20
0.846927477078424
30
0
41
1
10
35.391498241359
20
0.639393745726892
30
0
41
1
10
36.2600195656785
20
0.218054825754109
30
0
41
1
10
36.6959446865588
20
0.0072369567759267
30
0
41
1
10
37.3520448588029
20
-0.30984164168828
30
0
41
1
10
37.5710165043949
20
-0.415897981459096
30
0
41
1
10
38.0096600120277
20
-0.628443507086189
30
0
41
1
10
38.2290543061488
20
-0.73418669835911
30
0
41
1
10
38.8857354801864
20
-1.0477825850646
30
0
41
1
10
39.322189004474
20
-1.25302241881488
30
0
41
1
10
40.1912182243111
20
-1.65849608106595
30
0
41
1
10
40.6251735728417
20
-1.85583924692958
30
0
41
1
10
41.2755570337075
20
-2.14345376558487
30
0
41
1
10
41.4921896104657
20
-2.23806081928336
30
0
41
1
10
41.9249297923791
20
-2.42508072706281
30
0
41
1
10
42.1412402240891
20
-2.51710430012116
30
0
41
1
10
42.7909547688946
20
-2.78699292284543
30
0
41
1
10
43.2248780211278
20
-2.95923677717764
30
0
41
1
10
43.8756580862768
20
-3.20814680836551
30
0
41
1
10
44.0926890360739
20
-3.28931284813797
30
0
41
1
10
44.527788674312
20
-3.44667182634785
30
0
41
1
10
44.7457679491685
20
-3.52302017331738
30
0
41
1
10
45.1824385305734
20
-3.67128356351117
30
0
41
1
10
45.401145211319
20
-3.7431769931809
30
0
41
1
10
45.8390013491737
20
-3.88285377035109
30
0
41
1
10
46.058455891915
20
-3.95058970226668
30
0
41
1
10
46.716620013727
20
-4.14442589777212
30
0
41
1
10
47.1552149542865
20
-4.26187384103312
30
0
41
1
10
47.8115875978236
20
-4.42190135413406
30
0
41
1
10
48.0300914497856
20
-4.47254086363719
30
0
41
1
10
48.4676683841376
20
-4.56730432617553
30
0
41
1
10
48.6866522923925
20
-4.61153525826344
30
0
41
1
10
49.1248668814196
20
-4.69387009627019
30
0
41
1
10
49.3441057029862
20
-4.7319700304343
30
0
41
1
10
49.7825787854063
20
-4.80214665699563
30
0
41
1
10
50.0018970980396
20
-4.83426457130102
30
0
41
1
10
50.6600603947155
20
-4.92027368919022
30
0
41
1
10
51.0987919173009
20
-4.96416734207324
30
0
41
1
10
51.7557338825798
20
-5.01048652131411
30
0
41
1
10
51.9743860051868
20
-5.02266123887782
30
0
41
1
10
52.4122340428597
20
-5.04016915791149
30
0
41
1
10
52.6313916171045
20
-5.04553755290647
30
0
41
1
10
52.9077436455637
20
-5.04808616608256
30
0
41
1
10
52.9647800928634
20
-5.04838604190138
30
0
41
1
10
53.021826137088
20
-5.04845912061776
30
0
0
SPLINE
5
CC
100
AcDbEntity
8
1
62
256
6
ByLayer
370
18
48
1
60
0
100
AcDbSpline
70
4
71
3
72
14
73
10
40
0
40
0
40
0
40
0
40
0.225479538358507
40
0.225479538358507
40
0.450959076717013
40
0.450959076717013
40
0.901918153434031
40
0.901918153434031
40
1
40
1
40
1
40
1
41
1
10
55.2985875906401
20
-4.79373682932243
30
0
41
1
10
54.7635540059555
20
-4.80324087033171
30
0
41
1
10
54.2282533833628
20
-4.79339032493539
30
0
41
1
10
53.1638651585789
20
-4.73630850681604
30
0
41
1
10
52.6337461048777
20
-4.68913422812108
30
0
41
1
10
51.0465051505769
20
-4.49419042962074
30
0
41
1
10
49.9922995429147
20
-4.29282783902281
30
0
41
1
10
48.7036019753112
20
-3.9696643313344
30
0
41
1
10
48.4731733990187
20
-3.90893770077867
30
0
41
1
10
48.2424462830609
20
-3.84530428643515
30
0
0
SPLINE
5
CD
100
AcDbEntity
8
1
62
256
6
ByLayer
370
13
48
1
60
0
100
AcDbSpline
70
4
71
3
72
26
73
22
40
0
40
0
40
0
40
0
40
0.0633594553241981
40
0.0633594553241981
40
0.119429019212962
40
0.119429019212962
40
0.175498583101725
40
0.175498583101725
40
0.399776838656786
40
0.399776838656786
40
0.624055094211846
40
0.624055094211846
40
0.68012465810061
40
0.68012465810061
40
0.736194221989374
40
0.736194221989374
40
0.8483333497669
40
0.8483333497669
40
0.960472477544426
40
0.960472477544426
40
1
40
1
40
1
40
1
41
1
10
48.2424459494351
20
-3.84530419442274
30
0
41
1
10
47.9427565352852
20
-3.76265131072606
30
0
41
1
10
47.6425634493409
20
-3.67509433905639
30
0
41
1
10
47.0754131096602
20
-3.50117898620923
30
0
41
1
10
46.8086081759778
20
-3.41582150724943
30
0
41
1
10
46.2736474824738
20
-3.23803790779132
30
0
41
1
10
46.0062509680304
20
-3.14585742089216
30
0
41
1
10
44.6735673784655
20
-2.67138515514441
30
0
41
1
10
43.6164061794752
20
-2.24729329254848
30
0
41
1
10
41.5033886518419
20
-1.34419111492863
30
0
41
1
10
40.4476259977572
20
-0.864852278056219
30
0
41
1
10
39.1179717635509
20
-0.254300068311721
30
0
41
1
10
38.8515403395264
20
-0.131624956255507
30
0
41
1
10
38.3174333309828
20
0.114343071061057
30
0
41
1
10
38.0494981076624
20
0.23776876867413
30
0
41
1
10
37.2473557101311
20
0.606226286315064
30
0
41
1
10
36.7137153162896
20
0.849828746972719
30
0
41
1
10
35.6464606928769
20
1.32818528415302
30
0
41
1
10
35.1128390770444
20
1.56293264946001
30
0
41
1
10
34.3897456676642
20
1.87148572281186
30
0
41
1
10
34.2010432288722
20
1.95112163843206
30
0
41
1
10
34.0123756862749
20
2.0297210664302
30
0
0
SPLINE
5
CE
100
AcDbEntity
8
1
62
256
6
ByLayer
370
18
48
1
60
0
100
AcDbSpline
70
4
71
3
72
30
73
26
40
0
40
0
40
0
40
0
40
0.0625000000000004
40
0.0625000000000004
40
0.0937500000000002
40
0.0937500000000002
40
0.125
40
0.125
40
0.250000000000002
40
0.250000000000002
40
0.312500000000002
40
0.312500000000002
40
0.375000000000002
40
0.375000000000002
40
0.437500000000001
40
0.437500000000001
40
0.500000000000001
40
0.500000000000001
40
0.625000000000001
40
0.625000000000001
40
0.750000000000001
40
0.750000000000001
40
0.875
40
0.875
40
1
40
1
40
1
40
1
41
1
10
50.5079106447067
20
1.41561149758743
30
0
41
1
10
50.5140364707996
20
1.26688288545159
30
0
41
1
10
50.5303539291313
20
1.11725667925859
30
0
41
1
10
50.5695052680983
20
0.89152490489198
30
0
41
1
10
50.5850058197906
20
0.81606519523487
30
0
41
1
10
50.6208579337896
20
0.664718539321456
30
0
41
1
10
50.6412540392853
20
0.588763374066247
30
0
41
1
10
50.7531310624522
20
0.214496626097656
30
0
41
1
10
50.8749055433746
20
-0.0729227554097065
30
0
41
1
10
51.0968965240871
20
-0.489435342957108
30
0
41
1
10
51.1764742215873
20
-0.623786950405304
30
0
41
1
10
51.344063811371
20
-0.883408565603673
30
0
41
1
10
51.4322297904769
20
-1.00897364146928
30
0
41
1
10
51.6161082542825
20
-1.25277387144305
30
0
41
1
10
51.7118336793884
20
-1.37099645653296
30
0
41
1
10
51.910058982819
20
-1.60086159951678
30
0
41
1
10
52.0129160230545
20
-1.71283887554196
30
0
41
1
10
52.3265774132853
20
-2.0355555440411
30
0
41
1
10
52.5432585439719
20
-2.2343789282034
30
0
41
1
10
52.9885563421117
20
-2.60630447478962
30
0
41
1
10
53.2172051562979
20
-2.77933736062698
30
0
41
1
10
53.6847250395548
20
-3.10337405311608
30
0
41
1
10
53.9243631886626
20
-3.25477087369902
30
0
41
1
10
54.4079577524124
20
-3.53476000702796
30
0
41
1
10
54.6521144449376
20
-3.66355137806113
30
0
41
1
10
54.8984217367337
20
-3.78213105307088
30
0
0
SPLINE
5
CF
100
AcDbEntity
8
1
62
256
6
ByLayer
370
18
48
1
60
0
100
AcDbSpline
70
4
71
3
72
10
73
6
40
0
40
0
40
0
40
0
40
0.5
40
0.5
40
1
40
1
40
1
40
1
41
1
10
55.4813645980176
20
4.91092323905704
30
0
41
1
10
55.4349017872688
20
4.94569948767406
30
0
41
1
10
55.3905408484026
20
4.97423030725153
30
0
41
1
10
55.3059613973007
20
5.01823727893955
30
0
41
1
10
55.2656197176599
20
5.0337409105324
30
0
41
1
10
55.2276239664712
20
5.04220318208129
30
0
0
SPLINE
5
D0
100
AcDbEntity
8
1
62
256
6
ByLayer
370
18
48
1
60
0
100
AcDbSpline
70
4
71
3
72
10
73
6
40
0
40
0
40
0
40
0
40
0.5
40
0.5
40
1
40
1
40
1
40
1
41
1
10
55.4813645980151
20
-4.91092323906744
30
0
41
1
10
55.709771996629
20
-4.27635417910679
30
0
41
1
10
55.9460670041519
20
-3.6469946669549
30
0
41
1
10
56.4323499193133
20
-2.39613768098445
30
0
41
1
10
56.6823915436693
20
-1.77469009035204
30
0
41
1
10
56.938817330138
20
-1.15657576860397
30
0
0
SPLINE
5
D1
100
AcDbEntity
8
1
62
256
6
ByLayer
370
18
48
1
60
0
100
AcDbSpline
70
4
71
3
72
8
73
4
40
0
40
0
40
0
40
0
40
1
40
1
40
1
40
1
41
1
10
56.9388173301381
20
1.15657576860392
30
0
41
1
10
56.9620632992142
20
0.812363466479837
30
0
41
1
10
56.9789017197884
20
0.46854115945942
30
0
41
1
10
56.9893296248077
20
0.125109028132243
30
0
0
SPLINE
5
D2
100
AcDbEntity
8
1
62
256
6
ByLayer
370
13
48
1
60
0
100
AcDbSpline
70
4
71
3
72
10
73
6
40
0
40
0
40
0
40
0
40
0.425331490225296
40
0.425331490225296
40
1
40
1
40
1
40
1
41
1
10
4.25070106061921
20
-4.76613907614822
30
0
41
1
10
4.25071051459634
20
-4.76620086810485
30
0
41
1
10
4.25071986039563
20
-4.76197393017162
30
0
41
1
10
4.25074127602318
20
-4.74220016779199
30
0
41
1
10
4.2507531805737
20
-4.72320948593429
30
0
41
1
10
4.25076441387739
20
-4.69665459578152
30
0
0
SPLINE
5
D3
100
AcDbEntity
8
1
62
256
6
ByLayer
370
18
48
1
60
0
100
AcDbSpline
70
4
71
3
72
12
73
8
40
0
40
0
40
0
40
0
40
0.5
40
0.5
40
0.75
40
0.75
40
1
40
1
40
1
40
1
41
1
10
55.4813645980117
20
4.91092323907677
30
0
41
1
10
55.7083762316998
20
4.28023193982909
30
0
41
1
10
55.9443517657419
20
3.65148102776891
30
0
41
1
10
56.3097842129314
20
2.71137443092033
30
0
41
1
10
56.4335310450307
20
2.39855970111276
30
0
41
1
10
56.6838692534042
20
1.77583963848053
30
0
41
1
10
56.8105881313699
20
1.4656722339648
30
0
41
1
10
56.938817330138
20
1.15657576860406
30
0
0
SPLINE
5
D4
100
AcDbEntity
8
1
62
256
6
ByLayer
370
18
48
1
60
0
100
AcDbSpline
70
4
71
3
72
8
73
4
40
0
40
0
40
0
40
0
40
1
40
1
40
1
40
1
41
1
10
55.2893171472006
20
-4.88753474113165
30
0
41
1
10
55.2687897498802
20
-4.93914825749422
30
0
41
1
10
55.2482239097708
20
-4.99070592132992
30
0
41
1
10
55.2276239664712
20
-5.04220318208127
30
0
0
SPLINE
5
D5
100
AcDbEntity
8
1
62
256
6
ByLayer
370
18
48
1
60
0
100
AcDbSpline
70
4
71
3
72
70
73
66
40
0
40
0
40
0
40
0
40
0.0043880093660021
40
0.0043880093660021
40
0.0412625275376325
40
0.0412625275376325
40
0.078137045709263
40
0.078137045709263
40
0.0965743047950777
40
0.0965743047950777
40
0.115011563880892
40
0.115011563880892
40
0.151886082052522
40
0.151886082052522
40
0.188760600224151
40
0.188760600224151
40
0.225635118395781
40
0.225635118395781
40
0.26250963656741
40
0.26250963656741
40
0.29938415473904
40
0.29938415473904
40
0.317821413824854
40
0.317821413824854
40
0.336258672910669
40
0.336258672910669
40
0.373133191082297
40
0.373133191082297
40
0.410007709253925
40
0.410007709253925
40
0.446882227425554
40
0.446882227425554
40
0.483756745597182
40
0.483756745597182
40
0.52063126376881
40
0.52063126376881
40
0.557505781940438
40
0.557505781940438
40
0.594380300112067
40
0.594380300112067
40
0.631254818283695
40
0.631254818283695
40
0.64969207736951
40
0.64969207736951
40
0.668129336455324
40
0.668129336455324
40
0.705003854626954
40
0.705003854626954
40
0.741878372798583
40
0.741878372798583
40
0.778752890970213
40
0.778752890970213
40
0.797190150056028
40
0.797190150056028
40
0.815627409141843
40
0.815627409141843
40
0.852501927313474
40
0.852501927313474
40
0.889376445485105
40
0.889376445485105
40
0.926250963656737
40
0.926250963656737
40
0.963125481828368
40
0.963125481828368
40
1
40
1
40
1
40
1
41
1
10
44.8874735315887
20
-3.5683124433119
30
0
41
1
10
44.8417936380683
20
-3.58227302715636
30
0
41
1
10
44.7961064954395
20
-3.59611452543635
30
0
41
1
10
44.3664098171096
20
-3.72512271969876
30
0
41
1
10
43.9822412247698
20
-3.83339796086634
30
0
41
1
10
43.2128888536897
20
-4.03591743230569
30
0
41
1
10
42.8284538697647
20
-4.12862477803424
30
0
41
1
10
42.2525689257807
20
-4.25468048280095
30
0
41
1
10
42.0607483002314
20
-4.29453640098711
30
0
41
1
10
41.6772414808248
20
-4.36917342754529
30
0
41
1
10
41.4854931613173
20
-4.40375752754247
30
0
41
1
10
40.9100092707944
20
-4.50153900337739
30
0
41
1
10
40.5260776147186
20
-4.55867771397809
30
0
41
1
10
39.7578781484632
20
-4.65519431335863
30
0
41
1
10
39.3731083653347
20
-4.6946511575116
30
0
41
1
10
38.6045390741223
20
-4.75185215663416
30
0
41
1
10
38.2205900366362
20
-4.7678612087002
30
0
41
1
10
37.4536497350239
20
-4.78504301481192
30
0
41
1
10
37.0702603104122
20
-4.78463369926678
30
0
41
1
10
36.3027175742765
20
-4.76477724713132
30
0
41
1
10
35.9189424729778
20
-4.74564966017931
30
0
41
1
10
35.3421633849861
20
-4.70055510028243
30
0
41
1
10
35.1497410228617
20
-4.68254041309552
30
0
41
1
10
34.7653336367069
20
-4.64232535276869
30
0
41
1
10
34.5732220875474
20
-4.62019950043987
30
0
41
1
10
33.9972383586221
20
-4.54639694000537
30
0
41
1
10
33.6138881653104
20
-4.48662957364283
30
0
41
1
10
32.8466642650467
20
-4.35133084150178
30
0
41
1
10
32.4628114231685
20
-4.27568617516923
30
0
41
1
10
31.6947572781288
20
-4.10634863992087
30
0
41
1
10
31.3100298389865
20
-4.01299568100893
30
0
41
1
10
30.5412872118247
20
-3.80859970146358
30
0
41
1
10
30.1572800162558
20
-3.69765716756933
30
0
41
1
10
29.3903115651529
20
-3.46336048467904
30
0
41
1
10
29.006945375946
20
-3.33958146867764
30
0
41
1
10
28.2394568215244
20
-3.07897297390775
30
0
41
1
10
27.8556885741537
20
-2.94164827002245
30
0
41
1
10
27.0864134150208
20
-2.65303699663823
30
0
41
1
10
26.7014595194156
20
-2.50385808333135
30
0
41
1
10
25.9331344364175
20
-2.19692790183942
30
0
41
1
10
25.5497185949407
20
-2.03824820801916
30
0
41
1
10
24.9742136212977
20
-1.79503823394398
30
0
41
1
10
24.782347453609
20
-1.71311700416632
30
0
41
1
10
24.3983398643303
20
-1.54732440871362
30
0
41
1
10
24.20617282189
20
-1.46340802060641
30
0
41
1
10
23.6297291711799
20
-1.20944420741319
30
0
41
1
10
23.2448143181435
20
-1.03669526555169
30
0
41
1
10
22.4754856262088
20
-0.689329833255528
30
0
41
1
10
22.0912922679947
20
-0.514410227451037
30
0
41
1
10
21.3239113085364
20
-0.161890379615556
30
0
41
1
10
20.9402738369735
20
0.0147263725483242
30
0
41
1
10
20.3642411497308
20
0.278724751622576
30
0
41
1
10
20.1721668750627
20
0.366642053194823
30
0
41
1
10
19.7879137519855
20
0.542369854195243
30
0
41
1
10
19.5956951617707
20
0.63010341105624
30
0
41
1
10
19.0183741192043
20
0.89201160954849
30
0
41
1
10
18.6331989150878
20
1.06518268645834
30
0
41
1
10
17.8638901261816
20
1.40659051409767
30
0
41
1
10
17.4797835490951
20
1.57553770402981
30
0
41
1
10
16.7103975797278
20
1.90459808184198
30
0
41
1
10
16.3247073668232
20
2.06428464598545
30
0
41
1
10
15.5548479245611
20
2.37635481327558
30
0
41
1
10
15.1704324557971
20
2.52859337244197
30
0
41
1
10
14.4010962144738
20
2.82166222521883
30
0
41
1
10
14.0161415139068
20
2.96236315508935
30
0
41
1
10
13.6308174259814
20
3.09645511399322
30
0
0
SPLINE
5
D6
100
AcDbEntity
8
1
62
256
6
ByLayer
370
18
48
1
60
0
100
AcDbSpline
70
4
71
3
72
32
73
28
40
0
40
0
40
0
40
0
40
0.0274936360380847
40
0.0274936360380847
40
0.115903305489166
40
0.115903305489166
40
0.204312974940248
40
0.204312974940248
40
0.29272264439133
40
0.29272264439133
40
0.33692747911687
40
0.33692747911687
40
0.381132313842411
40
0.381132313842411
40
0.469541983293496
40
0.469541983293496
40
0.55795165274458
40
0.55795165274458
40
0.646361322195664
40
0.646361322195664
40
0.734770991646748
40
0.734770991646748
40
0.823180661097832
40
0.823180661097832
40
0.911590330548916
40
0.911590330548916
40
1
40
1
40
1
40
1
41
1
10
37.4776862603635
20
4.78185303320495
30
0
41
1
10
37.5971858139663
20
4.78094435858748
30
0
41
1
10
37.7167235896956
20
4.77914554401144
30
0
41
1
10
38.2208683715192
20
4.76786717918736
30
0
41
1
10
38.606092396364
20
4.75176011659033
30
0
41
1
10
39.3740163019619
20
4.69455994197102
30
0
41
1
10
39.7572041536275
20
4.6552589692422
30
0
41
1
10
40.5241711716193
20
4.5589371971202
30
0
41
1
10
40.9079636011832
20
4.50186173824204
30
0
41
1
10
41.4838814521643
20
4.40404371503277
30
0
41
1
10
41.6758798973966
20
4.36942983881031
30
0
41
1
10
42.0601859640404
20
4.29465437476199
30
0
41
1
10
42.2526550768835
20
4.25466462272578
30
0
41
1
10
42.8294819330568
20
4.12839374029417
30
0
41
1
10
43.2134530174088
20
4.03576029595922
30
0
41
1
10
43.9804586727034
20
3.83387580438952
30
0
41
1
10
44.3638889861706
20
3.72584062212425
30
0
41
1
10
45.1313599866646
20
3.49549973552976
30
0
41
1
10
45.5150445518361
20
3.37154346532469
30
0
41
1
10
46.2835335105885
20
3.10975761126588
30
0
41
1
10
46.6686431253722
20
2.97265708354823
30
0
41
1
10
47.4369203829742
20
2.68821611060048
30
0
41
1
10
47.8204089279249
20
2.54070597638466
30
0
41
1
10
48.5874545403738
20
2.23446399993475
30
0
41
1
10
48.9711208887691
20
2.07613931550469
30
0
41
1
10
49.7388318873769
20
1.75103635413683
30
0
41
1
10
50.1232274150086
20
1.58404385797897
30
0
41
1
10
50.5079106447067
20
1.41561149758755
30
0
0
SPLINE
5
D7
100
AcDbEntity
8
1
62
256
6
ByLayer
370
18
48
1
60
0
100
AcDbSpline
70
4
71
3
72
8
73
4
40
0
40
0
40
0
40
0
40
1
40
1
40
1
40
1
41
1
10
3.99999957242494
20
-4.95266751003953
30
0
41
1
10
3.99999957242494
20
-4.95206026843772
30
0
41
1
10
3.99999957242494
20
-4.95145310060676
30
0
41
1
10
3.99999957242494
20
-4.95084600654445
30
0
0
SPLINE
5
D8
100
AcDbEntity
8
1
62
256
6
ByLayer
370
18
48
1
60
0
100
AcDbSpline
70
4
71
3
72
14
73
10
40
0
40
0
40
0
40
0
40
0.25
40
0.25
40
0.5
40
0.5
40
0.75
40
0.75
40
1
40
1
40
1
40
1
41
1
10
55.2985875906297
20
-4.79373682932263
30
0
41
1
10
55.3019501797049
20
-4.79320102830272
30
0
41
1
10
55.3046436036987
20
-4.79441647552221
30
0
41
1
10
55.3082979320151
20
-4.80136086428917
30
0
41
1
10
55.3091998572081
20
-4.80719238404711
30
0
41
1
10
55.3081156910431
20
-4.82426809016272
30
0
41
1
10
55.3060746988406
20
-4.8354743622933
30
0
41
1
10
55.299272567526
20
-4.86058469840711
30
0
41
1
10
55.2945528653546
20
-4.87437019716174
30
0
41
1
10
55.2893171472019
20
-4.88753474112835
30
0
0
SPLINE
5
D9
100
AcDbEntity
8
1
62
256
6
ByLayer
370
18
48
1
60
0
100
AcDbSpline
70
4
71
3
72
10
73
6
40
0
40
0
40
0
40
0
40
0.5
40
0.5
40
1
40
1
40
1
40
1
41
1
10
56.9999566759648
20
0.048201019740759
30
0
41
1
10
56.9962134796473
20
0.0329514410938714
30
0
41
1
10
56.9911217863409
20
0.0166277835124333
30
0
41
1
10
56.9788759849307
20
-0.0143476019331956
30
0
41
1
10
56.9716902472963
20
-0.0290135291151898
30
0
41
1
10
56.9644086859464
20
-0.0409281986422911
30
0
0
SPLINE
5
DA
100
AcDbEntity
8
1
62
256
6
ByLayer
370
18
48
1
60
0
100
AcDbSpline
70
4
71
3
72
16
73
12
40
0
40
0
40
0
40
0
40
0.345512881867954
40
0.345512881867954
40
0.482405929619566
40
0.482405929619566
40
0.619298977371177
40
0.619298977371177
40
0.893085072874406
40
0.893085072874406
40
1
40
1
40
1
40
1
41
1
10
22.2106970592477
20
-4.77674384106925
30
0
41
1
10
21.5431106961848
20
-4.77542962264519
30
0
41
1
10
20.8742679523141
20
-4.74457499928974
30
0
41
1
10
19.9357022558559
20
-4.65991128476361
30
0
41
1
10
19.6688090494097
20
-4.63118449061434
30
0
41
1
10
19.1337810839117
20
-4.56446436427836
30
0
41
1
10
18.8659363316059
20
-4.52647466501276
30
0
41
1
10
18.0653824333341
20
-4.39970146159447
30
0
41
1
10
17.533950225331
20
-4.29792701625689
30
0
41
1
10
16.7968141699889
20
-4.13405641821009
30
0
41
1
10
16.5900009405078
20
-4.08557982236462
30
0
41
1
10
16.3833233195353
20
-4.03474032063292
30
0
0
SPLINE
5
DB
100
AcDbEntity
8
1
62
256
6
ByLayer
370
13
48
1
60
0
100
AcDbSpline
70
4
71
3
72
18
73
14
40
0
40
0
40
0
40
0
40
0.211511374516337
40
0.211511374516337
40
0.342926145430281
40
0.342926145430281
40
0.408633530887254
40
0.408633530887254
40
0.474340916344226
40
0.474340916344226
40
0.737170458172113
40
0.737170458172113
40
1
40
1
40
1
40
1
41
1
10
16.3833233194858
20
-4.03474032062078
30
0
41
1
10
15.5314872156795
20
-3.8252017993666
30
0
41
1
10
14.6819547386498
20
-3.5755238109912
30
0
41
1
10
13.3008135827964
20
-3.11616929302039
30
0
41
1
10
12.770718533833
20
-2.92698721208274
30
0
41
1
10
11.9729132484615
20
-2.62600510349026
30
0
41
1
10
11.7064877100854
20
-2.522860767504
30
0
41
1
10
11.1723842730509
20
-2.31138468051384
30
0
41
1
10
10.9042809810615
20
-2.20287362614337
30
0
41
1
10
9.56665927165722
20
-1.65123827804734
30
0
41
1
10
8.50535897036988
20
-1.17982079777829
30
0
41
1
10
6.38215172331599
20
-0.216333401781213
30
0
41
1
10
5.32066765356262
20
0.276601268821963
30
0
41
1
10
4.25025081107924
20
0.760800293065017
30
0
0
SPLINE
5
DC
100
AcDbEntity
8
1
62
256
6
ByLayer
370
18
48
1
60
0
100
AcDbSpline
70
4
71
3
72
60
73
56
40
0
40
0
40
0
40
0
40
0.0312499999999994
40
0.0312499999999994
40
0.0624999999999988
40
0.0624999999999988
40
0.0937499999999981
40
0.0937499999999981
40
0.124999999999998
40
0.124999999999998
40
0.140624999999997
40
0.140624999999997
40
0.156249999999996
40
0.156249999999996
40
0.171874999999995
40
0.171874999999995
40
0.187499999999995
40
0.187499999999995
40
0.203124999999994
40
0.203124999999994
40
0.218749999999993
40
0.218749999999993
40
0.234374999999992
40
0.234374999999992
40
0.249999999999992
40
0.249999999999992
40
0.265624999999991
40
0.265624999999991
40
0.28124999999999
40
0.28124999999999
40
0.312499999999988
40
0.312499999999988
40
0.343749999999985
40
0.343749999999985
40
0.359374999999984
40
0.359374999999984
40
0.363281249999983
40
0.363281249999983
40
0.367187499999983
40
0.367187499999983
40
0.371093749999982
40
0.371093749999982
40
0.374999999999982
40
0.374999999999982
40
0.437499999999984
40
0.437499999999984
40
0.499999999999987
40
0.499999999999987
40
0.62499999999999
40
0.62499999999999
40
0.749999999999993
40
0.749999999999993
40
0.874999999999997
40
0.874999999999997
40
1
40
1
40
1
40
1
41
1
10
3.99999957242494
20
-4.95266751003936
30
0
41
1
10
3.86255383288335
20
-4.93679657863609
30
0
41
1
10
3.72694240610679
20
-4.91771569967966
30
0
41
1
10
3.46038610990985
20
-4.8718920613627
30
0
41
1
10
3.32918082110831
20
-4.84510180231177
30
0
41
1
10
3.07412508878323
20
-4.78218238401149
30
0
41
1
10
2.95081326271605
20
-4.74622177977719
30
0
41
1
10
2.71553923057627
20
-4.66281836285086
30
0
41
1
10
2.60351443370269
20
-4.61542917144754
30
0
41
1
10
2.44782804982952
20
-4.53244833094956
30
0
41
1
10
2.39801098524666
20
-4.50278731570808
30
0
41
1
10
2.3036583962174
20
-4.43850297279266
30
0
41
1
10
2.2591541157505
20
-4.40383231434041
30
0
41
1
10
2.17888968740419
20
-4.3299898841226
30
0
41
1
10
2.14286722383565
20
-4.2906659798798
30
0
41
1
10
2.08106433821536
20
-4.20619242086678
30
0
41
1
10
2.05530180705225
20
-4.1607953508923
30
0
41
1
10
2.01790455489629
20
-4.06622531404861
30
0
41
1
10
2.00598752540978
20
-4.01675879819476
30
0
41
1
10
1.99749072722651
20
-3.91307151057518
30
0
41
1
10
2.00115490633237
20
-3.85821886514046
30
0
41
1
10
2.02457341070576
20
-3.74851001530919
30
0
41
1
10
2.04412365292703
20
-3.69327410979903
30
0
41
1
10
2.09788580244171
20
-3.58226548966343
30
0
41
1
10
2.13240176265748
20
-3.52623816968287
30
0
41
1
10
2.2118224389169
20
-3.41795493127853
30
0
41
1
10
2.25691407030374
20
-3.36514545170579
30
0
41
1
10
2.3559372334025
20
-3.26183418072858
30
0
41
1
10
2.41020531509824
20
-3.21106869849882
30
0
41
1
10
2.58175524448444
20
-3.06407492862536
30
0
41
1
10
2.70693630709167
20
-2.97328768371767
30
0
41
1
10
2.97151289753583
20
-2.80172995697421
30
0
41
1
10
3.11138029042101
20
-2.72084371452266
30
0
41
1
10
3.32789824869269
20
-2.60616520804547
30
0
41
1
10
3.40111425301819
20
-2.56909764709874
30
0
41
1
10
3.49376706883112
20
-2.52404945864515
30
0
41
1
10
3.51235588760417
20
-2.51510367813359
30
0
41
1
10
3.54961050957499
20
-2.49735331236053
30
0
41
1
10
3.56819664578307
20
-2.48837777441696
30
0
41
1
10
3.60849861232037
20
-2.47662461964168
30
0
41
1
10
3.63006092767046
20
-2.47306050809559
30
0
41
1
10
3.67266717830682
20
-2.46902226053624
30
0
41
1
10
3.69396931541081
20
-2.46901390118421
30
0
41
1
10
4.05610548600282
20
-2.46919036607554
30
0
41
1
10
4.39711427547587
20
-2.47591264260572
30
0
41
1
10
5.07766396797035
20
-2.50277016524041
30
0
41
1
10
5.41732904312056
20
-2.52274619628571
30
0
41
1
10
6.43454455735275
20
-2.6013204747955
30
0
41
1
10
7.11170542381674
20
-2.67898339775499
30
0
41
1
10
8.4492884534757
20
-2.87445548666139
30
0
41
1
10
9.11086885873857
20
-2.99219826302615
30
0
41
1
10
10.4211543175869
20
-3.25435511105908
30
0
41
1
10
11.0698851392679
20
-3.39862581436199
30
0
41
1
10
12.3571107908481
20
-3.69655075718379
30
0
41
1
10
12.9956165753504
20
-3.85011546646805
30
0
41
1
10
13.6308174259814
20
-3.99893771464329
30
0
0
SPLINE
5
DD
100
AcDbEntity
8
1
62
256
6
ByLayer
370
18
48
1
60
0
100
AcDbSpline
70
4
71
3
72
12
73
8
40
0
40
0
40
0
40
0
40
0.25000000000001
40
0.25000000000001
40
0.500000000000019
40
0.500000000000019
40
1
40
1
40
1
40
1
41
1
10
4.14129890354792
20
0.740439742318671
30
0
41
1
10
4.12007865246017
20
0.750571445548616
30
0
41
1
10
4.10077965058241
20
0.763369268506978
30
0
41
1
10
4.06593209496353
20
0.794150327188333
30
0
41
1
10
4.05070275182587
20
0.811983883798177
30
0
41
1
10
4.01357299107605
20
0.870257926004626
30
0
41
1
10
3.99999957242494
20
0.916095273903125
30
0
41
1
10
3.99999957242494
20
0.962348907252135
30
0
0
SPLINE
5
DE
100
AcDbEntity
8
1
62
256
6
ByLayer
370
13
48
1
60
0
100
AcDbSpline
70
4
71
3
72
29
73
25
40
0
40
0
40
0
40
0
40
0.14024967757733
40
0.14024967757733
40
0.210374516365995
40
0.210374516365995
40
0.28049935515466
40
0.350624193943325
40
0.350624193943325
40
0.42074903273199
40
0.42074903273199
40
0.56099871030932
40
0.56099871030932
40
0.631123549097985
40
0.631123549097985
40
0.70124838788665
40
0.70124838788665
40
0.771373226675315
40
0.771373226675315
40
0.84149806546398
40
0.84149806546398
40
0.98174774304131
40
0.98174774304131
40
1
40
1
40
1
40
1
41
1
10
4.25025081107924
20
0.760800293065017
30
0
41
1
10
4.25028579983413
20
1.07332284458937
30
0
41
1
10
4.25031389775893
20
1.37741477675402
30
0
41
1
10
4.2503496689138
20
1.82099884851812
30
0
41
1
10
4.25036048233633
20
1.9662934520137
30
0
41
1
10
4.25038028712419
20
2.24746538085361
30
0
41
1
10
4.25039837586482
20
2.52051840649622
30
0
41
1
10
4.25041439353208
20
2.77754673719787
30
0
41
1
10
4.25042999666411
20
3.02643433286283
30
0
41
1
10
4.25043763341671
20
3.14744233966957
30
0
41
1
10
4.25046040759264
20
3.49186285432012
30
0
41
1
10
4.25047547584563
20
3.69725280357542
30
0
41
1
10
4.25050057411471
20
3.9697843570151
30
0
41
1
10
4.25050934381446
20
4.0546599689317
30
0
41
1
10
4.25052800872962
20
4.21207233671873
30
0
41
1
10
4.25053782492768
20
4.28389085044731
30
0
41
1
10
4.2505584701531
20
4.41304429394665
30
0
41
1
10
4.25056936004734
20
4.47070226832247
30
0
41
1
10
4.25059199886701
20
4.57061376490955
30
0
41
1
10
4.25060371627154
20
4.61281801944719
30
0
41
1
10
4.25063986745906
20
4.71679156173798
30
0
41
1
10
4.25066535909241
20
4.75614328015075
30
0
41
1
10
4.25069441390852
20
4.76556872041377
30
0
41
1
10
4.25069775192748
20
4.76611914120224
30
0
41
1
10
4.25070107655901
20
4.76613917626864
30
0
0
SPLINE
5
DF
100
AcDbEntity
8
1
62
256
6
ByLayer
370
18
48
1
60
0
100
AcDbSpline
70
4
71
3
72
8
73
4
40
0
40
0
40
0
40
0
40
1
40
1
40
1
40
1
41
1
10
55.2621529050971
20
1.21845326264051
30
0
41
1
10
55.821155487438
20
1.19638551563105
30
0
41
1
10
56.3799987320887
20
1.17632537247451
30
0
41
1
10
56.9388173301377
20
1.15657576860394
30
0
0
SPLINE
5
E0
100
AcDbEntity
8
1
62
256
6
ByLayer
370
18
48
1
60
0
100
AcDbSpline
70
4
71
2
72
6
73
3
40
0
40
0
40
0
40
1
40
1
40
1
41
1
10
5.47213728928625
20
4.76760063404109
30
0
41
1
10
4.86141355997691
20
4.76775845163758
30
0
41
1
10
4.25068495249926
20
4.76582977086744
30
0
0
SPLINE
5
E1
100
AcDbEntity
8
1
62
256
6
ByLayer
370
18
48
1
60
0
100
AcDbSpline
70
4
71
3
72
27
73
23
40
0
40
0
40
0
40
0
40
0.0464039555507592
40
0.101295269086197
40
0.149125368613325
40
0.189039589577531
40
0.22336646509012
40
0.254420236285067
40
0.282743415852972
40
0.308476642316872
40
0.340788743813081
40
0.385203288510711
40
0.450803783594414
40
0.492551828851229
40
0.534562607245516
40
0.590825155545695
40
0.675086870334868
40
0.744300972323006
40
0.804227693985744
40
0.868267428819508
40
0.956261117267528
40
1
40
1
40
1
40
1
41
1
10
37.476315576667
20
4.78205843211987
30
0
41
1
10
37.2861609717422
20
4.78177916647365
30
0
41
1
10
36.8713437860509
20
4.78155529931934
30
0
41
1
10
36.2623881582542
20
4.78330310834167
30
0
41
1
10
35.67924228379
20
4.78467773317701
30
0
41
1
10
35.1795934656559
20
4.78391620995052
30
0
41
1
10
34.7483851400862
20
4.78294835450757
30
0
41
1
10
34.3646941591153
20
4.7828874881653
30
0
41
1
10
34.0161790856558
20
4.78248957399165
30
0
41
1
10
33.6625141316619
20
4.78173457444868
30
0
41
1
10
33.2429573456855
20
4.78055018825441
30
0
41
1
10
32.6601487655733
20
4.78079239852823
30
0
41
1
10
32.0387026862311
20
4.78133049252784
30
0
41
1
10
31.4270989713816
20
4.7819993692639
30
0
41
1
10
30.8537316915585
20
4.78258333028822
30
0
41
1
10
30.1062830215364
20
4.77912778618335
30
0
41
1
10
29.2474334081468
20
4.77965876855589
30
0
41
1
10
28.3735848571811
20
4.78037954015286
30
0
41
1
10
27.5825312857592
20
4.78007398941239
30
0
41
1
10
26.7146483595317
20
4.77786354111538
30
0
41
1
10
25.9128677223184
20
4.77859111936024
30
0
41
1
10
25.3736245438543
20
4.77860822337192
30
0
41
1
10
25.1945213944906
20
4.77857007434767
30
0
0
SPLINE
5
E2
100
AcDbEntity
8
1
62
256
6
ByLayer
370
18
48
1
60
0
100
AcDbSpline
70
4
71
1
72
4
73
2
40
0
40
0
40
1
40
1
41
1
10
3.99999957242494
20
-4.94219461826771
30
0
41
1
10
3.99999957242494
20
-4.95615919495435
30
0
0
SPLINE
5
E3
100
AcDbEntity
8
1
62
256
6
ByLayer
370
18
48
1
60
0
100
AcDbSpline
70
4
71
2
72
6
73
3
40
0
40
0
40
0
40
1
40
1
40
1
41
1
10
54.860985498178
20
-4.7971306812311
30
0
41
1
10
55.0484127096547
20
-4.79733395976771
30
0
41
1
10
55.2341823297155
20
-4.79627833833592
30
0
0
SPLINE
5
E4
100
AcDbEntity
8
1
62
256
6
ByLayer
370
18
48
1
60
0
100
AcDbSpline
70
4
71
3
72
32
73
28
40
0
40
0
40
0
40
0
40
0.048038561169898
40
0.0961684737149684
40
0.142523893560322
40
0.179103696394326
40
0.21192339343715
40
0.259889661827471
40
0.308682472918231
40
0.348941983270224
40
0.38632397308398
40
0.425911092396018
40
0.472628656752991
40
0.526633533590218
40
0.566324233472676
40
0.59745493918215
40
0.623067734546165
40
0.661011588724203
40
0.708671732841632
40
0.744712183916997
40
0.76989284848855
40
0.801493862226838
40
0.837366023089928
40
0.880512968627121
40
0.91883344652417
40
0.962811221769125
40
1
40
1
40
1
40
1
41
1
10
22.1620092300142
20
-4.77667837973263
30
0
41
1
10
22.4034125139344
20
-4.77612286224178
30
0
41
1
10
22.8881788916235
20
-4.77553694830141
30
0
41
1
10
23.621915595652
20
-4.77619777109558
30
0
41
1
10
24.2810974837221
20
-4.77827357997498
30
0
41
1
10
24.8735870774617
20
-4.77843403265098
30
0
41
1
10
25.4726895612099
20
-4.77865992461571
30
0
41
1
10
26.1352381317884
20
-4.77847553842869
30
0
41
1
10
26.8354739956265
20
-4.77818763780701
30
0
41
1
10
27.4816734500384
20
-4.77966721304423
30
0
41
1
10
28.0808238386983
20
-4.78048958905364
30
0
41
1
10
28.7129926543189
20
-4.78001890152979
30
0
41
1
10
29.4301176190948
20
-4.77957157553195
30
0
41
1
10
30.147774914261
20
-4.77940505973922
30
0
41
1
10
30.7857611942902
20
-4.78227753414205
30
0
41
1
10
31.2786399186258
20
-4.78221382939213
30
0
41
1
10
31.7625894611313
20
-4.78161428034238
30
0
41
1
10
32.3310214667912
20
-4.78107335404462
30
0
41
1
10
32.9527490154328
20
-4.78046190496889
30
0
41
1
10
33.5092442175716
20
-4.78119538995466
30
0
41
1
10
33.9836601186627
20
-4.78253424891818
30
0
41
1
10
34.4572125795
20
-4.78291528361248
30
0
41
1
10
35.0226076695286
20
-4.78325543256707
30
0
41
1
10
35.6222662274655
20
-4.78488101713441
30
0
41
1
10
36.2623833456435
20
-4.78328244828234
30
0
41
1
10
36.8714005961577
20
-4.78156042832356
30
0
41
1
10
37.2862722719366
20
-4.78177910539935
30
0
41
1
10
37.476482638941
20
-4.78205848729618
30
0
0
SPLINE
5
E5
100
AcDbEntity
8
1
62
256
6
ByLayer
370
18
48
1
60
0
100
AcDbSpline
70
4
71
2
72
6
73
3
40
0
40
0
40
0
40
1
40
1
40
1
41
1
10
4.25068495249926
20
-4.7658297708675
30
0
41
1
10
4.86092718357173
20
-4.76775746910997
30
0
41
1
10
5.47116454036095
20
-4.76760033065068
30
0
0
LINE
5
7B
100
AcDbEntity
8
SK1
62
256
6
ByLayer
370
18
48
1
60
0
100
AcDbLine
10
-43.255
20
6
30
0
11
-43.255
21
-6
31
0
39
0
210
0
220
0
230
1
0
LINE
5
7D
100
AcDbEntity
8
SK1
62
256
6
ByLayer
370
18
48
1
60
0
100
AcDbLine
10
-45
20
4.255
30
0
11
-45
21
-4.255
31
0
39
0
210
0
220
0
230
1
0
LINE
5
7E
100
AcDbEntity
8
SK1
62
256
6
ByLayer
370
18
48
1
60
0
100
AcDbLine
10
0
20
-6
30
0
11
0
21
6
31
0
39
0
210
0
220
0
230
1
0
LINE
5
7F
100
AcDbEntity
8
1
62
256
6
ByLayer
370
13
48
1
60
0
100
AcDbLine
10
55.262153
20
1.218453
30
0
11
56.98933
21
0.125109
31
0
39
0
210
0
220
0
230
1
0
LINE
5
80
100
AcDbEntity
8
1
62
256
6
ByLayer
370
13
48
1
60
0
100
AcDbLine
10
1.477063
20
5.016247
30
0
11
1.477063
21
-5.016247
31
0
39
0
210
0
220
0
230
1
0
LINE
5
81
100
AcDbEntity
8
1
62
256
6
ByLayer
370
18
48
1
60
0
100
AcDbLine
10
4
20
0.962349
30
0
11
4
21
5.017824
31
0
39
0
210
0
220
0
230
1
0
LINE
5
82
100
AcDbEntity
8
1
62
256
6
ByLayer
370
18
48
1
60
0
100
AcDbLine
10
0
20
-6
30
0
11
0
21
6
31
0
39
0
210
0
220
0
230
1
0
LINE
5
83
100
AcDbEntity
8
1
62
256
6
ByLayer
370
13
48
1
60
0
100
AcDbLine
10
0.738282
20
5.508124
30
0
11
0.738282
21
-5.508124
31
0
39
0
210
0
220
0
230
1
0
LINE
5
84
100
AcDbEntity
8
1
62
256
6
ByLayer
370
13
48
1
60
0
100
AcDbLine
10
55.127779
20
1.121702
30
0
11
56.964409
21
-0.040928
31
0
39
0
210
0
220
0
230
1
0
LINE
5
85
100
AcDbEntity
8
80
62
256
6
ByLayer
370
18
48
1
60
0
100
AcDbLine
10
0
20
0
30
0
11
-5
21
0
31
0
39
0
210
0
220
0
230
1
0
LINE
5
86
100
AcDbEntity
8
4
62
256
6
ByLayer
370
18
48
0.05
60
0
100
AcDbLine
10
57
20
0
30
0
11
0
21
0
31
0
39
0
210
0
220
0
230
1
0
LINE
5
88
100
AcDbEntity
8
SK4
62
256
6
ByLayer
370
18
48
0.05
60
0
100
AcDbLine
10
62
20
0
30
0
11
-50
21
0
31
0
39
0
210
0
220
0
230
1
0
LINE
5
8A
100
AcDbEntity
8
SK1
62
256
6
ByLayer
370
18
48
1
60
0
100
AcDbLine
10
-43.255
20
-6
30
0
11
0
21
-6
31
0
39
0
210
0
220
0
230
1
0
LINE
5
8B
100
AcDbEntity
8
SK1
62
256
6
ByLayer
370
18
48
1
60
0
100
AcDbLine
10
0
20
6
30
0
11
-43.255
21
6
31
0
39
0
210
0
220
0
230
1
0
LINE
5
8C
100
AcDbEntity
8
SK1
62
256
6
ByLayer
370
18
48
1
60
0
100
AcDbLine
10
-45
20
-4.255
30
0
11
-43.255
21
-6
31
0
39
0
210
0
220
0
230
1
0
LINE
5
8D
100
AcDbEntity
8
SK1
62
256
6
ByLayer
370
18
48
1
60
0
100
AcDbLine
10
-43.255
20
6
30
0
11
-45
21
4.255
31
0
39
0
210
0
220
0
230
1
0
LINE
5
8E
100
AcDbEntity
8
1
62
256
6
ByLayer
370
18
48
1
60
0
100
AcDbLine
10
1.477063
20
-5.016247
30
0
11
4
21
-5.017824
31
0
39
0
210
0
220
0
230
1
0
LINE
5
8F
100
AcDbEntity
8
1
62
256
6
ByLayer
370
18
48
1
60
0
100
AcDbLine
10
20.386713
20
-5.028066
30
0
11
22.005775
21
-5.029078
31
0
39
0
210
0
220
0
230
1
0
LINE
5
90
100
AcDbEntity
8
1
62
256
6
ByLayer
370
18
48
1
60
0
100
AcDbLine
10
53.036902
20
-5.048472
30
0
11
54.656344
21
-5.049484
31
0
39
0
210
0
220
0
230
1
0
LINE
5
91
100
AcDbEntity
8
1
62
256
6
ByLayer
370
18
48
1
60
0
100
AcDbLine
10
54.656281
20
5.049484
30
0
11
53.036902
21
5.048472
31
0
39
0
210
0
220
0
230
1
0
LINE
5
92
100
AcDbEntity
8
1
62
256
6
ByLayer
370
18
48
1
60
0
100
AcDbLine
10
22.005256
20
5.029077
30
0
11
20.386713
21
5.028066
31
0
39
0
210
0
220
0
230
1
0
LINE
5
93
100
AcDbEntity
8
1
62
256
6
ByLayer
370
18
48
1
60
0
100
AcDbLine
10
4
20
5.017824
30
0
11
1.477063
21
5.016247
31
0
39
0
210
0
220
0
230
1
0
LINE
5
94
100
AcDbEntity
8
81
62
256
6
ByLayer
370
18
48
1
60
0
100
AcDbLine
10
57
20
0
30
0
11
62
21
0
31
0
39
0
210
0
220
0
230
1
0
LINE
5
95
100
AcDbEntity
8
SK2
62
256
6
ByLayer
370
13
48
1
60
0
100
AcDbLine
10
-53.625163
20
-6
30
0
11
-53.625163
21
36.857173
31
0
39
0
210
0
220
0
230
1
0
LINE
5
97
100
AcDbEntity
8
SK2
62
256
6
ByLayer
370
13
48
1
60
0
100
AcDbLine
10
-46.5875
20
6
30
0
11
-55.625163
21
6
31
0
39
0
210
0
220
0
230
1
0
LINE
5
98
100
AcDbEntity
8
SK2
62
256
6
ByLayer
370
13
48
1
60
0
100
AcDbLine
10
-46.5875
20
-6
30
0
11
-55.625163
21
-6
31
0
39
0
210
0
220
0
230
1
0
LINE
5
99
100
AcDbEntity
8
1
62
256
6
ByLayer
370
18
48
1
60
1
100
AcDbLine
10
-53.625163
20
6
30
0
11
-53.164379
21
2.500002
31
0
39
0
210
0
220
0
230
1
0
LINE
5
9A
100
AcDbEntity
8
1
62
256
6
ByLayer
370
18
48
1
60
1
100
AcDbLine
10
-53.164379
20
2.500002
30
0
11
-54.085946
21
2.499998
31
0
39
0
210
0
220
0
230
1
0
LINE
5
9B
100
AcDbEntity
8
1
62
256
6
ByLayer
370
18
48
1
60
1
100
AcDbLine
10
-54.085946
20
2.499998
30
0
11
-53.625163
21
6
31
0
39
0
210
0
220
0
230
1
0
LINE
5
9C
100
AcDbEntity
8
1
62
256
6
ByLayer
370
18
48
1
60
1
100
AcDbLine
10
-53.625163
20
-6
30
0
11
-54.085946
21
-2.500002
31
0
39
0
210
0
220
0
230
1
0
LINE
5
9D
100
AcDbEntity
8
1
62
256
6
ByLayer
370
18
48
1
60
1
100
AcDbLine
10
-54.085946
20
-2.500002
30
0
11
-53.164379
21
-2.499998
31
0
39
0
210
0
220
0
230
1
0
LINE
5
9E
100
AcDbEntity
8
1
62
256
6
ByLayer
370
18
48
1
60
1
100
AcDbLine
10
-53.164379
20
-2.499998
30
0
11
-53.625163
21
-6
31
0
39
0
210
0
220
0
230
1
0
LINE
5
9F
100
AcDbEntity
8
2
62
256
6
ByLayer
370
13
48
1
60
0
100
AcDbLine
10
69.083343
20
-5.05
30
0
11
69.083343
21
33.625392
31
0
39
0
210
0
220
0
230
1
0
LINE
5
A1
100
AcDbEntity
8
2
62
256
6
ByLayer
370
13
48
1
60
0
100
AcDbLine
10
57.0884
20
5.05
30
0
11
71.083343
21
5.05
31
0
39
0
210
0
220
0
230
1
0
LINE
5
A2
100
AcDbEntity
8
2
62
256
6
ByLayer
370
13
48
1
60
0
100
AcDbLine
10
57.0884
20
-5.05
30
0
11
71.083343
21
-5.05
31
0
39
0
210
0
220
0
230
1
0
LINE
5
A3
100
AcDbEntity
8
1
62
256
6
ByLayer
370
18
48
1
60
1
100
AcDbLine
10
69.083343
20
5.05
30
0
11
69.544126
21
1.550002
31
0
39
0
210
0
220
0
230
1
0
LINE
5
A4
100
AcDbEntity
8
1
62
256
6
ByLayer
370
18
48
1
60
1
100
AcDbLine
10
69.544126
20
1.550002
30
0
11
68.622559
21
1.549998
31
0
39
0
210
0
220
0
230
1
0
LINE
5
A5
100
AcDbEntity
8
1
62
256
6
ByLayer
370
18
48
1
60
1
100
AcDbLine
10
68.622559
20
1.549998
30
0
11
69.083343
21
5.05
31
0
39
0
210
0
220
0
230
1
0
LINE
5
A6
100
AcDbEntity
8
1
62
256
6
ByLayer
370
18
48
1
60
1
100
AcDbLine
10
69.083343
20
-5.05
30
0
11
68.622559
21
-1.550002
31
0
39
0
210
0
220
0
230
1
0
LINE
5
A7
100
AcDbEntity
8
1
62
256
6
ByLayer
370
18
48
1
60
1
100
AcDbLine
10
68.622559
20
-1.550002
30
0
11
69.544126
21
-1.549998
31
0
39
0
210
0
220
0
230
1
0
LINE
5
A8
100
AcDbEntity
8
1
62
256
6
ByLayer
370
18
48
1
60
1
100
AcDbLine
10
69.544126
20
-1.549998
30
0
11
69.083343
21
-5.05
31
0
39
0
210
0
220
0
230
1
0
LINE
5
EC
100
AcDbEntity
8
1
62
256
6
ByLayer
370
18
48
1
60
1
100
AcDbLine
10
-53.625163
20
6
30
0
11
-53.164379
21
2.500002
31
0
39
0
210
0
220
0
230
1
0
LINE
5
ED
100
AcDbEntity
8
1
62
256
6
ByLayer
370
18
48
1
60
1
100
AcDbLine
10
-53.164379
20
2.500002
30
0
11
-54.085946
21
2.499998
31
0
39
0
210
0
220
0
230
1
0
LINE
5
EE
100
AcDbEntity
8
1
62
256
6
ByLayer
370
18
48
1
60
1
100
AcDbLine
10
-54.085946
20
2.499998
30
0
11
-53.625163
21
6
31
0
39
0
210
0
220
0
230
1
0
LINE
5
F0
100
AcDbEntity
8
1
62
256
6
ByLayer
370
18
48
1
60
1
100
AcDbLine
10
-53.625163
20
-6
30
0
11
-54.085946
21
-2.500002
31
0
39
0
210
0
220
0
230
1
0
LINE
5
F1
100
AcDbEntity
8
1
62
256
6
ByLayer
370
18
48
1
60
1
100
AcDbLine
10
-54.085946
20
-2.500002
30
0
11
-53.164379
21
-2.499998
31
0
39
0
210
0
220
0
230
1
0
LINE
5
F2
100
AcDbEntity
8
1
62
256
6
ByLayer
370
18
48
1
60
1
100
AcDbLine
10
-53.164379
20
-2.499998
30
0
11
-53.625163
21
-6
31
0
39
0
210
0
220
0
230
1
0
LINE
5
F6
100
AcDbEntity
8
1
62
256
6
ByLayer
370
18
48
1
60
1
100
AcDbLine
10
69.083343
20
5.05
30
0
11
69.544126
21
1.550002
31
0
39
0
210
0
220
0
230
1
0
LINE
5
F7
100
AcDbEntity
8
1
62
256
6
ByLayer
370
18
48
1
60
1
100
AcDbLine
10
69.544126
20
1.550002
30
0
11
68.622559
21
1.549998
31
0
39
0
210
0
220
0
230
1
0
LINE
5
F8
100
AcDbEntity
8
1
62
256
6
ByLayer
370
18
48
1
60
1
100
AcDbLine
10
68.622559
20
1.549998
30
0
11
69.083343
21
5.05
31
0
39
0
210
0
220
0
230
1
0
LINE
5
FA
100
AcDbEntity
8
1
62
256
6
ByLayer
370
18
48
1
60
1
100
AcDbLine
10
69.083343
20
-5.05
30
0
11
68.622559
21
-1.550002
31
0
39
0
210
0
220
0
230
1
0
LINE
5
FB
100
AcDbEntity
8
1
62
256
6
ByLayer
370
18
48
1
60
1
100
AcDbLine
10
68.622559
20
-1.550002
30
0
11
69.544126
21
-1.549998
31
0
39
0
210
0
220
0
230
1
0
LINE
5
FC
100
AcDbEntity
8
1
62
256
6
ByLayer
370
18
48
1
60
1
100
AcDbLine
10
69.544126
20
-1.549998
30
0
11
69.083343
21
-5.05
31
0
39
0
210
0
220
0
230
1
0
MTEXT
5
E6
100
AcDbEntity
8
SK6
62
256
6
ByLayer
370
13
48
1
60
0
100
AcDbMText
10
-22.70776
20
37.590328
30
0
210
0
220
0
230
1
1
\W0.7563;462.1-1010-030A0-XM X2BM
40
3.5
41
0
44
1.084337
50
0
71
7
72
5
7
iso_b_vert
0
MTEXT
5
EA
100
AcDbEntity
8
SK2
62
256
6
ByLayer
370
18
48
1
60
0
100
AcDbMText
10
-55.189796
20
19.409024
30
0
210
0
220
0
230
1
1
%%c
40
3.5
41
0
44
1.084337
50
90
71
7
72
5
7
iso_b_vert
0
MTEXT
5
EB
100
AcDbEntity
8
SK2
62
256
6
ByLayer
370
18
48
1
60
0
100
AcDbMText
10
-55.189796
20
24.63168
30
0
210
0
220
0
230
1
1
\W0.6930;12,000
40
3.5
41
0
44
1.084337
50
90
71
7
72
5
7
iso_b_vert
0
MTEXT
5
F4
100
AcDbEntity
8
2
62
256
6
ByLayer
370
18
48
1
60
0
100
AcDbMText
10
67.518709
20
17.05211
30
0
210
0
220
0
230
1
1
%%c
40
3.5
41
0
44
1.084337
50
90
71
7
72
5
7
iso_b_vert
0
MTEXT
5
F5
100
AcDbEntity
8
2
62
256
6
ByLayer
370
18
48
1
60
0
100
AcDbMText
10
67.518709
20
22.274766
30
0
210
0
220
0
230
1
1
\W0.6440;10,100
40
3.5
41
0
44
1.084337
50
90
71
7
72
5
7
iso_b_vert
0
HATCH
5
EF
100
AcDbEntity
8
SK2
62
256
6
ByLayer
370
13
48
1
60
0
100
AcDbHatch
10
0
20
0
30
0
210
0
220
0
230
1
2
ANSI31
70
0
71
0
91
1
92
5
93
3
72
1
10
-53.6251625675374
20
6
11
-53.1643788259847
21
2.50000169255318
72
1
10
-53.1643788259847
20
2.50000169255318
11
-54.0859463090902
21
2.49999830744682
72
1
10
-54.0859463090902
20
2.49999830744682
11
-53.6251625675374
21
6
97
0
75
0
76
1
52
0
41
0.0062
77
0
78
1
53
45
43
0
44
0
45
-0.0139193969876572
46
0.0139193969876572
79
0
47
0
98
1
10
0
20
0
0
HATCH
5
F3
100
AcDbEntity
8
SK2
62
256
6
ByLayer
370
13
48
1
60
0
100
AcDbHatch
10
0
20
0
30
0
210
0
220
0
230
1
2
ANSI31
70
0
71
0
91
1
92
5
93
3
72
1
10
-53.6251625675374
20
-6
11
-54.0859463090902
21
-2.50000169255318
72
1
10
-54.0859463090902
20
-2.50000169255318
11
-53.1643788259847
21
-2.49999830744682
72
1
10
-53.1643788259847
20
-2.49999830744682
11
-53.6251625675374
21
-6
97
0
75
0
76
1
52
0
41
0.0062
77
0
78
1
53
45
43
0
44
0
45
-0.0139193969876572
46
0.0139193969876572
79
0
47
0
98
1
10
0
20
0
0
HATCH
5
F9
100
AcDbEntity
8
2
62
256
6
ByLayer
370
13
48
1
60
0
100
AcDbHatch
10
0
20
0
30
0
210
0
220
0
230
1
2
ANSI31
70
0
71
0
91
1
92
5
93
3
72
1
10
69.083342615295
20
5.05000000000001
11
69.5441263568477
21
1.55000169255319
72
1
10
69.5441263568477
20
1.55000169255319
11
68.6225588737422
21
1.54999830744683
72
1
10
68.6225588737422
20
1.54999830744683
11
69.083342615295
21
5.05000000000001
97
0
75
0
76
1
52
0
41
0.0062
77
0
78
1
53
45
43
0
44
0
45
-0.0139193969876572
46
0.0139193969876572
79
0
47
0
98
1
10
0
20
0
0
HATCH
5
FD
100
AcDbEntity
8
2
62
256
6
ByLayer
370
13
48
1
60
0
100
AcDbHatch
10
0
20
0
30
0
210
0
220
0
230
1
2
ANSI31
70
0
71
0
91
1
92
5
93
3
72
1
10
69.083342615295
20
-5.04999999999998
11
68.6225588737422
21
-1.55000169255317
72
1
10
68.6225588737422
20
-1.55000169255317
11
69.5441263568477
21
-1.5499983074468
72
1
10
69.5441263568477
20
-1.5499983074468
11
69.083342615295
21
-5.04999999999998
97
0
75
0
76
1
52
0
41
0.0062
77
0
78
1
53
45
43
0
44
0
45
-0.0139193969876572
46
0.0139193969876572
79
0
47
0
98
1
10
0
20
0
0
DIMENSION
5
FF
100
AcDbEntity
8
SK2
62
256
6
ByLayer
370
13
48
1
60
0
100
AcDbDimension
2
_U0
10
55.5009
20
-15.263398
30
0
11
27.75045
21
-15.263398
31
0
70
32
71
1
72
1
41
1
210
0
220
0
230
1
3
Standard
100
AcDbAlignedDimension
13
0
23
0
33
0
14
55.5009
24
-5.05
34
0
50
0
100
AcDbRotatedDimension
1001
ACAD
1000
DSTYLE
1002
{
1070
   371
1070
    13
1070
   372
1070
    13
1070
   170
1070
     0
1070
   144
1040
1.0
1070
   277
1070
     2
1070
   278
1070
    44
1070
   146
1040
1.0
1070
   345
1005
16
1070
   347
1005
16
1070
   346
1005
16
1070
   344
1005
0
1070
   343
1005
0
1070
   172
1070
     1
1070
    76
1070
     0
1070
    75
1070
     0
1070
   282
1070
     0
1070
   281
1070
     0
1070
    71
1070
     0
1070
    74
1070
     0
1070
   279
1070
     0
1070
   173
1070
     1
1070
   340
1005
E7
1070
   271
1070
     2
1070
   272
1070
     2
1070
    77
1070
     1
1070
    73
1070
     1
1070
   171
1070
     3
1070
   274
1070
     4
1070
   177
1070
    35
1070
   176
1070
    35
1070
   178
1070
    35
1070
    48
1040
-0.1
1070
    41
1040
3.5
1070
   147
1040
1.75
1070
    42
1040
1.5875
1070
    44
1040
2.0
1070
   140
1040
3.5
1002
}
1001
ACAD_DSTYLE_DIM_LINETYPE
1070
   380
1005
16
1001
ACAD_DSTYLE_DIM_EXT1_LINETYPE
1070
   381
1005
16
1001
ACAD_DSTYLE_DIM_EXT2_LINETYPE
1070
   382
1005
16
0
DIMENSION
5
118
100
AcDbEntity
8
SK2
62
256
6
ByLayer
370
13
48
1
60
0
100
AcDbDimension
2
_U1
10
57
20
-34.692985
30
0
11
6
21
-34.692985
31
0
70
32
71
1
72
1
41
1
210
0
220
0
230
1
3
Standard
100
AcDbAlignedDimension
13
-45
23
-6
33
0
14
57
24
0
34
0
50
0
100
AcDbRotatedDimension
1001
ACAD
1000
DSTYLE
1002
{
1070
   371
1070
    13
1070
   372
1070
    13
1070
   170
1070
     0
1070
   144
1040
1.0
1070
   277
1070
     2
1070
   278
1070
    44
1070
   146
1040
1.0
1070
   345
1005
16
1070
   347
1005
16
1070
   346
1005
16
1070
   344
1005
0
1070
   343
1005
0
1070
   172
1070
     1
1070
    76
1070
     0
1070
    75
1070
     0
1070
   282
1070
     0
1070
   281
1070
     0
1070
    71
1070
     0
1070
    74
1070
     0
1070
   279
1070
     0
1070
   173
1070
     1
1070
   340
1005
E7
1070
   271
1070
     2
1070
   272
1070
     2
1070
    77
1070
     1
1070
    73
1070
     1
1070
   171
1070
     3
1070
   274
1070
     4
1070
   177
1070
    35
1070
   176
1070
    35
1070
   178
1070
    35
1070
    48
1040
-0.1
1070
    41
1040
3.5
1070
   147
1040
1.75
1070
    42
1040
1.5875
1070
    44
1040
2.0
1070
   140
1040
3.5
1002
}
1001
ACAD_DSTYLE_DIM_LINETYPE
1070
   380
1005
16
1001
ACAD_DSTYLE_DIM_EXT1_LINETYPE
1070
   381
1005
16
1001
ACAD_DSTYLE_DIM_EXT2_LINETYPE
1070
   382
1005
16
0
DIMENSION
5
130
100
AcDbEntity
8
SK2
62
256
6
ByLayer
370
13
48
1
60
0
100
AcDbDimension
2
_U2
10
57
20
16.659119
30
0
11
41.1
21
16.659119
31
0
70
32
71
1
72
1
41
1
210
0
220
0
230
1
3
Standard
100
AcDbAlignedDimension
13
25.2
23
5.05
33
0
14
57
24
0
34
0
50
0
100
AcDbRotatedDimension
1001
ACAD
1000
DSTYLE
1002
{
1070
   371
1070
    13
1070
   372
1070
    13
1070
   170
1070
     0
1070
   144
1040
1.0
1070
   277
1070
     2
1070
   278
1070
    44
1070
   146
1040
1.0
1070
   345
1005
16
1070
   347
1005
16
1070
   346
1005
16
1070
   344
1005
0
1070
   343
1005
0
1070
   172
1070
     1
1070
    76
1070
     0
1070
    75
1070
     0
1070
   282
1070
     0
1070
   281
1070
     0
1070
    71
1070
     0
1070
    74
1070
     0
1070
   279
1070
     0
1070
   173
1070
     1
1070
   340
1005
E7
1070
   271
1070
     2
1070
   272
1070
     2
1070
    77
1070
     1
1070
    73
1070
     1
1070
   171
1070
     3
1070
   274
1070
     4
1070
   177
1070
    35
1070
   176
1070
    35
1070
   178
1070
    35
1070
    48
1040
-0.1
1070
    41
1040
3.5
1070
   147
1040
1.75
1070
    42
1040
1.5875
1070
    44
1040
2.0
1070
   140
1040
3.5
1002
}
1001
ACAD_DSTYLE_DIM_LINETYPE
1070
   380
1005
16
1001
ACAD_DSTYLE_DIM_EXT1_LINETYPE
1070
   381
1005
16
1001
ACAD_DSTYLE_DIM_EXT2_LINETYPE
1070
   382
1005
16
0
DIMENSION
5
148
100
AcDbEntity
8
SK2
62
256
6
ByLayer
370
13
48
1
60
0
100
AcDbDimension
2
_U3
10
55.5009
20
-17.852503
30
0
11
74.333333
21
-17.852503
31
0
70
32
71
1
72
1
41
1
210
0
220
0
230
1
3
Standard
100
AcDbAlignedDimension
13
57
23
0
33
0
14
55.5009
24
-5.05
34
0
50
0
100
AcDbRotatedDimension
1001
ACAD
1000
DSTYLE
1002
{
1070
   371
1070
    13
1070
   372
1070
    13
1070
   170
1070
     0
1070
   144
1040
1.0
1070
   277
1070
     2
1070
   278
1070
    44
1070
   146
1040
1.0
1070
   345
1005
16
1070
   347
1005
16
1070
   346
1005
16
1070
   344
1005
0
1070
   343
1005
0
1070
   172
1070
     1
1070
    76
1070
     0
1070
    75
1070
     0
1070
   282
1070
     0
1070
   281
1070
     0
1070
    71
1070
     0
1070
    74
1070
     0
1070
   279
1070
     0
1070
   173
1070
     1
1070
   340
1005
E7
1070
   271
1070
     2
1070
   272
1070
     2
1070
    77
1070
     1
1070
    73
1070
     1
1070
   171
1070
     3
1070
   274
1070
     4
1070
   177
1070
    35
1070
   176
1070
    35
1070
   178
1070
    35
1070
    48
1040
-0.1
1070
    41
1040
3.5
1070
   147
1040
1.75
1070
    42
1040
1.5875
1070
    44
1040
2.0
1070
   140
1040
3.5
1002
}
1001
ACAD_DSTYLE_DIM_LINETYPE
1070
   380
1005
16
1001
ACAD_DSTYLE_DIM_EXT1_LINETYPE
1070
   381
1005
16
1001
ACAD_DSTYLE_DIM_EXT2_LINETYPE
1070
   382
1005
16
0
DIMENSION
5
162
100
AcDbEntity
8
SK2
62
256
6
ByLayer
370
13
48
1
60
0
100
AcDbDimension
2
_U4
10
55.5009
20
-24.343428
30
0
11
5.25045
21
-24.343428
31
0
70
32
71
1
72
1
41
1
210
0
220
0
230
1
3
Standard
100
AcDbAlignedDimension
13
-45
23
-6
33
0
14
55.5009
24
-5.05
34
0
50
0
100
AcDbRotatedDimension
1001
ACAD
1000
DSTYLE
1002
{
1070
   371
1070
    13
1070
   372
1070
    13
1070
   170
1070
     0
1070
   144
1040
1.0
1070
   277
1070
     2
1070
   278
1070
    44
1070
   146
1040
1.0
1070
   345
1005
16
1070
   347
1005
16
1070
   346
1005
16
1070
   344
1005
0
1070
   343
1005
0
1070
   172
1070
     1
1070
    76
1070
     0
1070
    75
1070
     0
1070
   282
1070
     0
1070
   281
1070
     0
1070
    71
1070
     0
1070
    74
1070
     0
1070
   279
1070
     0
1070
   173
1070
     1
1070
   340
1005
E7
1070
   271
1070
     2
1070
   272
1070
     2
1070
    77
1070
     1
1070
    73
1070
     1
1070
   171
1070
     3
1070
   274
1070
     4
1070
   177
1070
    35
1070
   176
1070
    35
1070
   178
1070
    35
1070
    48
1040
-0.1
1070
    41
1040
3.5
1070
   147
1040
1.75
1070
    42
1040
1.5875
1070
    44
1040
2.0
1070
   140
1040
3.5
1002
}
1001
ACAD_DSTYLE_DIM_LINETYPE
1070
   380
1005
16
1001
ACAD_DSTYLE_DIM_EXT1_LINETYPE
1070
   381
1005
16
1001
ACAD_DSTYLE_DIM_EXT2_LINETYPE
1070
   382
1005
16
0
ENDSEC
0
SECTION
2
OBJECTS
0
DICTIONARY
5
1ea
330
0
100
AcDbDictionary
280
0
281
1
3
ACAD_GROUP
350
1eb
3
ACAD_MLINESTYLE
350
1ec
0
DICTIONARY
5
1eb
330
0
100
AcDbDictionary
280
0
281
1
0
DICTIONARY
5
1ec
330
0
100
AcDbDictionary
280
0
281
1
3
Standard
350
18
0
MLINESTYLE
5
18
330
1ec
100
AcDbMlineStyle
2
Standard
70
0
3

62
256
51
90
52
90
71
2
49
-0.5
62
256
6
ByLayer
49
0.5
62
256
6
ByLayer
0
RASTERVARIABLES
5
1d8
330

100
AcDbRasterVariables
90
0
70
1
71
1
72
1
0
ENDSEC
0
EOF
