0
SECTION
2
HEADER
9
$ACADVER
1
AC1015
9
$DWGCODEPAGE
3
ANSI_1252
9
$HANDSEED
5
1f7
9
$ANGBASE
50
0
9
$ANGDIR
70
0
9
$ATTMODE
70
1
9
$AUNITS
70
0
9
$AUPREC
70
0
9
$CECOLOR
62
256
9
$CELTSCALE
40
1
9
$CELTYPE
6
ByLayer
9
$CELWEIGHT
370
18
9
$CLAYER
8
0
9
$CMLJUST
70
0
9
$CMLSCALE
40
1
9
$CMLSTYLE
2
Standard
9
$DIMSTYLE
2
Standard
9
$TEXTSIZE
40
0.2
9
$TEXTSTYLE
7
Standard
9
$LUNITS
70
2
9
$LUPREC
70
4
9
$EXTNAMES
290
1
9
$INSUNITS
70
4
9
$LTSCALE
40
1
9
$LWDISPLAY
290
1
9
$PDMODE
70
0
9
$PDSIZE
40
0
9
$PLINEGEN
70
0
0
ENDSEC
0
SECTION
2
CLASSES
0
CLASS
1
RASTERVARIABLES
2
AcDbRasterVariables
3
ISM
90
0
280
0
281
0
0
ENDSEC
0
SECTION
2
TABLES
0
TABLE
2
VPORT
5
1ed
100
AcDbSymbolTable
0
VPORT
5
1
100
AcDbSymbolTableRecord
100
AcDbViewportTableRecord
2
*Active
70
0
10
0
20
0
11
1
21
1
12
-1
22
1
13
0
23
0
14
0.5
24
0.5
15
10
25
10
16
0
26
0
36
1
17
0
27
0
37
0
0
ENDTAB
0
TABLE
2
LTYPE
5
1ee
100
AcDbSymbolTable
0
LTYPE
5
14
100
AcDbSymbolTableRecord
100
AcDbLinetypeTableRecord
70
0
2
ByBlock
3

72
65
73
0
40
0
0
LTYPE
5
15
100
AcDbSymbolTableRecord
100
AcDbLinetypeTableRecord
70
0
2
ByLayer
3

72
65
73
0
40
0
0
LTYPE
5
16
100
AcDbSymbolTableRecord
100
AcDbLinetypeTableRecord
70
0
2
Continuous
3
Solid line
72
65
73
0
40
0
0
LTYPE
5
6E
100
AcDbSymbolTableRecord
100
AcDbLinetypeTableRecord
70
0
2
CENTER
3
____ _ ____ _ ____ _ ____
72
65
73
4
40
47.5
49
22
74
0
49
-8.5
74
0
49
8.5
74
0
49
-8.5
74
0
0
LTYPE
5
6F
100
AcDbSymbolTableRecord
100
AcDbLinetypeTableRecord
70
0
2
DASHED
3
__ __ __ __ __ __ __ __ __
72
65
73
2
40
25.72
49
12.86
74
0
49
-12.86
74
0
0
ENDTAB
0
TABLE
2
LAYER
5
1ef
100
AcDbSymbolTable
0
LAYER
5
10
100
AcDbSymbolTableRecord
100
AcDbLayerTableRecord
2
0
70
0
62
7
6
Continuous
290
1
370
-3
390
0
0
LAYER
5
71
100
AcDbSymbolTableRecord
100
AcDbLayerTableRecord
2
80
70
0
62
-6
6
Continuous
290
1
370
-3
390
0
0
LAYER
5
73
100
AcDbSymbolTableRecord
100
AcDbLayerTableRecord
2
81
70
0
62
-3
6
Continuous
290
1
370
-3
390
0
0
LAYER
5
75
100
AcDbSymbolTableRecord
100
AcDbLayerTableRecord
2
1
70
0
62
4
6
Continuous
290
1
370
-3
390
0
0
LAYER
5
88
100
AcDbSymbolTableRecord
100
AcDbLayerTableRecord
2
4
70
0
62
-2
6
CENTER
290
1
370
-3
390
0
0
LAYER
5
9F
100
AcDbSymbolTableRecord
100
AcDbLayerTableRecord
2
2
70
0
62
7
6
Continuous
290
1
370
-3
390
0
0
LAYER
5
102
100
AcDbSymbolTableRecord
100
AcDbLayerTableRecord
2
Defpoints
70
0
62
7
6
Continuous
290
0
370
-3
390
0
0
LAYER
5
1d9
100
AcDbSymbolTableRecord
100
AcDbLayerTableRecord
2
SK1
70
0
62
4
6
Continuous
290
1
370
-3
390
0
0
LAYER
5
1da
100
AcDbSymbolTableRecord
100
AcDbLayerTableRecord
2
SK4
70
0
62
2
6
CENTER
290
1
370
-3
390
0
0
LAYER
5
1db
100
AcDbSymbolTableRecord
100
AcDbLayerTableRecord
2
SK2
70
0
62
7
6
Continuous
290
1
370
-3
390
0
0
LAYER
5
1dc
100
AcDbSymbolTableRecord
100
AcDbLayerTableRecord
2
SK6
70
0
62
5
6
Continuous
290
1
370
-3
390
0
0
ENDTAB
0
TABLE
2
STYLE
5
1f0
100
AcDbSymbolTable
0
STYLE
5
11
100
AcDbSymbolTableRecord
100
AcDbTextStyleTableRecord
2
Standard
3
txt
70
0
71
0
40
0
41
1
42
0
50
0
0
STYLE
5
E7
100
AcDbSymbolTableRecord
100
AcDbTextStyleTableRecord
2
iso_b_vert
3
simplex.shx
70
0
71
0
40
0
41
1
42
0
50
0
0
STYLE
5
E8
100
AcDbSymbolTableRecord
100
AcDbTextStyleTableRecord
2
DWGDirectTextStyle
3
simplex
70
0
71
0
40
0
41
1
42
0
50
0
0
ENDTAB
0
TABLE
2
DIMSTYLE
5
1f1
100
AcDbSymbolTable
100
AcDbDimStyleTable
0
DIMSTYLE
105
27
100
AcDbSymbolTableRecord
100
AcDbDimStyleTableRecord
2
Standard
70
0
3
<>
41
0.18
42
0.0625
44
0.18
140
0.18
147
0.09
73
0
74
0
77
1
271
2
275
0
278
52
280
0
340
11
0
ENDTAB
0
TABLE
2
VIEW
5
1f2
100
AcDbSymbolTable
0
ENDTAB
0
TABLE
2
UCS
5
1f3
100
AcDbSymbolTable
0
ENDTAB
0
TABLE
2
APPID
5
1f4
100
AcDbSymbolTable
0
APPID
5
12
100
AcDbSymbolTableRecord
100
AcDbRegAppTableRecord
2
ACAD
70
0
0
APPID
5
FE
100
AcDbSymbolTableRecord
100
AcDbRegAppTableRecord
2
ACAD_DSTYLE_DIMBREAK
70
0
0
APPID
5
198
100
AcDbSymbolTableRecord
100
AcDbRegAppTableRecord
2
ACAD_DSTYLE_DIM_LINETYPE
70
0
0
APPID
5
199
100
AcDbSymbolTableRecord
100
AcDbRegAppTableRecord
2
ACAD_DSTYLE_DIM_EXT1_LINETYPE
70
0
0
APPID
5
19A
100
AcDbSymbolTableRecord
100
AcDbRegAppTableRecord
2
ACAD_DSTYLE_DIM_EXT2_LINETYPE
70
0
0
APPID
5
1D5
100
AcDbSymbolTableRecord
100
AcDbRegAppTableRecord
2
ACAD_MLEADERVER
70
0
0
ENDTAB
0
TABLE
2
BLOCK_RECORD
5
1f5
100
AcDbSymbolTable
0
BLOCK_RECORD
5
1F
100
AcDbSymbolTableRecord
100
AcDbBlockTableRecord
2
*Model_Space
340
0
70
0
0
BLOCK_RECORD
5
1B
100
AcDbSymbolTableRecord
100
AcDbBlockTableRecord
2
*Paper_Space
340
0
70
0
0
BLOCK_RECORD
5
23
100
AcDbSymbolTableRecord
100
AcDbBlockTableRecord
2
*Paper_Space0
340
0
70
0
0
BLOCK_RECORD
5
103
100
AcDbSymbolTableRecord
100
AcDbBlockTableRecord
2
*D1
340
0
70
0
0
BLOCK_RECORD
5
10F
100
AcDbSymbolTableRecord
100
AcDbBlockTableRecord
2
_U0
340
0
70
0
0
BLOCK_RECORD
5
11B
100
AcDbSymbolTableRecord
100
AcDbBlockTableRecord
2
*D3
340
0
70
0
0
BLOCK_RECORD
5
127
100
AcDbSymbolTableRecord
100
AcDbBlockTableRecord
2
_U1
340
0
70
0
0
BLOCK_RECORD
5
133
100
AcDbSymbolTableRecord
100
AcDbBlockTableRecord
2
*D5
340
0
70
0
0
BLOCK_RECORD
5
13F
100
AcDbSymbolTableRecord
100
AcDbBlockTableRecord
2
_U2
340
0
70
0
0
BLOCK_RECORD
5
14B
100
AcDbSymbolTableRecord
100
AcDbBlockTableRecord
2
*D7
340
0
70
0
0
BLOCK_RECORD
5
159
100
AcDbSymbolTableRecord
100
AcDbBlockTableRecord
2
_U3
340
0
70
0
0
BLOCK_RECORD
5
165
100
AcDbSymbolTableRecord
100
AcDbBlockTableRecord
2
*D9
340
0
70
0
0
BLOCK_RECORD
5
171
100
AcDbSymbolTableRecord
100
AcDbBlockTableRecord
2
_U4
340
0
70
0
0
ENDTAB
0
ENDSEC
0
SECTION
2
BLOCKS
0
BLOCK
5
20
100
AcDbEntity
8
0
100
AcDbBlockBegin
2
*Model_Space
70
0
10
0
20
0
30
0
3
*Model_Space
0
ENDBLK
5
21
100
AcDbEntity
8
0
100
AcDbBlockEnd
0
BLOCK
5
1C
100
AcDbEntity
8
0
100
AcDbBlockBegin
2
*Paper_Space
70
0
10
0
20
0
30
0
3
*Paper_Space
0
ENDBLK
5
1D
100
AcDbEntity
8
0
100
AcDbBlockEnd
0
BLOCK
5
24
100
AcDbEntity
8
0
100
AcDbBlockBegin
2
*Paper_Space0
70
0
10
0
20
0
30
0
3
*Paper_Space0
0
ENDBLK
5
25
100
AcDbEntity
8
0
100
AcDbBlockEnd
0
BLOCK
5
104
100
AcDbEntity
8
0
100
AcDbBlockBegin
2
*D1
70
1
10
0
20
0
30
0
3
*D1
0
LINE
5
106
100
AcDbEntity
8
0
62
256
6
ByLayer
370
-2
48
1
60
0
100
AcDbLine
10
0
20
-1.5875
30
0
11
0
21
-17.013398
31
0
39
0
210
0
220
0
230
1
0
LINE
5
107
100
AcDbEntity
8
0
62
256
6
ByLayer
370
-2
48
1
60
0
100
AcDbLine
10
47.5763
20
-6.3875
30
0
11
47.5763
21
-17.013398
31
0
39
0
210
0
220
0
230
1
0
LINE
5
108
100
AcDbEntity
8
0
62
256
6
ByLayer
370
-2
48
1
60
0
100
AcDbLine
10
3.5
20
-15.013398
30
0
11
44.0763
21
-15.013398
31
0
39
0
210
0
220
0
230
1
0
SOLID
5
109
100
AcDbEntity
8
0
62
256
6
ByLayer
370
-1
48
1
60
0
100
AcDbTrace
10
3.5
20
-14.430065
30
0
11
3.5
21
-15.596732
31
0
12
0
22
-15.013398
32
0
13
0
23
-15.013398
33
0
39
0
210
0
220
0
230
1
0
SOLID
5
10A
100
AcDbEntity
8
0
62
256
6
ByLayer
370
-1
48
1
60
0
100
AcDbTrace
10
44.0763
20
-15.596732
30
0
11
44.0763
21
-14.430065
31
0
12
47.5763
22
-15.013398
32
0
13
47.5763
23
-15.013398
33
0
39
0
210
0
220
0
230
1
0
MTEXT
5
10B
100
AcDbEntity
8
0
62
256
6
ByLayer
370
18
48
1
60
0
100
AcDbMText
10
23.78815
20
-8.013398
30
0
210
0
220
0
230
1
1
\A1;47.58
40
3.5
41
0
44
1
50
0
71
5
72
5
7
iso_b_vert
0
POINT
5
10C
100
AcDbEntity
8
Defpoints
62
0
6
ByLayer
370
-1
48
1
60
0
100
AcDbPoint
10
0
20
0
30
0
39
0
210
0
220
0
230
1
50
360
0
POINT
5
10D
100
AcDbEntity
8
Defpoints
62
0
6
ByLayer
370
-1
48
1
60
0
100
AcDbPoint
10
47.5763
20
-4.8
30
0
39
0
210
0
220
0
230
1
50
360
0
POINT
5
10E
100
AcDbEntity
8
Defpoints
62
0
6
ByLayer
370
-1
48
1
60
0
100
AcDbPoint
10
47.5763
20
-15.013398
30
0
39
0
210
0
220
0
230
1
50
360
0
ENDBLK
5
105
100
AcDbEntity
8
0
100
AcDbBlockEnd
0
BLOCK
5
116
100
AcDbEntity
8
0
100
AcDbBlockBegin
2
_U0
70
0
10
0
20
0
30
0
3
_U0
0
MTEXT
5
110
100
AcDbEntity
8
SK2
62
256
6
ByLayer
370
13
48
1
60
0
100
AcDbMText
10
18.466585
20
-13.980765
30
0
210
0
220
0
230
1
1
\W0.7581;47,58
40
3.5
41
0
44
1.084337
50
0
71
7
72
5
7
iso_b_vert
0
LINE
5
111
100
AcDbEntity
8
SK2
62
256
6
ByLayer
370
13
48
1
60
0
100
AcDbLine
10
0
20
-1.5875
30
0
11
0
21
-17.013398
31
0
39
0
210
0
220
0
230
1
0
LINE
5
112
100
AcDbEntity
8
SK2
62
256
6
ByLayer
370
13
48
1
60
0
100
AcDbLine
10
47.5763
20
-6.3875
30
0
11
47.5763
21
-17.013398
31
0
39
0
210
0
220
0
230
1
0
LINE
5
113
100
AcDbEntity
8
SK2
62
256
6
ByLayer
370
13
48
1
60
0
100
AcDbLine
10
0
20
-15.013398
30
0
11
47.5763
21
-15.013398
31
0
39
0
210
0
220
0
230
1
0
SOLID
5
114
100
AcDbEntity
8
SK2
62
256
6
ByLayer
370
18
48
1
60
0
100
AcDbTrace
10
0
20
-15.013398
30
0
11
3.499998
21
-14.552615
31
0
12
3.500002
22
-15.474182
32
0
13
3.500002
23
-15.474182
33
0
39
0
210
0
220
0
230
1
0
SOLID
5
115
100
AcDbEntity
8
SK2
62
256
6
ByLayer
370
18
48
1
60
0
100
AcDbTrace
10
47.5763
20
-15.013398
30
0
11
44.076302
21
-15.474182
31
0
12
44.076298
22
-14.552615
32
0
13
44.076298
23
-14.552615
33
0
39
0
210
0
220
0
230
1
0
ENDBLK
5
117
100
AcDbEntity
8
0
100
AcDbBlockEnd
0
BLOCK
5
11C
100
AcDbEntity
8
0
100
AcDbBlockBegin
2
*D3
70
1
10
0
20
0
30
0
3
*D3
0
LINE
5
11E
100
AcDbEntity
8
0
62
256
6
ByLayer
370
-2
48
1
60
0
100
AcDbLine
10
-40
20
-6.5875
30
0
11
-40
21
-35.692985
31
0
39
0
210
0
220
0
230
1
0
LINE
5
11F
100
AcDbEntity
8
0
62
256
6
ByLayer
370
-2
48
1
60
0
100
AcDbLine
10
49
20
-1.5875
30
0
11
49
21
-35.692985
31
0
39
0
210
0
220
0
230
1
0
LINE
5
120
100
AcDbEntity
8
0
62
256
6
ByLayer
370
-2
48
1
60
0
100
AcDbLine
10
-36.5
20
-33.692985
30
0
11
45.5
21
-33.692985
31
0
39
0
210
0
220
0
230
1
0
SOLID
5
121
100
AcDbEntity
8
0
62
256
6
ByLayer
370
-1
48
1
60
0
100
AcDbTrace
10
-36.5
20
-33.109652
30
0
11
-36.5
21
-34.276319
31
0
12
-40
22
-33.692985
32
0
13
-40
23
-33.692985
33
0
39
0
210
0
220
0
230
1
0
SOLID
5
122
100
AcDbEntity
8
0
62
256
6
ByLayer
370
-1
48
1
60
0
100
AcDbTrace
10
45.5
20
-34.276319
30
0
11
45.5
21
-33.109652
31
0
12
49
22
-33.692985
32
0
13
49
23
-33.692985
33
0
39
0
210
0
220
0
230
1
0
MTEXT
5
123
100
AcDbEntity
8
0
62
256
6
ByLayer
370
18
48
1
60
0
100
AcDbMText
10
4.5
20
-26.692985
30
0
210
0
220
0
230
1
1
\A1;89.00
40
3.5
41
0
44
1
50
0
71
5
72
5
7
iso_b_vert
0
POINT
5
124
100
AcDbEntity
8
Defpoints
62
0
6
ByLayer
370
-1
48
1
60
0
100
AcDbPoint
10
-40
20
-5
30
0
39
0
210
0
220
0
230
1
50
360
0
POINT
5
125
100
AcDbEntity
8
Defpoints
62
0
6
ByLayer
370
-1
48
1
60
0
100
AcDbPoint
10
49
20
0
30
0
39
0
210
0
220
0
230
1
50
360
0
POINT
5
126
100
AcDbEntity
8
Defpoints
62
0
6
ByLayer
370
-1
48
1
60
0
100
AcDbPoint
10
49
20
-33.692985
30
0
39
0
210
0
220
0
230
1
50
360
0
ENDBLK
5
11D
100
AcDbEntity
8
0
100
AcDbBlockEnd
0
BLOCK
5
12E
100
AcDbEntity
8
0
100
AcDbBlockBegin
2
_U1
70
0
10
0
20
0
30
0
3
_U1
0
MTEXT
5
128
100
AcDbEntity
8
SK2
62
256
6
ByLayer
370
13
48
1
60
0
100
AcDbMText
10
-0.637299
20
-32.660352
30
0
210
0
220
0
230
1
1
\W0.7317;89,00
40
3.5
41
0
44
1.084337
50
0
71
7
72
5
7
iso_b_vert
0
LINE
5
129
100
AcDbEntity
8
SK2
62
256
6
ByLayer
370
13
48
1
60
0
100
AcDbLine
10
-40
20
-6.5875
30
0
11
-40
21
-35.692985
31
0
39
0
210
0
220
0
230
1
0
LINE
5
12A
100
AcDbEntity
8
SK2
62
256
6
ByLayer
370
13
48
1
60
0
100
AcDbLine
10
49
20
-1.5875
30
0
11
49
21
-35.692985
31
0
39
0
210
0
220
0
230
1
0
LINE
5
12B
100
AcDbEntity
8
SK2
62
256
6
ByLayer
370
13
48
1
60
0
100
AcDbLine
10
-40
20
-33.692985
30
0
11
49
21
-33.692985
31
0
39
0
210
0
220
0
230
1
0
SOLID
5
12C
100
AcDbEntity
8
SK2
62
256
6
ByLayer
370
18
48
1
60
0
100
AcDbTrace
10
-40
20
-33.692985
30
0
11
-36.500002
21
-33.232202
31
0
12
-36.499998
22
-34.153769
32
0
13
-36.499998
23
-34.153769
33
0
39
0
210
0
220
0
230
1
0
SOLID
5
12D
100
AcDbEntity
8
SK2
62
256
6
ByLayer
370
18
48
1
60
0
100
AcDbTrace
10
49
20
-33.692985
30
0
11
45.500002
21
-34.153769
31
0
12
45.499998
22
-33.232202
32
0
13
45.499998
23
-33.232202
33
0
39
0
210
0
220
0
230
1
0
ENDBLK
5
12F
100
AcDbEntity
8
0
100
AcDbBlockEnd
0
BLOCK
5
134
100
AcDbEntity
8
0
100
AcDbBlockBegin
2
*D5
70
1
10
0
20
0
30
0
3
*D5
0
LINE
5
136
100
AcDbEntity
8
0
62
256
6
ByLayer
370
-2
48
1
60
0
100
AcDbLine
10
18.78
20
6.3875
30
0
11
18.78
21
18.409119
31
0
39
0
210
0
220
0
230
1
0
LINE
5
137
100
AcDbEntity
8
0
62
256
6
ByLayer
370
-2
48
1
60
0
100
AcDbLine
10
49
20
1.5875
30
0
11
49
21
18.409119
31
0
39
0
210
0
220
0
230
1
0
LINE
5
138
100
AcDbEntity
8
0
62
256
6
ByLayer
370
-2
48
1
60
0
100
AcDbLine
10
22.28
20
16.409119
30
0
11
45.5
21
16.409119
31
0
39
0
210
0
220
0
230
1
0
SOLID
5
139
100
AcDbEntity
8
0
62
256
6
ByLayer
370
-1
48
1
60
0
100
AcDbTrace
10
22.28
20
16.992453
30
0
11
22.28
21
15.825786
31
0
12
18.78
22
16.409119
32
0
13
18.78
23
16.409119
33
0
39
0
210
0
220
0
230
1
0
SOLID
5
13A
100
AcDbEntity
8
0
62
256
6
ByLayer
370
-1
48
1
60
0
100
AcDbTrace
10
45.5
20
15.825786
30
0
11
45.5
21
16.992453
31
0
12
49
22
16.409119
32
0
13
49
23
16.409119
33
0
39
0
210
0
220
0
230
1
0
MTEXT
5
13B
100
AcDbEntity
8
0
62
256
6
ByLayer
370
18
48
1
60
0
100
AcDbMText
10
33.89
20
23.409119
30
0
210
0
220
0
230
1
1
\A1;30.22
40
3.5
41
0
44
1
50
0
71
5
72
5
7
iso_b_vert
0
POINT
5
13C
100
AcDbEntity
8
Defpoints
62
0
6
ByLayer
370
-1
48
1
60
0
100
AcDbPoint
10
18.78
20
4.8
30
0
39
0
210
0
220
0
230
1
50
360
0
POINT
5
13D
100
AcDbEntity
8
Defpoints
62
0
6
ByLayer
370
-1
48
1
60
0
100
AcDbPoint
10
49
20
0
30
0
39
0
210
0
220
0
230
1
50
360
0
POINT
5
13E
100
AcDbEntity
8
Defpoints
62
0
6
ByLayer
370
-1
48
1
60
0
100
AcDbPoint
10
49
20
16.409119
30
0
39
0
210
0
220
0
230
1
50
360
0
ENDBLK
5
135
100
AcDbEntity
8
0
100
AcDbBlockEnd
0
BLOCK
5
146
100
AcDbEntity
8
0
100
AcDbBlockBegin
2
_U2
70
0
10
0
20
0
30
0
3
_U2
0
MTEXT
5
140
100
AcDbEntity
8
SK2
62
256
6
ByLayer
370
13
48
1
60
0
100
AcDbMText
10
28.752701
20
17.441753
30
0
210
0
220
0
230
1
1
\W0.7317;30,22
40
3.5
41
0
44
1.084337
50
0
71
7
72
5
7
iso_b_vert
0
LINE
5
141
100
AcDbEntity
8
SK2
62
256
6
ByLayer
370
13
48
1
60
0
100
AcDbLine
10
18.78
20
6.3875
30
0
11
18.78
21
18.409119
31
0
39
0
210
0
220
0
230
1
0
LINE
5
142
100
AcDbEntity
8
SK2
62
256
6
ByLayer
370
13
48
1
60
0
100
AcDbLine
10
49
20
1.5875
30
0
11
49
21
18.409119
31
0
39
0
210
0
220
0
230
1
0
LINE
5
143
100
AcDbEntity
8
SK2
62
256
6
ByLayer
370
13
48
1
60
0
100
AcDbLine
10
18.78
20
16.409119
30
0
11
49
21
16.409119
31
0
39
0
210
0
220
0
230
1
0
SOLID
5
144
100
AcDbEntity
8
SK2
62
256
6
ByLayer
370
18
48
1
60
0
100
AcDbTrace
10
18.78
20
16.409119
30
0
11
22.279998
21
16.869903
31
0
12
22.280002
22
15.948335
32
0
13
22.280002
23
15.948335
33
0
39
0
210
0
220
0
230
1
0
SOLID
5
145
100
AcDbEntity
8
SK2
62
256
6
ByLayer
370
18
48
1
60
0
100
AcDbTrace
10
49
20
16.409119
30
0
11
45.500002
21
15.948335
31
0
12
45.499998
22
16.869903
32
0
13
45.499998
23
16.869903
33
0
39
0
210
0
220
0
230
1
0
ENDBLK
5
147
100
AcDbEntity
8
0
100
AcDbBlockEnd
0
BLOCK
5
14C
100
AcDbEntity
8
0
100
AcDbBlockBegin
2
*D7
70
1
10
0
20
0
30
0
3
*D7
0
LINE
5
14E
100
AcDbEntity
8
0
62
256
6
ByLayer
370
-2
48
1
60
0
100
AcDbLine
10
49
20
-1.5875
30
0
11
49
21
-19.602503
31
0
39
0
210
0
220
0
230
1
0
LINE
5
14F
100
AcDbEntity
8
0
62
256
6
ByLayer
370
-2
48
1
60
0
100
AcDbLine
10
47.5763
20
-6.3875
30
0
11
47.5763
21
-19.602503
31
0
39
0
210
0
220
0
230
1
0
LINE
5
150
100
AcDbEntity
8
0
62
256
6
ByLayer
370
-2
48
1
60
0
100
AcDbLine
10
49
20
-17.602503
30
0
11
76.666667
21
-17.602503
31
0
39
0
210
0
220
0
230
1
0
LINE
5
151
100
AcDbEntity
8
0
62
256
6
ByLayer
370
-2
48
1
60
0
100
AcDbLine
10
52.5
20
-17.602503
30
0
11
56
21
-17.602503
31
0
39
0
210
0
220
0
230
1
0
LINE
5
152
100
AcDbEntity
8
0
62
256
6
ByLayer
370
-2
48
1
60
0
100
AcDbLine
10
44.0763
20
-17.602503
30
0
11
40.5763
21
-17.602503
31
0
39
0
210
0
220
0
230
1
0
SOLID
5
153
100
AcDbEntity
8
0
62
256
6
ByLayer
370
-1
48
1
60
0
100
AcDbTrace
10
52.5
20
-17.01917
30
0
11
52.5
21
-18.185837
31
0
12
49
22
-17.602503
32
0
13
49
23
-17.602503
33
0
39
0
210
0
220
0
230
1
0
SOLID
5
154
100
AcDbEntity
8
0
62
256
6
ByLayer
370
-1
48
1
60
0
100
AcDbTrace
10
44.0763
20
-18.185837
30
0
11
44.0763
21
-17.01917
31
0
12
47.5763
22
-17.602503
32
0
13
47.5763
23
-17.602503
33
0
39
0
210
0
220
0
230
1
0
MTEXT
5
155
100
AcDbEntity
8
0
62
256
6
ByLayer
370
18
48
1
60
0
100
AcDbMText
10
66.333333
20
-10.602503
30
0
210
0
220
0
230
1
1
\A1;1.42
40
3.5
41
0
44
1
50
0
71
5
72
5
7
iso_b_vert
0
POINT
5
156
100
AcDbEntity
8
Defpoints
62
0
6
ByLayer
370
-1
48
1
60
0
100
AcDbPoint
10
49
20
0
30
0
39
0
210
0
220
0
230
1
50
360
0
POINT
5
157
100
AcDbEntity
8
Defpoints
62
0
6
ByLayer
370
-1
48
1
60
0
100
AcDbPoint
10
47.5763
20
-4.8
30
0
39
0
210
0
220
0
230
1
50
360
0
POINT
5
158
100
AcDbEntity
8
Defpoints
62
0
6
ByLayer
370
-1
48
1
60
0
100
AcDbPoint
10
47.5763
20
-17.602503
30
0
39
0
210
0
220
0
230
1
50
360
0
ENDBLK
5
14D
100
AcDbEntity
8
0
100
AcDbBlockEnd
0
BLOCK
5
160
100
AcDbEntity
8
0
100
AcDbBlockBegin
2
_U3
70
0
10
0
20
0
30
0
3
_U3
0
MTEXT
5
15A
100
AcDbEntity
8
SK2
62
256
6
ByLayer
370
13
48
1
60
0
100
AcDbMText
10
55.405026
20
-16.56987
30
0
210
0
220
0
230
1
1
\W0.6709;1,42
40
3.5
41
0
44
1.084337
50
0
71
7
72
5
7
iso_b_vert
0
LINE
5
15B
100
AcDbEntity
8
SK2
62
256
6
ByLayer
370
13
48
1
60
0
100
AcDbLine
10
49
20
-1.5875
30
0
11
49
21
-19.602503
31
0
39
0
210
0
220
0
230
1
0
LINE
5
15C
100
AcDbEntity
8
SK2
62
256
6
ByLayer
370
13
48
1
60
0
100
AcDbLine
10
47.5763
20
-6.3875
30
0
11
47.5763
21
-19.602503
31
0
39
0
210
0
220
0
230
1
0
LINE
5
15D
100
AcDbEntity
8
SK2
62
256
6
ByLayer
370
13
48
1
60
0
100
AcDbLine
10
38.8263
20
-17.602503
30
0
11
62.743324
21
-17.602503
31
0
39
0
210
0
220
0
230
1
0
SOLID
5
15E
100
AcDbEntity
8
SK2
62
256
6
ByLayer
370
18
48
1
60
0
100
AcDbTrace
10
49
20
-17.602503
30
0
11
52.499998
21
-17.141719
31
0
12
52.500002
22
-18.063287
32
0
13
52.500002
23
-18.063287
33
0
39
0
210
0
220
0
230
1
0
SOLID
5
15F
100
AcDbEntity
8
SK2
62
256
6
ByLayer
370
18
48
1
60
0
100
AcDbTrace
10
47.5763
20
-17.602503
30
0
11
44.076302
21
-18.063287
31
0
12
44.076298
22
-17.141719
32
0
13
44.076298
23
-17.141719
33
0
39
0
210
0
220
0
230
1
0
ENDBLK
5
161
100
AcDbEntity
8
0
100
AcDbBlockEnd
0
BLOCK
5
166
100
AcDbEntity
8
0
100
AcDbBlockBegin
2
*D9
70
1
10
0
20
0
30
0
3
*D9
0
LINE
5
168
100
AcDbEntity
8
0
62
256
6
ByLayer
370
-2
48
1
60
0
100
AcDbLine
10
-40
20
-6.5875
30
0
11
-40
21
-25.343428
31
0
39
0
210
0
220
0
230
1
0
LINE
5
169
100
AcDbEntity
8
0
62
256
6
ByLayer
370
-2
48
1
60
0
100
AcDbLine
10
47.5763
20
-6.3875
30
0
11
47.5763
21
-25.343428
31
0
39
0
210
0
220
0
230
1
0
LINE
5
16A
100
AcDbEntity
8
0
62
256
6
ByLayer
370
-2
48
1
60
0
100
AcDbLine
10
-36.5
20
-23.343428
30
0
11
44.0763
21
-23.343428
31
0
39
0
210
0
220
0
230
1
0
SOLID
5
16B
100
AcDbEntity
8
0
62
256
6
ByLayer
370
-1
48
1
60
0
100
AcDbTrace
10
-36.5
20
-22.760095
30
0
11
-36.5
21
-23.926762
31
0
12
-40
22
-23.343428
32
0
13
-40
23
-23.343428
33
0
39
0
210
0
220
0
230
1
0
SOLID
5
16C
100
AcDbEntity
8
0
62
256
6
ByLayer
370
-1
48
1
60
0
100
AcDbTrace
10
44.0763
20
-23.926762
30
0
11
44.0763
21
-22.760095
31
0
12
47.5763
22
-23.343428
32
0
13
47.5763
23
-23.343428
33
0
39
0
210
0
220
0
230
1
0
MTEXT
5
16D
100
AcDbEntity
8
0
62
256
6
ByLayer
370
18
48
1
60
0
100
AcDbMText
10
3.78815
20
-16.343428
30
0
210
0
220
0
230
1
1
\A1;87.58
40
3.5
41
0
44
1
50
0
71
5
72
5
7
iso_b_vert
0
POINT
5
16E
100
AcDbEntity
8
Defpoints
62
0
6
ByLayer
370
-1
48
1
60
0
100
AcDbPoint
10
-40
20
-5
30
0
39
0
210
0
220
0
230
1
50
360
0
POINT
5
16F
100
AcDbEntity
8
Defpoints
62
0
6
ByLayer
370
-1
48
1
60
0
100
AcDbPoint
10
47.5763
20
-4.8
30
0
39
0
210
0
220
0
230
1
50
360
0
POINT
5
170
100
AcDbEntity
8
Defpoints
62
0
6
ByLayer
370
-1
48
1
60
0
100
AcDbPoint
10
47.5763
20
-23.343428
30
0
39
0
210
0
220
0
230
1
50
360
0
ENDBLK
5
167
100
AcDbEntity
8
0
100
AcDbBlockEnd
0
BLOCK
5
178
100
AcDbEntity
8
0
100
AcDbBlockBegin
2
_U4
70
0
10
0
20
0
30
0
3
_U4
0
MTEXT
5
172
100
AcDbEntity
8
SK2
62
256
6
ByLayer
370
13
48
1
60
0
100
AcDbMText
10
-1.349149
20
-22.310795
30
0
210
0
220
0
230
1
1
\W0.7317;87,58
40
3.5
41
0
44
1.084337
50
0
71
7
72
5
7
iso_b_vert
0
LINE
5
173
100
AcDbEntity
8
SK2
62
256
6
ByLayer
370
13
48
1
60
0
100
AcDbLine
10
-40
20
-6.5875
30
0
11
-40
21
-25.343428
31
0
39
0
210
0
220
0
230
1
0
LINE
5
174
100
AcDbEntity
8
SK2
62
256
6
ByLayer
370
13
48
1
60
0
100
AcDbLine
10
47.5763
20
-6.3875
30
0
11
47.5763
21
-25.343428
31
0
39
0
210
0
220
0
230
1
0
LINE
5
175
100
AcDbEntity
8
SK2
62
256
6
ByLayer
370
13
48
1
60
0
100
AcDbLine
10
-40
20
-23.343428
30
0
11
47.5763
21
-23.343428
31
0
39
0
210
0
220
0
230
1
0
SOLID
5
176
100
AcDbEntity
8
SK2
62
256
6
ByLayer
370
18
48
1
60
0
100
AcDbTrace
10
-40
20
-23.343428
30
0
11
-36.500002
21
-22.882645
31
0
12
-36.499998
22
-23.804212
32
0
13
-36.499998
23
-23.804212
33
0
39
0
210
0
220
0
230
1
0
SOLID
5
177
100
AcDbEntity
8
SK2
62
256
6
ByLayer
370
18
48
1
60
0
100
AcDbTrace
10
47.5763
20
-23.343428
30
0
11
44.076302
21
-23.804212
31
0
12
44.076298
22
-22.882645
32
0
13
44.076298
23
-22.882645
33
0
39
0
210
0
220
0
230
1
0
ENDBLK
5
179
100
AcDbEntity
8
0
100
AcDbBlockEnd
0
ENDSEC
0
SECTION
2
ENTITIES
0
ARC
5
A8
100
AcDbEntity
8
1
62
256
6
ByLayer
370
18
48
1
60
0
100
AcDbCircle
39
0
10
0
20
-4.2
30
0
40
0.800000000000001
210
0
220
0
230
1
100
AcDbArc
50
270
51
301.046766
0
ARC
5
A9
100
AcDbEntity
8
1
62
256
6
ByLayer
370
18
48
1
60
0
100
AcDbCircle
39
0
10
0.82518
20
-5.570795
30
0
40
0.800000000000001
210
0
220
0
230
1
100
AcDbArc
50
89.96419
51
121.046766
0
ARC
5
AA
100
AcDbEntity
8
1
62
256
6
ByLayer
370
18
48
1
60
0
100
AcDbCircle
39
0
10
0.82518
20
5.570795
30
0
40
0.800000000000001
210
0
220
0
230
1
100
AcDbArc
50
238.953234
51
270.03581
0
ARC
5
AB
100
AcDbEntity
8
1
62
256
6
ByLayer
370
18
48
1
60
0
100
AcDbCircle
39
0
10
0
20
4.2
30
0
40
0.800000000000001
210
0
220
0
230
1
100
AcDbArc
50
58.953234
51
90
0
ELLIPSE
5
AC
100
AcDbEntity
8
1
62
256
6
ByLayer
370
13
48
1
60
0
100
AcDbEllipse
10
4.179052
20
1.143915
30
0
11
-0.0540564899153958
21
-0.0841302317720967
31
0
210
0
220
0
230
1
40
0.312369
41
-1.11750491922281
42
-0.739239495311295
0
ELLIPSE
5
AD
100
AcDbEntity
8
1
62
256
6
ByLayer
370
18
48
1
60
0
100
AcDbEllipse
10
4.25
20
4.783312
30
0
11
0.25
21
0
31
0
210
0
220
0
230
1
40
0.999998
41
-3.13297784841239
42
-1.56152757859654
0
ELLIPSE
5
AE
100
AcDbEntity
8
1
62
256
6
ByLayer
370
18
48
1
60
0
100
AcDbEllipse
10
4.25
20
-4.783312
30
0
11
0.25
21
0
31
0
210
0
220
0
230
1
40
0.999998
41
1.57644824812503
42
3.13297784841238
0
POINT
5
70
100
AcDbEntity
8
80
62
256
6
ByLayer
370
18
48
1
60
0
100
AcDbPoint
10
0
20
0
30
0
39
0
210
0
220
0
230
1
50
360
0
POINT
5
72
100
AcDbEntity
8
81
62
256
6
ByLayer
370
18
48
1
60
0
100
AcDbPoint
10
49
20
0
30
0
39
0
210
0
220
0
230
1
50
360
0
POINT
5
74
100
AcDbEntity
8
1
62
256
6
ByLayer
370
18
48
1
60
1
100
AcDbPoint
10
47.5763
20
-4.8
30
0
39
0
210
0
220
0
230
1
50
360
0
POINT
5
76
100
AcDbEntity
8
1
62
256
6
ByLayer
370
18
48
1
60
1
100
AcDbPoint
10
-40
20
-5
30
0
39
0
210
0
220
0
230
1
50
360
0
POINT
5
77
100
AcDbEntity
8
1
62
256
6
ByLayer
370
18
48
1
60
1
100
AcDbPoint
10
18.78
20
4.8
30
0
39
0
210
0
220
0
230
1
50
360
0
POINT
5
78
100
AcDbEntity
8
1
62
256
6
ByLayer
370
18
48
1
60
1
100
AcDbPoint
10
47.5763
20
-4.8
30
0
39
0
210
0
220
0
230
1
50
360
0
POINT
5
79
100
AcDbEntity
8
1
62
256
6
ByLayer
370
18
48
1
60
1
100
AcDbPoint
10
-40
20
-5
30
0
39
0
210
0
220
0
230
1
50
360
0
POINT
5
7A
100
AcDbEntity
8
1
62
256
6
ByLayer
370
18
48
1
60
1
100
AcDbPoint
10
47.5763
20
-4.8
30
0
39
0
210
0
220
0
230
1
50
360
0
SPLINE
5
AF
100
AcDbEntity
8
1
62
256
6
ByLayer
370
13
48
1
60
0
100
AcDbSpline
70
4
71
3
72
10
73
6
40
0
40
0
40
0
40
0
40
0.264436600858052
40
0.264436600858052
40
1
40
1
40
1
40
1
41
1
10
4.25045429869235
20
-4.53331261428391
30
0
41
1
10
4.25046554050471
20
-4.53337714795984
30
0
41
1
10
4.25047722123296
20
-4.5295096088872
30
0
41
1
10
4.2505222001455
20
-4.50000260047685
30
0
41
1
10
4.25055684077097
20
-4.44856368346828
30
0
41
1
10
4.25059002228946
20
-4.36833650164587
30
0
0
SPLINE
5
B0
100
AcDbEntity
8
1
62
256
6
ByLayer
370
18
48
1
60
0
100
AcDbSpline
70
4
71
3
72
14
73
10
40
0
40
0
40
0
40
0
40
0.25
40
0.25
40
0.5
40
0.5
40
0.75
40
0.75
40
1
40
1
40
1
40
1
41
1
10
47.369958703025
20
-4.55820738233086
30
0
41
1
10
47.373318687654
20
-4.55782580204971
30
0
41
1
10
47.3760486452774
20
-4.55909945210917
30
0
41
1
10
47.3798326058502
20
-4.56602856649323
30
0
41
1
10
47.380835898367
20
-4.57176100075543
30
0
41
1
10
47.3799249307519
20
-4.58877134012815
30
0
41
1
10
47.3779284891759
20
-4.6000913825215
30
0
41
1
10
47.3709427354423
20
-4.62575925416323
30
0
41
1
10
47.3660359578544
20
-4.63983677995665
30
0
41
1
10
47.3606447265519
20
-4.65310251568459
30
0
0
SPLINE
5
B1
100
AcDbEntity
8
1
62
256
6
ByLayer
370
18
48
1
60
0
100
AcDbSpline
70
4
71
3
72
8
73
4
40
0
40
0
40
0
40
0
40
1
40
1
40
1
40
1
41
1
10
11.8516430568601
20
3.49904363623858
30
0
41
1
10
11.8516430568601
20
3.45839963691731
30
0
41
1
10
11.8516430568601
20
3.41822867651697
30
0
41
1
10
11.8516430568601
20
3.37852363623858
30
0
0
SPLINE
5
B2
100
AcDbEntity
8
1
62
256
6
ByLayer
370
18
48
1
60
0
100
AcDbSpline
70
4
71
3
72
8
73
4
40
0
40
0
40
0
40
0
40
1
40
1
40
1
40
1
41
1
10
48.9434964280018
20
1.0697091230781
30
0
41
1
10
48.9645885990009
20
0.752033376168896
30
0
41
1
10
48.9799376314446
20
0.43471229867896
30
0
41
1
10
48.9895415018539
20
0.117746015568912
30
0
0
SPLINE
5
B3
100
AcDbEntity
8
1
62
256
6
ByLayer
370
18
48
1
60
0
100
AcDbSpline
70
4
71
3
72
10
73
6
40
0
40
0
40
0
40
0
40
0.5
40
0.5
40
1
40
1
40
1
40
1
41
1
10
47.553780891074
20
-4.66987212341402
30
0
41
1
10
47.5076064809947
20
-4.70423772012316
30
0
41
1
10
47.4635775776827
20
-4.73212062968867
30
0
41
1
10
47.3797691273057
20
-4.77420892695886
30
0
41
1
10
47.3397935225685
20
-4.78840654343927
30
0
41
1
10
47.3027365342709
20
-4.7951477421409
30
0
0
SPLINE
5
B4
100
AcDbEntity
8
1
62
256
6
ByLayer
370
18
48
1
60
0
100
AcDbSpline
70
4
71
3
72
14
73
10
40
0
40
0
40
0
40
0
40
0.25
40
0.25
40
0.5
40
0.5
40
0.75
40
0.75
40
1
40
1
40
1
40
1
41
1
10
4.00022886346042
20
-4.59582577422654
30
0
41
1
10
4.00146190866482
20
-4.56286213233454
30
0
41
1
10
4.00774595869342
20
-4.52905799919955
30
0
41
1
10
4.03330834387697
20
-4.4651984178148
30
0
41
1
10
4.05294991779897
20
-4.43522211667548
30
0
41
1
10
4.1036148490756
20
-4.38959425899128
30
0
41
1
10
4.1337961539482
20
-4.37486628377707
30
0
41
1
10
4.19337894384
20
-4.36169570988292
30
0
41
1
10
4.22278670080374
20
-4.3626025449982
30
0
41
1
10
4.25059002228946
20
-4.36833650164735
30
0
0
SPLINE
5
B5
100
AcDbEntity
8
1
62
256
6
ByLayer
370
18
48
1
60
0
100
AcDbSpline
70
4
71
3
72
8
73
4
40
0
40
0
40
0
40
0
40
1
40
1
40
1
40
1
41
1
10
48.9999657660875
20
0.0417729292424553
30
0
41
1
10
49.0000114138334
20
0.0139227669353374
30
0
41
1
10
49.0000114083365
20
-0.0139261205942489
30
0
41
1
10
48.9999657660875
20
-0.04177292924021
30
0
0
SPLINE
5
B6
100
AcDbEntity
8
1
62
256
6
ByLayer
370
18
48
1
60
0
100
AcDbSpline
70
4
71
3
72
14
73
10
40
0
40
0
40
0
40
0
40
0.25
40
0.25
40
0.5
40
0.5
40
0.75
40
0.75
40
1
40
1
40
1
40
1
41
1
10
4.12932574901052
20
1.08734717702265
30
0
41
1
10
4.11089142799381
20
1.09723759071395
30
0
41
1
10
4.09411038183418
20
1.10914308043266
30
0
41
1
10
4.06374782515135
20
1.13683141187448
30
0
41
1
10
4.05021628368553
20
1.15270089683472
30
0
41
1
10
4.02793997507169
20
1.18664492515026
30
0
41
1
10
4.01887861061104
20
1.20518975753194
30
0
41
1
10
4.00592091543203
20
1.24347448203486
30
0
41
1
10
4.00195298599061
20
1.26313813446507
30
0
41
1
10
4.00055497644837
20
1.28333024330485
30
0
0
SPLINE
5
B7
100
AcDbEntity
8
1
62
256
6
ByLayer
370
18
48
1
60
0
100
AcDbSpline
70
4
71
3
72
58
73
54
40
0
40
0
40
0
40
0
40
0.0625000000000005
40
0.0625000000000005
40
0.0937500000000002
40
0.0937500000000002
40
0.125
40
0.125
40
0.15625
40
0.15625
40
0.187499999999999
40
0.187499999999999
40
0.218749999999999
40
0.218749999999999
40
0.249999999999999
40
0.249999999999999
40
0.265624999999998
40
0.265624999999998
40
0.281249999999998
40
0.281249999999998
40
0.312499999999997
40
0.312499999999997
40
0.328124999999997
40
0.328124999999997
40
0.343749999999997
40
0.343749999999997
40
0.374999999999997
40
0.374999999999997
40
0.390624999999997
40
0.390624999999997
40
0.398437499999997
40
0.402343749999997
40
0.402343749999997
40
0.406249999999996
40
0.406249999999996
40
0.414062499999996
40
0.414062499999996
40
0.417968749999996
40
0.417968749999996
40
0.421874999999995
40
0.437499999999995
40
0.437499999999995
40
0.499999999999996
40
0.499999999999996
40
0.562499999999997
40
0.562499999999997
40
0.624999999999998
40
0.624999999999998
40
0.749999999999999
40
0.749999999999999
40
0.874999999999999
40
0.874999999999999
40
1
40
1
40
1
40
1
41
1
10
4.00022886346065
20
-4.59582577422574
30
0
41
1
10
3.75979420109329
20
-4.54733998584439
30
0
41
1
10
3.5247346222115
20
-4.48768849800004
30
0
41
1
10
3.18507106322153
20
-4.37510839466606
30
0
41
1
10
3.07403553162203
20
-4.33368928285455
30
0
41
1
10
2.85788053609355
20
-4.24099029512297
30
0
41
1
10
2.75256108438404
20
-4.1895464725188
30
0
41
1
10
2.55473355876924
20
-4.07598808291297
30
0
41
1
10
2.46167810074095
20
-4.01372992999438
30
0
41
1
10
2.29230224347242
20
-3.87440545047491
30
0
41
1
10
2.21563398401906
20
-3.79720077033309
30
0
41
1
10
2.08954739942669
20
-3.62154910260787
30
0
41
1
10
2.04231069080279
20
-3.52609394487422
30
0
41
1
10
1.99345403851703
20
-3.31453950558711
30
0
41
1
10
1.99356559319068
20
-3.20396516223784
30
0
41
1
10
2.0348424730729
20
-3.03172865494796
30
0
41
1
10
2.05535162365516
20
-2.97411725203818
30
0
41
1
10
2.10770870521068
20
-2.86132126108811
30
0
41
1
10
2.13966221826948
20
-2.80570116607174
30
0
41
1
10
2.25114063166171
20
-2.64114302998621
30
0
41
1
10
2.34273004615062
20
-2.53920691711389
30
0
41
1
10
2.49680374877039
20
-2.39535834756279
30
0
41
1
10
2.55125557428241
20
-2.34872762241446
30
0
41
1
10
2.66414938989789
20
-2.25887332679977
30
0
41
1
10
2.72231341905149
20
-2.21582276761936
30
0
41
1
10
2.90102956908419
20
-2.09136704057102
30
0
41
1
10
3.0257567721093
20
-2.01460776932311
30
0
41
1
10
3.21895148074873
20
-1.90649845617563
30
0
41
1
10
3.28438310722049
20
-1.87165024523063
30
0
41
1
10
3.38389787778132
20
-1.82097756139521
30
0
41
1
10
3.43399788805456
20
-1.79604194323096
30
0
41
1
10
3.4845837678682
20
-1.77167954992783
30
0
41
1
10
3.5184128742105
20
-1.75556257992872
30
0
41
1
10
3.53523175261205
20
-1.7472210849121
30
0
41
1
10
3.58649799430367
20
-1.72420760555326
30
0
41
1
10
3.62526652068826
20
-1.71780455855108
30
0
41
1
10
3.68245521859697
20
-1.71769133340413
30
0
41
1
10
3.70148383011269
20
-1.7187243446929
30
0
41
1
10
3.73956216969131
20
-1.72013076469508
30
0
41
1
10
3.83475170109446
20
-1.72379536120101
30
0
41
1
10
3.92992671031732
20
-1.72820199199177
30
0
41
1
10
4.31048285672409
20
-1.7481778515228
30
0
41
1
10
4.61415323302339
20
-1.77166849396525
30
0
41
1
10
5.21998977579284
20
-1.83295560422479
30
0
41
1
10
5.52254646976024
20
-1.87083226745617
30
0
41
1
10
6.12272919799551
20
-1.95955230229393
30
0
41
1
10
6.42067019168104
20
-2.01043222940757
30
0
41
1
10
7.3083373286286
20
-2.18046489502123
30
0
41
1
10
7.89187995985549
20
-2.31713320154213
30
0
41
1
10
9.04452777884256
20
-2.62274223661677
30
0
41
1
10
9.6136525449177
20
-2.7915535331266
30
0
41
1
10
10.7410530379325
20
-3.14193266559258
30
0
41
1
10
11.2999058213093
20
-3.32348349817642
30
0
41
1
10
11.8516430568601
20
-3.49904363623858
30
0
0
SPLINE
5
B8
100
AcDbEntity
8
1
62
256
6
ByLayer
370
18
48
1
60
0
100
AcDbSpline
70
4
71
3
72
8
73
4
40
0
40
0
40
0
40
0
40
1
40
1
40
1
40
1
41
1
10
48.9895415018539
20
-0.11774601556877
30
0
41
1
10
48.990198256673
20
-0.0960704696627772
30
0
41
1
10
48.9941573739969
20
-0.069626201692671
30
0
41
1
10
48.9999657660875
20
-0.0417729292406079
30
0
0
SPLINE
5
B9
100
AcDbEntity
8
1
62
256
6
ByLayer
370
18
48
1
60
0
100
AcDbSpline
70
4
71
3
72
10
73
6
40
0
40
0
40
0
40
0
40
0.897157965981243
40
0.897157965981243
40
1
40
1
40
1
40
1
41
1
10
47.3699587030434
20
-4.55820738233061
30
0
41
1
10
45.5659227626437
20
-4.583920400012
30
0
41
1
10
43.7989680666891
20
-4.30986859547571
30
0
41
1
10
41.7908453404808
20
-3.71793766527418
30
0
41
1
10
41.5835961850859
20
-3.65361377233458
30
0
41
1
10
41.3763127207664
20
-3.58623531447506
30
0
0
SPLINE
5
BA
100
AcDbEntity
8
1
62
256
6
ByLayer
370
13
48
1
60
0
100
AcDbSpline
70
4
71
3
72
22
73
18
40
0
40
0
40
0
40
0
40
0.0621281095696012
40
0.0621281095696012
40
0.176866472593277
40
0.176866472593277
40
0.406343198640629
40
0.406343198640629
40
0.521081561664306
40
0.521081561664306
40
0.578450743176146
40
0.578450743176146
40
0.635819924687986
40
0.635819924687986
40
0.865296650735346
40
0.865296650735346
40
1
40
1
40
1
40
1
41
1
10
41.3763127017252
20
-3.58623530828561
30
0
41
1
10
41.1315290458373
20
-3.5066672378527
30
0
41
1
10
40.8866975443109
20
-3.4228394099334
30
0
41
1
10
40.1928346531573
20
-3.17391835267745
30
0
41
1
10
39.744933387546
20
-2.99966883259123
30
0
41
1
10
38.4043782839334
20
-2.44447149284502
30
0
41
1
10
37.5146789418164
20
-2.03135697075902
30
0
41
1
10
36.1727794964418
20
-1.36992683041044
30
0
41
1
10
35.7242196355843
20
-1.14251558500351
30
0
41
1
10
35.0478942539079
20
-0.793803289960067
30
0
41
1
10
34.821403364018
20
-0.676122526027825
30
0
41
1
10
34.3692364202261
20
-0.44011164850653
30
0
41
1
10
34.1437756050959
20
-0.321897974212845
30
0
41
1
10
33.0188389982641
20
0.268753566276246
30
0
41
1
10
32.1267749275548
20
0.740517269397316
30
0
41
1
10
30.7085145337535
20
1.45940315981335
30
0
41
1
10
30.183425076016
20
1.71891123438846
30
0
41
1
10
29.6559825967233
20
1.96855676889564
30
0
0
SPLINE
5
BB
100
AcDbEntity
8
1
62
256
6
ByLayer
370
18
48
1
60
0
100
AcDbSpline
70
4
71
3
72
52
73
48
40
0
40
0
40
0
40
0
40
0.0489010915378791
40
0.0489010915378791
40
0.0978021830757582
40
0.0978021830757582
40
0.146703274613637
40
0.146703274613637
40
0.195604366151516
40
0.195604366151516
40
0.244505457689396
40
0.244505457689396
40
0.293406549227275
40
0.293406549227275
40
0.342307640765154
40
0.342307640765154
40
0.366758186534094
40
0.366758186534094
40
0.391208732303034
40
0.391208732303034
40
0.440109823840916
40
0.440109823840916
40
0.489010915378797
40
0.489010915378797
40
0.537912006916679
40
0.537912006916679
40
0.562362552685619
40
0.562362552685619
40
0.58681309845456
40
0.58681309845456
40
0.635714189992442
40
0.635714189992442
40
0.684615281530323
40
0.684615281530323
40
0.782417464606086
40
0.782417464606086
40
0.831318556143967
40
0.831318556143967
40
0.880219647681848
40
0.880219647681848
40
0.904670193450788
40
0.904670193450788
40
0.929120739219728
40
0.929120739219728
40
0.978021830757609
40
0.978021830757609
40
1
40
1
40
1
40
1
41
1
10
47.3027365342709
20
-4.79514774214087
30
0
41
1
10
46.8530701239292
20
-4.80590924234502
30
0
41
1
10
46.4037598928843
20
-4.79718422702845
30
0
41
1
10
45.5035269782412
20
-4.74104026782359
30
0
41
1
10
45.0531449721315
20
-4.6935874891968
30
0
41
1
10
44.1537843347067
20
-4.56129770055915
30
0
41
1
10
43.7035313256175
20
-4.47631591412488
30
0
41
1
10
42.803312738997
20
-4.27084860953627
30
0
41
1
10
42.3543880106103
20
-4.15069771890606
30
0
41
1
10
41.4565352950733
20
-3.87785499074846
30
0
41
1
10
41.0075111421833
20
-3.72524957031783
30
0
41
1
10
40.1066651860518
20
-3.39032086502317
30
0
41
1
10
39.6571077026811
20
-3.20875079926327
30
0
41
1
10
38.759029970014
20
-2.82163657710484
30
0
41
1
10
38.3101400081391
20
-2.6160959946719
30
0
41
1
10
37.6352138241942
20
-2.29244375831493
30
0
41
1
10
37.4097822952374
20
-2.18189132456075
30
0
41
1
10
36.9597557122063
20
-1.95705741899059
30
0
41
1
10
36.7350109249749
20
-1.84270279801609
30
0
41
1
10
36.0611240516102
20
-1.49461840943604
30
0
41
1
10
35.6123732243661
20
-1.25579238258209
30
0
41
1
10
34.7133082600458
20
-0.769043424328288
30
0
41
1
10
34.2622649296579
20
-0.520942871763282
30
0
41
1
10
33.3631222596645
20
-0.0243551433557343
30
0
41
1
10
32.9143489590361
20
0.224722767880309
30
0
41
1
10
32.2404092915027
20
0.595925643159404
30
0
41
1
10
32.0156078401117
20
0.719212496860365
30
0
41
1
10
31.5653921978068
20
0.964341998156272
30
0
41
1
10
31.3399309331156
20
1.08620631255997
30
0
41
1
10
30.6649849451188
20
1.44731087702635
30
0
41
1
10
30.2160254216569
20
1.682605412524
30
0
41
1
10
29.3176655426932
20
2.13815303784065
30
0
41
1
10
28.8676834276743
20
2.35851335571314
30
0
41
1
10
27.5164083552036
20
2.98878629778105
30
0
41
1
10
26.6204627450869
20
3.36451684433916
30
0
41
1
10
25.2691213180652
20
3.84128408456374
30
0
41
1
10
24.8190593248378
20
3.98492486273358
30
0
41
1
10
23.9203664449402
20
4.23843639255279
30
0
41
1
10
23.4714179063423
20
4.34862424049288
30
0
41
1
10
22.7964288004419
20
4.48712678924127
30
0
41
1
10
22.570923618984
20
4.52885773322612
30
0
41
1
10
22.1205697653937
20
4.60289269153796
30
0
41
1
10
21.8956629157541
20
4.63521914745141
30
0
41
1
10
21.2213021498785
20
4.71801256209289
30
0
41
1
10
20.772447087544
20
4.75436209059723
30
0
41
1
10
20.1206689665301
20
4.77902792883853
30
0
41
1
10
19.9182452377653
20
4.78275914678753
30
0
41
1
10
19.715775114262
20
4.78257944420818
30
0
0
SPLINE
5
BC
100
AcDbEntity
8
1
62
256
6
ByLayer
370
18
48
1
60
0
100
AcDbSpline
70
4
71
3
72
20
73
16
40
0
40
0
40
0
40
0
40
0.172146218260921
40
0.172146218260921
40
0.344292436521842
40
0.344292436521842
40
0.516438654782762
40
0.516438654782762
40
0.688584873043683
40
0.688584873043683
40
0.860731091304604
40
0.860731091304604
40
0.946804200435063
40
0.946804200435063
40
1
40
1
40
1
40
1
41
1
10
11.8516430568601
20
-3.49904363623858
30
0
41
1
10
12.2265585985834
20
-3.64143323302767
30
0
41
1
10
12.6008333952017
20
-3.77139328367008
30
0
41
1
10
13.3463887984525
20
-4.00993577240362
30
0
41
1
10
13.7170737443664
20
-4.11892560860861
30
0
41
1
10
14.4587657715595
20
-4.31209395528052
30
0
41
1
10
14.8294490758909
20
-4.39673972804209
30
0
41
1
10
15.5699888134542
20
-4.54241551755464
30
0
41
1
10
15.9406515264671
20
-4.6028442045087
30
0
41
1
10
16.6842625655162
20
-4.69813328841789
30
0
41
1
10
17.0562465078104
20
-4.73332711595472
30
0
41
1
10
17.6173450373177
20
-4.76600027596859
30
0
41
1
10
17.8051722347368
20
-4.7735628223239
30
0
41
1
10
18.1090287652531
20
-4.78037799797033
30
0
41
1
10
18.2248598703127
20
-4.78169964205986
30
0
41
1
10
18.3404906814517
20
-4.78174062292001
30
0
0
SPLINE
5
BD
100
AcDbEntity
8
1
62
256
6
ByLayer
370
18
48
1
60
0
100
AcDbSpline
70
4
71
3
72
24
73
20
40
0
40
0
40
0
40
0
40
0.099503785451482
40
0.099503785451482
40
0.228146101815554
40
0.228146101815554
40
0.356788418179625
40
0.356788418179625
40
0.421109576361663
40
0.421109576361663
40
0.4854307345437
40
0.4854307345437
40
0.614073050907775
40
0.614073050907775
40
0.74271536727185
40
0.74271536727185
40
0.871357683635925
40
0.871357683635925
40
1
40
1
40
1
40
1
41
1
10
38.8902713839066
20
3.45085284831049
30
0
41
1
10
39.1765168064542
20
3.56113296687104
30
0
41
1
10
39.4623490669274
20
3.66604985972339
30
0
41
1
10
40.1189704106709
20
3.89155680774363
30
0
41
1
10
40.4899035067415
20
4.00813594881731
30
0
41
1
10
41.2325564239199
20
4.22042310242435
30
0
41
1
10
41.6050745658359
20
4.31529402076475
30
0
41
1
10
42.1668553781083
20
4.43946903107448
30
0
41
1
10
42.3547136675331
20
4.47805022780057
30
0
41
1
10
42.7290661741725
20
4.54868349631366
30
0
41
1
10
42.9157201201178
20
4.58077180095009
30
0
41
1
10
43.4750239628828
20
4.66699484302075
30
0
41
1
10
43.8470076150619
20
4.71123149680113
30
0
41
1
10
44.5881246573921
20
4.7740030666204
30
0
41
1
10
44.9579938731262
20
4.79220061005245
30
0
41
1
10
45.6985188242205
20
4.80233573570646
30
0
41
1
10
46.068150433424
20
4.7942814929838
30
0
41
1
10
46.8092236442413
20
4.75172631472452
30
0
41
1
10
47.1811782005371
20
4.71751143490525
30
0
41
1
10
47.5537808910754
20
4.66987212341303
30
0
0
SPLINE
5
BE
100
AcDbEntity
8
1
62
256
6
ByLayer
370
18
48
1
60
0
100
AcDbSpline
70
4
71
3
72
26
73
22
40
0
40
0
40
0
40
0
40
0.0753967419834394
40
0.0753967419834394
40
0.150793483966879
40
0.150793483966879
40
0.301586967933757
40
0.301586967933757
40
0.452380451900636
40
0.452380451900636
40
0.527777193884076
40
0.527777193884076
40
0.603173935867515
40
0.603173935867515
40
0.753967419834394
40
0.753967419834394
40
0.829364161817833
40
0.829364161817833
40
0.904760903801272
40
0.904760903801272
40
1
40
1
40
1
40
1
41
1
10
4.00021133189392
20
1.29325628702492
30
0
41
1
10
4.00021186329212
20
1.44466701084059
30
0
41
1
10
4.00021229957306
20
1.59442903815472
30
0
41
1
10
4.00021300807595
20
1.88599484247319
30
0
41
1
10
4.00021328181316
20
2.02805276689566
30
0
41
1
10
4.00021392677345
20
2.44330984533389
30
0
41
1
10
4.0002141220593
20
2.70569909352389
30
0
41
1
10
4.00021436559149
20
3.20040225726058
30
0
41
1
10
4.0002144132483
20
3.4249277606649
30
0
41
1
10
4.00021459865957
20
3.72781709619062
30
0
41
1
10
4.00021467878128
20
3.82315230897845
30
0
41
1
10
4.00021490718072
20
4.00232159292185
30
0
41
1
10
4.00021505657588
20
4.08638145116012
30
0
41
1
10
4.00021563576331
20
4.31578857604242
30
0
41
1
10
4.00021619988729
20
4.44044105939386
30
0
41
1
10
4.00021739065613
20
4.58545807594342
30
0
41
1
10
4.00021784576106
20
4.62684020283581
30
0
41
1
10
4.00021887006727
20
4.69460317379807
30
0
41
1
10
4.00021943318492
20
4.72064257015583
30
0
41
1
10
4.00022081189078
20
4.7623994076408
30
0
41
1
10
4.00022165613262
20
4.77368236423473
30
0
41
1
10
4.0002225571267
20
4.77277877179884
30
0
0
SPLINE
5
BF
100
AcDbEntity
8
1
62
256
6
ByLayer
370
18
48
1
60
0
100
AcDbSpline
70
4
71
3
72
14
73
10
40
0
40
0
40
0
40
0
40
0.33518382211561
40
0.33518382211561
40
0.502775733173415
40
0.502775733173415
40
0.67036764423122
40
0.67036764423122
40
1
40
1
40
1
40
1
41
1
10
11.8516430568601
20
3.38286836296564
30
0
41
1
10
11.1895320661282
20
3.60514187065837
30
0
41
1
10
10.5390124140871
20
3.81342052072395
30
0
41
1
10
9.56692808311277
20
4.07269448571844
30
0
41
1
10
9.24511401353229
20
4.14956408688619
30
0
41
1
10
8.60596594854212
20
4.28391952431539
30
0
41
1
10
8.28829804045023
20
4.34176585211736
30
0
41
1
10
7.35001140902259
20
4.48070066378602
30
0
41
1
10
6.73296660270665
20
4.5311995274804
30
0
41
1
10
6.12058293712437
20
4.53415513380952
30
0
0
SPLINE
5
C0
100
AcDbEntity
8
1
62
256
6
ByLayer
370
18
48
1
60
0
100
AcDbSpline
70
4
71
3
72
14
73
10
40
0
40
0
40
0
40
0
40
0.25
40
0.25
40
0.5
40
0.5
40
0.75
40
0.75
40
1
40
1
40
1
40
1
41
1
10
47.5537808910649
20
4.66987212344267
30
0
41
1
10
47.6602510511087
20
4.36765853344136
30
0
41
1
10
47.7696540266516
20
4.06580960055234
30
0
41
1
10
47.9933499549601
20
3.46289764140974
30
0
41
1
10
48.107679750926
20
3.16183972449073
30
0
41
1
10
48.3405753366748
20
2.56054038169754
30
0
41
1
10
48.4591105267311
20
2.26046485996099
30
0
41
1
10
48.6990193910639
20
1.66337186314769
30
0
41
1
10
48.8205308186936
20
1.36602692721078
30
0
41
1
10
48.9434964280017
20
1.06970912307824
30
0
0
SPLINE
5
C1
100
AcDbEntity
8
1
62
256
6
ByLayer
370
18
48
1
60
0
100
AcDbSpline
70
4
71
3
72
8
73
4
40
0
40
0
40
0
40
0
40
1
40
1
40
1
40
1
41
1
10
48.9642414201006
20
-0.0480512046734134
30
0
41
1
10
48.2655473500541
20
-1.19142629247295
30
0
41
1
10
47.6111480902935
20
-2.3750139620563
30
0
41
1
10
47.0026041918537
20
-3.60023094341315
30
0
0
SPLINE
5
C2
100
AcDbEntity
8
1
62
256
6
ByLayer
370
18
48
1
60
0
100
AcDbSpline
70
4
71
3
72
78
73
74
40
0
40
0
40
0
40
0
40
0.0331268080341262
40
0.0331268080341262
40
0.0662536160682525
40
0.0662536160682525
40
0.0993804241023787
40
0.0993804241023787
40
0.132507232136505
40
0.132507232136505
40
0.165634040170631
40
0.165634040170631
40
0.182197444187695
40
0.182197444187695
40
0.198760848204758
40
0.198760848204758
40
0.231887656238884
40
0.231887656238884
40
0.265014464273011
40
0.265014464273011
40
0.298141272307138
40
0.298141272307138
40
0.331268080341265
40
0.331268080341265
40
0.347831484358328
40
0.347831484358328
40
0.364394888375391
40
0.364394888375391
40
0.397521696409517
40
0.397521696409517
40
0.430648504443643
40
0.430648504443643
40
0.463775312477769
40
0.463775312477769
40
0.496902120511894
40
0.496902120511894
40
0.53002892854602
40
0.53002892854602
40
0.546592332563084
40
0.546592332563084
40
0.563155736580147
40
0.563155736580147
40
0.596282544614274
40
0.596282544614274
40
0.6294093526484
40
0.6294093526484
40
0.662536160682527
40
0.662536160682527
40
0.695662968716654
40
0.695662968716654
40
0.712226372733717
40
0.712226372733717
40
0.72878977675078
40
0.72878977675078
40
0.761916584784907
40
0.761916584784907
40
0.795043392819034
40
0.795043392819034
40
0.828170200853161
40
0.828170200853161
40
0.861297008887287
40
0.861297008887287
40
0.894423816921414
40
0.894423816921414
40
0.910987220938477
40
0.910987220938477
40
0.927550624955541
40
0.927550624955541
40
0.960677432989667
40
0.960677432989667
40
0.993804241023794
40
0.993804241023794
40
1
40
1
40
1
40
1
41
1
10
11.8516430568601
20
3.49904363623858
30
0
41
1
10
12.2265585985834
20
3.64143323302767
30
0
41
1
10
12.6008333952017
20
3.77139328367005
30
0
41
1
10
13.3463887984525
20
4.00993577240362
30
0
41
1
10
13.7170737443665
20
4.11892560860861
30
0
41
1
10
14.4587657715595
20
4.31209395528052
30
0
41
1
10
14.8294490758909
20
4.39673972804209
30
0
41
1
10
15.5699888134542
20
4.54241551755464
30
0
41
1
10
15.9406515264671
20
4.60284420450867
30
0
41
1
10
16.6842625655162
20
4.69813328841789
30
0
41
1
10
17.0562465078104
20
4.73332711595472
30
0
41
1
10
17.6173450373177
20
4.76600027596862
30
0
41
1
10
17.8051722347368
20
4.7735628223239
30
0
41
1
10
18.1807603908606
20
4.78198686129505
30
0
41
1
10
18.3679487865797
20
4.78284379984615
30
0
41
1
10
18.9280915674321
20
4.77536016013971
30
0
41
1
10
19.3000367000631
20
4.75696812997245
30
0
41
1
10
20.0430514034807
20
4.69453316526551
30
0
41
1
10
20.4131011729902
20
4.6501509106987
30
0
41
1
10
21.1535024464592
20
4.53627945769892
30
0
41
1
10
21.5242903879412
20
4.4671951161441
30
0
41
1
10
22.2655138307038
20
4.3036228153133
30
0
41
1
10
22.636630935048
20
4.20948369509284
30
0
41
1
10
23.1960165481301
20
4.05134738104172
30
0
41
1
10
23.3827770510469
20
3.99568271417465
30
0
41
1
10
23.7567813821545
20
3.87817556741027
30
0
41
1
10
23.944428642622
20
3.81633877598975
30
0
41
1
10
24.5068641980935
20
3.62326296867443
30
0
41
1
10
24.8806990766245
20
3.48559040841656
30
0
41
1
10
25.6246009217573
20
3.19074825505544
30
0
41
1
10
25.9951823115931
20
3.03417217515391
30
0
41
1
10
26.7366449710183
20
2.70734506488122
30
0
41
1
10
27.1065900748955
20
2.53573023750116
30
0
41
1
10
27.8467772360894
20
2.17883037591614
30
0
41
1
10
28.2178872214285
20
1.99501000754796
30
0
41
1
10
28.9608334353247
20
1.61435505849278
30
0
41
1
10
29.3328678731505
20
1.41775820342696
30
0
41
1
10
29.8944590075206
20
1.11816712945938
30
0
41
1
10
30.082483296432
20
1.01720499330293
30
0
41
1
10
30.4574113272117
20
0.813639350062147
30
0
41
1
10
30.6442741031983
20
0.711204422912999
30
0
41
1
10
31.2038242987592
20
0.403391470669078
30
0
41
1
10
31.5760197388773
20
0.198524788383452
30
0
41
1
10
32.3180555991478
20
-0.211894781148203
30
0
41
1
10
32.6877156254233
20
-0.417756886049659
30
0
41
1
10
33.4283359471289
20
-0.82341121053426
30
0
41
1
10
33.7985882537197
20
-1.02451734820022
30
0
41
1
10
34.5395426282574
20
-1.42220468269051
30
0
41
1
10
34.9111571675642
20
-1.61714981678458
30
0
41
1
10
35.470385729083
20
-1.90352178838688
30
0
41
1
10
35.6569487854944
20
-1.99822850290715
30
0
41
1
10
36.0309539969243
20
-2.18511647448784
30
0
41
1
10
36.2187051415639
20
-2.27748409394132
30
0
41
1
10
36.7809876979733
20
-2.5479693779314
30
0
41
1
10
37.1541898959375
20
-2.72051782319903
30
0
41
1
10
37.897353725112
20
-3.05025459965714
30
0
41
1
10
38.2681816452521
20
-3.20611829247238
30
0
41
1
10
39.0091583803286
20
-3.49912266914922
30
0
41
1
10
39.378486221276
20
-3.63724839818801
30
0
41
1
10
40.118970410671
20
-3.89155680774363
30
0
41
1
10
40.4899035067416
20
-4.00813594881731
30
0
41
1
10
41.2325564239199
20
-4.22042310242438
30
0
41
1
10
41.605074565836
20
-4.31529402076475
30
0
41
1
10
42.1668553781083
20
-4.43946903107448
30
0
41
1
10
42.3547136675331
20
-4.47805022780057
30
0
41
1
10
42.7290661741725
20
-4.54868349631366
30
0
41
1
10
42.9157201201178
20
-4.58077180095009
30
0
41
1
10
43.4750239628828
20
-4.66699484302075
30
0
41
1
10
43.847007615062
20
-4.71123149680113
30
0
41
1
10
44.5881246573921
20
-4.77400306662042
30
0
41
1
10
44.9579938731262
20
-4.79220061005245
30
0
41
1
10
45.3975071214632
20
-4.79821596712031
30
0
41
1
10
45.4667358260381
20
-4.79870474998935
30
0
41
1
10
45.5359525108027
20
-4.79873385715391
30
0
0
SPLINE
5
C3
100
AcDbEntity
8
1
62
256
6
ByLayer
370
18
48
1
60
0
100
AcDbSpline
70
4
71
3
72
16
73
12
40
0
40
0
40
0
40
0
40
0.270894217029086
40
0.270894217029086
40
0.40634132554363
40
0.40634132554363
40
0.541788434058173
40
0.541788434058173
40
0.812682651087262
40
0.812682651087262
40
1
40
1
40
1
40
1
41
1
10
47.0026041918537
20
-3.60023094341318
30
0
41
1
10
47.0023361052676
20
-3.76225927418594
30
0
41
1
10
47.0095288638113
20
-3.90459028075355
30
0
41
1
10
47.0318339678032
20
-4.08909128799937
30
0
41
1
10
47.0412026300914
20
-4.14573217478977
30
0
41
1
10
47.0640423267854
20
-4.24905690486835
30
0
41
1
10
47.0774591882675
20
-4.29536703415391
30
0
41
1
10
47.1232465397405
20
-4.41692056792684
30
0
41
1
10
47.1612825007505
20
-4.47574029040806
30
0
41
1
10
47.2392460571535
20
-4.53859145492467
30
0
41
1
10
47.2751265004168
20
-4.55378382783346
30
0
41
1
10
47.314736601422
20
-4.55838396506826
30
0
0
SPLINE
5
C4
100
AcDbEntity
8
1
62
256
6
ByLayer
370
18
48
1
60
0
100
AcDbSpline
70
4
71
3
72
16
73
12
40
0
40
0
40
0
40
0
40
0.386945392681008
40
0.386945392681008
40
0.505823167300987
40
0.505823167300987
40
0.624700941920966
40
0.624700941920966
40
0.862456491160927
40
0.862456491160927
40
1
40
1
40
1
40
1
41
1
10
19.9219917138568
20
-4.54280503125483
30
0
41
1
10
19.1942977126545
20
-4.54196170011537
30
0
41
1
10
18.4651725500437
20
-4.49295167752354
30
0
41
1
10
17.5038592122885
20
-4.36550056941772
30
0
41
1
10
17.2770109026467
20
-4.33088882134115
30
0
41
1
10
16.825221568934
20
-4.25319980065987
30
0
41
1
10
16.5999267343411
20
-4.21006257200185
30
0
41
1
10
15.9253535247292
20
-4.06837150181528
30
0
41
1
10
15.4773831834091
20
-3.95757102524834
30
0
41
1
10
14.7713064950292
20
-3.75867478969999
30
0
41
1
10
14.5127575069276
20
-3.68068457779518
30
0
41
1
10
14.2542016191748
20
-3.5978802456419
30
0
0
SPLINE
5
C5
100
AcDbEntity
8
1
62
256
6
ByLayer
370
13
48
1
60
0
100
AcDbSpline
70
4
71
3
72
20
73
16
40
0
40
0
40
0
40
0
40
0.191537217409081
40
0.191537217409081
40
0.258909115958324
40
0.258909115958324
40
0.326281014507568
40
0.326281014507568
40
0.461024811606055
40
0.461024811606055
40
0.730512405803028
40
0.730512405803028
40
0.865256202901514
40
0.865256202901514
40
1
40
1
40
1
40
1
41
1
10
14.2542016191982
20
-3.59788024564938
30
0
41
1
10
13.618886213114
20
-3.39441604158685
30
0
41
1
10
12.9835291491617
20
-3.16188573212133
30
0
41
1
10
12.1200559427273
20
-2.81394034987594
30
0
41
1
10
11.8949290144934
20
-2.72031189067874
30
0
41
1
10
11.4436317549934
20
-2.52714704792891
30
0
41
1
10
11.2170639806075
20
-2.42741215314064
30
0
41
1
10
10.5383432966794
20
-2.1215748531574
30
0
41
1
10
10.0883344586026
20
-1.90947043913735
30
0
41
1
10
8.74223333160859
20
-1.25510408767556
30
0
41
1
10
7.8505497991211
20
-0.793936008378239
30
0
41
1
10
6.50720551071174
20
-0.0923402213153395
30
0
41
1
10
6.05850496187054
20
0.143265930788317
30
0
41
1
10
5.15713213771443
20
0.613813515381679
30
0
41
1
10
4.7034563773052
20
0.848916654202128
30
0
41
1
10
4.25025326509353
20
1.07916374637452
30
0
0
SPLINE
5
C6
100
AcDbEntity
8
1
62
256
6
ByLayer
370
18
48
1
60
0
100
AcDbSpline
70
4
71
3
72
10
73
6
40
0
40
0
40
0
40
0
40
0.5
40
0.5
40
1
40
1
40
1
40
1
41
1
10
48.9999657660919
20
0.0417729292585705
30
0
41
1
10
48.9962299819389
20
0.0264311195802804
30
0
41
1
10
48.99112603657
20
0.0099832500706611
30
0
41
1
10
48.9788190336594
20
-0.0212419777801642
30
0
41
1
10
48.971577984353
20
-0.036045313746655
30
0
41
1
10
48.9642414201006
20
-0.0480512046734134
30
0
0
SPLINE
5
C7
100
AcDbEntity
8
1
62
256
6
ByLayer
370
18
48
1
60
0
100
AcDbSpline
70
4
71
3
72
8
73
4
40
0
40
0
40
0
40
0
40
1
40
1
40
1
40
1
41
1
10
48.9434964280018
20
-1.06970912307813
30
0
41
1
10
48.9645844762842
20
-0.752095469685543
30
0
41
1
10
48.9799357532988
20
-0.434774285031125
30
0
41
1
10
48.9895415018539
20
-0.117746015568883
30
0
0
SPLINE
5
C8
100
AcDbEntity
8
1
62
256
6
ByLayer
370
13
48
1
60
0
100
AcDbSpline
70
4
71
3
72
8
73
4
40
0
40
0
40
0
40
0
40
1
40
1
40
1
40
1
41
1
10
4.25025326509351
20
1.07916374637452
30
0
41
1
10
4.20892858717352
20
1.0917565750176
30
0
41
1
10
4.16857661737643
20
1.1063263211467
30
0
41
1
10
4.13175376766009
20
1.12225259119489
30
0
0
SPLINE
5
C9
100
AcDbEntity
8
1
62
256
6
ByLayer
370
18
48
1
60
0
100
AcDbSpline
70
4
71
3
72
10
73
6
40
0
40
0
40
0
40
0
40
0.5
40
0.5
40
1
40
1
40
1
40
1
41
1
10
47.414299783462
20
1.11491175495504
30
0
41
1
10
47.6692596767271
20
1.1063732028037
30
0
41
1
10
47.9241606553038
20
1.09846583665512
30
0
41
1
10
48.4338691039986
20
1.08365291277076
30
0
41
1
10
48.6887224830379
20
1.07625550708644
30
0
41
1
10
48.9434964280014
20
1.06970912307813
30
0
0
SPLINE
5
CA
100
AcDbEntity
8
1
62
256
6
ByLayer
370
18
48
1
60
0
100
AcDbSpline
70
4
71
3
72
18
73
14
40
0
40
0
40
0
40
0
40
0.0973324980061467
40
0.0973324980061467
40
0.431808335277916
40
0.431808335277916
40
0.599046253913801
40
0.599046253913801
40
0.682665213231745
40
0.682665213231745
40
0.766284172549689
40
0.766284172549689
40
1
40
1
40
1
40
1
41
1
10
6.12686917604239
20
-0.0039765129163527
30
0
41
1
10
6.38854096311766
20
-0.144000632431357
30
0
41
1
10
6.64967139542637
20
-0.283709939337911
30
0
41
1
10
7.80674504032612
20
-0.900248712621902
30
0
41
1
10
8.69899469140722
20
-1.36960598737818
30
0
41
1
10
10.0462957269979
20
-2.03344187408288
30
0
41
1
10
10.4967619891602
20
-2.24823574329642
30
0
41
1
10
11.1763015091258
20
-2.55738993164687
30
0
41
1
10
11.4031178028065
20
-2.65809073973398
30
0
41
1
10
11.854853527028
20
-2.85287244070543
30
0
41
1
10
12.0801805977227
20
-2.94715325056444
30
0
41
1
10
12.9336047728255
20
-3.29266767043478
30
0
41
1
10
13.558728092175
20
-3.52197315801339
30
0
41
1
10
14.1837716202155
20
-3.72215090806785
30
0
0
SPLINE
5
CB
100
AcDbEntity
8
1
62
256
6
ByLayer
370
13
48
1
60
0
100
AcDbSpline
70
4
71
3
72
18
73
14
40
0
40
0
40
0
40
0
40
0.11356164094083
40
0.11356164094083
40
0.302047256436584
40
0.302047256436584
40
0.396290064184462
40
0.396290064184462
40
0.490532871932339
40
0.490532871932339
40
0.86750410292385
40
0.86750410292385
40
1
40
1
40
1
40
1
41
1
10
14.1837716202469
20
-3.72215090807785
30
0
41
1
10
14.453241568897
20
-3.80845191850014
30
0
41
1
10
14.7226966870489
20
-3.8893390703513
30
0
41
1
10
15.440056431355
20
-4.08923560357621
30
0
41
1
10
15.8884216504014
20
-4.1982462294402
30
0
41
1
10
16.563675623908
20
-4.3364402574791
30
0
41
1
10
16.7892127904245
20
-4.37827576678112
30
0
41
1
10
17.2415228194875
20
-4.45307634134099
30
0
41
1
10
17.4686492351192
20
-4.486088177548
30
0
41
1
10
18.5994304537698
20
-4.62720666291784
30
0
41
1
10
19.4943146104274
20
-4.66494386827594
30
0
41
1
10
20.703088954347
20
-4.61558450786742
30
0
41
1
10
21.0174500843296
20
-4.5936141184938
30
0
41
1
10
21.3321972514031
20
-4.56256627287848
30
0
0
SPLINE
5
CC
100
AcDbEntity
8
1
62
256
6
ByLayer
370
18
48
1
60
0
100
AcDbSpline
70
4
71
3
72
12
73
8
40
0
40
0
40
0
40
0
40
0.269227129094274
40
0.269227129094274
40
0.634613564547136
40
0.634613564547136
40
1
40
1
40
1
40
1
41
1
10
4.00022255712443
20
-4.77277877403193
30
0
41
1
10
4.00022308268842
20
-4.77225170603131
30
0
41
1
10
4.00022362756283
20
-4.76757807603516
30
0
41
1
10
4.00022494903143
20
-4.74671102910861
30
0
41
1
10
4.00022573879588
20
-4.72681901542035
30
0
41
1
10
4.00022730996702
20
-4.67233984359137
30
0
41
1
10
4.00022809561688
20
-4.63771514579116
30
0
41
1
10
4.00022886346045
20
-4.59582577422583
30
0
0
SPLINE
5
CD
100
AcDbEntity
8
1
62
256
6
ByLayer
370
18
48
1
60
0
100
AcDbSpline
70
4
71
3
72
14
73
10
40
0
40
0
40
0
40
0
40
0.25
40
0.25
40
0.5
40
0.5
40
0.75
40
0.75
40
1
40
1
40
1
40
1
41
1
10
47.2783042765178
20
1.01918739033758
30
0
41
1
10
47.2776049513296
20
1.03448736471233
30
0
41
1
10
47.2810909183828
20
1.04993210756356
30
0
41
1
10
47.2968467440893
20
1.07660961273288
30
0
41
1
10
47.3090700686344
20
1.08769847633744
30
0
41
1
10
47.336416077621
20
1.10343728378928
30
0
41
1
10
47.3517776917625
20
1.10852122039205
30
0
41
1
10
47.3826659645983
20
1.11447266262763
30
0
41
1
10
47.3984947718503
20
1.11544106140465
30
0
41
1
10
47.414299783462
20
1.11491175495504
30
0
0
SPLINE
5
CE
100
AcDbEntity
8
1
62
256
6
ByLayer
370
18
48
1
60
0
100
AcDbSpline
70
4
71
3
72
8
73
4
40
0
40
0
40
0
40
0
40
1
40
1
40
1
40
1
41
1
10
47.3606447265353
20
-4.65310251572529
30
0
41
1
10
47.3413734462596
20
-4.70052168528684
30
0
41
1
10
47.3220691377901
20
-4.74787182089381
30
0
41
1
10
47.3027365342709
20
-4.79514774214087
30
0
0
SPLINE
5
CF
100
AcDbEntity
8
1
62
256
6
ByLayer
370
18
48
1
60
0
100
AcDbSpline
70
4
71
3
72
22
73
18
40
0
40
0
40
0
40
0
40
0.127932075528479
40
0.127932075528479
40
0.191898113292719
40
0.191898113292719
40
0.255864151056958
40
0.255864151056958
40
0.511728302113912
40
0.511728302113912
40
0.639660377642388
40
0.639660377642388
40
0.767592453170864
40
0.767592453170864
40
0.89552452869934
40
0.89552452869934
40
1
40
1
40
1
40
1
41
1
10
4.25059002262887
20
-4.36833650171735
30
0
41
1
10
4.54593817625135
20
-4.4292469763771
30
0
41
1
10
4.84883366038446
20
-4.47041574995245
30
0
41
1
10
5.31002870115614
20
-4.51015802346038
30
0
41
1
10
5.46494631707793
20
-4.519663470496
30
0
41
1
10
5.77676788288613
20
-4.53190086679456
30
0
41
1
10
5.93391751006141
20
-4.53462723083933
30
0
41
1
10
6.71994233651208
20
-4.53279422535434
30
0
41
1
10
7.3503150006371
20
-4.48113735772577
30
0
41
1
10
8.29922938637472
20
-4.3399001245443
30
0
41
1
10
8.61619679954782
20
-4.28193202979517
30
0
41
1
10
9.25257087303424
20
-4.14782884639902
30
0
41
1
10
9.57197287252802
20
-4.0713927932438
30
0
41
1
10
10.2149815748009
20
-3.89980170648391
30
0
41
1
10
10.5385923779391
20
-3.80495272091079
30
0
41
1
10
11.1321113178944
20
-3.6203869311247
30
0
41
1
10
11.400185597661
20
-3.53330366081022
30
0
41
1
10
11.6698040013874
20
-3.44363699785049
30
0
0
SPLINE
5
D0
100
AcDbEntity
8
1
62
256
6
ByLayer
370
18
48
1
60
0
100
AcDbSpline
70
4
71
3
72
8
73
4
40
0
40
0
40
0
40
0
40
1
40
1
40
1
40
1
41
1
10
4.00055497644772
20
1.2833302433165
30
0
41
1
10
4.00032621135381
20
1.28663440508265
30
0
41
1
10
4.00021132027862
20
1.28994675277093
30
0
41
1
10
4.00021133189392
20
1.29325628702435
30
0
0
SPLINE
5
D1
100
AcDbEntity
8
1
62
256
6
ByLayer
370
18
48
1
60
0
100
AcDbSpline
70
4
71
3
72
8
73
4
40
0
40
0
40
0
40
0
40
1
40
1
40
1
40
1
41
1
10
11.6712164642395
20
3.44151529180783
30
0
41
1
10
11.7314410251289
20
3.46075177031091
30
0
41
1
10
11.7915841978212
20
3.47993319578731
30
0
41
1
10
11.8516430568601
20
3.49904363623858
30
0
0
SPLINE
5
D2
100
AcDbEntity
8
1
62
256
6
ByLayer
370
13
48
1
60
0
100
AcDbSpline
70
4
71
3
72
8
73
4
40
0
40
0
40
0
40
0
40
1
40
1
40
1
40
1
41
1
10
4.00021133189392
20
1.29325628702489
30
0
41
1
10
4.00047238861171
20
1.2880364081183
30
0
41
1
10
4.00097855733699
20
1.28282760522347
30
0
41
1
10
4.00172677037656
20
1.27764336090684
30
0
0
SPLINE
5
D3
100
AcDbEntity
8
1
62
256
6
ByLayer
370
13
48
1
60
0
100
AcDbSpline
70
4
71
3
72
12
73
8
40
0
40
0
40
0
40
0
40
0.398831647725833
40
0.398831647725833
40
0.699415823862916
40
0.699415823862916
40
1
40
1
40
1
40
1
41
1
10
4.00551740675888
20
1.25889136314012
30
0
41
1
10
4.01132876621745
20
1.23661151698704
30
0
41
1
10
4.02167994868299
20
1.21511135309964
30
0
41
1
10
4.04734645857346
20
1.1807404287257
30
0
41
1
10
4.06108579371505
20
1.16670747181041
30
0
41
1
10
4.09312287596271
20
1.14189085205038
30
0
41
1
10
4.11122787295466
20
1.13113025668213
30
0
41
1
10
4.13175376766009
20
1.12225259119487
30
0
0
SPLINE
5
D4
100
AcDbEntity
8
1
62
256
6
ByLayer
370
18
48
1
60
0
100
AcDbSpline
70
4
71
3
72
18
73
14
40
0
40
0
40
0
40
0
40
0.0863955054139234
40
0.0863955054139234
40
0.190486265145732
40
0.190486265145732
40
0.294577024877541
40
0.294577024877541
40
0.502758544341158
40
0.502758544341158
40
0.919121583268397
40
0.919121583268397
40
1
40
1
40
1
40
1
41
1
10
33.339357829354
20
-0.0105764334516607
30
0
41
1
10
33.5256902661476
20
-0.110650939481189
30
0
41
1
10
33.7122923509737
20
-0.2108560619115
30
0
41
1
10
34.1245068932946
20
-0.43171114467404
30
0
41
1
10
34.3502557798863
20
-0.552390362813298
30
0
41
1
10
34.8030541560638
20
-0.793147798966714
30
0
41
1
10
35.0297249313715
20
-0.913019895489697
30
0
41
1
10
35.7065768471737
20
-1.26792370480069
30
0
41
1
10
36.1554227841269
20
-1.49889513501529
30
0
41
1
10
37.4981792228362
20
-2.16931828064472
30
0
41
1
10
38.3883483306811
20
-2.58626541252343
30
0
41
1
10
39.4565738171805
20
-3.03011729192087
30
0
41
1
10
39.6304933987221
20
-3.10059614426612
30
0
41
1
10
39.8046521035734
20
-3.16924376406877
30
0
0
SPLINE
5
D5
100
AcDbEntity
8
1
62
256
6
ByLayer
370
13
48
1
60
0
100
AcDbSpline
70
4
71
3
72
12
73
8
40
0
40
0
40
0
40
0
40
0.108972724465774
40
0.108972724465774
40
0.287178179572621
40
0.287178179572621
40
1
40
1
40
1
40
1
41
1
10
39.8046521035552
20
-3.1692437640616
30
0
41
1
10
40.0787789273951
20
-3.27729552062917
30
0
41
1
10
40.3534981779147
20
-3.38081040867996
30
0
41
1
10
41.0797617770793
20
-3.64046023679617
30
0
41
1
10
41.5342091714843
20
-3.78866039461226
30
0
41
1
10
43.7878315833115
20
-4.44414768419986
30
0
41
1
10
45.5550392131222
20
-4.70224319794542
30
0
41
1
10
47.3606447264602
20
-4.65310251568707
30
0
0
SPLINE
5
D6
100
AcDbEntity
8
1
62
256
6
ByLayer
370
18
48
1
60
0
100
AcDbSpline
70
4
71
3
72
82
73
78
40
0
40
0
40
0
40
0
40
0.0328821344911587
40
0.0328821344911587
40
0.0687013146951882
40
0.0687013146951882
40
0.104520494899218
40
0.104520494899218
40
0.122430085001232
40
0.122430085001232
40
0.140339675103247
40
0.140339675103247
40
0.176158855307277
40
0.176158855307277
40
0.211978035511306
40
0.211978035511306
40
0.229887625613321
40
0.229887625613321
40
0.247797215715336
40
0.247797215715336
40
0.265706805817351
40
0.265706805817351
40
0.283616395919365
40
0.283616395919365
40
0.30152598602138
40
0.30152598602138
40
0.319435576123395
40
0.319435576123395
40
0.355254756327424
40
0.355254756327424
40
0.373164346429439
40
0.373164346429439
40
0.391073936531453
40
0.391073936531453
40
0.426893116735483
40
0.426893116735483
40
0.444802706837498
40
0.444802706837498
40
0.462712296939513
40
0.462712296939513
40
0.498531477143544
40
0.498531477143544
40
0.534350657347575
40
0.534350657347575
40
0.552260247449591
40
0.552260247449591
40
0.570169837551607
40
0.570169837551607
40
0.605989017755639
40
0.605989017755639
40
0.623898607857655
40
0.623898607857655
40
0.641808197959671
40
0.641808197959671
40
0.659717788061687
40
0.659717788061687
40
0.677627378163704
40
0.677627378163704
40
0.713446558367736
40
0.713446558367736
40
0.785084918775801
40
0.785084918775801
40
0.802994508877817
40
0.802994508877817
40
0.820904098979833
40
0.820904098979833
40
0.856723279183866
40
0.856723279183866
40
0.892542459387899
40
0.892542459387899
40
0.928361639591932
40
0.928361639591932
40
0.946271229693949
40
0.946271229693949
40
0.964180819795966
40
0.964180819795966
40
1
40
1
40
1
40
1
41
1
10
38.8858200786202
20
-3.45315715034701
30
0
41
1
10
38.5920148149241
20
-3.55395022080091
30
0
41
1
10
38.2981924124599
20
-3.64747798435241
30
0
41
1
10
37.6844416663209
20
-3.83074837645953
30
0
41
1
10
37.3644969878378
20
-3.9196871530211
30
0
41
1
10
36.7237557602751
20
-4.08080447065839
30
0
41
1
10
36.4026308493712
20
-4.15328201111203
30
0
41
1
10
35.919753587508
20
-4.24810861124476
30
0
41
1
10
35.7583275250208
20
-4.2769790807881
30
0
41
1
10
35.4352600351493
20
-4.33089820464997
30
0
41
1
10
35.2735605693256
20
-4.35597560804112
30
0
41
1
10
34.7871742434547
20
-4.4248189909267
30
0
41
1
10
34.4634333791951
20
-4.46224863511929
30
0
41
1
10
33.8166912061023
20
-4.51802694978468
30
0
41
1
10
33.4940140295242
20
-4.5368168665743
30
0
41
1
10
33.0088665121498
20
-4.54699270188061
30
0
41
1
10
32.8471002537241
20
-4.54781840924497
30
0
41
1
10
32.5236225302942
20
-4.54601289882837
30
0
41
1
10
32.361681466648
20
-4.54301786719248
30
0
41
1
10
32.0377961720796
20
-4.53246428218728
30
0
41
1
10
31.8757433282914
20
-4.5249033097142
30
0
41
1
10
31.5517516597542
20
-4.50524735266168
30
0
41
1
10
31.3898422057718
20
-4.49314809430689
30
0
41
1
10
31.0663505344803
20
-4.46428867738516
30
0
41
1
10
30.9048156746909
20
-4.44751857147367
30
0
41
1
10
30.5815666714286
20
-4.4088630866149
30
0
41
1
10
30.4200105962278
20
-4.38672214945217
30
0
41
1
10
29.9354160171567
20
-4.31336008975853
30
0
41
1
10
29.6119227372348
20
-4.2566048524651
30
0
41
1
10
29.1263183504125
20
-4.15661772622212
30
0
41
1
10
28.964098955366
20
-4.12091075535199
30
0
41
1
10
28.6398290736337
20
-4.04567469991943
30
0
41
1
10
28.4780091971853
20
-4.00607598225415
30
0
41
1
10
27.9924147004721
20
-3.88173116415101
30
0
41
1
10
27.6691545076527
20
-3.79094930998784
30
0
41
1
10
27.1842573787267
20
-3.6430643080258
30
0
41
1
10
27.0226685549478
20
-3.59186540863064
30
0
41
1
10
26.6994909588061
20
-3.48485109682389
30
0
41
1
10
26.5376617451429
20
-3.42914421318193
30
0
41
1
10
26.0517294867845
20
-3.25693939687324
30
0
41
1
10
25.7271246705217
20
-3.13545662030464
30
0
41
1
10
25.0793080293994
20
-2.88105417466699
30
0
41
1
10
24.7560978335233
20
-2.74769392348585
30
0
41
1
10
24.2710914220606
20
-2.53962773520098
30
0
41
1
10
24.1095507031665
20
-2.46862421673671
30
0
41
1
10
23.7860656371697
20
-2.32401690135228
30
0
41
1
10
23.6242377103347
20
-2.2504090193963
30
0
41
1
10
23.1389599142399
20
-2.02586414314737
30
0
41
1
10
22.8143065112054
20
-1.87257781725651
30
0
41
1
10
22.32837168679
20
-1.63641237468141
30
0
41
1
10
22.1664725753453
20
-1.55699582225259
30
0
41
1
10
21.8429169519052
20
-1.3965995399455
30
0
41
1
10
21.681430989071
20
-1.31533434751276
30
0
41
1
10
21.3581791449757
20
-1.15201803644203
30
0
41
1
10
21.1964331286427
20
-1.0697889170201
30
0
41
1
10
20.8729834706026
20
-0.904302394357842
30
0
41
1
10
20.7113839891438
20
-0.820873397677275
30
0
41
1
10
20.2261074586067
20
-0.56984889578618
30
0
41
1
10
19.9021774449098
20
-0.400252742735802
30
0
41
1
10
18.9296140804576
20
0.108593470613727
30
0
41
1
10
18.2871023196196
20
0.447959609429972
30
0
41
1
10
17.4857094786115
20
0.861400783662049
30
0
41
1
10
17.3256460678184
20
0.943734495934621
30
0
41
1
10
17.0054590843628
20
1.10666957123439
30
0
41
1
10
16.8453269405653
20
1.18742418916168
30
0
41
1
10
16.3656090849222
20
1.42933348650041
30
0
41
1
10
16.0455801908665
20
1.58780959813467
30
0
41
1
10
15.4052717486965
20
1.89864067963606
30
0
41
1
10
15.0848154580317
20
2.05071388329546
30
0
41
1
10
14.4419040898727
20
2.34478506397872
30
0
41
1
10
14.1192235024847
20
2.48668579746416
30
0
41
1
10
13.6341308578208
20
2.69404660916552
30
0
41
1
10
13.4719039978219
20
2.76191418046756
30
0
41
1
10
13.1479020597669
20
2.89535075498395
30
0
41
1
10
12.9860431491982
20
2.96067212841876
30
0
41
1
10
12.5001686618635
20
3.15101458270607
30
0
41
1
10
12.1760009789386
20
3.27043977759027
30
0
41
1
10
11.8516430568602
20
3.38286836296564
30
0
0
SPLINE
5
D7
100
AcDbEntity
8
1
62
256
6
ByLayer
370
18
48
1
60
0
100
AcDbSpline
70
4
71
3
72
8
73
4
40
0
40
0
40
0
40
0
40
1
40
1
40
1
40
1
41
1
10
47.3027365342709
20
4.79514774214087
30
0
41
1
10
47.1750937197862
20
4.79820251372828
30
0
41
1
10
47.0474664503274
20
4.79968742798036
30
0
41
1
10
46.9198281103536
20
4.79960471193476
30
0
0
SPLINE
5
D8
100
AcDbEntity
8
1
62
256
6
ByLayer
370
18
48
1
60
0
100
AcDbSpline
70
4
71
3
72
34
73
30
40
0
40
0
40
0
40
0
40
0.0402009013767395
40
0.0402009013767395
40
0.0771162513237884
40
0.0771162513237884
40
0.114031601270837
40
0.114031601270837
40
0.26169300105903
40
0.26169300105903
40
0.409354400847223
40
0.409354400847223
40
0.446269750794272
40
0.446269750794272
40
0.48318510074132
40
0.48318510074132
40
0.557015800635417
40
0.557015800635417
40
0.630846500529515
40
0.630846500529515
40
0.704677200423612
40
0.704677200423612
40
0.778507900317709
40
0.778507900317709
40
0.852338600211806
40
0.852338600211806
40
0.926169300105903
40
0.926169300105903
40
1
40
1
40
1
40
1
41
1
10
22.4095553496115
20
-4.55526078287645
30
0
41
1
10
22.1649384722065
20
-4.59642640883385
30
0
41
1
10
21.9203896972004
20
-4.63210912279627
30
0
41
1
10
21.4510318710233
20
-4.6898746920541
30
0
41
1
10
21.2262890042031
20
-4.71284896681195
30
0
41
1
10
20.7763640389969
20
-4.74926391591973
30
0
41
1
10
20.5509309238041
20
-4.76270085964657
30
0
41
1
10
19.4254560924046
20
-4.80551309444584
30
0
41
1
10
18.5294208533513
20
-4.76212479202599
30
0
41
1
10
16.726576804215
20
-4.52284520687513
30
0
41
1
10
15.8303555650025
20
-4.32848844243509
30
0
41
1
10
14.7047957887228
20
-4.00140785710585
30
0
41
1
10
14.4792887310527
20
-3.93171639557661
30
0
41
1
10
14.0291943827135
20
-3.7848150781181
30
0
41
1
10
13.8043966964849
20
-3.70755604244246
30
0
41
1
10
13.1302972215225
20
-3.46493136577621
30
0
41
1
10
12.681289214966
20
-3.28871443664514
30
0
41
1
10
11.781495165892
20
-2.91060812682159
30
0
41
1
10
11.3303495982051
20
-2.70826991569444
30
0
41
1
10
10.431130243749
20
-2.28470537595473
30
0
41
1
10
9.9820962873965
20
-2.06332149963416
30
0
41
1
10
9.08277115962292
20
-1.60532642063862
30
0
41
1
10
8.63174473329192
20
-1.36809832295702
30
0
41
1
10
7.73127313460174
20
-0.885126244501606
30
0
41
1
10
7.28162431062231
20
-0.639516407099222
30
0
41
1
10
6.38094328622412
20
-0.144653870185124
30
0
41
1
10
5.92989125847447
20
0.104784562857475
30
0
41
1
10
5.02988515495315
20
0.599753866617192
30
0
41
1
10
4.58009600227135
20
0.845499143648539
30
0
41
1
10
4.12932574901063
20
1.08734717702262
30
0
0
SPLINE
5
D9
100
AcDbEntity
8
1
62
256
6
ByLayer
370
18
48
1
60
0
100
AcDbSpline
70
4
71
3
72
10
73
6
40
0
40
0
40
0
40
0
40
0.5
40
0.5
40
1
40
1
40
1
40
1
41
1
10
47.5537808910732
20
4.66987212341462
30
0
41
1
10
47.507606480994
20
4.70423772012359
30
0
41
1
10
47.4635775776821
20
4.73212062968898
30
0
41
1
10
47.3797691273055
20
4.77420892695895
30
0
41
1
10
47.3397935225684
20
4.78840654343929
30
0
41
1
10
47.3027365342709
20
4.7951477421409
30
0
0
SPLINE
5
DA
100
AcDbEntity
8
1
62
256
6
ByLayer
370
18
48
1
60
0
100
AcDbSpline
70
4
71
3
72
30
73
26
40
0
40
0
40
0
40
0
40
0.062499999999998
40
0.062499999999998
40
0.093749999999997
40
0.093749999999997
40
0.124999999999996
40
0.124999999999996
40
0.187499999999994
40
0.187499999999994
40
0.218749999999993
40
0.218749999999993
40
0.249999999999993
40
0.249999999999993
40
0.374999999999994
40
0.374999999999994
40
0.499999999999995
40
0.499999999999995
40
0.624999999999996
40
0.624999999999996
40
0.749999999999998
40
0.749999999999998
40
0.874999999999999
40
0.874999999999999
40
1
40
1
40
1
40
1
41
1
10
42.8340432454972
20
1.79420808574164
30
0
41
1
10
42.817718447322
20
1.64912238319181
30
0
41
1
10
42.8124434454487
20
1.50036313150216
30
0
41
1
10
42.8217124578749
20
1.27151219025257
30
0
41
1
10
42.8277310098462
20
1.19386986824736
30
0
41
1
10
42.8453159647771
20
1.03936185421671
30
0
41
1
10
42.8568530266017
20
0.962373080260846
30
0
41
1
10
42.8992480577377
20
0.732158979105151
30
0
41
1
10
42.9378658661425
20
0.579683552653449
30
0
41
1
10
43.0100509446448
20
0.352348322894159
30
0
41
1
10
43.0366046387981
20
0.276522394969902
30
0
41
1
10
43.0937865078365
20
0.126717755357845
30
0
41
1
10
43.1243096324636
20
0.0529537463303598
30
0
41
1
10
43.2857172468889
20
-0.310686674705778
30
0
41
1
10
43.4423345021464
20
-0.585403147655853
30
0
41
1
10
43.7987137801169
20
-1.10941822518268
30
0
41
1
10
43.9937239202254
20
-1.35028796745448
30
0
41
1
10
44.406052297564
20
-1.80003547782903
30
0
41
1
10
44.6238749773959
20
-2.00919513670661
30
0
41
1
10
45.078144993245
20
-2.40170281649239
30
0
41
1
10
45.3101217479613
20
-2.58120552982371
30
0
41
1
10
45.7817083520516
20
-2.91380252577545
30
0
41
1
10
46.0213368370638
20
-3.06683233415873
30
0
41
1
10
46.5071490419274
20
-3.35021262192288
30
0
41
1
10
46.7533512674516
20
-3.48049907671108
30
0
41
1
10
47.0026041918537
20
-3.60023094341318
30
0
0
SPLINE
5
DB
100
AcDbEntity
8
1
62
256
6
ByLayer
370
13
48
1
60
0
100
AcDbSpline
70
4
71
3
72
24
73
20
40
0
40
0
40
0
40
0
40
0.155571814725766
40
0.155571814725766
40
0.233357722088648
40
0.233357722088648
40
0.311143629451531
40
0.388929536814414
40
0.388929536814414
40
0.466715444177297
40
0.466715444177297
40
0.622287258903063
40
0.622287258903063
40
0.777859073628829
40
0.777859073628829
40
0.855644980991711
40
0.855644980991711
40
0.933430888354594
40
1
40
1
40
1
40
1
41
1
10
4.25025326509351
20
1.07916374637452
30
0
41
1
10
4.25027389324293
20
1.37530253945627
30
0
41
1
10
4.25028538034434
20
1.66082301827319
30
0
41
1
10
4.25029458437032
20
2.07330246864768
30
0
41
1
10
4.25029629094573
20
2.20776576906178
30
0
41
1
10
4.25029795332037
20
2.46645639472553
30
0
41
1
10
4.25029789394677
20
2.71617401510082
30
0
41
1
10
4.25029631881785
20
2.94818337878516
30
0
41
1
10
4.2502948752456
20
3.17119147558671
30
0
41
1
10
4.25029422005477
20
3.27874768311497
30
0
41
1
10
4.25029374110161
20
3.5818386166336
30
0
41
1
10
4.25029544557162
20
3.75878651776966
30
0
41
1
10
4.25030774929155
20
4.06342056410656
30
0
41
1
10
4.25031851019909
20
4.19145800014078
30
0
41
1
10
4.25034286979874
20
4.33885874027166
30
0
41
1
10
4.25035238506624
20
4.3809411833839
30
0
41
1
10
4.2503738920712
20
4.44972608401181
30
0
41
1
10
4.25039612279224
20
4.49943765474555
30
0
41
1
10
4.2504221543573
20
4.52348903746801
30
0
41
1
10
4.25043485441591
20
4.52907871017246
30
0
0
SPLINE
5
DC
100
AcDbEntity
8
1
62
256
6
ByLayer
370
18
48
1
60
0
100
AcDbSpline
70
4
71
3
72
44
73
40
40
0
40
0
40
0
40
0
40
0.124999999999992
40
0.124999999999992
40
0.187499999999987
40
0.187499999999987
40
0.249999999999983
40
0.249999999999983
40
0.374999999999975
40
0.374999999999975
40
0.499999999999967
40
0.499999999999967
40
0.562499999999965
40
0.562499999999965
40
0.624999999999963
40
0.624999999999963
40
0.74999999999996
40
0.74999999999996
40
0.812499999999959
40
0.812499999999959
40
0.843749999999958
40
0.843749999999958
40
0.859374999999957
40
0.859374999999957
40
0.867187499999959
40
0.867187499999959
40
0.874999999999962
40
0.874999999999962
40
0.882812499999964
40
0.882812499999964
40
0.886718749999965
40
0.886718749999965
40
0.890624999999966
40
0.890624999999966
40
0.906249999999971
40
0.906249999999971
40
0.93749999999998
40
0.93749999999998
40
1
40
1
40
1
40
1
41
1
10
42.8340432454972
20
1.79420808574162
30
0
41
1
10
43.0211913200281
20
1.61992334510708
30
0
41
1
10
43.2140881650655
20
1.45675293816129
30
0
41
1
10
43.5122766213019
20
1.22909422693954
30
0
41
1
10
43.6131299687252
20
1.15602524536155
30
0
41
1
10
43.8177763081226
20
1.01557061752607
30
0
41
1
10
43.9219014845584
20
0.947963195762526
30
0
41
1
10
44.2363102829063
20
0.755707116549303
30
0
41
1
10
44.4477768232033
20
0.642903189136945
30
0
41
1
10
44.8742219470853
20
0.446300317289797
30
0
41
1
10
45.0892727981059
20
0.363098209388539
30
0
41
1
10
45.4148291453959
20
0.262906618225259
30
0
41
1
10
45.5238444350126
20
0.233609935122615
30
0
41
1
10
45.7429600396126
20
0.183977489868766
30
0
41
1
10
45.8535154351076
20
0.163595688783914
30
0
41
1
10
46.1835912758452
20
0.119317999275467
30
0
41
1
10
46.4006151510575
20
0.110758920853101
30
0
41
1
10
46.7207659234441
20
0.135210971074315
30
0
41
1
10
46.8264908879032
20
0.149717666896379
30
0
41
1
10
46.9818763001188
20
0.181679145862347
30
0
41
1
10
47.0331912985483
20
0.194039344609109
30
0
41
1
10
47.1092445995402
20
0.215228161325967
30
0
41
1
10
47.1344468569957
20
0.222733619601712
30
0
41
1
10
47.1720019549969
20
0.234666018614718
30
0
41
1
10
47.1844455491177
20
0.238846248295118
30
0
41
1
10
47.2094355718295
20
0.246929059476798
30
0
41
1
10
47.2220481417476
20
0.250874678618516
30
0
41
1
10
47.2436603651947
20
0.26637701745247
30
0
41
1
10
47.2525991555787
20
0.277456503457074
30
0
41
1
10
47.2587489563343
20
0.299487110557919
30
0
41
1
10
47.2594480914361
20
0.307532413011245
30
0
41
1
10
47.2611535846048
20
0.323336752673356
30
0
41
1
10
47.2620080538326
20
0.331238261109974
30
0
41
1
10
47.2660879733296
20
0.370819683877471
30
0
41
1
10
47.2689491021628
20
0.402648521670898
30
0
41
1
10
47.2763722795159
20
0.498453712391864
30
0
41
1
10
47.2797799267382
20
0.562780012266899
30
0
41
1
10
47.2858361693229
20
0.756992243936821
30
0
41
1
10
47.2842936690835
20
0.888150278693416
30
0
41
1
10
47.2783042765182
20
1.01918739033763
30
0
0
SPLINE
5
DD
100
AcDbEntity
8
1
62
256
6
ByLayer
370
18
48
1
60
0
100
AcDbSpline
70
4
71
3
72
34
73
30
40
0
40
0
40
0
40
0
40
0.021814487107337
40
0.021814487107337
40
0.119633038396603
40
0.119633038396603
40
0.217451589685869
40
0.217451589685869
40
0.266360865330504
40
0.266360865330504
40
0.315270140975138
40
0.315270140975138
40
0.364179416619773
40
0.364179416619773
40
0.413088692264407
40
0.413088692264407
40
0.510907243553673
40
0.510907243553673
40
0.608725794842939
40
0.608725794842939
40
0.706544346132206
40
0.706544346132206
40
0.804362897421471
40
0.804362897421471
40
0.902181448710737
40
0.902181448710737
40
0.951090724355369
40
0.951090724355369
40
1
40
1
40
1
40
1
41
1
10
32.9575654279993
20
4.54665566270265
30
0
41
1
10
33.0298002051628
20
4.54607584737064
30
0
41
1
10
33.1020677567999
20
4.54505690656111
30
0
41
1
10
33.4985643703739
20
4.53663308056741
30
0
41
1
10
33.8220239421943
20
4.51766758897119
30
0
41
1
10
34.4684947303435
20
4.46170992734866
30
0
41
1
10
34.7913736766357
20
4.42427795780421
30
0
41
1
10
35.2760557442404
20
4.35559537998395
30
0
41
1
10
35.4375186100245
20
4.33053901125822
30
0
41
1
10
35.7607827389689
20
4.27655129428959
30
0
41
1
10
35.9226508366072
20
4.24757959455042
30
0
41
1
10
36.2463429928271
20
4.18393266426642
30
0
41
1
10
36.4085054959381
20
4.14953282315278
30
0
41
1
10
36.7320428669791
20
4.07669176250656
30
0
41
1
10
36.8934984166056
20
4.03821482642982
30
0
41
1
10
37.3767699589106
20
3.9164058542915
30
0
41
1
10
37.6979535482257
20
3.82689748303264
30
0
41
1
10
38.339465419776
20
3.63496136062784
30
0
41
1
10
38.6597387837527
20
3.53210830446662
30
0
41
1
10
39.2990647811411
20
3.30950497460776
30
0
41
1
10
39.6187273680289
20
3.19118259082307
30
0
41
1
10
40.2586337747309
20
2.94272279512106
30
0
41
1
10
40.5785250566169
20
2.8121043812736
30
0
41
1
10
41.2201064754992
20
2.54124181327379
30
0
41
1
10
41.5413571351386
20
2.39942649854942
30
0
41
1
10
42.0250989308073
20
2.17808131238294
30
0
41
1
10
42.1865560032246
20
2.1027990341936
30
0
41
1
10
42.5100176334213
20
1.94971266700688
30
0
41
1
10
42.6722776186477
20
1.87232149447527
30
0
41
1
10
42.8340432454845
20
1.79420808574775
30
0
0
SPLINE
5
DE
100
AcDbEntity
8
1
62
256
6
ByLayer
370
18
48
1
60
0
100
AcDbSpline
70
4
71
3
72
14
73
10
40
0
40
0
40
0
40
0
40
0.25
40
0.25
40
0.5
40
0.5
40
0.75
40
0.75
40
1
40
1
40
1
40
1
41
1
10
47.5537808910688
20
-4.66987212343162
30
0
41
1
10
47.6603675247851
20
-4.36732792505435
30
0
41
1
10
47.7698044283995
20
-4.06539934747533
30
0
41
1
10
47.9934312864601
20
-3.46268332516905
30
0
41
1
10
48.1076572558353
20
-3.16190397130347
30
0
41
1
10
48.3402316214553
20
-2.56142164133715
30
0
41
1
10
48.4586981052997
20
-2.26149961037746
30
0
41
1
10
48.6988404653623
20
-1.66380889715893
30
0
41
1
10
48.8204493398206
20
-1.36622327187081
30
0
41
1
10
48.9434964280018
20
-1.06970912307816
30
0
0
SPLINE
5
DF
100
AcDbEntity
8
1
62
256
6
ByLayer
370
18
48
1
60
0
100
AcDbSpline
70
4
71
3
72
8
73
4
40
0
40
0
40
0
40
0
40
1
40
1
40
1
40
1
41
1
10
48.9895415018539
20
0.117746015568912
30
0
41
1
10
48.9901982566729
20
0.0960704696660173
30
0
41
1
10
48.9941573739958
20
0.0696262017003164
30
0
41
1
10
48.9999657660849
20
0.0417729292526872
30
0
0
SPLINE
5
E0
100
AcDbEntity
8
1
62
256
6
ByLayer
370
18
48
1
60
0
100
AcDbSpline
70
4
71
3
72
31
73
27
40
0
40
0
40
0
40
0
40
0.0659372006226597
40
0.125041807814021
40
0.172367883164413
40
0.204610930409889
40
0.237816765961213
40
0.278056690704347
40
0.318961362244315
40
0.369266235363989
40
0.420478692268871
40
0.456612772273142
40
0.491513503103579
40
0.539098421726497
40
0.585106940432406
40
0.61591398285062
40
0.646490057815023
40
0.680647348672738
40
0.721349703134674
40
0.771733500243329
40
0.826784936747873
40
0.862751773572642
40
0.890527858893733
40
0.925855372960165
40
0.969061523817786
40
1
40
1
40
1
40
1
41
1
10
19.8661044906493
20
-4.5427652743019
30
0
41
1
10
20.1521642756574
20
-4.54243947016852
30
0
41
1
10
20.6947918077869
20
-4.54213261767794
30
0
41
1
10
21.4467158709528
20
-4.5439462633457
30
0
41
1
10
22.0468117221325
20
-4.54389961502417
30
0
41
1
10
22.5390047213511
20
-4.54381342058389
30
0
41
1
10
22.9991732509708
20
-4.54372507279061
30
0
41
1
10
23.4976698786796
20
-4.54370114113141
30
0
41
1
10
24.0704867051152
20
-4.54542013884958
30
0
41
1
10
24.6911997312498
20
-4.54517931538626
30
0
41
1
10
25.2910835079288
20
-4.54459263356731
30
0
41
1
10
25.8238327666222
20
-4.54433440124873
30
0
41
1
10
26.3407948319934
20
-4.54526991325241
30
0
41
1
10
26.9007835626103
20
-4.547596343994
30
0
41
1
10
27.4429352742445
20
-4.5461657278756
30
0
41
1
10
27.9109589941407
20
-4.54562358862319
30
0
41
1
10
28.327334568915
20
-4.54523409813015
30
0
41
1
10
28.7868321174215
20
-4.5450955748876
30
0
41
1
10
29.332666851158
20
-4.54708118206315
30
0
41
1
10
29.969485527873
20
-4.54696787928748
30
0
41
1
10
30.5859675481609
20
-4.54918799732027
30
0
41
1
10
31.103085387533
20
-4.54798019808757
30
0
41
1
10
31.535138367212
20
-4.54692269171656
30
0
41
1
10
31.9966667593622
20
-4.54689229335952
30
0
41
1
10
32.4659962729587
20
-4.54496853529866
30
0
41
1
10
32.7896131557149
20
-4.54640597149265
30
0
41
1
10
32.9250382799655
20
-4.54722966751862
30
0
0
SPLINE
5
E1
100
AcDbEntity
8
1
62
256
6
ByLayer
370
18
48
1
60
0
100
AcDbSpline
70
4
71
3
72
11
73
7
40
0
40
0
40
0
40
0
40
0.0001444435662506
40
0.320450385509354
40
0.696622628940383
40
1
40
1
40
1
40
1
41
1
10
6.16587205835489
20
4.53386915076388
30
0
41
1
10
6.16578051739819
20
4.53386891671491
30
0
41
1
10
5.96269490687183
20
4.53334979476523
30
0
41
1
10
5.51498227001554
20
4.53292149171244
30
0
41
1
10
4.87619873193873
20
4.53371617076814
30
0
41
1
10
4.4433212089275
20
4.53325020339636
30
0
41
1
10
4.25041043047659
20
4.53297948207265
30
0
0
SPLINE
5
E2
100
AcDbEntity
8
1
62
256
6
ByLayer
370
18
48
1
60
0
100
AcDbSpline
70
4
71
1
72
4
73
2
40
0
40
0
40
1
40
1
41
1
10
47.0603819138844
20
-4.55958185380493
30
0
41
1
10
47.3169239141646
20
-4.55843549964072
30
0
0
SPLINE
5
E3
100
AcDbEntity
8
1
62
256
6
ByLayer
370
18
48
1
60
0
100
AcDbSpline
70
4
71
3
72
26
73
22
40
0
40
0
40
0
40
0
40
0.0700861353603456
40
0.130184804416565
40
0.175211436720657
40
0.23790765318722
40
0.31805650200465
40
0.370454947042086
40
0.413195420509606
40
0.450961761127423
40
0.484983372700251
40
0.521381567659182
40
0.574649949827196
40
0.647312693853057
40
0.699418526692994
40
0.773320780446473
40
0.853654428982217
40
0.915043499333128
40
0.962126710697918
40
0.993464223834758
40
1
40
1
40
1
40
1
41
1
10
32.9391180146736
20
4.5468596209827
30
0
41
1
10
32.6934180793753
20
4.54636051903219
30
0
41
1
10
32.2376288518463
20
4.54592577264714
30
0
41
1
10
31.6319450963851
20
4.54685391766222
30
0
41
1
10
31.0424855267097
20
4.54822166114047
30
0
41
1
10
30.3853453252266
20
4.54867960218562
30
0
41
1
10
29.7011435701247
20
4.54723733251217
30
0
41
1
10
29.0872168688529
20
4.54615822239333
30
0
41
1
10
28.6216745049137
20
4.54505001273165
30
0
41
1
10
28.220514052302
20
4.5453192050521
30
0
41
1
10
27.8415655819184
20
4.54571056912212
30
0
41
1
10
27.408318847275
20
4.54623022262535
30
0
41
1
10
26.8397203881891
20
4.54766698581824
30
0
41
1
10
26.2161054961998
20
4.5446070809252
30
0
41
1
10
25.5202105329594
20
4.54434984927437
30
0
41
1
10
24.797486191624
20
4.54513467791185
30
0
41
1
10
24.042170891332
20
4.54540372314088
30
0
41
1
10
23.3809033279861
20
4.54355378311601
30
0
41
1
10
22.8910486523338
20
4.54376049009142
30
0
41
1
10
22.5937343580714
20
4.54381136370401
30
0
41
1
10
22.4611030366348
20
4.54381860761299
30
0
41
1
10
22.4382136771989
20
4.54381986113961
30
0
0
SPLINE
5
E4
100
AcDbEntity
8
1
62
256
6
ByLayer
370
18
48
1
60
0
100
AcDbSpline
70
4
71
3
72
11
73
7
40
0
40
0
40
0
40
0
40
0.302858871615808
40
0.678388202615084
40
0.998146712759619
40
1
40
1
40
1
40
1
41
1
10
4.25041043047665
20
-4.53297948207271
30
0
41
1
10
4.44332120894566
20
-4.53325020339571
30
0
41
1
10
4.87619709251942
20
-4.53371638727455
30
0
41
1
10
5.51498902526384
20
-4.53292059966864
30
0
41
1
10
5.96378299167537
20
-4.53335246004622
30
0
41
1
10
6.16795056061889
20
-4.5338744540523
30
0
41
1
10
6.16912703722551
20
-4.53387747090514
30
0
0
SPLINE
5
E5
100
AcDbEntity
8
1
62
256
6
ByLayer
370
18
48
1
60
0
100
AcDbSpline
70
4
71
1
72
4
73
2
40
0
40
0
40
1
40
1
41
1
10
6.11541240310646
20
0.0021070196530957
30
0
41
1
10
6.11540318501338
20
0.0021120150920808
30
0
0
LINE
5
7B
100
AcDbEntity
8
SK1
62
256
6
ByLayer
370
18
48
1
60
0
100
AcDbLine
10
-40
20
3.66
30
0
11
-40
21
-3.66
31
0
39
0
210
0
220
0
230
1
0
LINE
5
7D
100
AcDbEntity
8
SK1
62
256
6
ByLayer
370
18
48
1
60
0
100
AcDbLine
10
-38.66
20
5
30
0
11
-38.66
21
-5
31
0
39
0
210
0
220
0
230
1
0
LINE
5
7E
100
AcDbEntity
8
SK1
62
256
6
ByLayer
370
18
48
1
60
0
100
AcDbLine
10
0
20
-5
30
0
11
0
21
5
31
0
39
0
210
0
220
0
230
1
0
LINE
5
7F
100
AcDbEntity
8
1
62
256
6
ByLayer
370
13
48
1
60
0
100
AcDbLine
10
47.278304
20
1.019187
30
0
11
48.964241
21
-0.048051
31
0
39
0
210
0
220
0
230
1
0
LINE
5
80
100
AcDbEntity
8
1
62
256
6
ByLayer
370
13
48
1
60
0
100
AcDbLine
10
0.41259
20
4.885397
30
0
11
0.41259
21
-4.885397
31
0
39
0
210
0
220
0
230
1
0
LINE
5
81
100
AcDbEntity
8
1
62
256
6
ByLayer
370
13
48
1
60
0
100
AcDbLine
10
47.4143
20
1.114912
30
0
11
48.989542
21
0.117746
31
0
39
0
210
0
220
0
230
1
0
LINE
5
82
100
AcDbEntity
8
1
62
256
6
ByLayer
370
13
48
1
60
0
100
AcDbLine
10
0.82568
20
4.770795
30
0
11
0.82568
21
-4.770795
31
0
39
0
210
0
220
0
230
1
0
LINE
5
83
100
AcDbEntity
8
1
62
256
6
ByLayer
370
18
48
1
60
0
100
AcDbLine
10
0
20
-5
30
0
11
0
21
5
31
0
39
0
210
0
220
0
230
1
0
LINE
5
84
100
AcDbEntity
8
80
62
256
6
ByLayer
370
18
48
1
60
0
100
AcDbLine
10
0
20
0
30
0
11
-5
21
0
31
0
39
0
210
0
220
0
230
1
0
LINE
5
85
100
AcDbEntity
8
SK4
62
256
6
ByLayer
370
18
48
0.05
60
0
100
AcDbLine
10
54
20
0
30
0
11
-45
21
0
31
0
39
0
210
0
220
0
230
1
0
LINE
5
87
100
AcDbEntity
8
4
62
256
6
ByLayer
370
18
48
0.05
60
0
100
AcDbLine
10
49
20
0
30
0
11
0
21
0
31
0
39
0
210
0
220
0
230
1
0
LINE
5
89
100
AcDbEntity
8
SK1
62
256
6
ByLayer
370
18
48
1
60
0
100
AcDbLine
10
-38.66
20
-5
30
0
11
0
21
-5
31
0
39
0
210
0
220
0
230
1
0
LINE
5
8A
100
AcDbEntity
8
SK1
62
256
6
ByLayer
370
18
48
1
60
0
100
AcDbLine
10
0
20
5
30
0
11
-38.66
21
5
31
0
39
0
210
0
220
0
230
1
0
LINE
5
8B
100
AcDbEntity
8
SK1
62
256
6
ByLayer
370
18
48
1
60
0
100
AcDbLine
10
-40
20
-3.66
30
0
11
-38.66
21
-5
31
0
39
0
210
0
220
0
230
1
0
LINE
5
8C
100
AcDbEntity
8
SK1
62
256
6
ByLayer
370
18
48
1
60
0
100
AcDbLine
10
-38.66
20
5
30
0
11
-40
21
3.66
31
0
39
0
210
0
220
0
230
1
0
LINE
5
8D
100
AcDbEntity
8
1
62
256
6
ByLayer
370
18
48
1
60
0
100
AcDbLine
10
0.82568
20
-4.770795
30
0
11
4.000213
21
-4.772779
31
0
39
0
210
0
220
0
230
1
0
LINE
5
8E
100
AcDbEntity
8
1
62
256
6
ByLayer
370
18
48
1
60
0
100
AcDbLine
10
18.335006
20
-4.781738
30
0
11
19.719293
21
-4.782603
31
0
39
0
210
0
220
0
230
1
0
LINE
5
8F
100
AcDbEntity
8
1
62
256
6
ByLayer
370
18
48
1
60
0
100
AcDbLine
10
45.532079
20
-4.798736
30
0
11
46.920286
21
-4.799604
31
0
39
0
210
0
220
0
230
1
0
LINE
5
90
100
AcDbEntity
8
1
62
256
6
ByLayer
370
18
48
1
60
0
100
AcDbLine
10
46.920184
20
4.799604
30
0
11
45.532079
21
4.798736
31
0
39
0
210
0
220
0
230
1
0
LINE
5
91
100
AcDbEntity
8
1
62
256
6
ByLayer
370
18
48
1
60
0
100
AcDbLine
10
19.719427
20
4.782603
30
0
11
18.335006
21
4.781738
31
0
39
0
210
0
220
0
230
1
0
LINE
5
92
100
AcDbEntity
8
1
62
256
6
ByLayer
370
18
48
1
60
0
100
AcDbLine
10
4.000213
20
4.772779
30
0
11
0.82568
21
4.770795
31
0
39
0
210
0
220
0
230
1
0
LINE
5
93
100
AcDbEntity
8
81
62
256
6
ByLayer
370
18
48
1
60
0
100
AcDbLine
10
49
20
0
30
0
11
54
21
0
31
0
39
0
210
0
220
0
230
1
0
LINE
5
94
100
AcDbEntity
8
SK2
62
256
6
ByLayer
370
13
48
1
60
0
100
AcDbLine
10
-48.625163
20
-5
30
0
11
-48.625163
21
35.857173
31
0
39
0
210
0
220
0
230
1
0
LINE
5
96
100
AcDbEntity
8
SK2
62
256
6
ByLayer
370
13
48
1
60
0
100
AcDbLine
10
-41.5875
20
5
30
0
11
-50.625163
21
5
31
0
39
0
210
0
220
0
230
1
0
LINE
5
97
100
AcDbEntity
8
SK2
62
256
6
ByLayer
370
13
48
1
60
0
100
AcDbLine
10
-41.5875
20
-5
30
0
11
-50.625163
21
-5
31
0
39
0
210
0
220
0
230
1
0
LINE
5
98
100
AcDbEntity
8
1
62
256
6
ByLayer
370
18
48
1
60
1
100
AcDbLine
10
-48.625163
20
5
30
0
11
-48.164379
21
1.500002
31
0
39
0
210
0
220
0
230
1
0
LINE
5
99
100
AcDbEntity
8
1
62
256
6
ByLayer
370
18
48
1
60
1
100
AcDbLine
10
-48.164379
20
1.500002
30
0
11
-49.085946
21
1.499998
31
0
39
0
210
0
220
0
230
1
0
LINE
5
9A
100
AcDbEntity
8
1
62
256
6
ByLayer
370
18
48
1
60
1
100
AcDbLine
10
-49.085946
20
1.499998
30
0
11
-48.625163
21
5
31
0
39
0
210
0
220
0
230
1
0
LINE
5
9B
100
AcDbEntity
8
1
62
256
6
ByLayer
370
18
48
1
60
1
100
AcDbLine
10
-48.625163
20
-5
30
0
11
-49.085946
21
-1.500002
31
0
39
0
210
0
220
0
230
1
0
LINE
5
9C
100
AcDbEntity
8
1
62
256
6
ByLayer
370
18
48
1
60
1
100
AcDbLine
10
-49.085946
20
-1.500002
30
0
11
-48.164379
21
-1.499998
31
0
39
0
210
0
220
0
230
1
0
LINE
5
9D
100
AcDbEntity
8
1
62
256
6
ByLayer
370
18
48
1
60
1
100
AcDbLine
10
-48.164379
20
-1.499998
30
0
11
-48.625163
21
-5
31
0
39
0
210
0
220
0
230
1
0
LINE
5
9E
100
AcDbEntity
8
2
62
256
6
ByLayer
370
13
48
1
60
0
100
AcDbLine
10
61.083343
20
-4.8
30
0
11
61.083343
21
32.510193
31
0
39
0
210
0
220
0
230
1
0
LINE
5
A0
100
AcDbEntity
8
2
62
256
6
ByLayer
370
13
48
1
60
0
100
AcDbLine
10
49.1638
20
4.8
30
0
11
63.083343
21
4.8
31
0
39
0
210
0
220
0
230
1
0
LINE
5
A1
100
AcDbEntity
8
2
62
256
6
ByLayer
370
13
48
1
60
0
100
AcDbLine
10
49.1638
20
-4.8
30
0
11
63.083343
21
-4.8
31
0
39
0
210
0
220
0
230
1
0
LINE
5
A2
100
AcDbEntity
8
1
62
256
6
ByLayer
370
18
48
1
60
1
100
AcDbLine
10
61.083343
20
4.8
30
0
11
61.544126
21
1.300002
31
0
39
0
210
0
220
0
230
1
0
LINE
5
A3
100
AcDbEntity
8
1
62
256
6
ByLayer
370
18
48
1
60
1
100
AcDbLine
10
61.544126
20
1.300002
30
0
11
60.622559
21
1.299998
31
0
39
0
210
0
220
0
230
1
0
LINE
5
A4
100
AcDbEntity
8
1
62
256
6
ByLayer
370
18
48
1
60
1
100
AcDbLine
10
60.622559
20
1.299998
30
0
11
61.083343
21
4.8
31
0
39
0
210
0
220
0
230
1
0
LINE
5
A5
100
AcDbEntity
8
1
62
256
6
ByLayer
370
18
48
1
60
1
100
AcDbLine
10
61.083343
20
-4.8
30
0
11
60.622559
21
-1.300002
31
0
39
0
210
0
220
0
230
1
0
LINE
5
A6
100
AcDbEntity
8
1
62
256
6
ByLayer
370
18
48
1
60
1
100
AcDbLine
10
60.622559
20
-1.300002
30
0
11
61.544126
21
-1.299998
31
0
39
0
210
0
220
0
230
1
0
LINE
5
A7
100
AcDbEntity
8
1
62
256
6
ByLayer
370
18
48
1
60
1
100
AcDbLine
10
61.544126
20
-1.299998
30
0
11
61.083343
21
-4.8
31
0
39
0
210
0
220
0
230
1
0
LINE
5
EC
100
AcDbEntity
8
1
62
256
6
ByLayer
370
18
48
1
60
1
100
AcDbLine
10
-48.625163
20
5
30
0
11
-48.164379
21
1.500002
31
0
39
0
210
0
220
0
230
1
0
LINE
5
ED
100
AcDbEntity
8
1
62
256
6
ByLayer
370
18
48
1
60
1
100
AcDbLine
10
-48.164379
20
1.500002
30
0
11
-49.085946
21
1.499998
31
0
39
0
210
0
220
0
230
1
0
LINE
5
EE
100
AcDbEntity
8
1
62
256
6
ByLayer
370
18
48
1
60
1
100
AcDbLine
10
-49.085946
20
1.499998
30
0
11
-48.625163
21
5
31
0
39
0
210
0
220
0
230
1
0
LINE
5
F0
100
AcDbEntity
8
1
62
256
6
ByLayer
370
18
48
1
60
1
100
AcDbLine
10
-48.625163
20
-5
30
0
11
-49.085946
21
-1.500002
31
0
39
0
210
0
220
0
230
1
0
LINE
5
F1
100
AcDbEntity
8
1
62
256
6
ByLayer
370
18
48
1
60
1
100
AcDbLine
10
-49.085946
20
-1.500002
30
0
11
-48.164379
21
-1.499998
31
0
39
0
210
0
220
0
230
1
0
LINE
5
F2
100
AcDbEntity
8
1
62
256
6
ByLayer
370
18
48
1
60
1
100
AcDbLine
10
-48.164379
20
-1.499998
30
0
11
-48.625163
21
-5
31
0
39
0
210
0
220
0
230
1
0
LINE
5
F6
100
AcDbEntity
8
1
62
256
6
ByLayer
370
18
48
1
60
1
100
AcDbLine
10
61.083343
20
4.8
30
0
11
61.544126
21
1.300002
31
0
39
0
210
0
220
0
230
1
0
LINE
5
F7
100
AcDbEntity
8
1
62
256
6
ByLayer
370
18
48
1
60
1
100
AcDbLine
10
61.544126
20
1.300002
30
0
11
60.622559
21
1.299998
31
0
39
0
210
0
220
0
230
1
0
LINE
5
F8
100
AcDbEntity
8
1
62
256
6
ByLayer
370
18
48
1
60
1
100
AcDbLine
10
60.622559
20
1.299998
30
0
11
61.083343
21
4.8
31
0
39
0
210
0
220
0
230
1
0
LINE
5
FA
100
AcDbEntity
8
1
62
256
6
ByLayer
370
18
48
1
60
1
100
AcDbLine
10
61.083343
20
-4.8
30
0
11
60.622559
21
-1.300002
31
0
39
0
210
0
220
0
230
1
0
LINE
5
FB
100
AcDbEntity
8
1
62
256
6
ByLayer
370
18
48
1
60
1
100
AcDbLine
10
60.622559
20
-1.300002
30
0
11
61.544126
21
-1.299998
31
0
39
0
210
0
220
0
230
1
0
LINE
5
FC
100
AcDbEntity
8
1
62
256
6
ByLayer
370
18
48
1
60
1
100
AcDbLine
10
61.544126
20
-1.299998
30
0
11
61.083343
21
-4.8
31
0
39
0
210
0
220
0
230
1
0
MTEXT
5
E6
100
AcDbEntity
8
SK6
62
256
6
ByLayer
370
13
48
1
60
0
100
AcDbMText
10
-25.082626
20
37.340328
30
0
210
0
220
0
230
1
1
\W0.7776;462.1-0960-029A0-XM X2BM
40
3.5
41
0
44
1.084337
50
0
71
7
72
5
7
iso_b_vert
0
MTEXT
5
EA
100
AcDbEntity
8
SK2
62
256
6
ByLayer
370
18
48
1
60
0
100
AcDbMText
10
-50.189796
20
18.409024
30
0
210
0
220
0
230
1
1
%%c
40
3.5
41
0
44
1.084337
50
90
71
7
72
5
7
iso_b_vert
0
MTEXT
5
EB
100
AcDbEntity
8
SK2
62
256
6
ByLayer
370
18
48
1
60
0
100
AcDbMText
10
-50.189796
20
23.63168
30
0
210
0
220
0
230
1
1
\W0.6930;10,000
40
3.5
41
0
44
1.084337
50
90
71
7
72
5
7
iso_b_vert
0
MTEXT
5
F4
100
AcDbEntity
8
2
62
256
6
ByLayer
370
18
48
1
60
0
100
AcDbMText
10
59.518709
20
16.80211
30
0
210
0
220
0
230
1
1
%%c
40
3.5
41
0
44
1.084337
50
90
71
7
72
5
7
iso_b_vert
0
MTEXT
5
F5
100
AcDbEntity
8
2
62
256
6
ByLayer
370
18
48
1
60
0
100
AcDbMText
10
59.518709
20
22.024766
30
0
210
0
220
0
230
1
1
\W0.7317;9,600
40
3.5
41
0
44
1.084337
50
90
71
7
72
5
7
iso_b_vert
0
HATCH
5
EF
100
AcDbEntity
8
SK2
62
256
6
ByLayer
370
13
48
1
60
0
100
AcDbHatch
10
0
20
0
30
0
210
0
220
0
230
1
2
ANSI31
70
0
71
0
91
1
92
5
93
3
72
1
10
-48.6251625675374
20
5
11
-48.1643788259847
21
1.50000169255318
72
1
10
-48.1643788259847
20
1.50000169255318
11
-49.0859463090902
21
1.49999830744682
72
1
10
-49.0859463090902
20
1.49999830744682
11
-48.6251625675374
21
5
97
0
75
0
76
1
52
0
41
0.0062
77
0
78
1
53
45
43
0
44
0
45
-0.0139193969876572
46
0.0139193969876572
79
0
47
0
98
1
10
0
20
0
0
HATCH
5
F3
100
AcDbEntity
8
SK2
62
256
6
ByLayer
370
13
48
1
60
0
100
AcDbHatch
10
0
20
0
30
0
210
0
220
0
230
1
2
ANSI31
70
0
71
0
91
1
92
5
93
3
72
1
10
-48.6251625675374
20
-5
11
-49.0859463090902
21
-1.50000169255318
72
1
10
-49.0859463090902
20
-1.50000169255318
11
-48.1643788259847
21
-1.49999830744682
72
1
10
-48.1643788259847
20
-1.49999830744682
11
-48.6251625675374
21
-5
97
0
75
0
76
1
52
0
41
0.0062
77
0
78
1
53
45
43
0
44
0
45
-0.0139193969876572
46
0.0139193969876572
79
0
47
0
98
1
10
0
20
0
0
HATCH
5
F9
100
AcDbEntity
8
2
62
256
6
ByLayer
370
13
48
1
60
0
100
AcDbHatch
10
0
20
0
30
0
210
0
220
0
230
1
2
ANSI31
70
0
71
0
91
1
92
5
93
3
72
1
10
61.083342615295
20
4.80000000000001
11
61.5441263568478
21
1.30000169255319
72
1
10
61.5441263568478
20
1.30000169255319
11
60.6225588737423
21
1.29999830744683
72
1
10
60.6225588737423
20
1.29999830744683
11
61.083342615295
21
4.80000000000001
97
0
75
0
76
1
52
0
41
0.0062
77
0
78
1
53
45
43
0
44
0
45
-0.0139193969876572
46
0.0139193969876572
79
0
47
0
98
1
10
0
20
0
0
HATCH
5
FD
100
AcDbEntity
8
2
62
256
6
ByLayer
370
13
48
1
60
0
100
AcDbHatch
10
0
20
0
30
0
210
0
220
0
230
1
2
ANSI31
70
0
71
0
91
1
92
5
93
3
72
1
10
61.083342615295
20
-4.79999999999998
11
60.6225588737423
21
-1.30000169255317
72
1
10
60.6225588737423
20
-1.30000169255317
11
61.5441263568478
21
-1.2999983074468
72
1
10
61.5441263568478
20
-1.2999983074468
11
61.083342615295
21
-4.79999999999998
97
0
75
0
76
1
52
0
41
0.0062
77
0
78
1
53
45
43
0
44
0
45
-0.0139193969876572
46
0.0139193969876572
79
0
47
0
98
1
10
0
20
0
0
DIMENSION
5
FF
100
AcDbEntity
8
SK2
62
256
6
ByLayer
370
13
48
1
60
0
100
AcDbDimension
2
_U0
10
47.5763
20
-15.013398
30
0
11
23.78815
21
-15.013398
31
0
70
32
71
1
72
1
41
1
210
0
220
0
230
1
3
Standard
100
AcDbAlignedDimension
13
0
23
0
33
0
14
47.5763
24
-4.8
34
0
50
0
100
AcDbRotatedDimension
1001
ACAD
1000
DSTYLE
1002
{
1070
   371
1070
    13
1070
   372
1070
    13
1070
   170
1070
     0
1070
   144
1040
1.0
1070
   277
1070
     2
1070
   278
1070
    44
1070
   146
1040
1.0
1070
   345
1005
16
1070
   347
1005
16
1070
   346
1005
16
1070
   344
1005
0
1070
   343
1005
0
1070
   172
1070
     1
1070
    76
1070
     0
1070
    75
1070
     0
1070
   282
1070
     0
1070
   281
1070
     0
1070
    71
1070
     0
1070
    74
1070
     0
1070
   279
1070
     0
1070
   173
1070
     1
1070
   340
1005
E7
1070
   271
1070
     2
1070
   272
1070
     2
1070
    77
1070
     1
1070
    73
1070
     1
1070
   171
1070
     3
1070
   274
1070
     4
1070
   177
1070
    35
1070
   176
1070
    35
1070
   178
1070
    35
1070
    48
1040
-0.1
1070
    41
1040
3.5
1070
   147
1040
1.75
1070
    42
1040
1.5875
1070
    44
1040
2.0
1070
   140
1040
3.5
1002
}
1001
ACAD_DSTYLE_DIM_LINETYPE
1070
   380
1005
16
1001
ACAD_DSTYLE_DIM_EXT1_LINETYPE
1070
   381
1005
16
1001
ACAD_DSTYLE_DIM_EXT2_LINETYPE
1070
   382
1005
16
0
DIMENSION
5
118
100
AcDbEntity
8
SK2
62
256
6
ByLayer
370
13
48
1
60
0
100
AcDbDimension
2
_U1
10
49
20
-33.692985
30
0
11
4.5
21
-33.692985
31
0
70
32
71
1
72
1
41
1
210
0
220
0
230
1
3
Standard
100
AcDbAlignedDimension
13
-40
23
-5
33
0
14
49
24
0
34
0
50
0
100
AcDbRotatedDimension
1001
ACAD
1000
DSTYLE
1002
{
1070
   371
1070
    13
1070
   372
1070
    13
1070
   170
1070
     0
1070
   144
1040
1.0
1070
   277
1070
     2
1070
   278
1070
    44
1070
   146
1040
1.0
1070
   345
1005
16
1070
   347
1005
16
1070
   346
1005
16
1070
   344
1005
0
1070
   343
1005
0
1070
   172
1070
     1
1070
    76
1070
     0
1070
    75
1070
     0
1070
   282
1070
     0
1070
   281
1070
     0
1070
    71
1070
     0
1070
    74
1070
     0
1070
   279
1070
     0
1070
   173
1070
     1
1070
   340
1005
E7
1070
   271
1070
     2
1070
   272
1070
     2
1070
    77
1070
     1
1070
    73
1070
     1
1070
   171
1070
     3
1070
   274
1070
     4
1070
   177
1070
    35
1070
   176
1070
    35
1070
   178
1070
    35
1070
    48
1040
-0.1
1070
    41
1040
3.5
1070
   147
1040
1.75
1070
    42
1040
1.5875
1070
    44
1040
2.0
1070
   140
1040
3.5
1002
}
1001
ACAD_DSTYLE_DIM_LINETYPE
1070
   380
1005
16
1001
ACAD_DSTYLE_DIM_EXT1_LINETYPE
1070
   381
1005
16
1001
ACAD_DSTYLE_DIM_EXT2_LINETYPE
1070
   382
1005
16
0
DIMENSION
5
130
100
AcDbEntity
8
SK2
62
256
6
ByLayer
370
13
48
1
60
0
100
AcDbDimension
2
_U2
10
49
20
16.409119
30
0
11
33.89
21
16.409119
31
0
70
32
71
1
72
1
41
1
210
0
220
0
230
1
3
Standard
100
AcDbAlignedDimension
13
18.78
23
4.8
33
0
14
49
24
0
34
0
50
0
100
AcDbRotatedDimension
1001
ACAD
1000
DSTYLE
1002
{
1070
   371
1070
    13
1070
   372
1070
    13
1070
   170
1070
     0
1070
   144
1040
1.0
1070
   277
1070
     2
1070
   278
1070
    44
1070
   146
1040
1.0
1070
   345
1005
16
1070
   347
1005
16
1070
   346
1005
16
1070
   344
1005
0
1070
   343
1005
0
1070
   172
1070
     1
1070
    76
1070
     0
1070
    75
1070
     0
1070
   282
1070
     0
1070
   281
1070
     0
1070
    71
1070
     0
1070
    74
1070
     0
1070
   279
1070
     0
1070
   173
1070
     1
1070
   340
1005
E7
1070
   271
1070
     2
1070
   272
1070
     2
1070
    77
1070
     1
1070
    73
1070
     1
1070
   171
1070
     3
1070
   274
1070
     4
1070
   177
1070
    35
1070
   176
1070
    35
1070
   178
1070
    35
1070
    48
1040
-0.1
1070
    41
1040
3.5
1070
   147
1040
1.75
1070
    42
1040
1.5875
1070
    44
1040
2.0
1070
   140
1040
3.5
1002
}
1001
ACAD_DSTYLE_DIM_LINETYPE
1070
   380
1005
16
1001
ACAD_DSTYLE_DIM_EXT1_LINETYPE
1070
   381
1005
16
1001
ACAD_DSTYLE_DIM_EXT2_LINETYPE
1070
   382
1005
16
0
DIMENSION
5
148
100
AcDbEntity
8
SK2
62
256
6
ByLayer
370
13
48
1
60
0
100
AcDbDimension
2
_U3
10
47.5763
20
-17.602503
30
0
11
66.333333
21
-17.602503
31
0
70
32
71
1
72
1
41
1
210
0
220
0
230
1
3
Standard
100
AcDbAlignedDimension
13
49
23
0
33
0
14
47.5763
24
-4.8
34
0
50
0
100
AcDbRotatedDimension
1001
ACAD
1000
DSTYLE
1002
{
1070
   371
1070
    13
1070
   372
1070
    13
1070
   170
1070
     0
1070
   144
1040
1.0
1070
   277
1070
     2
1070
   278
1070
    44
1070
   146
1040
1.0
1070
   345
1005
16
1070
   347
1005
16
1070
   346
1005
16
1070
   344
1005
0
1070
   343
1005
0
1070
   172
1070
     1
1070
    76
1070
     0
1070
    75
1070
     0
1070
   282
1070
     0
1070
   281
1070
     0
1070
    71
1070
     0
1070
    74
1070
     0
1070
   279
1070
     0
1070
   173
1070
     1
1070
   340
1005
E7
1070
   271
1070
     2
1070
   272
1070
     2
1070
    77
1070
     1
1070
    73
1070
     1
1070
   171
1070
     3
1070
   274
1070
     4
1070
   177
1070
    35
1070
   176
1070
    35
1070
   178
1070
    35
1070
    48
1040
-0.1
1070
    41
1040
3.5
1070
   147
1040
1.75
1070
    42
1040
1.5875
1070
    44
1040
2.0
1070
   140
1040
3.5
1002
}
1001
ACAD_DSTYLE_DIM_LINETYPE
1070
   380
1005
16
1001
ACAD_DSTYLE_DIM_EXT1_LINETYPE
1070
   381
1005
16
1001
ACAD_DSTYLE_DIM_EXT2_LINETYPE
1070
   382
1005
16
0
DIMENSION
5
162
100
AcDbEntity
8
SK2
62
256
6
ByLayer
370
13
48
1
60
0
100
AcDbDimension
2
_U4
10
47.5763
20
-23.343428
30
0
11
3.78815
21
-23.343428
31
0
70
32
71
1
72
1
41
1
210
0
220
0
230
1
3
Standard
100
AcDbAlignedDimension
13
-40
23
-5
33
0
14
47.5763
24
-4.8
34
0
50
0
100
AcDbRotatedDimension
1001
ACAD
1000
DSTYLE
1002
{
1070
   371
1070
    13
1070
   372
1070
    13
1070
   170
1070
     0
1070
   144
1040
1.0
1070
   277
1070
     2
1070
   278
1070
    44
1070
   146
1040
1.0
1070
   345
1005
16
1070
   347
1005
16
1070
   346
1005
16
1070
   344
1005
0
1070
   343
1005
0
1070
   172
1070
     1
1070
    76
1070
     0
1070
    75
1070
     0
1070
   282
1070
     0
1070
   281
1070
     0
1070
    71
1070
     0
1070
    74
1070
     0
1070
   279
1070
     0
1070
   173
1070
     1
1070
   340
1005
E7
1070
   271
1070
     2
1070
   272
1070
     2
1070
    77
1070
     1
1070
    73
1070
     1
1070
   171
1070
     3
1070
   274
1070
     4
1070
   177
1070
    35
1070
   176
1070
    35
1070
   178
1070
    35
1070
    48
1040
-0.1
1070
    41
1040
3.5
1070
   147
1040
1.75
1070
    42
1040
1.5875
1070
    44
1040
2.0
1070
   140
1040
3.5
1002
}
1001
ACAD_DSTYLE_DIM_LINETYPE
1070
   380
1005
16
1001
ACAD_DSTYLE_DIM_EXT1_LINETYPE
1070
   381
1005
16
1001
ACAD_DSTYLE_DIM_EXT2_LINETYPE
1070
   382
1005
16
0
ENDSEC
0
SECTION
2
OBJECTS
0
DICTIONARY
5
1ea
330
0
100
AcDbDictionary
280
0
281
1
3
ACAD_GROUP
350
1eb
3
ACAD_MLINESTYLE
350
1ec
0
DICTIONARY
5
1eb
330
0
100
AcDbDictionary
280
0
281
1
0
DICTIONARY
5
1ec
330
0
100
AcDbDictionary
280
0
281
1
3
Standard
350
18
0
MLINESTYLE
5
18
330
1ec
100
AcDbMlineStyle
2
Standard
70
0
3

62
256
51
90
52
90
71
2
49
-0.5
62
256
6
ByLayer
49
0.5
62
256
6
ByLayer
0
RASTERVARIABLES
5
1d8
330

100
AcDbRasterVariables
90
0
70
1
71
1
72
1
0
ENDSEC
0
EOF
