0
SECTION
2
HEADER
9
$ACADVER
1
AC1015
9
$DWGCODEPAGE
3
ANSI_1252
9
$HANDSEED
5
1f6
9
$ANGBASE
50
0
9
$ANGDIR
70
0
9
$ATTMODE
70
1
9
$AUNITS
70
0
9
$AUPREC
70
0
9
$CECOLOR
62
256
9
$CELTSCALE
40
1
9
$CELTYPE
6
ByLayer
9
$CELWEIGHT
370
18
9
$CLAYER
8
0
9
$CMLJUST
70
0
9
$CMLSCALE
40
1
9
$CMLSTYLE
2
Standard
9
$DIMSTYLE
2
Standard
9
$TEXTSIZE
40
0.2
9
$TEXTSTYLE
7
Standard
9
$LUNITS
70
2
9
$LUPREC
70
4
9
$EXTNAMES
290
1
9
$INSUNITS
70
4
9
$LTSCALE
40
1
9
$LWDISPLAY
290
1
9
$PDMODE
70
0
9
$PDSIZE
40
0
9
$PLINEGEN
70
0
0
ENDSEC
0
SECTION
2
CLASSES
0
CLASS
1
RASTERVARIABLES
2
AcDbRasterVariables
3
ISM
90
0
280
0
281
0
0
ENDSEC
0
SECTION
2
TABLES
0
TABLE
2
VPORT
5
1ec
100
AcDbSymbolTable
0
VPORT
5
1
100
AcDbSymbolTableRecord
100
AcDbViewportTableRecord
2
*Active
70
0
10
0
20
0
11
1
21
1
12
-1
22
1
13
0
23
0
14
0.5
24
0.5
15
10
25
10
16
0
26
0
36
1
17
0
27
0
37
0
0
ENDTAB
0
TABLE
2
LTYPE
5
1ed
100
AcDbSymbolTable
0
LTYPE
5
14
100
AcDbSymbolTableRecord
100
AcDbLinetypeTableRecord
70
0
2
ByBlock
3

72
65
73
0
40
0
0
LTYPE
5
15
100
AcDbSymbolTableRecord
100
AcDbLinetypeTableRecord
70
0
2
ByLayer
3

72
65
73
0
40
0
0
LTYPE
5
16
100
AcDbSymbolTableRecord
100
AcDbLinetypeTableRecord
70
0
2
Continuous
3
Solid line
72
65
73
0
40
0
0
LTYPE
5
6E
100
AcDbSymbolTableRecord
100
AcDbLinetypeTableRecord
70
0
2
CENTER
3
____ _ ____ _ ____ _ ____
72
65
73
4
40
47.5
49
22
74
0
49
-8.5
74
0
49
8.5
74
0
49
-8.5
74
0
0
LTYPE
5
6F
100
AcDbSymbolTableRecord
100
AcDbLinetypeTableRecord
70
0
2
DASHED
3
__ __ __ __ __ __ __ __ __
72
65
73
2
40
25.72
49
12.86
74
0
49
-12.86
74
0
0
ENDTAB
0
TABLE
2
LAYER
5
1ee
100
AcDbSymbolTable
0
LAYER
5
10
100
AcDbSymbolTableRecord
100
AcDbLayerTableRecord
2
0
70
0
62
7
6
Continuous
290
1
370
-3
390
0
0
LAYER
5
71
100
AcDbSymbolTableRecord
100
AcDbLayerTableRecord
2
80
70
0
62
-6
6
Continuous
290
1
370
-3
390
0
0
LAYER
5
73
100
AcDbSymbolTableRecord
100
AcDbLayerTableRecord
2
81
70
0
62
-3
6
Continuous
290
1
370
-3
390
0
0
LAYER
5
75
100
AcDbSymbolTableRecord
100
AcDbLayerTableRecord
2
1
70
0
62
4
6
Continuous
290
1
370
-3
390
0
0
LAYER
5
89
100
AcDbSymbolTableRecord
100
AcDbLayerTableRecord
2
4
70
0
62
-2
6
CENTER
290
1
370
-3
390
0
0
LAYER
5
A0
100
AcDbSymbolTableRecord
100
AcDbLayerTableRecord
2
2
70
0
62
7
6
Continuous
290
1
370
-3
390
0
0
LAYER
5
101
100
AcDbSymbolTableRecord
100
AcDbLayerTableRecord
2
Defpoints
70
0
62
7
6
Continuous
290
0
370
-3
390
0
0
LAYER
5
1d8
100
AcDbSymbolTableRecord
100
AcDbLayerTableRecord
2
SK1
70
0
62
4
6
Continuous
290
1
370
-3
390
0
0
LAYER
5
1d9
100
AcDbSymbolTableRecord
100
AcDbLayerTableRecord
2
SK4
70
0
62
2
6
CENTER
290
1
370
-3
390
0
0
LAYER
5
1da
100
AcDbSymbolTableRecord
100
AcDbLayerTableRecord
2
SK2
70
0
62
7
6
Continuous
290
1
370
-3
390
0
0
LAYER
5
1db
100
AcDbSymbolTableRecord
100
AcDbLayerTableRecord
2
SK6
70
0
62
5
6
Continuous
290
1
370
-3
390
0
0
ENDTAB
0
TABLE
2
STYLE
5
1ef
100
AcDbSymbolTable
0
STYLE
5
11
100
AcDbSymbolTableRecord
100
AcDbTextStyleTableRecord
2
Standard
3
txt
70
0
71
0
40
0
41
1
42
0
50
0
0
STYLE
5
E6
100
AcDbSymbolTableRecord
100
AcDbTextStyleTableRecord
2
iso_b_vert
3
simplex.shx
70
0
71
0
40
0
41
1
42
0
50
0
0
STYLE
5
E7
100
AcDbSymbolTableRecord
100
AcDbTextStyleTableRecord
2
DWGDirectTextStyle
3
simplex
70
0
71
0
40
0
41
1
42
0
50
0
0
ENDTAB
0
TABLE
2
DIMSTYLE
5
1f0
100
AcDbSymbolTable
100
AcDbDimStyleTable
0
DIMSTYLE
105
27
100
AcDbSymbolTableRecord
100
AcDbDimStyleTableRecord
2
Standard
70
0
3
<>
41
0.18
42
0.0625
44
0.18
140
0.18
147
0.09
73
0
74
0
77
1
271
2
275
0
278
52
280
0
340
11
0
ENDTAB
0
TABLE
2
VIEW
5
1f1
100
AcDbSymbolTable
0
ENDTAB
0
TABLE
2
UCS
5
1f2
100
AcDbSymbolTable
0
ENDTAB
0
TABLE
2
APPID
5
1f3
100
AcDbSymbolTable
0
APPID
5
12
100
AcDbSymbolTableRecord
100
AcDbRegAppTableRecord
2
ACAD
70
0
0
APPID
5
FD
100
AcDbSymbolTableRecord
100
AcDbRegAppTableRecord
2
ACAD_DSTYLE_DIMBREAK
70
0
0
APPID
5
197
100
AcDbSymbolTableRecord
100
AcDbRegAppTableRecord
2
ACAD_DSTYLE_DIM_LINETYPE
70
0
0
APPID
5
198
100
AcDbSymbolTableRecord
100
AcDbRegAppTableRecord
2
ACAD_DSTYLE_DIM_EXT1_LINETYPE
70
0
0
APPID
5
199
100
AcDbSymbolTableRecord
100
AcDbRegAppTableRecord
2
ACAD_DSTYLE_DIM_EXT2_LINETYPE
70
0
0
APPID
5
1D4
100
AcDbSymbolTableRecord
100
AcDbRegAppTableRecord
2
ACAD_MLEADERVER
70
0
0
ENDTAB
0
TABLE
2
BLOCK_RECORD
5
1f4
100
AcDbSymbolTable
0
BLOCK_RECORD
5
1F
100
AcDbSymbolTableRecord
100
AcDbBlockTableRecord
2
*Model_Space
340
0
70
0
0
BLOCK_RECORD
5
1B
100
AcDbSymbolTableRecord
100
AcDbBlockTableRecord
2
*Paper_Space
340
0
70
0
0
BLOCK_RECORD
5
23
100
AcDbSymbolTableRecord
100
AcDbBlockTableRecord
2
*Paper_Space0
340
0
70
0
0
BLOCK_RECORD
5
102
100
AcDbSymbolTableRecord
100
AcDbBlockTableRecord
2
*D1
340
0
70
0
0
BLOCK_RECORD
5
10E
100
AcDbSymbolTableRecord
100
AcDbBlockTableRecord
2
_U0
340
0
70
0
0
BLOCK_RECORD
5
11A
100
AcDbSymbolTableRecord
100
AcDbBlockTableRecord
2
*D3
340
0
70
0
0
BLOCK_RECORD
5
126
100
AcDbSymbolTableRecord
100
AcDbBlockTableRecord
2
_U1
340
0
70
0
0
BLOCK_RECORD
5
132
100
AcDbSymbolTableRecord
100
AcDbBlockTableRecord
2
*D5
340
0
70
0
0
BLOCK_RECORD
5
13E
100
AcDbSymbolTableRecord
100
AcDbBlockTableRecord
2
_U2
340
0
70
0
0
BLOCK_RECORD
5
14A
100
AcDbSymbolTableRecord
100
AcDbBlockTableRecord
2
*D7
340
0
70
0
0
BLOCK_RECORD
5
158
100
AcDbSymbolTableRecord
100
AcDbBlockTableRecord
2
_U3
340
0
70
0
0
BLOCK_RECORD
5
164
100
AcDbSymbolTableRecord
100
AcDbBlockTableRecord
2
*D9
340
0
70
0
0
BLOCK_RECORD
5
170
100
AcDbSymbolTableRecord
100
AcDbBlockTableRecord
2
_U4
340
0
70
0
0
ENDTAB
0
ENDSEC
0
SECTION
2
BLOCKS
0
BLOCK
5
20
100
AcDbEntity
8
0
100
AcDbBlockBegin
2
*Model_Space
70
0
10
0
20
0
30
0
3
*Model_Space
0
ENDBLK
5
21
100
AcDbEntity
8
0
100
AcDbBlockEnd
0
BLOCK
5
1C
100
AcDbEntity
8
0
100
AcDbBlockBegin
2
*Paper_Space
70
0
10
0
20
0
30
0
3
*Paper_Space
0
ENDBLK
5
1D
100
AcDbEntity
8
0
100
AcDbBlockEnd
0
BLOCK
5
24
100
AcDbEntity
8
0
100
AcDbBlockBegin
2
*Paper_Space0
70
0
10
0
20
0
30
0
3
*Paper_Space0
0
ENDBLK
5
25
100
AcDbEntity
8
0
100
AcDbBlockEnd
0
BLOCK
5
103
100
AcDbEntity
8
0
100
AcDbBlockBegin
2
*D1
70
1
10
0
20
0
30
0
3
*D1
0
LINE
5
105
100
AcDbEntity
8
0
62
256
6
ByLayer
370
-2
48
1
60
0
100
AcDbLine
10
0
20
-1.5875
30
0
11
0
21
-16.538398
31
0
39
0
210
0
220
0
230
1
0
LINE
5
106
100
AcDbEntity
8
0
62
256
6
ByLayer
370
-2
48
1
60
0
100
AcDbLine
10
47.7194
20
-5.9125
30
0
11
47.7194
21
-16.538398
31
0
39
0
210
0
220
0
230
1
0
LINE
5
107
100
AcDbEntity
8
0
62
256
6
ByLayer
370
-2
48
1
60
0
100
AcDbLine
10
3.5
20
-14.538398
30
0
11
44.2194
21
-14.538398
31
0
39
0
210
0
220
0
230
1
0
SOLID
5
108
100
AcDbEntity
8
0
62
256
6
ByLayer
370
-1
48
1
60
0
100
AcDbTrace
10
3.5
20
-13.955065
30
0
11
3.5
21
-15.121732
31
0
12
0
22
-14.538398
32
0
13
0
23
-14.538398
33
0
39
0
210
0
220
0
230
1
0
SOLID
5
109
100
AcDbEntity
8
0
62
256
6
ByLayer
370
-1
48
1
60
0
100
AcDbTrace
10
44.2194
20
-15.121732
30
0
11
44.2194
21
-13.955065
31
0
12
47.7194
22
-14.538398
32
0
13
47.7194
23
-14.538398
33
0
39
0
210
0
220
0
230
1
0
MTEXT
5
10A
100
AcDbEntity
8
0
62
256
6
ByLayer
370
18
48
1
60
0
100
AcDbMText
10
23.8597
20
-7.538398
30
0
210
0
220
0
230
1
1
\A1;47.72
40
3.5
41
0
44
1
50
0
71
5
72
5
7
iso_b_vert
0
POINT
5
10B
100
AcDbEntity
8
Defpoints
62
0
6
ByLayer
370
-1
48
1
60
0
100
AcDbPoint
10
0
20
0
30
0
39
0
210
0
220
0
230
1
50
360
0
POINT
5
10C
100
AcDbEntity
8
Defpoints
62
0
6
ByLayer
370
-1
48
1
60
0
100
AcDbPoint
10
47.7194
20
-4.325
30
0
39
0
210
0
220
0
230
1
50
360
0
POINT
5
10D
100
AcDbEntity
8
Defpoints
62
0
6
ByLayer
370
-1
48
1
60
0
100
AcDbPoint
10
47.7194
20
-14.538398
30
0
39
0
210
0
220
0
230
1
50
360
0
ENDBLK
5
104
100
AcDbEntity
8
0
100
AcDbBlockEnd
0
BLOCK
5
115
100
AcDbEntity
8
0
100
AcDbBlockBegin
2
_U0
70
0
10
0
20
0
30
0
3
_U0
0
MTEXT
5
10F
100
AcDbEntity
8
SK2
62
256
6
ByLayer
370
13
48
1
60
0
100
AcDbMText
10
18.538135
20
-13.505765
30
0
210
0
220
0
230
1
1
\W0.7581;47,72
40
3.5
41
0
44
1.084337
50
0
71
7
72
5
7
iso_b_vert
0
LINE
5
110
100
AcDbEntity
8
SK2
62
256
6
ByLayer
370
13
48
1
60
0
100
AcDbLine
10
0
20
-1.5875
30
0
11
0
21
-16.538398
31
0
39
0
210
0
220
0
230
1
0
LINE
5
111
100
AcDbEntity
8
SK2
62
256
6
ByLayer
370
13
48
1
60
0
100
AcDbLine
10
47.7194
20
-5.9125
30
0
11
47.7194
21
-16.538398
31
0
39
0
210
0
220
0
230
1
0
LINE
5
112
100
AcDbEntity
8
SK2
62
256
6
ByLayer
370
13
48
1
60
0
100
AcDbLine
10
0
20
-14.538398
30
0
11
47.7194
21
-14.538398
31
0
39
0
210
0
220
0
230
1
0
SOLID
5
113
100
AcDbEntity
8
SK2
62
256
6
ByLayer
370
18
48
1
60
0
100
AcDbTrace
10
0
20
-14.538398
30
0
11
3.499998
21
-14.077615
31
0
12
3.500002
22
-14.999182
32
0
13
3.500002
23
-14.999182
33
0
39
0
210
0
220
0
230
1
0
SOLID
5
114
100
AcDbEntity
8
SK2
62
256
6
ByLayer
370
18
48
1
60
0
100
AcDbTrace
10
47.7194
20
-14.538398
30
0
11
44.219402
21
-14.999182
31
0
12
44.219398
22
-14.077615
32
0
13
44.219398
23
-14.077615
33
0
39
0
210
0
220
0
230
1
0
ENDBLK
5
116
100
AcDbEntity
8
0
100
AcDbBlockEnd
0
BLOCK
5
11B
100
AcDbEntity
8
0
100
AcDbBlockBegin
2
*D3
70
1
10
0
20
0
30
0
3
*D3
0
LINE
5
11D
100
AcDbEntity
8
0
62
256
6
ByLayer
370
-2
48
1
60
0
100
AcDbLine
10
-40
20
-6.5875
30
0
11
-40
21
-35.692985
31
0
39
0
210
0
220
0
230
1
0
LINE
5
11E
100
AcDbEntity
8
0
62
256
6
ByLayer
370
-2
48
1
60
0
100
AcDbLine
10
49
20
-1.5875
30
0
11
49
21
-35.692985
31
0
39
0
210
0
220
0
230
1
0
LINE
5
11F
100
AcDbEntity
8
0
62
256
6
ByLayer
370
-2
48
1
60
0
100
AcDbLine
10
-36.5
20
-33.692985
30
0
11
45.5
21
-33.692985
31
0
39
0
210
0
220
0
230
1
0
SOLID
5
120
100
AcDbEntity
8
0
62
256
6
ByLayer
370
-1
48
1
60
0
100
AcDbTrace
10
-36.5
20
-33.109652
30
0
11
-36.5
21
-34.276319
31
0
12
-40
22
-33.692985
32
0
13
-40
23
-33.692985
33
0
39
0
210
0
220
0
230
1
0
SOLID
5
121
100
AcDbEntity
8
0
62
256
6
ByLayer
370
-1
48
1
60
0
100
AcDbTrace
10
45.5
20
-34.276319
30
0
11
45.5
21
-33.109652
31
0
12
49
22
-33.692985
32
0
13
49
23
-33.692985
33
0
39
0
210
0
220
0
230
1
0
MTEXT
5
122
100
AcDbEntity
8
0
62
256
6
ByLayer
370
18
48
1
60
0
100
AcDbMText
10
4.5
20
-26.692985
30
0
210
0
220
0
230
1
1
\A1;89.00
40
3.5
41
0
44
1
50
0
71
5
72
5
7
iso_b_vert
0
POINT
5
123
100
AcDbEntity
8
Defpoints
62
0
6
ByLayer
370
-1
48
1
60
0
100
AcDbPoint
10
-40
20
-5
30
0
39
0
210
0
220
0
230
1
50
360
0
POINT
5
124
100
AcDbEntity
8
Defpoints
62
0
6
ByLayer
370
-1
48
1
60
0
100
AcDbPoint
10
49
20
0
30
0
39
0
210
0
220
0
230
1
50
360
0
POINT
5
125
100
AcDbEntity
8
Defpoints
62
0
6
ByLayer
370
-1
48
1
60
0
100
AcDbPoint
10
49
20
-33.692985
30
0
39
0
210
0
220
0
230
1
50
360
0
ENDBLK
5
11C
100
AcDbEntity
8
0
100
AcDbBlockEnd
0
BLOCK
5
12D
100
AcDbEntity
8
0
100
AcDbBlockBegin
2
_U1
70
0
10
0
20
0
30
0
3
_U1
0
MTEXT
5
127
100
AcDbEntity
8
SK2
62
256
6
ByLayer
370
13
48
1
60
0
100
AcDbMText
10
-0.637299
20
-32.660352
30
0
210
0
220
0
230
1
1
\W0.7317;89,00
40
3.5
41
0
44
1.084337
50
0
71
7
72
5
7
iso_b_vert
0
LINE
5
128
100
AcDbEntity
8
SK2
62
256
6
ByLayer
370
13
48
1
60
0
100
AcDbLine
10
-40
20
-6.5875
30
0
11
-40
21
-35.692985
31
0
39
0
210
0
220
0
230
1
0
LINE
5
129
100
AcDbEntity
8
SK2
62
256
6
ByLayer
370
13
48
1
60
0
100
AcDbLine
10
49
20
-1.5875
30
0
11
49
21
-35.692985
31
0
39
0
210
0
220
0
230
1
0
LINE
5
12A
100
AcDbEntity
8
SK2
62
256
6
ByLayer
370
13
48
1
60
0
100
AcDbLine
10
-40
20
-33.692985
30
0
11
49
21
-33.692985
31
0
39
0
210
0
220
0
230
1
0
SOLID
5
12B
100
AcDbEntity
8
SK2
62
256
6
ByLayer
370
18
48
1
60
0
100
AcDbTrace
10
-40
20
-33.692985
30
0
11
-36.500002
21
-33.232202
31
0
12
-36.499998
22
-34.153769
32
0
13
-36.499998
23
-34.153769
33
0
39
0
210
0
220
0
230
1
0
SOLID
5
12C
100
AcDbEntity
8
SK2
62
256
6
ByLayer
370
18
48
1
60
0
100
AcDbTrace
10
49
20
-33.692985
30
0
11
45.500002
21
-34.153769
31
0
12
45.499998
22
-33.232202
32
0
13
45.499998
23
-33.232202
33
0
39
0
210
0
220
0
230
1
0
ENDBLK
5
12E
100
AcDbEntity
8
0
100
AcDbBlockEnd
0
BLOCK
5
133
100
AcDbEntity
8
0
100
AcDbBlockBegin
2
*D5
70
1
10
0
20
0
30
0
3
*D5
0
LINE
5
135
100
AcDbEntity
8
0
62
256
6
ByLayer
370
-2
48
1
60
0
100
AcDbLine
10
21.77
20
5.9125
30
0
11
21.77
21
17.934119
31
0
39
0
210
0
220
0
230
1
0
LINE
5
136
100
AcDbEntity
8
0
62
256
6
ByLayer
370
-2
48
1
60
0
100
AcDbLine
10
49
20
1.5875
30
0
11
49
21
17.934119
31
0
39
0
210
0
220
0
230
1
0
LINE
5
137
100
AcDbEntity
8
0
62
256
6
ByLayer
370
-2
48
1
60
0
100
AcDbLine
10
25.27
20
15.934119
30
0
11
45.5
21
15.934119
31
0
39
0
210
0
220
0
230
1
0
SOLID
5
138
100
AcDbEntity
8
0
62
256
6
ByLayer
370
-1
48
1
60
0
100
AcDbTrace
10
25.27
20
16.517453
30
0
11
25.27
21
15.350786
31
0
12
21.77
22
15.934119
32
0
13
21.77
23
15.934119
33
0
39
0
210
0
220
0
230
1
0
SOLID
5
139
100
AcDbEntity
8
0
62
256
6
ByLayer
370
-1
48
1
60
0
100
AcDbTrace
10
45.5
20
15.350786
30
0
11
45.5
21
16.517453
31
0
12
49
22
15.934119
32
0
13
49
23
15.934119
33
0
39
0
210
0
220
0
230
1
0
MTEXT
5
13A
100
AcDbEntity
8
0
62
256
6
ByLayer
370
18
48
1
60
0
100
AcDbMText
10
35.385
20
22.934119
30
0
210
0
220
0
230
1
1
\A1;27.23
40
3.5
41
0
44
1
50
0
71
5
72
5
7
iso_b_vert
0
POINT
5
13B
100
AcDbEntity
8
Defpoints
62
0
6
ByLayer
370
-1
48
1
60
0
100
AcDbPoint
10
21.77
20
4.325
30
0
39
0
210
0
220
0
230
1
50
360
0
POINT
5
13C
100
AcDbEntity
8
Defpoints
62
0
6
ByLayer
370
-1
48
1
60
0
100
AcDbPoint
10
49
20
0
30
0
39
0
210
0
220
0
230
1
50
360
0
POINT
5
13D
100
AcDbEntity
8
Defpoints
62
0
6
ByLayer
370
-1
48
1
60
0
100
AcDbPoint
10
49
20
15.934119
30
0
39
0
210
0
220
0
230
1
50
360
0
ENDBLK
5
134
100
AcDbEntity
8
0
100
AcDbBlockEnd
0
BLOCK
5
145
100
AcDbEntity
8
0
100
AcDbBlockBegin
2
_U2
70
0
10
0
20
0
30
0
3
_U2
0
MTEXT
5
13F
100
AcDbEntity
8
SK2
62
256
6
ByLayer
370
13
48
1
60
0
100
AcDbMText
10
30.247701
20
16.966753
30
0
210
0
220
0
230
1
1
\W0.7317;27,23
40
3.5
41
0
44
1.084337
50
0
71
7
72
5
7
iso_b_vert
0
LINE
5
140
100
AcDbEntity
8
SK2
62
256
6
ByLayer
370
13
48
1
60
0
100
AcDbLine
10
21.77
20
5.9125
30
0
11
21.77
21
17.934119
31
0
39
0
210
0
220
0
230
1
0
LINE
5
141
100
AcDbEntity
8
SK2
62
256
6
ByLayer
370
13
48
1
60
0
100
AcDbLine
10
49
20
1.5875
30
0
11
49
21
17.934119
31
0
39
0
210
0
220
0
230
1
0
LINE
5
142
100
AcDbEntity
8
SK2
62
256
6
ByLayer
370
13
48
1
60
0
100
AcDbLine
10
21.77
20
15.934119
30
0
11
49
21
15.934119
31
0
39
0
210
0
220
0
230
1
0
SOLID
5
143
100
AcDbEntity
8
SK2
62
256
6
ByLayer
370
18
48
1
60
0
100
AcDbTrace
10
21.77
20
15.934119
30
0
11
25.269998
21
16.394903
31
0
12
25.270002
22
15.473335
32
0
13
25.270002
23
15.473335
33
0
39
0
210
0
220
0
230
1
0
SOLID
5
144
100
AcDbEntity
8
SK2
62
256
6
ByLayer
370
18
48
1
60
0
100
AcDbTrace
10
49
20
15.934119
30
0
11
45.500002
21
15.473335
31
0
12
45.499998
22
16.394903
32
0
13
45.499998
23
16.394903
33
0
39
0
210
0
220
0
230
1
0
ENDBLK
5
146
100
AcDbEntity
8
0
100
AcDbBlockEnd
0
BLOCK
5
14B
100
AcDbEntity
8
0
100
AcDbBlockBegin
2
*D7
70
1
10
0
20
0
30
0
3
*D7
0
LINE
5
14D
100
AcDbEntity
8
0
62
256
6
ByLayer
370
-2
48
1
60
0
100
AcDbLine
10
49
20
-1.5875
30
0
11
49
21
-19.127503
31
0
39
0
210
0
220
0
230
1
0
LINE
5
14E
100
AcDbEntity
8
0
62
256
6
ByLayer
370
-2
48
1
60
0
100
AcDbLine
10
47.7194
20
-5.9125
30
0
11
47.7194
21
-19.127503
31
0
39
0
210
0
220
0
230
1
0
LINE
5
14F
100
AcDbEntity
8
0
62
256
6
ByLayer
370
-2
48
1
60
0
100
AcDbLine
10
49
20
-17.127503
30
0
11
76.666667
21
-17.127503
31
0
39
0
210
0
220
0
230
1
0
LINE
5
150
100
AcDbEntity
8
0
62
256
6
ByLayer
370
-2
48
1
60
0
100
AcDbLine
10
52.5
20
-17.127503
30
0
11
56
21
-17.127503
31
0
39
0
210
0
220
0
230
1
0
LINE
5
151
100
AcDbEntity
8
0
62
256
6
ByLayer
370
-2
48
1
60
0
100
AcDbLine
10
44.2194
20
-17.127503
30
0
11
40.7194
21
-17.127503
31
0
39
0
210
0
220
0
230
1
0
SOLID
5
152
100
AcDbEntity
8
0
62
256
6
ByLayer
370
-1
48
1
60
0
100
AcDbTrace
10
52.5
20
-16.54417
30
0
11
52.5
21
-17.710837
31
0
12
49
22
-17.127503
32
0
13
49
23
-17.127503
33
0
39
0
210
0
220
0
230
1
0
SOLID
5
153
100
AcDbEntity
8
0
62
256
6
ByLayer
370
-1
48
1
60
0
100
AcDbTrace
10
44.2194
20
-17.710837
30
0
11
44.2194
21
-16.54417
31
0
12
47.7194
22
-17.127503
32
0
13
47.7194
23
-17.127503
33
0
39
0
210
0
220
0
230
1
0
MTEXT
5
154
100
AcDbEntity
8
0
62
256
6
ByLayer
370
18
48
1
60
0
100
AcDbMText
10
66.333333
20
-10.127503
30
0
210
0
220
0
230
1
1
\A1;1.28
40
3.5
41
0
44
1
50
0
71
5
72
5
7
iso_b_vert
0
POINT
5
155
100
AcDbEntity
8
Defpoints
62
0
6
ByLayer
370
-1
48
1
60
0
100
AcDbPoint
10
49
20
0
30
0
39
0
210
0
220
0
230
1
50
360
0
POINT
5
156
100
AcDbEntity
8
Defpoints
62
0
6
ByLayer
370
-1
48
1
60
0
100
AcDbPoint
10
47.7194
20
-4.325
30
0
39
0
210
0
220
0
230
1
50
360
0
POINT
5
157
100
AcDbEntity
8
Defpoints
62
0
6
ByLayer
370
-1
48
1
60
0
100
AcDbPoint
10
47.7194
20
-17.127503
30
0
39
0
210
0
220
0
230
1
50
360
0
ENDBLK
5
14C
100
AcDbEntity
8
0
100
AcDbBlockEnd
0
BLOCK
5
15F
100
AcDbEntity
8
0
100
AcDbBlockBegin
2
_U3
70
0
10
0
20
0
30
0
3
_U3
0
MTEXT
5
159
100
AcDbEntity
8
SK2
62
256
6
ByLayer
370
13
48
1
60
0
100
AcDbMText
10
55.589293
20
-16.09487
30
0
210
0
220
0
230
1
1
\W0.6367;1,28
40
3.5
41
0
44
1.084337
50
0
71
7
72
5
7
iso_b_vert
0
LINE
5
15A
100
AcDbEntity
8
SK2
62
256
6
ByLayer
370
13
48
1
60
0
100
AcDbLine
10
49
20
-1.5875
30
0
11
49
21
-19.127503
31
0
39
0
210
0
220
0
230
1
0
LINE
5
15B
100
AcDbEntity
8
SK2
62
256
6
ByLayer
370
13
48
1
60
0
100
AcDbLine
10
47.7194
20
-5.9125
30
0
11
47.7194
21
-19.127503
31
0
39
0
210
0
220
0
230
1
0
LINE
5
15C
100
AcDbEntity
8
SK2
62
256
6
ByLayer
370
13
48
1
60
0
100
AcDbLine
10
38.9694
20
-17.127503
30
0
11
62.559058
21
-17.127503
31
0
39
0
210
0
220
0
230
1
0
SOLID
5
15D
100
AcDbEntity
8
SK2
62
256
6
ByLayer
370
18
48
1
60
0
100
AcDbTrace
10
49
20
-17.127503
30
0
11
52.499998
21
-16.666719
31
0
12
52.500002
22
-17.588287
32
0
13
52.500002
23
-17.588287
33
0
39
0
210
0
220
0
230
1
0
SOLID
5
15E
100
AcDbEntity
8
SK2
62
256
6
ByLayer
370
18
48
1
60
0
100
AcDbTrace
10
47.7194
20
-17.127503
30
0
11
44.219402
21
-17.588287
31
0
12
44.219398
22
-16.666719
32
0
13
44.219398
23
-16.666719
33
0
39
0
210
0
220
0
230
1
0
ENDBLK
5
160
100
AcDbEntity
8
0
100
AcDbBlockEnd
0
BLOCK
5
165
100
AcDbEntity
8
0
100
AcDbBlockBegin
2
*D9
70
1
10
0
20
0
30
0
3
*D9
0
LINE
5
167
100
AcDbEntity
8
0
62
256
6
ByLayer
370
-2
48
1
60
0
100
AcDbLine
10
-40
20
-6.5875
30
0
11
-40
21
-25.343428
31
0
39
0
210
0
220
0
230
1
0
LINE
5
168
100
AcDbEntity
8
0
62
256
6
ByLayer
370
-2
48
1
60
0
100
AcDbLine
10
47.7194
20
-5.9125
30
0
11
47.7194
21
-25.343428
31
0
39
0
210
0
220
0
230
1
0
LINE
5
169
100
AcDbEntity
8
0
62
256
6
ByLayer
370
-2
48
1
60
0
100
AcDbLine
10
-36.5
20
-23.343428
30
0
11
44.2194
21
-23.343428
31
0
39
0
210
0
220
0
230
1
0
SOLID
5
16A
100
AcDbEntity
8
0
62
256
6
ByLayer
370
-1
48
1
60
0
100
AcDbTrace
10
-36.5
20
-22.760095
30
0
11
-36.5
21
-23.926762
31
0
12
-40
22
-23.343428
32
0
13
-40
23
-23.343428
33
0
39
0
210
0
220
0
230
1
0
SOLID
5
16B
100
AcDbEntity
8
0
62
256
6
ByLayer
370
-1
48
1
60
0
100
AcDbTrace
10
44.2194
20
-23.926762
30
0
11
44.2194
21
-22.760095
31
0
12
47.7194
22
-23.343428
32
0
13
47.7194
23
-23.343428
33
0
39
0
210
0
220
0
230
1
0
MTEXT
5
16C
100
AcDbEntity
8
0
62
256
6
ByLayer
370
18
48
1
60
0
100
AcDbMText
10
3.8597
20
-16.343428
30
0
210
0
220
0
230
1
1
\A1;87.72
40
3.5
41
0
44
1
50
0
71
5
72
5
7
iso_b_vert
0
POINT
5
16D
100
AcDbEntity
8
Defpoints
62
0
6
ByLayer
370
-1
48
1
60
0
100
AcDbPoint
10
-40
20
-5
30
0
39
0
210
0
220
0
230
1
50
360
0
POINT
5
16E
100
AcDbEntity
8
Defpoints
62
0
6
ByLayer
370
-1
48
1
60
0
100
AcDbPoint
10
47.7194
20
-4.325
30
0
39
0
210
0
220
0
230
1
50
360
0
POINT
5
16F
100
AcDbEntity
8
Defpoints
62
0
6
ByLayer
370
-1
48
1
60
0
100
AcDbPoint
10
47.7194
20
-23.343428
30
0
39
0
210
0
220
0
230
1
50
360
0
ENDBLK
5
166
100
AcDbEntity
8
0
100
AcDbBlockEnd
0
BLOCK
5
177
100
AcDbEntity
8
0
100
AcDbBlockBegin
2
_U4
70
0
10
0
20
0
30
0
3
_U4
0
MTEXT
5
171
100
AcDbEntity
8
SK2
62
256
6
ByLayer
370
13
48
1
60
0
100
AcDbMText
10
-1.277599
20
-22.310795
30
0
210
0
220
0
230
1
1
\W0.7317;87,72
40
3.5
41
0
44
1.084337
50
0
71
7
72
5
7
iso_b_vert
0
LINE
5
172
100
AcDbEntity
8
SK2
62
256
6
ByLayer
370
13
48
1
60
0
100
AcDbLine
10
-40
20
-6.5875
30
0
11
-40
21
-25.343428
31
0
39
0
210
0
220
0
230
1
0
LINE
5
173
100
AcDbEntity
8
SK2
62
256
6
ByLayer
370
13
48
1
60
0
100
AcDbLine
10
47.7194
20
-5.9125
30
0
11
47.7194
21
-25.343428
31
0
39
0
210
0
220
0
230
1
0
LINE
5
174
100
AcDbEntity
8
SK2
62
256
6
ByLayer
370
13
48
1
60
0
100
AcDbLine
10
-40
20
-23.343428
30
0
11
47.7194
21
-23.343428
31
0
39
0
210
0
220
0
230
1
0
SOLID
5
175
100
AcDbEntity
8
SK2
62
256
6
ByLayer
370
18
48
1
60
0
100
AcDbTrace
10
-40
20
-23.343428
30
0
11
-36.500002
21
-22.882645
31
0
12
-36.499998
22
-23.804212
32
0
13
-36.499998
23
-23.804212
33
0
39
0
210
0
220
0
230
1
0
SOLID
5
176
100
AcDbEntity
8
SK2
62
256
6
ByLayer
370
18
48
1
60
0
100
AcDbTrace
10
47.7194
20
-23.343428
30
0
11
44.219402
21
-23.804212
31
0
12
44.219398
22
-22.882645
32
0
13
44.219398
23
-22.882645
33
0
39
0
210
0
220
0
230
1
0
ENDBLK
5
178
100
AcDbEntity
8
0
100
AcDbBlockEnd
0
ENDSEC
0
SECTION
2
ENTITIES
0
ARC
5
A9
100
AcDbEntity
8
1
62
256
6
ByLayer
370
18
48
1
60
0
100
AcDbCircle
39
0
10
0
20
-4.2
30
0
40
0.8
210
0
220
0
230
1
100
AcDbArc
50
270
51
325.943435
0
ARC
5
AA
100
AcDbEntity
8
1
62
256
6
ByLayer
370
18
48
1
60
0
100
AcDbCircle
39
0
10
1.325576
20
5.096018
30
0
40
0.8
210
0
220
0
230
1
100
AcDbArc
50
214.056565
51
270.03581
0
ARC
5
AB
100
AcDbEntity
8
1
62
256
6
ByLayer
370
18
48
1
60
0
100
AcDbCircle
39
0
10
1.325576
20
-5.096018
30
0
40
0.8
210
0
220
0
230
1
100
AcDbArc
50
89.96419
51
145.943435
0
ARC
5
AC
100
AcDbEntity
8
1
62
256
6
ByLayer
370
18
48
1
60
0
100
AcDbCircle
39
0
10
0
20
4.2
30
0
40
0.8
210
0
220
0
230
1
100
AcDbArc
50
34.056565
51
90
0
ELLIPSE
5
AD
100
AcDbEntity
8
1
62
256
6
ByLayer
370
13
48
1
60
0
100
AcDbEllipse
10
4.184606
20
1.089843
30
0
11
-0.0504044139094451
21
-0.0863677894729588
31
0
210
0
220
0
230
1
40
0.285387
41
-1.13572185862045
42
-0.704459591114872
0
ELLIPSE
5
AE
100
AcDbEntity
8
1
62
256
6
ByLayer
370
18
48
1
60
0
100
AcDbEllipse
10
4.25
20
4.332177
30
0
11
0.25
21
0
31
0
210
0
220
0
230
1
40
0.999993
41
-2.96821743968854
42
-1.56726003297495
0
ELLIPSE
5
AF
100
AcDbEntity
8
1
62
256
6
ByLayer
370
18
48
1
60
0
100
AcDbEllipse
10
4.25
20
-4.332177
30
0
11
0.25
21
0
31
0
210
0
220
0
230
1
40
0.999993
41
1.56922087930524
42
2.9677203362956
0
POINT
5
70
100
AcDbEntity
8
80
62
256
6
ByLayer
370
18
48
1
60
0
100
AcDbPoint
10
0
20
0
30
0
39
0
210
0
220
0
230
1
50
360
0
POINT
5
72
100
AcDbEntity
8
81
62
256
6
ByLayer
370
18
48
1
60
0
100
AcDbPoint
10
49
20
0
30
0
39
0
210
0
220
0
230
1
50
360
0
POINT
5
74
100
AcDbEntity
8
1
62
256
6
ByLayer
370
18
48
1
60
1
100
AcDbPoint
10
47.7194
20
-4.325
30
0
39
0
210
0
220
0
230
1
50
360
0
POINT
5
76
100
AcDbEntity
8
1
62
256
6
ByLayer
370
18
48
1
60
1
100
AcDbPoint
10
-40
20
-5
30
0
39
0
210
0
220
0
230
1
50
360
0
POINT
5
77
100
AcDbEntity
8
1
62
256
6
ByLayer
370
18
48
1
60
1
100
AcDbPoint
10
21.77
20
4.325
30
0
39
0
210
0
220
0
230
1
50
360
0
POINT
5
78
100
AcDbEntity
8
1
62
256
6
ByLayer
370
18
48
1
60
1
100
AcDbPoint
10
47.7194
20
-4.325
30
0
39
0
210
0
220
0
230
1
50
360
0
POINT
5
79
100
AcDbEntity
8
1
62
256
6
ByLayer
370
18
48
1
60
1
100
AcDbPoint
10
-40
20
-5
30
0
39
0
210
0
220
0
230
1
50
360
0
POINT
5
7A
100
AcDbEntity
8
1
62
256
6
ByLayer
370
18
48
1
60
1
100
AcDbPoint
10
47.7194
20
-4.325
30
0
39
0
210
0
220
0
230
1
50
360
0
SPLINE
5
B0
100
AcDbEntity
8
1
62
256
6
ByLayer
370
18
48
1
60
0
100
AcDbSpline
70
4
71
3
72
20
73
16
40
0
40
0
40
0
40
0
40
0.169982181433832
40
0.169982181433832
40
0.339964362867665
40
0.339964362867665
40
0.509946544301497
40
0.509946544301497
40
0.679928725735329
40
0.679928725735329
40
0.849910907169161
40
0.849910907169161
40
0.934901997886079
40
0.934901997886079
40
1
40
1
40
1
40
1
41
1
10
11.8903786264028
20
-3.11668853409685
30
0
41
1
10
12.2662765975297
20
-3.24689456665192
30
0
41
1
10
12.64151543711
20
-3.36586165862761
30
0
41
1
10
13.3891338584835
20
-3.5847369532186
30
0
41
1
10
13.7610353085807
20
-3.68499960712316
30
0
41
1
10
14.5048761226603
20
-3.86303200778087
30
0
41
1
10
14.8764673429026
20
-3.94131779776677
30
0
41
1
10
15.6187945840847
20
-4.07651682474761
30
0
41
1
10
15.990196582983
20
-4.13287855500206
30
0
41
1
10
16.7345454933359
20
-4.22258444508518
30
0
41
1
10
17.1067157485989
20
-4.2562204658856
30
0
41
1
10
17.6675401671114
20
-4.28852298357899
30
0
41
1
10
17.8549304439467
20
-4.29629325800155
30
0
41
1
10
18.186440497527
20
-4.30472992238143
30
0
41
1
10
18.3305353986835
20
-4.30662853511336
30
0
41
1
10
18.4745624564796
20
-4.30673396731504
30
0
0
SPLINE
5
B1
100
AcDbEntity
8
1
62
256
6
ByLayer
370
18
48
1
60
0
100
AcDbSpline
70
4
71
3
72
22
73
18
40
0
40
0
40
0
40
0
40
0.109244824501547
40
0.109244824501547
40
0.236495563858469
40
0.236495563858469
40
0.36374630321539
40
0.36374630321539
40
0.490997042572312
40
0.490997042572312
40
0.618247781929234
40
0.618247781929234
40
0.745498521286156
40
0.745498521286156
40
0.872749260643078
40
0.872749260643078
40
1
40
1
40
1
40
1
41
1
10
38.9016909451097
20
3.06383477051901
30
0
41
1
10
39.2230968657015
20
3.17722749799179
30
0
41
1
10
39.5433083043242
20
3.28401909931253
30
0
41
1
10
40.2358253628467
20
3.49865034246929
30
0
41
1
10
40.6072533996236
20
3.60481260258251
30
0
41
1
10
41.3491182506292
20
3.79678197768951
30
0
41
1
10
41.7203358357566
20
3.88185783610265
30
0
41
1
10
42.4622590862137
20
4.0313171134616
30
0
41
1
10
42.8331212170621
20
4.09540871760663
30
0
41
1
10
43.577685714314
20
4.20012678799569
30
0
41
1
10
43.950675629622
20
4.24125306870363
30
0
41
1
10
44.6991555733196
20
4.29984467526907
30
0
41
1
10
45.0762952382009
20
4.31709889523188
30
0
41
1
10
45.8268445937515
20
4.32722399767013
30
0
41
1
10
46.2007917845443
20
4.32001996626832
30
0
41
1
10
46.9494002861471
20
4.28169394523863
30
0
41
1
10
47.3233605617596
20
4.25053172281898
30
0
41
1
10
47.6974138637189
20
4.20736382020411
30
0
0
SPLINE
5
B2
100
AcDbEntity
8
1
62
256
6
ByLayer
370
18
48
1
60
0
100
AcDbSpline
70
4
71
3
72
27
73
23
40
0
40
0
40
0
40
0
40
0.0742331796688722
40
0.0742331796688722
40
0.148466359337744
40
0.148466359337744
40
0.296932718675488
40
0.296932718675488
40
0.37116589834436
40
0.37116589834436
40
0.445399078013233
40
0.519632257682105
40
0.519632257682105
40
0.593865437350977
40
0.593865437350977
40
0.742331796688721
40
0.742331796688721
40
0.816564976357594
40
0.816564976357594
40
0.890798156026466
40
0.890798156026466
40
1
40
1
40
1
40
1
41
1
10
4.0023279574564
20
1.22366484343544
30
0
41
1
10
4.00233072908108
20
1.35572039513326
30
0
41
1
10
4.00233326538978
20
1.48626114480891
30
0
41
1
10
4.0023378949989
20
1.74100785951185
30
0
41
1
10
4.0023399867774
20
1.86503378051549
30
0
41
1
10
4.00234575120388
20
2.22734082559219
30
0
41
1
10
4.00234891473838
20
2.45593950092075
30
0
41
1
10
4.00235320603727
20
2.77889251455693
30
0
41
1
10
4.002354556505
20
2.88290042000099
30
0
41
1
10
4.00235714194082
20
3.07980223423283
30
0
41
1
10
4.00235962711233
20
3.26674858942374
30
0
41
1
10
4.0023620828851
20
3.43407323104933
30
0
41
1
10
4.00236459794871
20
3.59146312243877
30
0
41
1
10
4.00236589122667
20
3.66549288965197
30
0
41
1
10
4.00236991445286
20
3.86988616105961
30
0
41
1
10
4.00237276512357
20
3.98144461720196
30
0
41
1
10
4.00237750070866
20
4.11287459173309
30
0
41
1
10
4.00237915393967
20
4.15065877420005
30
0
41
1
10
4.00238262260643
20
4.21386695758068
30
0
41
1
10
4.00238443961143
20
4.2392065733367
30
0
41
1
10
4.00238902162056
20
4.28515261161309
30
0
41
1
10
4.00239185431576
20
4.29842855525001
30
0
41
1
10
4.0023947313079
20
4.2976905381945
30
0
0
SPLINE
5
B3
100
AcDbEntity
8
1
62
256
6
ByLayer
370
18
48
1
60
0
100
AcDbSpline
70
4
71
3
72
10
73
6
40
0
40
0
40
0
40
0
40
0.5
40
0.5
40
1
40
1
40
1
40
1
41
1
10
47.6974138637169
20
-4.20736382020564
30
0
41
1
10
47.6572949579282
20
-4.2372578410849
30
0
41
1
10
47.6188765670772
20
-4.26179738680563
30
0
41
1
10
47.5454475394475
20
-4.29943746756439
30
0
41
1
10
47.5109147342562
20
-4.31226724626137
30
0
41
1
10
47.4786666985983
20
-4.31906214146753
30
0
0
SPLINE
5
B4
100
AcDbEntity
8
1
62
256
6
ByLayer
370
18
48
1
60
0
100
AcDbSpline
70
4
71
3
72
12
73
8
40
0
40
0
40
0
40
0
40
0.256311665316589
40
0.256311665316589
40
0.512623330633177
40
0.512623330633177
40
1
40
1
40
1
40
1
41
1
10
47.5355436404671
20
-4.10659624501608
30
0
41
1
10
47.0820782867906
20
-4.11331035946696
30
0
41
1
10
46.6287399853829
20
-4.10294948295567
30
0
41
1
10
45.7212133035955
20
-4.04854718856791
30
0
41
1
10
45.2698711592167
20
-4.00469587794998
30
0
41
1
10
43.9645014091199
20
-3.83175932354124
30
0
41
1
10
43.1140987727933
20
-3.66137459895487
30
0
41
1
10
42.2622644351695
20
-3.44045962459356
30
0
0
SPLINE
5
B5
100
AcDbEntity
8
1
62
256
6
ByLayer
370
13
48
1
60
0
100
AcDbSpline
70
4
71
3
72
24
73
20
40
0
40
0
40
0
40
0
40
0.0104514933196397
40
0.0104514933196397
40
0.116558109463738
40
0.116558109463738
40
0.222664725607836
40
0.222664725607836
40
0.434877957896032
40
0.434877957896032
40
0.647091190184228
40
0.647091190184228
40
0.753197806328325
40
0.753197806328325
40
0.859304422472421
40
0.859304422472421
40
0.965411038616518
40
0.965411038616518
40
1
40
1
40
1
40
1
41
1
10
42.2622645271771
20
-3.44045964845483
30
0
41
1
10
42.2181385168988
20
-3.42901599581091
30
0
41
1
10
42.1740086648502
20
-3.41743675228506
30
0
41
1
10
41.6818067244679
20
-3.2867996013928
30
0
41
1
10
41.2331774548584
20
-3.15416931131975
30
0
41
1
10
40.332881646384
20
-2.86357766574429
30
0
41
1
10
39.8809037499939
20
-2.70541381954232
30
0
41
1
10
38.5197100017526
20
-2.1974700740553
30
0
41
1
10
37.6218145193309
20
-1.82106642739208
30
0
41
1
10
35.8296433785906
20
-1.02441883505671
30
0
41
1
10
34.935487815878
20
-0.603833482541631
30
0
41
1
10
33.5851082429661
20
0.0349699239332892
30
0
41
1
10
33.1333523303906
20
0.249317211867634
30
0
41
1
10
32.2254162153933
20
0.676562843820676
30
0
41
1
10
31.7726551187716
20
0.887617829156852
30
0
41
1
10
30.867511794801
20
1.30037419447751
30
0
41
1
10
30.4151161068468
20
1.5020563223207
30
0
41
1
10
29.8142718627565
20
1.76080715940881
30
0
41
1
10
29.6664210430108
20
1.82372458036124
30
0
41
1
10
29.5185267053704
20
1.88582757029479
30
0
0
SPLINE
5
B6
100
AcDbEntity
8
1
62
256
6
ByLayer
370
18
48
1
60
0
100
AcDbSpline
70
4
71
3
72
8
73
4
40
0
40
0
40
0
40
0
40
1
40
1
40
1
40
1
41
1
10
11.6721260456201
20
3.05547651996679
30
0
41
1
10
11.7449268909897
20
3.07592122734044
30
0
41
1
10
11.8176763509497
20
3.09633207044561
30
0
41
1
10
11.8903786264027
20
3.11668853409685
30
0
0
SPLINE
5
B7
100
AcDbEntity
8
1
62
256
6
ByLayer
370
18
48
1
60
0
100
AcDbSpline
70
4
71
3
72
16
73
12
40
0
40
0
40
0
40
0
40
0.116369460434764
40
0.116369460434764
40
0.573616907379112
40
0.573616907379112
40
0.687928769115198
40
0.687928769115198
40
0.802240630851284
40
0.802240630851284
40
1
40
1
40
1
40
1
41
1
10
6.22732996560313
20
0.0013038273464474
30
0
41
1
10
6.45639369366884
20
-0.109351068311525
30
0
41
1
10
6.68529650964146
20
-0.219937033796668
30
0
41
1
10
7.81351972525434
20
-0.763246041250881
30
0
41
1
10
8.71231070786246
20
-1.19117737144251
30
0
41
1
10
9.84571610052629
20
-1.69741342460162
30
0
41
1
10
10.0732787465802
20
-1.7974373510927
30
0
41
1
10
10.5273414444611
20
-1.99319550538038
30
0
41
1
10
10.7537491424882
20
-2.08889804831787
30
0
41
1
10
11.3704936406343
20
-2.34365404177194
30
0
41
1
10
11.7599647904099
20
-2.49780245426598
30
0
41
1
10
12.1487022279017
20
-2.64361338352194
30
0
0
SPLINE
5
B8
100
AcDbEntity
8
1
62
256
6
ByLayer
370
13
48
1
60
0
100
AcDbSpline
70
4
71
3
72
20
73
16
40
0
40
0
40
0
40
0
40
0.0193509381487529
40
0.0193509381487529
40
0.306028619922916
40
0.306028619922916
40
0.449367460809998
40
0.449367460809998
40
0.521036881253539
40
0.521036881253539
40
0.59270630169708
40
0.59270630169708
40
0.879383983471247
40
0.879383983471247
40
1
40
1
40
1
40
1
41
1
10
12.1487012915781
20
-2.64361303231775
30
0
41
1
10
12.2093719531999
20
-2.66636989976061
30
0
41
1
10
12.270024742918
20
-2.68892368135846
30
0
41
1
10
13.2289833277858
20
-3.0423295087802
30
0
41
1
10
14.1235933867988
20
-3.32876783283163
30
0
41
1
10
15.4725252307441
20
-3.67326513564012
30
0
41
1
10
15.9233611901482
20
-3.77395138193876
30
0
41
1
10
16.6027464390495
20
-3.90203293366605
30
0
41
1
10
16.8301282817878
20
-3.94095645848981
30
0
41
1
10
17.2842272241477
20
-4.01046427721172
30
0
41
1
10
17.5106995775411
20
-4.0410263131941
30
0
41
1
10
18.6405081858354
20
-4.17263569172985
30
0
41
1
10
19.5369082711964
20
-4.21037307551376
30
0
41
1
10
20.8107242948283
20
-4.16811681631617
30
0
41
1
10
21.1880707185256
20
-4.1437041166526
30
0
41
1
10
21.5661172866211
20
-4.10749038213865
30
0
0
SPLINE
5
B9
100
AcDbEntity
8
1
62
256
6
ByLayer
370
18
48
1
60
0
100
AcDbSpline
70
4
71
3
72
18
73
14
40
0
40
0
40
0
40
0
40
0.318522464625755
40
0.318522464625755
40
0.477783696938632
40
0.477783696938632
40
0.63704492925151
40
0.63704492925151
40
0.796306161564387
40
0.796306161564387
40
0.955567393877265
40
0.955567393877265
40
1
40
1
40
1
40
1
41
1
10
11.8903786264028
20
2.99576832370101
30
0
41
1
10
11.2275699697589
20
3.19196620978639
30
0
41
1
10
10.5741494492007
20
3.37934202932399
30
0
41
1
10
9.59851551334157
20
3.61755278564954
30
0
41
1
10
9.27488061306636
20
3.68930351350352
30
0
41
1
10
8.63001391856241
20
3.81703576876112
30
0
41
1
10
8.30868248839596
20
3.87341514411463
30
0
41
1
10
7.66732723858524
20
3.96714228032764
30
0
41
1
10
7.34708015042662
20
4.00480883650997
30
0
41
1
10
6.71262887846106
20
4.05912872594322
30
0
41
1
10
6.39786537621978
20
4.07549895738075
30
0
41
1
10
5.99847037794945
20
4.08265201428333
30
0
41
1
10
5.91154054167174
20
4.08337775815838
30
0
41
1
10
5.82482465219064
20
4.08320534295873
30
0
0
SPLINE
5
BA
100
AcDbEntity
8
1
62
256
6
ByLayer
370
18
48
1
60
0
100
AcDbSpline
70
4
71
3
72
8
73
4
40
0
40
0
40
0
40
0
40
1
40
1
40
1
40
1
41
1
10
48.9895172676065
20
-0.117761356425348
30
0
41
1
10
48.9901838939736
20
-0.0960808738223307
30
0
41
1
10
48.994149234587
20
-0.0696324559043262
30
0
41
1
10
48.9999620037862
20
-0.0417743091833813
30
0
0
SPLINE
5
BB
100
AcDbEntity
8
1
62
256
6
ByLayer
370
18
48
1
60
0
100
AcDbSpline
70
4
71
3
72
40
73
36
40
0
40
0
40
0
40
0
40
0.250000000000019
40
0.250000000000019
40
0.312500000000023
40
0.312500000000023
40
0.375000000000026
40
0.375000000000026
40
0.500000000000038
40
0.500000000000038
40
0.562500000000045
40
0.562500000000045
40
0.625000000000051
40
0.625000000000051
40
0.750000000000058
40
0.750000000000058
40
0.812500000000061
40
0.812500000000061
40
0.84375000000006
40
0.84375000000006
40
0.85937500000006
40
0.85937500000006
40
0.867187500000057
40
0.867187500000057
40
0.875000000000054
40
0.875000000000054
40
0.878906250000053
40
0.878906250000053
40
0.882812500000051
40
0.890625000000048
40
0.890625000000048
40
0.906250000000041
40
0.937500000000027
40
0.937500000000027
40
1
40
1
40
1
40
1
41
1
10
43.429329038722
20
1.29977296356813
30
0
41
1
10
43.7829205095404
20
1.02000418971778
30
0
41
1
10
44.1513158538338
20
0.778319961930009
30
0
41
1
10
44.6322148647163
20
0.528708283614634
30
0
41
1
10
44.7292543496896
20
0.481636645092948
30
0
41
1
10
44.9231887418616
20
0.394150673840812
30
0
41
1
10
45.020346021317
20
0.353584806368559
30
0
41
1
10
45.3123931444121
20
0.241502708776778
30
0
41
1
10
45.5078319829688
20
0.179162566615474
30
0
41
1
10
45.8023400962064
20
0.108214296159474
30
0
41
1
10
45.9007370215041
20
0.0883682913560051
30
0
41
1
10
46.0979913919519
20
0.0563735673552515
30
0
41
1
10
46.1971180729994
20
0.0441627191783027
30
0
41
1
10
46.4916883823159
20
0.0210195893932621
30
0
41
1
10
46.6851474096166
20
0.0232470984785493
30
0
41
1
10
46.9702442240172
20
0.0573639024508736
30
0
41
1
10
47.0640954588297
20
0.0738926449515702
30
0
41
1
10
47.2022737815903
20
0.107068380419491
30
0
41
1
10
47.247823629278
20
0.119509174379374
30
0
41
1
10
47.3153279333187
20
0.140395792952404
30
0
41
1
10
47.3377966204088
20
0.147446823371979
30
0
41
1
10
47.3710495877714
20
0.159244116018812
30
0
41
1
10
47.3821479508498
20
0.163590693702218
30
0
41
1
10
47.4006440876221
20
0.180438342794361
30
0
41
1
10
47.4068011742619
20
0.192859506684897
30
0
41
1
10
47.4095326018691
20
0.214808254899935
30
0
41
1
10
47.4099117497536
20
0.222309221188368
30
0
41
1
10
47.4112218943333
20
0.237119302789324
30
0
41
1
10
47.4131197703186
20
0.259357375795304
30
0
41
1
10
47.4148182985978
20
0.281666594473108
30
0
41
1
10
47.4179552840185
20
0.32636951582225
30
0
41
1
10
47.4231850498917
20
0.41606384042305
30
0
41
1
10
47.4254433212128
20
0.506579098104737
30
0
41
1
10
47.4263608443156
20
0.688603912514168
30
0
41
1
10
47.4221773020413
20
0.810932599916129
30
0
41
1
10
47.4141367771584
20
0.93320216384393
30
0
0
SPLINE
5
BC
100
AcDbEntity
8
1
62
256
6
ByLayer
370
13
48
1
60
0
100
AcDbSpline
70
4
71
3
72
27
73
23
40
0
40
0
40
0
40
0
40
0.148212627614374
40
0.148212627614374
40
0.222318941421561
40
0.222318941421561
40
0.296425255228748
40
0.370531569035934
40
0.370531569035934
40
0.444637882843121
40
0.444637882843121
40
0.592850510457495
40
0.592850510457495
40
0.666956824264683
40
0.666956824264683
40
0.74106313807187
40
0.74106313807187
40
0.815169451879057
40
0.815169451879057
40
0.889275765686244
40
0.889275765686244
40
1
40
1
40
1
40
1
41
1
10
4.25026173232942
20
1.03043790400807
30
0
41
1
10
4.25029501111851
20
1.28908303384694
30
0
41
1
10
4.25032124385689
20
1.53830739350454
30
0
41
1
10
4.25035398684736
20
1.89814070914102
30
0
41
1
10
4.25036377744175
20
2.0156204465078
30
0
41
1
10
4.25038148679826
20
2.24162525147685
30
0
41
1
10
4.25039743059756
20
2.45980821003627
30
0
41
1
10
4.25041121631631
20
2.66258744149971
30
0
41
1
10
4.25042454872818
20
2.85756559171011
30
0
41
1
10
4.25043101952184
20
2.95158834999097
30
0
41
1
10
4.25045039607019
20
3.21820368240665
30
0
41
1
10
4.25046321559245
20
3.37415992613464
30
0
41
1
10
4.25048503434564
20
3.57635667157652
30
0
41
1
10
4.25049272643795
20
3.63842836394758
30
0
41
1
10
4.25050928012649
20
3.75161418145521
30
0
41
1
10
4.2505181280863
20
3.80253860090644
30
0
41
1
10
4.25053690585878
20
3.89163462149602
30
0
41
1
10
4.25054687324382
20
3.93005401015228
30
0
41
1
10
4.25056798763018
20
3.99437081263048
30
0
41
1
10
4.25057912391759
20
4.02017957133811
30
0
41
1
10
4.25060787705235
20
4.06811657908617
30
0
41
1
10
4.25062596768586
20
4.08230344895145
30
0
41
1
10
4.25064445743413
20
4.08223417760453
30
0
0
SPLINE
5
BD
100
AcDbEntity
8
1
62
256
6
ByLayer
370
18
48
1
60
0
100
AcDbSpline
70
4
71
3
72
14
73
10
40
0
40
0
40
0
40
0
40
0.25
40
0.25
40
0.5
40
0.5
40
0.75
40
0.75
40
1
40
1
40
1
40
1
41
1
10
4.0024093988699
20
-4.16913667322436
30
0
41
1
10
4.00613292678085
20
-4.1390828683798
30
0
41
1
10
4.01444435406805
20
-4.10833214679312
30
0
41
1
10
4.04209897497464
20
-4.05110420936123
30
0
41
1
10
4.06193881450125
20
-4.02422391495895
30
0
41
1
10
4.11091552284049
20
-3.98305856625535
30
0
41
1
10
4.13930958973094
20
-3.96937604083195
30
0
41
1
10
4.19612796964239
20
-3.956128847564
30
0
41
1
10
4.22414168922413
20
-3.95621150890526
30
0
41
1
10
4.25073747907837
20
-3.96078009280546
30
0
0
SPLINE
5
BE
100
AcDbEntity
8
1
62
256
6
ByLayer
370
18
48
1
60
0
100
AcDbSpline
70
4
71
3
72
12
73
8
40
0
40
0
40
0
40
0
40
0.499999999999998
40
0.499999999999998
40
0.749999999999999
40
0.749999999999999
40
1
40
1
40
1
40
1
41
1
10
47.6974138637092
20
4.20736382023128
30
0
41
1
10
47.891219025412
20
3.66501433218798
30
0
41
1
10
48.0931695157425
20
3.12458185056696
30
0
41
1
10
48.4064383820558
20
2.31679860931555
30
0
41
1
10
48.5126845103698
20
2.04781289752611
30
0
41
1
10
48.7279526255881
20
1.51203702704549
30
0
41
1
10
48.8369899605417
20
1.24521981399761
30
0
41
1
10
48.9473885348861
20
0.97935962343891
30
0
0
SPLINE
5
BF
100
AcDbEntity
8
1
62
256
6
ByLayer
370
18
48
1
60
0
100
AcDbSpline
70
4
71
3
72
14
73
10
40
0
40
0
40
0
40
0
40
0.25
40
0.25
40
0.5
40
0.5
40
0.75
40
0.75
40
1
40
1
40
1
40
1
41
1
10
47.5355436404526
20
-4.10659624501631
30
0
41
1
10
47.538875034135
20
-4.10616042153811
30
0
41
1
10
47.5415462327899
20
-4.10744954867818
30
0
41
1
10
47.5451686310028
20
-4.11449809125432
30
0
41
1
10
47.5460630217529
20
-4.12035598425115
30
0
41
1
10
47.5449663675842
20
-4.13747446991752
30
0
41
1
10
47.5429160090232
20
-4.14870989278577
30
0
41
1
10
47.5360688240782
20
-4.17388612111245
30
0
41
1
10
47.5313140891969
20
-4.18770439503075
30
0
41
1
10
47.5260542694291
20
-4.2008591082157
30
0
0
SPLINE
5
C0
100
AcDbEntity
8
1
62
256
6
ByLayer
370
18
48
1
60
0
100
AcDbSpline
70
4
71
3
72
10
73
6
40
0
40
0
40
0
40
0
40
0.5
40
0.5
40
1
40
1
40
1
40
1
41
1
10
47.5488375700114
20
1.02974611349336
30
0
41
1
10
47.7819532253101
20
1.02105667993743
30
0
41
1
10
48.0150441747772
20
1.0126696796676
30
0
41
1
10
48.4812430535897
20
0.995687822111904
30
0
41
1
10
48.7143507164922
20
0.987096226454298
30
0
41
1
10
48.9473885348859
20
0.979359623438853
30
0
0
SPLINE
5
C1
100
AcDbEntity
8
1
62
256
6
ByLayer
370
18
48
1
60
0
100
AcDbSpline
70
4
71
3
72
10
73
6
40
0
40
0
40
0
40
0
40
0.5
40
0.5
40
1
40
1
40
1
40
1
41
1
10
47.6974138637164
20
4.20736382020604
30
0
41
1
10
47.6572949579278
20
4.23725784108515
30
0
41
1
10
47.6188765670768
20
4.2617973868058
30
0
41
1
10
47.5454475394473
20
4.29943746756445
30
0
41
1
10
47.5109147342561
20
4.31226724626137
30
0
41
1
10
47.4786666985983
20
4.31906214146753
30
0
0
SPLINE
5
C2
100
AcDbEntity
8
1
62
256
6
ByLayer
370
18
48
1
60
0
100
AcDbSpline
70
4
71
3
72
14
73
10
40
0
40
0
40
0
40
0
40
0.25
40
0.25
40
0.5
40
0.5
40
0.75
40
0.75
40
1
40
1
40
1
40
1
41
1
10
47.4141367771585
20
0.933202163843958
30
0
41
1
10
47.4131269072416
20
0.948558916813738
30
0
41
1
10
47.4162295133233
20
0.96414762238615
30
0
41
1
10
47.4314669743885
20
0.991209847640192
30
0
41
1
10
47.4435718181865
20
1.00249314117338
30
0
41
1
10
47.4708304012754
20
1.0184153710664
30
0
41
1
10
47.4862124563304
20
1.02351426130471
30
0
41
1
10
47.5171265599171
20
1.02942080929503
30
0
41
1
10
47.5330153030484
20
1.03033589171872
30
0
41
1
10
47.5488375700115
20
1.02974611349339
30
0
0
SPLINE
5
C3
100
AcDbEntity
8
1
62
256
6
ByLayer
370
18
48
1
60
0
100
AcDbSpline
70
4
71
3
72
8
73
4
40
0
40
0
40
0
40
0
40
1
40
1
40
1
40
1
41
1
10
11.8903786264028
20
3.11668853409663
30
0
41
1
10
11.8903786264028
20
3.07382221188371
30
0
41
1
10
11.8903786264027
20
3.03145632119356
30
0
41
1
10
11.8903786264027
20
2.98970053409664
30
0
0
SPLINE
5
C4
100
AcDbEntity
8
1
62
256
6
ByLayer
370
18
48
1
60
0
100
AcDbSpline
70
4
71
3
72
8
73
4
40
0
40
0
40
0
40
0
40
1
40
1
40
1
40
1
41
1
10
47.4786666985983
20
4.31906214146753
30
0
41
1
10
47.3290035038154
20
4.32284607594608
30
0
41
1
10
47.1793618250043
20
4.32468525895194
30
0
41
1
10
47.0297052538132
20
4.32458317360198
30
0
0
SPLINE
5
C5
100
AcDbEntity
8
1
62
256
6
ByLayer
370
18
48
1
60
0
100
AcDbSpline
70
4
71
3
72
32
73
28
40
0
40
0
40
0
40
0
40
0.0424278041556409
40
0.0424278041556409
40
0.116087203835976
40
0.116087203835976
40
0.189746603516311
40
0.189746603516311
40
0.263406003196645
40
0.263406003196645
40
0.410724802557316
40
0.410724802557316
40
0.447554502397485
40
0.447554502397485
40
0.484384202237653
40
0.484384202237653
40
0.558043601917988
40
0.558043601917988
40
0.631703001598323
40
0.631703001598323
40
0.705362401278659
40
0.705362401278659
40
0.779021800958994
40
0.779021800958994
40
0.85268120063933
40
0.85268120063933
40
1
40
1
40
1
40
1
41
1
10
22.5270957223093
20
-4.10186633791767
30
0
41
1
10
22.2672987858787
20
-4.14133910075705
30
0
41
1
10
22.0074348840113
20
-4.17527226907717
30
0
41
1
10
21.2956766229158
20
-4.25261515132809
30
0
41
1
10
20.8428178221237
20
-4.28461966856966
30
0
41
1
10
19.9399022320262
20
-4.31316463767641
30
0
41
1
10
19.489048069619
20
-4.30984632211266
30
0
41
1
10
18.5865324962273
20
-4.26831026492567
30
0
41
1
10
18.1345041322657
20
-4.22993739933372
30
0
41
1
10
16.7776915750642
20
-4.06342733908232
30
0
41
1
10
15.8776298064894
20
-3.8846391978567
30
0
41
1
10
14.7474498575097
20
-3.58512877498433
30
0
41
1
10
14.5210164950545
20
-3.52135674914882
30
0
41
1
10
14.0689783758218
20
-3.38700239859611
30
0
41
1
10
13.8432023390733
20
-3.31638797895818
30
0
41
1
10
13.1662177464721
20
-3.09478205035637
30
0
41
1
10
12.7153537396749
20
-2.93401968565061
30
0
41
1
10
11.8123272959624
20
-2.58967003005625
30
0
41
1
10
11.3594144817384
20
-2.40551889009612
30
0
41
1
10
10.4557295693427
20
-2.01987682245022
30
0
41
1
10
10.0046928252868
20
-1.81858481639338
30
0
41
1
10
9.10217293161207
20
-1.40291222767135
30
0
41
1
10
8.65077969072297
20
-1.18835875050567
30
0
41
1
10
7.74546749075256
20
-0.750043478048781
30
0
41
1
10
7.29416339178192
20
-0.527686644199207
30
0
41
1
10
5.94248085605335
20
0.141824953960935
30
0
41
1
10
5.04380541782854
20
0.59185584739808
30
0
41
1
10
4.13885342684515
20
1.02784805273953
30
0
0
SPLINE
5
C6
100
AcDbEntity
8
1
62
256
6
ByLayer
370
18
48
1
60
0
100
AcDbSpline
70
4
71
3
72
22
73
18
40
0
40
0
40
0
40
0
40
0.182506504073261
40
0.182506504073261
40
0.282291365138714
40
0.282291365138714
40
0.382076226204166
40
0.382076226204166
40
0.481861087269619
40
0.481861087269619
40
0.581645948335072
40
0.581645948335072
40
0.78121567046598
40
0.78121567046598
40
0.980785392596887
40
0.980785392596887
40
1
40
1
40
1
40
1
41
1
10
26.0905791611945
20
3.14482044543453
30
0
41
1
10
26.921192917358
20
2.87879337610266
30
0
41
1
10
27.7480272222161
20
2.57066560944364
30
0
41
1
10
29.0308594119766
20
2.04468743526056
30
0
41
1
10
29.485766886564
20
1.8487724713346
30
0
41
1
10
30.392852307625
20
1.44445212819733
30
0
41
1
10
30.845638964666
20
1.23595163471811
30
0
41
1
10
31.7516509723789
20
0.810181904972183
30
0
41
1
10
32.2048826143156
20
0.59287842200942
30
0
41
1
10
33.1138060899518
20
0.153718134224732
30
0
41
1
10
33.565733268791
20
-0.0660545044166838
30
0
41
1
10
34.9169229590509
20
-0.71972782453426
30
0
41
1
10
35.8114014456933
20
-1.14844872961592
30
0
41
1
10
37.6045963794137
20
-1.95715515061832
30
0
41
1
10
38.5031246084325
20
-2.33760543087686
30
0
41
1
10
39.4992284153996
20
-2.71075683084732
30
0
41
1
10
39.586622453955
20
-2.7430813572324
30
0
41
1
10
39.6739345273617
20
-2.77495035452745
30
0
0
SPLINE
5
C7
100
AcDbEntity
8
1
62
256
6
ByLayer
370
13
48
1
60
0
100
AcDbSpline
70
4
71
3
72
14
73
10
40
0
40
0
40
0
40
0
40
0.311228396194428
40
0.311228396194428
40
0.655614198097211
40
0.655614198097211
40
0.827807099048606
40
0.827807099048606
40
1
40
1
40
1
40
1
41
1
10
39.6739335878386
20
-2.77495001160048
30
0
41
1
10
40.4934759708593
20
-3.07408385954199
30
0
41
1
10
41.3057969176936
20
-3.33308390440109
30
0
41
1
10
43.0126357909681
20
-3.77976318402582
30
0
41
1
10
43.9071997847867
20
-3.95662051941687
30
0
41
1
10
45.2580592189819
20
-4.12405128786452
30
0
41
1
10
45.7098933145868
20
-4.16360160946468
30
0
41
1
10
46.6185743970298
20
-4.20834993149742
30
0
41
1
10
47.0721813579965
20
-4.21338010220805
30
0
41
1
10
47.5260542694176
20
-4.20085910821601
30
0
0
SPLINE
5
C8
100
AcDbEntity
8
1
62
256
6
ByLayer
370
18
48
1
60
0
100
AcDbSpline
70
4
71
3
72
12
73
8
40
0
40
0
40
0
40
0
40
0.5
40
0.5
40
0.75
40
0.75
40
1
40
1
40
1
40
1
41
1
10
47.6974138637112
20
-4.20736382022582
30
0
41
1
10
47.8912326773344
20
-3.66497612828778
30
0
41
1
10
48.0932445683405
20
-3.1243773159299
30
0
41
1
10
48.4066606123595
20
-2.31623108493488
30
0
41
1
10
48.512962826661
20
-2.04711364975446
30
0
41
1
10
48.7281435529371
20
-1.51156839939785
30
0
41
1
10
48.8371013729111
20
-1.24495151240092
30
0
41
1
10
48.947388534886
20
-0.979359623438938
30
0
0
SPLINE
5
C9
100
AcDbEntity
8
1
62
256
6
ByLayer
370
18
48
1
60
0
100
AcDbSpline
70
4
71
3
72
60
73
56
40
0
40
0
40
0
40
0
40
0.0625000000000175
40
0.0625000000000175
40
0.0937500000000262
40
0.0937500000000262
40
0.125000000000035
40
0.125000000000035
40
0.156250000000044
40
0.156250000000044
40
0.187500000000053
40
0.187500000000053
40
0.203125000000057
40
0.203125000000057
40
0.218750000000061
40
0.218750000000061
40
0.234375000000065
40
0.234375000000065
40
0.250000000000069
40
0.250000000000069
40
0.265625000000073
40
0.265625000000073
40
0.281250000000077
40
0.281250000000077
40
0.312500000000086
40
0.312500000000086
40
0.328125000000091
40
0.328125000000091
40
0.343750000000095
40
0.343750000000095
40
0.375000000000105
40
0.375000000000105
40
0.390625000000109
40
0.390625000000109
40
0.39453125000011
40
0.39453125000011
40
0.39843750000011
40
0.39843750000011
40
0.40234375000011
40
0.40234375000011
40
0.40625000000011
40
0.40625000000011
40
0.437500000000104
40
0.437500000000104
40
0.500000000000093
40
0.500000000000093
40
0.562500000000081
40
0.562500000000081
40
0.62500000000007
40
0.62500000000007
40
0.750000000000046
40
0.750000000000046
40
0.875000000000023
40
0.875000000000023
40
1
40
1
40
1
40
1
41
1
10
4.00240939887121
20
-4.16913667322021
30
0
41
1
10
3.75664152641014
20
-4.12828357375412
30
0
41
1
10
3.5161237184204
20
-4.07659558573644
30
0
41
1
10
3.16812844298164
20
-3.97600803591931
30
0
41
1
10
3.05396870808391
20
-3.93845917663518
30
0
41
1
10
2.83345929003983
20
-3.8540088006512
30
0
41
1
10
2.72714814467358
20
-3.80719275179558
30
0
41
1
10
2.52557813854585
20
-3.7013667663721
30
0
41
1
10
2.43022871187768
20
-3.64244348668123
30
0
41
1
10
2.25654649074158
20
-3.50669934284261
30
0
41
1
10
2.1801808156884
20
-3.43147321063574
30
0
41
1
10
2.09039543334069
20
-3.30229796195729
30
0
41
1
10
2.06482656758561
20
-3.25651163519402
30
0
41
1
10
2.02567724545182
20
-3.16109665972468
30
0
41
1
10
2.01186121983358
20
-3.11118749299249
30
0
41
1
10
1.99806967927734
20
-3.00626445333322
30
0
41
1
10
1.99837454969088
20
-2.95200909342759
30
0
41
1
10
2.01365203246866
20
-2.84330342524098
30
0
41
1
10
2.02852740227911
20
-2.7883702226309
30
0
41
1
10
2.0727372909154
20
-2.67752348269309
30
0
41
1
10
2.10158563397894
20
-2.62293128523589
30
0
41
1
10
2.16993841116596
20
-2.51673020291145
30
0
41
1
10
2.20987249923468
20
-2.46451432674738
30
0
41
1
10
2.34110953632094
20
-2.31397150577433
30
0
41
1
10
2.44275142045649
20
-2.22197563834899
30
0
41
1
10
2.60882199195709
20
-2.09245172635971
30
0
41
1
10
2.66667907997302
20
-2.0506170139877
30
0
41
1
10
2.78514684121006
20
-1.97023439565592
30
0
41
1
10
2.84583156389894
20
-1.93161839948769
30
0
41
1
10
3.03150232458023
20
-1.81976718211604
30
0
41
1
10
3.16029544336018
20
-1.75037002663578
30
0
41
1
10
3.35778604678035
20
-1.65285871652887
30
0
41
1
10
3.42445905921642
20
-1.62167125916073
30
0
41
1
10
3.50821580181267
20
-1.58324323399933
30
0
41
1
10
3.525537992924
20
-1.57619390345693
30
0
41
1
10
3.56115375424963
20
-1.56723026223341
30
0
41
1
10
3.57941051377321
20
-1.564922025762
30
0
41
1
10
3.61643618233029
20
-1.56279085121113
30
0
41
1
10
3.63515229986112
20
-1.56340672039775
30
0
41
1
10
3.67238080872292
20
-1.56450512353621
30
0
41
1
10
3.69099966040926
20
-1.56492266135058
30
0
41
1
10
3.85854100882815
20
-1.56949095470955
30
0
41
1
10
4.00743747666598
20
-1.57517726237919
30
0
41
1
10
4.45367951795066
20
-1.59700818822554
30
0
41
1
10
4.75061117071544
20
-1.61792594929994
30
0
41
1
10
5.34337867213719
20
-1.67190973624844
30
0
41
1
10
5.63948644509534
20
-1.70501122762474
30
0
41
1
10
6.22762058692143
20
-1.782255725998
30
0
41
1
10
6.51997066114194
20
-1.82642554463828
30
0
41
1
10
7.39209047894707
20
-1.97374864095198
30
0
41
1
10
7.96690114535448
20
-2.09184173749262
30
0
41
1
10
9.10482546090995
20
-2.35575878632423
30
0
41
1
10
9.66794940970109
20
-2.50149393398854
30
0
41
1
10
10.785065529115
20
-2.80483628398423
30
0
41
1
10
11.3390786700184
20
-2.9623258617714
30
0
41
1
10
11.8903786264027
20
-3.11668853409685
30
0
0
SPLINE
5
CA
100
AcDbEntity
8
1
62
256
6
ByLayer
370
18
48
1
60
0
100
AcDbSpline
70
4
71
3
72
18
73
14
40
0
40
0
40
0
40
0
40
0.128524167735872
40
0.128524167735872
40
0.257048335471744
40
0.257048335471744
40
0.514096670943488
40
0.514096670943488
40
0.642620838679362
40
0.642620838679362
40
0.771145006415235
40
0.771145006415235
40
1
40
1
40
1
40
1
41
1
10
4.25073747920231
20
-3.96078009282675
30
0
41
1
10
4.54714421665611
20
-4.01169638656799
30
0
41
1
10
4.85054062282782
20
-4.04400835097323
30
0
41
1
10
5.46590795339316
20
-4.08167004712391
30
0
41
1
10
5.77855095562279
20
-4.08676138301914
30
0
41
1
10
6.72209691086042
20
-4.06934455650528
30
0
41
1
10
7.35613997590823
20
-4.01290764574009
30
0
41
1
10
8.31534132670168
20
-3.87229508124781
30
0
41
1
10
8.63686420185095
20
-3.81578503168751
30
0
41
1
10
9.28201049801504
20
-3.68778279755233
30
0
41
1
10
9.60493799142245
20
-3.61605571634652
30
0
41
1
10
10.5055592410542
20
-3.39596094279261
30
0
41
1
10
11.0854816880966
20
-3.23236710775998
30
0
41
1
10
11.6729224110695
20
-3.059890684495
30
0
0
SPLINE
5
CB
100
AcDbEntity
8
1
62
256
6
ByLayer
370
18
48
1
60
0
100
AcDbSpline
70
4
71
3
72
8
73
4
40
0
40
0
40
0
40
0
40
1
40
1
40
1
40
1
41
1
10
48.9642463374347
20
-0.0480543174662955
30
0
41
1
10
48.3359700364807
20
-1.07658922819334
30
0
41
1
10
47.7474641978127
20
-2.14123661276014
30
0
41
1
10
47.2001282208771
20
-3.24326715732414
30
0
0
SPLINE
5
CC
100
AcDbEntity
8
1
62
256
6
ByLayer
370
18
48
1
60
0
100
AcDbSpline
70
4
71
3
72
12
73
8
40
0
40
0
40
0
40
0
40
0.209180927406003
40
0.209180927406003
40
0.604590463703002
40
0.604590463703002
40
1
40
1
40
1
40
1
41
1
10
4.00239473078787
20
-4.29769067143815
30
0
41
1
10
4.00239576540798
20
-4.29742587351501
30
0
41
1
10
4.00239680575729
20
-4.29534870467518
30
0
41
1
10
4.0023998210591
20
-4.28411526772027
30
0
41
1
10
4.00240180795288
20
-4.27019046134058
30
0
41
1
10
4.00240570578791
20
-4.22912576964575
30
0
41
1
10
4.00240759867773
20
-4.20221945413957
30
0
41
1
10
4.00240939887044
20
-4.16913667322063
30
0
0
SPLINE
5
CD
100
AcDbEntity
8
1
62
256
6
ByLayer
370
18
48
1
60
0
100
AcDbSpline
70
4
71
3
72
8
73
4
40
0
40
0
40
0
40
0
40
1
40
1
40
1
40
1
41
1
10
48.9895172676064
20
0.117761356425461
30
0
41
1
10
48.9901838939732
20
0.0960808738302319
30
0
41
1
10
48.9941492345841
20
0.0696324559232835
30
0
41
1
10
48.9999620037798
20
0.0417743092134799
30
0
0
SPLINE
5
CE
100
AcDbEntity
8
1
62
256
6
ByLayer
370
18
48
1
60
0
100
AcDbSpline
70
4
71
3
72
16
73
12
40
0
40
0
40
0
40
0
40
0.439413556729702
40
0.439413556729702
40
0.570269372987484
40
0.570269372987484
40
0.701125189245266
40
0.701125189245266
40
0.962836821760825
40
0.962836821760825
40
1
40
1
40
1
40
1
41
1
10
20.0331752685862
20
-4.09149933160478
30
0
41
1
10
19.2807598791692
20
-4.08999422154506
30
0
41
1
10
18.5276206898294
20
-4.04206521150516
30
0
41
1
10
17.5436097920959
20
-3.9198578260214
30
0
41
1
10
17.3173191842471
20
-3.88770208155373
30
0
41
1
10
16.8636264484723
20
-3.81530621763866
30
0
41
1
10
16.6365135699872
20
-3.77508637225873
30
0
41
1
10
15.9577919583745
20
-3.6435174695491
30
0
41
1
10
15.5073170564074
20
-3.5410509584122
30
0
41
1
10
14.9941572094581
20
-3.40847983428225
30
0
41
1
10
14.9303715650396
20
-3.39172053513144
30
0
41
1
10
14.8666055496951
20
-3.37469065817095
30
0
0
SPLINE
5
CF
100
AcDbEntity
8
1
62
256
6
ByLayer
370
13
48
1
60
0
100
AcDbSpline
70
4
71
3
72
18
73
14
40
0
40
0
40
0
40
0
40
0.236446886095351
40
0.236446886095351
40
0.363705738412793
40
0.363705738412793
40
0.427335164571513
40
0.427335164571513
40
0.490964590730235
40
0.490964590730235
40
0.745482295365118
40
0.745482295365118
40
1
40
1
40
1
40
1
41
1
10
14.8666055493033
20
-3.37469065806627
30
0
41
1
10
14.0322617278102
20
-3.15186392901717
30
0
41
1
10
13.2012784640504
20
-2.88271344810406
30
0
41
1
10
11.9182822760188
20
-2.41242485524344
30
0
41
1
10
11.4685273190636
20
-2.23710083253954
30
0
41
1
10
10.7913106720845
20
-1.96034061819648
30
0
41
1
10
10.5650989258888
20
-1.86584268187013
30
0
41
1
10
10.1114743838139
20
-1.67278563157191
30
0
41
1
10
9.88417173216806
20
-1.57426527699002
30
0
41
1
10
8.75189345029483
20
-1.07609710953545
30
0
41
1
10
7.8537256748827
20
-0.656512286993774
30
0
41
1
10
6.05645039556052
20
0.189766504509038
30
0
41
1
10
5.15757992852076
20
0.616960245776227
30
0
41
1
10
4.25026173232942
20
1.03043790400807
30
0
0
SPLINE
5
D0
100
AcDbEntity
8
1
62
256
6
ByLayer
370
18
48
1
60
0
100
AcDbSpline
70
4
71
3
72
8
73
4
40
0
40
0
40
0
40
0
40
1
40
1
40
1
40
1
41
1
10
4.00616444552048
20
1.19089930558488
30
0
41
1
10
4.00362345627312
20
1.20169735286214
30
0
41
1
10
4.00232772559551
20
1.21261769180055
30
0
41
1
10
4.00232795745637
20
1.2236648434324
30
0
0
SPLINE
5
D1
100
AcDbEntity
8
1
62
256
6
ByLayer
370
18
48
1
60
0
100
AcDbSpline
70
4
71
3
72
8
73
4
40
0
40
0
40
0
40
0
40
1
40
1
40
1
40
1
41
1
10
48.9473885348862
20
0.979359623438853
30
0
41
1
10
48.9666533121747
20
0.691831837217563
30
0
41
1
10
48.9806966247193
20
0.404632389623771
30
0
41
1
10
48.9895172676065
20
0.117761356425433
30
0
0
SPLINE
5
D2
100
AcDbEntity
8
1
62
256
6
ByLayer
370
18
48
1
60
0
100
AcDbSpline
70
4
71
3
72
8
73
4
40
0
40
0
40
0
40
0
40
1
40
1
40
1
40
1
41
1
10
48.9473885348861
20
-0.979359623438853
30
0
41
1
10
48.9666491017502
20
-0.691894678018286
30
0
41
1
10
48.9806946959272
20
-0.404695119130594
30
0
41
1
10
48.9895172676065
20
-0.117761356425405
30
0
0
SPLINE
5
D3
100
AcDbEntity
8
1
62
256
6
ByLayer
370
18
48
1
60
0
100
AcDbSpline
70
4
71
3
72
76
73
72
40
0
40
0
40
0
40
0
40
0.0331235631196702
40
0.0331235631196702
40
0.0662471262393404
40
0.0662471262393404
40
0.0993706893590106
40
0.0993706893590106
40
0.132494252478681
40
0.132494252478681
40
0.165617815598351
40
0.165617815598351
40
0.182179597158186
40
0.182179597158186
40
0.198741378718021
40
0.198741378718021
40
0.23186494183769
40
0.23186494183769
40
0.264988504957359
40
0.264988504957359
40
0.298112068077028
40
0.298112068077028
40
0.331235631196697
40
0.331235631196697
40
0.364359194316367
40
0.364359194316367
40
0.380920975876202
40
0.380920975876202
40
0.397482757436037
40
0.397482757436037
40
0.430606320555707
40
0.430606320555707
40
0.463729883675377
40
0.463729883675377
40
0.496853446795047
40
0.496853446795047
40
0.529977009914718
40
0.529977009914718
40
0.563100573034388
40
0.563100573034388
40
0.579662354594223
40
0.579662354594223
40
0.596224136154058
40
0.596224136154058
40
0.629347699273729
40
0.629347699273729
40
0.6624712623934
40
0.6624712623934
40
0.695594825513071
40
0.695594825513071
40
0.728718388632743
40
0.728718388632743
40
0.761841951752414
40
0.761841951752414
40
0.77840373331225
40
0.77840373331225
40
0.794965514872086
40
0.794965514872086
40
0.828089077991758
40
0.828089077991758
40
0.86121264111143
40
0.86121264111143
40
0.894336204231102
40
0.894336204231102
40
0.927459767350774
40
0.927459767350774
40
0.960583330470447
40
0.960583330470447
40
0.993706893590119
40
0.993706893590119
40
1
40
1
40
1
40
1
41
1
10
11.8903786264028
20
3.11668853409685
30
0
41
1
10
12.2662765975297
20
3.24689456665192
30
0
41
1
10
12.64151543711
20
3.36586165862758
30
0
41
1
10
13.3891338584835
20
3.5847369532186
30
0
41
1
10
13.7610353085807
20
3.68499960712316
30
0
41
1
10
14.5048761226603
20
3.86303200778084
30
0
41
1
10
14.8764673429026
20
3.94131779776674
30
0
41
1
10
15.6187945840847
20
4.07651682474761
30
0
41
1
10
15.990196582983
20
4.13287855500206
30
0
41
1
10
16.7345454933359
20
4.22258444508518
30
0
41
1
10
17.1067157485989
20
4.2562204658856
30
0
41
1
10
17.6675401671114
20
4.28852298357899
30
0
41
1
10
17.8549304439467
20
4.29629325800155
30
0
41
1
10
18.2303794590083
20
4.30584813363092
30
0
41
1
10
18.4186312798997
20
4.30762450511065
30
0
41
1
10
18.9824503772252
20
4.30373299418542
30
0
41
1
10
19.35674957119
20
4.28891760918717
30
0
41
1
10
20.1035896451813
20
4.23588468811485
30
0
41
1
10
20.4752981337359
20
4.19732901263325
30
0
41
1
10
21.2185591515083
20
4.09767194525071
30
0
41
1
10
21.5901224081379
20
4.03674349516331
30
0
41
1
10
22.3323670221281
20
3.89213128446866
30
0
41
1
10
22.7036695715024
20
3.80884969386474
30
0
41
1
10
23.4482977416762
20
3.62199899044228
30
0
41
1
10
23.8207525461105
20
3.51745729811879
30
0
41
1
10
24.38185782327
20
3.346136566242
30
0
41
1
10
24.5693802543137
20
3.2867484853752
30
0
41
1
10
24.9452100134968
20
3.16313359474734
30
0
41
1
10
25.133628589088
20
3.09869308971281
30
0
41
1
10
25.6966765712062
20
2.89923838639197
30
0
41
1
10
26.0704024104151
20
2.7582629770784
30
0
41
1
10
26.8164946581249
20
2.4637587960207
30
0
41
1
10
27.1879836356517
20
2.30874260010316
30
0
41
1
10
27.9305208240381
20
1.98782390410457
30
0
41
1
10
28.3019612633566
20
1.82269780132529
30
0
41
1
10
29.0439044849366
20
1.48074714589612
30
0
41
1
10
29.4150033215395
20
1.3049933362656
30
0
41
1
10
30.1595724139367
20
0.948116871904489
30
0
41
1
10
30.5321779424565
20
0.765249311830928
30
0
41
1
10
31.0933045060256
20
0.487670209158495
30
0
41
1
10
31.2808403118948
20
0.394869609970101
30
0
41
1
10
31.6568185422057
20
0.208544768898378
30
0
41
1
10
31.845208717529
20
0.114870452040918
30
0
41
1
10
32.4078410263982
20
-0.166087288367692
30
0
41
1
10
32.7812213150015
20
-0.35285148417654
30
0
41
1
10
33.5268935263207
20
-0.720605489055885
30
0
41
1
10
33.8983445471069
20
-0.903352128738504
30
0
41
1
10
34.6404983241316
20
-1.26244338539516
30
0
41
1
10
35.0118693024444
20
-1.43750496049122
30
0
41
1
10
35.753748248259
20
-1.78151153117852
30
0
41
1
10
36.1247281757871
20
-1.94949760780722
30
0
41
1
10
36.8693052946201
20
-2.27272198115853
30
0
41
1
10
37.2421032060357
20
-2.42942939341546
30
0
41
1
10
37.8033232939589
20
-2.65470593407664
30
0
41
1
10
37.9908598678594
20
-2.7279517158041
30
0
41
1
10
38.366960646928
20
-2.87057799699304
30
0
41
1
10
38.5552321564417
20
-2.93994078399211
30
0
41
1
10
39.1175327164792
20
-3.14181662798228
30
0
41
1
10
39.4905825660981
20
-3.26767785456983
30
0
41
1
10
40.2358253628467
20
-3.49865034246929
30
0
41
1
10
40.6072533996236
20
-3.60481260258254
30
0
41
1
10
41.3491182506293
20
-3.79678197768948
30
0
41
1
10
41.7203358357567
20
-3.88185783610265
30
0
41
1
10
42.4622590862137
20
-4.0313171134616
30
0
41
1
10
42.8331212170621
20
-4.09540871760663
30
0
41
1
10
43.577685714314
20
-4.20012678799569
30
0
41
1
10
43.9506756296221
20
-4.24125306870363
30
0
41
1
10
44.6991555733197
20
-4.29984467526907
30
0
41
1
10
45.0762952382009
20
-4.31709889523188
30
0
41
1
10
45.5228679062208
20
-4.32312327454338
30
0
41
1
10
45.5941179798289
20
-4.32364233115172
30
0
41
1
10
45.6653316890673
20
-4.32372072575583
30
0
0
SPLINE
5
D4
100
AcDbEntity
8
1
62
256
6
ByLayer
370
18
48
1
60
0
100
AcDbSpline
70
4
71
3
72
8
73
4
40
0
40
0
40
0
40
0
40
1
40
1
40
1
40
1
41
1
10
47.5260542694271
20
-4.20085910822053
30
0
41
1
10
47.5102831508961
20
-4.24030238765587
30
0
41
1
10
47.4944863693699
20
-4.27970437740106
30
0
41
1
10
47.4786666985983
20
-4.31906214146753
30
0
0
SPLINE
5
D5
100
AcDbEntity
8
1
62
256
6
ByLayer
370
18
48
1
60
0
100
AcDbSpline
70
4
71
3
72
16
73
12
40
0
40
0
40
0
40
0
40
0.271696229897566
40
0.271696229897566
40
0.407544344846349
40
0.407544344846349
40
0.543392459795132
40
0.543392459795132
40
0.8150886896927
40
0.8150886896927
40
1
40
1
40
1
40
1
41
1
10
47.200128220877
20
-3.24326715732411
30
0
41
1
10
47.1998680879326
20
-3.39032145449116
30
0
41
1
10
47.2064242441338
20
-3.51938153802337
30
0
41
1
10
47.2267831764914
20
-3.68648371725413
30
0
41
1
10
47.2353368488756
20
-3.73774490633818
30
0
41
1
10
47.2561967839055
20
-3.83116635206221
30
0
41
1
10
47.2684409764359
20
-3.87294279768298
30
0
41
1
10
47.3102412463587
20
-3.98246940164495
30
0
41
1
10
47.3449698875867
20
-4.03521600963239
30
0
41
1
10
47.4157261094848
20
-4.09060487097543
30
0
41
1
10
47.447922382781
20
-4.10373141091802
30
0
41
1
10
47.4834157072316
20
-4.10749355530666
30
0
0
SPLINE
5
D6
100
AcDbEntity
8
1
62
256
6
ByLayer
370
18
48
1
60
0
100
AcDbSpline
70
4
71
3
72
92
73
88
40
0
40
0
40
0
40
0
40
0.0149374990397151
40
0.0149374990397151
40
0.0331793972056468
40
0.0331793972056468
40
0.0514212953715785
40
0.0514212953715785
40
0.0879050917034419
40
0.0879050917034419
40
0.106146989869374
40
0.106146989869374
40
0.124388888035305
40
0.124388888035305
40
0.142630786201237
40
0.142630786201237
40
0.160872684367169
40
0.160872684367169
40
0.197356480699032
40
0.197356480699032
40
0.215598378864964
40
0.215598378864964
40
0.233840277030896
40
0.233840277030896
40
0.252082175196828
40
0.252082175196828
40
0.270324073362759
40
0.270324073362759
40
0.306807869694623
40
0.306807869694623
40
0.343291666026486
40
0.343291666026486
40
0.37977546235835
40
0.37977546235835
40
0.416259258690213
40
0.416259258690213
40
0.452743055022077
40
0.452743055022077
40
0.470984953188008
40
0.470984953188008
40
0.48922685135394
40
0.48922685135394
40
0.525710647685804
40
0.525710647685804
40
0.543952545851735
40
0.543952545851735
40
0.562194444017667
40
0.562194444017667
40
0.598678240349529
40
0.598678240349529
40
0.61692013851546
40
0.61692013851546
40
0.63516203668139
40
0.63516203668139
40
0.653403934847321
40
0.653403934847321
40
0.671645833013251
40
0.671645833013251
40
0.689887731179181
40
0.689887731179181
40
0.708129629345112
40
0.708129629345112
40
0.726371527511042
40
0.726371527511042
40
0.744613425676973
40
0.744613425676973
40
0.762855323842903
40
0.762855323842903
40
0.781097222008833
40
0.781097222008833
40
0.799339120174764
40
0.799339120174764
40
0.817581018340694
40
0.817581018340694
40
0.835822916506625
40
0.835822916506625
40
0.854064814672555
40
0.854064814672555
40
0.890548611004417
40
0.890548611004417
40
0.927032407336278
40
0.927032407336278
40
0.945274305502209
40
0.945274305502209
40
0.963516203668139
40
0.963516203668139
40
1
40
1
40
1
40
1
41
1
10
38.9065628568538
20
-3.06685773766122
30
0
41
1
10
38.7721514750379
20
-3.10910478973389
30
0
41
1
10
38.6376912692706
20
-3.15015416555406
30
0
41
1
10
38.3388420872806
20
-3.238479037384
30
0
41
1
10
38.1743399996686
20
-3.28517814855442
30
0
41
1
10
37.8451897214785
20
-3.37569741618682
30
0
41
1
10
37.6805672733888
20
-3.41956174315877
30
0
41
1
10
37.187077211626
20
-3.54500167776931
30
0
41
1
10
36.8588648983656
20
-3.62119061197615
30
0
41
1
10
36.3663875550836
20
-3.72295739967822
30
0
41
1
10
36.2022514644876
20
-3.75477040963182
30
0
41
1
10
35.8740826413141
20
-3.81368085547993
30
0
41
1
10
35.7098515569345
20
-3.84070850460861
30
0
41
1
10
35.3814095490418
20
-3.89150163686128
30
0
41
1
10
35.2173299292106
20
-3.91519889373564
30
0
41
1
10
34.888669337886
20
-3.95845648237142
30
0
41
1
10
34.7241756341606
20
-3.97808256139405
30
0
41
1
10
34.2304143553716
20
-4.0307416109103
30
0
41
1
10
33.9015522481939
20
-4.05761266143597
30
0
41
1
10
33.4092927179801
20
-4.08280950823502
30
0
41
1
10
33.2451416590192
20
-4.08832075557271
30
0
41
1
10
32.9168171315432
20
-4.09491495977321
30
0
41
1
10
32.7527084084603
20
-4.09651507298511
30
0
41
1
10
32.4246062481917
20
-4.09566893001818
30
0
41
1
10
32.2603948320973
20
-4.0932087310369
30
0
41
1
10
31.9320977564138
20
-4.08405305672389
30
0
41
1
10
31.7680243488251
20
-4.07733294114888
30
0
41
1
10
31.2750062667068
20
-4.05077615143065
30
0
41
1
10
30.9456930290249
20
-4.02466713665373
30
0
41
1
10
30.2884192656917
20
-3.95253837646851
30
0
41
1
10
29.9605297805549
20
-3.9076570024879
30
0
41
1
10
29.3041880784031
20
-3.80188336627773
30
0
41
1
10
28.9760329561832
20
-3.74040062442273
30
0
41
1
10
28.3195454382303
20
-3.60254743840261
30
0
41
1
10
27.9905883310528
20
-3.52655391786561
30
0
41
1
10
27.3328778548012
20
-3.35869835128875
30
0
41
1
10
27.0046789245057
20
-3.26749964508227
30
0
41
1
10
26.5126518584283
20
-3.1186719486158
30
0
41
1
10
26.3485685200202
20
-3.06735132585217
30
0
41
1
10
26.020452455725
20
-2.96198614943342
30
0
41
1
10
25.8565006474193
20
-2.90778492206934
30
0
41
1
10
25.3644210447964
20
-2.74087743572988
30
0
41
1
10
25.0363340716348
20
-2.62352781308934
30
0
41
1
10
24.5430959842126
20
-2.4393249623358
30
0
41
1
10
24.3784413929895
20
-2.37657964698968
30
0
41
1
10
24.0497884992772
20
-2.24812283137297
30
0
41
1
10
23.8855770759399
20
-2.1825040141544
30
0
41
1
10
23.3930038681489
20
-1.98295279940777
30
0
41
1
10
23.0652731812995
20
-1.84552715161939
30
0
41
1
10
22.5732341992517
20
-1.63453538515248
30
0
41
1
10
22.4093299411788
20
-1.56305215414574
30
0
41
1
10
22.0812176341574
20
-1.41873745356122
30
0
41
1
10
21.9170251005964
20
-1.3458848029351
30
0
41
1
10
21.5887632467089
20
-1.19792156523894
30
0
41
1
10
21.424403665398
20
-1.12327189466205
30
0
41
1
10
21.0950811746885
20
-0.972832859723553
30
0
41
1
10
20.9304495787915
20
-0.897208531285941
30
0
41
1
10
20.6016860369907
20
-0.744880616399598
30
0
41
1
10
20.4373403249112
20
-0.668516713105817
30
0
41
1
10
20.1088312306703
20
-0.515131263248406
30
0
41
1
10
19.944845713666
20
-0.437733407363112
30
0
41
1
10
19.6166193951725
20
-0.283191444721666
30
0
41
1
10
19.4524553884364
20
-0.205885644889008
30
0
41
1
10
19.1241616180746
20
-0.0509036730286994
30
0
41
1
10
18.960119009199
20
0.0269516947197417
30
0
41
1
10
18.6315463498642
20
0.181976629563081
30
0
41
1
10
18.4670876744723
20
0.259321845062658
30
0
41
1
10
18.1382334641399
20
0.414380152932182
30
0
41
1
10
17.9735019924461
20
0.491638386474506
30
0
41
1
10
17.6442174286163
20
0.645357307740568
30
0
41
1
10
17.4797126991347
20
0.72188309905826
30
0
41
1
10
17.1509999932302
20
0.874030779577396
30
0
41
1
10
16.9865755520739
20
0.949268449444048
30
0
41
1
10
16.6580163969769
20
1.09937497943341
30
0
41
1
10
16.4939431594496
20
1.17430097881112
30
0
41
1
10
16.1654695469206
20
1.3222396592848
30
0
41
1
10
16.0011630052933
20
1.39544815139709
30
0
41
1
10
15.5082436836638
20
1.61308638179199
30
0
41
1
10
15.1791794504559
20
1.75528877152075
30
0
41
1
10
14.5207989645454
20
2.03039030650342
30
0
41
1
10
14.1917214247296
20
2.16227186788603
30
0
41
1
10
13.6988658546262
20
2.3549669309985
30
0
41
1
10
13.5344712365119
20
2.41783394102649
30
0
41
1
10
13.2060444216804
20
2.5416387938071
30
0
41
1
10
13.0419415496075
20
2.60242503940702
30
0
41
1
10
12.5490659290594
20
2.77953219313935
30
0
41
1
10
12.219950488299
20
2.89082612463227
30
0
41
1
10
11.8903786264029
20
2.99576832370093
30
0
0
SPLINE
5
D7
100
AcDbEntity
8
1
62
256
6
ByLayer
370
18
48
1
60
0
100
AcDbSpline
70
4
71
3
72
40
73
36
40
0
40
0
40
0
40
0
40
0.035326196606219
40
0.035326196606219
40
0.0812630443868717
40
0.0812630443868717
40
0.173136739948178
40
0.173136739948178
40
0.219073587728832
40
0.219073587728832
40
0.265010435509485
40
0.265010435509485
40
0.310947283290138
40
0.310947283290138
40
0.356884131070792
40
0.356884131070792
40
0.448757826632101
40
0.448757826632101
40
0.494694674412758
40
0.494694674412758
40
0.540631522193414
40
0.540631522193414
40
0.63250521775473
40
0.63250521775473
40
0.724378913316046
40
0.724378913316046
40
0.770315761096705
40
0.770315761096705
40
0.816252608877365
40
0.816252608877365
40
0.862189456658024
40
0.862189456658024
40
0.908126304438684
40
0.908126304438684
40
1
40
1
40
1
40
1
41
1
10
32.7018369929131
20
4.09606688701578
30
0
41
1
10
32.8281212953548
20
4.09568960781291
30
0
41
1
10
32.9544095686741
20
4.09415824611051
30
0
41
1
10
33.2449327748706
20
4.08832714656157
30
0
41
1
10
33.4090940721137
20
4.08281687798782
30
0
41
1
10
33.9011650072756
20
4.057638072413
30
0
41
1
10
34.2294508422827
20
4.03082173580273
30
0
41
1
10
34.7226489022967
20
3.97825663284826
30
0
41
1
10
34.887238091967
20
3.95863561184461
30
0
41
1
10
35.2165212765922
20
3.91531451211779
30
0
41
1
10
35.3808624749238
20
3.89158390505094
30
0
41
1
10
35.7097311670419
20
3.84072945412959
30
0
41
1
10
35.874132500518
20
3.81367346423306
30
0
41
1
10
36.2025205263101
20
3.75472054901434
30
0
41
1
10
36.3667031039255
20
3.72289482093038
30
0
41
1
10
36.859151770154
20
3.62112607054135
30
0
41
1
10
37.1871284937999
20
3.5449822445502
30
0
41
1
10
37.6799436419398
20
3.41972345675103
30
0
41
1
10
37.8441961879521
20
3.37596405831775
30
0
41
1
10
38.1731980916831
20
3.28549872929634
30
0
41
1
10
38.3379677872775
20
3.23873234404866
30
0
41
1
10
38.8315617131805
20
3.09286591369326
30
0
41
1
10
39.1598971643065
20
2.98800291845652
30
0
41
1
10
39.8161486354283
20
2.76563856050399
30
0
41
1
10
40.1443834137403
20
2.64879487352494
30
0
41
1
10
40.6364778888453
20
2.46499469948051
30
0
41
1
10
40.8007638099712
20
2.40283297407618
30
0
41
1
10
41.129287151819
20
2.27573549309466
30
0
41
1
10
41.2935705254736
20
2.21082139563731
30
0
41
1
10
41.6226172964978
20
2.07843082519366
30
0
41
1
10
41.7873280008406
20
2.01078107689622
30
0
41
1
10
42.1160443223922
20
1.87310986061811
30
0
41
1
10
42.2801769109838
20
1.80305214871677
30
0
41
1
10
42.7729150811866
20
1.59137193236575
30
0
41
1
10
43.1010083784985
20
1.44657436797036
30
0
41
1
10
43.429329038722
20
1.29977296356807
30
0
0
SPLINE
5
D8
100
AcDbEntity
8
1
62
256
6
ByLayer
370
13
48
1
60
0
100
AcDbSpline
70
4
71
3
72
12
73
8
40
0
40
0
40
0
40
0
40
0.170234165106972
40
0.170234165106972
40
0.585117082553486
40
0.585117082553486
40
1
40
1
40
1
40
1
41
1
10
4.25064800965876
20
-4.0820460341389
30
0
41
1
10
4.25065310082641
20
-4.08152655855071
30
0
41
1
10
4.2506582198429
20
-4.07993325390373
30
0
41
1
10
4.25067587706775
20
-4.07078547464374
30
0
41
1
10
4.25068849353201
20
-4.05790995908842
30
0
41
1
10
4.25071347543374
20
-4.0189921473044
30
0
41
1
10
4.2507257778455
20
-3.99299087156425
30
0
41
1
10
4.2507374790784
20
-3.96078009280552
30
0
0
SPLINE
5
D9
100
AcDbEntity
8
1
62
256
6
ByLayer
370
18
48
1
60
0
100
AcDbSpline
70
4
71
3
72
30
73
26
40
0
40
0
40
0
40
0
40
0.0624999999999991
40
0.0624999999999991
40
0.124999999999998
40
0.124999999999998
40
0.187499999999997
40
0.187499999999997
40
0.249999999999996
40
0.249999999999996
40
0.374999999999997
40
0.374999999999997
40
0.4375
40
0.4375
40
0.500000000000002
40
0.500000000000002
40
0.625000000000003
40
0.625000000000003
40
0.750000000000004
40
0.750000000000004
40
0.812500000000004
40
0.812500000000004
40
0.875000000000004
40
0.875000000000004
40
1
40
1
40
1
40
1
41
1
10
43.429329038722
20
1.29977296356819
30
0
41
1
10
43.4305560900749
20
1.17119549234764
30
0
41
1
10
43.4408518334756
20
1.04135252924649
30
0
41
1
10
43.479112151262
20
0.779201003591339
30
0
41
1
10
43.5074691252868
20
0.645741321478965
30
0
41
1
10
43.5793256104877
20
0.384511313540543
30
0
41
1
10
43.6227311781045
20
0.256220284658355
30
0
41
1
10
43.7227964637364
20
0.0037576566712119
30
0
41
1
10
43.77968305103
20
-0.120834560982161
30
0
41
1
10
43.9673946005122
20
-0.486094365792468
30
0
41
1
10
44.1118813521057
20
-0.712556666863605
30
0
41
1
10
44.3495433285152
20
-1.03380844820879
30
0
41
1
10
44.4323196285206
20
-1.13775973460213
30
0
41
1
10
44.6042615931747
20
-1.3400330600241
30
0
41
1
10
44.6929595418814
20
-1.43776964991707
30
0
41
1
10
44.9637139921688
20
-1.7194576783773
30
0
41
1
10
45.1514288939015
20
-1.89323277465706
30
0
41
1
10
45.5382992964635
20
-2.21854732644869
30
0
41
1
10
45.7374845970337
20
-2.37002886398548
30
0
41
1
10
46.0436589991059
20
-2.58287562659555
30
0
41
1
10
46.1470448345011
20
-2.65145756125259
30
0
41
1
10
46.354637068889
20
-2.78312529614561
30
0
41
1
10
46.4590271799272
20
-2.84634593103976
30
0
41
1
10
46.7738679396864
20
-3.02865891565142
30
0
41
1
10
46.9859821900949
20
-3.14043237119833
30
0
41
1
10
47.2001282208771
20
-3.24326715732411
30
0
0
SPLINE
5
DA
100
AcDbEntity
8
1
62
256
6
ByLayer
370
18
48
1
60
0
100
AcDbSpline
70
4
71
3
72
12
73
8
40
0
40
0
40
0
40
0
40
0.25
40
0.25
40
0.5
40
0.5
40
1
40
1
40
1
40
1
41
1
10
4.13885342684506
20
1.02784805273959
30
0
41
1
10
4.12212493235415
20
1.03590758880094
30
0
41
1
10
4.10663044944275
20
1.0456073087357
30
0
41
1
10
4.07801613778497
20
1.06814563251527
30
0
41
1
10
4.06480056652626
20
1.08115522082548
30
0
41
1
10
4.03061921486659
20
1.12323086110553
30
0
41
1
10
4.01429284843672
20
1.15635729441516
30
0
41
1
10
4.00616444552233
20
1.19089930557706
30
0
0
SPLINE
5
DB
100
AcDbEntity
8
1
62
256
6
ByLayer
370
13
48
1
60
0
100
AcDbSpline
70
4
71
3
72
12
73
8
40
0
40
0
40
0
40
0
40
0.50000000000002
40
0.50000000000002
40
0.75000000000001
40
0.75000000000001
40
1
40
1
40
1
40
1
41
1
10
4.00232795745666
20
1.22366484343496
30
0
41
1
10
4.00769380685449
20
1.19119828807871
30
0
41
1
10
4.02242190589931
20
1.15980344667187
30
0
41
1
10
4.05735617243468
20
1.11910008291909
30
0
41
1
10
4.07143172943921
20
1.10630475893924
30
0
41
1
10
4.10339563646139
20
1.0839273184308
30
0
41
1
10
4.12117043497798
20
1.07431291295487
30
0
41
1
10
4.14100947724566
20
1.06648524978601
30
0
0
SPLINE
5
DC
100
AcDbEntity
8
1
62
256
6
ByLayer
370
18
48
1
60
0
100
AcDbSpline
70
4
71
3
72
8
73
4
40
0
40
0
40
0
40
0
40
1
40
1
40
1
40
1
41
1
10
48.9999620037825
20
0.0417743092029923
30
0
41
1
10
49.0000126682674
20
0.0139231963350994
30
0
41
1
10
49.000012661697
20
-0.0139268081602211
30
0
41
1
10
48.9999620037825
20
-0.0417743091886393
30
0
0
SPLINE
5
DD
100
AcDbEntity
8
1
62
256
6
ByLayer
370
13
48
1
60
0
100
AcDbSpline
70
4
71
3
72
8
73
4
40
0
40
0
40
0
40
0
40
1
40
1
40
1
40
1
41
1
10
4.25026173232939
20
1.03043790400807
30
0
41
1
10
4.21236479973567
20
1.04079661585493
30
0
41
1
10
4.17539657007032
20
1.05291752931083
30
0
41
1
10
4.14100947724566
20
1.06648524978601
30
0
0
SPLINE
5
DE
100
AcDbEntity
8
1
62
256
6
ByLayer
370
18
48
1
60
0
100
AcDbSpline
70
4
71
3
72
10
73
6
40
0
40
0
40
0
40
0
40
0.5
40
0.5
40
1
40
1
40
1
40
1
41
1
10
48.9999620037871
20
0.0417743092194769
30
0
41
1
10
48.9962281249492
20
0.0264322752255737
30
0
41
1
10
48.9911254666408
20
0.0099842235562733
30
0
41
1
10
48.9788208317117
20
-0.0212424244781744
30
0
41
1
10
48.9715811377778
20
-0.0360467052030629
30
0
41
1
10
48.9642463374348
20
-0.0480543174662671
30
0
0
SPLINE
5
DF
100
AcDbEntity
8
1
62
256
6
ByLayer
370
18
48
1
60
0
100
AcDbSpline
70
4
71
3
72
48
73
44
40
0
40
0
40
0
40
0
40
0.0489739468653245
40
0.0489739468653245
40
0.0979478937306491
40
0.0979478937306491
40
0.146921840595974
40
0.146921840595974
40
0.195895787461298
40
0.195895787461298
40
0.244869734326623
40
0.244869734326623
40
0.293843681191947
40
0.293843681191947
40
0.342817628057272
40
0.342817628057272
40
0.391791574922596
40
0.391791574922596
40
0.440765521787921
40
0.440765521787921
40
0.489739468653246
40
0.489739468653246
40
0.53871341551857
40
0.53871341551857
40
0.587687362383895
40
0.587687362383895
40
0.636661309249219
40
0.636661309249219
40
0.661148282681881
40
0.661148282681881
40
0.685635256114544
40
0.685635256114544
40
0.734609202979869
40
0.734609202979869
40
0.783583149845195
40
0.783583149845195
40
0.881531043575848
40
0.881531043575848
40
0.930504990441174
40
0.930504990441174
40
0.979478937306499
40
0.979478937306499
40
1
40
1
40
1
40
1
41
1
10
47.4786666985983
20
-4.31906214146753
30
0
41
1
10
47.0272278202915
20
-4.33047587040105
30
0
41
1
10
46.5761261026592
20
-4.32419182347638
30
0
41
1
10
45.6725999587713
20
-4.27648543272002
30
0
41
1
10
45.220520138193
20
-4.23502469222709
30
0
41
1
10
44.3176710142333
20
-4.11808088354127
30
0
41
1
10
43.8659105127068
20
-4.04252108241929
30
0
41
1
10
42.9620868801067
20
-3.85893571754732
30
0
41
1
10
42.5108741153215
20
-3.75118772255516
30
0
41
1
10
41.6077968818955
20
-3.50582492817782
30
0
41
1
10
41.1554599835839
20
-3.36810289799894
30
0
41
1
10
40.2523015951325
20
-3.06694983311473
30
0
41
1
10
39.8010393164663
20
-2.90337019488308
30
0
41
1
10
38.8970027833391
20
-2.55323259452993
30
0
41
1
10
38.445548883025
20
-2.36733405739821
30
0
41
1
10
37.5440266706036
20
-1.97846672857048
30
0
41
1
10
37.0935938547668
20
-1.77534488363841
30
0
41
1
10
36.1911357788269
20
-1.35577459359206
30
0
41
1
10
35.7385296488941
20
-1.13888445203099
30
0
41
1
10
34.8361830742975
20
-0.698938514065617
30
0
41
1
10
34.3856962361631
20
-0.475739496354208
30
0
41
1
10
33.4839852570655
20
-0.027128398632442
30
0
41
1
10
33.0323451256792
20
0.198699053526411
30
0
41
1
10
32.1284113136329
20
0.64721325862692
30
0
41
1
10
31.6775577635028
20
0.868991699747539
30
0
41
1
10
30.7759888513241
20
1.3035229753755
30
0
41
1
10
30.3252846365238
20
1.51629785522181
30
0
41
1
10
29.6478009255443
20
1.82571393316752
30
0
41
1
10
29.421540965777
20
1.92730468363322
30
0
41
1
10
28.9697551723472
20
2.12589459392259
30
0
41
1
10
28.7441071313156
20
2.2229621383708
30
0
41
1
10
28.0675279683637
20
2.50688625032143
30
0
41
1
10
27.6169732648016
20
2.68648011661455
30
0
41
1
10
26.714727015903
20
3.02284237937127
30
0
41
1
10
26.2622224321643
20
3.17995288750586
30
0
41
1
10
24.9074620962139
20
3.60928337613282
30
0
41
1
10
24.0077744925092
20
3.83959101804004
30
0
41
1
10
22.6510220711844
20
4.08813539204513
30
0
41
1
10
22.1995324010573
20
4.15436628508832
30
0
41
1
10
21.2975790045258
20
4.25244013763933
30
0
41
1
10
20.8469944315112
20
4.28437852084858
30
0
41
1
10
20.2063790283265
20
4.30478518635962
30
0
41
1
10
20.0169629087783
20
4.30771631213025
30
0
41
1
10
19.8275068338146
20
4.3075634459129
30
0
0
SPLINE
5
E0
100
AcDbEntity
8
1
62
256
6
ByLayer
370
18
48
1
60
0
100
AcDbSpline
70
4
71
2
72
6
73
3
40
0
40
0
40
0
40
1
40
1
40
1
41
1
10
47.2054453125969
20
-4.10839728927647
30
0
41
1
10
47.3461526377369
20
-4.10848025811765
30
0
41
1
10
47.4855699032391
20
-4.10755809208334
30
0
0
SPLINE
5
E1
100
AcDbEntity
8
1
62
256
6
ByLayer
370
18
48
1
60
0
100
AcDbSpline
70
4
71
3
72
27
73
23
40
0
40
0
40
0
40
0
40
0.073376258961271
40
0.129860386932516
40
0.17323320492013
40
0.204762077651045
40
0.237268453794501
40
0.275886135394659
40
0.31752852179143
40
0.367416395001223
40
0.425664577104044
40
0.483792092065017
40
0.526978990467392
40
0.566613979758144
40
0.638504747124436
40
0.702246705009813
40
0.741212676340924
40
0.780254825880584
40
0.824617572585229
40
0.883725176014292
40
0.944118744095482
40
1
40
1
40
1
40
1
41
1
10
32.7045879268523
20
4.09606369064613
30
0
41
1
10
32.4542446215153
20
4.09573395857106
30
0
41
1
10
32.0114752122223
20
4.09556814588896
30
0
41
1
10
31.4221109624717
20
4.09678417688713
30
0
41
1
10
30.9746850032312
20
4.09767695459962
30
0
41
1
10
30.6084426416337
20
4.09777873585833
30
0
41
1
10
30.2585550447508
20
4.0966081828449
30
0
41
1
10
29.8741251384184
20
4.09646951420328
30
0
41
1
10
29.4304575089442
20
4.09575395886952
30
0
41
1
10
28.9198658277833
20
4.09462686088156
30
0
41
1
10
28.3530774395107
20
4.09446620808299
30
0
41
1
10
27.8091319057606
20
4.0955714483741
30
0
41
1
10
27.3286393175236
20
4.09588127889236
30
0
41
1
10
26.8012238744075
20
4.09626333155074
30
0
41
1
10
26.2037555555507
20
4.09355747225032
30
0
41
1
10
25.6085450972105
20
4.09366394261787
30
0
41
1
10
25.1253289981233
20
4.09384508939439
30
0
41
1
10
24.7081671341821
20
4.09402052956685
30
0
41
1
10
24.2223477666048
20
4.09423098386287
30
0
41
1
10
23.6637647560639
20
4.09285760510247
30
0
41
1
10
23.0658861226412
20
4.09286663453798
30
0
41
1
10
22.6695101410781
20
4.09299958343232
30
0
41
1
10
22.4790147589222
20
4.09301203716279
30
0
0
SPLINE
5
E2
100
AcDbEntity
8
1
62
256
6
ByLayer
370
18
48
1
60
0
100
AcDbSpline
70
4
71
3
72
28
73
24
40
0
40
0
40
0
40
0
40
0.0785249036217263
40
0.150237962866216
40
0.202944852247356
40
0.250793398512682
40
0.31018034901849
40
0.381970324515303
40
0.446665272386415
40
0.491637063346738
40
0.541134381276184
40
0.59585079118631
40
0.643088846663378
40
0.689131802570015
40
0.73995752877619
40
0.792691047354837
40
0.848146358886542
40
0.887778878011708
40
0.901279190530233
40
0.917984375304968
40
0.944760022201939
40
0.981616712421666
40
1
40
1
40
1
40
1
41
1
10
19.9956107503539
20
-4.09151373522084
30
0
41
1
10
20.3242627035177
20
-4.09104194710577
30
0
41
1
10
20.9531574393168
20
-4.09056586380424
30
0
41
1
10
21.8005249762495
20
-4.09317326165444
30
0
41
1
10
22.523551084524
20
-4.09299804360018
30
0
41
1
10
23.1940454370183
20
-4.09274230174736
30
0
41
1
10
23.9451026159289
20
-4.09359224869931
30
0
41
1
10
24.7666745082543
20
-4.09418815480777
30
0
41
1
10
25.527812599861
20
-4.09362576425684
30
0
41
1
10
26.1954251168321
20
-4.09366754699204
30
0
41
1
10
26.8212033163795
20
-4.09634812516083
30
0
41
1
10
27.4564862434989
20
-4.09585427622972
30
0
41
1
10
28.0772775230315
20
-4.0951063875107
30
0
41
1
10
28.6817502467312
20
-4.09417925253001
30
0
41
1
10
29.3092723922408
20
-4.09562333754243
30
0
41
1
10
29.9762810528638
20
-4.09629500826856
30
0
41
1
10
30.5963093448307
20
-4.09798828501667
30
0
41
1
10
31.0518384084744
20
-4.09749324155763
30
0
41
1
10
31.3446192280129
20
-4.0969075139468
30
0
41
1
10
31.5835651128791
20
-4.09649326640826
30
0
41
1
10
31.9205552874235
20
-4.09607964675595
30
0
41
1
10
32.2645875607266
20
-4.09572762030095
30
0
41
1
10
32.4962814676899
20
-4.09609115921177
30
0
41
1
10
32.5733853875493
20
-4.09625386028202
30
0
0
SPLINE
5
E3
100
AcDbEntity
8
1
62
256
6
ByLayer
370
18
48
1
60
0
100
AcDbSpline
70
4
71
2
72
6
73
3
40
0
40
0
40
0
40
1
40
1
40
1
41
1
10
5.8304323129162
20
4.08348252693619
30
0
41
1
10
5.04064027189943
20
4.08347669279917
30
0
41
1
10
4.25064555160651
20
4.08161896263553
30
0
0
SPLINE
5
E4
100
AcDbEntity
8
1
62
256
6
ByLayer
370
18
48
1
60
0
100
AcDbSpline
70
4
71
2
72
6
73
3
40
0
40
0
40
0
40
1
40
1
40
1
41
1
10
4.25064555160654
20
-4.08161896263579
30
0
41
1
10
5.04042465054144
20
-4.08347634215505
30
0
41
1
10
5.83000112552406
20
-4.08348233114612
30
0
0
LINE
5
7B
100
AcDbEntity
8
SK1
62
256
6
ByLayer
370
18
48
1
60
0
100
AcDbLine
10
0
20
-5
30
0
11
0
21
5
31
0
39
0
210
0
220
0
230
1
0
LINE
5
7D
100
AcDbEntity
8
SK1
62
256
6
ByLayer
370
18
48
1
60
0
100
AcDbLine
10
-40
20
3.66
30
0
11
-40
21
-3.66
31
0
39
0
210
0
220
0
230
1
0
LINE
5
7E
100
AcDbEntity
8
SK1
62
256
6
ByLayer
370
18
48
1
60
0
100
AcDbLine
10
-38.66
20
5
30
0
11
-38.66
21
-5
31
0
39
0
210
0
220
0
230
1
0
LINE
5
7F
100
AcDbEntity
8
1
62
256
6
ByLayer
370
13
48
1
60
0
100
AcDbLine
10
47.548838
20
1.029746
30
0
11
48.989517
21
0.117761
31
0
39
0
210
0
220
0
230
1
0
LINE
5
80
100
AcDbEntity
8
1
62
256
6
ByLayer
370
13
48
1
60
0
100
AcDbLine
10
47.414137
20
0.933202
30
0
11
48.964246
21
-0.048054
31
0
39
0
210
0
220
0
230
1
0
LINE
5
81
100
AcDbEntity
8
1
62
256
6
ByLayer
370
13
48
1
60
0
100
AcDbLine
10
1.326076
20
4.296018
30
0
11
1.326076
21
-4.296018
31
0
39
0
210
0
220
0
230
1
0
LINE
5
82
100
AcDbEntity
8
1
62
256
6
ByLayer
370
18
48
1
60
0
100
AcDbLine
10
0
20
-5
30
0
11
0
21
5
31
0
39
0
210
0
220
0
230
1
0
LINE
5
83
100
AcDbEntity
8
1
62
256
6
ByLayer
370
13
48
1
60
0
100
AcDbLine
10
0.662788
20
4.648009
30
0
11
0.662788
21
-4.648009
31
0
39
0
210
0
220
0
230
1
0
LINE
5
84
100
AcDbEntity
8
1
62
256
6
ByLayer
370
18
48
1
60
0
100
AcDbLine
10
4.250643
20
-4.082206
30
0
11
4.250648
21
-4.082046
31
0
39
0
210
0
220
0
230
1
0
LINE
5
85
100
AcDbEntity
8
80
62
256
6
ByLayer
370
18
48
1
60
0
100
AcDbLine
10
0
20
0
30
0
11
-5
21
0
31
0
39
0
210
0
220
0
230
1
0
LINE
5
86
100
AcDbEntity
8
SK4
62
256
6
ByLayer
370
18
48
0.05
60
0
100
AcDbLine
10
54
20
0
30
0
11
-45
21
0
31
0
39
0
210
0
220
0
230
1
0
LINE
5
88
100
AcDbEntity
8
4
62
256
6
ByLayer
370
18
48
0.05
60
0
100
AcDbLine
10
49
20
0
30
0
11
0
21
0
31
0
39
0
210
0
220
0
230
1
0
LINE
5
8A
100
AcDbEntity
8
SK1
62
256
6
ByLayer
370
18
48
1
60
0
100
AcDbLine
10
-38.66
20
-5
30
0
11
0
21
-5
31
0
39
0
210
0
220
0
230
1
0
LINE
5
8B
100
AcDbEntity
8
SK1
62
256
6
ByLayer
370
18
48
1
60
0
100
AcDbLine
10
0
20
5
30
0
11
-38.66
21
5
31
0
39
0
210
0
220
0
230
1
0
LINE
5
8C
100
AcDbEntity
8
SK1
62
256
6
ByLayer
370
18
48
1
60
0
100
AcDbLine
10
-40
20
-3.66
30
0
11
-38.66
21
-5
31
0
39
0
210
0
220
0
230
1
0
LINE
5
8D
100
AcDbEntity
8
SK1
62
256
6
ByLayer
370
18
48
1
60
0
100
AcDbLine
10
-38.66
20
5
30
0
11
-40
21
3.66
31
0
39
0
210
0
220
0
230
1
0
LINE
5
8E
100
AcDbEntity
8
1
62
256
6
ByLayer
370
18
48
1
60
0
100
AcDbLine
10
1.326076
20
-4.296018
30
0
11
4.002388
21
-4.297691
31
0
39
0
210
0
220
0
230
1
0
LINE
5
8F
100
AcDbEntity
8
1
62
256
6
ByLayer
370
18
48
1
60
0
100
AcDbLine
10
18.476108
20
-4.306737
30
0
11
19.829599
21
-4.307583
31
0
39
0
210
0
220
0
230
1
0
LINE
5
90
100
AcDbEntity
8
1
62
256
6
ByLayer
370
18
48
1
60
0
100
AcDbLine
10
45.673149
20
-4.323735
30
0
11
47.030727
21
-4.324583
31
0
39
0
210
0
220
0
230
1
0
LINE
5
91
100
AcDbEntity
8
1
62
256
6
ByLayer
370
18
48
1
60
0
100
AcDbLine
10
47.030614
20
4.324583
30
0
11
45.673149
21
4.323735
31
0
39
0
210
0
220
0
230
1
0
LINE
5
92
100
AcDbEntity
8
1
62
256
6
ByLayer
370
18
48
1
60
0
100
AcDbLine
10
19.830226
20
4.307583
30
0
11
18.476108
21
4.306737
31
0
39
0
210
0
220
0
230
1
0
LINE
5
93
100
AcDbEntity
8
1
62
256
6
ByLayer
370
18
48
1
60
0
100
AcDbLine
10
4.002388
20
4.297691
30
0
11
1.326076
21
4.296018
31
0
39
0
210
0
220
0
230
1
0
LINE
5
94
100
AcDbEntity
8
81
62
256
6
ByLayer
370
18
48
1
60
0
100
AcDbLine
10
49
20
0
30
0
11
54
21
0
31
0
39
0
210
0
220
0
230
1
0
LINE
5
95
100
AcDbEntity
8
SK2
62
256
6
ByLayer
370
13
48
1
60
0
100
AcDbLine
10
-48.625163
20
-5
30
0
11
-48.625163
21
35.857173
31
0
39
0
210
0
220
0
230
1
0
LINE
5
97
100
AcDbEntity
8
SK2
62
256
6
ByLayer
370
13
48
1
60
0
100
AcDbLine
10
-41.5875
20
5
30
0
11
-50.625163
21
5
31
0
39
0
210
0
220
0
230
1
0
LINE
5
98
100
AcDbEntity
8
SK2
62
256
6
ByLayer
370
13
48
1
60
0
100
AcDbLine
10
-41.5875
20
-5
30
0
11
-50.625163
21
-5
31
0
39
0
210
0
220
0
230
1
0
LINE
5
99
100
AcDbEntity
8
1
62
256
6
ByLayer
370
18
48
1
60
1
100
AcDbLine
10
-48.625163
20
5
30
0
11
-48.164379
21
1.500002
31
0
39
0
210
0
220
0
230
1
0
LINE
5
9A
100
AcDbEntity
8
1
62
256
6
ByLayer
370
18
48
1
60
1
100
AcDbLine
10
-48.164379
20
1.500002
30
0
11
-49.085946
21
1.499998
31
0
39
0
210
0
220
0
230
1
0
LINE
5
9B
100
AcDbEntity
8
1
62
256
6
ByLayer
370
18
48
1
60
1
100
AcDbLine
10
-49.085946
20
1.499998
30
0
11
-48.625163
21
5
31
0
39
0
210
0
220
0
230
1
0
LINE
5
9C
100
AcDbEntity
8
1
62
256
6
ByLayer
370
18
48
1
60
1
100
AcDbLine
10
-48.625163
20
-5
30
0
11
-49.085946
21
-1.500002
31
0
39
0
210
0
220
0
230
1
0
LINE
5
9D
100
AcDbEntity
8
1
62
256
6
ByLayer
370
18
48
1
60
1
100
AcDbLine
10
-49.085946
20
-1.500002
30
0
11
-48.164379
21
-1.499998
31
0
39
0
210
0
220
0
230
1
0
LINE
5
9E
100
AcDbEntity
8
1
62
256
6
ByLayer
370
18
48
1
60
1
100
AcDbLine
10
-48.164379
20
-1.499998
30
0
11
-48.625163
21
-5
31
0
39
0
210
0
220
0
230
1
0
LINE
5
9F
100
AcDbEntity
8
2
62
256
6
ByLayer
370
13
48
1
60
0
100
AcDbLine
10
61.083343
20
-4.325
30
0
11
61.083343
21
32.035193
31
0
39
0
210
0
220
0
230
1
0
LINE
5
A1
100
AcDbEntity
8
2
62
256
6
ByLayer
370
13
48
1
60
0
100
AcDbLine
10
49.3069
20
4.325
30
0
11
63.083343
21
4.325
31
0
39
0
210
0
220
0
230
1
0
LINE
5
A2
100
AcDbEntity
8
2
62
256
6
ByLayer
370
13
48
1
60
0
100
AcDbLine
10
49.3069
20
-4.325
30
0
11
63.083343
21
-4.325
31
0
39
0
210
0
220
0
230
1
0
LINE
5
A3
100
AcDbEntity
8
1
62
256
6
ByLayer
370
18
48
1
60
1
100
AcDbLine
10
61.083343
20
4.325
30
0
11
61.544126
21
0.825002
31
0
39
0
210
0
220
0
230
1
0
LINE
5
A4
100
AcDbEntity
8
1
62
256
6
ByLayer
370
18
48
1
60
1
100
AcDbLine
10
61.544126
20
0.825002
30
0
11
60.622559
21
0.824998
31
0
39
0
210
0
220
0
230
1
0
LINE
5
A5
100
AcDbEntity
8
1
62
256
6
ByLayer
370
18
48
1
60
1
100
AcDbLine
10
60.622559
20
0.824998
30
0
11
61.083343
21
4.325
31
0
39
0
210
0
220
0
230
1
0
LINE
5
A6
100
AcDbEntity
8
1
62
256
6
ByLayer
370
18
48
1
60
1
100
AcDbLine
10
61.083343
20
-4.325
30
0
11
60.622559
21
-0.825002
31
0
39
0
210
0
220
0
230
1
0
LINE
5
A7
100
AcDbEntity
8
1
62
256
6
ByLayer
370
18
48
1
60
1
100
AcDbLine
10
60.622559
20
-0.825002
30
0
11
61.544126
21
-0.824998
31
0
39
0
210
0
220
0
230
1
0
LINE
5
A8
100
AcDbEntity
8
1
62
256
6
ByLayer
370
18
48
1
60
1
100
AcDbLine
10
61.544126
20
-0.824998
30
0
11
61.083343
21
-4.325
31
0
39
0
210
0
220
0
230
1
0
LINE
5
EB
100
AcDbEntity
8
1
62
256
6
ByLayer
370
18
48
1
60
1
100
AcDbLine
10
-48.625163
20
5
30
0
11
-48.164379
21
1.500002
31
0
39
0
210
0
220
0
230
1
0
LINE
5
EC
100
AcDbEntity
8
1
62
256
6
ByLayer
370
18
48
1
60
1
100
AcDbLine
10
-48.164379
20
1.500002
30
0
11
-49.085946
21
1.499998
31
0
39
0
210
0
220
0
230
1
0
LINE
5
ED
100
AcDbEntity
8
1
62
256
6
ByLayer
370
18
48
1
60
1
100
AcDbLine
10
-49.085946
20
1.499998
30
0
11
-48.625163
21
5
31
0
39
0
210
0
220
0
230
1
0
LINE
5
EF
100
AcDbEntity
8
1
62
256
6
ByLayer
370
18
48
1
60
1
100
AcDbLine
10
-48.625163
20
-5
30
0
11
-49.085946
21
-1.500002
31
0
39
0
210
0
220
0
230
1
0
LINE
5
F0
100
AcDbEntity
8
1
62
256
6
ByLayer
370
18
48
1
60
1
100
AcDbLine
10
-49.085946
20
-1.500002
30
0
11
-48.164379
21
-1.499998
31
0
39
0
210
0
220
0
230
1
0
LINE
5
F1
100
AcDbEntity
8
1
62
256
6
ByLayer
370
18
48
1
60
1
100
AcDbLine
10
-48.164379
20
-1.499998
30
0
11
-48.625163
21
-5
31
0
39
0
210
0
220
0
230
1
0
LINE
5
F5
100
AcDbEntity
8
1
62
256
6
ByLayer
370
18
48
1
60
1
100
AcDbLine
10
61.083343
20
4.325
30
0
11
61.544126
21
0.825002
31
0
39
0
210
0
220
0
230
1
0
LINE
5
F6
100
AcDbEntity
8
1
62
256
6
ByLayer
370
18
48
1
60
1
100
AcDbLine
10
61.544126
20
0.825002
30
0
11
60.622559
21
0.824998
31
0
39
0
210
0
220
0
230
1
0
LINE
5
F7
100
AcDbEntity
8
1
62
256
6
ByLayer
370
18
48
1
60
1
100
AcDbLine
10
60.622559
20
0.824998
30
0
11
61.083343
21
4.325
31
0
39
0
210
0
220
0
230
1
0
LINE
5
F9
100
AcDbEntity
8
1
62
256
6
ByLayer
370
18
48
1
60
1
100
AcDbLine
10
61.083343
20
-4.325
30
0
11
60.622559
21
-0.825002
31
0
39
0
210
0
220
0
230
1
0
LINE
5
FA
100
AcDbEntity
8
1
62
256
6
ByLayer
370
18
48
1
60
1
100
AcDbLine
10
60.622559
20
-0.825002
30
0
11
61.544126
21
-0.824998
31
0
39
0
210
0
220
0
230
1
0
LINE
5
FB
100
AcDbEntity
8
1
62
256
6
ByLayer
370
18
48
1
60
1
100
AcDbLine
10
61.544126
20
-0.824998
30
0
11
61.083343
21
-4.325
31
0
39
0
210
0
220
0
230
1
0
MTEXT
5
E5
100
AcDbEntity
8
SK6
62
256
6
ByLayer
370
13
48
1
60
0
100
AcDbMText
10
-25.082626
20
36.865328
30
0
210
0
220
0
230
1
1
\W0.7776;462.1-0865-026A0-XM X2BM
40
3.5
41
0
44
1.084337
50
0
71
7
72
5
7
iso_b_vert
0
MTEXT
5
E9
100
AcDbEntity
8
SK2
62
256
6
ByLayer
370
18
48
1
60
0
100
AcDbMText
10
-50.189796
20
18.409024
30
0
210
0
220
0
230
1
1
%%c
40
3.5
41
0
44
1.084337
50
90
71
7
72
5
7
iso_b_vert
0
MTEXT
5
EA
100
AcDbEntity
8
SK2
62
256
6
ByLayer
370
18
48
1
60
0
100
AcDbMText
10
-50.189796
20
23.63168
30
0
210
0
220
0
230
1
1
\W0.6930;10,000
40
3.5
41
0
44
1.084337
50
90
71
7
72
5
7
iso_b_vert
0
MTEXT
5
F3
100
AcDbEntity
8
2
62
256
6
ByLayer
370
18
48
1
60
0
100
AcDbMText
10
59.518709
20
16.32711
30
0
210
0
220
0
230
1
1
%%c
40
3.5
41
0
44
1.084337
50
90
71
7
72
5
7
iso_b_vert
0
MTEXT
5
F4
100
AcDbEntity
8
2
62
256
6
ByLayer
370
18
48
1
60
0
100
AcDbMText
10
59.518709
20
21.549766
30
0
210
0
220
0
230
1
1
\W0.7317;8,650
40
3.5
41
0
44
1.084337
50
90
71
7
72
5
7
iso_b_vert
0
HATCH
5
EE
100
AcDbEntity
8
SK2
62
256
6
ByLayer
370
13
48
1
60
0
100
AcDbHatch
10
0
20
0
30
0
210
0
220
0
230
1
2
ANSI31
70
0
71
0
91
1
92
5
93
3
72
1
10
-48.6251625675374
20
5
11
-48.1643788259847
21
1.50000169255318
72
1
10
-48.1643788259847
20
1.50000169255318
11
-49.0859463090902
21
1.49999830744682
72
1
10
-49.0859463090902
20
1.49999830744682
11
-48.6251625675374
21
5
97
0
75
0
76
1
52
0
41
0.0062
77
0
78
1
53
45
43
0
44
0
45
-0.0139193969876572
46
0.0139193969876572
79
0
47
0
98
1
10
0
20
0
0
HATCH
5
F2
100
AcDbEntity
8
SK2
62
256
6
ByLayer
370
13
48
1
60
0
100
AcDbHatch
10
0
20
0
30
0
210
0
220
0
230
1
2
ANSI31
70
0
71
0
91
1
92
5
93
3
72
1
10
-48.6251625675374
20
-5
11
-49.0859463090902
21
-1.50000169255318
72
1
10
-49.0859463090902
20
-1.50000169255318
11
-48.1643788259847
21
-1.49999830744682
72
1
10
-48.1643788259847
20
-1.49999830744682
11
-48.6251625675374
21
-5
97
0
75
0
76
1
52
0
41
0.0062
77
0
78
1
53
45
43
0
44
0
45
-0.0139193969876572
46
0.0139193969876572
79
0
47
0
98
1
10
0
20
0
0
HATCH
5
F8
100
AcDbEntity
8
2
62
256
6
ByLayer
370
13
48
1
60
0
100
AcDbHatch
10
0
20
0
30
0
210
0
220
0
230
1
2
ANSI31
70
0
71
0
91
1
92
5
93
3
72
1
10
61.083342615295
20
4.32500000000002
11
61.5441263568478
21
0.825001692553201
72
1
10
61.5441263568478
20
0.825001692553201
11
60.6225588737423
21
0.824998307446833
72
1
10
60.6225588737423
20
0.824998307446833
11
61.083342615295
21
4.32500000000002
97
0
75
0
76
1
52
0
41
0.0062
77
0
78
1
53
45
43
0
44
0
45
-0.0139193969876572
46
0.0139193969876572
79
0
47
0
98
1
10
0
20
0
0
HATCH
5
FC
100
AcDbEntity
8
2
62
256
6
ByLayer
370
13
48
1
60
0
100
AcDbHatch
10
0
20
0
30
0
210
0
220
0
230
1
2
ANSI31
70
0
71
0
91
1
92
5
93
3
72
1
10
61.083342615295
20
-4.32499999999999
11
60.6225588737423
21
-0.825001692553172
72
1
10
60.6225588737423
20
-0.825001692553172
11
61.5441263568478
21
-0.824998307446805
72
1
10
61.5441263568478
20
-0.824998307446805
11
61.083342615295
21
-4.32499999999999
97
0
75
0
76
1
52
0
41
0.0062
77
0
78
1
53
45
43
0
44
0
45
-0.0139193969876572
46
0.0139193969876572
79
0
47
0
98
1
10
0
20
0
0
DIMENSION
5
FE
100
AcDbEntity
8
SK2
62
256
6
ByLayer
370
13
48
1
60
0
100
AcDbDimension
2
_U0
10
47.7194
20
-14.538398
30
0
11
23.8597
21
-14.538398
31
0
70
32
71
1
72
1
41
1
210
0
220
0
230
1
3
Standard
100
AcDbAlignedDimension
13
0
23
0
33
0
14
47.7194
24
-4.325
34
0
50
0
100
AcDbRotatedDimension
1001
ACAD
1000
DSTYLE
1002
{
1070
   371
1070
    13
1070
   372
1070
    13
1070
   170
1070
     0
1070
   144
1040
1.0
1070
   277
1070
     2
1070
   278
1070
    44
1070
   146
1040
1.0
1070
   345
1005
16
1070
   347
1005
16
1070
   346
1005
16
1070
   344
1005
0
1070
   343
1005
0
1070
   172
1070
     1
1070
    76
1070
     0
1070
    75
1070
     0
1070
   282
1070
     0
1070
   281
1070
     0
1070
    71
1070
     0
1070
    74
1070
     0
1070
   279
1070
     0
1070
   173
1070
     1
1070
   340
1005
E6
1070
   271
1070
     2
1070
   272
1070
     2
1070
    77
1070
     1
1070
    73
1070
     1
1070
   171
1070
     3
1070
   274
1070
     4
1070
   177
1070
    35
1070
   176
1070
    35
1070
   178
1070
    35
1070
    48
1040
-0.1
1070
    41
1040
3.5
1070
   147
1040
1.75
1070
    42
1040
1.5875
1070
    44
1040
2.0
1070
   140
1040
3.5
1002
}
1001
ACAD_DSTYLE_DIM_LINETYPE
1070
   380
1005
16
1001
ACAD_DSTYLE_DIM_EXT1_LINETYPE
1070
   381
1005
16
1001
ACAD_DSTYLE_DIM_EXT2_LINETYPE
1070
   382
1005
16
0
DIMENSION
5
117
100
AcDbEntity
8
SK2
62
256
6
ByLayer
370
13
48
1
60
0
100
AcDbDimension
2
_U1
10
49
20
-33.692985
30
0
11
4.5
21
-33.692985
31
0
70
32
71
1
72
1
41
1
210
0
220
0
230
1
3
Standard
100
AcDbAlignedDimension
13
-40
23
-5
33
0
14
49
24
0
34
0
50
0
100
AcDbRotatedDimension
1001
ACAD
1000
DSTYLE
1002
{
1070
   371
1070
    13
1070
   372
1070
    13
1070
   170
1070
     0
1070
   144
1040
1.0
1070
   277
1070
     2
1070
   278
1070
    44
1070
   146
1040
1.0
1070
   345
1005
16
1070
   347
1005
16
1070
   346
1005
16
1070
   344
1005
0
1070
   343
1005
0
1070
   172
1070
     1
1070
    76
1070
     0
1070
    75
1070
     0
1070
   282
1070
     0
1070
   281
1070
     0
1070
    71
1070
     0
1070
    74
1070
     0
1070
   279
1070
     0
1070
   173
1070
     1
1070
   340
1005
E6
1070
   271
1070
     2
1070
   272
1070
     2
1070
    77
1070
     1
1070
    73
1070
     1
1070
   171
1070
     3
1070
   274
1070
     4
1070
   177
1070
    35
1070
   176
1070
    35
1070
   178
1070
    35
1070
    48
1040
-0.1
1070
    41
1040
3.5
1070
   147
1040
1.75
1070
    42
1040
1.5875
1070
    44
1040
2.0
1070
   140
1040
3.5
1002
}
1001
ACAD_DSTYLE_DIM_LINETYPE
1070
   380
1005
16
1001
ACAD_DSTYLE_DIM_EXT1_LINETYPE
1070
   381
1005
16
1001
ACAD_DSTYLE_DIM_EXT2_LINETYPE
1070
   382
1005
16
0
DIMENSION
5
12F
100
AcDbEntity
8
SK2
62
256
6
ByLayer
370
13
48
1
60
0
100
AcDbDimension
2
_U2
10
49
20
15.934119
30
0
11
35.385
21
15.934119
31
0
70
32
71
1
72
1
41
1
210
0
220
0
230
1
3
Standard
100
AcDbAlignedDimension
13
21.77
23
4.325
33
0
14
49
24
0
34
0
50
0
100
AcDbRotatedDimension
1001
ACAD
1000
DSTYLE
1002
{
1070
   371
1070
    13
1070
   372
1070
    13
1070
   170
1070
     0
1070
   144
1040
1.0
1070
   277
1070
     2
1070
   278
1070
    44
1070
   146
1040
1.0
1070
   345
1005
16
1070
   347
1005
16
1070
   346
1005
16
1070
   344
1005
0
1070
   343
1005
0
1070
   172
1070
     1
1070
    76
1070
     0
1070
    75
1070
     0
1070
   282
1070
     0
1070
   281
1070
     0
1070
    71
1070
     0
1070
    74
1070
     0
1070
   279
1070
     0
1070
   173
1070
     1
1070
   340
1005
E6
1070
   271
1070
     2
1070
   272
1070
     2
1070
    77
1070
     1
1070
    73
1070
     1
1070
   171
1070
     3
1070
   274
1070
     4
1070
   177
1070
    35
1070
   176
1070
    35
1070
   178
1070
    35
1070
    48
1040
-0.1
1070
    41
1040
3.5
1070
   147
1040
1.75
1070
    42
1040
1.5875
1070
    44
1040
2.0
1070
   140
1040
3.5
1002
}
1001
ACAD_DSTYLE_DIM_LINETYPE
1070
   380
1005
16
1001
ACAD_DSTYLE_DIM_EXT1_LINETYPE
1070
   381
1005
16
1001
ACAD_DSTYLE_DIM_EXT2_LINETYPE
1070
   382
1005
16
0
DIMENSION
5
147
100
AcDbEntity
8
SK2
62
256
6
ByLayer
370
13
48
1
60
0
100
AcDbDimension
2
_U3
10
47.7194
20
-17.127503
30
0
11
66.333333
21
-17.127503
31
0
70
32
71
1
72
1
41
1
210
0
220
0
230
1
3
Standard
100
AcDbAlignedDimension
13
49
23
0
33
0
14
47.7194
24
-4.325
34
0
50
0
100
AcDbRotatedDimension
1001
ACAD
1000
DSTYLE
1002
{
1070
   371
1070
    13
1070
   372
1070
    13
1070
   170
1070
     0
1070
   144
1040
1.0
1070
   277
1070
     2
1070
   278
1070
    44
1070
   146
1040
1.0
1070
   345
1005
16
1070
   347
1005
16
1070
   346
1005
16
1070
   344
1005
0
1070
   343
1005
0
1070
   172
1070
     1
1070
    76
1070
     0
1070
    75
1070
     0
1070
   282
1070
     0
1070
   281
1070
     0
1070
    71
1070
     0
1070
    74
1070
     0
1070
   279
1070
     0
1070
   173
1070
     1
1070
   340
1005
E6
1070
   271
1070
     2
1070
   272
1070
     2
1070
    77
1070
     1
1070
    73
1070
     1
1070
   171
1070
     3
1070
   274
1070
     4
1070
   177
1070
    35
1070
   176
1070
    35
1070
   178
1070
    35
1070
    48
1040
-0.1
1070
    41
1040
3.5
1070
   147
1040
1.75
1070
    42
1040
1.5875
1070
    44
1040
2.0
1070
   140
1040
3.5
1002
}
1001
ACAD_DSTYLE_DIM_LINETYPE
1070
   380
1005
16
1001
ACAD_DSTYLE_DIM_EXT1_LINETYPE
1070
   381
1005
16
1001
ACAD_DSTYLE_DIM_EXT2_LINETYPE
1070
   382
1005
16
0
DIMENSION
5
161
100
AcDbEntity
8
SK2
62
256
6
ByLayer
370
13
48
1
60
0
100
AcDbDimension
2
_U4
10
47.7194
20
-23.343428
30
0
11
3.8597
21
-23.343428
31
0
70
32
71
1
72
1
41
1
210
0
220
0
230
1
3
Standard
100
AcDbAlignedDimension
13
-40
23
-5
33
0
14
47.7194
24
-4.325
34
0
50
0
100
AcDbRotatedDimension
1001
ACAD
1000
DSTYLE
1002
{
1070
   371
1070
    13
1070
   372
1070
    13
1070
   170
1070
     0
1070
   144
1040
1.0
1070
   277
1070
     2
1070
   278
1070
    44
1070
   146
1040
1.0
1070
   345
1005
16
1070
   347
1005
16
1070
   346
1005
16
1070
   344
1005
0
1070
   343
1005
0
1070
   172
1070
     1
1070
    76
1070
     0
1070
    75
1070
     0
1070
   282
1070
     0
1070
   281
1070
     0
1070
    71
1070
     0
1070
    74
1070
     0
1070
   279
1070
     0
1070
   173
1070
     1
1070
   340
1005
E6
1070
   271
1070
     2
1070
   272
1070
     2
1070
    77
1070
     1
1070
    73
1070
     1
1070
   171
1070
     3
1070
   274
1070
     4
1070
   177
1070
    35
1070
   176
1070
    35
1070
   178
1070
    35
1070
    48
1040
-0.1
1070
    41
1040
3.5
1070
   147
1040
1.75
1070
    42
1040
1.5875
1070
    44
1040
2.0
1070
   140
1040
3.5
1002
}
1001
ACAD_DSTYLE_DIM_LINETYPE
1070
   380
1005
16
1001
ACAD_DSTYLE_DIM_EXT1_LINETYPE
1070
   381
1005
16
1001
ACAD_DSTYLE_DIM_EXT2_LINETYPE
1070
   382
1005
16
0
ENDSEC
0
SECTION
2
OBJECTS
0
DICTIONARY
5
1e9
330
0
100
AcDbDictionary
280
0
281
1
3
ACAD_GROUP
350
1ea
3
ACAD_MLINESTYLE
350
1eb
0
DICTIONARY
5
1ea
330
0
100
AcDbDictionary
280
0
281
1
0
DICTIONARY
5
1eb
330
0
100
AcDbDictionary
280
0
281
1
3
Standard
350
18
0
MLINESTYLE
5
18
330
1eb
100
AcDbMlineStyle
2
Standard
70
0
3

62
256
51
90
52
90
71
2
49
-0.5
62
256
6
ByLayer
49
0.5
62
256
6
ByLayer
0
RASTERVARIABLES
5
1d7
330

100
AcDbRasterVariables
90
0
70
1
71
1
72
1
0
ENDSEC
0
EOF
