0
SECTION
2
HEADER
9
$ACADVER
1
AC1015
9
$DWGCODEPAGE
3
ANSI_1252
9
$HANDSEED
5
1f4
9
$ANGBASE
50
0
9
$ANGDIR
70
0
9
$ATTMODE
70
1
9
$AUNITS
70
0
9
$AUPREC
70
0
9
$CECOLOR
62
256
9
$CELTSCALE
40
1
9
$CELTYPE
6
ByLayer
9
$CELWEIGHT
370
18
9
$CLAYER
8
0
9
$CMLJUST
70
0
9
$CMLSCALE
40
1
9
$CMLSTYLE
2
Standard
9
$DIMSTYLE
2
Standard
9
$TEXTSIZE
40
0.2
9
$TEXTSTYLE
7
Standard
9
$LUNITS
70
2
9
$LUPREC
70
4
9
$EXTNAMES
290
1
9
$INSUNITS
70
4
9
$LTSCALE
40
1
9
$LWDISPLAY
290
1
9
$PDMODE
70
0
9
$PDSIZE
40
0
9
$PLINEGEN
70
0
0
ENDSEC
0
SECTION
2
CLASSES
0
CLASS
1
RASTERVARIABLES
2
AcDbRasterVariables
3
ISM
90
0
280
0
281
0
0
ENDSEC
0
SECTION
2
TABLES
0
TABLE
2
VPORT
5
1ea
100
AcDbSymbolTable
0
VPORT
5
1
100
AcDbSymbolTableRecord
100
AcDbViewportTableRecord
2
*Active
70
0
10
0
20
0
11
1
21
1
12
-1
22
1
13
0
23
0
14
0.5
24
0.5
15
10
25
10
16
0
26
0
36
1
17
0
27
0
37
0
0
ENDTAB
0
TABLE
2
LTYPE
5
1eb
100
AcDbSymbolTable
0
LTYPE
5
14
100
AcDbSymbolTableRecord
100
AcDbLinetypeTableRecord
70
0
2
ByBlock
3

72
65
73
0
40
0
0
LTYPE
5
15
100
AcDbSymbolTableRecord
100
AcDbLinetypeTableRecord
70
0
2
ByLayer
3

72
65
73
0
40
0
0
LTYPE
5
16
100
AcDbSymbolTableRecord
100
AcDbLinetypeTableRecord
70
0
2
Continuous
3
Solid line
72
65
73
0
40
0
0
LTYPE
5
6E
100
AcDbSymbolTableRecord
100
AcDbLinetypeTableRecord
70
0
2
CENTER
3
____ _ ____ _ ____ _ ____
72
65
73
4
40
47.5
49
22
74
0
49
-8.5
74
0
49
8.5
74
0
49
-8.5
74
0
0
LTYPE
5
6F
100
AcDbSymbolTableRecord
100
AcDbLinetypeTableRecord
70
0
2
DASHED
3
__ __ __ __ __ __ __ __ __
72
65
73
2
40
25.72
49
12.86
74
0
49
-12.86
74
0
0
ENDTAB
0
TABLE
2
LAYER
5
1ec
100
AcDbSymbolTable
0
LAYER
5
10
100
AcDbSymbolTableRecord
100
AcDbLayerTableRecord
2
0
70
0
62
7
6
Continuous
290
1
370
-3
390
0
0
LAYER
5
71
100
AcDbSymbolTableRecord
100
AcDbLayerTableRecord
2
80
70
0
62
-6
6
Continuous
290
1
370
-3
390
0
0
LAYER
5
73
100
AcDbSymbolTableRecord
100
AcDbLayerTableRecord
2
81
70
0
62
-3
6
Continuous
290
1
370
-3
390
0
0
LAYER
5
75
100
AcDbSymbolTableRecord
100
AcDbLayerTableRecord
2
1
70
0
62
4
6
Continuous
290
1
370
-3
390
0
0
LAYER
5
86
100
AcDbSymbolTableRecord
100
AcDbLayerTableRecord
2
4
70
0
62
-2
6
CENTER
290
1
370
-3
390
0
0
LAYER
5
9F
100
AcDbSymbolTableRecord
100
AcDbLayerTableRecord
2
2
70
0
62
7
6
Continuous
290
1
370
-3
390
0
0
LAYER
5
FE
100
AcDbSymbolTableRecord
100
AcDbLayerTableRecord
2
Defpoints
70
0
62
7
6
Continuous
290
0
370
-3
390
0
0
LAYER
5
1d6
100
AcDbSymbolTableRecord
100
AcDbLayerTableRecord
2
SK1
70
0
62
4
6
Continuous
290
1
370
-3
390
0
0
LAYER
5
1d7
100
AcDbSymbolTableRecord
100
AcDbLayerTableRecord
2
SK4
70
0
62
2
6
CENTER
290
1
370
-3
390
0
0
LAYER
5
1d8
100
AcDbSymbolTableRecord
100
AcDbLayerTableRecord
2
SK2
70
0
62
7
6
Continuous
290
1
370
-3
390
0
0
LAYER
5
1d9
100
AcDbSymbolTableRecord
100
AcDbLayerTableRecord
2
SK6
70
0
62
5
6
Continuous
290
1
370
-3
390
0
0
ENDTAB
0
TABLE
2
STYLE
5
1ed
100
AcDbSymbolTable
0
STYLE
5
11
100
AcDbSymbolTableRecord
100
AcDbTextStyleTableRecord
2
Standard
3
txt
70
0
71
0
40
0
41
1
42
0
50
0
0
STYLE
5
E3
100
AcDbSymbolTableRecord
100
AcDbTextStyleTableRecord
2
iso_b_vert
3
simplex.shx
70
0
71
0
40
0
41
1
42
0
50
0
0
STYLE
5
E4
100
AcDbSymbolTableRecord
100
AcDbTextStyleTableRecord
2
DWGDirectTextStyle
3
simplex
70
0
71
0
40
0
41
1
42
0
50
0
0
ENDTAB
0
TABLE
2
DIMSTYLE
5
1ee
100
AcDbSymbolTable
100
AcDbDimStyleTable
0
DIMSTYLE
105
27
100
AcDbSymbolTableRecord
100
AcDbDimStyleTableRecord
2
Standard
70
0
3
<>
41
0.18
42
0.0625
44
0.18
140
0.18
147
0.09
73
0
74
0
77
1
271
2
275
0
278
52
280
0
340
11
0
ENDTAB
0
TABLE
2
VIEW
5
1ef
100
AcDbSymbolTable
0
ENDTAB
0
TABLE
2
UCS
5
1f0
100
AcDbSymbolTable
0
ENDTAB
0
TABLE
2
APPID
5
1f1
100
AcDbSymbolTable
0
APPID
5
12
100
AcDbSymbolTableRecord
100
AcDbRegAppTableRecord
2
ACAD
70
0
0
APPID
5
FA
100
AcDbSymbolTableRecord
100
AcDbRegAppTableRecord
2
ACAD_DSTYLE_DIMBREAK
70
0
0
APPID
5
195
100
AcDbSymbolTableRecord
100
AcDbRegAppTableRecord
2
ACAD_DSTYLE_DIM_LINETYPE
70
0
0
APPID
5
196
100
AcDbSymbolTableRecord
100
AcDbRegAppTableRecord
2
ACAD_DSTYLE_DIM_EXT1_LINETYPE
70
0
0
APPID
5
197
100
AcDbSymbolTableRecord
100
AcDbRegAppTableRecord
2
ACAD_DSTYLE_DIM_EXT2_LINETYPE
70
0
0
APPID
5
1D2
100
AcDbSymbolTableRecord
100
AcDbRegAppTableRecord
2
ACAD_MLEADERVER
70
0
0
ENDTAB
0
TABLE
2
BLOCK_RECORD
5
1f2
100
AcDbSymbolTable
0
BLOCK_RECORD
5
1F
100
AcDbSymbolTableRecord
100
AcDbBlockTableRecord
2
*Model_Space
340
0
70
0
0
BLOCK_RECORD
5
1B
100
AcDbSymbolTableRecord
100
AcDbBlockTableRecord
2
*Paper_Space
340
0
70
0
0
BLOCK_RECORD
5
23
100
AcDbSymbolTableRecord
100
AcDbBlockTableRecord
2
*Paper_Space0
340
0
70
0
0
BLOCK_RECORD
5
FF
100
AcDbSymbolTableRecord
100
AcDbBlockTableRecord
2
*D1
340
0
70
0
0
BLOCK_RECORD
5
10B
100
AcDbSymbolTableRecord
100
AcDbBlockTableRecord
2
_U0
340
0
70
0
0
BLOCK_RECORD
5
117
100
AcDbSymbolTableRecord
100
AcDbBlockTableRecord
2
*D3
340
0
70
0
0
BLOCK_RECORD
5
123
100
AcDbSymbolTableRecord
100
AcDbBlockTableRecord
2
_U1
340
0
70
0
0
BLOCK_RECORD
5
12F
100
AcDbSymbolTableRecord
100
AcDbBlockTableRecord
2
*D5
340
0
70
0
0
BLOCK_RECORD
5
13C
100
AcDbSymbolTableRecord
100
AcDbBlockTableRecord
2
_U2
340
0
70
0
0
BLOCK_RECORD
5
148
100
AcDbSymbolTableRecord
100
AcDbBlockTableRecord
2
*D7
340
0
70
0
0
BLOCK_RECORD
5
156
100
AcDbSymbolTableRecord
100
AcDbBlockTableRecord
2
_U3
340
0
70
0
0
BLOCK_RECORD
5
162
100
AcDbSymbolTableRecord
100
AcDbBlockTableRecord
2
*D9
340
0
70
0
0
BLOCK_RECORD
5
16E
100
AcDbSymbolTableRecord
100
AcDbBlockTableRecord
2
_U4
340
0
70
0
0
ENDTAB
0
ENDSEC
0
SECTION
2
BLOCKS
0
BLOCK
5
20
100
AcDbEntity
8
0
100
AcDbBlockBegin
2
*Model_Space
70
0
10
0
20
0
30
0
3
*Model_Space
0
ENDBLK
5
21
100
AcDbEntity
8
0
100
AcDbBlockEnd
0
BLOCK
5
1C
100
AcDbEntity
8
0
100
AcDbBlockBegin
2
*Paper_Space
70
0
10
0
20
0
30
0
3
*Paper_Space
0
ENDBLK
5
1D
100
AcDbEntity
8
0
100
AcDbBlockEnd
0
BLOCK
5
24
100
AcDbEntity
8
0
100
AcDbBlockBegin
2
*Paper_Space0
70
0
10
0
20
0
30
0
3
*Paper_Space0
0
ENDBLK
5
25
100
AcDbEntity
8
0
100
AcDbBlockEnd
0
BLOCK
5
100
100
AcDbEntity
8
0
100
AcDbBlockBegin
2
*D1
70
1
10
0
20
0
30
0
3
*D1
0
LINE
5
102
100
AcDbEntity
8
0
62
256
6
ByLayer
370
-2
48
1
60
0
100
AcDbLine
10
0
20
-1.5875
30
0
11
0
21
-14.232898
31
0
39
0
210
0
220
0
230
1
0
LINE
5
103
100
AcDbEntity
8
0
62
256
6
ByLayer
370
-2
48
1
60
0
100
AcDbLine
10
29.4142
20
-3.607
30
0
11
29.4142
21
-14.232898
31
0
39
0
210
0
220
0
230
1
0
LINE
5
104
100
AcDbEntity
8
0
62
256
6
ByLayer
370
-2
48
1
60
0
100
AcDbLine
10
3.5
20
-12.232898
30
0
11
25.9142
21
-12.232898
31
0
39
0
210
0
220
0
230
1
0
SOLID
5
105
100
AcDbEntity
8
0
62
256
6
ByLayer
370
-1
48
1
60
0
100
AcDbTrace
10
3.5
20
-11.649565
30
0
11
3.5
21
-12.816232
31
0
12
0
22
-12.232898
32
0
13
0
23
-12.232898
33
0
39
0
210
0
220
0
230
1
0
SOLID
5
106
100
AcDbEntity
8
0
62
256
6
ByLayer
370
-1
48
1
60
0
100
AcDbTrace
10
25.9142
20
-12.816232
30
0
11
25.9142
21
-11.649565
31
0
12
29.4142
22
-12.232898
32
0
13
29.4142
23
-12.232898
33
0
39
0
210
0
220
0
230
1
0
MTEXT
5
107
100
AcDbEntity
8
0
62
256
6
ByLayer
370
18
48
1
60
0
100
AcDbMText
10
14.7071
20
-5.232898
30
0
210
0
220
0
230
1
1
\A1;29.41
40
3.5
41
0
44
1
50
0
71
5
72
5
7
iso_b_vert
0
POINT
5
108
100
AcDbEntity
8
Defpoints
62
0
6
ByLayer
370
-1
48
1
60
0
100
AcDbPoint
10
0
20
0
30
0
39
0
210
0
220
0
230
1
50
360
0
POINT
5
109
100
AcDbEntity
8
Defpoints
62
0
6
ByLayer
370
-1
48
1
60
0
100
AcDbPoint
10
29.4142
20
-2.0195
30
0
39
0
210
0
220
0
230
1
50
360
0
POINT
5
10A
100
AcDbEntity
8
Defpoints
62
0
6
ByLayer
370
-1
48
1
60
0
100
AcDbPoint
10
29.4142
20
-12.232898
30
0
39
0
210
0
220
0
230
1
50
360
0
ENDBLK
5
101
100
AcDbEntity
8
0
100
AcDbBlockEnd
0
BLOCK
5
112
100
AcDbEntity
8
0
100
AcDbBlockBegin
2
_U0
70
0
10
0
20
0
30
0
3
_U0
0
MTEXT
5
10C
100
AcDbEntity
8
SK2
62
256
6
ByLayer
370
13
48
1
60
0
100
AcDbMText
10
9.822968
20
-11.200265
30
0
210
0
220
0
230
1
1
\W0.7494;29,41
40
3.5
41
0
44
1.084337
50
0
71
7
72
5
7
iso_b_vert
0
LINE
5
10D
100
AcDbEntity
8
SK2
62
256
6
ByLayer
370
13
48
1
60
0
100
AcDbLine
10
0
20
-1.5875
30
0
11
0
21
-14.232898
31
0
39
0
210
0
220
0
230
1
0
LINE
5
10E
100
AcDbEntity
8
SK2
62
256
6
ByLayer
370
13
48
1
60
0
100
AcDbLine
10
29.4142
20
-3.607
30
0
11
29.4142
21
-14.232898
31
0
39
0
210
0
220
0
230
1
0
LINE
5
10F
100
AcDbEntity
8
SK2
62
256
6
ByLayer
370
13
48
1
60
0
100
AcDbLine
10
0
20
-12.232898
30
0
11
29.4142
21
-12.232898
31
0
39
0
210
0
220
0
230
1
0
SOLID
5
110
100
AcDbEntity
8
SK2
62
256
6
ByLayer
370
18
48
1
60
0
100
AcDbTrace
10
0
20
-12.232898
30
0
11
3.499998
21
-11.772115
31
0
12
3.500002
22
-12.693682
32
0
13
3.500002
23
-12.693682
33
0
39
0
210
0
220
0
230
1
0
SOLID
5
111
100
AcDbEntity
8
SK2
62
256
6
ByLayer
370
18
48
1
60
0
100
AcDbTrace
10
29.4142
20
-12.232898
30
0
11
25.914202
21
-12.693682
31
0
12
25.914198
22
-11.772115
32
0
13
25.914198
23
-11.772115
33
0
39
0
210
0
220
0
230
1
0
ENDBLK
5
113
100
AcDbEntity
8
0
100
AcDbBlockEnd
0
BLOCK
5
118
100
AcDbEntity
8
0
100
AcDbBlockBegin
2
*D3
70
1
10
0
20
0
30
0
3
*D3
0
LINE
5
11A
100
AcDbEntity
8
0
62
256
6
ByLayer
370
-2
48
1
60
0
100
AcDbLine
10
-36
20
-4.5875
30
0
11
-36
21
-33.692985
31
0
39
0
210
0
220
0
230
1
0
LINE
5
11B
100
AcDbEntity
8
0
62
256
6
ByLayer
370
-2
48
1
60
0
100
AcDbLine
10
30
20
-1.5875
30
0
11
30
21
-33.692985
31
0
39
0
210
0
220
0
230
1
0
LINE
5
11C
100
AcDbEntity
8
0
62
256
6
ByLayer
370
-2
48
1
60
0
100
AcDbLine
10
-32.5
20
-31.692985
30
0
11
26.5
21
-31.692985
31
0
39
0
210
0
220
0
230
1
0
SOLID
5
11D
100
AcDbEntity
8
0
62
256
6
ByLayer
370
-1
48
1
60
0
100
AcDbTrace
10
-32.5
20
-31.109652
30
0
11
-32.5
21
-32.276319
31
0
12
-36
22
-31.692985
32
0
13
-36
23
-31.692985
33
0
39
0
210
0
220
0
230
1
0
SOLID
5
11E
100
AcDbEntity
8
0
62
256
6
ByLayer
370
-1
48
1
60
0
100
AcDbTrace
10
26.5
20
-32.276319
30
0
11
26.5
21
-31.109652
31
0
12
30
22
-31.692985
32
0
13
30
23
-31.692985
33
0
39
0
210
0
220
0
230
1
0
MTEXT
5
11F
100
AcDbEntity
8
0
62
256
6
ByLayer
370
18
48
1
60
0
100
AcDbMText
10
-3
20
-24.692985
30
0
210
0
220
0
230
1
1
\A1;66.00
40
3.5
41
0
44
1
50
0
71
5
72
5
7
iso_b_vert
0
POINT
5
120
100
AcDbEntity
8
Defpoints
62
0
6
ByLayer
370
-1
48
1
60
0
100
AcDbPoint
10
-36
20
-3
30
0
39
0
210
0
220
0
230
1
50
360
0
POINT
5
121
100
AcDbEntity
8
Defpoints
62
0
6
ByLayer
370
-1
48
1
60
0
100
AcDbPoint
10
30
20
0
30
0
39
0
210
0
220
0
230
1
50
360
0
POINT
5
122
100
AcDbEntity
8
Defpoints
62
0
6
ByLayer
370
-1
48
1
60
0
100
AcDbPoint
10
30
20
-31.692985
30
0
39
0
210
0
220
0
230
1
50
360
0
ENDBLK
5
119
100
AcDbEntity
8
0
100
AcDbBlockEnd
0
BLOCK
5
12A
100
AcDbEntity
8
0
100
AcDbBlockBegin
2
_U1
70
0
10
0
20
0
30
0
3
_U1
0
MTEXT
5
124
100
AcDbEntity
8
SK2
62
256
6
ByLayer
370
13
48
1
60
0
100
AcDbMText
10
-8.137299
20
-30.660352
30
0
210
0
220
0
230
1
1
\W0.7317;66,00
40
3.5
41
0
44
1.084337
50
0
71
7
72
5
7
iso_b_vert
0
LINE
5
125
100
AcDbEntity
8
SK2
62
256
6
ByLayer
370
13
48
1
60
0
100
AcDbLine
10
-36
20
-4.5875
30
0
11
-36
21
-33.692985
31
0
39
0
210
0
220
0
230
1
0
LINE
5
126
100
AcDbEntity
8
SK2
62
256
6
ByLayer
370
13
48
1
60
0
100
AcDbLine
10
30
20
-1.5875
30
0
11
30
21
-33.692985
31
0
39
0
210
0
220
0
230
1
0
LINE
5
127
100
AcDbEntity
8
SK2
62
256
6
ByLayer
370
13
48
1
60
0
100
AcDbLine
10
-36
20
-31.692985
30
0
11
30
21
-31.692985
31
0
39
0
210
0
220
0
230
1
0
SOLID
5
128
100
AcDbEntity
8
SK2
62
256
6
ByLayer
370
18
48
1
60
0
100
AcDbTrace
10
-36
20
-31.692985
30
0
11
-32.500002
21
-31.232202
31
0
12
-32.499998
22
-32.153769
32
0
13
-32.499998
23
-32.153769
33
0
39
0
210
0
220
0
230
1
0
SOLID
5
129
100
AcDbEntity
8
SK2
62
256
6
ByLayer
370
18
48
1
60
0
100
AcDbTrace
10
30
20
-31.692985
30
0
11
26.500002
21
-32.153769
31
0
12
26.499998
22
-31.232202
32
0
13
26.499998
23
-31.232202
33
0
39
0
210
0
220
0
230
1
0
ENDBLK
5
12B
100
AcDbEntity
8
0
100
AcDbBlockEnd
0
BLOCK
5
130
100
AcDbEntity
8
0
100
AcDbBlockBegin
2
*D5
70
1
10
0
20
0
30
0
3
*D5
0
LINE
5
132
100
AcDbEntity
8
0
62
256
6
ByLayer
370
-2
48
1
60
0
100
AcDbLine
10
17.29
20
3.607
30
0
11
17.29
21
15.628619
31
0
39
0
210
0
220
0
230
1
0
LINE
5
133
100
AcDbEntity
8
0
62
256
6
ByLayer
370
-2
48
1
60
0
100
AcDbLine
10
30
20
1.5875
30
0
11
30
21
15.628619
31
0
39
0
210
0
220
0
230
1
0
LINE
5
134
100
AcDbEntity
8
0
62
256
6
ByLayer
370
-2
48
1
60
0
100
AcDbLine
10
13.79
20
13.628619
30
0
11
10.29
21
13.628619
31
0
39
0
210
0
220
0
230
1
0
LINE
5
135
100
AcDbEntity
8
0
62
256
6
ByLayer
370
-2
48
1
60
0
100
AcDbLine
10
33.5
20
13.628619
30
0
11
37
21
13.628619
31
0
39
0
210
0
220
0
230
1
0
SOLID
5
136
100
AcDbEntity
8
0
62
256
6
ByLayer
370
-1
48
1
60
0
100
AcDbTrace
10
13.79
20
13.045286
30
0
11
13.79
21
14.211953
31
0
12
17.29
22
13.628619
32
0
13
17.29
23
13.628619
33
0
39
0
210
0
220
0
230
1
0
SOLID
5
137
100
AcDbEntity
8
0
62
256
6
ByLayer
370
-1
48
1
60
0
100
AcDbTrace
10
33.5
20
14.211953
30
0
11
33.5
21
13.045286
31
0
12
30
22
13.628619
32
0
13
30
23
13.628619
33
0
39
0
210
0
220
0
230
1
0
MTEXT
5
138
100
AcDbEntity
8
0
62
256
6
ByLayer
370
18
48
1
60
0
100
AcDbMText
10
23.645
20
20.628619
30
0
210
0
220
0
230
1
1
\A1;12.71
40
3.5
41
0
44
1
50
0
71
5
72
5
7
iso_b_vert
0
POINT
5
139
100
AcDbEntity
8
Defpoints
62
0
6
ByLayer
370
-1
48
1
60
0
100
AcDbPoint
10
17.29
20
2.0195
30
0
39
0
210
0
220
0
230
1
50
360
0
POINT
5
13A
100
AcDbEntity
8
Defpoints
62
0
6
ByLayer
370
-1
48
1
60
0
100
AcDbPoint
10
30
20
0
30
0
39
0
210
0
220
0
230
1
50
360
0
POINT
5
13B
100
AcDbEntity
8
Defpoints
62
0
6
ByLayer
370
-1
48
1
60
0
100
AcDbPoint
10
30
20
13.628619
30
0
39
0
210
0
220
0
230
1
50
360
0
ENDBLK
5
131
100
AcDbEntity
8
0
100
AcDbBlockEnd
0
BLOCK
5
143
100
AcDbEntity
8
0
100
AcDbBlockBegin
2
_U2
70
0
10
0
20
0
30
0
3
_U2
0
MTEXT
5
13D
100
AcDbEntity
8
SK2
62
256
6
ByLayer
370
13
48
1
60
0
100
AcDbMText
10
19.382568
20
14.661253
30
0
210
0
220
0
230
1
1
\W0.6563;12,71
40
3.5
41
0
44
1.084337
50
0
71
7
72
5
7
iso_b_vert
0
LINE
5
13E
100
AcDbEntity
8
SK2
62
256
6
ByLayer
370
13
48
1
60
0
100
AcDbLine
10
17.29
20
3.607
30
0
11
17.29
21
15.628619
31
0
39
0
210
0
220
0
230
1
0
LINE
5
13F
100
AcDbEntity
8
SK2
62
256
6
ByLayer
370
13
48
1
60
0
100
AcDbLine
10
30
20
1.5875
30
0
11
30
21
15.628619
31
0
39
0
210
0
220
0
230
1
0
LINE
5
140
100
AcDbEntity
8
SK2
62
256
6
ByLayer
370
13
48
1
60
0
100
AcDbLine
10
17.29
20
13.628619
30
0
11
30
21
13.628619
31
0
39
0
210
0
220
0
230
1
0
SOLID
5
141
100
AcDbEntity
8
SK2
62
256
6
ByLayer
370
18
48
1
60
0
100
AcDbTrace
10
17.29
20
13.628619
30
0
11
20.789998
21
14.089403
31
0
12
20.790002
22
13.167835
32
0
13
20.790002
23
13.167835
33
0
39
0
210
0
220
0
230
1
0
SOLID
5
142
100
AcDbEntity
8
SK2
62
256
6
ByLayer
370
18
48
1
60
0
100
AcDbTrace
10
30
20
13.628619
30
0
11
26.500002
21
13.167835
31
0
12
26.499998
22
14.089403
32
0
13
26.499998
23
14.089403
33
0
39
0
210
0
220
0
230
1
0
ENDBLK
5
144
100
AcDbEntity
8
0
100
AcDbBlockEnd
0
BLOCK
5
149
100
AcDbEntity
8
0
100
AcDbBlockBegin
2
*D7
70
1
10
0
20
0
30
0
3
*D7
0
LINE
5
14B
100
AcDbEntity
8
0
62
256
6
ByLayer
370
-2
48
1
60
0
100
AcDbLine
10
30
20
-1.5875
30
0
11
30
21
-16.822003
31
0
39
0
210
0
220
0
230
1
0
LINE
5
14C
100
AcDbEntity
8
0
62
256
6
ByLayer
370
-2
48
1
60
0
100
AcDbLine
10
29.4142
20
-3.607
30
0
11
29.4142
21
-16.822003
31
0
39
0
210
0
220
0
230
1
0
LINE
5
14D
100
AcDbEntity
8
0
62
256
6
ByLayer
370
-2
48
1
60
0
100
AcDbLine
10
30
20
-14.822003
30
0
11
58
21
-14.822003
31
0
39
0
210
0
220
0
230
1
0
LINE
5
14E
100
AcDbEntity
8
0
62
256
6
ByLayer
370
-2
48
1
60
0
100
AcDbLine
10
33.5
20
-14.822003
30
0
11
37
21
-14.822003
31
0
39
0
210
0
220
0
230
1
0
LINE
5
14F
100
AcDbEntity
8
0
62
256
6
ByLayer
370
-2
48
1
60
0
100
AcDbLine
10
25.9142
20
-14.822003
30
0
11
22.4142
21
-14.822003
31
0
39
0
210
0
220
0
230
1
0
SOLID
5
150
100
AcDbEntity
8
0
62
256
6
ByLayer
370
-1
48
1
60
0
100
AcDbTrace
10
33.5
20
-14.23867
30
0
11
33.5
21
-15.405337
31
0
12
30
22
-14.822003
32
0
13
30
23
-14.822003
33
0
39
0
210
0
220
0
230
1
0
SOLID
5
151
100
AcDbEntity
8
0
62
256
6
ByLayer
370
-1
48
1
60
0
100
AcDbTrace
10
25.9142
20
-15.405337
30
0
11
25.9142
21
-14.23867
31
0
12
29.4142
22
-14.822003
32
0
13
29.4142
23
-14.822003
33
0
39
0
210
0
220
0
230
1
0
MTEXT
5
152
100
AcDbEntity
8
0
62
256
6
ByLayer
370
18
48
1
60
0
100
AcDbMText
10
47.5
20
-7.822003
30
0
210
0
220
0
230
1
1
\A1;0.59
40
3.5
41
0
44
1
50
0
71
5
72
5
7
iso_b_vert
0
POINT
5
153
100
AcDbEntity
8
Defpoints
62
0
6
ByLayer
370
-1
48
1
60
0
100
AcDbPoint
10
30
20
0
30
0
39
0
210
0
220
0
230
1
50
360
0
POINT
5
154
100
AcDbEntity
8
Defpoints
62
0
6
ByLayer
370
-1
48
1
60
0
100
AcDbPoint
10
29.4142
20
-2.0195
30
0
39
0
210
0
220
0
230
1
50
360
0
POINT
5
155
100
AcDbEntity
8
Defpoints
62
0
6
ByLayer
370
-1
48
1
60
0
100
AcDbPoint
10
29.4142
20
-14.822003
30
0
39
0
210
0
220
0
230
1
50
360
0
ENDBLK
5
14A
100
AcDbEntity
8
0
100
AcDbBlockEnd
0
BLOCK
5
15D
100
AcDbEntity
8
0
100
AcDbBlockBegin
2
_U3
70
0
10
0
20
0
30
0
3
_U3
0
MTEXT
5
157
100
AcDbEntity
8
SK2
62
256
6
ByLayer
370
13
48
1
60
0
100
AcDbMText
10
36.15186
20
-13.78937
30
0
210
0
220
0
230
1
1
\W0.7259;0,59
40
3.5
41
0
44
1.084337
50
0
71
7
72
5
7
iso_b_vert
0
LINE
5
158
100
AcDbEntity
8
SK2
62
256
6
ByLayer
370
13
48
1
60
0
100
AcDbLine
10
30
20
-1.5875
30
0
11
30
21
-16.822003
31
0
39
0
210
0
220
0
230
1
0
LINE
5
159
100
AcDbEntity
8
SK2
62
256
6
ByLayer
370
13
48
1
60
0
100
AcDbLine
10
29.4142
20
-3.607
30
0
11
29.4142
21
-16.822003
31
0
39
0
210
0
220
0
230
1
0
LINE
5
15A
100
AcDbEntity
8
SK2
62
256
6
ByLayer
370
13
48
1
60
0
100
AcDbLine
10
20.6642
20
-14.822003
30
0
11
43.996491
21
-14.822003
31
0
39
0
210
0
220
0
230
1
0
SOLID
5
15B
100
AcDbEntity
8
SK2
62
256
6
ByLayer
370
18
48
1
60
0
100
AcDbTrace
10
30
20
-14.822003
30
0
11
33.499998
21
-14.361219
31
0
12
33.500002
22
-15.282787
32
0
13
33.500002
23
-15.282787
33
0
39
0
210
0
220
0
230
1
0
SOLID
5
15C
100
AcDbEntity
8
SK2
62
256
6
ByLayer
370
18
48
1
60
0
100
AcDbTrace
10
29.4142
20
-14.822003
30
0
11
25.914202
21
-15.282787
31
0
12
25.914198
22
-14.361219
32
0
13
25.914198
23
-14.361219
33
0
39
0
210
0
220
0
230
1
0
ENDBLK
5
15E
100
AcDbEntity
8
0
100
AcDbBlockEnd
0
BLOCK
5
163
100
AcDbEntity
8
0
100
AcDbBlockBegin
2
*D9
70
1
10
0
20
0
30
0
3
*D9
0
LINE
5
165
100
AcDbEntity
8
0
62
256
6
ByLayer
370
-2
48
1
60
0
100
AcDbLine
10
-36
20
-4.5875
30
0
11
-36
21
-23.343428
31
0
39
0
210
0
220
0
230
1
0
LINE
5
166
100
AcDbEntity
8
0
62
256
6
ByLayer
370
-2
48
1
60
0
100
AcDbLine
10
29.4142
20
-3.607
30
0
11
29.4142
21
-23.343428
31
0
39
0
210
0
220
0
230
1
0
LINE
5
167
100
AcDbEntity
8
0
62
256
6
ByLayer
370
-2
48
1
60
0
100
AcDbLine
10
-32.5
20
-21.343428
30
0
11
25.9142
21
-21.343428
31
0
39
0
210
0
220
0
230
1
0
SOLID
5
168
100
AcDbEntity
8
0
62
256
6
ByLayer
370
-1
48
1
60
0
100
AcDbTrace
10
-32.5
20
-20.760095
30
0
11
-32.5
21
-21.926762
31
0
12
-36
22
-21.343428
32
0
13
-36
23
-21.343428
33
0
39
0
210
0
220
0
230
1
0
SOLID
5
169
100
AcDbEntity
8
0
62
256
6
ByLayer
370
-1
48
1
60
0
100
AcDbTrace
10
25.9142
20
-21.926762
30
0
11
25.9142
21
-20.760095
31
0
12
29.4142
22
-21.343428
32
0
13
29.4142
23
-21.343428
33
0
39
0
210
0
220
0
230
1
0
MTEXT
5
16A
100
AcDbEntity
8
0
62
256
6
ByLayer
370
18
48
1
60
0
100
AcDbMText
10
-3.2929
20
-14.343428
30
0
210
0
220
0
230
1
1
\A1;65.41
40
3.5
41
0
44
1
50
0
71
5
72
5
7
iso_b_vert
0
POINT
5
16B
100
AcDbEntity
8
Defpoints
62
0
6
ByLayer
370
-1
48
1
60
0
100
AcDbPoint
10
-36
20
-3
30
0
39
0
210
0
220
0
230
1
50
360
0
POINT
5
16C
100
AcDbEntity
8
Defpoints
62
0
6
ByLayer
370
-1
48
1
60
0
100
AcDbPoint
10
29.4142
20
-2.0195
30
0
39
0
210
0
220
0
230
1
50
360
0
POINT
5
16D
100
AcDbEntity
8
Defpoints
62
0
6
ByLayer
370
-1
48
1
60
0
100
AcDbPoint
10
29.4142
20
-21.343428
30
0
39
0
210
0
220
0
230
1
50
360
0
ENDBLK
5
164
100
AcDbEntity
8
0
100
AcDbBlockEnd
0
BLOCK
5
175
100
AcDbEntity
8
0
100
AcDbBlockBegin
2
_U4
70
0
10
0
20
0
30
0
3
_U4
0
MTEXT
5
16F
100
AcDbEntity
8
SK2
62
256
6
ByLayer
370
13
48
1
60
0
100
AcDbMText
10
-8.177032
20
-20.310795
30
0
210
0
220
0
230
1
1
\W0.7494;65,41
40
3.5
41
0
44
1.084337
50
0
71
7
72
5
7
iso_b_vert
0
LINE
5
170
100
AcDbEntity
8
SK2
62
256
6
ByLayer
370
13
48
1
60
0
100
AcDbLine
10
-36
20
-4.5875
30
0
11
-36
21
-23.343428
31
0
39
0
210
0
220
0
230
1
0
LINE
5
171
100
AcDbEntity
8
SK2
62
256
6
ByLayer
370
13
48
1
60
0
100
AcDbLine
10
29.4142
20
-3.607
30
0
11
29.4142
21
-23.343428
31
0
39
0
210
0
220
0
230
1
0
LINE
5
172
100
AcDbEntity
8
SK2
62
256
6
ByLayer
370
13
48
1
60
0
100
AcDbLine
10
-36
20
-21.343428
30
0
11
29.4142
21
-21.343428
31
0
39
0
210
0
220
0
230
1
0
SOLID
5
173
100
AcDbEntity
8
SK2
62
256
6
ByLayer
370
18
48
1
60
0
100
AcDbTrace
10
-36
20
-21.343428
30
0
11
-32.500002
21
-20.882645
31
0
12
-32.499998
22
-21.804212
32
0
13
-32.499998
23
-21.804212
33
0
39
0
210
0
220
0
230
1
0
SOLID
5
174
100
AcDbEntity
8
SK2
62
256
6
ByLayer
370
18
48
1
60
0
100
AcDbTrace
10
29.4142
20
-21.343428
30
0
11
25.914202
21
-21.804212
31
0
12
25.914198
22
-20.882645
32
0
13
25.914198
23
-20.882645
33
0
39
0
210
0
220
0
230
1
0
ENDBLK
5
176
100
AcDbEntity
8
0
100
AcDbBlockEnd
0
ENDSEC
0
SECTION
2
ENTITIES
0
ARC
5
A8
100
AcDbEntity
8
1
62
256
6
ByLayer
370
18
48
1
60
0
100
AcDbCircle
39
0
10
1.482412
20
-2.802041
30
0
40
0.799999999999998
210
0
220
0
230
1
100
AcDbArc
50
89.96419
51
157.896823
0
ARC
5
A9
100
AcDbEntity
8
1
62
256
6
ByLayer
370
18
48
1
60
0
100
AcDbCircle
39
0
10
1.482412
20
2.802041
30
0
40
0.799999999999998
210
0
220
0
230
1
100
AcDbArc
50
202.103177
51
270.03581
0
ARC
5
AA
100
AcDbEntity
8
1
62
256
6
ByLayer
370
18
48
1
60
0
100
AcDbCircle
39
0
10
0
20
-2.2
30
0
40
0.799999999999998
210
0
220
0
230
1
100
AcDbArc
50
270
51
337.896823
0
ARC
5
AB
100
AcDbEntity
8
1
62
256
6
ByLayer
370
18
48
1
60
0
100
AcDbCircle
39
0
10
0
20
2.2
30
0
40
0.799999999999998
210
0
220
0
230
1
100
AcDbArc
50
22.103177
51
90
0
ELLIPSE
5
AC
100
AcDbEntity
8
1
62
256
6
ByLayer
370
18
48
1
60
0
100
AcDbEllipse
10
8.25
20
2.155501
30
0
11
0.25
21
0
31
0
210
0
220
0
230
1
40
1
41
-2.40770310742318
42
-1.55213509001674
0
ELLIPSE
5
AD
100
AcDbEntity
8
1
62
256
6
ByLayer
370
18
48
1
60
0
100
AcDbEllipse
10
8.25
20
-2.155501
30
0
11
0.25
21
0
31
0
210
0
220
0
230
1
40
1
41
1.58771505632529
42
2.41639234156217
0
POINT
5
70
100
AcDbEntity
8
80
62
256
6
ByLayer
370
18
48
1
60
0
100
AcDbPoint
10
0
20
0
30
0
39
0
210
0
220
0
230
1
50
360
0
POINT
5
72
100
AcDbEntity
8
81
62
256
6
ByLayer
370
18
48
1
60
0
100
AcDbPoint
10
30
20
0
30
0
39
0
210
0
220
0
230
1
50
360
0
POINT
5
74
100
AcDbEntity
8
1
62
256
6
ByLayer
370
18
48
1
60
1
100
AcDbPoint
10
29.4142
20
-2.0195
30
0
39
0
210
0
220
0
230
1
50
360
0
POINT
5
76
100
AcDbEntity
8
1
62
256
6
ByLayer
370
18
48
1
60
1
100
AcDbPoint
10
-36
20
-3
30
0
39
0
210
0
220
0
230
1
50
360
0
POINT
5
77
100
AcDbEntity
8
1
62
256
6
ByLayer
370
18
48
1
60
1
100
AcDbPoint
10
17.29
20
2.0195
30
0
39
0
210
0
220
0
230
1
50
360
0
POINT
5
78
100
AcDbEntity
8
1
62
256
6
ByLayer
370
18
48
1
60
1
100
AcDbPoint
10
29.4142
20
-2.0195
30
0
39
0
210
0
220
0
230
1
50
360
0
POINT
5
79
100
AcDbEntity
8
1
62
256
6
ByLayer
370
18
48
1
60
1
100
AcDbPoint
10
-36
20
-3
30
0
39
0
210
0
220
0
230
1
50
360
0
POINT
5
7A
100
AcDbEntity
8
1
62
256
6
ByLayer
370
18
48
1
60
1
100
AcDbPoint
10
29.4142
20
-2.0195
30
0
39
0
210
0
220
0
230
1
50
360
0
SPLINE
5
AE
100
AcDbEntity
8
1
62
256
6
ByLayer
370
18
48
1
60
0
100
AcDbSpline
70
4
71
3
72
60
73
56
40
0
40
0
40
0
40
0
40
0.124999999999963
40
0.124999999999963
40
0.187499999999943
40
0.187499999999943
40
0.249999999999923
40
0.249999999999923
40
0.281249999999914
40
0.281249999999914
40
0.312499999999905
40
0.312499999999905
40
0.328124999999901
40
0.328124999999901
40
0.343749999999898
40
0.343749999999898
40
0.359374999999894
40
0.359374999999894
40
0.37499999999989
40
0.37499999999989
40
0.390624999999887
40
0.390624999999887
40
0.406249999999883
40
0.406249999999883
40
0.421874999999879
40
0.421874999999879
40
0.437499999999876
40
0.437499999999876
40
0.453124999999872
40
0.453124999999872
40
0.468749999999868
40
0.468749999999868
40
0.499999999999861
40
0.499999999999861
40
0.507812499999859
40
0.507812499999859
40
0.51171874999986
40
0.51171874999986
40
0.51562499999986
40
0.51562499999986
40
0.523437499999864
40
0.523437499999864
40
0.531249999999867
40
0.531249999999867
40
0.562499999999875
40
0.562499999999875
40
0.624999999999893
40
0.624999999999893
40
0.687499999999912
40
0.687499999999912
40
0.749999999999931
40
0.749999999999931
40
0.874999999999965
40
0.874999999999965
40
1
40
1
40
1
40
1
41
1
10
8.04966186332473
20
-0.837243954921348
30
0
41
1
10
7.78436621122049
20
-0.691013185797487
30
0
41
1
10
7.52032494155583
20
-0.534199910264761
30
0
41
1
10
7.12793830233579
20
-0.276601586917707
30
0
41
1
10
6.99810287785979
20
-0.187054009533796
30
0
41
1
10
6.74657546808768
20
-0.0009216671309105
30
0
41
1
10
6.62419789526859
20
0.0959169617851217
30
0
41
1
10
6.44956509792553
20
0.251278606549675
30
0
41
1
10
6.39286470337686
20
0.304774590153102
30
0
41
1
10
6.28401928866694
20
0.416953745109168
30
0
41
1
10
6.2313633829047
20
0.47617812768695
30
0
41
1
10
6.16017945087327
20
0.568996815536622
30
0
41
1
10
6.13777513007528
20
0.600574156281056
30
0
41
1
10
6.09640907418461
20
0.665428805393134
30
0
41
1
10
6.07735230304527
20
0.698924920140371
30
0
41
1
10
6.04472870683662
20
0.7665150136352
30
0
41
1
10
6.03106030916422
20
0.800712056404592
30
0
41
1
10
6.01044288164809
20
0.870207740566514
30
0
41
1
10
6.00346227444669
20
0.905958131532572
30
0
41
1
10
5.99854094052625
20
0.976780842248274
30
0
41
1
10
6.00057934815749
20
1.01138500546142
30
0
41
1
10
6.01423382047491
20
1.07899617920643
30
0
41
1
10
6.02587430977494
20
1.11153655970273
30
0
41
1
10
6.05701932230281
20
1.17205452581479
30
0
41
1
10
6.07682982284268
20
1.20069019691923
30
0
41
1
10
6.12182326572662
20
1.25308157637255
30
0
41
1
10
6.14698717855646
20
1.27700886881789
30
0
41
1
10
6.20142342237313
20
1.32146645921063
30
0
41
1
10
6.23089292484946
20
1.34208861284776
30
0
41
1
10
6.29209615928721
20
1.38001423452607
30
0
41
1
10
6.32382385866589
20
1.39735311342298
30
0
41
1
10
6.42161914139706
20
1.44570895493774
30
0
41
1
10
6.4902599674146
20
1.47312577442969
30
0
41
1
10
6.57900329240113
20
1.50353491492652
30
0
41
1
10
6.59691511146028
20
1.50942155754626
30
0
41
1
10
6.62394833197243
20
1.51796485197031
30
0
41
1
10
6.63295184848965
20
1.52081348947698
30
0
41
1
10
6.65113266087326
20
1.52621875346549
30
0
41
1
10
6.66105884930681
20
1.52791836485076
30
0
41
1
10
6.69132516358027
20
1.52987224330585
30
0
41
1
10
6.71119515690725
20
1.52822656841349
30
0
41
1
10
6.75107517612688
20
1.52627460753544
30
0
41
1
10
6.77101014634485
20
1.52524893151406
30
0
41
1
10
6.87065992514738
20
1.51987123196176
30
0
41
1
10
6.95032071903279
20
1.51477008659191
30
0
41
1
10
7.18868154356039
20
1.49705232064704
30
0
41
1
10
7.34687404636293
20
1.48202075851907
30
0
41
1
10
7.66189639723046
20
1.44513464139163
30
0
41
1
10
7.81898454714025
20
1.42322436261918
30
0
41
1
10
8.13032521653184
20
1.37222031824737
30
0
41
1
10
8.2845717398697
20
1.34315396973568
30
0
41
1
10
8.74334768924984
20
1.24478445677926
30
0
41
1
10
9.04384198380885
20
1.16412668611429
30
0
41
1
10
9.63673355942382
20
0.972156931030838
30
0
41
1
10
9.92911614091375
20
0.860748619382491
30
0
41
1
10
10.2194193705873
20
0.735914681314085
30
0
0
SPLINE
5
AF
100
AcDbEntity
8
1
62
256
6
ByLayer
370
18
48
1
60
0
100
AcDbSpline
70
4
71
3
72
38
73
34
40
0
40
0
40
0
40
0
40
0.114411861203104
40
0.114411861203104
40
0.171617791804657
40
0.171617791804657
40
0.228823722406209
40
0.228823722406209
40
0.343235583609316
40
0.343235583609316
40
0.371838548910094
40
0.371838548910094
40
0.400441514210872
40
0.400441514210872
40
0.457647444812429
40
0.457647444812429
40
0.572059306015542
40
0.572059306015542
40
0.629265236617099
40
0.629265236617099
40
0.686471167218656
40
0.686471167218656
40
0.743677097820213
40
0.743677097820213
40
0.772280063120991
40
0.772280063120991
40
0.80088302842177
40
0.80088302842177
40
0.915294889624886
40
0.915294889624886
40
0.972500820226445
40
0.972500820226445
40
1
40
1
40
1
40
1
41
1
10
29.3042058922907
20
-2.0128696657647
30
0
41
1
10
28.8625980101273
20
-2.03272329131167
30
0
41
1
10
28.424160301527
20
-2.00619964814336
30
0
41
1
10
27.7615146323998
20
-1.89961113377808
30
0
41
1
10
27.5390686879653
20
-1.85256476948538
30
0
41
1
10
27.097909621652
20
-1.73876605453566
30
0
41
1
10
26.878477826801
20
-1.67205655215855
30
0
41
1
10
26.2213640357346
20
-1.4453359532919
30
0
41
1
10
25.7848071497167
20
-1.25868271471401
30
0
41
1
10
25.2318109535048
20
-0.992355828142848
30
0
41
1
10
25.1205936474495
20
-0.937317587611119
30
0
41
1
10
24.8992379619947
20
-0.825184184592615
30
0
41
1
10
24.7889449358333
20
-0.7680215374358
30
0
41
1
10
24.4588437022184
20
-0.59391462018533
30
0
41
1
10
24.2397749373161
20
-0.474418260731966
30
0
41
1
10
23.582895210875
20
-0.110445924670586
30
0
41
1
10
23.1458277259095
20
0.140280118313228
30
0
41
1
10
22.4799460410171
20
0.507671976204108
30
0
41
1
10
22.2590822346081
20
0.627254812823821
30
0
41
1
10
21.8198525608706
20
0.857275570250323
30
0
41
1
10
21.6009777962329
20
0.967506083633083
30
0
41
1
10
21.1630173367774
20
1.17585049976037
30
0
41
1
10
20.9439732860859
20
1.27402881900193
30
0
41
1
10
20.6140547456188
20
1.41035311178942
30
0
41
1
10
20.5038448894407
20
1.45395487959004
30
0
41
1
10
20.2827550458941
20
1.53716979861625
30
0
41
1
10
20.1715965946313
20
1.5768728607178
30
0
41
1
10
19.617852472837
20
1.76289837828739
30
0
41
1
10
19.1805238586988
20
1.87221356773208
30
0
41
1
10
18.5234310062968
20
1.97142603535144
30
0
41
1
10
18.3040898967329
20
1.99361429250257
30
0
41
1
10
17.9775846293791
20
2.00968922094188
30
0
41
1
10
17.8710842582557
20
2.0122647603504
30
0
41
1
10
17.7645257131105
20
2.01218581458195
30
0
0
SPLINE
5
B0
100
AcDbEntity
8
1
62
256
6
ByLayer
370
18
48
1
60
0
100
AcDbSpline
70
4
71
3
72
22
73
18
40
0
40
0
40
0
40
0
40
0.0795134661594442
40
0.0795134661594442
40
0.163194060144949
40
0.163194060144949
40
0.330555248115959
40
0.330555248115959
40
0.49791643608697
40
0.49791643608697
40
0.665277624057979
40
0.665277624057979
40
0.748958218043485
40
0.748958218043485
40
0.83263881202899
40
0.83263881202899
40
1
40
1
40
1
40
1
41
1
10
8.04951840892684
20
-2.0061448030404
30
0
41
1
10
8.04951581234201
20
-2.00618962270013
30
0
41
1
10
8.04951280175186
20
-2.00351153853947
30
0
41
1
10
8.04950641775946
20
-1.9923325824997
30
0
41
1
10
8.04950301704557
20
-1.98345622580953
30
0
41
1
10
8.04949370663473
20
-1.94792220331948
30
0
41
1
10
8.04948871264077
20
-1.91256071179833
30
0
41
1
10
8.04948545506207
20
-1.81898593920658
30
0
41
1
10
8.04948729456339
20
-1.75994426986685
30
0
41
1
10
8.04950022276876
20
-1.62270362497759
30
0
41
1
10
8.04951121235621
20
-1.54448442872683
30
0
41
1
10
8.04953462760969
20
-1.41269616801799
30
0
41
1
10
8.04954363527304
20
-1.36606927011326
30
0
41
1
10
8.04956350599548
20
-1.26929766166444
30
0
41
1
10
8.04957434629694
20
-1.21921796634663
30
0
41
1
10
8.04960900387113
20
-1.06402846725973
30
0
41
1
10
8.04963500961395
20
-0.954013290194638
30
0
41
1
10
8.04966186332422
20
-0.837243954921348
30
0
0
SPLINE
5
B1
100
AcDbEntity
8
1
62
256
6
ByLayer
370
18
48
1
60
0
100
AcDbSpline
70
4
71
3
72
10
73
6
40
0
40
0
40
0
40
0
40
0.5
40
0.5
40
1
40
1
40
1
40
1
41
1
10
29.2571672135383
20
0.559328780941456
30
0
41
1
10
29.3753423552374
20
0.557082800754699
30
0
41
1
10
29.4935332433339
20
0.554790585202483
30
0
41
1
10
29.7296762250558
20
0.551499171406704
30
0
41
1
10
29.8474627270763
20
0.551431351581158
30
0
41
1
10
29.9651671557785
20
0.551817944032308
30
0
0
SPLINE
5
B2
100
AcDbEntity
8
1
62
256
6
ByLayer
370
18
48
1
60
0
100
AcDbSpline
70
4
71
3
72
8
73
4
40
0
40
0
40
0
40
0
40
1
40
1
40
1
40
1
41
1
10
29.9900231431259
20
0.0954134234706316
30
0
41
1
10
29.9906220513198
20
0.0777422763443383
30
0
41
1
10
29.9944487899473
20
0.0554479712635043
30
0
41
1
10
29.9999518241448
20
0.0321427245721395
30
0
0
SPLINE
5
B3
100
AcDbEntity
8
1
62
256
6
ByLayer
370
18
48
1
60
0
100
AcDbSpline
70
4
71
3
72
14
73
10
40
0
40
0
40
0
40
0
40
0.25
40
0.25
40
0.5
40
0.5
40
0.75
40
0.75
40
1
40
1
40
1
40
1
41
1
10
8.25030375472363
20
-0.883460177482192
30
0
41
1
10
8.41198328158228
20
-0.968989644466973
30
0
41
1
10
8.57417916270444
20
-1.04966755034545
30
0
41
1
10
8.90011092834058
20
-1.20143219680423
30
0
41
1
10
9.06389061115635
20
-1.27263813078795
30
0
41
1
10
9.3914987840663
20
-1.40442201540037
30
0
41
1
10
9.55559693479182
20
-1.46461908193479
30
0
41
1
10
9.88569298718591
20
-1.57252465553998
30
0
41
1
10
10.0517046934813
20
-1.62031540757783
30
0
41
1
10
10.2194193705876
20
-1.66221162078992
30
0
0
SPLINE
5
B4
100
AcDbEntity
8
1
62
256
6
ByLayer
370
18
48
1
60
0
100
AcDbSpline
70
4
71
3
72
32
73
28
40
0
40
0
40
0
40
0
40
0.249999999999973
40
0.249999999999973
40
0.374999999999959
40
0.374999999999959
40
0.499999999999946
40
0.499999999999946
40
0.624999999999933
40
0.624999999999933
40
0.749999999999919
40
0.749999999999919
40
0.812499999999906
40
0.812499999999906
40
0.828124999999903
40
0.828124999999903
40
0.835937499999907
40
0.835937499999907
40
0.843749999999912
40
0.843749999999912
40
0.851562499999916
40
0.851562499999916
40
0.85937499999992
40
0.85937499999992
40
0.874999999999929
40
0.874999999999929
40
1
40
1
40
1
40
1
41
1
10
27.4328614018002
20
0.777155296339856
30
0
41
1
10
27.5813987540529
20
0.64084604945117
30
0
41
1
10
27.7383382732615
20
0.521655585675006
30
0
41
1
10
27.9868476214921
20
0.369560295985536
30
0
41
1
10
28.0710726353549
20
0.323765400379045
30
0
41
1
10
28.2403028557928
20
0.244420591437347
30
0
41
1
10
28.3256853279906
20
0.211067359698774
30
0
41
1
10
28.4979278240484
20
0.156528431797256
30
0
41
1
10
28.5853673615442
20
0.135410713919043
30
0
41
1
10
28.7591028441183
20
0.10872939266352
30
0
41
1
10
28.8451115744142
20
0.103190177584281
30
0
41
1
10
28.9725399088223
20
0.109273984459691
30
0
41
1
10
29.0145131983679
20
0.113710533717892
30
0
41
1
10
29.0661374532646
20
0.122510457051334
30
0
41
1
10
29.0764179223637
20
0.12443289602885
30
0
41
1
10
29.0917649353904
20
0.127564017136905
30
0
41
1
10
29.0968656444263
20
0.128654605348657
30
0
41
1
10
29.1070483421202
20
0.130894439366045
30
0
41
1
10
29.1122573052731
20
0.131867288726454
30
0
41
1
10
29.1214567670079
20
0.136650487498713
30
0
41
1
10
29.1253477652205
20
0.140505390168045
30
0
41
1
10
29.1305587045057
20
0.150485351487816
30
0
41
1
10
29.1316824151281
20
0.156650582843071
30
0
41
1
10
29.1355808413925
20
0.174408707977932
30
0
41
1
10
29.1380124349151
20
0.18633652910205
30
0
41
1
10
29.1584444632415
20
0.294411992238764
30
0
41
1
10
29.1662391675473
20
0.395302830845679
30
0
41
1
10
29.1668557168816
20
0.496885245036225
30
0
0
SPLINE
5
B5
100
AcDbEntity
8
1
62
256
6
ByLayer
370
13
48
1
60
0
100
AcDbSpline
70
4
71
3
72
22
73
18
40
0
40
0
40
0
40
0
40
0.130290800656567
40
0.130290800656567
40
0.217261720590911
40
0.217261720590911
40
0.304232640525254
40
0.304232640525254
40
0.47817448039394
40
0.47817448039394
40
0.652116320262627
40
0.652116320262627
40
0.826058160131313
40
0.826058160131313
40
0.913029080065657
40
0.913029080065657
40
1
40
1
40
1
40
1
41
1
10
8.25021877432144
20
-1.90551199814257
30
0
41
1
10
8.25020813381892
20
-1.90552301992784
30
0
41
1
10
8.25019742190426
20
-1.89918519905433
30
0
41
1
10
8.25018130742237
20
-1.87796900768296
30
0
41
1
10
8.25017529251917
20
-1.86652347449004
30
0
41
1
10
8.25016496830591
20
-1.83818745013841
30
0
41
1
10
8.25016064403559
20
-1.82132388095999
30
0
41
1
10
8.25015078138244
20
-1.76284374696661
30
0
41
1
10
8.25014838046474
20
-1.71340870970164
30
0
41
1
10
8.25015428388789
20
-1.59297393691924
30
0
41
1
10
8.25016271018103
20
-1.52214581176861
30
0
41
1
10
8.25018958911392
20
-1.36473460803657
30
0
41
1
10
8.25020786157265
20
-1.27860034712776
30
0
41
1
10
8.2502405621305
20
-1.13863671651333
30
0
41
1
10
8.25025233738879
20
-1.09017631614955
30
0
41
1
10
8.25027720670303
20
-0.989561194531518
30
0
41
1
10
8.25029036027752
20
-0.937172069572
30
0
41
1
10
8.25030375443413
20
-0.883460177329511
30
0
0
SPLINE
5
B6
100
AcDbEntity
8
1
62
256
6
ByLayer
370
18
48
1
60
0
100
AcDbSpline
70
4
71
3
72
8
73
4
40
0
40
0
40
0
40
0
40
1
40
1
40
1
40
1
41
1
10
29.3053523960992
20
-2.01003121339983
30
0
41
1
10
29.304970263075
20
-2.01097742631831
30
0
41
1
10
29.3045880950664
20
-2.01192357718949
30
0
41
1
10
29.3042058922907
20
-2.0128696657647
30
0
0
SPLINE
5
B7
100
AcDbEntity
8
1
62
256
6
ByLayer
370
18
48
1
60
0
100
AcDbSpline
70
4
71
3
72
22
73
18
40
0
40
0
40
0
40
0
40
0.125258331244259
40
0.125258331244259
40
0.250516662488517
40
0.250516662488517
40
0.375774993732776
40
0.375774993732776
40
0.501033324977034
40
0.501033324977034
40
0.626291656221293
40
0.626291656221293
40
0.751549987465552
40
0.751549987465552
40
0.87680831870981
40
0.87680831870981
40
1
40
1
40
1
40
1
41
1
10
10.2194193705876
20
-1.66221162078992
30
0
41
1
10
10.3993042934447
20
-1.70887176042751
30
0
41
1
10
10.5789956152762
20
-1.74971672985637
30
0
41
1
10
10.9373195495832
20
-1.81802137300363
30
0
41
1
10
11.1163267600351
20
-1.84485081198801
30
0
41
1
10
11.4754636710418
20
-1.88447316471397
30
0
41
1
10
11.6553634932174
20
-1.89751793170942
30
0
41
1
10
12.01415397587
20
-1.90991228106668
30
0
41
1
10
12.1934286728146
20
-1.90880495747445
30
0
41
1
10
12.5518748489825
20
-1.89120354686366
30
0
41
1
10
12.7316522354993
20
-1.87504898844062
30
0
41
1
10
13.0911070336171
20
-1.83029230193392
30
0
41
1
10
13.2702946979493
20
-1.80190669734912
30
0
41
1
10
13.6287328239509
20
-1.72953706722166
30
0
41
1
10
13.8081205695997
20
-1.68592660306777
30
0
41
1
10
14.1644145729323
20
-1.58716269953877
30
0
41
1
10
14.3412276884847
20
-1.53317459192215
30
0
41
1
10
14.5177027651114
20
-1.47427799987506
30
0
0
SPLINE
5
B8
100
AcDbEntity
8
1
62
256
6
ByLayer
370
18
48
1
60
0
100
AcDbSpline
70
4
71
3
72
24
73
20
40
0
40
0
40
0
40
0
40
0.0897831770220098
40
0.0897831770220098
40
0.21981415173315
40
0.21981415173315
40
0.349845126444291
40
0.349845126444291
40
0.479876101155431
40
0.479876101155431
40
0.609907075866571
40
0.609907075866571
40
0.739938050577711
40
0.739938050577711
40
0.804953537933282
40
0.804953537933282
40
0.869969025288852
40
0.869969025288852
40
1
40
1
40
1
40
1
41
1
10
23.2977776606047
20
1.91286541467161
30
0
41
1
10
23.4213704164038
20
1.91308712568062
30
0
41
1
10
23.5449045168041
20
1.91025145069045
30
0
41
1
10
23.8479226716295
20
1.89543296414965
30
0
41
1
10
24.0276205499264
20
1.87796027409558
30
0
41
1
10
24.386073525723
20
1.82983397842139
30
0
41
1
10
24.5650953050424
20
1.79844311951717
30
0
41
1
10
24.9233101183199
20
1.72417999086781
30
0
41
1
10
25.10242696993
20
1.6804042523986
30
0
41
1
10
25.4616601635662
20
1.57950035543834
30
0
41
1
10
25.6406866938258
20
1.52275095417829
30
0
41
1
10
25.9987402633703
20
1.39905182729058
30
0
41
1
10
26.1779471786784
20
1.33285054465421
30
0
41
1
10
26.4470908363902
20
1.22461559063197
30
0
41
1
10
26.5368042079237
20
1.18684247544644
30
0
41
1
10
26.71613122159
20
1.10967569690283
30
0
41
1
10
26.8058116866399
20
1.0702324253333
30
0
41
1
10
27.0746347755612
20
0.949028703067768
30
0
41
1
10
27.2535897394612
20
0.864439476636164
30
0
41
1
10
27.4328614018002
20
0.777155296339828
30
0
0
SPLINE
5
B9
100
AcDbEntity
8
1
62
256
6
ByLayer
370
13
48
1
60
0
100
AcDbSpline
70
4
71
3
72
12
73
8
40
0
40
0
40
0
40
0
40
0.418564555212399
40
0.418564555212399
40
0.885127944963464
40
0.885127944963464
40
1
40
1
40
1
40
1
41
1
10
8.25027718266119
20
1.74935009435887
30
0
41
1
10
8.25027808835674
20
1.79246721697845
30
0
41
1
10
8.25027344926139
20
1.82660822273328
30
0
41
1
10
8.25025658317634
20
1.88031929762997
30
0
41
1
10
8.25024337648912
20
1.89767590072265
30
0
41
1
10
8.25022596231176
20
1.90476501489951
30
0
41
1
10
8.25022247361755
20
1.90548097473547
30
0
41
1
10
8.25021897644203
20
1.9055110251046
30
0
0
SPLINE
5
BA
100
AcDbEntity
8
1
62
256
6
ByLayer
370
18
48
1
60
0
100
AcDbSpline
70
4
71
3
72
12
73
8
40
0
40
0
40
0
40
0
40
0.494330428831091
40
0.494330428831091
40
0.988660857662182
40
0.988660857662182
40
1
40
1
40
1
40
1
41
1
10
8.0495027989592
20
1.85697011884781
30
0
41
1
10
8.04951760776228
20
1.90550625800543
30
0
41
1
10
8.04952439904378
20
1.94241690933438
30
0
41
1
10
8.04952769413393
20
1.99269720589854
30
0
41
1
10
8.04952418589403
20
2.00542053378339
30
0
41
1
10
8.04951869048523
20
2.00613126433751
30
0
41
1
10
8.04951856625263
20
2.00614086010327
30
0
41
1
10
8.04951844105196
20
2.00614410905124
30
0
0
SPLINE
5
BB
100
AcDbEntity
8
1
62
256
6
ByLayer
370
18
48
1
60
0
100
AcDbSpline
70
4
71
3
72
8
73
4
40
0
40
0
40
0
40
0
40
1
40
1
40
1
40
1
41
1
10
29.9900231431259
20
-0.0954134234705748
30
0
41
1
10
29.9906220513199
20
-0.0777422763392508
30
0
41
1
10
29.9944487899494
20
-0.055447971251084
30
0
41
1
10
29.9999518241495
20
-0.0321427245522159
30
0
0
SPLINE
5
BC
100
AcDbEntity
8
1
62
256
6
ByLayer
370
18
48
1
60
0
100
AcDbSpline
70
4
71
3
72
10
73
6
40
0
40
0
40
0
40
0
40
0.5
40
0.5
40
1
40
1
40
1
40
1
41
1
10
8.04966186332473
20
-0.837243954921348
30
0
41
1
10
8.0745973182037
20
-0.831119980552529
30
0
41
1
10
8.10692493272825
20
-0.832790023968016
30
0
41
1
10
8.17656228820346
20
-0.849378073338897
30
0
41
1
10
8.21368308138008
20
-0.86408761539721
30
0
41
1
10
8.25030375443396
20
-0.883460177328828
30
0
0
SPLINE
5
BD
100
AcDbEntity
8
1
62
256
6
ByLayer
370
18
48
1
60
0
100
AcDbSpline
70
4
71
3
72
24
73
20
40
0
40
0
40
0
40
0
40
0.0377477819613452
40
0.0377477819613452
40
0.0926947504704896
40
0.0926947504704896
40
0.147641718979634
40
0.147641718979634
40
0.367429593016209
40
0.367429593016209
40
0.477323530034496
40
0.477323530034496
40
0.587217467052783
40
0.587217467052783
40
0.807005341089358
40
0.807005341089358
40
0.916899278107647
40
0.916899278107647
40
1
40
1
40
1
40
1
41
1
10
8.636724400362
20
1.66243011907946
30
0
41
1
10
8.71256333628435
20
1.63876215042686
30
0
41
1
10
8.78838100769835
20
1.61396756491476
30
0
41
1
10
8.97459619696758
20
1.55041250586129
30
0
41
1
10
9.08503952753776
20
1.5104806280649
30
0
41
1
10
9.30631495076639
20
1.42633711269795
30
0
41
1
10
9.4173495096565
20
1.3819999407398
30
0
41
1
10
9.97046402902612
20
1.15141085630901
30
0
41
1
10
10.4069497669258
20
0.939018097379233
30
0
41
1
10
11.0631751186936
20
0.595654840667407
30
0
41
1
10
11.2821269397317
20
0.477021237595125
30
0
41
1
10
11.7221806916029
20
0.234349417640829
30
0
41
1
10
11.9444604450649
20
0.109862007065629
30
0
41
1
10
12.6062980897471
20
-0.260662941140339
30
0
41
1
10
13.0420606251083
20
-0.504849003110735
30
0
41
1
10
13.6985321798077
20
-0.847360808857701
30
0
41
1
10
13.917808652672
20
-0.957634648480393
30
0
41
1
10
14.3051165039754
20
-1.14198589608839
30
0
41
1
10
14.4728091458633
20
-1.21836644316917
30
0
41
1
10
14.6398053275359
20
-1.29019196310824
30
0
0
SPLINE
5
BE
100
AcDbEntity
8
1
62
256
6
ByLayer
370
13
48
1
60
0
100
AcDbSpline
70
4
71
3
72
20
73
16
40
0
40
0
40
0
40
0
40
0.0378499637274812
40
0.0378499637274812
40
0.348337638273429
40
0.348337638273429
40
0.503581475546403
40
0.503581475546403
40
0.58120339418289
40
0.58120339418289
40
0.658825312819377
40
0.658825312819377
40
0.969312987365313
40
0.969312987365313
40
1
40
1
40
1
40
1
41
1
10
14.6398053274978
20
-1.29019196309181
30
0
41
1
10
14.6936479960082
20
-1.31334984384077
30
0
41
1
10
14.7474182648826
20
-1.33603421253639
30
0
41
1
10
15.2411063539764
20
-1.53996318245561
30
0
41
1
10
15.6767446329036
20
-1.68918842892325
30
0
41
1
10
16.3336693719729
20
-1.85355727596558
30
0
41
1
10
16.5532715489579
20
-1.89844949049149
30
0
41
1
10
16.8851070510176
20
-1.94941682487158
30
0
41
1
10
16.996071541801
20
-1.96368352674247
30
0
41
1
10
17.2169300005493
20
-1.98646793704327
30
0
41
1
10
17.3270744347213
20
-1.99502307624917
30
0
41
1
10
17.8769533453331
20
-2.02365077226881
30
0
41
1
10
18.3147921577228
20
-2.0011422364008
30
0
41
1
10
18.8007513446408
20
-1.92682898488425
30
0
41
1
10
18.8444766161054
20
-1.91971229991387
30
0
41
1
10
18.8882063634464
20
-1.91217028810846
30
0
0
SPLINE
5
BF
100
AcDbEntity
8
1
62
256
6
ByLayer
370
18
48
1
60
0
100
AcDbSpline
70
4
71
3
72
24
73
20
40
0
40
0
40
0
40
0
40
0.0624999999999994
40
0.0624999999999994
40
0.124999999999999
40
0.124999999999999
40
0.187499999999998
40
0.187499999999998
40
0.249999999999997
40
0.249999999999997
40
0.374999999999996
40
0.374999999999996
40
0.499999999999995
40
0.499999999999995
40
0.624999999999994
40
0.624999999999994
40
0.749999999999993
40
0.749999999999993
40
1
40
1
40
1
40
1
41
1
10
27.4328614018002
20
0.777155296339686
30
0
41
1
10
27.424959932516
20
0.716719835447151
30
0
41
1
10
27.4216208518906
20
0.654666704535828
30
0
41
1
10
27.4244500464437
20
0.527189453173833
30
0
41
1
10
27.4307423418794
20
0.461827317489906
30
0
41
1
10
27.4520914522768
20
0.333082358859627
30
0
41
1
10
27.4671375881012
20
0.26902004523717
30
0
41
1
10
27.5053367740348
20
0.141470607357405
30
0
41
1
10
27.5286224737654
20
0.0778440290731055
30
0
41
1
10
27.6072155430556
20
-0.106284500244072
30
0
41
1
10
27.671723490765
20
-0.222376564969693
30
0
41
1
10
27.8195207506863
20
-0.443806373443039
30
0
41
1
10
27.900337068138
20
-0.545542999581215
30
0
41
1
10
28.0719237470791
20
-0.73609716933376
30
0
41
1
10
28.1629846928142
20
-0.825066574427495
30
0
41
1
10
28.3522622236309
20
-0.991471363574675
30
0
41
1
10
28.4491472880321
20
-1.06778252674985
30
0
41
1
10
28.74516267307
20
-1.2802719354184
30
0
41
1
10
28.9495314889365
20
-1.40037944281292
30
0
41
1
10
29.1596383836995
20
-1.50288358147361
30
0
0
SPLINE
5
C0
100
AcDbEntity
8
1
62
256
6
ByLayer
370
18
48
1
60
0
100
AcDbSpline
70
4
71
3
72
14
73
10
40
0
40
0
40
0
40
0
40
0.25
40
0.25
40
0.5
40
0.5
40
0.75
40
0.75
40
1
40
1
40
1
40
1
41
1
10
29.1596383836995
20
-1.50288358147358
30
0
41
1
10
29.1591534788484
20
-1.57278783444005
30
0
41
1
10
29.1618836717202
20
-1.63426254997549
30
0
41
1
10
29.1739627928681
20
-1.74064217945588
30
0
41
1
10
29.1834731255398
20
-1.78577815909935
30
0
41
1
10
29.2090350345113
20
-1.85598705689441
30
0
41
1
10
29.2250601629569
20
-1.88154343165442
30
0
41
1
10
29.2640968049583
20
-1.91397389845497
30
0
41
1
10
29.2872220676836
20
-1.92069627478321
30
0
41
1
10
29.313593131997
20
-1.91783386460696
30
0
0
SPLINE
5
C1
100
AcDbEntity
8
1
62
256
6
ByLayer
370
18
48
1
60
0
100
AcDbSpline
70
4
71
3
72
60
73
56
40
0
40
0
40
0
40
0
40
0.035714505235582
40
0.035714505235582
40
0.0745766103421283
40
0.0745766103421283
40
0.113438715448675
40
0.113438715448675
40
0.152300820555221
40
0.152300820555221
40
0.191162925661767
40
0.191162925661767
40
0.230025030768314
40
0.230025030768314
40
0.26888713587486
40
0.26888713587486
40
0.307749240981406
40
0.307749240981406
40
0.346611346087953
40
0.346611346087953
40
0.385473451194499
40
0.385473451194499
40
0.424335556301046
40
0.424335556301046
40
0.463197661407592
40
0.463197661407592
40
0.502059766514138
40
0.502059766514138
40
0.540921871620685
40
0.540921871620685
40
0.579783976727231
40
0.579783976727231
40
0.618646081833777
40
0.618646081833777
40
0.657508186940324
40
0.657508186940324
40
0.676939239493598
40
0.676939239493598
40
0.696370292046871
40
0.696370292046871
40
0.735232397153419
40
0.735232397153419
40
0.774094502259966
40
0.774094502259966
40
0.812956607366514
40
0.812956607366514
40
0.851818712473061
40
0.851818712473061
40
0.890680817579609
40
0.890680817579609
40
0.929542922686156
40
0.929542922686156
40
0.968405027792704
40
0.968405027792704
40
1
40
1
40
1
40
1
41
1
10
25.7746569293465
20
-1.47635848840247
30
0
41
1
10
25.6097170480212
20
-1.53254050879585
30
0
41
1
10
25.4444437419865
20
-1.58438946319285
30
0
41
1
10
25.1001711138031
20
-1.68097912085645
30
0
41
1
10
24.9212900822461
20
-1.7246484361259
30
0
41
1
10
24.5626914188982
20
-1.79889120085997
30
0
41
1
10
24.3829122436152
20
-1.83034732934269
30
0
41
1
10
24.0239712910915
20
-1.87835961074995
30
0
41
1
10
23.8448916446849
20
-1.89567628977213
30
0
41
1
10
23.486338613766
20
-1.91301875988935
30
0
41
1
10
23.3073174719535
20
-1.91499930983031
30
0
41
1
10
22.9480246595245
20
-1.90629390047786
30
0
41
1
10
22.7685787734474
20
-1.89515156351263
30
0
41
1
10
22.4105577066865
20
-1.85757479551643
30
0
41
1
10
22.2313772459744
20
-1.82965117111286
30
0
41
1
10
21.8725213059362
20
-1.76356312256095
30
0
41
1
10
21.6929720393839
20
-1.72408163532907
30
0
41
1
10
21.3344264516168
20
-1.63315915902163
30
0
41
1
10
21.1555613088481
20
-1.58149741498258
30
0
41
1
10
20.7973938812274
20
-1.465032741719
30
0
41
1
10
20.6176158619725
20
-1.40100845441066
30
0
41
1
10
20.258471722147
20
-1.26331723708262
30
0
41
1
10
20.0795786006715
20
-1.18896114274762
30
0
41
1
10
19.7212354104483
20
-1.03392693372589
30
0
41
1
10
19.5422483095523
20
-0.952198438273626
30
0
41
1
10
19.1831209742305
20
-0.781168825691481
30
0
41
1
10
19.0034516402847
20
-0.692588297064077
30
0
41
1
10
18.6451169104858
20
-0.510826032907914
30
0
41
1
10
18.4662205447881
20
-0.417753926763538
30
0
41
1
10
18.1074690527235
20
-0.229342674958048
30
0
41
1
10
17.9277731012037
20
-0.13322735338528
30
0
41
1
10
17.5692222728355
20
0.0578245115449931
30
0
41
1
10
17.3898504434465
20
0.152729820493391
30
0
41
1
10
17.0318922162455
20
0.343081456286257
30
0
41
1
10
16.8521799936742
20
0.437225277271551
30
0
41
1
10
16.5830129840573
20
0.575208924047899
30
0
41
1
10
16.4934180243108
20
0.620423950423969
30
0
41
1
10
16.3143216708943
20
0.709609572468281
30
0
41
1
10
16.224827451913
20
0.753748936765675
30
0
41
1
10
15.9562111147752
20
0.883784182618513
30
0
41
1
10
15.7768652535964
20
0.967035297015684
30
0
41
1
10
15.418141658475
20
1.12796119032532
30
0
41
1
10
15.2387077259164
20
1.20360721073055
30
0
41
1
10
14.8806213409694
20
1.34571341614324
30
0
41
1
10
14.7019241663452
20
1.41272893276715
30
0
41
1
10
14.343123313634
20
1.53260605269307
30
0
41
1
10
14.163214837192
20
1.58757878754011
30
0
41
1
10
13.8050533210309
20
1.68669161039296
30
0
41
1
10
13.6259942505425
20
1.73016525997994
30
0
41
1
10
13.2676842619697
20
1.80235735231145
30
0
41
1
10
13.0879754099871
20
1.83075287360455
30
0
41
1
10
12.7288142132047
20
1.87533052947958
30
0
41
1
10
12.5497037882951
20
1.89136642112823
30
0
41
1
10
12.2249854583228
20
1.90720903783424
30
0
41
1
10
12.0791658119213
20
1.90923899094926
30
0
41
1
10
11.9331077820361
20
1.90637768412947
30
0
0
SPLINE
5
C2
100
AcDbEntity
8
1
62
256
6
ByLayer
370
18
48
1
60
0
100
AcDbSpline
70
4
71
3
72
40
73
36
40
0
40
0
40
0
40
0
40
0.0861287160300921
40
0.0861287160300921
40
0.172257432060184
40
0.172257432060184
40
0.258386148090276
40
0.258386148090276
40
0.344514864120368
40
0.344514864120368
40
0.430643580150461
40
0.430643580150461
40
0.516772296180553
40
0.516772296180553
40
0.559836654195599
40
0.559836654195599
40
0.602901012210645
40
0.602901012210645
40
0.645965370225691
40
0.645965370225691
40
0.689029728240737
40
0.689029728240737
40
0.732094086255783
40
0.732094086255783
40
0.775158444270829
40
0.775158444270829
40
0.818222802285875
40
0.818222802285875
40
0.861287160300921
40
0.861287160300921
40
0.947415876331013
40
0.947415876331013
40
0.990480234346059
40
0.990480234346059
40
1
40
1
40
1
40
1
41
1
10
10.2194193705874
20
0.735914681314057
30
0
41
1
10
10.4206953001611
20
0.629594317565619
30
0
41
1
10
10.621504024477
20
0.522112790096543
30
0
41
1
10
11.0215283951305
20
0.303684594853877
30
0
41
1
10
11.2200300747231
20
0.191438818855175
30
0
41
1
10
11.6185779868056
20
-0.0308370293756184
30
0
41
1
10
11.8173351000279
20
-0.143206141720299
30
0
41
1
10
12.2164938115011
20
-0.365541228097783
30
0
41
1
10
12.4172797701458
20
-0.474797934426334
30
0
41
1
10
12.8195975978183
20
-0.692570806924834
30
0
41
1
10
13.0213386165384
20
-0.796962897333117
30
0
41
1
10
13.4210953239511
20
-0.997967768227028
30
0
41
1
10
13.6199408863743
20
-1.09425103519811
30
0
41
1
10
13.9187922906024
20
-1.22924094754228
30
0
41
1
10
14.0184127909172
20
-1.2728243074701
30
0
41
1
10
14.217210171311
20
-1.35773671689708
30
0
41
1
10
14.3166044442857
20
-1.39874860312864
30
0
41
1
10
14.5160869351428
20
-1.47697805000115
30
0
41
1
10
14.6161139940753
20
-1.51429221759685
30
0
41
1
10
14.8162958754718
20
-1.58583718185292
30
0
41
1
10
14.9164461230494
20
-1.6200573034962
30
0
41
1
10
15.1174234987678
20
-1.68467509775653
30
0
41
1
10
15.2184631157286
20
-1.71508262786187
30
0
41
1
10
15.4197974111178
20
-1.77131305922043
30
0
41
1
10
15.5202318930027
20
-1.79724105849269
30
0
41
1
10
15.7202919156603
20
-1.84504030712111
30
0
41
1
10
15.8198396244865
20
-1.86693212490698
30
0
41
1
10
16.0192039695767
20
-1.90587659997908
30
0
41
1
10
16.1189120368478
20
-1.92303652077553
30
0
41
1
10
16.4176899044691
20
-1.96792262647219
30
0
41
1
10
16.616008145964
20
-1.98908650608212
30
0
41
1
10
16.9149928358895
20
-2.00664197403802
30
0
41
1
10
17.0148822509935
20
-2.01017589852381
30
0
41
1
10
17.1369324166429
20
-2.01165581738391
30
0
41
1
10
17.159022815778
20
-2.01180875099729
30
0
41
1
10
17.1811140016811
20
-2.01184628333451
30
0
0
SPLINE
5
C3
100
AcDbEntity
8
1
62
256
6
ByLayer
370
18
48
1
60
0
100
AcDbSpline
70
4
71
3
72
22
73
18
40
0
40
0
40
0
40
0
40
0.0156661978406836
40
0.0156661978406836
40
0.179721831533904
40
0.179721831533904
40
0.343777465227128
40
0.343777465227128
40
0.425805282073741
40
0.425805282073741
40
0.507833098920353
40
0.507833098920353
40
0.671888732613569
40
0.671888732613569
40
0.835944366306785
40
0.835944366306785
40
1
40
1
40
1
40
1
41
1
10
25.7705257842593
20
1.48308407427109
30
0
41
1
10
25.7895611952121
20
1.49036898049766
30
0
41
1
10
25.8085862521381
20
1.49759517272889
30
0
41
1
10
26.0267163650162
20
1.57982961212619
30
0
41
1
10
26.2255176594072
20
1.64738916548828
30
0
41
1
10
26.623533915181
20
1.76671141478803
30
0
41
1
10
26.8219052939564
20
1.81914850759875
30
0
41
1
10
27.1217780592306
20
1.88409040946922
30
0
41
1
10
27.2219248885128
20
1.90363163220727
30
0
41
1
10
27.4224515417258
20
1.93847393779572
30
0
41
1
10
27.5231179546587
20
1.95373813705666
30
0
41
1
10
27.824993707723
20
1.99226242052529
30
0
41
1
10
28.0255224196063
20
2.00834113492309
30
0
41
1
10
28.4233586061372
20
2.02202827348643
30
0
41
1
10
28.6224743558366
20
2.01941921117745
30
0
41
1
10
29.0196563731533
20
1.99572752210562
30
0
41
1
10
29.2179450106253
20
1.97446583398829
30
0
41
1
10
29.4174154443862
20
1.94431552767321
30
0
0
SPLINE
5
C4
100
AcDbEntity
8
1
62
256
6
ByLayer
370
18
48
1
60
0
100
AcDbSpline
70
4
71
3
72
8
73
4
40
0
40
0
40
0
40
0
40
1
40
1
40
1
40
1
41
1
10
8.04950279895908
20
1.85697011884781
30
0
41
1
10
8.05602219773903
20
1.84705388721153
30
0
41
1
10
8.06314720475876
20
1.83755548069314
30
0
41
1
10
8.07086285220697
20
1.82856152361293
30
0
0
SPLINE
5
C5
100
AcDbEntity
8
1
62
256
6
ByLayer
370
18
48
1
60
0
100
AcDbSpline
70
4
71
3
72
12
73
8
40
0
40
0
40
0
40
0
40
0.265640171311933
40
0.265640171311933
40
0.531280342623865
40
0.531280342623865
40
1
40
1
40
1
40
1
41
1
10
29.313593150653
20
-1.91783386471781
30
0
41
1
10
29.0935385639297
20
-1.92088320124068
30
0
41
1
10
28.873941304113
20
-1.91294853385696
30
0
41
1
10
28.4341169376626
20
-1.87561089346127
30
0
41
1
10
28.2132997603939
20
-1.84609206885136
30
0
41
1
10
27.6037692918277
20
-1.73618393069407
30
0
41
1
10
27.2192334096674
20
-1.63483457844839
30
0
41
1
10
26.8346662736684
20
-1.50741514550458
30
0
0
SPLINE
5
C6
100
AcDbEntity
8
1
62
256
6
ByLayer
370
13
48
1
60
0
100
AcDbSpline
70
4
71
3
72
26
73
22
40
0
40
0
40
0
40
0
40
0.0239964553712294
40
0.0239964553712294
40
0.125888377409699
40
0.125888377409699
40
0.176834338428934
40
0.176834338428934
40
0.227780299448168
40
0.227780299448168
40
0.43156414352511
40
0.43156414352511
40
0.533456065563582
40
0.533456065563582
40
0.635347987602054
40
0.635347987602054
40
0.839131831678996
40
0.839131831678996
40
0.941023753717468
40
0.941023753717468
40
1
40
1
40
1
40
1
41
1
10
26.8346661299776
20
-1.50741509789523
30
0
41
1
10
26.7833374504065
20
-1.49040825834589
30
0
41
1
10
26.7320082140511
20
-1.47293699099095
30
0
41
1
10
26.4626691264934
20
-1.37890808148603
30
0
41
1
10
26.2444874926208
20
-1.29467398955688
30
0
41
1
10
25.9156945551529
20
-1.15760241740941
30
0
41
1
10
25.8058515996619
20
-1.11011057497314
30
0
41
1
10
25.5854559095488
20
-1.01181870907317
30
0
41
1
10
25.4748319118443
20
-0.960978296877187
30
0
41
1
10
24.9245717406567
20
-0.701770941276237
30
0
41
1
10
24.4896317882207
20
-0.476213275605204
30
0
41
1
10
23.8352056361347
20
-0.129157973690695
30
0
41
1
10
23.6167328325047
20
-0.0119888621440509
30
0
41
1
10
23.1777433347314
20
0.222675673840058
30
0
41
1
10
22.956213383172
20
0.340369873280451
30
0
41
1
10
22.29687674806
20
0.682545069430944
30
0
41
1
10
21.862090741068
20
0.898004963307812
30
0
41
1
10
21.2069417504437
20
1.18557893892913
30
0
41
1
10
20.9880877535303
20
1.27549940192907
30
0
41
1
10
20.6405924149617
20
1.4060978128079
30
0
41
1
10
20.5127834764445
20
1.4515137424516
30
0
41
1
10
20.3850524467969
20
1.49407412615201
30
0
0
SPLINE
5
C7
100
AcDbEntity
8
1
62
256
6
ByLayer
370
18
48
1
60
0
100
AcDbSpline
70
4
71
3
72
8
73
4
40
0
40
0
40
0
40
0
40
1
40
1
40
1
40
1
41
1
10
29.9999518241448
20
0.0321427245721395
30
0
41
1
10
30.0000160672198
20
0.0107113721442147
30
0
41
1
10
30.0000160491922
20
-0.0107173860987757
30
0
41
1
10
29.9999518241449
20
-0.0321427245375219
30
0
0
SPLINE
5
C8
100
AcDbEntity
8
1
62
256
6
ByLayer
370
18
48
1
60
0
100
AcDbSpline
70
4
71
3
72
10
73
6
40
0
40
0
40
0
40
0
40
0.5
40
0.5
40
1
40
1
40
1
40
1
41
1
10
29.4174154443859
20
1.94431552767352
30
0
41
1
10
29.5025832753388
20
1.70991393205384
30
0
41
1
10
29.5914121200401
20
1.47681364845692
30
0
41
1
10
29.7745314600255
20
1.01260009431411
30
0
41
1
10
29.8690581751823
20
0.781410117423178
30
0
41
1
10
29.9651671557722
20
0.55181794402958
30
0
0
SPLINE
5
C9
100
AcDbEntity
8
1
62
256
6
ByLayer
370
18
48
1
60
0
100
AcDbSpline
70
4
71
3
72
72
73
68
40
0
40
0
40
0
40
0
40
0.0138879667752419
40
0.0138879667752419
40
0.0354527807455319
40
0.0354527807455319
40
0.0570175947158219
40
0.0570175947158219
40
0.078582408686112
40
0.078582408686112
40
0.100147222656402
40
0.100147222656402
40
0.121712036626692
40
0.121712036626692
40
0.164841664567273
40
0.164841664567273
40
0.186406478537564
40
0.186406478537564
40
0.207971292507855
40
0.207971292507855
40
0.251100920448436
40
0.251100920448436
40
0.294230548389017
40
0.294230548389017
40
0.337360176329598
40
0.337360176329598
40
0.380489804270179
40
0.380489804270179
40
0.42361943221076
40
0.42361943221076
40
0.466749060151342
40
0.466749060151342
40
0.509878688091923
40
0.509878688091923
40
0.531443502062213
40
0.531443502062213
40
0.553008316032503
40
0.553008316032503
40
0.574573130002793
40
0.574573130002793
40
0.596137943973083
40
0.596137943973083
40
0.639267571913664
40
0.639267571913664
40
0.660832385883955
40
0.660832385883955
40
0.682397199854246
40
0.682397199854246
40
0.725526827794829
40
0.725526827794829
40
0.74709164176512
40
0.74709164176512
40
0.768656455735411
40
0.768656455735411
40
0.811786083675994
40
0.811786083675994
40
0.854915711616578
40
0.854915711616578
40
0.89804533955716
40
0.89804533955716
40
0.919610153527452
40
0.919610153527452
40
0.941174967497745
40
0.941174967497745
40
0.984304595438331
40
0.984304595438331
40
1
40
1
40
1
40
1
41
1
10
14.5229648458648
20
1.47896375163376
30
0
41
1
10
14.5873121948047
20
1.50334957770374
30
0
41
1
10
14.6517453173229
20
1.52702684537815
30
0
41
1
10
14.8162958754718
20
1.58583718185292
30
0
41
1
10
14.9164461230493
20
1.6200573034962
30
0
41
1
10
15.1174234987678
20
1.68467509775653
30
0
41
1
10
15.2184631157286
20
1.71508262786187
30
0
41
1
10
15.4197974111178
20
1.77131305922043
30
0
41
1
10
15.5202318930027
20
1.79724105849266
30
0
41
1
10
15.7202919156603
20
1.84504030712111
30
0
41
1
10
15.8198396244865
20
1.86693212490698
30
0
41
1
10
16.0192039695767
20
1.90587659997908
30
0
41
1
10
16.1189120368478
20
1.92303652077553
30
0
41
1
10
16.4176899044691
20
1.96792262647219
30
0
41
1
10
16.6160081459639
20
1.98908650608212
30
0
41
1
10
16.9149928358894
20
2.00664197403802
30
0
41
1
10
17.0148822509934
20
2.01017589852381
30
0
41
1
10
17.2147909558492
20
2.01259989083093
30
0
41
1
10
17.3146345162218
20
2.01145878858429
30
0
41
1
10
17.6155548798516
20
2.00086171802218
30
0
41
1
10
17.8182460905527
20
1.98431317309587
30
0
41
1
10
18.2186127559596
20
1.93265146149369
30
0
41
1
10
18.4180320611046
20
1.897807631642
30
0
41
1
10
18.8164610959947
20
1.81133544555072
30
0
41
1
10
19.0146086087694
20
1.75894832209352
30
0
41
1
10
19.4131295422546
20
1.63956685057536
30
0
41
1
10
19.6122915231915
20
1.57147207211702
30
0
41
1
10
20.0129328426177
20
1.42071209096781
30
0
41
1
10
20.2157308339833
20
1.33841377557189
30
0
41
1
10
20.6162766039904
20
1.16048070457111
30
0
41
1
10
20.8163002627699
20
1.06736663474652
30
0
41
1
10
21.2144814976088
20
0.871028750511812
30
0
41
1
10
21.4128470464174
20
0.768050704875179
30
0
41
1
10
21.7115402821696
20
0.610149197207789
30
0
41
1
10
21.8112006191243
20
0.556793919456254
30
0
41
1
10
22.0103011486165
20
0.447873642430864
30
0
41
1
10
22.1098764783041
20
0.392535676860149
30
0
41
1
10
22.309947694957
20
0.281677275877939
30
0
41
1
10
22.4103611245193
20
0.226018682260047
30
0
41
1
10
22.611533333064
20
0.113450972675139
30
0
41
1
10
22.7123773756601
20
0.0564185743660914
30
0
41
1
10
23.0141624067881
20
-0.114060642776451
30
0
41
1
10
23.21543994834
20
-0.22635833483136
30
0
41
1
10
23.5169293516946
20
-0.393786772206198
30
0
41
1
10
23.6171834779638
20
-0.449721124972569
30
0
41
1
10
23.8185028193349
20
-0.559567036120711
30
0
41
1
10
23.919555223896
20
-0.613724228338668
30
0
41
1
10
24.2219209317331
20
-0.773810995383457
30
0
41
1
10
24.4222972764306
20
-0.878206294679529
30
0
41
1
10
24.7239733911752
20
-1.0265658052364
30
0
41
1
10
24.8246924929837
20
-1.07470569058995
30
0
41
1
10
25.0261064612745
20
-1.16887301079828
30
0
41
1
10
25.1267797785048
20
-1.21521513860546
30
0
41
1
10
25.4281797009487
20
-1.3482832536443
30
0
41
1
10
25.6284845687969
20
-1.42969734437014
30
0
41
1
10
26.0267163650162
20
-1.57982961212616
30
0
41
1
10
26.2255176594071
20
-1.64738916548825
30
0
41
1
10
26.623533915181
20
-1.76671141478801
30
0
41
1
10
26.8219052939563
20
-1.81914850759873
30
0
41
1
10
27.1217780592305
20
-1.8840904094692
30
0
41
1
10
27.2219248885128
20
-1.90363163220727
30
0
41
1
10
27.4224515417257
20
-1.93847393779569
30
0
41
1
10
27.5231179546587
20
-1.95373813705666
30
0
41
1
10
27.8249937077229
20
-1.99226242052529
30
0
41
1
10
28.0255224196062
20
-2.00834113492309
30
0
41
1
10
28.2968292650478
20
-2.01767516363253
30
0
41
1
10
28.369244193301
20
-2.01891379022894
30
0
41
1
10
28.4416504826129
20
-2.0189109865768
30
0
0
SPLINE
5
CA
100
AcDbEntity
8
1
62
256
6
ByLayer
370
18
48
1
60
0
100
AcDbSpline
70
4
71
3
72
8
73
4
40
0
40
0
40
0
40
0
40
1
40
1
40
1
40
1
41
1
10
29.3042058922906
20
2.0128696657647
30
0
41
1
10
29.207696208548
20
2.01720850843503
30
0
41
1
10
29.1113167908324
20
2.01933322096014
30
0
41
1
10
29.0149996573854
20
2.01926020004069
30
0
0
SPLINE
5
CB
100
AcDbEntity
8
1
62
256
6
ByLayer
370
18
48
1
60
0
100
AcDbSpline
70
4
71
3
72
36
73
32
40
0
40
0
40
0
40
0
40
0.0045417037041579
40
0.0045417037041579
40
0.0667578472226482
40
0.0667578472226482
40
0.128973990741139
40
0.128973990741139
40
0.25340627777812
40
0.25340627777812
40
0.31562242129661
40
0.31562242129661
40
0.346730493055855
40
0.346730493055855
40
0.3778385648151
40
0.3778385648151
40
0.502270851852078
40
0.502270851852078
40
0.564486995370567
40
0.564486995370567
40
0.626703138889057
40
0.626703138889057
40
0.751135425926036
40
0.751135425926036
40
0.782243497685281
40
0.782243497685281
40
0.813351569444527
40
0.813351569444527
40
0.875567712963018
40
0.875567712963018
40
1
40
1
40
1
40
1
41
1
10
18.7904356834429
20
-1.93093899033994
30
0
41
1
10
18.7744426918504
20
-1.93346887693383
30
0
41
1
10
18.7584484622036
20
-1.93594148109833
30
0
41
1
10
18.5233288348549
20
-1.97144115402406
30
0
41
1
10
18.3037861333673
20
-1.99365052369515
30
0
41
1
10
17.8621441641176
20
-2.01535139925724
30
0
41
1
10
17.6393841055485
20
-2.01471385769662
30
0
41
1
10
16.9777070469839
20
-1.97832085058701
30
0
41
1
10
16.5409197554085
20
-1.90884116803147
30
0
41
1
10
15.8828120122663
20
-1.74277174293084
30
0
41
1
10
15.6628146383198
20
-1.67719466327742
30
0
41
1
10
15.3306204330343
20
-1.56433006477874
30
0
41
1
10
15.2193329614297
20
-1.5242040325173
30
0
41
1
10
14.9979262419489
20
-1.44013255597417
30
0
41
1
10
14.8875778168401
20
-1.39612098224629
30
0
41
1
10
14.3370810649457
20
-1.16701480543262
30
0
41
1
10
13.900700008702
20
-0.954700056375259
30
0
41
1
10
13.2414371051978
20
-0.609477081217506
30
0
41
1
10
13.0209698085022
20
-0.489829149486923
30
0
41
1
10
12.5766544781255
20
-0.244506836609361
30
0
41
1
10
12.3559495080674
20
-0.120673321313774
30
0
41
1
10
11.6963888383377
20
0.24907822456737
30
0
41
1
10
11.2599881192768
20
0.493962821638291
30
0
41
1
10
10.7094508519671
20
0.781606683677893
30
0
41
1
10
10.5990964198418
20
0.83822193603919
30
0
41
1
10
10.3776890722242
20
0.94925838869716
30
0
41
1
10
10.2663869062207
20
1.00380058606802
30
0
41
1
10
9.9338677732726
20
1.16217340131925
30
0
41
1
10
9.71354151185642
20
1.26101050538131
30
0
41
1
10
9.05390168084011
20
1.53392792482975
30
0
41
1
10
8.6161726958351
20
1.68463858349745
30
0
41
1
10
8.17285968620595
20
1.79511256427327
30
0
0
SPLINE
5
CC
100
AcDbEntity
8
1
62
256
6
ByLayer
370
18
48
1
60
0
100
AcDbSpline
70
4
71
3
72
34
73
30
40
0
40
0
40
0
40
0
40
0.149180589288458
40
0.149180589288458
40
0.22588872999914
40
0.22588872999914
40
0.302596870709823
40
0.302596870709823
40
0.456013152131188
40
0.456013152131188
40
0.532721292841871
40
0.532721292841871
40
0.571075363197212
40
0.571075363197212
40
0.590252398374883
40
0.590252398374883
40
0.599840915963718
40
0.599840915963718
40
0.604635174758136
40
0.604635174758136
40
0.609429433552553
40
0.609429433552553
40
0.762845714973919
40
0.762845714973919
40
0.839553855684602
40
0.839553855684602
40
0.916261996395285
40
0.916261996395285
40
1
40
1
40
1
40
1
41
1
10
10.2194193705874
20
0.735914681313972
30
0
41
1
10
10.2194193705874
20
0.681898655378433
30
0
41
1
10
10.2194193705876
20
0.613513437452838
30
0
41
1
10
10.2194193705876
20
0.489045351152299
30
0
41
1
10
10.2194193705876
20
0.443427483462955
30
0
41
1
10
10.2194193705876
20
0.347087611412775
30
0
41
1
10
10.2194193705876
20
0.296191786233322
30
0
41
1
10
10.2194193705876
20
0.135737225969535
30
0
41
1
10
10.2194193705876
20
0.01847433191341
30
0
41
1
10
10.2194193705876
20
-0.172519410536154
30
0
41
1
10
10.2194193705877
20
-0.238361802108699
30
0
41
1
10
10.2194193705877
20
-0.339813307680828
30
0
41
1
10
10.2194193705876
20
-0.374115958359681
30
0
41
1
10
10.2194193705876
20
-0.426242639811846
30
0
41
1
10
10.2194193705877
20
-0.443724653561816
30
0
41
1
10
10.2194193705877
20
-0.470106733458721
30
0
41
1
10
10.2194193705877
20
-0.479837284658515
30
0
41
1
10
10.2194193705877
20
-0.494996637436032
30
0
41
1
10
10.2194193705876
20
-0.50010816758936
30
0
41
1
10
10.2194193705876
20
-0.510280878591828
30
0
41
1
10
10.2194193705876
20
-0.515365286641298
30
0
41
1
10
10.2194193705876
20
-0.683086342761129
30
0
41
1
10
10.2194193705876
20
-0.843262066445988
30
0
41
1
10
10.2194193705876
20
-1.07401614298104
30
0
41
1
10
10.2194193705876
20
-1.14958030798218
30
0
41
1
10
10.2194193705876
20
-1.29784985898908
30
0
41
1
10
10.2194193705876
20
-1.37095698088873
30
0
41
1
10
10.2194193705876
20
-1.51840768555257
30
0
41
1
10
10.2194193705877
20
-1.59203658628675
30
0
41
1
10
10.2194193705877
20
-1.66221162078961
30
0
0
SPLINE
5
CD
100
AcDbEntity
8
1
62
256
6
ByLayer
370
18
48
1
60
0
100
AcDbSpline
70
4
71
3
72
8
73
4
40
0
40
0
40
0
40
0
40
1
40
1
40
1
40
1
41
1
10
8.17285968620558
20
1.79511256427335
30
0
41
1
10
8.15533094468319
20
1.79948074163767
30
0
41
1
10
8.13783709796428
20
1.80381670533015
30
0
41
1
10
8.12117330955829
20
1.8086752529031
30
0
0
SPLINE
5
CE
100
AcDbEntity
8
1
62
256
6
ByLayer
370
18
48
1
60
0
100
AcDbSpline
70
4
71
3
72
8
73
4
40
0
40
0
40
0
40
0
40
1
40
1
40
1
40
1
41
1
10
29.9999518241448
20
0.0321427245721395
30
0
41
1
10
29.9949113719799
20
0.0145570059577267
30
0
41
1
10
29.9871847801298
20
-0.0039464019447166
30
0
41
1
10
29.9790624090344
20
-0.0172610458212148
30
0
0
SPLINE
5
CF
100
AcDbEntity
8
1
62
256
6
ByLayer
370
18
48
1
60
0
100
AcDbSpline
70
4
71
3
72
14
73
10
40
0
40
0
40
0
40
0
40
0.250000000000001
40
0.250000000000001
40
0.500000000000002
40
0.500000000000002
40
0.750000000000001
40
0.750000000000001
40
1
40
1
40
1
40
1
41
1
10
29.313593128096
20
-1.91783386503039
30
0
41
1
10
29.3169150943468
20
-1.91747328697781
30
0
41
1
10
29.3196474161321
20
-1.91866898401375
30
0
41
1
10
29.3235239782472
20
-1.92520409691625
30
0
41
1
10
29.3246280485475
20
-1.93059725028331
30
0
41
1
10
29.3240094878344
20
-1.94686107860048
30
0
41
1
10
29.3221935521361
20
-1.9577846371111
30
0
41
1
10
29.315500473841
20
-1.98287767215692
30
0
41
1
10
29.3106793802442
20
-1.9968408820381
30
0
41
1
10
29.3053523960991
20
-2.01003121340023
30
0
0
SPLINE
5
D0
100
AcDbEntity
8
1
62
256
6
ByLayer
370
18
48
1
60
0
100
AcDbSpline
70
4
71
3
72
8
73
4
40
0
40
0
40
0
40
0
40
1
40
1
40
1
40
1
41
1
10
29.9790624090344
20
-0.0172610458211864
30
0
41
1
10
29.6873078187912
20
-0.495521448205807
30
0
41
1
10
29.4139494923354
20
-0.990531398493118
30
0
41
1
10
29.1596383836995
20
-1.50288358147361
30
0
0
SPLINE
5
D1
100
AcDbEntity
8
1
62
256
6
ByLayer
370
18
48
1
60
0
100
AcDbSpline
70
4
71
3
72
8
73
4
40
0
40
0
40
0
40
0
40
1
40
1
40
1
40
1
41
1
10
29.9651671557709
20
0.551817944032877
30
0
41
1
10
29.9765910816201
20
0.399445982953296
30
0
41
1
10
29.9848750421011
20
0.24731124616639
30
0
41
1
10
29.9900231431259
20
0.0954134234706601
30
0
0
SPLINE
5
D2
100
AcDbEntity
8
1
62
256
6
ByLayer
370
18
48
1
60
0
100
AcDbSpline
70
4
71
3
72
16
73
12
40
0
40
0
40
0
40
0
40
0.208510738231706
40
0.208510738231706
40
0.354513925242063
40
0.354513925242063
40
0.50051711225242
40
0.50051711225242
40
0.792523486273131
40
0.792523486273131
40
1
40
1
40
1
40
1
41
1
10
17.9377599748071
20
-1.91127504852608
30
0
41
1
10
17.7812239324577
20
-1.91042523178891
30
0
41
1
10
17.624704322803
20
-1.90410420233272
30
0
41
1
10
17.3581495054058
20
-1.88407847569158
30
0
41
1
10
17.2482200714418
20
-1.87317008112504
30
0
41
1
10
17.0278258007176
20
-1.84601754645721
30
0
41
1
10
16.9171337407275
20
-1.82973290491273
30
0
41
1
10
16.586225496472
20
-1.77325551537578
30
0
41
1
10
16.3670404568542
20
-1.72545108570006
30
0
41
1
10
15.9931391727154
20
-1.62803528703321
30
0
41
1
10
15.8380877677483
20
-1.58295543345201
30
0
41
1
10
15.6830194377406
20
-1.53357986511961
30
0
0
SPLINE
5
D3
100
AcDbEntity
8
1
62
256
6
ByLayer
370
13
48
1
60
0
100
AcDbSpline
70
4
71
3
72
22
73
18
40
0
40
0
40
0
40
0
40
0.133710327601498
40
0.133710327601498
40
0.237403700079807
40
0.237403700079807
40
0.341097072558116
40
0.341097072558116
40
0.54848381751473
40
0.54848381751473
40
0.652177189993037
40
0.652177189993037
40
0.755870562471343
40
0.755870562471343
40
0.963257307427955
40
0.963257307427955
40
1
40
1
40
1
40
1
41
1
10
15.6830184849191
20
-1.53357956173005
30
0
41
1
10
15.4015949246145
20
-1.44397097964614
30
0
41
1
10
15.1201156176318
20
-1.3402139087724
30
0
41
1
10
14.617301666252
20
-1.13426048728047
30
0
41
1
10
14.3956801485595
20
-1.03641145659788
30
0
41
1
10
13.9556319503257
20
-0.831631080344948
30
0
41
1
10
13.7367776218634
20
-0.724591853958742
30
0
41
1
10
13.0814035632313
20
-0.39371484063139
30
0
41
1
10
12.6461020926536
20
-0.160021938148788
30
0
41
1
10
11.9856318539991
20
0.191474240618334
30
0
41
1
10
11.7639550471561
20
0.308909604075126
30
0
41
1
10
11.3247768800225
20
0.537137074546052
30
0
41
1
10
11.1061882558598
20
0.648303689273035
30
0
41
1
10
10.4509628848923
20
0.968501191434797
30
0
41
1
10
10.0150191003792
20
1.16453778945032
30
0
41
1
10
9.49531526991711
20
1.36220278740532
30
0
41
1
10
9.41704087594914
20
1.39098999313072
30
0
41
1
10
9.33877232980859
20
1.41875761427994
30
0
0
SPLINE
5
D4
100
AcDbEntity
8
1
62
256
6
ByLayer
370
18
48
1
60
0
100
AcDbSpline
70
4
71
3
72
10
73
6
40
0
40
0
40
0
40
0
40
0.5
40
0.5
40
1
40
1
40
1
40
1
41
1
10
29.4174154443859
20
-1.94431552767324
30
0
41
1
10
29.5031055996612
20
-1.70847637454827
30
0
41
1
10
29.5920992977049
20
-1.47503509092334
30
0
41
1
10
29.7750732923465
20
-1.01126331734164
30
0
41
1
10
29.8692115924828
20
-0.781043622937318
30
0
41
1
10
29.965167155771
20
-0.55181794403228
30
0
0
SPLINE
5
D5
100
AcDbEntity
8
1
62
256
6
ByLayer
370
18
48
1
60
0
100
AcDbSpline
70
4
71
3
72
8
73
4
40
0
40
0
40
0
40
0
40
1
40
1
40
1
40
1
41
1
10
29.965167155771
20
-0.551817944032308
30
0
41
1
10
29.9765849050302
20
-0.3995283661136
30
0
41
1
10
29.9848722568727
20
-0.247393426006283
30
0
41
1
10
29.9900231431259
20
-0.0954134234706601
30
0
0
SPLINE
5
D6
100
AcDbEntity
8
1
62
256
6
ByLayer
370
18
48
1
60
0
100
AcDbSpline
70
4
71
3
72
12
73
8
40
0
40
0
40
0
40
0
40
0.25
40
0.25
40
0.500000000000001
40
0.500000000000001
40
1
40
1
40
1
40
1
41
1
10
29.1668557168814
20
0.496885245036225
30
0
41
1
10
29.1669157701717
20
0.506779600399227
30
0
41
1
10
29.1697479041474
20
0.516635239056455
30
0
41
1
10
29.1806249469355
20
0.533612244932044
30
0
41
1
10
29.1886475330642
20
0.540720352292283
30
0
41
1
10
29.2154881526048
20
0.556254494601546
30
0
41
1
10
29.2365448629858
20
0.559720719466554
30
0
41
1
10
29.2571672135383
20
0.559328780941428
30
0
0
SPLINE
5
D7
100
AcDbEntity
8
1
62
256
6
ByLayer
370
18
48
1
60
0
100
AcDbSpline
70
4
71
3
72
10
73
6
40
0
40
0
40
0
40
0
40
0.5
40
0.5
40
1
40
1
40
1
40
1
41
1
10
8.121173309558
20
1.8086752529029
30
0
41
1
10
8.10106915672395
20
1.8145368841586
30
0
41
1
10
8.08353387584728
20
1.82187009240258
30
0
41
1
10
8.05782762347701
20
1.83844712031356
30
0
41
1
10
8.0494999810463
20
1.84773436627717
30
0
41
1
10
8.04950279895738
20
1.85697011885074
30
0
0
SPLINE
5
D8
100
AcDbEntity
8
1
62
256
6
ByLayer
370
18
48
1
60
0
100
AcDbSpline
70
4
71
3
72
26
73
22
40
0
40
0
40
0
40
0
40
0.0176690907735704
40
0.0176690907735704
40
0.125074536018703
40
0.125074536018703
40
0.339885426508968
40
0.339885426508968
40
0.447290871754099
40
0.447290871754099
40
0.554696316999232
40
0.554696316999232
40
0.769507207489496
40
0.769507207489496
40
0.823209930112062
40
0.823209930112062
40
0.876912652734629
40
0.876912652734629
40
0.984318097979762
40
0.984318097979762
40
1
40
1
40
1
40
1
41
1
10
20.6353453938825
20
1.39927848168227
30
0
41
1
10
20.6716834701937
20
1.38463274717401
30
0
41
1
10
20.7079939650871
20
1.36978084319918
30
0
41
1
10
20.9647378021051
20
1.26326737369328
30
0
41
1
10
21.1839145271217
20
1.16470286441569
30
0
41
1
10
21.8400496823236
20
0.851813363328063
30
0
41
1
10
22.2753699112126
20
0.619925290033848
30
0
41
1
10
22.9364863026742
20
0.255326918245942
30
0
41
1
10
23.158586265253
20
0.130545644443913
30
0
41
1
10
23.5981822960296
20
-0.116955285171088
30
0
41
1
10
23.8169206749858
20
-0.239883427175073
30
0
41
1
10
24.4722377577452
20
-0.602232822814472
30
0
41
1
10
24.9077943579295
20
-0.835454653475097
30
0
41
1
10
25.4596448831285
20
-1.10056202196225
30
0
41
1
10
25.5705942003002
20
-1.15238886014211
30
0
41
1
10
25.7913420201952
20
-1.25210652171708
30
0
41
1
10
25.901339814243
20
-1.30009885799839
30
0
41
1
10
26.2305507952796
20
-1.43805096502086
30
0
41
1
10
26.4489759069928
20
-1.52201558341668
30
0
41
1
10
26.6991552174962
20
-1.60798610899676
30
0
41
1
10
26.7310248754559
20
-1.61874873561584
30
0
41
1
10
26.7628930695571
20
-1.62931802714391
30
0
0
SPLINE
5
D9
100
AcDbEntity
8
1
62
256
6
ByLayer
370
13
48
1
60
0
100
AcDbSpline
70
4
71
3
72
12
73
8
40
0
40
0
40
0
40
0
40
0.481057754044143
40
0.481057754044143
40
0.740528877022071
40
0.740528877022071
40
1
40
1
40
1
40
1
41
1
10
26.762893069417
20
-1.62931802709744
30
0
41
1
10
27.1675557977182
20
-1.76352702345969
30
0
41
1
10
27.5719824941587
20
-1.86656276207657
30
0
41
1
10
28.2032893210355
20
-1.96799610587038
30
0
41
1
10
28.4243718076157
20
-1.99246695139786
30
0
41
1
10
28.8649485043585
20
-2.01845627978804
30
0
41
1
10
29.0848920860882
20
-2.0200506699627
30
0
41
1
10
29.3053523960999
20
-2.01003121340014
30
0
0
SPLINE
5
DA
100
AcDbEntity
8
1
62
256
6
ByLayer
370
18
48
1
60
0
100
AcDbSpline
70
4
71
3
72
8
73
4
40
0
40
0
40
0
40
0
40
1
40
1
40
1
40
1
41
1
10
29.4174154443859
20
1.94431552767327
30
0
41
1
10
29.3754297210371
20
1.97924412991972
30
0
41
1
10
29.3377896817104
20
2.00230419046969
30
0
41
1
10
29.3042058922906
20
2.0128696657647
30
0
0
SPLINE
5
DB
100
AcDbEntity
8
1
62
256
6
ByLayer
370
18
48
1
60
0
100
AcDbSpline
70
4
71
3
72
8
73
4
40
0
40
0
40
0
40
0
40
1
40
1
40
1
40
1
41
1
10
29.417415444386
20
-1.94431552767327
30
0
41
1
10
29.3754297210372
20
-1.97924412991972
30
0
41
1
10
29.3377896817104
20
-2.00230419046969
30
0
41
1
10
29.3042058922906
20
-2.0128696657647
30
0
0
SPLINE
5
DC
100
AcDbEntity
8
1
62
256
6
ByLayer
370
18
48
1
60
0
100
AcDbSpline
70
4
71
3
72
17
73
13
40
0
40
0
40
0
40
0
40
0.131366639725369
40
0.218377767985372
40
0.275399044923173
40
0.333070338105956
40
0.521955581916227
40
0.610005393745595
40
0.694450684813742
40
0.769863659386525
40
0.875696774437775
40
1
40
1
40
1
40
1
41
1
10
17.9420931966469
20
-1.91146601589324
30
0
41
1
10
18.176686468273
20
-1.91142352058279
30
0
41
1
10
18.5666825116458
20
-1.91152418203544
30
0
41
1
10
19.05855531271
20
-1.91193638598489
30
0
41
1
10
19.4188205592296
20
-1.91250131770221
30
0
41
1
10
19.9610407137823
20
-1.91141000115704
30
0
41
1
10
20.5586806165323
20
-1.91220796118543
30
0
41
1
10
21.2041400384687
20
-1.91343976879546
30
0
41
1
10
21.6469251663389
20
-1.9120024786379
30
0
41
1
10
22.1214732420287
20
-1.91167346738351
30
0
41
1
10
22.6672074226199
20
-1.91509895333766
30
0
41
1
10
23.0782500740545
20
-1.91408643294571
30
0
41
1
10
23.3002660042517
20
-1.91315592774166
30
0
0
SPLINE
5
DD
100
AcDbEntity
8
1
62
256
6
ByLayer
370
18
48
1
60
0
100
AcDbSpline
70
4
71
3
72
16
73
12
40
0
40
0
40
0
40
0
40
0.170507299188525
40
0.307631746522682
40
0.399917941110985
40
0.497266965342354
40
0.575138467997664
40
0.648731850889223
40
0.734618559204531
40
0.862705661674678
40
1
40
1
40
1
40
1
41
1
10
12.0442800814585
20
1.90763634700917
30
0
41
1
10
11.8286648221916
20
1.90710110568233
30
0
41
1
10
11.4396471705401
20
1.90628990940013
30
0
41
1
10
10.9338023075472
20
1.90739126833759
30
0
41
1
10
10.5206588759582
20
1.90606023380443
30
0
41
1
10
10.1823090780368
20
1.90594835364629
30
0
41
1
10
9.86762184850988
20
1.90649607020632
30
0
41
1
10
9.56742323814643
20
1.90673829196194
30
0
41
1
10
9.20373111608995
20
1.90576113301654
30
0
41
1
10
8.7594599135106
20
1.90544372745089
30
0
41
1
10
8.42383963367337
20
1.9053343384287
30
0
41
1
10
8.25021061997617
20
1.90537282133181
30
0
0
SPLINE
5
DE
100
AcDbEntity
8
1
62
256
6
ByLayer
370
18
48
1
60
0
100
AcDbSpline
70
4
71
2
72
6
73
3
40
0
40
0
40
0
40
1
40
1
40
1
41
1
10
28.9869847350737
20
-1.91521367085807
30
0
41
1
10
29.1348307812615
20
-1.91585322783806
30
0
41
1
10
29.2828732204993
20
-1.91640885193431
30
0
0
SPLINE
5
DF
100
AcDbEntity
8
1
62
256
6
ByLayer
370
18
48
1
60
0
100
AcDbSpline
70
4
71
3
72
18
73
14
40
0
40
0
40
0
40
0
40
0.119116600258815
40
0.228663446534558
40
0.300029236140153
40
0.364011633176759
40
0.431612430596232
40
0.500584363183918
40
0.569553775764935
40
0.807775947473704
40
0.862630732554297
40
0.938390327297048
40
1
40
1
40
1
40
1
41
1
10
23.2985271507049
20
1.91312869852192
30
0
41
1
10
23.1220239401394
20
1.91356959902825
30
0
41
1
10
22.783186404554
20
1.91386236779877
30
0
41
1
10
22.3384926454046
20
1.91383057705531
30
0
41
1
10
21.9756021512035
20
1.9115851308369
30
0
41
1
10
21.6748688777704
20
1.91214396264863
30
0
41
1
10
21.3776343740895
20
1.91265798579059
30
0
41
1
10
21.0730136277526
20
1.9134329615743
30
0
41
1
10
20.5155223600931
20
1.91191597850917
30
0
41
1
10
19.9789639787503
20
1.91143994629118
30
0
41
1
10
19.4323149012025
20
1.91247803841173
30
0
41
1
10
19.1474808232451
20
1.91206723129531
30
0
41
1
10
18.9438978963983
20
1.91185982667707
30
0
41
1
10
18.8525919198607
20
1.91178192602413
30
0
0
SPLINE
5
E0
100
AcDbEntity
8
1
62
256
6
ByLayer
370
18
48
1
60
0
100
AcDbSpline
70
4
71
3
72
8
73
4
40
0
40
0
40
0
40
0
40
1
40
1
40
1
40
1
41
1
10
28.3175185846969
20
0.21483807807985
30
0
41
1
10
28.3350106702588
20
0.209043343685778
30
0
41
1
10
28.3524590371463
20
0.203158116188888
30
0
41
1
10
28.3698598070914
20
0.197182670015508
30
0
0
SPLINE
5
E1
100
AcDbEntity
8
1
62
256
6
ByLayer
370
18
48
1
60
0
100
AcDbSpline
70
4
71
3
72
16
73
12
40
0
40
0
40
0
40
0
40
0.127483620006574
40
0.24769624893913
40
0.336833348266886
40
0.423963036356196
40
0.510023431753235
40
0.607922049998665
40
0.705308930025757
40
0.846335321939313
40
1
40
1
40
1
40
1
41
1
10
8.25020185065742
20
-1.90538119096203
30
0
41
1
10
8.41157037055629
20
-1.90539472115725
30
0
41
1
10
8.725097859139
20
-1.9055651226312
30
0
41
1
10
9.15149348107525
20
-1.90550592859171
30
0
41
1
10
9.52670710995699
20
-1.90676669395918
30
0
41
1
10
9.85877345515573
20
-1.90652613704285
30
0
41
1
10
10.2019271357562
20
-1.90588231661425
30
0
41
1
10
10.5580638878976
20
-1.90620347830136
30
0
41
1
10
10.9837785750705
20
-1.90740780605876
30
0
41
1
10
11.4800704522681
20
-1.9063339891988
30
0
41
1
10
11.853095798552
20
-1.90712441304794
30
0
41
1
10
12.0476073141996
20
-1.90762776597046
30
0
0
LINE
5
7B
100
AcDbEntity
8
SK1
62
256
6
ByLayer
370
18
48
1
60
0
100
AcDbLine
10
-36
20
2.065
30
0
11
-36
21
-2.065
31
0
39
0
210
0
220
0
230
1
0
LINE
5
7D
100
AcDbEntity
8
SK1
62
256
6
ByLayer
370
18
48
1
60
0
100
AcDbLine
10
-35.065
20
3
30
0
11
-35.065
21
-3
31
0
39
0
210
0
220
0
230
1
0
LINE
5
7E
100
AcDbEntity
8
SK1
62
256
6
ByLayer
370
18
48
1
60
0
100
AcDbLine
10
0
20
-3
30
0
11
0
21
3
31
0
39
0
210
0
220
0
230
1
0
LINE
5
7F
100
AcDbEntity
8
1
62
256
6
ByLayer
370
18
48
1
60
0
100
AcDbLine
10
0
20
-3
30
0
11
0
21
3
31
0
39
0
210
0
220
0
230
1
0
LINE
5
80
100
AcDbEntity
8
1
62
256
6
ByLayer
370
13
48
1
60
0
100
AcDbLine
10
0.741206
20
2.501021
30
0
11
0.741206
21
-2.501021
31
0
39
0
210
0
220
0
230
1
0
LINE
5
81
100
AcDbEntity
8
1
62
256
6
ByLayer
370
13
48
1
60
0
100
AcDbLine
10
29.257167
20
0.559329
30
0
11
29.990023
21
0.095413
31
0
39
0
210
0
220
0
230
1
0
LINE
5
82
100
AcDbEntity
8
1
62
256
6
ByLayer
370
13
48
1
60
0
100
AcDbLine
10
29.166856
20
0.496885
30
0
11
29.979062
21
-0.017261
31
0
39
0
210
0
220
0
230
1
0
LINE
5
83
100
AcDbEntity
8
1
62
256
6
ByLayer
370
13
48
1
60
0
100
AcDbLine
10
1.482912
20
2.002041
30
0
11
1.482912
21
-2.002041
31
0
39
0
210
0
220
0
230
1
0
LINE
5
84
100
AcDbEntity
8
80
62
256
6
ByLayer
370
18
48
1
60
0
100
AcDbLine
10
0
20
0
30
0
11
-5
21
0
31
0
39
0
210
0
220
0
230
1
0
LINE
5
85
100
AcDbEntity
8
4
62
256
6
ByLayer
370
18
48
0.05
60
0
100
AcDbLine
10
30
20
0
30
0
11
0
21
0
31
0
39
0
210
0
220
0
230
1
0
LINE
5
87
100
AcDbEntity
8
SK4
62
256
6
ByLayer
370
18
48
0.05
60
0
100
AcDbLine
10
35
20
0
30
0
11
-41
21
0
31
0
39
0
210
0
220
0
230
1
0
LINE
5
89
100
AcDbEntity
8
SK1
62
256
6
ByLayer
370
18
48
1
60
0
100
AcDbLine
10
-36
20
-2.065
30
0
11
-35.065
21
-3
31
0
39
0
210
0
220
0
230
1
0
LINE
5
8A
100
AcDbEntity
8
SK1
62
256
6
ByLayer
370
18
48
1
60
0
100
AcDbLine
10
-35.065
20
3
30
0
11
-36
21
2.065
31
0
39
0
210
0
220
0
230
1
0
LINE
5
8B
100
AcDbEntity
8
SK1
62
256
6
ByLayer
370
18
48
1
60
0
100
AcDbLine
10
-35.065
20
-3
30
0
11
0
21
-3
31
0
39
0
210
0
220
0
230
1
0
LINE
5
8C
100
AcDbEntity
8
SK1
62
256
6
ByLayer
370
18
48
1
60
0
100
AcDbLine
10
0
20
3
30
0
11
-35.065
21
3
31
0
39
0
210
0
220
0
230
1
0
LINE
5
8D
100
AcDbEntity
8
1
62
256
6
ByLayer
370
18
48
1
60
0
100
AcDbLine
10
1.482912
20
-2.002041
30
0
11
8.049496
21
-2.006145
31
0
39
0
210
0
220
0
230
1
0
LINE
5
8E
100
AcDbEntity
8
1
62
256
6
ByLayer
370
18
48
1
60
0
100
AcDbLine
10
17.188246
20
-2.011857
30
0
11
17.765233
21
-2.012218
31
0
39
0
210
0
220
0
230
1
0
LINE
5
8F
100
AcDbEntity
8
1
62
256
6
ByLayer
370
18
48
1
60
0
100
AcDbLine
10
28.436901
20
-2.018887
30
0
11
29.015976
21
-2.019249
31
0
39
0
210
0
220
0
230
1
0
LINE
5
90
100
AcDbEntity
8
1
62
256
6
ByLayer
370
18
48
1
60
0
100
AcDbLine
10
29.015951
20
2.019249
30
0
11
28.436901
21
2.018887
31
0
39
0
210
0
220
0
230
1
0
LINE
5
91
100
AcDbEntity
8
1
62
256
6
ByLayer
370
18
48
1
60
0
100
AcDbLine
10
17.764513
20
2.012217
30
0
11
17.188246
21
2.011857
31
0
39
0
210
0
220
0
230
1
0
LINE
5
92
100
AcDbEntity
8
1
62
256
6
ByLayer
370
18
48
1
60
0
100
AcDbLine
10
8.049496
20
2.006145
30
0
11
1.482912
21
2.002041
31
0
39
0
210
0
220
0
230
1
0
LINE
5
93
100
AcDbEntity
8
81
62
256
6
ByLayer
370
18
48
1
60
0
100
AcDbLine
10
30
20
0
30
0
11
35
21
0
31
0
39
0
210
0
220
0
230
1
0
LINE
5
94
100
AcDbEntity
8
SK2
62
256
6
ByLayer
370
13
48
1
60
0
100
AcDbLine
10
-44.625163
20
32.117107
30
0
11
-44.625163
21
-11.75
31
0
39
0
210
0
220
0
230
1
0
LINE
5
96
100
AcDbEntity
8
SK2
62
256
6
ByLayer
370
13
48
1
60
0
100
AcDbLine
10
-37.5875
20
3
30
0
11
-46.625163
21
3
31
0
39
0
210
0
220
0
230
1
0
LINE
5
97
100
AcDbEntity
8
SK2
62
256
6
ByLayer
370
13
48
1
60
0
100
AcDbLine
10
-37.5875
20
-3
30
0
11
-46.625163
21
-3
31
0
39
0
210
0
220
0
230
1
0
LINE
5
98
100
AcDbEntity
8
1
62
256
6
ByLayer
370
18
48
1
60
1
100
AcDbLine
10
-44.625163
20
3
30
0
11
-45.085946
21
6.499998
31
0
39
0
210
0
220
0
230
1
0
LINE
5
99
100
AcDbEntity
8
1
62
256
6
ByLayer
370
18
48
1
60
1
100
AcDbLine
10
-45.085946
20
6.499998
30
0
11
-44.164379
21
6.500002
31
0
39
0
210
0
220
0
230
1
0
LINE
5
9A
100
AcDbEntity
8
1
62
256
6
ByLayer
370
18
48
1
60
1
100
AcDbLine
10
-44.164379
20
6.500002
30
0
11
-44.625163
21
3
31
0
39
0
210
0
220
0
230
1
0
LINE
5
9B
100
AcDbEntity
8
1
62
256
6
ByLayer
370
18
48
1
60
1
100
AcDbLine
10
-44.625163
20
-3
30
0
11
-44.164379
21
-6.499998
31
0
39
0
210
0
220
0
230
1
0
LINE
5
9C
100
AcDbEntity
8
1
62
256
6
ByLayer
370
18
48
1
60
1
100
AcDbLine
10
-44.164379
20
-6.499998
30
0
11
-45.085946
21
-6.500002
31
0
39
0
210
0
220
0
230
1
0
LINE
5
9D
100
AcDbEntity
8
1
62
256
6
ByLayer
370
18
48
1
60
1
100
AcDbLine
10
-45.085946
20
-6.500002
30
0
11
-44.625163
21
-3
31
0
39
0
210
0
220
0
230
1
0
LINE
5
9E
100
AcDbEntity
8
2
62
256
6
ByLayer
370
13
48
1
60
0
100
AcDbLine
10
42.083343
20
30.098227
30
0
11
42.083343
21
-10.7695
31
0
39
0
210
0
220
0
230
1
0
LINE
5
A0
100
AcDbEntity
8
2
62
256
6
ByLayer
370
13
48
1
60
0
100
AcDbLine
10
31.0017
20
2.0195
30
0
11
44.083343
21
2.0195
31
0
39
0
210
0
220
0
230
1
0
LINE
5
A1
100
AcDbEntity
8
2
62
256
6
ByLayer
370
13
48
1
60
0
100
AcDbLine
10
31.0017
20
-2.0195
30
0
11
44.083343
21
-2.0195
31
0
39
0
210
0
220
0
230
1
0
LINE
5
A2
100
AcDbEntity
8
1
62
256
6
ByLayer
370
18
48
1
60
1
100
AcDbLine
10
42.083343
20
2.0195
30
0
11
41.622559
21
5.519498
31
0
39
0
210
0
220
0
230
1
0
LINE
5
A3
100
AcDbEntity
8
1
62
256
6
ByLayer
370
18
48
1
60
1
100
AcDbLine
10
41.622559
20
5.519498
30
0
11
42.544126
21
5.519502
31
0
39
0
210
0
220
0
230
1
0
LINE
5
A4
100
AcDbEntity
8
1
62
256
6
ByLayer
370
18
48
1
60
1
100
AcDbLine
10
42.544126
20
5.519502
30
0
11
42.083343
21
2.0195
31
0
39
0
210
0
220
0
230
1
0
LINE
5
A5
100
AcDbEntity
8
1
62
256
6
ByLayer
370
18
48
1
60
1
100
AcDbLine
10
42.083343
20
-2.0195
30
0
11
42.544126
21
-5.519498
31
0
39
0
210
0
220
0
230
1
0
LINE
5
A6
100
AcDbEntity
8
1
62
256
6
ByLayer
370
18
48
1
60
1
100
AcDbLine
10
42.544126
20
-5.519498
30
0
11
41.622559
21
-5.519502
31
0
39
0
210
0
220
0
230
1
0
LINE
5
A7
100
AcDbEntity
8
1
62
256
6
ByLayer
370
18
48
1
60
1
100
AcDbLine
10
41.622559
20
-5.519502
30
0
11
42.083343
21
-2.0195
31
0
39
0
210
0
220
0
230
1
0
LINE
5
E8
100
AcDbEntity
8
1
62
256
6
ByLayer
370
18
48
1
60
1
100
AcDbLine
10
-44.625163
20
3
30
0
11
-45.085946
21
6.499998
31
0
39
0
210
0
220
0
230
1
0
LINE
5
E9
100
AcDbEntity
8
1
62
256
6
ByLayer
370
18
48
1
60
1
100
AcDbLine
10
-45.085946
20
6.499998
30
0
11
-44.164379
21
6.500002
31
0
39
0
210
0
220
0
230
1
0
LINE
5
EA
100
AcDbEntity
8
1
62
256
6
ByLayer
370
18
48
1
60
1
100
AcDbLine
10
-44.164379
20
6.500002
30
0
11
-44.625163
21
3
31
0
39
0
210
0
220
0
230
1
0
LINE
5
EC
100
AcDbEntity
8
1
62
256
6
ByLayer
370
18
48
1
60
1
100
AcDbLine
10
-44.625163
20
-3
30
0
11
-44.164379
21
-6.499998
31
0
39
0
210
0
220
0
230
1
0
LINE
5
ED
100
AcDbEntity
8
1
62
256
6
ByLayer
370
18
48
1
60
1
100
AcDbLine
10
-44.164379
20
-6.499998
30
0
11
-45.085946
21
-6.500002
31
0
39
0
210
0
220
0
230
1
0
LINE
5
EE
100
AcDbEntity
8
1
62
256
6
ByLayer
370
18
48
1
60
1
100
AcDbLine
10
-45.085946
20
-6.500002
30
0
11
-44.625163
21
-3
31
0
39
0
210
0
220
0
230
1
0
LINE
5
F2
100
AcDbEntity
8
1
62
256
6
ByLayer
370
18
48
1
60
1
100
AcDbLine
10
42.083343
20
2.0195
30
0
11
41.622559
21
5.519498
31
0
39
0
210
0
220
0
230
1
0
LINE
5
F3
100
AcDbEntity
8
1
62
256
6
ByLayer
370
18
48
1
60
1
100
AcDbLine
10
41.622559
20
5.519498
30
0
11
42.544126
21
5.519502
31
0
39
0
210
0
220
0
230
1
0
LINE
5
F4
100
AcDbEntity
8
1
62
256
6
ByLayer
370
18
48
1
60
1
100
AcDbLine
10
42.544126
20
5.519502
30
0
11
42.083343
21
2.0195
31
0
39
0
210
0
220
0
230
1
0
LINE
5
F6
100
AcDbEntity
8
1
62
256
6
ByLayer
370
18
48
1
60
1
100
AcDbLine
10
42.083343
20
-2.0195
30
0
11
42.544126
21
-5.519498
31
0
39
0
210
0
220
0
230
1
0
LINE
5
F7
100
AcDbEntity
8
1
62
256
6
ByLayer
370
18
48
1
60
1
100
AcDbLine
10
42.544126
20
-5.519498
30
0
11
41.622559
21
-5.519502
31
0
39
0
210
0
220
0
230
1
0
LINE
5
F8
100
AcDbEntity
8
1
62
256
6
ByLayer
370
18
48
1
60
1
100
AcDbLine
10
41.622559
20
-5.519502
30
0
11
42.083343
21
-2.0195
31
0
39
0
210
0
220
0
230
1
0
MTEXT
5
E2
100
AcDbEntity
8
SK6
62
256
6
ByLayer
370
13
48
1
60
0
100
AcDbMText
10
-32.513727
20
34.559828
30
0
210
0
220
0
230
1
1
\W0.7763;462.1-0404-012A0-XM X2BM
40
3.5
41
0
44
1.084337
50
0
71
7
72
5
7
iso_b_vert
0
MTEXT
5
E6
100
AcDbEntity
8
SK2
62
256
6
ByLayer
370
18
48
1
60
0
100
AcDbMText
10
-46.189796
20
16.409024
30
0
210
0
220
0
230
1
1
%%c
40
3.5
41
0
44
1.084337
50
90
71
7
72
5
7
iso_b_vert
0
MTEXT
5
E7
100
AcDbEntity
8
SK2
62
256
6
ByLayer
370
18
48
1
60
0
100
AcDbMText
10
-46.189796
20
21.63168
30
0
210
0
220
0
230
1
1
\W0.7317;6,000
40
3.5
41
0
44
1.084337
50
90
71
7
72
5
7
iso_b_vert
0
MTEXT
5
F0
100
AcDbEntity
8
2
62
256
6
ByLayer
370
18
48
1
60
0
100
AcDbMText
10
40.518709
20
14.02161
30
0
210
0
220
0
230
1
1
%%c
40
3.5
41
0
44
1.084337
50
90
71
7
72
5
7
iso_b_vert
0
MTEXT
5
F1
100
AcDbEntity
8
2
62
256
6
ByLayer
370
18
48
1
60
0
100
AcDbMText
10
40.518709
20
19.244266
30
0
210
0
220
0
230
1
1
\W0.7669;4,039
40
3.5
41
0
44
1.084337
50
90
71
7
72
5
7
iso_b_vert
0
HATCH
5
EB
100
AcDbEntity
8
SK2
62
256
6
ByLayer
370
13
48
1
60
0
100
AcDbHatch
10
0
20
0
30
0
210
0
220
0
230
1
2
ANSI31
70
0
71
0
91
1
92
5
93
3
72
1
10
-44.6251625675374
20
3
11
-45.0859463090902
21
6.49999830744682
72
1
10
-45.0859463090902
20
6.49999830744682
11
-44.1643788259847
21
6.50000169255318
72
1
10
-44.1643788259847
20
6.50000169255318
11
-44.6251625675374
21
3
97
0
75
0
76
1
52
0
41
0.0062
77
0
78
1
53
45
43
0
44
0
45
-0.0139193969876572
46
0.0139193969876572
79
0
47
0
98
1
10
0
20
0
0
HATCH
5
EF
100
AcDbEntity
8
SK2
62
256
6
ByLayer
370
13
48
1
60
0
100
AcDbHatch
10
0
20
0
30
0
210
0
220
0
230
1
2
ANSI31
70
0
71
0
91
1
92
5
93
3
72
1
10
-44.6251625675374
20
-3
11
-44.1643788259847
21
-6.49999830744682
72
1
10
-44.1643788259847
20
-6.49999830744682
11
-45.0859463090902
21
-6.50000169255318
72
1
10
-45.0859463090902
20
-6.50000169255318
11
-44.6251625675374
21
-3
97
0
75
0
76
1
52
0
41
0.0062
77
0
78
1
53
45
43
0
44
0
45
-0.0139193969876572
46
0.0139193969876572
79
0
47
0
98
1
10
0
20
0
0
HATCH
5
F5
100
AcDbEntity
8
2
62
256
6
ByLayer
370
13
48
1
60
0
100
AcDbHatch
10
0
20
0
30
0
210
0
220
0
230
1
2
ANSI31
70
0
71
0
91
1
92
5
93
3
72
1
10
42.083342615295
20
2.01950000000002
11
41.6225588737423
21
5.51949830744684
72
1
10
41.6225588737423
20
5.51949830744684
11
42.5441263568478
21
5.51950169255321
72
1
10
42.5441263568478
20
5.51950169255321
11
42.083342615295
21
2.01950000000002
97
0
75
0
76
1
52
0
41
0.0062
77
0
78
1
53
45
43
0
44
0
45
-0.0139193969876572
46
0.0139193969876572
79
0
47
0
98
1
10
0
20
0
0
HATCH
5
F9
100
AcDbEntity
8
2
62
256
6
ByLayer
370
13
48
1
60
0
100
AcDbHatch
10
0
20
0
30
0
210
0
220
0
230
1
2
ANSI31
70
0
71
0
91
1
92
5
93
3
72
1
10
42.083342615295
20
-2.01949999999999
11
42.5441263568478
21
-5.51949830744681
72
1
10
42.5441263568478
20
-5.51949830744681
11
41.6225588737423
21
-5.51950169255318
72
1
10
41.6225588737423
20
-5.51950169255318
11
42.083342615295
21
-2.01949999999999
97
0
75
0
76
1
52
0
41
0.0062
77
0
78
1
53
45
43
0
44
0
45
-0.0139193969876572
46
0.0139193969876572
79
0
47
0
98
1
10
0
20
0
0
DIMENSION
5
FB
100
AcDbEntity
8
SK2
62
256
6
ByLayer
370
13
48
1
60
0
100
AcDbDimension
2
_U0
10
29.4142
20
-12.232898
30
0
11
14.7071
21
-12.232898
31
0
70
32
71
1
72
1
41
1
210
0
220
0
230
1
3
Standard
100
AcDbAlignedDimension
13
0
23
0
33
0
14
29.4142
24
-2.0195
34
0
50
0
100
AcDbRotatedDimension
1001
ACAD
1000
DSTYLE
1002
{
1070
   371
1070
    13
1070
   372
1070
    13
1070
   170
1070
     0
1070
   144
1040
1.0
1070
   277
1070
     2
1070
   278
1070
    44
1070
   146
1040
1.0
1070
   345
1005
16
1070
   347
1005
16
1070
   346
1005
16
1070
   344
1005
0
1070
   343
1005
0
1070
   172
1070
     1
1070
    76
1070
     0
1070
    75
1070
     0
1070
   282
1070
     0
1070
   281
1070
     0
1070
    71
1070
     0
1070
    74
1070
     0
1070
   279
1070
     0
1070
   173
1070
     1
1070
   340
1005
E3
1070
   271
1070
     2
1070
   272
1070
     2
1070
    77
1070
     1
1070
    73
1070
     1
1070
   171
1070
     3
1070
   274
1070
     4
1070
   177
1070
    35
1070
   176
1070
    35
1070
   178
1070
    35
1070
    48
1040
-0.1
1070
    41
1040
3.5
1070
   147
1040
1.75
1070
    42
1040
1.5875
1070
    44
1040
2.0
1070
   140
1040
3.5
1002
}
1001
ACAD_DSTYLE_DIM_LINETYPE
1070
   380
1005
16
1001
ACAD_DSTYLE_DIM_EXT1_LINETYPE
1070
   381
1005
16
1001
ACAD_DSTYLE_DIM_EXT2_LINETYPE
1070
   382
1005
16
0
DIMENSION
5
114
100
AcDbEntity
8
SK2
62
256
6
ByLayer
370
13
48
1
60
0
100
AcDbDimension
2
_U1
10
30
20
-31.692985
30
0
11
-3
21
-31.692985
31
0
70
32
71
1
72
1
41
1
210
0
220
0
230
1
3
Standard
100
AcDbAlignedDimension
13
-36
23
-3
33
0
14
30
24
0
34
0
50
0
100
AcDbRotatedDimension
1001
ACAD
1000
DSTYLE
1002
{
1070
   371
1070
    13
1070
   372
1070
    13
1070
   170
1070
     0
1070
   144
1040
1.0
1070
   277
1070
     2
1070
   278
1070
    44
1070
   146
1040
1.0
1070
   345
1005
16
1070
   347
1005
16
1070
   346
1005
16
1070
   344
1005
0
1070
   343
1005
0
1070
   172
1070
     1
1070
    76
1070
     0
1070
    75
1070
     0
1070
   282
1070
     0
1070
   281
1070
     0
1070
    71
1070
     0
1070
    74
1070
     0
1070
   279
1070
     0
1070
   173
1070
     1
1070
   340
1005
E3
1070
   271
1070
     2
1070
   272
1070
     2
1070
    77
1070
     1
1070
    73
1070
     1
1070
   171
1070
     3
1070
   274
1070
     4
1070
   177
1070
    35
1070
   176
1070
    35
1070
   178
1070
    35
1070
    48
1040
-0.1
1070
    41
1040
3.5
1070
   147
1040
1.75
1070
    42
1040
1.5875
1070
    44
1040
2.0
1070
   140
1040
3.5
1002
}
1001
ACAD_DSTYLE_DIM_LINETYPE
1070
   380
1005
16
1001
ACAD_DSTYLE_DIM_EXT1_LINETYPE
1070
   381
1005
16
1001
ACAD_DSTYLE_DIM_EXT2_LINETYPE
1070
   382
1005
16
0
DIMENSION
5
12C
100
AcDbEntity
8
SK2
62
256
6
ByLayer
370
13
48
1
60
0
100
AcDbDimension
2
_U2
10
30
20
13.628619
30
0
11
23.645
21
13.628619
31
0
70
32
71
1
72
1
41
1
210
0
220
0
230
1
3
Standard
100
AcDbAlignedDimension
13
17.29
23
2.0195
33
0
14
30
24
0
34
0
50
0
100
AcDbRotatedDimension
1001
ACAD
1000
DSTYLE
1002
{
1070
   371
1070
    13
1070
   372
1070
    13
1070
   170
1070
     0
1070
   144
1040
1.0
1070
   277
1070
     2
1070
   278
1070
    44
1070
   146
1040
1.0
1070
   345
1005
16
1070
   347
1005
16
1070
   346
1005
16
1070
   344
1005
0
1070
   343
1005
0
1070
   172
1070
     1
1070
    76
1070
     0
1070
    75
1070
     0
1070
   282
1070
     0
1070
   281
1070
     0
1070
    71
1070
     0
1070
    74
1070
     0
1070
   279
1070
     0
1070
   173
1070
     1
1070
   340
1005
E3
1070
   271
1070
     2
1070
   272
1070
     2
1070
    77
1070
     1
1070
    73
1070
     1
1070
   171
1070
     3
1070
   274
1070
     4
1070
   177
1070
    35
1070
   176
1070
    35
1070
   178
1070
    35
1070
    48
1040
-0.1
1070
    41
1040
3.5
1070
   147
1040
1.75
1070
    42
1040
1.5875
1070
    44
1040
2.0
1070
   140
1040
3.5
1002
}
1001
ACAD_DSTYLE_DIM_LINETYPE
1070
   380
1005
16
1001
ACAD_DSTYLE_DIM_EXT1_LINETYPE
1070
   381
1005
16
1001
ACAD_DSTYLE_DIM_EXT2_LINETYPE
1070
   382
1005
16
0
DIMENSION
5
145
100
AcDbEntity
8
SK2
62
256
6
ByLayer
370
13
48
1
60
0
100
AcDbDimension
2
_U3
10
29.4142
20
-14.822003
30
0
11
47.5
21
-14.822003
31
0
70
32
71
1
72
1
41
1
210
0
220
0
230
1
3
Standard
100
AcDbAlignedDimension
13
30
23
0
33
0
14
29.4142
24
-2.0195
34
0
50
0
100
AcDbRotatedDimension
1001
ACAD
1000
DSTYLE
1002
{
1070
   371
1070
    13
1070
   372
1070
    13
1070
   170
1070
     0
1070
   144
1040
1.0
1070
   277
1070
     2
1070
   278
1070
    44
1070
   146
1040
1.0
1070
   345
1005
16
1070
   347
1005
16
1070
   346
1005
16
1070
   344
1005
0
1070
   343
1005
0
1070
   172
1070
     1
1070
    76
1070
     0
1070
    75
1070
     0
1070
   282
1070
     0
1070
   281
1070
     0
1070
    71
1070
     0
1070
    74
1070
     0
1070
   279
1070
     0
1070
   173
1070
     1
1070
   340
1005
E3
1070
   271
1070
     2
1070
   272
1070
     2
1070
    77
1070
     1
1070
    73
1070
     1
1070
   171
1070
     3
1070
   274
1070
     4
1070
   177
1070
    35
1070
   176
1070
    35
1070
   178
1070
    35
1070
    48
1040
-0.1
1070
    41
1040
3.5
1070
   147
1040
1.75
1070
    42
1040
1.5875
1070
    44
1040
2.0
1070
   140
1040
3.5
1002
}
1001
ACAD_DSTYLE_DIM_LINETYPE
1070
   380
1005
16
1001
ACAD_DSTYLE_DIM_EXT1_LINETYPE
1070
   381
1005
16
1001
ACAD_DSTYLE_DIM_EXT2_LINETYPE
1070
   382
1005
16
0
DIMENSION
5
15F
100
AcDbEntity
8
SK2
62
256
6
ByLayer
370
13
48
1
60
0
100
AcDbDimension
2
_U4
10
29.4142
20
-21.343428
30
0
11
-3.2929
21
-21.343428
31
0
70
32
71
1
72
1
41
1
210
0
220
0
230
1
3
Standard
100
AcDbAlignedDimension
13
-36
23
-3
33
0
14
29.4142
24
-2.0195
34
0
50
0
100
AcDbRotatedDimension
1001
ACAD
1000
DSTYLE
1002
{
1070
   371
1070
    13
1070
   372
1070
    13
1070
   170
1070
     0
1070
   144
1040
1.0
1070
   277
1070
     2
1070
   278
1070
    44
1070
   146
1040
1.0
1070
   345
1005
16
1070
   347
1005
16
1070
   346
1005
16
1070
   344
1005
0
1070
   343
1005
0
1070
   172
1070
     1
1070
    76
1070
     0
1070
    75
1070
     0
1070
   282
1070
     0
1070
   281
1070
     0
1070
    71
1070
     0
1070
    74
1070
     0
1070
   279
1070
     0
1070
   173
1070
     1
1070
   340
1005
E3
1070
   271
1070
     2
1070
   272
1070
     2
1070
    77
1070
     1
1070
    73
1070
     1
1070
   171
1070
     3
1070
   274
1070
     4
1070
   177
1070
    35
1070
   176
1070
    35
1070
   178
1070
    35
1070
    48
1040
-0.1
1070
    41
1040
3.5
1070
   147
1040
1.75
1070
    42
1040
1.5875
1070
    44
1040
2.0
1070
   140
1040
3.5
1002
}
1001
ACAD_DSTYLE_DIM_LINETYPE
1070
   380
1005
16
1001
ACAD_DSTYLE_DIM_EXT1_LINETYPE
1070
   381
1005
16
1001
ACAD_DSTYLE_DIM_EXT2_LINETYPE
1070
   382
1005
16
0
ENDSEC
0
SECTION
2
OBJECTS
0
DICTIONARY
5
1e7
330
0
100
AcDbDictionary
280
0
281
1
3
ACAD_GROUP
350
1e8
3
ACAD_MLINESTYLE
350
1e9
0
DICTIONARY
5
1e8
330
0
100
AcDbDictionary
280
0
281
1
0
DICTIONARY
5
1e9
330
0
100
AcDbDictionary
280
0
281
1
3
Standard
350
18
0
MLINESTYLE
5
18
330
1e9
100
AcDbMlineStyle
2
Standard
70
0
3

62
256
51
90
52
90
71
2
49
-0.5
62
256
6
ByLayer
49
0.5
62
256
6
ByLayer
0
RASTERVARIABLES
5
1d5
330

100
AcDbRasterVariables
90
0
70
1
71
1
72
1
0
ENDSEC
0
EOF
