0
SECTION
2
HEADER
9
$ACADVER
1
AC1015
9
$DWGCODEPAGE
3
ANSI_1252
9
$HANDSEED
5
1f6
9
$ANGBASE
50
0
9
$ANGDIR
70
0
9
$ATTMODE
70
1
9
$AUNITS
70
0
9
$AUPREC
70
0
9
$CECOLOR
62
256
9
$CELTSCALE
40
1
9
$CELTYPE
6
ByLayer
9
$CELWEIGHT
370
18
9
$CLAYER
8
0
9
$CMLJUST
70
0
9
$CMLSCALE
40
1
9
$CMLSTYLE
2
Standard
9
$DIMSTYLE
2
Standard
9
$TEXTSIZE
40
0.2
9
$TEXTSTYLE
7
Standard
9
$LUNITS
70
2
9
$LUPREC
70
4
9
$EXTNAMES
290
1
9
$INSUNITS
70
4
9
$LTSCALE
40
1
9
$LWDISPLAY
290
1
9
$PDMODE
70
0
9
$PDSIZE
40
0
9
$PLINEGEN
70
0
0
ENDSEC
0
SECTION
2
CLASSES
0
CLASS
1
RASTERVARIABLES
2
AcDbRasterVariables
3
ISM
90
0
280
0
281
0
0
ENDSEC
0
SECTION
2
TABLES
0
TABLE
2
VPORT
5
1ec
100
AcDbSymbolTable
0
VPORT
5
1
100
AcDbSymbolTableRecord
100
AcDbViewportTableRecord
2
*Active
70
0
10
0
20
0
11
1
21
1
12
-1
22
1
13
0
23
0
14
0.5
24
0.5
15
10
25
10
16
0
26
0
36
1
17
0
27
0
37
0
0
ENDTAB
0
TABLE
2
LTYPE
5
1ed
100
AcDbSymbolTable
0
LTYPE
5
14
100
AcDbSymbolTableRecord
100
AcDbLinetypeTableRecord
70
0
2
ByBlock
3

72
65
73
0
40
0
0
LTYPE
5
15
100
AcDbSymbolTableRecord
100
AcDbLinetypeTableRecord
70
0
2
ByLayer
3

72
65
73
0
40
0
0
LTYPE
5
16
100
AcDbSymbolTableRecord
100
AcDbLinetypeTableRecord
70
0
2
Continuous
3
Solid line
72
65
73
0
40
0
0
LTYPE
5
6E
100
AcDbSymbolTableRecord
100
AcDbLinetypeTableRecord
70
0
2
CENTER
3
____ _ ____ _ ____ _ ____
72
65
73
4
40
47.5
49
22
74
0
49
-8.5
74
0
49
8.5
74
0
49
-8.5
74
0
0
LTYPE
5
6F
100
AcDbSymbolTableRecord
100
AcDbLinetypeTableRecord
70
0
2
DASHED
3
__ __ __ __ __ __ __ __ __
72
65
73
2
40
25.72
49
12.86
74
0
49
-12.86
74
0
0
ENDTAB
0
TABLE
2
LAYER
5
1ee
100
AcDbSymbolTable
0
LAYER
5
10
100
AcDbSymbolTableRecord
100
AcDbLayerTableRecord
2
0
70
0
62
7
6
Continuous
290
1
370
-3
390
0
0
LAYER
5
71
100
AcDbSymbolTableRecord
100
AcDbLayerTableRecord
2
80
70
0
62
-6
6
Continuous
290
1
370
-3
390
0
0
LAYER
5
73
100
AcDbSymbolTableRecord
100
AcDbLayerTableRecord
2
81
70
0
62
-3
6
Continuous
290
1
370
-3
390
0
0
LAYER
5
75
100
AcDbSymbolTableRecord
100
AcDbLayerTableRecord
2
1
70
0
62
4
6
Continuous
290
1
370
-3
390
0
0
LAYER
5
87
100
AcDbSymbolTableRecord
100
AcDbLayerTableRecord
2
4
70
0
62
-2
6
CENTER
290
1
370
-3
390
0
0
LAYER
5
A2
100
AcDbSymbolTableRecord
100
AcDbLayerTableRecord
2
2
70
0
62
7
6
Continuous
290
1
370
-3
390
0
0
LAYER
5
101
100
AcDbSymbolTableRecord
100
AcDbLayerTableRecord
2
Defpoints
70
0
62
7
6
Continuous
290
0
370
-3
390
0
0
LAYER
5
1d8
100
AcDbSymbolTableRecord
100
AcDbLayerTableRecord
2
SK1
70
0
62
4
6
Continuous
290
1
370
-3
390
0
0
LAYER
5
1d9
100
AcDbSymbolTableRecord
100
AcDbLayerTableRecord
2
SK4
70
0
62
2
6
CENTER
290
1
370
-3
390
0
0
LAYER
5
1da
100
AcDbSymbolTableRecord
100
AcDbLayerTableRecord
2
SK2
70
0
62
7
6
Continuous
290
1
370
-3
390
0
0
LAYER
5
1db
100
AcDbSymbolTableRecord
100
AcDbLayerTableRecord
2
SK6
70
0
62
5
6
Continuous
290
1
370
-3
390
0
0
ENDTAB
0
TABLE
2
STYLE
5
1ef
100
AcDbSymbolTable
0
STYLE
5
11
100
AcDbSymbolTableRecord
100
AcDbTextStyleTableRecord
2
Standard
3
txt
70
0
71
0
40
0
41
1
42
0
50
0
0
STYLE
5
E6
100
AcDbSymbolTableRecord
100
AcDbTextStyleTableRecord
2
iso_b_vert
3
simplex.shx
70
0
71
0
40
0
41
1
42
0
50
0
0
STYLE
5
E7
100
AcDbSymbolTableRecord
100
AcDbTextStyleTableRecord
2
DWGDirectTextStyle
3
simplex
70
0
71
0
40
0
41
1
42
0
50
0
0
ENDTAB
0
TABLE
2
DIMSTYLE
5
1f0
100
AcDbSymbolTable
100
AcDbDimStyleTable
0
DIMSTYLE
105
27
100
AcDbSymbolTableRecord
100
AcDbDimStyleTableRecord
2
Standard
70
0
3
<>
41
0.18
42
0.0625
44
0.18
140
0.18
147
0.09
73
0
74
0
77
1
271
2
275
0
278
52
280
0
340
11
0
ENDTAB
0
TABLE
2
VIEW
5
1f1
100
AcDbSymbolTable
0
ENDTAB
0
TABLE
2
UCS
5
1f2
100
AcDbSymbolTable
0
ENDTAB
0
TABLE
2
APPID
5
1f3
100
AcDbSymbolTable
0
APPID
5
12
100
AcDbSymbolTableRecord
100
AcDbRegAppTableRecord
2
ACAD
70
0
0
APPID
5
FD
100
AcDbSymbolTableRecord
100
AcDbRegAppTableRecord
2
ACAD_DSTYLE_DIMBREAK
70
0
0
APPID
5
197
100
AcDbSymbolTableRecord
100
AcDbRegAppTableRecord
2
ACAD_DSTYLE_DIM_LINETYPE
70
0
0
APPID
5
198
100
AcDbSymbolTableRecord
100
AcDbRegAppTableRecord
2
ACAD_DSTYLE_DIM_EXT1_LINETYPE
70
0
0
APPID
5
199
100
AcDbSymbolTableRecord
100
AcDbRegAppTableRecord
2
ACAD_DSTYLE_DIM_EXT2_LINETYPE
70
0
0
APPID
5
1D4
100
AcDbSymbolTableRecord
100
AcDbRegAppTableRecord
2
ACAD_MLEADERVER
70
0
0
ENDTAB
0
TABLE
2
BLOCK_RECORD
5
1f4
100
AcDbSymbolTable
0
BLOCK_RECORD
5
1F
100
AcDbSymbolTableRecord
100
AcDbBlockTableRecord
2
*Model_Space
340
0
70
0
0
BLOCK_RECORD
5
1B
100
AcDbSymbolTableRecord
100
AcDbBlockTableRecord
2
*Paper_Space
340
0
70
0
0
BLOCK_RECORD
5
23
100
AcDbSymbolTableRecord
100
AcDbBlockTableRecord
2
*Paper_Space0
340
0
70
0
0
BLOCK_RECORD
5
102
100
AcDbSymbolTableRecord
100
AcDbBlockTableRecord
2
*D1
340
0
70
0
0
BLOCK_RECORD
5
10E
100
AcDbSymbolTableRecord
100
AcDbBlockTableRecord
2
_U0
340
0
70
0
0
BLOCK_RECORD
5
11A
100
AcDbSymbolTableRecord
100
AcDbBlockTableRecord
2
*D3
340
0
70
0
0
BLOCK_RECORD
5
126
100
AcDbSymbolTableRecord
100
AcDbBlockTableRecord
2
_U1
340
0
70
0
0
BLOCK_RECORD
5
132
100
AcDbSymbolTableRecord
100
AcDbBlockTableRecord
2
*D5
340
0
70
0
0
BLOCK_RECORD
5
13E
100
AcDbSymbolTableRecord
100
AcDbBlockTableRecord
2
_U2
340
0
70
0
0
BLOCK_RECORD
5
14A
100
AcDbSymbolTableRecord
100
AcDbBlockTableRecord
2
*D7
340
0
70
0
0
BLOCK_RECORD
5
158
100
AcDbSymbolTableRecord
100
AcDbBlockTableRecord
2
_U3
340
0
70
0
0
BLOCK_RECORD
5
164
100
AcDbSymbolTableRecord
100
AcDbBlockTableRecord
2
*D9
340
0
70
0
0
BLOCK_RECORD
5
170
100
AcDbSymbolTableRecord
100
AcDbBlockTableRecord
2
_U4
340
0
70
0
0
ENDTAB
0
ENDSEC
0
SECTION
2
BLOCKS
0
BLOCK
5
20
100
AcDbEntity
8
0
100
AcDbBlockBegin
2
*Model_Space
70
0
10
0
20
0
30
0
3
*Model_Space
0
ENDBLK
5
21
100
AcDbEntity
8
0
100
AcDbBlockEnd
0
BLOCK
5
1C
100
AcDbEntity
8
0
100
AcDbBlockBegin
2
*Paper_Space
70
0
10
0
20
0
30
0
3
*Paper_Space
0
ENDBLK
5
1D
100
AcDbEntity
8
0
100
AcDbBlockEnd
0
BLOCK
5
24
100
AcDbEntity
8
0
100
AcDbBlockBegin
2
*Paper_Space0
70
0
10
0
20
0
30
0
3
*Paper_Space0
0
ENDBLK
5
25
100
AcDbEntity
8
0
100
AcDbBlockEnd
0
BLOCK
5
103
100
AcDbEntity
8
0
100
AcDbBlockBegin
2
*D1
70
1
10
0
20
0
30
0
3
*D1
0
LINE
5
105
100
AcDbEntity
8
0
62
256
6
ByLayer
370
-2
48
1
60
0
100
AcDbLine
10
0
20
-1.5875
30
0
11
0
21
-15.213398
31
0
39
0
210
0
220
0
230
1
0
LINE
5
106
100
AcDbEntity
8
0
62
256
6
ByLayer
370
-2
48
1
60
0
100
AcDbLine
10
29.1188
20
-4.5875
30
0
11
29.1188
21
-15.213398
31
0
39
0
210
0
220
0
230
1
0
LINE
5
107
100
AcDbEntity
8
0
62
256
6
ByLayer
370
-2
48
1
60
0
100
AcDbLine
10
3.5
20
-13.213398
30
0
11
25.6188
21
-13.213398
31
0
39
0
210
0
220
0
230
1
0
SOLID
5
108
100
AcDbEntity
8
0
62
256
6
ByLayer
370
-1
48
1
60
0
100
AcDbTrace
10
3.5
20
-12.630065
30
0
11
3.5
21
-13.796732
31
0
12
0
22
-13.213398
32
0
13
0
23
-13.213398
33
0
39
0
210
0
220
0
230
1
0
SOLID
5
109
100
AcDbEntity
8
0
62
256
6
ByLayer
370
-1
48
1
60
0
100
AcDbTrace
10
25.6188
20
-13.796732
30
0
11
25.6188
21
-12.630065
31
0
12
29.1188
22
-13.213398
32
0
13
29.1188
23
-13.213398
33
0
39
0
210
0
220
0
230
1
0
MTEXT
5
10A
100
AcDbEntity
8
0
62
256
6
ByLayer
370
18
48
1
60
0
100
AcDbMText
10
14.5594
20
-6.213398
30
0
210
0
220
0
230
1
1
\A1;29.12
40
3.5
41
0
44
1
50
0
71
5
72
5
7
iso_b_vert
0
POINT
5
10B
100
AcDbEntity
8
Defpoints
62
0
6
ByLayer
370
-1
48
1
60
0
100
AcDbPoint
10
0
20
0
30
0
39
0
210
0
220
0
230
1
50
360
0
POINT
5
10C
100
AcDbEntity
8
Defpoints
62
0
6
ByLayer
370
-1
48
1
60
0
100
AcDbPoint
10
29.1188
20
-3
30
0
39
0
210
0
220
0
230
1
50
360
0
POINT
5
10D
100
AcDbEntity
8
Defpoints
62
0
6
ByLayer
370
-1
48
1
60
0
100
AcDbPoint
10
29.1188
20
-13.213398
30
0
39
0
210
0
220
0
230
1
50
360
0
ENDBLK
5
104
100
AcDbEntity
8
0
100
AcDbBlockEnd
0
BLOCK
5
115
100
AcDbEntity
8
0
100
AcDbBlockBegin
2
_U0
70
0
10
0
20
0
30
0
3
_U0
0
MTEXT
5
10F
100
AcDbEntity
8
SK2
62
256
6
ByLayer
370
13
48
1
60
0
100
AcDbMText
10
9.859535
20
-12.180765
30
0
210
0
220
0
230
1
1
\W0.6713;29,12
40
3.5
41
0
44
1.084337
50
0
71
7
72
5
7
iso_b_vert
0
LINE
5
110
100
AcDbEntity
8
SK2
62
256
6
ByLayer
370
13
48
1
60
0
100
AcDbLine
10
0
20
-1.5875
30
0
11
0
21
-15.213398
31
0
39
0
210
0
220
0
230
1
0
LINE
5
111
100
AcDbEntity
8
SK2
62
256
6
ByLayer
370
13
48
1
60
0
100
AcDbLine
10
29.1188
20
-4.5875
30
0
11
29.1188
21
-15.213398
31
0
39
0
210
0
220
0
230
1
0
LINE
5
112
100
AcDbEntity
8
SK2
62
256
6
ByLayer
370
13
48
1
60
0
100
AcDbLine
10
0
20
-13.213398
30
0
11
29.1188
21
-13.213398
31
0
39
0
210
0
220
0
230
1
0
SOLID
5
113
100
AcDbEntity
8
SK2
62
256
6
ByLayer
370
18
48
1
60
0
100
AcDbTrace
10
0
20
-13.213398
30
0
11
3.499998
21
-12.752615
31
0
12
3.500002
22
-13.674182
32
0
13
3.500002
23
-13.674182
33
0
39
0
210
0
220
0
230
1
0
SOLID
5
114
100
AcDbEntity
8
SK2
62
256
6
ByLayer
370
18
48
1
60
0
100
AcDbTrace
10
29.1188
20
-13.213398
30
0
11
25.618802
21
-13.674182
31
0
12
25.618798
22
-12.752615
32
0
13
25.618798
23
-12.752615
33
0
39
0
210
0
220
0
230
1
0
ENDBLK
5
116
100
AcDbEntity
8
0
100
AcDbBlockEnd
0
BLOCK
5
11B
100
AcDbEntity
8
0
100
AcDbBlockBegin
2
*D3
70
1
10
0
20
0
30
0
3
*D3
0
LINE
5
11D
100
AcDbEntity
8
0
62
256
6
ByLayer
370
-2
48
1
60
0
100
AcDbLine
10
-36
20
-4.5875
30
0
11
-36
21
-33.692985
31
0
39
0
210
0
220
0
230
1
0
LINE
5
11E
100
AcDbEntity
8
0
62
256
6
ByLayer
370
-2
48
1
60
0
100
AcDbLine
10
30
20
-1.5875
30
0
11
30
21
-33.692985
31
0
39
0
210
0
220
0
230
1
0
LINE
5
11F
100
AcDbEntity
8
0
62
256
6
ByLayer
370
-2
48
1
60
0
100
AcDbLine
10
-32.5
20
-31.692985
30
0
11
26.5
21
-31.692985
31
0
39
0
210
0
220
0
230
1
0
SOLID
5
120
100
AcDbEntity
8
0
62
256
6
ByLayer
370
-1
48
1
60
0
100
AcDbTrace
10
-32.5
20
-31.109652
30
0
11
-32.5
21
-32.276319
31
0
12
-36
22
-31.692985
32
0
13
-36
23
-31.692985
33
0
39
0
210
0
220
0
230
1
0
SOLID
5
121
100
AcDbEntity
8
0
62
256
6
ByLayer
370
-1
48
1
60
0
100
AcDbTrace
10
26.5
20
-32.276319
30
0
11
26.5
21
-31.109652
31
0
12
30
22
-31.692985
32
0
13
30
23
-31.692985
33
0
39
0
210
0
220
0
230
1
0
MTEXT
5
122
100
AcDbEntity
8
0
62
256
6
ByLayer
370
18
48
1
60
0
100
AcDbMText
10
-3
20
-24.692985
30
0
210
0
220
0
230
1
1
\A1;66.00
40
3.5
41
0
44
1
50
0
71
5
72
5
7
iso_b_vert
0
POINT
5
123
100
AcDbEntity
8
Defpoints
62
0
6
ByLayer
370
-1
48
1
60
0
100
AcDbPoint
10
-36
20
-3
30
0
39
0
210
0
220
0
230
1
50
360
0
POINT
5
124
100
AcDbEntity
8
Defpoints
62
0
6
ByLayer
370
-1
48
1
60
0
100
AcDbPoint
10
30
20
0
30
0
39
0
210
0
220
0
230
1
50
360
0
POINT
5
125
100
AcDbEntity
8
Defpoints
62
0
6
ByLayer
370
-1
48
1
60
0
100
AcDbPoint
10
30
20
-31.692985
30
0
39
0
210
0
220
0
230
1
50
360
0
ENDBLK
5
11C
100
AcDbEntity
8
0
100
AcDbBlockEnd
0
BLOCK
5
12D
100
AcDbEntity
8
0
100
AcDbBlockBegin
2
_U1
70
0
10
0
20
0
30
0
3
_U1
0
MTEXT
5
127
100
AcDbEntity
8
SK2
62
256
6
ByLayer
370
13
48
1
60
0
100
AcDbMText
10
-8.137299
20
-30.660352
30
0
210
0
220
0
230
1
1
\W0.7317;66,00
40
3.5
41
0
44
1.084337
50
0
71
7
72
5
7
iso_b_vert
0
LINE
5
128
100
AcDbEntity
8
SK2
62
256
6
ByLayer
370
13
48
1
60
0
100
AcDbLine
10
-36
20
-4.5875
30
0
11
-36
21
-33.692985
31
0
39
0
210
0
220
0
230
1
0
LINE
5
129
100
AcDbEntity
8
SK2
62
256
6
ByLayer
370
13
48
1
60
0
100
AcDbLine
10
30
20
-1.5875
30
0
11
30
21
-33.692985
31
0
39
0
210
0
220
0
230
1
0
LINE
5
12A
100
AcDbEntity
8
SK2
62
256
6
ByLayer
370
13
48
1
60
0
100
AcDbLine
10
-36
20
-31.692985
30
0
11
30
21
-31.692985
31
0
39
0
210
0
220
0
230
1
0
SOLID
5
12B
100
AcDbEntity
8
SK2
62
256
6
ByLayer
370
18
48
1
60
0
100
AcDbTrace
10
-36
20
-31.692985
30
0
11
-32.500002
21
-31.232202
31
0
12
-32.499998
22
-32.153769
32
0
13
-32.499998
23
-32.153769
33
0
39
0
210
0
220
0
230
1
0
SOLID
5
12C
100
AcDbEntity
8
SK2
62
256
6
ByLayer
370
18
48
1
60
0
100
AcDbTrace
10
30
20
-31.692985
30
0
11
26.500002
21
-32.153769
31
0
12
26.499998
22
-31.232202
32
0
13
26.499998
23
-31.232202
33
0
39
0
210
0
220
0
230
1
0
ENDBLK
5
12E
100
AcDbEntity
8
0
100
AcDbBlockEnd
0
BLOCK
5
133
100
AcDbEntity
8
0
100
AcDbBlockBegin
2
*D5
70
1
10
0
20
0
30
0
3
*D5
0
LINE
5
135
100
AcDbEntity
8
0
62
256
6
ByLayer
370
-2
48
1
60
0
100
AcDbLine
10
11.12
20
4.5875
30
0
11
11.12
21
16.609119
31
0
39
0
210
0
220
0
230
1
0
LINE
5
136
100
AcDbEntity
8
0
62
256
6
ByLayer
370
-2
48
1
60
0
100
AcDbLine
10
30
20
1.5875
30
0
11
30
21
16.609119
31
0
39
0
210
0
220
0
230
1
0
LINE
5
137
100
AcDbEntity
8
0
62
256
6
ByLayer
370
-2
48
1
60
0
100
AcDbLine
10
14.62
20
14.609119
30
0
11
26.5
21
14.609119
31
0
39
0
210
0
220
0
230
1
0
SOLID
5
138
100
AcDbEntity
8
0
62
256
6
ByLayer
370
-1
48
1
60
0
100
AcDbTrace
10
14.62
20
15.192453
30
0
11
14.62
21
14.025786
31
0
12
11.12
22
14.609119
32
0
13
11.12
23
14.609119
33
0
39
0
210
0
220
0
230
1
0
SOLID
5
139
100
AcDbEntity
8
0
62
256
6
ByLayer
370
-1
48
1
60
0
100
AcDbTrace
10
26.5
20
14.025786
30
0
11
26.5
21
15.192453
31
0
12
30
22
14.609119
32
0
13
30
23
14.609119
33
0
39
0
210
0
220
0
230
1
0
MTEXT
5
13A
100
AcDbEntity
8
0
62
256
6
ByLayer
370
18
48
1
60
0
100
AcDbMText
10
20.56
20
21.609119
30
0
210
0
220
0
230
1
1
\A1;18.88
40
3.5
41
0
44
1
50
0
71
5
72
5
7
iso_b_vert
0
POINT
5
13B
100
AcDbEntity
8
Defpoints
62
0
6
ByLayer
370
-1
48
1
60
0
100
AcDbPoint
10
11.12
20
3
30
0
39
0
210
0
220
0
230
1
50
360
0
POINT
5
13C
100
AcDbEntity
8
Defpoints
62
0
6
ByLayer
370
-1
48
1
60
0
100
AcDbPoint
10
30
20
0
30
0
39
0
210
0
220
0
230
1
50
360
0
POINT
5
13D
100
AcDbEntity
8
Defpoints
62
0
6
ByLayer
370
-1
48
1
60
0
100
AcDbPoint
10
30
20
14.609119
30
0
39
0
210
0
220
0
230
1
50
360
0
ENDBLK
5
134
100
AcDbEntity
8
0
100
AcDbBlockEnd
0
BLOCK
5
145
100
AcDbEntity
8
0
100
AcDbBlockBegin
2
_U2
70
0
10
0
20
0
30
0
3
_U2
0
MTEXT
5
13F
100
AcDbEntity
8
SK2
62
256
6
ByLayer
370
13
48
1
60
0
100
AcDbMText
10
15.860135
20
15.641753
30
0
210
0
220
0
230
1
1
\W0.6713;18,88
40
3.5
41
0
44
1.084337
50
0
71
7
72
5
7
iso_b_vert
0
LINE
5
140
100
AcDbEntity
8
SK2
62
256
6
ByLayer
370
13
48
1
60
0
100
AcDbLine
10
11.12
20
4.5875
30
0
11
11.12
21
16.609119
31
0
39
0
210
0
220
0
230
1
0
LINE
5
141
100
AcDbEntity
8
SK2
62
256
6
ByLayer
370
13
48
1
60
0
100
AcDbLine
10
30
20
1.5875
30
0
11
30
21
16.609119
31
0
39
0
210
0
220
0
230
1
0
LINE
5
142
100
AcDbEntity
8
SK2
62
256
6
ByLayer
370
13
48
1
60
0
100
AcDbLine
10
11.12
20
14.609119
30
0
11
30
21
14.609119
31
0
39
0
210
0
220
0
230
1
0
SOLID
5
143
100
AcDbEntity
8
SK2
62
256
6
ByLayer
370
18
48
1
60
0
100
AcDbTrace
10
11.12
20
14.609119
30
0
11
14.619998
21
15.069903
31
0
12
14.620002
22
14.148335
32
0
13
14.620002
23
14.148335
33
0
39
0
210
0
220
0
230
1
0
SOLID
5
144
100
AcDbEntity
8
SK2
62
256
6
ByLayer
370
18
48
1
60
0
100
AcDbTrace
10
30
20
14.609119
30
0
11
26.500002
21
14.148335
31
0
12
26.499998
22
15.069903
32
0
13
26.499998
23
15.069903
33
0
39
0
210
0
220
0
230
1
0
ENDBLK
5
146
100
AcDbEntity
8
0
100
AcDbBlockEnd
0
BLOCK
5
14B
100
AcDbEntity
8
0
100
AcDbBlockBegin
2
*D7
70
1
10
0
20
0
30
0
3
*D7
0
LINE
5
14D
100
AcDbEntity
8
0
62
256
6
ByLayer
370
-2
48
1
60
0
100
AcDbLine
10
30
20
-1.5875
30
0
11
30
21
-17.802503
31
0
39
0
210
0
220
0
230
1
0
LINE
5
14E
100
AcDbEntity
8
0
62
256
6
ByLayer
370
-2
48
1
60
0
100
AcDbLine
10
29.1188
20
-4.5875
30
0
11
29.1188
21
-17.802503
31
0
39
0
210
0
220
0
230
1
0
LINE
5
14F
100
AcDbEntity
8
0
62
256
6
ByLayer
370
-2
48
1
60
0
100
AcDbLine
10
30
20
-15.802503
30
0
11
58.166667
21
-15.802503
31
0
39
0
210
0
220
0
230
1
0
LINE
5
150
100
AcDbEntity
8
0
62
256
6
ByLayer
370
-2
48
1
60
0
100
AcDbLine
10
33.5
20
-15.802503
30
0
11
37
21
-15.802503
31
0
39
0
210
0
220
0
230
1
0
LINE
5
151
100
AcDbEntity
8
0
62
256
6
ByLayer
370
-2
48
1
60
0
100
AcDbLine
10
25.6188
20
-15.802503
30
0
11
22.1188
21
-15.802503
31
0
39
0
210
0
220
0
230
1
0
SOLID
5
152
100
AcDbEntity
8
0
62
256
6
ByLayer
370
-1
48
1
60
0
100
AcDbTrace
10
33.5
20
-15.21917
30
0
11
33.5
21
-16.385837
31
0
12
30
22
-15.802503
32
0
13
30
23
-15.802503
33
0
39
0
210
0
220
0
230
1
0
SOLID
5
153
100
AcDbEntity
8
0
62
256
6
ByLayer
370
-1
48
1
60
0
100
AcDbTrace
10
25.6188
20
-16.385837
30
0
11
25.6188
21
-15.21917
31
0
12
29.1188
22
-15.802503
32
0
13
29.1188
23
-15.802503
33
0
39
0
210
0
220
0
230
1
0
MTEXT
5
154
100
AcDbEntity
8
0
62
256
6
ByLayer
370
18
48
1
60
0
100
AcDbMText
10
47.583333
20
-8.802503
30
0
210
0
220
0
230
1
1
\A1;0.88
40
3.5
41
0
44
1
50
0
71
5
72
5
7
iso_b_vert
0
POINT
5
155
100
AcDbEntity
8
Defpoints
62
0
6
ByLayer
370
-1
48
1
60
0
100
AcDbPoint
10
30
20
0
30
0
39
0
210
0
220
0
230
1
50
360
0
POINT
5
156
100
AcDbEntity
8
Defpoints
62
0
6
ByLayer
370
-1
48
1
60
0
100
AcDbPoint
10
29.1188
20
-3
30
0
39
0
210
0
220
0
230
1
50
360
0
POINT
5
157
100
AcDbEntity
8
Defpoints
62
0
6
ByLayer
370
-1
48
1
60
0
100
AcDbPoint
10
29.1188
20
-15.802503
30
0
39
0
210
0
220
0
230
1
50
360
0
ENDBLK
5
14C
100
AcDbEntity
8
0
100
AcDbBlockEnd
0
BLOCK
5
15F
100
AcDbEntity
8
0
100
AcDbBlockBegin
2
_U3
70
0
10
0
20
0
30
0
3
_U3
0
MTEXT
5
159
100
AcDbEntity
8
SK2
62
256
6
ByLayer
370
13
48
1
60
0
100
AcDbMText
10
36.15186
20
-14.76987
30
0
210
0
220
0
230
1
1
\W0.7150;0,88
40
3.5
41
0
44
1.084337
50
0
71
7
72
5
7
iso_b_vert
0
LINE
5
15A
100
AcDbEntity
8
SK2
62
256
6
ByLayer
370
13
48
1
60
0
100
AcDbLine
10
30
20
-1.5875
30
0
11
30
21
-17.802503
31
0
39
0
210
0
220
0
230
1
0
LINE
5
15B
100
AcDbEntity
8
SK2
62
256
6
ByLayer
370
13
48
1
60
0
100
AcDbLine
10
29.1188
20
-4.5875
30
0
11
29.1188
21
-17.802503
31
0
39
0
210
0
220
0
230
1
0
LINE
5
15C
100
AcDbEntity
8
SK2
62
256
6
ByLayer
370
13
48
1
60
0
100
AcDbLine
10
20.3688
20
-15.802503
30
0
11
43.996491
21
-15.802503
31
0
39
0
210
0
220
0
230
1
0
SOLID
5
15D
100
AcDbEntity
8
SK2
62
256
6
ByLayer
370
18
48
1
60
0
100
AcDbTrace
10
30
20
-15.802503
30
0
11
33.499998
21
-15.341719
31
0
12
33.500002
22
-16.263287
32
0
13
33.500002
23
-16.263287
33
0
39
0
210
0
220
0
230
1
0
SOLID
5
15E
100
AcDbEntity
8
SK2
62
256
6
ByLayer
370
18
48
1
60
0
100
AcDbTrace
10
29.1188
20
-15.802503
30
0
11
25.618802
21
-16.263287
31
0
12
25.618798
22
-15.341719
32
0
13
25.618798
23
-15.341719
33
0
39
0
210
0
220
0
230
1
0
ENDBLK
5
160
100
AcDbEntity
8
0
100
AcDbBlockEnd
0
BLOCK
5
165
100
AcDbEntity
8
0
100
AcDbBlockBegin
2
*D9
70
1
10
0
20
0
30
0
3
*D9
0
LINE
5
167
100
AcDbEntity
8
0
62
256
6
ByLayer
370
-2
48
1
60
0
100
AcDbLine
10
-36
20
-4.5875
30
0
11
-36
21
-23.343428
31
0
39
0
210
0
220
0
230
1
0
LINE
5
168
100
AcDbEntity
8
0
62
256
6
ByLayer
370
-2
48
1
60
0
100
AcDbLine
10
29.1188
20
-4.5875
30
0
11
29.1188
21
-23.343428
31
0
39
0
210
0
220
0
230
1
0
LINE
5
169
100
AcDbEntity
8
0
62
256
6
ByLayer
370
-2
48
1
60
0
100
AcDbLine
10
-32.5
20
-21.343428
30
0
11
25.6188
21
-21.343428
31
0
39
0
210
0
220
0
230
1
0
SOLID
5
16A
100
AcDbEntity
8
0
62
256
6
ByLayer
370
-1
48
1
60
0
100
AcDbTrace
10
-32.5
20
-20.760095
30
0
11
-32.5
21
-21.926762
31
0
12
-36
22
-21.343428
32
0
13
-36
23
-21.343428
33
0
39
0
210
0
220
0
230
1
0
SOLID
5
16B
100
AcDbEntity
8
0
62
256
6
ByLayer
370
-1
48
1
60
0
100
AcDbTrace
10
25.6188
20
-21.926762
30
0
11
25.6188
21
-20.760095
31
0
12
29.1188
22
-21.343428
32
0
13
29.1188
23
-21.343428
33
0
39
0
210
0
220
0
230
1
0
MTEXT
5
16C
100
AcDbEntity
8
0
62
256
6
ByLayer
370
18
48
1
60
0
100
AcDbMText
10
-3.4406
20
-14.343428
30
0
210
0
220
0
230
1
1
\A1;65.12
40
3.5
41
0
44
1
50
0
71
5
72
5
7
iso_b_vert
0
POINT
5
16D
100
AcDbEntity
8
Defpoints
62
0
6
ByLayer
370
-1
48
1
60
0
100
AcDbPoint
10
-36
20
-3
30
0
39
0
210
0
220
0
230
1
50
360
0
POINT
5
16E
100
AcDbEntity
8
Defpoints
62
0
6
ByLayer
370
-1
48
1
60
0
100
AcDbPoint
10
29.1188
20
-3
30
0
39
0
210
0
220
0
230
1
50
360
0
POINT
5
16F
100
AcDbEntity
8
Defpoints
62
0
6
ByLayer
370
-1
48
1
60
0
100
AcDbPoint
10
29.1188
20
-21.343428
30
0
39
0
210
0
220
0
230
1
50
360
0
ENDBLK
5
166
100
AcDbEntity
8
0
100
AcDbBlockEnd
0
BLOCK
5
177
100
AcDbEntity
8
0
100
AcDbBlockBegin
2
_U4
70
0
10
0
20
0
30
0
3
_U4
0
MTEXT
5
171
100
AcDbEntity
8
SK2
62
256
6
ByLayer
370
13
48
1
60
0
100
AcDbMText
10
-8.140465
20
-20.310795
30
0
210
0
220
0
230
1
1
\W0.6713;65,12
40
3.5
41
0
44
1.084337
50
0
71
7
72
5
7
iso_b_vert
0
LINE
5
172
100
AcDbEntity
8
SK2
62
256
6
ByLayer
370
13
48
1
60
0
100
AcDbLine
10
-36
20
-4.5875
30
0
11
-36
21
-23.343428
31
0
39
0
210
0
220
0
230
1
0
LINE
5
173
100
AcDbEntity
8
SK2
62
256
6
ByLayer
370
13
48
1
60
0
100
AcDbLine
10
29.1188
20
-4.5875
30
0
11
29.1188
21
-23.343428
31
0
39
0
210
0
220
0
230
1
0
LINE
5
174
100
AcDbEntity
8
SK2
62
256
6
ByLayer
370
13
48
1
60
0
100
AcDbLine
10
-36
20
-21.343428
30
0
11
29.1188
21
-21.343428
31
0
39
0
210
0
220
0
230
1
0
SOLID
5
175
100
AcDbEntity
8
SK2
62
256
6
ByLayer
370
18
48
1
60
0
100
AcDbTrace
10
-36
20
-21.343428
30
0
11
-32.500002
21
-20.882645
31
0
12
-32.499998
22
-21.804212
32
0
13
-32.499998
23
-21.804212
33
0
39
0
210
0
220
0
230
1
0
SOLID
5
176
100
AcDbEntity
8
SK2
62
256
6
ByLayer
370
18
48
1
60
0
100
AcDbTrace
10
29.1188
20
-21.343428
30
0
11
25.618802
21
-21.804212
31
0
12
25.618798
22
-20.882645
32
0
13
25.618798
23
-20.882645
33
0
39
0
210
0
220
0
230
1
0
ENDBLK
5
178
100
AcDbEntity
8
0
100
AcDbBlockEnd
0
ENDSEC
0
SECTION
2
ENTITIES
0
ELLIPSE
5
AB
100
AcDbEntity
8
1
62
256
6
ByLayer
370
13
48
1
60
0
100
AcDbEllipse
10
4.250144
20
-0.032235
30
0
11
0.0490875061819955
21
0.0871229977493461
31
0
210
0
220
0
230
1
40
0.004596
41
1.56067381521523
42
3.10585602001907
0
ELLIPSE
5
AC
100
AcDbEntity
8
1
62
256
6
ByLayer
370
13
48
1
60
0
100
AcDbEllipse
10
4.176024
20
0.009004
30
0
11
-0.0483292783865444
21
-0.0875458785473989
31
0
210
0
220
0
230
1
40
0.443531
41
-1.32780945312157
42
-0.025851632968158
0
ELLIPSE
5
AD
100
AcDbEntity
8
1
62
256
6
ByLayer
370
18
48
1
60
0
100
AcDbEllipse
10
4.25
20
-3.08474
30
0
11
-0.25
21
3.06151588455594E-17
31
0
210
0
220
0
230
1
40
1
41
-1.565162370871
42
-0.435975655681771
0
ELLIPSE
5
AE
100
AcDbEntity
8
1
62
256
6
ByLayer
370
18
48
1
60
0
100
AcDbEllipse
10
4.25
20
3.08474
30
0
11
-0.25
21
3.06151588455594E-17
31
0
210
0
220
0
230
1
40
1
41
0.435402485952304
42
1.57892907345427
0
POINT
5
70
100
AcDbEntity
8
80
62
256
6
ByLayer
370
18
48
1
60
0
100
AcDbPoint
10
0
20
0
30
0
39
0
210
0
220
0
230
1
50
360
0
POINT
5
72
100
AcDbEntity
8
81
62
256
6
ByLayer
370
18
48
1
60
0
100
AcDbPoint
10
30
20
0
30
0
39
0
210
0
220
0
230
1
50
360
0
POINT
5
74
100
AcDbEntity
8
1
62
256
6
ByLayer
370
18
48
1
60
1
100
AcDbPoint
10
29.1188
20
-3
30
0
39
0
210
0
220
0
230
1
50
360
0
POINT
5
76
100
AcDbEntity
8
1
62
256
6
ByLayer
370
18
48
1
60
1
100
AcDbPoint
10
-36
20
-3
30
0
39
0
210
0
220
0
230
1
50
360
0
POINT
5
77
100
AcDbEntity
8
1
62
256
6
ByLayer
370
18
48
1
60
1
100
AcDbPoint
10
11.12
20
3
30
0
39
0
210
0
220
0
230
1
50
360
0
POINT
5
78
100
AcDbEntity
8
1
62
256
6
ByLayer
370
18
48
1
60
1
100
AcDbPoint
10
29.1188
20
-3
30
0
39
0
210
0
220
0
230
1
50
360
0
POINT
5
79
100
AcDbEntity
8
1
62
256
6
ByLayer
370
18
48
1
60
1
100
AcDbPoint
10
-36
20
-3
30
0
39
0
210
0
220
0
230
1
50
360
0
POINT
5
7A
100
AcDbEntity
8
1
62
256
6
ByLayer
370
18
48
1
60
1
100
AcDbPoint
10
29.1188
20
-3
30
0
39
0
210
0
220
0
230
1
50
360
0
SPLINE
5
AF
100
AcDbEntity
8
1
62
256
6
ByLayer
370
13
48
1
60
0
100
AcDbSpline
70
4
71
3
72
8
73
4
40
0
40
0
40
0
40
0
40
1
40
1
40
1
40
1
41
1
10
4.02098683460034
20
0.0765003997739768
30
0
41
1
10
4.04167262693491
20
0.048741159455659
30
0
41
1
10
4.07752245340299
20
0.0245916145582044
30
0
41
1
10
4.12670751127115
20
0.0087456574912039
30
0
0
SPLINE
5
B0
100
AcDbEntity
8
1
62
256
6
ByLayer
370
18
48
1
60
0
100
AcDbSpline
70
4
71
3
72
8
73
4
40
0
40
0
40
0
40
0
40
1
40
1
40
1
40
1
41
1
10
29.9999675823976
20
0.0321363915703046
30
0
41
1
10
30.0000108096887
20
0.0107102361184843
30
0
41
1
10
30.0000108020454
20
-0.0107140245856954
30
0
41
1
10
29.9999675823977
20
-0.0321363915471693
30
0
0
SPLINE
5
B1
100
AcDbEntity
8
1
62
256
6
ByLayer
370
18
48
1
60
0
100
AcDbSpline
70
4
71
3
72
12
73
8
40
0
40
0
40
0
40
0
40
0.5
40
0.5
40
0.75
40
0.75
40
1
40
1
40
1
40
1
41
1
10
29.1431916533784
20
-2.88105012087456
30
0
41
1
10
29.2686343627402
20
-2.5332178040006
30
0
41
1
10
29.3998526195014
20
-2.18657907368961
30
0
41
1
10
29.6030287944319
20
-1.66823233374538
30
0
41
1
10
29.6719058276752
20
-1.49568279796833
30
0
41
1
10
29.810997884468
20
-1.15189105557957
30
0
41
1
10
29.8812851627844
20
-0.980529206131905
30
0
41
1
10
29.9522324456311
20
-0.809605177259527
30
0
0
SPLINE
5
B2
100
AcDbEntity
8
1
62
256
6
ByLayer
370
18
48
1
60
0
100
AcDbSpline
70
4
71
3
72
60
73
56
40
0
40
0
40
0
40
0
40
0.0341274966988668
40
0.0341274966988668
40
0.0699005523766869
40
0.0699005523766869
40
0.105673608054507
40
0.105673608054507
40
0.141446663732327
40
0.141446663732327
40
0.177219719410147
40
0.177219719410147
40
0.212992775087967
40
0.212992775087967
40
0.248765830765787
40
0.248765830765787
40
0.284538886443607
40
0.284538886443607
40
0.320311942121427
40
0.320311942121427
40
0.356084997799247
40
0.356084997799247
40
0.427631109154887
40
0.427631109154887
40
0.463404164832707
40
0.463404164832707
40
0.499177220510526
40
0.499177220510526
40
0.534950276188346
40
0.534950276188346
40
0.570723331866166
40
0.570723331866166
40
0.606496387543985
40
0.606496387543985
40
0.642269443221805
40
0.642269443221805
40
0.678042498899624
40
0.678042498899624
40
0.713815554577444
40
0.713815554577444
40
0.749588610255263
40
0.749588610255263
40
0.785361665933083
40
0.785361665933083
40
0.821134721610902
40
0.821134721610902
40
0.856907777288722
40
0.856907777288722
40
0.892680832966541
40
0.892680832966541
40
0.928453888644361
40
0.928453888644361
40
0.96422694432218
40
0.96422694432218
40
1
40
1
40
1
40
1
41
1
10
23.8936600681944
20
-2.24070079032435
30
0
41
1
10
23.7116326167934
20
-2.30226247460541
30
0
41
1
10
23.5288083182552
20
-2.35962703440441
30
0
41
1
10
23.1562471103433
20
-2.46707834793511
30
0
41
1
10
22.9656107550002
20
-2.51583145731888
30
0
41
1
10
22.5842328436073
20
-2.60549400970049
30
0
41
1
10
22.3936810289555
20
-2.64629515451583
30
0
41
1
10
22.0121686276614
20
-2.71706097617147
30
0
41
1
10
21.8206762747753
20
-2.7469608143295
30
0
41
1
10
21.4396794274832
20
-2.79255190533982
30
0
41
1
10
21.24999488323
20
-2.80987468592494
30
0
41
1
10
20.8712922192421
20
-2.83465132573863
30
0
41
1
10
20.6821961196654
20
-2.84171739979038
30
0
41
1
10
20.3046126265035
20
-2.84453563462023
30
0
41
1
10
20.1160989736706
20
-2.83966993303659
30
0
41
1
10
19.7385059981727
20
-2.81756565111178
30
0
41
1
10
19.5495716146696
20
-2.8020625458683
30
0
41
1
10
19.1712418255722
20
-2.76021003510121
30
0
41
1
10
18.9820920139445
20
-2.73395557975388
30
0
41
1
10
18.6019860900721
20
-2.67012608929801
30
0
41
1
10
18.4107726336737
20
-2.63148546850962
30
0
41
1
10
17.8374500818673
20
-2.50084646807201
30
0
41
1
10
17.4561115694589
20
-2.39350371897487
30
0
41
1
10
16.8842820616425
20
-2.20583781242252
30
0
41
1
10
16.6931718191624
20
-2.13889997967718
30
0
41
1
10
16.3106019008406
20
-1.99550122585384
30
0
41
1
10
16.1202756332867
20
-1.91947585993853
30
0
41
1
10
15.7405663991853
20
-1.76106085158432
30
0
41
1
10
15.5511167360301
20
-1.67893611027037
30
0
41
1
10
15.1728713777899
20
-1.50857090743381
30
0
41
1
10
14.9843227625077
20
-1.41980669686265
30
0
41
1
10
14.6068280181942
20
-1.23752944092124
30
0
41
1
10
14.4179955754753
20
-1.14403529935723
30
0
41
1
10
14.0402420390199
20
-0.952467953819422
30
0
41
1
10
13.8512765311159
20
-0.854425698184826
30
0
41
1
10
13.4721529904906
20
-0.655181160591894
30
0
41
1
10
13.2819413335285
20
-0.554039573459505
30
0
41
1
10
12.9001533504795
20
-0.348013125066018
30
0
41
1
10
12.7086377648808
20
-0.243811100012692
30
0
41
1
10
12.3265393727309
20
-0.0359074659015732
30
0
41
1
10
12.1358349362994
20
0.0683728256038876
30
0
41
1
10
11.7544622256048
20
0.276287630024484
30
0
41
1
10
11.5636322313559
20
0.37962345892791
30
0
41
1
10
11.1813885856062
20
0.584651319759473
30
0
41
1
10
10.989775376135
20
0.68666060158472
30
0
41
1
10
10.608067712941
20
0.886438740483129
30
0
41
1
10
10.4175732137156
20
0.984343747177292
30
0
41
1
10
10.0375132238434
20
1.17627460522729
30
0
41
1
10
9.84796617907844
20
1.27025671308155
30
0
41
1
10
9.46878245276872
20
1.4517274829301
30
0
41
1
10
9.27908887303977
20
1.53902244120684
30
0
41
1
10
8.89946874255014
20
1.7080595036885
30
0
41
1
10
8.70982277516009
20
1.78999372769644
30
0
41
1
10
8.32897208916199
20
1.94568416019041
30
0
41
1
10
8.13796629585607
20
2.02003813169779
30
0
41
1
10
7.94647288489102
20
2.09074711425825
30
0
0
SPLINE
5
B3
100
AcDbEntity
8
1
62
256
6
ByLayer
370
18
48
1
60
0
100
AcDbSpline
70
4
71
3
72
16
73
12
40
0
40
0
40
0
40
0
40
0.250000000000005
40
0.250000000000005
40
0.375000000000006
40
0.375000000000006
40
0.500000000000006
40
0.500000000000006
40
0.750000000000003
40
0.750000000000003
40
1
40
1
40
1
40
1
41
1
10
7.94647288489119
20
2.09074711425819
30
0
41
1
10
7.62851713566121
20
2.20477506560997
30
0
41
1
10
7.31458181136065
20
2.31098491454796
30
0
41
1
10
6.84575565166506
20
2.45063797386874
30
0
41
1
10
6.68961626931235
20
2.49447370665445
30
0
41
1
10
6.37908943748658
20
2.57533575082712
30
0
41
1
10
6.22468610004574
20
2.61219423762256
30
0
41
1
10
5.76345296755764
20
2.71068181099045
30
0
41
1
10
5.45857067672139
20
2.75947007501864
30
0
41
1
10
4.85185922947068
20
2.82382778367833
30
0
41
1
10
4.55000208521076
20
2.83955206276505
30
0
41
1
10
4.25032417873211
20
2.83364247514498
30
0
0
SPLINE
5
B4
100
AcDbEntity
8
1
62
256
6
ByLayer
370
18
48
1
60
0
100
AcDbSpline
70
4
71
3
72
16
73
12
40
0
40
0
40
0
40
0
40
0.119137538853364
40
0.119137538853364
40
0.603926903534628
40
0.603926903534628
40
0.846321585875263
40
0.846321585875263
40
0.967518927045581
40
0.967518927045581
40
1
40
1
40
1
40
1
41
1
10
12.3605906339847
20
-2.83956326715995
30
0
41
1
10
12.2339571384685
20
-2.83940682096812
30
0
41
1
10
12.1075442646728
20
-2.83672488633872
30
0
41
1
10
11.4674926433168
20
-2.81046982871243
30
0
41
1
10
10.9562034998503
20
-2.74788894904029
30
0
41
1
10
10.1857850184021
20
-2.59547074812264
30
0
41
1
10
9.92832222197745
20
-2.53493762216897
30
0
41
1
10
9.54011536836191
20
-2.42991050372666
30
0
41
1
10
9.41012042648953
20
-2.39244559055359
30
0
41
1
10
9.24568129229888
20
-2.34224300430799
30
0
41
1
10
9.21095298338238
20
-2.33148125000702
30
0
41
1
10
9.17624972778967
20
-2.32057117075072
30
0
0
SPLINE
5
B5
100
AcDbEntity
8
1
62
256
6
ByLayer
370
13
48
1
60
0
100
AcDbSpline
70
4
71
3
72
14
73
10
40
0
40
0
40
0
40
0
40
0.0574928179097339
40
0.0574928179097339
40
0.371661878606489
40
0.371661878606489
40
0.685830939303245
40
0.685830939303245
40
1
40
1
40
1
40
1
41
1
10
9.17624972793544
20
-2.32057117079654
30
0
41
1
10
9.08146396340632
20
-2.29077223159973
30
0
41
1
10
8.986865099672
20
-2.25986677047908
30
0
41
1
10
8.37626719794645
20
-2.05328650521463
30
0
41
1
10
7.8643807284152
20
-1.8472629985192
30
0
41
1
10
6.83854377566499
20
-1.38792271750597
30
0
41
1
10
6.324768394611
20
-1.1340287119653
30
0
41
1
10
5.28559019778925
20
-0.594643647417456
30
0
41
1
10
4.76912865569031
20
-0.313539312486256
30
0
41
1
10
4.25024075863911
20
-0.0311270364406653
30
0
0
SPLINE
5
B6
100
AcDbEntity
8
1
62
256
6
ByLayer
370
18
48
1
60
0
100
AcDbSpline
70
4
71
3
72
43
73
39
40
0
40
0
40
0
40
0
40
0.0492775201047224
40
0.0492775201047224
40
0.118405122652035
40
0.118405122652035
40
0.187532725199349
40
0.187532725199349
40
0.325787930293975
40
0.325787930293975
40
0.394915532841288
40
0.394915532841288
40
0.464043135388601
40
0.464043135388601
40
0.533170737935914
40
0.533170737935914
40
0.56773453920957
40
0.572055014368777
40
0.572055014368777
40
0.576375489527984
40
0.576375489527984
40
0.585016439846398
40
0.585016439846398
40
0.589336915005605
40
0.589336915005605
40
0.593657390164813
40
0.593657390164813
40
0.602298340483227
40
0.602298340483227
40
0.67142594303054
40
0.67142594303054
40
0.740553545577853
40
0.740553545577853
40
0.878808750672479
40
0.878808750672479
40
0.947936353219792
40
0.947936353219792
40
1
40
1
40
1
40
1
41
1
10
7.94647288489119
20
2.37950849126531
30
0
41
1
10
7.94647288489119
20
2.31665965880075
30
0
41
1
10
7.94647288489119
20
2.25536776617727
30
0
41
1
10
7.94647288489119
20
2.1116817543099
30
0
41
1
10
7.94647288489122
20
2.03075699359351
30
0
41
1
10
7.94647288489122
20
1.87472788295688
30
0
41
1
10
7.94647288489119
20
1.79962461853293
30
0
41
1
10
7.94647288489119
20
1.58706513667619
30
0
41
1
10
7.94647288489119
20
1.46064336816741
30
0
41
1
10
7.94647288489119
20
1.29197338724811
30
0
41
1
10
7.94647288489119
20
1.23926746778307
30
0
41
1
10
7.94647288489119
20
1.14081291274636
30
0
41
1
10
7.94647288489119
20
1.0949526773733
30
0
41
1
10
7.94647288489119
20
1.01100122737904
30
0
41
1
10
7.94647288489119
20
0.972856521239834
30
0
41
1
10
7.94647288489119
20
0.921269942334931
30
0
41
1
10
7.94647288489119
20
0.902979720509592
30
0
41
1
10
7.94647288489119
20
0.885907477390646
30
0
41
1
10
7.94647288489119
20
0.882143268378741
30
0
41
1
10
7.94647288489119
20
0.880028300898402
30
0
41
1
10
7.94647288489119
20
0.876668492659803
30
0
41
1
10
7.94647288489364
20
0.877721543119037
30
0
41
1
10
7.94647288489364
20
0.884145179463331
30
0
41
1
10
7.94647288489119
20
0.887139870996009
30
0
41
1
10
7.94647288489119
20
0.892635735344101
30
0
41
1
10
7.94647288489122
20
0.895399476674271
30
0
41
1
10
7.94647288489122
20
0.903738264012759
30
0
41
1
10
7.94647288489116
20
0.909359811349759
30
0
41
1
10
7.94647288489116
20
0.960503524353271
30
0
41
1
10
7.94647288489119
20
1.00988473748006
30
0
41
1
10
7.94647288489119
20
1.1163764870096
30
0
41
1
10
7.94647288489119
20
1.17371716728135
30
0
41
1
10
7.94647288489119
20
1.35624599245665
30
0
41
1
10
7.94647288489119
20
1.4918722203382
30
0
41
1
10
7.94647288489119
20
1.71777019402768
30
0
41
1
10
7.94647288489119
20
1.79713548632287
30
0
41
1
10
7.94647288489119
20
1.94222105766318
30
0
41
1
10
7.94647288489119
20
2.0060835045376
30
0
41
1
10
7.94647288489119
20
2.07149184526969
30
0
0
SPLINE
5
B7
100
AcDbEntity
8
1
62
256
6
ByLayer
370
18
48
1
60
0
100
AcDbSpline
70
4
71
3
72
12
73
8
40
0
40
0
40
0
40
0
40
0.365999641278328
40
0.365999641278328
40
0.731999282556656
40
0.731999282556656
40
1
40
1
40
1
40
1
41
1
10
4.20107380797407
20
-0.119293832068706
30
0
41
1
10
4.72120084408675
20
-0.411988651276175
30
0
41
1
10
5.23866009012056
20
-0.701921920190046
30
0
41
1
10
6.28005859424133
20
-1.25557041323017
30
0
41
1
10
6.79452823091378
20
-1.51454257087841
30
0
41
1
10
7.68427324365294
20
-1.91775472131533
30
0
41
1
10
8.05981012698672
20
-2.07449404239324
30
0
41
1
10
8.43696616534888
20
-2.21443768862912
30
0
0
SPLINE
5
B8
100
AcDbEntity
8
1
62
256
6
ByLayer
370
13
48
1
60
0
100
AcDbSpline
70
4
71
3
72
20
73
16
40
0
40
0
40
0
40
0
40
0.0828580947376261
40
0.0828580947376261
40
0.160221250422572
40
0.160221250422572
40
0.237584406107519
40
0.237584406107519
40
0.392310717477412
40
0.392310717477412
40
0.701763340217197
40
0.701763340217197
40
0.85648965158709
40
0.85648965158709
40
1
40
1
40
1
40
1
41
1
10
8.43696604331748
20
-2.21443764334944
30
0
41
1
10
8.57487946794271
20
-2.26561038370451
30
0
41
1
10
8.71300939327821
20
-2.31453733787603
30
0
41
1
10
8.98073449585729
20
-2.4045115953563
30
0
41
1
10
9.11029078413515
20
-2.44587039296172
30
0
41
1
10
9.37021129147044
20
-2.52411330733099
30
0
41
1
10
9.50046422761062
20
-2.56095822379754
30
0
41
1
10
9.88938191362394
20
-2.66375102349664
30
0
41
1
10
10.1472663070867
20
-2.72229869125508
30
0
41
1
10
10.9188073189975
20
-2.86732183912929
30
0
41
1
10
11.4307037073224
20
-2.92292851891548
30
0
41
1
10
12.2026633800368
20
-2.94170466728801
30
0
41
1
10
12.4606584869043
20
-2.93723499142826
30
0
41
1
10
12.9604168423938
20
-2.90740255391458
30
0
41
1
10
13.2020055390976
20
-2.88364842228805
30
0
41
1
10
13.4428686211491
20
-2.85078985568021
30
0
0
SPLINE
5
B9
100
AcDbEntity
8
1
62
256
6
ByLayer
370
18
48
1
60
0
100
AcDbSpline
70
4
71
3
72
8
73
4
40
0
40
0
40
0
40
0
40
1
40
1
40
1
40
1
41
1
10
29.143191653382
20
2.88105012086314
30
0
41
1
10
29.0797520869916
20
2.93497077977926
30
0
41
1
10
29.0228203809791
20
2.97106132655014
30
0
41
1
10
28.9719782745055
20
2.98831659080545
30
0
0
SPLINE
5
BA
100
AcDbEntity
8
1
62
256
6
ByLayer
370
18
48
1
60
0
100
AcDbSpline
70
4
71
3
72
22
73
18
40
0
40
0
40
0
40
0
40
0.196232322727675
40
0.196232322727675
40
0.294348484091515
40
0.294348484091515
40
0.392464645455356
40
0.392464645455356
40
0.588696968183036
40
0.588696968183036
40
0.784929290910716
40
0.784929290910716
40
0.883045452274559
40
0.883045452274559
40
0.981161613638401
40
0.981161613638401
40
1
40
1
40
1
40
1
41
1
10
7.94647288489119
20
-2.37950849126531
30
0
41
1
10
8.16897776712133
20
-2.45758776353929
30
0
41
1
10
8.39094706927136
20
-2.52788412547878
30
0
41
1
10
8.72299367895184
20
-2.62248054785002
30
0
41
1
10
8.83348367151726
20
-2.65223754245133
30
0
41
1
10
9.05381549846817
20
-2.70838791255173
30
0
41
1
10
9.16372481311666
20
-2.73470895477467
30
0
41
1
10
9.49384753339797
20
-2.8076193477815
30
0
41
1
10
9.7140444121498
20
-2.84855129007823
30
0
41
1
10
10.1536718851731
20
-2.91558947044143
30
0
41
1
10
10.373599731095
20
-2.94136985329234
30
0
41
1
10
10.7048604768799
20
-2.96803712982259
30
0
41
1
10
10.8154460063717
20
-2.97495377792217
30
0
41
1
10
11.0367632207512
20
-2.98480612303823
30
0
41
1
10
11.1473894010883
20
-2.98773454525093
30
0
41
1
10
11.2797915041428
20
-2.98875876889144
30
0
41
1
10
11.3011326101713
20
-2.98884817742172
30
0
41
1
10
11.3224849012689
20
-2.98886211368003
30
0
0
SPLINE
5
BB
100
AcDbEntity
8
1
62
256
6
ByLayer
370
18
48
1
60
0
100
AcDbSpline
70
4
71
3
72
22
73
18
40
0
40
0
40
0
40
0
40
0.119108872855796
40
0.119108872855796
40
0.244950462447825
40
0.244950462447825
40
0.370792052039854
40
0.370792052039854
40
0.496633641631883
40
0.496633641631883
40
0.622475231223913
40
0.622475231223913
40
0.748316820815942
40
0.748316820815942
40
0.874158410407971
40
0.874158410407971
40
1
40
1
40
1
40
1
41
1
10
23.8825301161257
20
2.23658433760508
30
0
41
1
10
24.090603383342
20
2.31621888545232
30
0
41
1
10
24.298579933819
20
2.39060170034438
30
0
41
1
10
24.7265303332414
20
2.53209931598707
30
0
41
1
10
24.9470966405121
20
2.59798614330546
30
0
41
1
10
25.3898141944828
20
2.71595039868947
30
0
41
1
10
25.6120016519576
20
2.7685756611703
30
0
41
1
10
26.0569601684871
20
2.85733460273707
30
0
41
1
10
26.2784804281494
20
2.89376416679042
30
0
41
1
10
26.7194256240453
20
2.9510269423871
30
0
41
1
10
26.9394535203937
20
2.97158189972939
30
0
41
1
10
27.3793601391149
20
2.99674908156999
30
0
41
1
10
27.5984836370399
20
3.00140779912766
30
0
41
1
10
28.0380571876806
20
2.99457016494665
30
0
41
1
10
28.2584033814489
20
2.98321176529316
30
0
41
1
10
28.6994036832226
20
2.94417583090097
30
0
41
1
10
28.9206016020794
20
2.91656426945099
30
0
41
1
10
29.1431916533828
20
2.88105012086245
30
0
0
SPLINE
5
BC
100
AcDbEntity
8
1
62
256
6
ByLayer
370
13
48
1
60
0
100
AcDbSpline
70
4
71
3
72
8
73
4
40
0
40
0
40
0
40
0
40
1
40
1
40
1
40
1
41
1
10
4.06122043834583
20
-0.0252163803612291
30
0
41
1
10
4.07952519243634
20
-0.0459710966430009
30
0
41
1
10
4.10116699364835
20
-0.0637098070955915
30
0
41
1
10
4.12670751127115
20
-0.0779589426707901
30
0
0
SPLINE
5
BD
100
AcDbEntity
8
1
62
256
6
ByLayer
370
18
48
1
60
0
100
AcDbSpline
70
4
71
3
72
10
73
6
40
0
40
0
40
0
40
0
40
0.5
40
0.5
40
1
40
1
40
1
40
1
41
1
10
28.8456423992304
20
0.819833845624657
30
0
41
1
10
29.0303535807005
20
0.816395602813486
30
0
41
1
10
29.2150447132392
20
0.813081700741861
30
0
41
1
10
29.5840853996094
20
0.808572321181316
30
0
41
1
10
29.7682154120507
20
0.808738409470152
30
0
41
1
10
29.95223244563
20
0.809605177262085
30
0
0
SPLINE
5
BE
100
AcDbEntity
8
1
62
256
6
ByLayer
370
13
48
1
60
0
100
AcDbSpline
70
4
71
3
72
30
73
26
40
0
40
0
40
0
40
0
40
0.125
40
0.125
40
0.1875
40
0.1875
40
0.249999999999999
40
0.312499999999999
40
0.312499999999999
40
0.374999999999999
40
0.374999999999999
40
0.437499999999999
40
0.437499999999999
40
0.499999999999999
40
0.499999999999999
40
0.624999999999999
40
0.624999999999999
40
0.687499999999999
40
0.687499999999999
40
0.749999999999999
40
0.812499999999999
40
0.812499999999999
40
0.874999999999999
40
0.874999999999999
40
1
40
1
40
1
40
1
41
1
10
4.25024075863911
20
-0.0311270364406653
30
0
41
1
10
4.25024558610684
20
0.160439126008157
30
0
41
1
10
4.25024304545354
20
0.349890355973116
30
0
41
1
10
4.25023277500517
20
0.630932901193347
30
0
41
1
10
4.25022825368563
20
0.724207335597526
30
0
41
1
10
4.25021801643038
20
0.906122326623773
30
0
41
1
10
4.25020655871214
20
1.08432050203103
30
0
41
1
10
4.25019422190661
20
1.25521149178149
30
0
41
1
10
4.25018217320172
20
1.42240125440685
30
0
41
1
10
4.25017627091603
20
1.50446429632052
30
0
41
1
10
4.25016557028553
20
1.66305577950638
30
0
41
1
10
4.25016078202552
20
1.73942517235409
30
0
41
1
10
4.25015290893177
20
1.88632402364811
30
0
41
1
10
4.25014983115972
20
1.95691105447492
30
0
41
1
10
4.25014397105184
20
2.15643969493459
30
0
41
1
10
4.25014451635735
20
2.27454435454584
30
0
41
1
10
4.2501534089393
20
2.42942709455062
30
0
41
1
10
4.25015773833437
20
2.47751051989567
30
0
41
1
10
4.25016905134564
20
2.56484188964293
30
0
41
1
10
4.25018295661846
20
2.64318318400277
30
0
41
1
10
4.25020167633096
20
2.70379266631517
30
0
41
1
10
4.25022253676059
20
2.75538742485924
30
0
41
1
10
4.25023397575328
20
2.77647444361983
30
0
41
1
10
4.25027018313324
20
2.82523561881354
30
0
41
1
10
4.25029703187164
20
2.83893552784664
30
0
41
1
10
4.25032417825702
20
2.83364247514425
30
0
0
SPLINE
5
BF
100
AcDbEntity
8
1
62
256
6
ByLayer
370
18
48
1
60
0
100
AcDbSpline
70
4
71
3
72
30
73
26
40
0
40
0
40
0
40
0
40
0.064822952638747
40
0.064822952638747
40
0.129645905277494
40
0.129645905277494
40
0.259291810554988
40
0.259291810554988
40
0.324114763193735
40
0.324114763193735
40
0.388937715832482
40
0.388937715832482
40
0.518583621109976
40
0.518583621109976
40
0.648229526387469
40
0.648229526387469
40
0.713052479026216
40
0.713052479026216
40
0.777875431664963
40
0.777875431664963
40
0.907521336942457
40
0.907521336942457
40
0.972344289581204
40
0.972344289581204
40
1
40
1
40
1
40
1
41
1
10
4.02098683460076
20
0.0765003997755116
30
0
41
1
10
4.02098995283529
20
0.176775973427595
30
0
41
1
10
4.02099201782585
20
0.276745931329287
30
0
41
1
10
4.020994439167
20
0.476071746383496
30
0
41
1
10
4.02099478521009
20
0.574939683633033
30
0
41
1
10
4.02099393096054
20
0.865910367365302
30
0
41
1
10
4.02099086734455
20
1.05378628865668
30
0
41
1
10
4.02098515633912
20
1.32636853131317
30
0
41
1
10
4.02098305304429
20
1.41610129593155
30
0
41
1
10
4.02097897231616
20
1.58879068908482
30
0
41
1
10
4.02097698933693
20
1.67207900305954
30
0
41
1
10
4.02097176840147
20
1.9129745371435
30
0
41
1
10
4.02096927014156
20
2.06206922141897
30
0
41
1
10
4.02096873365784
20
2.3338906968572
30
0
41
1
10
4.0209707090265
20
2.45281159299285
30
0
41
1
10
4.02097773870133
20
2.60661720688464
30
0
41
1
10
4.02098075339467
20
2.65375854277482
30
0
41
1
10
4.02098817209958
20
2.73956003198589
30
0
41
1
10
4.02099257858322
20
2.77807964566199
30
0
41
1
10
4.02100746759101
20
2.87832222303959
30
0
41
1
10
4.02101972119851
20
2.92588916988956
30
0
41
1
10
4.02104037702043
20
2.96829276579621
30
0
41
1
10
4.0210476791938
20
2.97757106879206
30
0
41
1
10
4.02105823063127
20
2.98349801224831
30
0
41
1
10
4.02106140298841
20
2.98435240705433
30
0
41
1
10
4.02106457788869
20
2.98429848698422
30
0
0
SPLINE
5
C0
100
AcDbEntity
8
1
62
256
6
ByLayer
370
18
48
1
60
0
100
AcDbSpline
70
4
71
3
72
12
73
8
40
0
40
0
40
0
40
0
40
0.25
40
0.25
40
0.500000000000001
40
0.500000000000001
40
1
40
1
40
1
40
1
41
1
10
28.7559890744976
20
0.75697367112636
30
0
41
1
10
28.7559080442433
20
0.766898533831039
30
0
41
1
10
28.7585685393724
20
0.776828081144942
30
0
41
1
10
28.7692258915052
20
0.793967902523406
30
0
41
1
10
28.7772055494233
20
0.801151011772447
30
0
41
1
10
28.803969708422
20
0.816779282240617
30
0
41
1
10
28.8250308397081
20
0.820217512416406
30
0
41
1
10
28.8456423992304
20
0.819833845624856
30
0
0
SPLINE
5
C1
100
AcDbEntity
8
1
62
256
6
ByLayer
370
18
48
1
60
0
100
AcDbSpline
70
4
71
3
72
8
73
4
40
0
40
0
40
0
40
0
40
1
40
1
40
1
40
1
41
1
10
29.1431916533822
20
-2.88105012086299
30
0
41
1
10
29.0797520869917
20
-2.93497077977923
30
0
41
1
10
29.0228203809791
20
-2.97106132655014
30
0
41
1
10
28.9719782745056
20
-2.98831659080545
30
0
0
SPLINE
5
C2
100
AcDbEntity
8
1
62
256
6
ByLayer
370
18
48
1
60
0
100
AcDbSpline
70
4
71
3
72
30
73
26
40
0
40
0
40
0
40
0
40
0.250000000000007
40
0.250000000000007
40
0.375000000000006
40
0.375000000000006
40
0.500000000000005
40
0.500000000000005
40
0.625000000000004
40
0.625000000000004
40
0.750000000000004
40
0.750000000000004
40
0.812500000000003
40
0.812500000000003
40
0.843749999999999
40
0.843749999999999
40
0.851562499999998
40
0.851562499999998
40
0.859374999999997
40
0.859374999999997
40
0.867187499999996
40
0.867187499999996
40
0.874999999999995
40
0.874999999999995
40
1
40
1
40
1
40
1
41
1
10
26.1910664506545
20
1.27702633911491
30
0
41
1
10
26.4058115646068
20
1.06812229271969
30
0
41
1
10
26.634000940574
20
0.884089215642263
30
0
41
1
10
26.9981110003885
20
0.648416206257906
30
0
41
1
10
27.1209492899868
20
0.578035987943281
30
0
41
1
10
27.3684296336812
20
0.454252548245052
30
0
41
1
10
27.493251860672
20
0.400709520860204
30
0
41
1
10
27.7454797355083
20
0.313556078905549
30
0
41
1
10
27.8727926100031
20
0.279229863316488
30
0
41
1
10
28.1302508909532
20
0.23243208379165
30
0
41
1
10
28.2582280824923
20
0.220402095687746
30
0
41
1
10
28.446758460619
20
0.223396081288087
30
0
41
1
10
28.5092633608938
20
0.227911888928446
30
0
41
1
10
28.6016501985025
20
0.240473713581082
30
0
41
1
10
28.6322074998783
20
0.245621462621585
30
0
41
1
10
28.6700382265314
20
0.253295890191367
30
0
41
1
10
28.677639508426
20
0.254721637713573
30
0
41
1
10
28.6926278789568
20
0.258258327837353
30
0
41
1
10
28.6998092183179
20
0.260987850661337
30
0
41
1
10
28.7119874040617
20
0.270548380502873
30
0
41
1
10
28.7169305862494
20
0.277370473690127
30
0
41
1
10
28.7215562037929
20
0.294293931173201
30
0
41
1
10
28.7225940538619
20
0.303549488037987
30
0
41
1
10
28.7481590054305
20
0.455846781939158
30
0
41
1
10
28.7572226456282
20
0.605881659742067
30
0
41
1
10
28.7559890744976
20
0.75697367112636
30
0
0
SPLINE
5
C3
100
AcDbEntity
8
1
62
256
6
ByLayer
370
18
48
1
60
0
100
AcDbSpline
70
4
71
3
72
58
73
54
40
0
40
0
40
0
40
0
40
0.0312499999999943
40
0.0312499999999943
40
0.0624999999999886
40
0.0624999999999886
40
0.124999999999977
40
0.124999999999977
40
0.187499999999966
40
0.187499999999966
40
0.21874999999996
40
0.21874999999996
40
0.249999999999954
40
0.249999999999954
40
0.281249999999949
40
0.281249999999949
40
0.296874999999946
40
0.296874999999946
40
0.312499999999943
40
0.312499999999943
40
0.32812499999994
40
0.32812499999994
40
0.343749999999937
40
0.343749999999937
40
0.359374999999934
40
0.359374999999934
40
0.374999999999932
40
0.374999999999932
40
0.406249999999925
40
0.406249999999925
40
0.437499999999918
40
0.437499999999918
40
0.453124999999915
40
0.453124999999915
40
0.457031249999916
40
0.457031249999916
40
0.460937499999916
40
0.460937499999916
40
0.464843749999917
40
0.464843749999917
40
0.468749999999918
40
0.468749999999918
40
0.499999999999924
40
0.499999999999924
40
0.562499999999933
40
0.562499999999933
40
0.624999999999943
40
0.624999999999943
40
0.749999999999962
40
0.749999999999962
40
0.874999999999981
40
0.874999999999981
40
1
40
1
40
1
40
1
41
1
10
4.02107735718795
20
-2.97918310940079
30
0
41
1
10
3.93687706913653
20
-2.97585271203826
30
0
41
1
10
3.85285290137591
20
-2.97091344873951
30
0
41
1
10
3.68525809026434
20
-2.95753335062551
30
0
41
1
10
3.60150466398773
20
-2.94906704797421
30
0
41
1
10
3.35311212820773
20
-2.91807685942121
30
0
41
1
10
3.19096064092122
20
-2.8900753108168
30
0
41
1
10
2.8768359003858
20
-2.81559090306394
30
0
41
1
10
2.72468998776665
20
-2.76931969961021
30
0
41
1
10
2.50983176794998
20
-2.67921797259626
30
0
41
1
10
2.44047475466965
20
-2.6456910098014
30
0
41
1
10
2.30860584564027
20
-2.56884958983767
30
0
41
1
10
2.24617363393088
20
-2.525482377082
30
0
41
1
10
2.13696049705163
20
-2.42779707443927
30
0
41
1
10
2.08923703059548
20
-2.37249710913793
30
0
41
1
10
2.03811729430259
20
-2.28037968365629
30
0
41
1
10
2.02441784872022
20
-2.2481019358803
30
0
41
1
10
2.00535164249516
20
-2.17978564853769
30
0
41
1
10
2.00014974103141
20
-2.14386457826817
30
0
41
1
10
1.9998561931252
20
-2.07094153200694
30
0
41
1
10
2.0046907008753
20
-2.03347519496333
30
0
41
1
10
2.0248943005808
20
-1.95738937291225
30
0
41
1
10
2.03995176134706
20
-1.91983765543728
30
0
41
1
10
2.07894523926177
20
-1.84575993416448
30
0
41
1
10
2.1031604823481
20
-1.8089200992211
30
0
41
1
10
2.15793134072465
20
-1.73836304054899
30
0
41
1
10
2.1884526121473
20
-1.70452144119648
30
0
41
1
10
2.2875258502954
20
-1.60656614001067
30
0
41
1
10
2.36413155060057
20
-1.54572418995176
30
0
41
1
10
2.52518504397369
20
-1.43517669789841
30
0
41
1
10
2.61034713446983
20
-1.38479261284058
30
0
41
1
10
2.74291312362905
20
-1.314536564045
30
0
41
1
10
2.7879224546337
20
-1.29202079538444
30
0
41
1
10
2.84507547475755
20
-1.26487855021739
30
0
41
1
10
2.85655457835392
20
-1.25950220541861
30
0
41
1
10
2.87949475947059
20
-1.24872106011833
30
0
41
1
10
2.89158364002455
20
-1.24476871319027
30
0
41
1
10
2.91728169763547
20
-1.24042054283299
30
0
41
1
10
2.9303593504755
20
-1.23969053513287
30
0
41
1
10
2.95604664757929
20
-1.24041410667601
30
0
41
1
10
2.96882196508159
20
-1.24167298861928
30
0
41
1
10
3.08399895391531
20
-1.25038571501256
30
0
41
1
10
3.18631341257253
20
-1.25941421442531
30
0
41
1
10
3.49261636965571
20
-1.2901920983582
30
0
41
1
10
3.69601388056205
20
-1.31563695575687
30
0
41
1
10
4.1012548456672
20
-1.37563098798609
30
0
41
1
10
4.30327264877033
20
-1.41021388420953
30
0
41
1
10
4.90324927351793
20
-1.52536459314771
30
0
41
1
10
5.29633095948785
20
-1.61755661775231
30
0
41
1
10
6.07043215213253
20
-1.82082675298608
30
0
41
1
10
6.45146212238174
20
-1.93180922135204
30
0
41
1
10
7.2045756489743
20
-2.1572508172348
30
0
41
1
10
7.57667584045015
20
-2.27161773650866
30
0
41
1
10
7.94647288489119
20
-2.37950849126534
30
0
0
SPLINE
5
C4
100
AcDbEntity
8
1
62
256
6
ByLayer
370
18
48
1
60
0
100
AcDbSpline
70
4
71
3
72
16
73
12
40
0
40
0
40
0
40
0
40
0.284388934520041
40
0.284388934520041
40
0.568777869040083
40
0.568777869040083
40
0.853166803560124
40
0.853166803560124
40
0.995361270820145
40
0.995361270820145
40
1
40
1
40
1
40
1
41
1
10
28.7518243486243
20
-2.2399079719691
30
0
41
1
10
28.7513183214329
20
-2.34674870822184
30
0
41
1
10
28.7559192500932
20
-2.44016024496037
30
0
41
1
10
28.7756744698407
20
-2.60056703398172
30
0
41
1
10
28.7910867277329
20
-2.66778495436287
30
0
41
1
10
28.8322411244978
20
-2.77024234947027
30
0
41
1
10
28.857979794064
20
-2.80635939042546
30
0
41
1
10
28.9050180366129
20
-2.83820409004005
30
0
41
1
10
28.9221802350459
20
-2.84506931499143
30
0
41
1
10
28.9412118099571
20
-2.8481785182162
30
0
41
1
10
28.9418144257695
20
-2.84827269329631
30
0
41
1
10
28.9424184168413
20
-2.84836282031142
30
0
0
SPLINE
5
C5
100
AcDbEntity
8
1
62
256
6
ByLayer
370
18
48
1
60
0
100
AcDbSpline
70
4
71
3
72
8
73
4
40
0
40
0
40
0
40
0
40
1
40
1
40
1
40
1
41
1
10
29.95223244563
20
-0.809605177262512
30
0
41
1
10
29.9700302768542
20
-0.571264571646367
30
0
41
1
10
29.9826663284647
20
-0.333177945860626
30
0
41
1
10
29.9901299298144
20
-0.0953458249430241
30
0
0
SPLINE
5
C6
100
AcDbEntity
8
1
62
256
6
ByLayer
370
18
48
1
60
0
100
AcDbSpline
70
4
71
3
72
74
73
70
40
0
40
0
40
0
40
0
40
0.0335807022922525
40
0.0335807022922525
40
0.0503710534383788
40
0.0503710534383788
40
0.067161404584505
40
0.067161404584505
40
0.100742106876757
40
0.100742106876757
40
0.134322809169008
40
0.134322809169008
40
0.151113160315134
40
0.151113160315134
40
0.16790351146126
40
0.16790351146126
40
0.201484213753512
40
0.201484213753512
40
0.235064916045764
40
0.235064916045764
40
0.25185526719189
40
0.25185526719189
40
0.268645618338015
40
0.268645618338015
40
0.302226320630267
40
0.302226320630267
40
0.335807022922519
40
0.335807022922519
40
0.352597374068645
40
0.352597374068645
40
0.369387725214771
40
0.369387725214771
40
0.402968427507025
40
0.402968427507025
40
0.436549129799278
40
0.436549129799278
40
0.470129832091531
40
0.470129832091531
40
0.503710534383785
40
0.503710534383785
40
0.537291236676038
40
0.537291236676038
40
0.570871938968291
40
0.570871938968291
40
0.604452641260545
40
0.604452641260545
40
0.638033343552798
40
0.638033343552798
40
0.671614045845052
40
0.671614045845052
40
0.705194748137305
40
0.705194748137305
40
0.738775450429558
40
0.738775450429558
40
0.772356152721812
40
0.772356152721812
40
0.805936855014065
40
0.805936855014065
40
0.839517557306318
40
0.839517557306318
40
0.873098259598572
40
0.873098259598572
40
0.906678961890825
40
0.906678961890825
40
0.940259664183078
40
0.940259664183078
40
0.973840366475332
40
0.973840366475332
40
1
40
1
40
1
40
1
41
1
10
7.94647288489119
20
2.37950849126531
30
0
41
1
10
8.16897776712133
20
2.45758776353929
30
0
41
1
10
8.39094706927136
20
2.52788412547878
30
0
41
1
10
8.72299367895184
20
2.62248054785002
30
0
41
1
10
8.83348367151726
20
2.65223754245133
30
0
41
1
10
9.05381549846817
20
2.7083879125517
30
0
41
1
10
9.16372481311663
20
2.73470895477467
30
0
41
1
10
9.493847533398
20
2.8076193477815
30
0
41
1
10
9.71404441214986
20
2.84855129007823
30
0
41
1
10
10.1536718851731
20
2.91558947044143
30
0
41
1
10
10.373599731095
20
2.94136985329234
30
0
41
1
10
10.7048604768798
20
2.96803712982259
30
0
41
1
10
10.8154460063717
20
2.97495377792217
30
0
41
1
10
11.0367632207511
20
2.98480612303823
30
0
41
1
10
11.1473894010883
20
2.98773454525093
30
0
41
1
10
11.4806159329552
20
2.99031228747492
30
0
41
1
10
11.7043417662468
20
2.98383123440354
30
0
41
1
10
12.1474188170639
20
2.95468575565138
30
0
41
1
10
12.3678944111261
20
2.93199468123115
30
0
41
1
10
12.6985582873059
20
2.88659752711763
30
0
41
1
10
12.8087214300446
20
2.86956592052925
30
0
41
1
10
13.0287379370912
20
2.83161211267881
30
0
41
1
10
13.1384647726058
20
2.81060555720745
30
0
41
1
10
13.4679114832341
20
2.74209673759859
30
0
41
1
10
13.6881648149788
20
2.68939531988229
30
0
41
1
10
14.1286614157037
20
2.56903659304689
30
0
41
1
10
14.3489939420442
20
2.50132492756052
30
0
41
1
10
14.6814443363875
20
2.39005602386018
30
0
41
1
10
14.7925553488101
20
2.35133584334173
30
0
41
1
10
15.0151988993689
20
2.27039877245863
30
0
41
1
10
15.1267310882183
20
2.22807118191048
30
0
41
1
10
15.4596692207016
20
2.09671256968306
30
0
41
1
10
15.6812257919982
20
2.00439464102862
30
0
41
1
10
16.1226211180243
20
1.80937708650296
30
0
41
1
10
16.3422381919247
20
1.70629948144582
30
0
41
1
10
16.7820001585595
20
1.49295643113331
30
0
41
1
10
17.0021383151977
20
1.382758817682
30
0
41
1
10
17.4414120851749
20
1.1528252988289
30
0
41
1
10
17.6617017934492
20
1.03491640571852
30
0
41
1
10
18.1038224665182
20
0.793655345819644
30
0
41
1
10
18.3250584879454
20
0.669231318453001
30
0
41
1
10
18.7705257228586
20
0.417234723801414
30
0
41
1
10
18.993121233115
20
0.290878376659776
30
0
41
1
10
19.4350473657644
20
0.0364257824344065
30
0
41
1
10
19.6551588551288
20
-0.0909525923536307
30
0
41
1
10
20.0955456717848
20
-0.342740025695008
30
0
41
1
10
20.3149520937007
20
-0.468690339840748
30
0
41
1
10
20.7543185448279
20
-0.716941216396151
30
0
41
1
10
20.9745649053758
20
-0.838762373327768
30
0
41
1
10
21.4153735046719
20
-1.07917475988097
30
0
41
1
10
21.6358961822017
20
-1.19780927344416
30
0
41
1
10
22.0801188097983
20
-1.42695557934374
30
0
41
1
10
22.3033546801782
20
-1.53913106110747
30
0
41
1
10
22.7464443331715
20
-1.75292612671717
30
0
41
1
10
22.9674801420392
20
-1.85426487565582
30
0
41
1
10
23.4081424983231
20
-2.04673764904263
30
0
41
1
10
23.6273976300966
20
-2.1382677297072
30
0
41
1
10
24.0670917029054
20
-2.3077919741458
30
0
41
1
10
24.2868172745951
20
-2.38671249207155
30
0
41
1
10
24.7265303332413
20
-2.53209931598704
30
0
41
1
10
24.9470966405119
20
-2.59798614330543
30
0
41
1
10
25.3898141944827
20
-2.71595039868942
30
0
41
1
10
25.6120016519575
20
-2.76857566117027
30
0
41
1
10
26.056960168487
20
-2.85733460273707
30
0
41
1
10
26.2784804281492
20
-2.89376416679039
30
0
41
1
10
26.7194256240452
20
-2.95102694238707
30
0
41
1
10
26.9394535203936
20
-2.97158189972936
30
0
41
1
10
27.3307522029193
20
-2.99396820781843
30
0
41
1
10
27.5015940022251
20
-2.99896168894617
30
0
41
1
10
27.6726380758364
20
-2.99907376438961
30
0
0
SPLINE
5
C7
100
AcDbEntity
8
1
62
256
6
ByLayer
370
18
48
1
60
0
100
AcDbSpline
70
4
71
3
72
8
73
4
40
0
40
0
40
0
40
0
40
1
40
1
40
1
40
1
41
1
10
28.9929707860696
20
-2.93625846683227
30
0
41
1
10
28.9859819387451
20
-2.95362524077811
30
0
41
1
10
28.9789842214435
20
-2.97097819518649
30
0
41
1
10
28.9719782745056
20
-2.98831659080545
30
0
0
SPLINE
5
C8
100
AcDbEntity
8
1
62
256
6
ByLayer
370
18
48
1
60
0
100
AcDbSpline
70
4
71
3
72
26
73
22
40
0
40
0
40
0
40
0
40
0.0133203296060019
40
0.0133203296060019
40
0.111988296645401
40
0.111988296645401
40
0.2106562636848
40
0.2106562636848
40
0.407992197763598
40
0.407992197763598
40
0.506660164802998
40
0.506660164802998
40
0.605328131842399
40
0.605328131842399
40
0.703996098881799
40
0.703996098881799
40
0.802664065921199
40
0.802664065921199
40
0.901332032960599
40
0.901332032960599
40
1
40
1
40
1
40
1
41
1
10
20.4180100035389
20
2.84335372060505
30
0
41
1
10
20.4437577477674
20
2.84339006579788
30
0
41
1
10
20.4695129622353
20
2.84330975561528
30
0
41
1
10
20.6861201592949
20
2.84165013823841
30
0
41
1
10
20.8771882310586
20
2.83438510780866
30
0
41
1
10
21.2570888652446
20
2.80928687412822
30
0
41
1
10
21.4464716447043
20
2.79186196741745
30
0
41
1
10
22.0139310071932
20
2.72358439381335
30
0
41
1
10
22.3898936921411
20
2.65096149678317
30
0
41
1
10
22.9557718510422
20
2.51825218302395
30
0
41
1
10
23.1444927592562
20
2.47021481045192
30
0
41
1
10
23.5222737511726
20
2.36174789021157
30
0
41
1
10
23.7119180143025
20
2.30231440896514
30
0
41
1
10
24.0922252530118
20
2.17339195744327
30
0
41
1
10
24.2833464374965
20
2.10372358351791
30
0
41
1
10
24.6651098594052
20
1.95695483168214
30
0
41
1
10
24.8558432448341
20
1.87996238851286
30
0
41
1
10
25.2370763723579
20
1.71935632144113
30
0
41
1
10
25.4274015342766
20
1.635685388442
30
0
41
1
10
25.8088874076147
20
1.46135217982376
30
0
41
1
10
26.0001133906214
20
1.37043434934793
30
0
41
1
10
26.1910664506402
20
1.2770263391219
30
0
0
SPLINE
5
C9
100
AcDbEntity
8
1
62
256
6
ByLayer
370
18
48
1
60
0
100
AcDbSpline
70
4
71
3
72
8
73
4
40
0
40
0
40
0
40
0
40
1
40
1
40
1
40
1
41
1
10
4.06122043834785
20
-0.0252163803638155
30
0
41
1
10
4.036579073854
20
0.0031698025382241
30
0
41
1
10
4.02098566192586
20
0.0387896702200692
30
0
41
1
10
4.02098683460079
20
0.0765003997669282
30
0
0
SPLINE
5
CA
100
AcDbEntity
8
1
62
256
6
ByLayer
370
18
48
1
60
0
100
AcDbSpline
70
4
71
3
72
8
73
4
40
0
40
0
40
0
40
0
40
1
40
1
40
1
40
1
41
1
10
29.95223244563
20
0.809605177262057
30
0
41
1
10
29.9700371812486
20
0.571172111080756
30
0
41
1
10
29.9826692236006
20
0.333085690623506
30
0
41
1
10
29.9901299298144
20
0.0953458249430241
30
0
0
SPLINE
5
CB
100
AcDbEntity
8
1
62
256
6
ByLayer
370
18
48
1
60
0
100
AcDbSpline
70
4
71
3
72
8
73
4
40
0
40
0
40
0
40
0
40
1
40
1
40
1
40
1
41
1
10
4.12570505490959
20
-0.0782261605474446
30
0
41
1
10
4.10121379052035
20
-0.064196648354681
30
0
41
1
10
4.07971962102701
20
-0.0465269365730308
30
0
41
1
10
4.06122043834583
20
-0.0252163803612291
30
0
0
SPLINE
5
CC
100
AcDbEntity
8
1
62
256
6
ByLayer
370
13
48
1
60
0
100
AcDbSpline
70
4
71
3
72
10
73
6
40
0
40
0
40
0
40
0
40
0.5
40
0.5
40
1
40
1
40
1
40
1
41
1
10
4.25024075863911
20
-0.0311270364406653
30
0
41
1
10
4.22867838260061
20
-0.0240861583311869
30
0
41
1
10
4.20753515883936
20
-0.0172596464095705
30
0
41
1
10
4.16610382476938
20
-0.003921621322462
30
0
41
1
10
4.14571926297737
20
0.0026206387488514
30
0
41
1
10
4.12670751127115
20
0.0087456574912039
30
0
0
SPLINE
5
CD
100
AcDbEntity
8
1
62
256
6
ByLayer
370
18
48
1
60
0
100
AcDbSpline
70
4
71
3
72
12
73
8
40
0
40
0
40
0
40
0
40
0.457222647453475
40
0.457222647453475
40
0.914445294906949
40
0.914445294906949
40
1
40
1
40
1
40
1
41
1
10
28.9998226824155
20
-2.84576089743766
30
0
41
1
10
28.4835370455116
20
-2.86093739361371
30
0
41
1
10
27.971587663017
20
-2.83354536870635
30
0
41
1
10
26.9469304561981
20
-2.69856791340527
30
0
41
1
10
26.4340370316953
20
-2.5910114664745
30
0
41
1
10
25.8185300212219
20
-2.41786811391691
30
0
41
1
10
25.7215825841867
20
-2.38932613976766
30
0
41
1
10
25.6247528767863
20
-2.35960133586343
30
0
0
SPLINE
5
CE
100
AcDbEntity
8
1
62
256
6
ByLayer
370
13
48
1
60
0
100
AcDbSpline
70
4
71
3
72
26
73
22
40
0
40
0
40
0
40
0
40
0.0569044561265156
40
0.0569044561265156
40
0.147840352054072
40
0.147840352054072
40
0.329712143909188
40
0.329712143909188
40
0.375180091872967
40
0.375180091872967
40
0.420648039836745
40
0.420648039836745
40
0.5115839357643
40
0.5115839357643
40
0.693455727619408
40
0.693455727619408
40
0.784391623546962
40
0.784391623546962
40
0.875327519474516
40
0.875327519474516
40
1
40
1
40
1
40
1
41
1
10
25.6247536704873
20
-2.35960157951391
30
0
41
1
10
25.4628437762752
20
-2.3098984573387
30
0
41
1
10
25.3012630479807
20
-2.25688820078358
30
0
41
1
10
24.8828893105693
20
-2.1113942387197
30
0
41
1
10
24.626487874602
20
-2.01411800176837
30
0
41
1
10
23.8579433748451
20
-1.70207061338078
30
0
41
1
10
23.3465554676692
20
-1.46690048676567
30
0
41
1
10
22.7023455442447
20
-1.14790029648461
30
0
41
1
10
22.5732532808513
20
-1.08286922180011
30
0
41
1
10
22.31441014218
20
-0.950587427466729
30
0
41
1
10
22.1844608195597
20
-0.883234731058224
30
0
41
1
10
21.7961166306354
20
-0.679765891294863
30
0
41
1
10
21.5385331106837
20
-0.541852089520461
30
0
41
1
10
20.7680037314239
20
-0.124503445643995
30
0
41
1
10
20.2568374313585
20
0.157707052017543
30
0
41
1
10
19.4867205139877
20
0.573660035328089
30
0
41
1
10
19.2294235344517
20
0.711027634871726
30
0
41
1
10
18.7122363763569
20
0.980564909473117
30
0
41
1
10
18.4521862116214
20
1.11297294226728
30
0
41
1
10
17.8386170177597
20
1.41458544687299
30
0
41
1
10
17.4847021048564
20
1.57987861584121
30
0
41
1
10
17.1299259061766
20
1.73336228910148
30
0
0
SPLINE
5
CF
100
AcDbEntity
8
1
62
256
6
ByLayer
370
18
48
1
60
0
100
AcDbSpline
70
4
71
3
72
24
73
20
40
0
40
0
40
0
40
0
40
0.0568312915406242
40
0.0568312915406242
40
0.24714936771226
40
0.24714936771226
40
0.342308405798078
40
0.342308405798078
40
0.437467443883897
40
0.437467443883897
40
0.627785520055533
40
0.627785520055533
40
0.722944558141351
40
0.722944558141351
40
0.770524077184259
40
0.770524077184259
40
0.818103596227167
40
0.818103596227167
40
1
40
1
40
1
40
1
41
1
10
16.1488620180938
20
2.1202319149904
30
0
41
1
10
16.3038421293834
20
2.05961566847077
30
0
41
1
10
16.4589454456993
20
1.9961354486642
30
0
41
1
10
17.1345474565707
20
1.70843658135487
30
0
41
1
10
17.6511351433992
20
1.45929358045819
30
0
41
1
10
18.4290873639635
20
1.05715610128908
30
0
41
1
10
18.6897361573335
20
0.918019666701213
30
0
41
1
10
19.2077659289728
20
0.635866087462375
30
0
41
1
10
19.4654367167362
20
0.492494457004057
30
0
41
1
10
20.2365855895476
20
0.0594095053278352
30
0
41
1
10
20.7484502938315
20
-0.232824398816746
30
0
41
1
10
21.5203208695576
20
-0.663046808350458
30
0
41
1
10
21.7784352443734
20
-0.804838026344129
30
0
41
1
10
22.1677480888131
20
-1.01346848574374
30
0
41
1
10
22.2979697283032
20
-1.08239685973382
30
0
41
1
10
22.5572163462635
20
-1.21750056209348
30
0
41
1
10
22.6864943303548
20
-1.28381201353497
30
0
41
1
10
23.3086980844765
20
-1.59708948738103
30
0
41
1
10
23.798217055326
20
-1.82500317481049
30
0
41
1
10
24.2885739571128
20
-2.02658706675601
30
0
0
SPLINE
5
D0
100
AcDbEntity
8
1
62
256
6
ByLayer
370
13
48
1
60
0
100
AcDbSpline
70
4
71
3
72
18
73
14
40
0
40
0
40
0
40
0
40
0.0145357657800424
40
0.0145357657800424
40
0.178779804816696
40
0.178779804816696
40
0.260901824335024
40
0.260901824335024
40
0.343023843853352
40
0.343023843853352
40
0.671511921926676
40
0.671511921926676
40
1
40
1
40
1
40
1
41
1
10
24.2885739571498
20
-2.02658706677124
30
0
41
1
10
24.3112771282815
20
-2.03592025567821
30
0
41
1
10
24.3339820956214
20
-2.04519700342314
30
0
41
1
10
24.6132649988771
20
-2.1585931311281
30
0
41
1
10
24.870096765967
20
-2.25552093051337
30
0
41
1
10
25.2568672358829
20
-2.38841887189071
30
0
41
1
10
25.3860468555603
20
-2.43063040490699
30
0
41
1
10
25.6450654552428
20
-2.51069029010694
30
0
41
1
10
25.7751622427685
20
-2.54861144692114
30
0
41
1
10
26.4242370983723
20
-2.72569003512956
30
0
41
1
10
26.9375876462938
20
-2.82692327632094
30
0
41
1
10
27.9633565811036
20
-2.94560842892315
30
0
41
1
10
28.4758913343613
20
-2.96309817547336
30
0
41
1
10
28.9929707860696
20
-2.93625846683227
30
0
0
SPLINE
5
D1
100
AcDbEntity
8
1
62
256
6
ByLayer
370
18
48
1
60
0
100
AcDbSpline
70
4
71
3
72
42
73
38
40
0
40
0
40
0
40
0
40
0.0923766202955196
40
0.0923766202955196
40
0.138564930443279
40
0.138564930443279
40
0.184753240591039
40
0.184753240591039
40
0.277129860886561
40
0.277129860886561
40
0.300224015960441
40
0.300224015960441
40
0.323318171034321
40
0.323318171034321
40
0.369506481182081
40
0.369506481182081
40
0.461883101477601
40
0.461883101477601
40
0.508071411625361
40
0.508071411625361
40
0.531165566699241
40
0.531165566699241
40
0.554259721773121
40
0.554259721773121
40
0.64663634206864
40
0.64663634206864
40
0.6928246522164
40
0.6928246522164
40
0.715918807290281
40
0.715918807290281
40
0.739012962364161
40
0.739012962364161
40
0.923766202955206
40
0.923766202955206
40
0.969954513102967
40
0.969954513102967
40
1
40
1
40
1
40
1
41
1
10
28.9719782745056
20
-2.98831659080545
30
0
41
1
10
28.4518305997382
20
-3.01436304870737
30
0
41
1
10
27.9336644711817
20
-2.99535589813607
30
0
41
1
10
27.151726975641
20
-2.90014289262484
30
0
41
1
10
26.8914656000501
20
-2.85736931870448
30
0
41
1
10
26.3740759201874
20
-2.75161728835636
30
0
41
1
10
26.1163758022735
20
-2.68856263102575
30
0
41
1
10
25.3442091494974
20
-2.47081248948282
30
0
41
1
10
24.8306312561833
20
-2.28753692409373
30
0
41
1
10
24.1829733057346
20
-2.0178383867765
30
0
41
1
10
24.0531525641418
20
-1.96187651712904
30
0
41
1
10
23.7927651277139
20
-1.84607161423028
30
0
41
1
10
23.6621095095227
20
-1.78617969226528
30
0
41
1
10
23.2719973924771
20
-1.60249196292474
30
0
41
1
10
23.0134004367328
20
-1.4741422933738
30
0
41
1
10
22.2395491286069
20
-1.07555164348926
30
0
41
1
10
21.7262539177818
20
-0.791767189569725
30
0
41
1
10
20.9523573675006
20
-0.35221938826993
30
0
41
1
10
20.6936144010845
20
-0.203598957156174
30
0
41
1
10
20.3033771094004
20
0.0208765437240572
30
0
41
1
10
20.1726993380894
20
0.0960937065532335
30
0
41
1
10
19.9123658963063
20
0.245578354465579
30
0
41
1
10
19.7825834076122
20
0.3199783382573
30
0
41
1
10
19.1350318077544
20
0.689311550478976
30
0
41
1
10
18.6211704712774
20
0.975961879991019
30
0
41
1
10
17.8488900900578
20
1.37988278259863
30
0
41
1
10
17.591172504319
20
1.51010417725854
30
0
41
1
10
17.2030373734624
20
1.69696437453155
30
0
41
1
10
17.0733966225278
20
1.75783565214112
30
0
41
1
10
16.8134203409743
20
1.87646782520167
30
0
41
1
10
16.6828206386193
20
1.93434004639008
30
0
41
1
10
15.5099354760038
20
2.43716419840814
30
0
41
1
10
14.4919676519259
20
2.75357844163796
30
0
41
1
10
13.1926818229321
20
2.93544625631114
30
0
41
1
10
12.9310585729517
20
2.96118887015109
30
0
41
1
10
12.5028141412062
20
2.98486837111295
30
0
41
1
10
12.3345051277394
20
2.98946467977751
30
0
41
1
10
12.166503093881
20
2.9893909144692
30
0
0
SPLINE
5
D2
100
AcDbEntity
8
1
62
256
6
ByLayer
370
18
48
1
60
0
100
AcDbSpline
70
4
71
3
72
8
73
4
40
0
40
0
40
0
40
0
40
1
40
1
40
1
40
1
41
1
10
29.9901299298144
20
0.0953458249430241
30
0
41
1
10
29.9906837908181
20
0.0776967127995363
30
0
41
1
10
29.9944840243777
20
0.0554193732467354
30
0
41
1
10
29.9999675824019
20
0.0321363915639949
30
0
0
SPLINE
5
D3
100
AcDbEntity
8
1
62
256
6
ByLayer
370
18
48
1
60
0
100
AcDbSpline
70
4
71
3
72
8
73
4
40
0
40
0
40
0
40
0
40
1
40
1
40
1
40
1
41
1
10
28.9719782745057
20
2.98831659080545
30
0
41
1
10
28.8187433649099
20
2.99598984748908
30
0
41
1
10
28.6656498968865
20
2.99975448043099
30
0
41
1
10
28.5125669776695
20
2.99962079644052
30
0
0
SPLINE
5
D4
100
AcDbEntity
8
1
62
256
6
ByLayer
370
18
48
1
60
0
100
AcDbSpline
70
4
71
3
72
28
73
24
40
0
40
0
40
0
40
0
40
0.0328420324954115
40
0.0328420324954115
40
0.0731402811414368
40
0.0731402811414368
40
0.113438529787462
40
0.113438529787462
40
0.194035027079511
40
0.194035027079511
40
0.355228021663609
40
0.355228021663609
40
0.435824518955658
40
0.435824518955658
40
0.516421016247706
40
0.516421016247706
40
0.677614010831806
40
0.677614010831806
40
0.758210508123855
40
0.758210508123855
40
0.838807005415904
40
0.838807005415904
40
1
40
1
40
1
40
1
41
1
10
13.7697065478902
20
-2.84930923768278
30
0
41
1
10
13.6641060233678
20
-2.86765515570039
30
0
41
1
10
13.5583171110706
20
-2.88426918975608
30
0
41
1
10
13.3221937900928
20
-2.91731433308641
30
0
41
1
10
13.1914844536626
20
-2.93288627474521
30
0
41
1
10
12.9309779156919
20
-2.95841298117355
30
0
41
1
10
12.8011307171626
20
-2.96837391885907
30
0
41
1
10
12.4123619484942
20
-2.9898683239191
30
0
41
1
10
12.1542094228
20
-2.99303410101877
30
0
41
1
10
11.3810442461996
20
-2.96969434563721
30
0
41
1
10
10.8673683919927
20
-2.91030449994344
30
0
41
1
10
10.0911862883371
20
-2.75746281500284
30
0
41
1
10
9.83093080261753
20
-2.69580640505856
30
0
41
1
10
9.30908384145869
20
-2.55239896357458
30
0
41
1
10
9.04975237466479
20
-2.47123288047644
30
0
41
1
10
8.27443042357675
20
-2.20202063644854
30
0
41
1
10
7.76088267970249
20
-1.9884835456501
30
0
41
1
10
6.98696460907596
20
-1.62848217931213
30
0
41
1
10
6.72844560590036
20
-1.50179937932407
30
0
41
1
10
6.20902782479445
20
-1.23669415034536
30
0
41
1
10
5.9473451512477
20
-1.09810649142685
30
0
41
1
10
5.16605412829603
20
-0.673467043392748
30
0
41
1
10
4.64766221718816
20
-0.377222743814997
30
0
41
1
10
4.12570505490851
20
-0.0782261605468193
30
0
0
SPLINE
5
D5
100
AcDbEntity
8
1
62
256
6
ByLayer
370
18
48
1
60
0
100
AcDbSpline
70
4
71
3
72
14
73
10
40
0
40
0
40
0
40
0
40
0.25
40
0.25
40
0.5
40
0.5
40
0.75
40
0.75
40
1
40
1
40
1
40
1
41
1
10
4.02107735718801
20
-2.97918310940076
30
0
41
1
10
4.03130705256368
20
-2.95575148217449
30
0
41
1
10
4.04551490830781
20
-2.93349699815383
30
0
41
1
10
4.07920110194513
20
-2.8956312348019
30
0
41
1
10
4.09902083748847
20
-2.87957850600935
30
0
41
1
10
4.14065927126785
20
-2.85508090415175
30
0
41
1
10
4.16282372518532
20
-2.84634880948519
30
0
41
1
10
4.20658314987494
20
-2.83551461422675
30
0
41
1
10
4.2287069354972
20
-2.83321618748468
30
0
41
1
10
4.25032417826517
20
-2.8336424751356
30
0
0
SPLINE
5
D6
100
AcDbEntity
8
1
62
256
6
ByLayer
370
18
48
1
60
0
100
AcDbSpline
70
4
71
3
72
8
73
4
40
0
40
0
40
0
40
0
40
1
40
1
40
1
40
1
41
1
10
29.9999675823914
20
0.0321363915605275
30
0
41
1
10
29.9949165554612
20
0.0145534375509158
30
0
41
1
10
29.9871836379813
20
-0.0039481941750239
30
0
41
1
10
29.9790523871351
20
-0.0172547017148759
30
0
0
SPLINE
5
D7
100
AcDbEntity
8
1
62
256
6
ByLayer
370
18
48
1
60
0
100
AcDbSpline
70
4
71
3
72
14
73
10
40
0
40
0
40
0
40
0
40
0.25
40
0.25
40
0.5
40
0.5
40
0.75
40
0.75
40
1
40
1
40
1
40
1
41
1
10
28.9998225219605
20
-2.8457609021543
30
0
41
1
10
29.0033272446772
20
-2.84500615513855
30
0
41
1
10
29.006244948184
20
-2.84582528271886
30
0
41
1
10
29.0104984852498
20
-2.85166997132561
30
0
41
1
10
29.0117920134886
20
-2.85675056752842
30
0
41
1
10
29.0115062945108
20
-2.87256873173683
30
0
41
1
10
29.009827474222
20
-2.88339716479075
30
0
41
1
10
29.0032215008637
20
-2.9086784361576
30
0
41
1
10
28.9983665000825
20
-2.92285051253214
30
0
41
1
10
28.9929707860696
20
-2.93625846683227
30
0
0
SPLINE
5
D8
100
AcDbEntity
8
1
62
256
6
ByLayer
370
13
48
1
60
0
100
AcDbSpline
70
4
71
3
72
8
73
4
40
0
40
0
40
0
40
0
40
1
40
1
40
1
40
1
41
1
10
4.12570505490933
20
-0.0782261605475583
30
0
41
1
10
4.12603789853475
20
-0.0781383791233736
30
0
41
1
10
4.12637204969025
20
-0.0780493139070018
30
0
41
1
10
4.12670751127109
20
-0.0779589426707901
30
0
0
SPLINE
5
D9
100
AcDbEntity
8
1
62
256
6
ByLayer
370
18
48
1
60
0
100
AcDbSpline
70
4
71
3
72
12
73
8
40
0
40
0
40
0
40
0
40
0.500000000000003
40
0.500000000000003
40
0.750000000000002
40
0.750000000000002
40
1
40
1
40
1
40
1
41
1
10
29.1431916533774
20
2.8810501208774
30
0
41
1
10
29.2686974033741
20
2.53304300253259
30
0
41
1
10
29.3998976731408
20
2.18646589110827
30
0
41
1
10
29.602963344213
20
1.66839843226848
30
0
41
1
10
29.6718058913621
20
1.49593139159555
30
0
41
1
10
29.8109580469766
20
1.15198794034907
30
0
41
1
10
29.8812680919275
20
0.980570332719594
30
0
41
1
10
29.95223244563
20
0.809605177262085
30
0
0
SPLINE
5
DA
100
AcDbEntity
8
1
62
256
6
ByLayer
370
18
48
1
60
0
100
AcDbSpline
70
4
71
3
72
8
73
4
40
0
40
0
40
0
40
0
40
1
40
1
40
1
40
1
41
1
10
29.9790523871351
20
-0.0172547017149043
30
0
41
1
10
29.5419319249358
20
-0.732587045543454
30
0
41
1
10
29.1325252556138
20
-1.47317019862044
30
0
41
1
10
28.7518243486243
20
-2.2399079719691
30
0
0
SPLINE
5
DB
100
AcDbEntity
8
1
62
256
6
ByLayer
370
18
48
1
60
0
100
AcDbSpline
70
4
71
3
72
16
73
12
40
0
40
0
40
0
40
0
40
0.285661717921168
40
0.285661717921168
40
0.428492576881753
40
0.428492576881753
40
0.571323435842337
40
0.571323435842337
40
0.856985153763505
40
0.856985153763505
40
1
40
1
40
1
40
1
41
1
10
4.25032417921142
20
-2.83364247515434
30
0
41
1
10
4.55005533249053
20
-2.83955311276728
30
0
41
1
10
4.85351795467059
20
-2.82381178938149
30
0
41
1
10
5.31282961166133
20
-2.7748479891672
30
0
41
1
10
5.46661811651873
20
-2.75445861543247
30
0
41
1
10
5.77360199619909
20
-2.70500144282795
30
0
41
1
10
5.9270653809466
20
-2.67590289046427
30
0
41
1
10
6.38788976665751
20
-2.57701493604407
30
0
41
1
10
6.69565717734241
20
-2.49544114174918
30
0
41
1
10
7.1611862383217
20
-2.35663112191014
30
0
41
1
10
7.31711577962892
20
-2.30699715467699
30
0
41
1
10
7.47398114846123
20
-2.25467834591717
30
0
0
SPLINE
5
DC
100
AcDbEntity
8
1
62
256
6
ByLayer
370
18
48
1
60
0
100
AcDbSpline
70
4
71
3
72
32
73
28
40
0
40
0
40
0
40
0
40
0.0624999999999986
40
0.0624999999999986
40
0.0937499999999979
40
0.0937499999999979
40
0.124999999999997
40
0.124999999999997
40
0.187499999999996
40
0.187499999999996
40
0.249999999999994
40
0.249999999999994
40
0.312499999999993
40
0.312499999999993
40
0.374999999999992
40
0.374999999999992
40
0.499999999999989
40
0.499999999999989
40
0.562499999999991
40
0.562499999999991
40
0.624999999999992
40
0.624999999999992
40
0.749999999999995
40
0.749999999999995
40
0.874999999999997
40
0.874999999999997
40
1
40
1
40
1
40
1
41
1
10
26.1910664506545
20
1.2770263391148
30
0
41
1
10
26.1725282000845
20
1.18736662666768
30
0
41
1
10
26.1609382639332
20
1.09449399125475
30
0
41
1
10
26.1548036500922
20
0.94998286762663
30
0
41
1
10
26.1546651760735
20
0.900845336759517
30
0
41
1
10
26.158181045413
20
0.802925049897311
30
0
41
1
10
26.1618147636416
20
0.753886930914121
30
0
41
1
10
26.1781420001754
20
0.606547013971834
30
0
41
1
10
26.1962462067791
20
0.508020295922989
30
0
41
1
10
26.2462410127235
20
0.310393765142663
30
0
41
1
10
26.2779707167225
20
0.21227936271859
30
0
41
1
10
26.3518321381626
20
0.0214834316271038
30
0
41
1
10
26.3941414532937
20
-0.0718978996527539
30
0
41
1
10
26.4882774349502
20
-0.255092161289866
30
0
41
1
10
26.5394894021787
20
-0.343670760989738
30
0
41
1
10
26.7022013473245
20
-0.599740664590826
30
0
41
1
10
26.823146524242
20
-0.758807799017006
30
0
41
1
10
27.0191860805342
20
-0.983753337963407
30
0
41
1
10
27.0868724173867
20
-1.05619851478468
30
0
41
1
10
27.2245282826334
20
-1.19456227258991
30
0
41
1
10
27.2947672402673
20
-1.26081161273169
30
0
41
1
10
27.509125761817
20
-1.45199118062405
30
0
41
1
10
27.6568362304222
20
-1.56945841720892
30
0
41
1
10
27.9600307135737
20
-1.78823709964979
30
0
41
1
10
28.1161038167122
20
-1.8897924954683
30
0
41
1
10
28.431421427077
20
-2.07649030283611
30
0
41
1
10
28.5908294226998
20
-2.16183155589874
30
0
41
1
10
28.7518243486243
20
-2.2399079719691
30
0
0
SPLINE
5
DD
100
AcDbEntity
8
1
62
256
6
ByLayer
370
18
48
1
60
0
100
AcDbSpline
70
4
71
3
72
8
73
4
40
0
40
0
40
0
40
0
40
1
40
1
40
1
40
1
41
1
10
29.9901299298144
20
-0.0953458249429389
30
0
41
1
10
29.9906837908181
20
-0.0776967127989963
30
0
41
1
10
29.994484024378
20
-0.0554193732454848
30
0
41
1
10
29.9999675824024
20
-0.0321363915620339
30
0
0
SPLINE
5
DE
100
AcDbEntity
8
1
62
256
6
ByLayer
370
18
48
1
60
0
100
AcDbSpline
70
4
71
3
72
8
73
4
40
0
40
0
40
0
40
0
40
1
40
1
40
1
40
1
41
1
10
7.48208623458413
20
2.24162355928812
30
0
41
1
10
7.63738736375859
20
2.28831964946232
30
0
41
1
10
7.79213072571602
20
2.33447813665728
30
0
41
1
10
7.94647288489119
20
2.37950849126531
30
0
0
SPLINE
5
DF
100
AcDbEntity
8
1
62
256
6
ByLayer
370
13
48
1
60
0
100
AcDbSpline
70
4
71
3
72
8
73
4
40
0
40
0
40
0
40
0
40
1
40
1
40
1
40
1
41
1
10
4.12670751127115
20
-0.0779589426707901
30
0
41
1
10
4.14998459900522
20
-0.0908009472242668
30
0
41
1
10
4.1751287428734
20
-0.104693579415596
30
0
41
1
10
4.20107380797407
20
-0.119293832068735
30
0
0
SPLINE
5
E0
100
AcDbEntity
8
1
62
256
6
ByLayer
370
18
48
1
60
0
100
AcDbSpline
70
4
71
3
72
24
73
20
40
0
40
0
40
0
40
0
40
0.0829673902412988
40
0.1423687765749
40
0.189146781939945
40
0.237425216361586
40
0.290028596132143
40
0.352248903860195
40
0.42219255109164
40
0.493898466392998
40
0.580719073962912
40
0.650476035776304
40
0.717545280121835
40
0.768194121699117
40
0.819441916256963
40
0.854650851237921
40
0.904364688774651
40
0.968606163209988
40
1
40
1
40
1
40
1
41
1
10
12.327993948291
20
-2.83955730708874
30
0
41
1
10
12.5516183275401
20
-2.83945713381078
30
0
41
1
10
12.9353353113788
20
-2.83941745364535
30
0
41
1
10
13.4452766588075
20
-2.84031591827866
30
0
41
1
10
13.8614176943882
20
-2.84028473336079
30
0
41
1
10
14.2594585330413
20
-2.84003621312567
30
0
41
1
10
14.6991041097044
20
-2.84012085943365
30
0
41
1
10
15.1971596492858
20
-2.8408259520798
30
0
41
1
10
15.7466992783437
20
-2.8397707281616
30
0
41
1
10
16.3625548246212
20
-2.841492201069
30
0
41
1
10
16.9778983525369
20
-2.84066000344208
30
0
41
1
10
17.5807568102596
20
-2.84059608462616
30
0
41
1
10
18.0860789234647
20
-2.84153561123742
30
0
41
1
10
18.5416194017069
20
-2.84331679795406
30
0
41
1
10
18.9108678226574
20
-2.84253743701976
30
0
41
1
10
19.2777992630588
20
-2.84149356600162
30
0
41
1
10
19.6799126054155
20
-2.84070400262419
30
0
41
1
10
20.0716974771353
20
-2.84363921763676
30
0
41
1
10
20.3293673148073
20
-2.84329745232614
30
0
41
1
10
20.4139432936606
20
-2.84312731848189
30
0
0
SPLINE
5
E1
100
AcDbEntity
8
1
62
256
6
ByLayer
370
18
48
1
60
0
100
AcDbSpline
70
4
71
2
72
6
73
3
40
0
40
0
40
0
40
1
40
1
40
1
41
1
10
4.56887212732738
20
2.83227749850013
30
0
41
1
10
4.40949982742134
20
2.83168718887731
30
0
41
1
10
4.25043036182637
20
2.83023596477722
30
0
0
SPLINE
5
E2
100
AcDbEntity
8
1
62
256
6
ByLayer
370
18
48
1
60
0
100
AcDbSpline
70
4
71
2
72
6
73
3
40
0
40
0
40
0
40
1
40
1
40
1
41
1
10
28.5781045276364
20
-2.84872721948875
30
0
41
1
10
28.7614767877741
20
-2.84855038332375
30
0
41
1
10
28.9446256392126
20
-2.84844250318784
30
0
0
SPLINE
5
E3
100
AcDbEntity
8
1
62
256
6
ByLayer
370
18
48
1
60
0
100
AcDbSpline
70
4
71
3
72
21
73
17
40
0
40
0
40
0
40
0
40
0.0382590799138808
40
0.116487355972481
40
0.192048434393957
40
0.239251739647277
40
0.279828145585994
40
0.32018517619989
40
0.360365270896742
40
0.400402175941441
40
0.496259816304257
40
0.6163220833742
40
0.746096196687057
40
0.863646677948117
40
0.957092137401378
40
1
40
1
40
1
40
1
41
1
10
20.4141431233414
20
2.84312720069519
30
0
41
1
10
20.3295005472393
20
2.84329753217472
30
0
41
1
10
20.071761975979
20
2.84363039929104
30
0
41
1
10
19.6466733874842
20
2.84052195407446
30
0
41
1
10
19.2016514999234
20
2.84158680858124
30
0
41
1
10
18.8403820685528
20
2.84289422144983
30
0
41
1
10
18.5568873567339
20
2.84316616729171
30
0
41
1
10
18.2887873526789
20
2.84205426325562
30
0
41
1
10
18.0218841790754
20
2.84165588748442
30
0
41
1
10
17.6321234782616
20
2.8408630700755
30
0
41
1
10
17.0655371290918
20
2.84034081808539
30
0
41
1
10
16.3003150015321
20
2.84143369890543
30
0
41
1
10
15.4870613221515
20
2.84012899943122
30
0
41
1
10
14.7327445597217
20
2.84026684134932
30
0
41
1
10
14.1706579290402
20
2.84007656194515
30
0
41
1
10
13.8688934473364
20
2.84025235543606
30
0
41
1
10
13.7739315646409
20
2.84027463980561
30
0
0
SPLINE
5
E4
100
AcDbEntity
8
1
62
256
6
ByLayer
370
18
48
1
60
0
100
AcDbSpline
70
4
71
2
72
6
73
3
40
0
40
0
40
0
40
1
40
1
40
1
41
1
10
4.30330174203061
20
-2.83069460506098
30
0
41
1
10
4.435332603094
20
-2.83178015110309
30
0
41
1
10
4.5675728188923
20
-2.83227053168494
30
0
0
LINE
5
7B
100
AcDbEntity
8
SK1
62
256
6
ByLayer
370
18
48
1
60
0
100
AcDbLine
10
-35.065
20
3
30
0
11
-35.065
21
-3
31
0
39
0
210
0
220
0
230
1
0
LINE
5
7D
100
AcDbEntity
8
SK1
62
256
6
ByLayer
370
18
48
1
60
0
100
AcDbLine
10
-36
20
2.065
30
0
11
-36
21
-2.065
31
0
39
0
210
0
220
0
230
1
0
LINE
5
7E
100
AcDbEntity
8
SK1
62
256
6
ByLayer
370
18
48
1
60
0
100
AcDbLine
10
0
20
-3
30
0
11
0
21
3
31
0
39
0
210
0
220
0
230
1
0
LINE
5
7F
100
AcDbEntity
8
1
62
256
6
ByLayer
370
13
48
1
60
0
100
AcDbLine
10
4.250312
20
-2.834739
30
0
11
4.250324
21
-2.833642
31
0
39
0
210
0
220
0
230
1
0
LINE
5
80
100
AcDbEntity
8
1
62
256
6
ByLayer
370
18
48
1
60
0
100
AcDbLine
10
0
20
-3
30
0
11
0
21
3
31
0
39
0
210
0
220
0
230
1
0
LINE
5
81
100
AcDbEntity
8
1
62
256
6
ByLayer
370
13
48
1
60
0
100
AcDbLine
10
28.845642
20
0.819834
30
0
11
29.99013
21
0.095346
31
0
39
0
210
0
220
0
230
1
0
LINE
5
82
100
AcDbEntity
8
1
62
256
6
ByLayer
370
18
48
1
60
0
100
AcDbLine
10
4.021065
20
-2.984299
30
0
11
4.021077
21
-2.979183
31
0
39
0
210
0
220
0
230
1
0
LINE
5
83
100
AcDbEntity
8
1
62
256
6
ByLayer
370
13
48
1
60
0
100
AcDbLine
10
28.755989
20
0.756974
30
0
11
29.979052
21
-0.017255
31
0
39
0
210
0
220
0
230
1
0
LINE
5
84
100
AcDbEntity
8
1
62
256
6
ByLayer
370
18
48
1
60
0
100
AcDbLine
10
1.5
20
2.982723
30
0
11
1.5
21
-2.982723
31
0
39
0
210
0
220
0
230
1
0
LINE
5
85
100
AcDbEntity
8
80
62
256
6
ByLayer
370
18
48
1
60
0
100
AcDbLine
10
0
20
0
30
0
11
-5
21
0
31
0
39
0
210
0
220
0
230
1
0
LINE
5
86
100
AcDbEntity
8
4
62
256
6
ByLayer
370
18
48
0.05
60
0
100
AcDbLine
10
30
20
0
30
0
11
0
21
0
31
0
39
0
210
0
220
0
230
1
0
LINE
5
88
100
AcDbEntity
8
SK4
62
256
6
ByLayer
370
18
48
0.05
60
0
100
AcDbLine
10
35
20
0
30
0
11
-41
21
0
31
0
39
0
210
0
220
0
230
1
0
LINE
5
8A
100
AcDbEntity
8
SK1
62
256
6
ByLayer
370
18
48
1
60
0
100
AcDbLine
10
-35.065
20
-3
30
0
11
0
21
-3
31
0
39
0
210
0
220
0
230
1
0
LINE
5
8B
100
AcDbEntity
8
SK1
62
256
6
ByLayer
370
18
48
1
60
0
100
AcDbLine
10
0
20
3
30
0
11
-35.065
21
3
31
0
39
0
210
0
220
0
230
1
0
LINE
5
8C
100
AcDbEntity
8
SK1
62
256
6
ByLayer
370
18
48
1
60
0
100
AcDbLine
10
-36
20
-2.065
30
0
11
-35.065
21
-3
31
0
39
0
210
0
220
0
230
1
0
LINE
5
8D
100
AcDbEntity
8
SK1
62
256
6
ByLayer
370
18
48
1
60
0
100
AcDbLine
10
-35.065
20
3
30
0
11
-36
21
2.065
31
0
39
0
210
0
220
0
230
1
0
LINE
5
8E
100
AcDbEntity
8
1
62
256
6
ByLayer
370
18
48
1
60
0
100
AcDbLine
10
11.323116
20
-2.988862
30
0
11
12.164922
21
-2.989389
31
0
39
0
210
0
220
0
230
1
0
LINE
5
8F
100
AcDbEntity
8
1
62
256
6
ByLayer
370
18
48
1
60
0
100
AcDbLine
10
12.164875
20
2.989388
30
0
11
11.323116
21
2.988862
31
0
39
0
210
0
220
0
230
1
0
LINE
5
90
100
AcDbEntity
8
1
62
256
6
ByLayer
370
18
48
1
60
0
100
AcDbLine
10
1.5
20
2.982723
30
0
11
0
21
3
31
0
39
0
210
0
220
0
230
1
0
LINE
5
91
100
AcDbEntity
8
1
62
256
6
ByLayer
370
18
48
1
60
0
100
AcDbLine
10
0
20
-3
30
0
11
1.5
21
-2.982723
31
0
39
0
210
0
220
0
230
1
0
LINE
5
92
100
AcDbEntity
8
1
62
256
6
ByLayer
370
18
48
1
60
0
100
AcDbLine
10
1.5
20
-2.982723
30
0
11
4.02106
21
-2.984299
31
0
39
0
210
0
220
0
230
1
0
LINE
5
93
100
AcDbEntity
8
1
62
256
6
ByLayer
370
18
48
1
60
0
100
AcDbLine
10
27.673208
20
-2.999081
30
0
11
28.514806
21
-2.999607
31
0
39
0
210
0
220
0
230
1
0
LINE
5
94
100
AcDbEntity
8
1
62
256
6
ByLayer
370
18
48
1
60
0
100
AcDbLine
10
28.514821
20
2.999607
30
0
11
27.673208
21
2.999081
31
0
39
0
210
0
220
0
230
1
0
LINE
5
95
100
AcDbEntity
8
1
62
256
6
ByLayer
370
18
48
1
60
0
100
AcDbLine
10
4.02106
20
2.984299
30
0
11
1.5
21
2.982723
31
0
39
0
210
0
220
0
230
1
0
LINE
5
96
100
AcDbEntity
8
81
62
256
6
ByLayer
370
18
48
1
60
0
100
AcDbLine
10
30
20
0
30
0
11
35
21
0
31
0
39
0
210
0
220
0
230
1
0
LINE
5
97
100
AcDbEntity
8
SK2
62
256
6
ByLayer
370
13
48
1
60
0
100
AcDbLine
10
-44.625163
20
32.117107
30
0
11
-44.625163
21
-11.75
31
0
39
0
210
0
220
0
230
1
0
LINE
5
99
100
AcDbEntity
8
SK2
62
256
6
ByLayer
370
13
48
1
60
0
100
AcDbLine
10
-37.5875
20
3
30
0
11
-46.625163
21
3
31
0
39
0
210
0
220
0
230
1
0
LINE
5
9A
100
AcDbEntity
8
SK2
62
256
6
ByLayer
370
13
48
1
60
0
100
AcDbLine
10
-37.5875
20
-3
30
0
11
-46.625163
21
-3
31
0
39
0
210
0
220
0
230
1
0
LINE
5
9B
100
AcDbEntity
8
1
62
256
6
ByLayer
370
18
48
1
60
1
100
AcDbLine
10
-44.625163
20
3
30
0
11
-45.085946
21
6.499998
31
0
39
0
210
0
220
0
230
1
0
LINE
5
9C
100
AcDbEntity
8
1
62
256
6
ByLayer
370
18
48
1
60
1
100
AcDbLine
10
-45.085946
20
6.499998
30
0
11
-44.164379
21
6.500002
31
0
39
0
210
0
220
0
230
1
0
LINE
5
9D
100
AcDbEntity
8
1
62
256
6
ByLayer
370
18
48
1
60
1
100
AcDbLine
10
-44.164379
20
6.500002
30
0
11
-44.625163
21
3
31
0
39
0
210
0
220
0
230
1
0
LINE
5
9E
100
AcDbEntity
8
1
62
256
6
ByLayer
370
18
48
1
60
1
100
AcDbLine
10
-44.625163
20
-3
30
0
11
-44.164379
21
-6.499998
31
0
39
0
210
0
220
0
230
1
0
LINE
5
9F
100
AcDbEntity
8
1
62
256
6
ByLayer
370
18
48
1
60
1
100
AcDbLine
10
-44.164379
20
-6.499998
30
0
11
-45.085946
21
-6.500002
31
0
39
0
210
0
220
0
230
1
0
LINE
5
A0
100
AcDbEntity
8
1
62
256
6
ByLayer
370
18
48
1
60
1
100
AcDbLine
10
-45.085946
20
-6.500002
30
0
11
-44.625163
21
-3
31
0
39
0
210
0
220
0
230
1
0
LINE
5
A1
100
AcDbEntity
8
2
62
256
6
ByLayer
370
13
48
1
60
0
100
AcDbLine
10
42.083343
20
30.710193
30
0
11
42.083343
21
-11.75
31
0
39
0
210
0
220
0
230
1
0
LINE
5
A3
100
AcDbEntity
8
2
62
256
6
ByLayer
370
13
48
1
60
0
100
AcDbLine
10
30.7063
20
3
30
0
11
44.083343
21
3
31
0
39
0
210
0
220
0
230
1
0
LINE
5
A4
100
AcDbEntity
8
2
62
256
6
ByLayer
370
13
48
1
60
0
100
AcDbLine
10
30.7063
20
-3
30
0
11
44.083343
21
-3
31
0
39
0
210
0
220
0
230
1
0
LINE
5
A5
100
AcDbEntity
8
1
62
256
6
ByLayer
370
18
48
1
60
1
100
AcDbLine
10
42.083343
20
3
30
0
11
41.622559
21
6.499998
31
0
39
0
210
0
220
0
230
1
0
LINE
5
A6
100
AcDbEntity
8
1
62
256
6
ByLayer
370
18
48
1
60
1
100
AcDbLine
10
41.622559
20
6.499998
30
0
11
42.544126
21
6.500002
31
0
39
0
210
0
220
0
230
1
0
LINE
5
A7
100
AcDbEntity
8
1
62
256
6
ByLayer
370
18
48
1
60
1
100
AcDbLine
10
42.544126
20
6.500002
30
0
11
42.083343
21
3
31
0
39
0
210
0
220
0
230
1
0
LINE
5
A8
100
AcDbEntity
8
1
62
256
6
ByLayer
370
18
48
1
60
1
100
AcDbLine
10
42.083343
20
-3
30
0
11
42.544126
21
-6.499998
31
0
39
0
210
0
220
0
230
1
0
LINE
5
A9
100
AcDbEntity
8
1
62
256
6
ByLayer
370
18
48
1
60
1
100
AcDbLine
10
42.544126
20
-6.499998
30
0
11
41.622559
21
-6.500002
31
0
39
0
210
0
220
0
230
1
0
LINE
5
AA
100
AcDbEntity
8
1
62
256
6
ByLayer
370
18
48
1
60
1
100
AcDbLine
10
41.622559
20
-6.500002
30
0
11
42.083343
21
-3
31
0
39
0
210
0
220
0
230
1
0
LINE
5
EB
100
AcDbEntity
8
1
62
256
6
ByLayer
370
18
48
1
60
1
100
AcDbLine
10
-44.625163
20
3
30
0
11
-45.085946
21
6.499998
31
0
39
0
210
0
220
0
230
1
0
LINE
5
EC
100
AcDbEntity
8
1
62
256
6
ByLayer
370
18
48
1
60
1
100
AcDbLine
10
-45.085946
20
6.499998
30
0
11
-44.164379
21
6.500002
31
0
39
0
210
0
220
0
230
1
0
LINE
5
ED
100
AcDbEntity
8
1
62
256
6
ByLayer
370
18
48
1
60
1
100
AcDbLine
10
-44.164379
20
6.500002
30
0
11
-44.625163
21
3
31
0
39
0
210
0
220
0
230
1
0
LINE
5
EF
100
AcDbEntity
8
1
62
256
6
ByLayer
370
18
48
1
60
1
100
AcDbLine
10
-44.625163
20
-3
30
0
11
-44.164379
21
-6.499998
31
0
39
0
210
0
220
0
230
1
0
LINE
5
F0
100
AcDbEntity
8
1
62
256
6
ByLayer
370
18
48
1
60
1
100
AcDbLine
10
-44.164379
20
-6.499998
30
0
11
-45.085946
21
-6.500002
31
0
39
0
210
0
220
0
230
1
0
LINE
5
F1
100
AcDbEntity
8
1
62
256
6
ByLayer
370
18
48
1
60
1
100
AcDbLine
10
-45.085946
20
-6.500002
30
0
11
-44.625163
21
-3
31
0
39
0
210
0
220
0
230
1
0
LINE
5
F5
100
AcDbEntity
8
1
62
256
6
ByLayer
370
18
48
1
60
1
100
AcDbLine
10
42.083343
20
3
30
0
11
41.622559
21
6.499998
31
0
39
0
210
0
220
0
230
1
0
LINE
5
F6
100
AcDbEntity
8
1
62
256
6
ByLayer
370
18
48
1
60
1
100
AcDbLine
10
41.622559
20
6.499998
30
0
11
42.544126
21
6.500002
31
0
39
0
210
0
220
0
230
1
0
LINE
5
F7
100
AcDbEntity
8
1
62
256
6
ByLayer
370
18
48
1
60
1
100
AcDbLine
10
42.544126
20
6.500002
30
0
11
42.083343
21
3
31
0
39
0
210
0
220
0
230
1
0
LINE
5
F9
100
AcDbEntity
8
1
62
256
6
ByLayer
370
18
48
1
60
1
100
AcDbLine
10
42.083343
20
-3
30
0
11
42.544126
21
-6.499998
31
0
39
0
210
0
220
0
230
1
0
LINE
5
FA
100
AcDbEntity
8
1
62
256
6
ByLayer
370
18
48
1
60
1
100
AcDbLine
10
42.544126
20
-6.499998
30
0
11
41.622559
21
-6.500002
31
0
39
0
210
0
220
0
230
1
0
LINE
5
FB
100
AcDbEntity
8
1
62
256
6
ByLayer
370
18
48
1
60
1
100
AcDbLine
10
41.622559
20
-6.500002
30
0
11
42.083343
21
-3
31
0
39
0
210
0
220
0
230
1
0
MTEXT
5
E5
100
AcDbEntity
8
SK6
62
256
6
ByLayer
370
13
48
1
60
0
100
AcDbMText
10
-32.145193
20
35.540328
30
0
210
0
220
0
230
1
1
\W0.7670;462.1-0600-018A0-XM X2BM
40
3.5
41
0
44
1.084337
50
0
71
7
72
5
7
iso_b_vert
0
MTEXT
5
E9
100
AcDbEntity
8
SK2
62
256
6
ByLayer
370
18
48
1
60
0
100
AcDbMText
10
-46.189796
20
16.409024
30
0
210
0
220
0
230
1
1
%%c
40
3.5
41
0
44
1.084337
50
90
71
7
72
5
7
iso_b_vert
0
MTEXT
5
EA
100
AcDbEntity
8
SK2
62
256
6
ByLayer
370
18
48
1
60
0
100
AcDbMText
10
-46.189796
20
21.63168
30
0
210
0
220
0
230
1
1
\W0.7317;6,000
40
3.5
41
0
44
1.084337
50
90
71
7
72
5
7
iso_b_vert
0
MTEXT
5
F3
100
AcDbEntity
8
2
62
256
6
ByLayer
370
18
48
1
60
0
100
AcDbMText
10
40.518709
20
15.00211
30
0
210
0
220
0
230
1
1
%%c
40
3.5
41
0
44
1.084337
50
90
71
7
72
5
7
iso_b_vert
0
MTEXT
5
F4
100
AcDbEntity
8
2
62
256
6
ByLayer
370
18
48
1
60
0
100
AcDbMText
10
40.518709
20
20.224766
30
0
210
0
220
0
230
1
1
\W0.7317;6,000
40
3.5
41
0
44
1.084337
50
90
71
7
72
5
7
iso_b_vert
0
HATCH
5
EE
100
AcDbEntity
8
SK2
62
256
6
ByLayer
370
13
48
1
60
0
100
AcDbHatch
10
0
20
0
30
0
210
0
220
0
230
1
2
ANSI31
70
0
71
0
91
1
92
5
93
3
72
1
10
-44.6251625675374
20
3
11
-45.0859463090902
21
6.49999830744682
72
1
10
-45.0859463090902
20
6.49999830744682
11
-44.1643788259847
21
6.50000169255318
72
1
10
-44.1643788259847
20
6.50000169255318
11
-44.6251625675374
21
3
97
0
75
0
76
1
52
0
41
0.0062
77
0
78
1
53
45
43
0
44
0
45
-0.0139193969876572
46
0.0139193969876572
79
0
47
0
98
1
10
0
20
0
0
HATCH
5
F2
100
AcDbEntity
8
SK2
62
256
6
ByLayer
370
13
48
1
60
0
100
AcDbHatch
10
0
20
0
30
0
210
0
220
0
230
1
2
ANSI31
70
0
71
0
91
1
92
5
93
3
72
1
10
-44.6251625675374
20
-3
11
-44.1643788259847
21
-6.49999830744682
72
1
10
-44.1643788259847
20
-6.49999830744682
11
-45.0859463090902
21
-6.50000169255318
72
1
10
-45.0859463090902
20
-6.50000169255318
11
-44.6251625675374
21
-3
97
0
75
0
76
1
52
0
41
0.0062
77
0
78
1
53
45
43
0
44
0
45
-0.0139193969876572
46
0.0139193969876572
79
0
47
0
98
1
10
0
20
0
0
HATCH
5
F8
100
AcDbEntity
8
2
62
256
6
ByLayer
370
13
48
1
60
0
100
AcDbHatch
10
0
20
0
30
0
210
0
220
0
230
1
2
ANSI31
70
0
71
0
91
1
92
5
93
3
72
1
10
42.083342615295
20
3
11
41.6225588737423
21
6.49999830744682
72
1
10
41.6225588737423
20
6.49999830744682
11
42.5441263568478
21
6.50000169255318
72
1
10
42.5441263568478
20
6.50000169255318
11
42.083342615295
21
3
97
0
75
0
76
1
52
0
41
0.0062
77
0
78
1
53
45
43
0
44
0
45
-0.0139193969876572
46
0.0139193969876572
79
0
47
0
98
1
10
0
20
0
0
HATCH
5
FC
100
AcDbEntity
8
2
62
256
6
ByLayer
370
13
48
1
60
0
100
AcDbHatch
10
0
20
0
30
0
210
0
220
0
230
1
2
ANSI31
70
0
71
0
91
1
92
5
93
3
72
1
10
42.083342615295
20
-3
11
42.5441263568478
21
-6.49999830744682
72
1
10
42.5441263568478
20
-6.49999830744682
11
41.6225588737423
21
-6.50000169255318
72
1
10
41.6225588737423
20
-6.50000169255318
11
42.083342615295
21
-3
97
0
75
0
76
1
52
0
41
0.0062
77
0
78
1
53
45
43
0
44
0
45
-0.0139193969876572
46
0.0139193969876572
79
0
47
0
98
1
10
0
20
0
0
DIMENSION
5
FE
100
AcDbEntity
8
SK2
62
256
6
ByLayer
370
13
48
1
60
0
100
AcDbDimension
2
_U0
10
29.1188
20
-13.213398
30
0
11
14.5594
21
-13.213398
31
0
70
32
71
1
72
1
41
1
210
0
220
0
230
1
3
Standard
100
AcDbAlignedDimension
13
0
23
0
33
0
14
29.1188
24
-3
34
0
50
0
100
AcDbRotatedDimension
1001
ACAD
1000
DSTYLE
1002
{
1070
   371
1070
    13
1070
   372
1070
    13
1070
   170
1070
     0
1070
   144
1040
1.0
1070
   277
1070
     2
1070
   278
1070
    44
1070
   146
1040
1.0
1070
   345
1005
16
1070
   347
1005
16
1070
   346
1005
16
1070
   344
1005
0
1070
   343
1005
0
1070
   172
1070
     1
1070
    76
1070
     0
1070
    75
1070
     0
1070
   282
1070
     0
1070
   281
1070
     0
1070
    71
1070
     0
1070
    74
1070
     0
1070
   279
1070
     0
1070
   173
1070
     1
1070
   340
1005
E6
1070
   271
1070
     2
1070
   272
1070
     2
1070
    77
1070
     1
1070
    73
1070
     1
1070
   171
1070
     3
1070
   274
1070
     4
1070
   177
1070
    35
1070
   176
1070
    35
1070
   178
1070
    35
1070
    48
1040
-0.1
1070
    41
1040
3.5
1070
   147
1040
1.75
1070
    42
1040
1.5875
1070
    44
1040
2.0
1070
   140
1040
3.5
1002
}
1001
ACAD_DSTYLE_DIM_LINETYPE
1070
   380
1005
16
1001
ACAD_DSTYLE_DIM_EXT1_LINETYPE
1070
   381
1005
16
1001
ACAD_DSTYLE_DIM_EXT2_LINETYPE
1070
   382
1005
16
0
DIMENSION
5
117
100
AcDbEntity
8
SK2
62
256
6
ByLayer
370
13
48
1
60
0
100
AcDbDimension
2
_U1
10
30
20
-31.692985
30
0
11
-3
21
-31.692985
31
0
70
32
71
1
72
1
41
1
210
0
220
0
230
1
3
Standard
100
AcDbAlignedDimension
13
-36
23
-3
33
0
14
30
24
0
34
0
50
0
100
AcDbRotatedDimension
1001
ACAD
1000
DSTYLE
1002
{
1070
   371
1070
    13
1070
   372
1070
    13
1070
   170
1070
     0
1070
   144
1040
1.0
1070
   277
1070
     2
1070
   278
1070
    44
1070
   146
1040
1.0
1070
   345
1005
16
1070
   347
1005
16
1070
   346
1005
16
1070
   344
1005
0
1070
   343
1005
0
1070
   172
1070
     1
1070
    76
1070
     0
1070
    75
1070
     0
1070
   282
1070
     0
1070
   281
1070
     0
1070
    71
1070
     0
1070
    74
1070
     0
1070
   279
1070
     0
1070
   173
1070
     1
1070
   340
1005
E6
1070
   271
1070
     2
1070
   272
1070
     2
1070
    77
1070
     1
1070
    73
1070
     1
1070
   171
1070
     3
1070
   274
1070
     4
1070
   177
1070
    35
1070
   176
1070
    35
1070
   178
1070
    35
1070
    48
1040
-0.1
1070
    41
1040
3.5
1070
   147
1040
1.75
1070
    42
1040
1.5875
1070
    44
1040
2.0
1070
   140
1040
3.5
1002
}
1001
ACAD_DSTYLE_DIM_LINETYPE
1070
   380
1005
16
1001
ACAD_DSTYLE_DIM_EXT1_LINETYPE
1070
   381
1005
16
1001
ACAD_DSTYLE_DIM_EXT2_LINETYPE
1070
   382
1005
16
0
DIMENSION
5
12F
100
AcDbEntity
8
SK2
62
256
6
ByLayer
370
13
48
1
60
0
100
AcDbDimension
2
_U2
10
30
20
14.609119
30
0
11
20.56
21
14.609119
31
0
70
32
71
1
72
1
41
1
210
0
220
0
230
1
3
Standard
100
AcDbAlignedDimension
13
11.12
23
3
33
0
14
30
24
0
34
0
50
0
100
AcDbRotatedDimension
1001
ACAD
1000
DSTYLE
1002
{
1070
   371
1070
    13
1070
   372
1070
    13
1070
   170
1070
     0
1070
   144
1040
1.0
1070
   277
1070
     2
1070
   278
1070
    44
1070
   146
1040
1.0
1070
   345
1005
16
1070
   347
1005
16
1070
   346
1005
16
1070
   344
1005
0
1070
   343
1005
0
1070
   172
1070
     1
1070
    76
1070
     0
1070
    75
1070
     0
1070
   282
1070
     0
1070
   281
1070
     0
1070
    71
1070
     0
1070
    74
1070
     0
1070
   279
1070
     0
1070
   173
1070
     1
1070
   340
1005
E6
1070
   271
1070
     2
1070
   272
1070
     2
1070
    77
1070
     1
1070
    73
1070
     1
1070
   171
1070
     3
1070
   274
1070
     4
1070
   177
1070
    35
1070
   176
1070
    35
1070
   178
1070
    35
1070
    48
1040
-0.1
1070
    41
1040
3.5
1070
   147
1040
1.75
1070
    42
1040
1.5875
1070
    44
1040
2.0
1070
   140
1040
3.5
1002
}
1001
ACAD_DSTYLE_DIM_LINETYPE
1070
   380
1005
16
1001
ACAD_DSTYLE_DIM_EXT1_LINETYPE
1070
   381
1005
16
1001
ACAD_DSTYLE_DIM_EXT2_LINETYPE
1070
   382
1005
16
0
DIMENSION
5
147
100
AcDbEntity
8
SK2
62
256
6
ByLayer
370
13
48
1
60
0
100
AcDbDimension
2
_U3
10
29.1188
20
-15.802503
30
0
11
47.583333
21
-15.802503
31
0
70
32
71
1
72
1
41
1
210
0
220
0
230
1
3
Standard
100
AcDbAlignedDimension
13
30
23
0
33
0
14
29.1188
24
-3
34
0
50
0
100
AcDbRotatedDimension
1001
ACAD
1000
DSTYLE
1002
{
1070
   371
1070
    13
1070
   372
1070
    13
1070
   170
1070
     0
1070
   144
1040
1.0
1070
   277
1070
     2
1070
   278
1070
    44
1070
   146
1040
1.0
1070
   345
1005
16
1070
   347
1005
16
1070
   346
1005
16
1070
   344
1005
0
1070
   343
1005
0
1070
   172
1070
     1
1070
    76
1070
     0
1070
    75
1070
     0
1070
   282
1070
     0
1070
   281
1070
     0
1070
    71
1070
     0
1070
    74
1070
     0
1070
   279
1070
     0
1070
   173
1070
     1
1070
   340
1005
E6
1070
   271
1070
     2
1070
   272
1070
     2
1070
    77
1070
     1
1070
    73
1070
     1
1070
   171
1070
     3
1070
   274
1070
     4
1070
   177
1070
    35
1070
   176
1070
    35
1070
   178
1070
    35
1070
    48
1040
-0.1
1070
    41
1040
3.5
1070
   147
1040
1.75
1070
    42
1040
1.5875
1070
    44
1040
2.0
1070
   140
1040
3.5
1002
}
1001
ACAD_DSTYLE_DIM_LINETYPE
1070
   380
1005
16
1001
ACAD_DSTYLE_DIM_EXT1_LINETYPE
1070
   381
1005
16
1001
ACAD_DSTYLE_DIM_EXT2_LINETYPE
1070
   382
1005
16
0
DIMENSION
5
161
100
AcDbEntity
8
SK2
62
256
6
ByLayer
370
13
48
1
60
0
100
AcDbDimension
2
_U4
10
29.1188
20
-21.343428
30
0
11
-3.4406
21
-21.343428
31
0
70
32
71
1
72
1
41
1
210
0
220
0
230
1
3
Standard
100
AcDbAlignedDimension
13
-36
23
-3
33
0
14
29.1188
24
-3
34
0
50
0
100
AcDbRotatedDimension
1001
ACAD
1000
DSTYLE
1002
{
1070
   371
1070
    13
1070
   372
1070
    13
1070
   170
1070
     0
1070
   144
1040
1.0
1070
   277
1070
     2
1070
   278
1070
    44
1070
   146
1040
1.0
1070
   345
1005
16
1070
   347
1005
16
1070
   346
1005
16
1070
   344
1005
0
1070
   343
1005
0
1070
   172
1070
     1
1070
    76
1070
     0
1070
    75
1070
     0
1070
   282
1070
     0
1070
   281
1070
     0
1070
    71
1070
     0
1070
    74
1070
     0
1070
   279
1070
     0
1070
   173
1070
     1
1070
   340
1005
E6
1070
   271
1070
     2
1070
   272
1070
     2
1070
    77
1070
     1
1070
    73
1070
     1
1070
   171
1070
     3
1070
   274
1070
     4
1070
   177
1070
    35
1070
   176
1070
    35
1070
   178
1070
    35
1070
    48
1040
-0.1
1070
    41
1040
3.5
1070
   147
1040
1.75
1070
    42
1040
1.5875
1070
    44
1040
2.0
1070
   140
1040
3.5
1002
}
1001
ACAD_DSTYLE_DIM_LINETYPE
1070
   380
1005
16
1001
ACAD_DSTYLE_DIM_EXT1_LINETYPE
1070
   381
1005
16
1001
ACAD_DSTYLE_DIM_EXT2_LINETYPE
1070
   382
1005
16
0
ENDSEC
0
SECTION
2
OBJECTS
0
DICTIONARY
5
1e9
330
0
100
AcDbDictionary
280
0
281
1
3
ACAD_GROUP
350
1ea
3
ACAD_MLINESTYLE
350
1eb
0
DICTIONARY
5
1ea
330
0
100
AcDbDictionary
280
0
281
1
0
DICTIONARY
5
1eb
330
0
100
AcDbDictionary
280
0
281
1
3
Standard
350
18
0
MLINESTYLE
5
18
330
1eb
100
AcDbMlineStyle
2
Standard
70
0
3

62
256
51
90
52
90
71
2
49
-0.5
62
256
6
ByLayer
49
0.5
62
256
6
ByLayer
0
RASTERVARIABLES
5
1d7
330

100
AcDbRasterVariables
90
0
70
1
71
1
72
1
0
ENDSEC
0
EOF
