0
SECTION
2
HEADER
9
$ACADVER
1
AC1015
9
$DWGCODEPAGE
3
ANSI_1252
9
$HANDSEED
5
1f0
9
$ANGBASE
50
0
9
$ANGDIR
70
0
9
$ATTMODE
70
1
9
$AUNITS
70
0
9
$AUPREC
70
0
9
$CECOLOR
62
256
9
$CELTSCALE
40
1
9
$CELTYPE
6
ByLayer
9
$CELWEIGHT
370
18
9
$CLAYER
8
0
9
$CMLJUST
70
0
9
$CMLSCALE
40
1
9
$CMLSTYLE
2
Standard
9
$DIMSTYLE
2
Standard
9
$TEXTSIZE
40
0.2
9
$TEXTSTYLE
7
Standard
9
$LUNITS
70
2
9
$LUPREC
70
4
9
$EXTNAMES
290
1
9
$INSUNITS
70
4
9
$LTSCALE
40
1
9
$LWDISPLAY
290
1
9
$PDMODE
70
0
9
$PDSIZE
40
0
9
$PLINEGEN
70
0
0
ENDSEC
0
SECTION
2
CLASSES
0
CLASS
1
RASTERVARIABLES
2
AcDbRasterVariables
3
ISM
90
0
280
0
281
0
0
ENDSEC
0
SECTION
2
TABLES
0
TABLE
2
VPORT
5
1e6
100
AcDbSymbolTable
0
VPORT
5
1
100
AcDbSymbolTableRecord
100
AcDbViewportTableRecord
2
*Active
70
0
10
0
20
0
11
1
21
1
12
-1
22
1
13
0
23
0
14
0.5
24
0.5
15
10
25
10
16
0
26
0
36
1
17
0
27
0
37
0
0
ENDTAB
0
TABLE
2
LTYPE
5
1e7
100
AcDbSymbolTable
0
LTYPE
5
14
100
AcDbSymbolTableRecord
100
AcDbLinetypeTableRecord
70
0
2
ByBlock
3

72
65
73
0
40
0
0
LTYPE
5
15
100
AcDbSymbolTableRecord
100
AcDbLinetypeTableRecord
70
0
2
ByLayer
3

72
65
73
0
40
0
0
LTYPE
5
16
100
AcDbSymbolTableRecord
100
AcDbLinetypeTableRecord
70
0
2
Continuous
3
Solid line
72
65
73
0
40
0
0
LTYPE
5
6E
100
AcDbSymbolTableRecord
100
AcDbLinetypeTableRecord
70
0
2
CENTER
3
____ _ ____ _ ____ _ ____
72
65
73
4
40
47.5
49
22
74
0
49
-8.5
74
0
49
8.5
74
0
49
-8.5
74
0
0
LTYPE
5
6F
100
AcDbSymbolTableRecord
100
AcDbLinetypeTableRecord
70
0
2
DASHED
3
__ __ __ __ __ __ __ __ __
72
65
73
2
40
25.72
49
12.86
74
0
49
-12.86
74
0
0
ENDTAB
0
TABLE
2
LAYER
5
1e8
100
AcDbSymbolTable
0
LAYER
5
10
100
AcDbSymbolTableRecord
100
AcDbLayerTableRecord
2
0
70
0
62
7
6
Continuous
290
1
370
-3
390
0
0
LAYER
5
71
100
AcDbSymbolTableRecord
100
AcDbLayerTableRecord
2
80
70
0
62
-6
6
Continuous
290
1
370
-3
390
0
0
LAYER
5
73
100
AcDbSymbolTableRecord
100
AcDbLayerTableRecord
2
81
70
0
62
-3
6
Continuous
290
1
370
-3
390
0
0
LAYER
5
75
100
AcDbSymbolTableRecord
100
AcDbLayerTableRecord
2
1
70
0
62
4
6
Continuous
290
1
370
-3
390
0
0
LAYER
5
86
100
AcDbSymbolTableRecord
100
AcDbLayerTableRecord
2
4
70
0
62
-2
6
CENTER
290
1
370
-3
390
0
0
LAYER
5
9F
100
AcDbSymbolTableRecord
100
AcDbLayerTableRecord
2
2
70
0
62
7
6
Continuous
290
1
370
-3
390
0
0
LAYER
5
FA
100
AcDbSymbolTableRecord
100
AcDbLayerTableRecord
2
Defpoints
70
0
62
7
6
Continuous
290
0
370
-3
390
0
0
LAYER
5
1d2
100
AcDbSymbolTableRecord
100
AcDbLayerTableRecord
2
SK1
70
0
62
4
6
Continuous
290
1
370
-3
390
0
0
LAYER
5
1d3
100
AcDbSymbolTableRecord
100
AcDbLayerTableRecord
2
SK4
70
0
62
2
6
CENTER
290
1
370
-3
390
0
0
LAYER
5
1d4
100
AcDbSymbolTableRecord
100
AcDbLayerTableRecord
2
SK2
70
0
62
7
6
Continuous
290
1
370
-3
390
0
0
LAYER
5
1d5
100
AcDbSymbolTableRecord
100
AcDbLayerTableRecord
2
SK6
70
0
62
5
6
Continuous
290
1
370
-3
390
0
0
ENDTAB
0
TABLE
2
STYLE
5
1e9
100
AcDbSymbolTable
0
STYLE
5
11
100
AcDbSymbolTableRecord
100
AcDbTextStyleTableRecord
2
Standard
3
txt
70
0
71
0
40
0
41
1
42
0
50
0
0
STYLE
5
DF
100
AcDbSymbolTableRecord
100
AcDbTextStyleTableRecord
2
iso_b_vert
3
simplex.shx
70
0
71
0
40
0
41
1
42
0
50
0
0
STYLE
5
E0
100
AcDbSymbolTableRecord
100
AcDbTextStyleTableRecord
2
DWGDirectTextStyle
3
simplex
70
0
71
0
40
0
41
1
42
0
50
0
0
ENDTAB
0
TABLE
2
DIMSTYLE
5
1ea
100
AcDbSymbolTable
100
AcDbDimStyleTable
0
DIMSTYLE
105
27
100
AcDbSymbolTableRecord
100
AcDbDimStyleTableRecord
2
Standard
70
0
3
<>
41
0.18
42
0.0625
44
0.18
140
0.18
147
0.09
73
0
74
0
77
1
271
2
275
0
278
52
280
0
340
11
0
ENDTAB
0
TABLE
2
VIEW
5
1eb
100
AcDbSymbolTable
0
ENDTAB
0
TABLE
2
UCS
5
1ec
100
AcDbSymbolTable
0
ENDTAB
0
TABLE
2
APPID
5
1ed
100
AcDbSymbolTable
0
APPID
5
12
100
AcDbSymbolTableRecord
100
AcDbRegAppTableRecord
2
ACAD
70
0
0
APPID
5
F6
100
AcDbSymbolTableRecord
100
AcDbRegAppTableRecord
2
ACAD_DSTYLE_DIMBREAK
70
0
0
APPID
5
191
100
AcDbSymbolTableRecord
100
AcDbRegAppTableRecord
2
ACAD_DSTYLE_DIM_LINETYPE
70
0
0
APPID
5
192
100
AcDbSymbolTableRecord
100
AcDbRegAppTableRecord
2
ACAD_DSTYLE_DIM_EXT1_LINETYPE
70
0
0
APPID
5
193
100
AcDbSymbolTableRecord
100
AcDbRegAppTableRecord
2
ACAD_DSTYLE_DIM_EXT2_LINETYPE
70
0
0
APPID
5
1CE
100
AcDbSymbolTableRecord
100
AcDbRegAppTableRecord
2
ACAD_MLEADERVER
70
0
0
ENDTAB
0
TABLE
2
BLOCK_RECORD
5
1ee
100
AcDbSymbolTable
0
BLOCK_RECORD
5
1F
100
AcDbSymbolTableRecord
100
AcDbBlockTableRecord
2
*Model_Space
340
0
70
0
0
BLOCK_RECORD
5
1B
100
AcDbSymbolTableRecord
100
AcDbBlockTableRecord
2
*Paper_Space
340
0
70
0
0
BLOCK_RECORD
5
23
100
AcDbSymbolTableRecord
100
AcDbBlockTableRecord
2
*Paper_Space0
340
0
70
0
0
BLOCK_RECORD
5
FB
100
AcDbSymbolTableRecord
100
AcDbBlockTableRecord
2
*D1
340
0
70
0
0
BLOCK_RECORD
5
107
100
AcDbSymbolTableRecord
100
AcDbBlockTableRecord
2
_U0
340
0
70
0
0
BLOCK_RECORD
5
113
100
AcDbSymbolTableRecord
100
AcDbBlockTableRecord
2
*D3
340
0
70
0
0
BLOCK_RECORD
5
11F
100
AcDbSymbolTableRecord
100
AcDbBlockTableRecord
2
_U1
340
0
70
0
0
BLOCK_RECORD
5
12B
100
AcDbSymbolTableRecord
100
AcDbBlockTableRecord
2
*D5
340
0
70
0
0
BLOCK_RECORD
5
138
100
AcDbSymbolTableRecord
100
AcDbBlockTableRecord
2
_U2
340
0
70
0
0
BLOCK_RECORD
5
144
100
AcDbSymbolTableRecord
100
AcDbBlockTableRecord
2
*D7
340
0
70
0
0
BLOCK_RECORD
5
152
100
AcDbSymbolTableRecord
100
AcDbBlockTableRecord
2
_U3
340
0
70
0
0
BLOCK_RECORD
5
15E
100
AcDbSymbolTableRecord
100
AcDbBlockTableRecord
2
*D9
340
0
70
0
0
BLOCK_RECORD
5
16A
100
AcDbSymbolTableRecord
100
AcDbBlockTableRecord
2
_U4
340
0
70
0
0
ENDTAB
0
ENDSEC
0
SECTION
2
BLOCKS
0
BLOCK
5
20
100
AcDbEntity
8
0
100
AcDbBlockBegin
2
*Model_Space
70
0
10
0
20
0
30
0
3
*Model_Space
0
ENDBLK
5
21
100
AcDbEntity
8
0
100
AcDbBlockEnd
0
BLOCK
5
1C
100
AcDbEntity
8
0
100
AcDbBlockBegin
2
*Paper_Space
70
0
10
0
20
0
30
0
3
*Paper_Space
0
ENDBLK
5
1D
100
AcDbEntity
8
0
100
AcDbBlockEnd
0
BLOCK
5
24
100
AcDbEntity
8
0
100
AcDbBlockBegin
2
*Paper_Space0
70
0
10
0
20
0
30
0
3
*Paper_Space0
0
ENDBLK
5
25
100
AcDbEntity
8
0
100
AcDbBlockEnd
0
BLOCK
5
FC
100
AcDbEntity
8
0
100
AcDbBlockBegin
2
*D1
70
1
10
0
20
0
30
0
3
*D1
0
LINE
5
FE
100
AcDbEntity
8
0
62
256
6
ByLayer
370
-2
48
1
60
0
100
AcDbLine
10
0
20
-1.5875
30
0
11
0
21
-14.143898
31
0
39
0
210
0
220
0
230
1
0
LINE
5
FF
100
AcDbEntity
8
0
62
256
6
ByLayer
370
-2
48
1
60
0
100
AcDbLine
10
29.4413
20
-3.518
30
0
11
29.4413
21
-14.143898
31
0
39
0
210
0
220
0
230
1
0
LINE
5
100
100
AcDbEntity
8
0
62
256
6
ByLayer
370
-2
48
1
60
0
100
AcDbLine
10
3.5
20
-12.143898
30
0
11
25.9413
21
-12.143898
31
0
39
0
210
0
220
0
230
1
0
SOLID
5
101
100
AcDbEntity
8
0
62
256
6
ByLayer
370
-1
48
1
60
0
100
AcDbTrace
10
3.5
20
-11.560565
30
0
11
3.5
21
-12.727232
31
0
12
0
22
-12.143898
32
0
13
0
23
-12.143898
33
0
39
0
210
0
220
0
230
1
0
SOLID
5
102
100
AcDbEntity
8
0
62
256
6
ByLayer
370
-1
48
1
60
0
100
AcDbTrace
10
25.9413
20
-12.727232
30
0
11
25.9413
21
-11.560565
31
0
12
29.4413
22
-12.143898
32
0
13
29.4413
23
-12.143898
33
0
39
0
210
0
220
0
230
1
0
MTEXT
5
103
100
AcDbEntity
8
0
62
256
6
ByLayer
370
18
48
1
60
0
100
AcDbMText
10
14.72065
20
-5.143898
30
0
210
0
220
0
230
1
1
\A1;29.44
40
3.5
41
0
44
1
50
0
71
5
72
5
7
iso_b_vert
0
POINT
5
104
100
AcDbEntity
8
Defpoints
62
0
6
ByLayer
370
-1
48
1
60
0
100
AcDbPoint
10
0
20
0
30
0
39
0
210
0
220
0
230
1
50
360
0
POINT
5
105
100
AcDbEntity
8
Defpoints
62
0
6
ByLayer
370
-1
48
1
60
0
100
AcDbPoint
10
29.4413
20
-1.9305
30
0
39
0
210
0
220
0
230
1
50
360
0
POINT
5
106
100
AcDbEntity
8
Defpoints
62
0
6
ByLayer
370
-1
48
1
60
0
100
AcDbPoint
10
29.4413
20
-12.143898
30
0
39
0
210
0
220
0
230
1
50
360
0
ENDBLK
5
FD
100
AcDbEntity
8
0
100
AcDbBlockEnd
0
BLOCK
5
10E
100
AcDbEntity
8
0
100
AcDbBlockBegin
2
_U0
70
0
10
0
20
0
30
0
3
_U0
0
MTEXT
5
108
100
AcDbEntity
8
SK2
62
256
6
ByLayer
370
13
48
1
60
0
100
AcDbMText
10
9.214818
20
-11.111265
30
0
210
0
220
0
230
1
1
\W0.7756;29,44
40
3.5
41
0
44
1.084337
50
0
71
7
72
5
7
iso_b_vert
0
LINE
5
109
100
AcDbEntity
8
SK2
62
256
6
ByLayer
370
13
48
1
60
0
100
AcDbLine
10
0
20
-1.5875
30
0
11
0
21
-14.143898
31
0
39
0
210
0
220
0
230
1
0
LINE
5
10A
100
AcDbEntity
8
SK2
62
256
6
ByLayer
370
13
48
1
60
0
100
AcDbLine
10
29.4413
20
-3.518
30
0
11
29.4413
21
-14.143898
31
0
39
0
210
0
220
0
230
1
0
LINE
5
10B
100
AcDbEntity
8
SK2
62
256
6
ByLayer
370
13
48
1
60
0
100
AcDbLine
10
0
20
-12.143898
30
0
11
29.4413
21
-12.143898
31
0
39
0
210
0
220
0
230
1
0
SOLID
5
10C
100
AcDbEntity
8
SK2
62
256
6
ByLayer
370
18
48
1
60
0
100
AcDbTrace
10
0
20
-12.143898
30
0
11
3.499998
21
-11.683115
31
0
12
3.500002
22
-12.604682
32
0
13
3.500002
23
-12.604682
33
0
39
0
210
0
220
0
230
1
0
SOLID
5
10D
100
AcDbEntity
8
SK2
62
256
6
ByLayer
370
18
48
1
60
0
100
AcDbTrace
10
29.4413
20
-12.143898
30
0
11
25.941302
21
-12.604682
31
0
12
25.941298
22
-11.683115
32
0
13
25.941298
23
-11.683115
33
0
39
0
210
0
220
0
230
1
0
ENDBLK
5
10F
100
AcDbEntity
8
0
100
AcDbBlockEnd
0
BLOCK
5
114
100
AcDbEntity
8
0
100
AcDbBlockBegin
2
*D3
70
1
10
0
20
0
30
0
3
*D3
0
LINE
5
116
100
AcDbEntity
8
0
62
256
6
ByLayer
370
-2
48
1
60
0
100
AcDbLine
10
-36
20
-4.5875
30
0
11
-36
21
-33.692985
31
0
39
0
210
0
220
0
230
1
0
LINE
5
117
100
AcDbEntity
8
0
62
256
6
ByLayer
370
-2
48
1
60
0
100
AcDbLine
10
30
20
-1.5875
30
0
11
30
21
-33.692985
31
0
39
0
210
0
220
0
230
1
0
LINE
5
118
100
AcDbEntity
8
0
62
256
6
ByLayer
370
-2
48
1
60
0
100
AcDbLine
10
-32.5
20
-31.692985
30
0
11
26.5
21
-31.692985
31
0
39
0
210
0
220
0
230
1
0
SOLID
5
119
100
AcDbEntity
8
0
62
256
6
ByLayer
370
-1
48
1
60
0
100
AcDbTrace
10
-32.5
20
-31.109652
30
0
11
-32.5
21
-32.276319
31
0
12
-36
22
-31.692985
32
0
13
-36
23
-31.692985
33
0
39
0
210
0
220
0
230
1
0
SOLID
5
11A
100
AcDbEntity
8
0
62
256
6
ByLayer
370
-1
48
1
60
0
100
AcDbTrace
10
26.5
20
-32.276319
30
0
11
26.5
21
-31.109652
31
0
12
30
22
-31.692985
32
0
13
30
23
-31.692985
33
0
39
0
210
0
220
0
230
1
0
MTEXT
5
11B
100
AcDbEntity
8
0
62
256
6
ByLayer
370
18
48
1
60
0
100
AcDbMText
10
-3
20
-24.692985
30
0
210
0
220
0
230
1
1
\A1;66.00
40
3.5
41
0
44
1
50
0
71
5
72
5
7
iso_b_vert
0
POINT
5
11C
100
AcDbEntity
8
Defpoints
62
0
6
ByLayer
370
-1
48
1
60
0
100
AcDbPoint
10
-36
20
-3
30
0
39
0
210
0
220
0
230
1
50
360
0
POINT
5
11D
100
AcDbEntity
8
Defpoints
62
0
6
ByLayer
370
-1
48
1
60
0
100
AcDbPoint
10
30
20
0
30
0
39
0
210
0
220
0
230
1
50
360
0
POINT
5
11E
100
AcDbEntity
8
Defpoints
62
0
6
ByLayer
370
-1
48
1
60
0
100
AcDbPoint
10
30
20
-31.692985
30
0
39
0
210
0
220
0
230
1
50
360
0
ENDBLK
5
115
100
AcDbEntity
8
0
100
AcDbBlockEnd
0
BLOCK
5
126
100
AcDbEntity
8
0
100
AcDbBlockBegin
2
_U1
70
0
10
0
20
0
30
0
3
_U1
0
MTEXT
5
120
100
AcDbEntity
8
SK2
62
256
6
ByLayer
370
13
48
1
60
0
100
AcDbMText
10
-8.137299
20
-30.660352
30
0
210
0
220
0
230
1
1
\W0.7317;66,00
40
3.5
41
0
44
1.084337
50
0
71
7
72
5
7
iso_b_vert
0
LINE
5
121
100
AcDbEntity
8
SK2
62
256
6
ByLayer
370
13
48
1
60
0
100
AcDbLine
10
-36
20
-4.5875
30
0
11
-36
21
-33.692985
31
0
39
0
210
0
220
0
230
1
0
LINE
5
122
100
AcDbEntity
8
SK2
62
256
6
ByLayer
370
13
48
1
60
0
100
AcDbLine
10
30
20
-1.5875
30
0
11
30
21
-33.692985
31
0
39
0
210
0
220
0
230
1
0
LINE
5
123
100
AcDbEntity
8
SK2
62
256
6
ByLayer
370
13
48
1
60
0
100
AcDbLine
10
-36
20
-31.692985
30
0
11
30
21
-31.692985
31
0
39
0
210
0
220
0
230
1
0
SOLID
5
124
100
AcDbEntity
8
SK2
62
256
6
ByLayer
370
18
48
1
60
0
100
AcDbTrace
10
-36
20
-31.692985
30
0
11
-32.500002
21
-31.232202
31
0
12
-32.499998
22
-32.153769
32
0
13
-32.499998
23
-32.153769
33
0
39
0
210
0
220
0
230
1
0
SOLID
5
125
100
AcDbEntity
8
SK2
62
256
6
ByLayer
370
18
48
1
60
0
100
AcDbTrace
10
30
20
-31.692985
30
0
11
26.500002
21
-32.153769
31
0
12
26.499998
22
-31.232202
32
0
13
26.499998
23
-31.232202
33
0
39
0
210
0
220
0
230
1
0
ENDBLK
5
127
100
AcDbEntity
8
0
100
AcDbBlockEnd
0
BLOCK
5
12C
100
AcDbEntity
8
0
100
AcDbBlockBegin
2
*D5
70
1
10
0
20
0
30
0
3
*D5
0
LINE
5
12E
100
AcDbEntity
8
0
62
256
6
ByLayer
370
-2
48
1
60
0
100
AcDbLine
10
17.86
20
3.518
30
0
11
17.86
21
15.539619
31
0
39
0
210
0
220
0
230
1
0
LINE
5
12F
100
AcDbEntity
8
0
62
256
6
ByLayer
370
-2
48
1
60
0
100
AcDbLine
10
30
20
1.5875
30
0
11
30
21
15.539619
31
0
39
0
210
0
220
0
230
1
0
LINE
5
130
100
AcDbEntity
8
0
62
256
6
ByLayer
370
-2
48
1
60
0
100
AcDbLine
10
14.36
20
13.539619
30
0
11
10.86
21
13.539619
31
0
39
0
210
0
220
0
230
1
0
LINE
5
131
100
AcDbEntity
8
0
62
256
6
ByLayer
370
-2
48
1
60
0
100
AcDbLine
10
33.5
20
13.539619
30
0
11
37
21
13.539619
31
0
39
0
210
0
220
0
230
1
0
SOLID
5
132
100
AcDbEntity
8
0
62
256
6
ByLayer
370
-1
48
1
60
0
100
AcDbTrace
10
14.36
20
12.956286
30
0
11
14.36
21
14.122953
31
0
12
17.86
22
13.539619
32
0
13
17.86
23
13.539619
33
0
39
0
210
0
220
0
230
1
0
SOLID
5
133
100
AcDbEntity
8
0
62
256
6
ByLayer
370
-1
48
1
60
0
100
AcDbTrace
10
33.5
20
14.122953
30
0
11
33.5
21
12.956286
31
0
12
30
22
13.539619
32
0
13
30
23
13.539619
33
0
39
0
210
0
220
0
230
1
0
MTEXT
5
134
100
AcDbEntity
8
0
62
256
6
ByLayer
370
18
48
1
60
0
100
AcDbMText
10
23.93
20
20.539619
30
0
210
0
220
0
230
1
1
\A1;12.14
40
3.5
41
0
44
1
50
0
71
5
72
5
7
iso_b_vert
0
POINT
5
135
100
AcDbEntity
8
Defpoints
62
0
6
ByLayer
370
-1
48
1
60
0
100
AcDbPoint
10
17.86
20
1.9305
30
0
39
0
210
0
220
0
230
1
50
360
0
POINT
5
136
100
AcDbEntity
8
Defpoints
62
0
6
ByLayer
370
-1
48
1
60
0
100
AcDbPoint
10
30
20
0
30
0
39
0
210
0
220
0
230
1
50
360
0
POINT
5
137
100
AcDbEntity
8
Defpoints
62
0
6
ByLayer
370
-1
48
1
60
0
100
AcDbPoint
10
30
20
13.539619
30
0
39
0
210
0
220
0
230
1
50
360
0
ENDBLK
5
12D
100
AcDbEntity
8
0
100
AcDbBlockEnd
0
BLOCK
5
13F
100
AcDbEntity
8
0
100
AcDbBlockBegin
2
_U2
70
0
10
0
20
0
30
0
3
_U2
0
MTEXT
5
139
100
AcDbEntity
8
SK2
62
256
6
ByLayer
370
13
48
1
60
0
100
AcDbMText
10
19.483301
20
14.572253
30
0
210
0
220
0
230
1
1
\W0.6301;12,14
40
3.5
41
0
44
1.084337
50
0
71
7
72
5
7
iso_b_vert
0
LINE
5
13A
100
AcDbEntity
8
SK2
62
256
6
ByLayer
370
13
48
1
60
0
100
AcDbLine
10
17.86
20
3.518
30
0
11
17.86
21
15.539619
31
0
39
0
210
0
220
0
230
1
0
LINE
5
13B
100
AcDbEntity
8
SK2
62
256
6
ByLayer
370
13
48
1
60
0
100
AcDbLine
10
30
20
1.5875
30
0
11
30
21
15.539619
31
0
39
0
210
0
220
0
230
1
0
LINE
5
13C
100
AcDbEntity
8
SK2
62
256
6
ByLayer
370
13
48
1
60
0
100
AcDbLine
10
17.86
20
13.539619
30
0
11
30
21
13.539619
31
0
39
0
210
0
220
0
230
1
0
SOLID
5
13D
100
AcDbEntity
8
SK2
62
256
6
ByLayer
370
18
48
1
60
0
100
AcDbTrace
10
17.86
20
13.539619
30
0
11
21.359998
21
14.000403
31
0
12
21.360002
22
13.078835
32
0
13
21.360002
23
13.078835
33
0
39
0
210
0
220
0
230
1
0
SOLID
5
13E
100
AcDbEntity
8
SK2
62
256
6
ByLayer
370
18
48
1
60
0
100
AcDbTrace
10
30
20
13.539619
30
0
11
26.500002
21
13.078835
31
0
12
26.499998
22
14.000403
32
0
13
26.499998
23
14.000403
33
0
39
0
210
0
220
0
230
1
0
ENDBLK
5
140
100
AcDbEntity
8
0
100
AcDbBlockEnd
0
BLOCK
5
145
100
AcDbEntity
8
0
100
AcDbBlockBegin
2
*D7
70
1
10
0
20
0
30
0
3
*D7
0
LINE
5
147
100
AcDbEntity
8
0
62
256
6
ByLayer
370
-2
48
1
60
0
100
AcDbLine
10
30
20
-1.5875
30
0
11
30
21
-16.733003
31
0
39
0
210
0
220
0
230
1
0
LINE
5
148
100
AcDbEntity
8
0
62
256
6
ByLayer
370
-2
48
1
60
0
100
AcDbLine
10
29.4413
20
-3.518
30
0
11
29.4413
21
-16.733003
31
0
39
0
210
0
220
0
230
1
0
LINE
5
149
100
AcDbEntity
8
0
62
256
6
ByLayer
370
-2
48
1
60
0
100
AcDbLine
10
30
20
-14.733003
30
0
11
58.166667
21
-14.733003
31
0
39
0
210
0
220
0
230
1
0
LINE
5
14A
100
AcDbEntity
8
0
62
256
6
ByLayer
370
-2
48
1
60
0
100
AcDbLine
10
33.5
20
-14.733003
30
0
11
37
21
-14.733003
31
0
39
0
210
0
220
0
230
1
0
LINE
5
14B
100
AcDbEntity
8
0
62
256
6
ByLayer
370
-2
48
1
60
0
100
AcDbLine
10
25.9413
20
-14.733003
30
0
11
22.4413
21
-14.733003
31
0
39
0
210
0
220
0
230
1
0
SOLID
5
14C
100
AcDbEntity
8
0
62
256
6
ByLayer
370
-1
48
1
60
0
100
AcDbTrace
10
33.5
20
-14.14967
30
0
11
33.5
21
-15.316337
31
0
12
30
22
-14.733003
32
0
13
30
23
-14.733003
33
0
39
0
210
0
220
0
230
1
0
SOLID
5
14D
100
AcDbEntity
8
0
62
256
6
ByLayer
370
-1
48
1
60
0
100
AcDbTrace
10
25.9413
20
-15.316337
30
0
11
25.9413
21
-14.14967
31
0
12
29.4413
22
-14.733003
32
0
13
29.4413
23
-14.733003
33
0
39
0
210
0
220
0
230
1
0
MTEXT
5
14E
100
AcDbEntity
8
0
62
256
6
ByLayer
370
18
48
1
60
0
100
AcDbMText
10
47.583333
20
-7.733003
30
0
210
0
220
0
230
1
1
\A1;0.56
40
3.5
41
0
44
1
50
0
71
5
72
5
7
iso_b_vert
0
POINT
5
14F
100
AcDbEntity
8
Defpoints
62
0
6
ByLayer
370
-1
48
1
60
0
100
AcDbPoint
10
30
20
0
30
0
39
0
210
0
220
0
230
1
50
360
0
POINT
5
150
100
AcDbEntity
8
Defpoints
62
0
6
ByLayer
370
-1
48
1
60
0
100
AcDbPoint
10
29.4413
20
-1.9305
30
0
39
0
210
0
220
0
230
1
50
360
0
POINT
5
151
100
AcDbEntity
8
Defpoints
62
0
6
ByLayer
370
-1
48
1
60
0
100
AcDbPoint
10
29.4413
20
-14.733003
30
0
39
0
210
0
220
0
230
1
50
360
0
ENDBLK
5
146
100
AcDbEntity
8
0
100
AcDbBlockEnd
0
BLOCK
5
159
100
AcDbEntity
8
0
100
AcDbBlockBegin
2
_U3
70
0
10
0
20
0
30
0
3
_U3
0
MTEXT
5
153
100
AcDbEntity
8
SK2
62
256
6
ByLayer
370
13
48
1
60
0
100
AcDbMText
10
36.15186
20
-13.70037
30
0
210
0
220
0
230
1
1
\W0.7150;0,56
40
3.5
41
0
44
1.084337
50
0
71
7
72
5
7
iso_b_vert
0
LINE
5
154
100
AcDbEntity
8
SK2
62
256
6
ByLayer
370
13
48
1
60
0
100
AcDbLine
10
30
20
-1.5875
30
0
11
30
21
-16.733003
31
0
39
0
210
0
220
0
230
1
0
LINE
5
155
100
AcDbEntity
8
SK2
62
256
6
ByLayer
370
13
48
1
60
0
100
AcDbLine
10
29.4413
20
-3.518
30
0
11
29.4413
21
-16.733003
31
0
39
0
210
0
220
0
230
1
0
LINE
5
156
100
AcDbEntity
8
SK2
62
256
6
ByLayer
370
13
48
1
60
0
100
AcDbLine
10
20.6913
20
-14.733003
30
0
11
43.996491
21
-14.733003
31
0
39
0
210
0
220
0
230
1
0
SOLID
5
157
100
AcDbEntity
8
SK2
62
256
6
ByLayer
370
18
48
1
60
0
100
AcDbTrace
10
30
20
-14.733003
30
0
11
33.499998
21
-14.272219
31
0
12
33.500002
22
-15.193787
32
0
13
33.500002
23
-15.193787
33
0
39
0
210
0
220
0
230
1
0
SOLID
5
158
100
AcDbEntity
8
SK2
62
256
6
ByLayer
370
18
48
1
60
0
100
AcDbTrace
10
29.4413
20
-14.733003
30
0
11
25.941302
21
-15.193787
31
0
12
25.941298
22
-14.272219
32
0
13
25.941298
23
-14.272219
33
0
39
0
210
0
220
0
230
1
0
ENDBLK
5
15A
100
AcDbEntity
8
0
100
AcDbBlockEnd
0
BLOCK
5
15F
100
AcDbEntity
8
0
100
AcDbBlockBegin
2
*D9
70
1
10
0
20
0
30
0
3
*D9
0
LINE
5
161
100
AcDbEntity
8
0
62
256
6
ByLayer
370
-2
48
1
60
0
100
AcDbLine
10
-36
20
-4.5875
30
0
11
-36
21
-23.343428
31
0
39
0
210
0
220
0
230
1
0
LINE
5
162
100
AcDbEntity
8
0
62
256
6
ByLayer
370
-2
48
1
60
0
100
AcDbLine
10
29.4413
20
-3.518
30
0
11
29.4413
21
-23.343428
31
0
39
0
210
0
220
0
230
1
0
LINE
5
163
100
AcDbEntity
8
0
62
256
6
ByLayer
370
-2
48
1
60
0
100
AcDbLine
10
-32.5
20
-21.343428
30
0
11
25.9413
21
-21.343428
31
0
39
0
210
0
220
0
230
1
0
SOLID
5
164
100
AcDbEntity
8
0
62
256
6
ByLayer
370
-1
48
1
60
0
100
AcDbTrace
10
-32.5
20
-20.760095
30
0
11
-32.5
21
-21.926762
31
0
12
-36
22
-21.343428
32
0
13
-36
23
-21.343428
33
0
39
0
210
0
220
0
230
1
0
SOLID
5
165
100
AcDbEntity
8
0
62
256
6
ByLayer
370
-1
48
1
60
0
100
AcDbTrace
10
25.9413
20
-21.926762
30
0
11
25.9413
21
-20.760095
31
0
12
29.4413
22
-21.343428
32
0
13
29.4413
23
-21.343428
33
0
39
0
210
0
220
0
230
1
0
MTEXT
5
166
100
AcDbEntity
8
0
62
256
6
ByLayer
370
18
48
1
60
0
100
AcDbMText
10
-3.27935
20
-14.343428
30
0
210
0
220
0
230
1
1
\A1;65.44
40
3.5
41
0
44
1
50
0
71
5
72
5
7
iso_b_vert
0
POINT
5
167
100
AcDbEntity
8
Defpoints
62
0
6
ByLayer
370
-1
48
1
60
0
100
AcDbPoint
10
-36
20
-3
30
0
39
0
210
0
220
0
230
1
50
360
0
POINT
5
168
100
AcDbEntity
8
Defpoints
62
0
6
ByLayer
370
-1
48
1
60
0
100
AcDbPoint
10
29.4413
20
-1.9305
30
0
39
0
210
0
220
0
230
1
50
360
0
POINT
5
169
100
AcDbEntity
8
Defpoints
62
0
6
ByLayer
370
-1
48
1
60
0
100
AcDbPoint
10
29.4413
20
-21.343428
30
0
39
0
210
0
220
0
230
1
50
360
0
ENDBLK
5
160
100
AcDbEntity
8
0
100
AcDbBlockEnd
0
BLOCK
5
171
100
AcDbEntity
8
0
100
AcDbBlockBegin
2
_U4
70
0
10
0
20
0
30
0
3
_U4
0
MTEXT
5
16B
100
AcDbEntity
8
SK2
62
256
6
ByLayer
370
13
48
1
60
0
100
AcDbMText
10
-8.785182
20
-20.310795
30
0
210
0
220
0
230
1
1
\W0.7756;65,44
40
3.5
41
0
44
1.084337
50
0
71
7
72
5
7
iso_b_vert
0
LINE
5
16C
100
AcDbEntity
8
SK2
62
256
6
ByLayer
370
13
48
1
60
0
100
AcDbLine
10
-36
20
-4.5875
30
0
11
-36
21
-23.343428
31
0
39
0
210
0
220
0
230
1
0
LINE
5
16D
100
AcDbEntity
8
SK2
62
256
6
ByLayer
370
13
48
1
60
0
100
AcDbLine
10
29.4413
20
-3.518
30
0
11
29.4413
21
-23.343428
31
0
39
0
210
0
220
0
230
1
0
LINE
5
16E
100
AcDbEntity
8
SK2
62
256
6
ByLayer
370
13
48
1
60
0
100
AcDbLine
10
-36
20
-21.343428
30
0
11
29.4413
21
-21.343428
31
0
39
0
210
0
220
0
230
1
0
SOLID
5
16F
100
AcDbEntity
8
SK2
62
256
6
ByLayer
370
18
48
1
60
0
100
AcDbTrace
10
-36
20
-21.343428
30
0
11
-32.500002
21
-20.882645
31
0
12
-32.499998
22
-21.804212
32
0
13
-32.499998
23
-21.804212
33
0
39
0
210
0
220
0
230
1
0
SOLID
5
170
100
AcDbEntity
8
SK2
62
256
6
ByLayer
370
18
48
1
60
0
100
AcDbTrace
10
29.4413
20
-21.343428
30
0
11
25.941302
21
-21.804212
31
0
12
25.941298
22
-20.882645
32
0
13
25.941298
23
-20.882645
33
0
39
0
210
0
220
0
230
1
0
ENDBLK
5
172
100
AcDbEntity
8
0
100
AcDbBlockEnd
0
ENDSEC
0
SECTION
2
ENTITIES
0
ARC
5
A8
100
AcDbEntity
8
1
62
256
6
ByLayer
370
18
48
1
60
0
100
AcDbCircle
39
0
10
1.515514
20
-2.713047
30
0
40
0.800000000000003
210
0
220
0
230
1
100
AcDbArc
50
89.96419
51
161.297496
0
ARC
5
A9
100
AcDbEntity
8
1
62
256
6
ByLayer
370
18
48
1
60
0
100
AcDbCircle
39
0
10
1.515514
20
2.713047
30
0
40
0.800000000000003
210
0
220
0
230
1
100
AcDbArc
50
198.702504
51
270.03581
0
ARC
5
AA
100
AcDbEntity
8
1
62
256
6
ByLayer
370
18
48
1
60
0
100
AcDbCircle
39
0
10
0
20
-2.2
30
0
40
0.800000000000003
210
0
220
0
230
1
100
AcDbArc
50
270
51
341.297496
0
ARC
5
AB
100
AcDbEntity
8
1
62
256
6
ByLayer
370
18
48
1
60
0
100
AcDbCircle
39
0
10
0
20
2.2
30
0
40
0.800000000000003
210
0
220
0
230
1
100
AcDbArc
50
18.702504
51
90
0
ELLIPSE
5
AC
100
AcDbEntity
8
1
62
256
6
ByLayer
370
18
48
1
60
0
100
AcDbEllipse
10
8.25
20
2.070959
30
0
11
-0.25
21
3.06151588455594E-17
31
0
210
0
220
0
230
1
40
1
41
0.753449727373579
42
1.58773772742629
0
ELLIPSE
5
AD
100
AcDbEntity
8
1
62
256
6
ByLayer
370
18
48
1
60
0
100
AcDbEllipse
10
8.25
20
-2.070959
30
0
11
-0.25
21
3.06151588455594E-17
31
0
210
0
220
0
230
1
40
1
41
-1.55564308333781
42
-0.74269665931387
0
POINT
5
70
100
AcDbEntity
8
80
62
256
6
ByLayer
370
18
48
1
60
0
100
AcDbPoint
10
0
20
0
30
0
39
0
210
0
220
0
230
1
50
360
0
POINT
5
72
100
AcDbEntity
8
81
62
256
6
ByLayer
370
18
48
1
60
0
100
AcDbPoint
10
30
20
0
30
0
39
0
210
0
220
0
230
1
50
360
0
POINT
5
74
100
AcDbEntity
8
1
62
256
6
ByLayer
370
18
48
1
60
1
100
AcDbPoint
10
29.4413
20
-1.9305
30
0
39
0
210
0
220
0
230
1
50
360
0
POINT
5
76
100
AcDbEntity
8
1
62
256
6
ByLayer
370
18
48
1
60
1
100
AcDbPoint
10
-36
20
-3
30
0
39
0
210
0
220
0
230
1
50
360
0
POINT
5
77
100
AcDbEntity
8
1
62
256
6
ByLayer
370
18
48
1
60
1
100
AcDbPoint
10
17.86
20
1.9305
30
0
39
0
210
0
220
0
230
1
50
360
0
POINT
5
78
100
AcDbEntity
8
1
62
256
6
ByLayer
370
18
48
1
60
1
100
AcDbPoint
10
29.4413
20
-1.9305
30
0
39
0
210
0
220
0
230
1
50
360
0
POINT
5
79
100
AcDbEntity
8
1
62
256
6
ByLayer
370
18
48
1
60
1
100
AcDbPoint
10
-36
20
-3
30
0
39
0
210
0
220
0
230
1
50
360
0
POINT
5
7A
100
AcDbEntity
8
1
62
256
6
ByLayer
370
18
48
1
60
1
100
AcDbPoint
10
29.4413
20
-1.9305
30
0
39
0
210
0
220
0
230
1
50
360
0
SPLINE
5
AE
100
AcDbEntity
8
1
62
256
6
ByLayer
370
18
48
1
60
0
100
AcDbSpline
70
4
71
3
72
8
73
4
40
0
40
0
40
0
40
0
40
1
40
1
40
1
40
1
41
1
10
29.9999496003365
20
0.0321436182965442
30
0
41
1
10
30.0000168094456
20
0.0107114915350905
30
0
41
1
10
30.0000167894181
20
-0.0107178780402251
30
0
41
1
10
29.9999496003365
20
-0.0321436182619834
30
0
0
SPLINE
5
AF
100
AcDbEntity
8
1
62
256
6
ByLayer
370
18
48
1
60
0
100
AcDbSpline
70
4
71
3
72
8
73
4
40
0
40
0
40
0
40
0
40
1
40
1
40
1
40
1
41
1
10
8.20302014410282
20
1.71544928320395
30
0
41
1
10
8.17642937512204
20
1.721783084658
30
0
41
1
10
8.14958897547771
20
1.72780269422773
30
0
41
1
10
8.12443550509633
20
1.73491317224887
30
0
0
SPLINE
5
B0
100
AcDbEntity
8
1
62
256
6
ByLayer
370
13
48
1
60
0
100
AcDbSpline
70
4
71
3
72
32
73
28
40
0
40
0
40
0
40
0
40
0.0731181210893998
40
0.0731181210893998
40
0.1462362421788
40
0.1462362421788
40
0.292472484357603
40
0.292472484357603
40
0.329031544902304
40
0.329031544902304
40
0.365590605447004
40
0.365590605447004
40
0.438708726536406
40
0.438708726536406
40
0.584944968715209
40
0.584944968715209
40
0.62150402925991
40
0.62150402925991
40
0.658063089804611
40
0.658063089804611
40
0.731181210894011
40
0.731181210894011
40
0.877417453072812
40
0.877417453072812
40
0.950535574162214
40
0.950535574162214
40
1
40
1
40
1
40
1
41
1
10
29.342937331479
20
-1.8334049985377
30
0
41
1
10
29.1220237604486
20
-1.83608071656974
30
0
41
1
10
28.9004583483609
20
-1.82810010157058
30
0
41
1
10
28.4597989337537
20
-1.79165624526769
30
0
41
1
10
28.2406817731501
20
-1.76327405596325
30
0
41
1
10
27.5848367196999
20
-1.6495662822347
30
0
41
1
10
27.1496374492597
20
-1.53539059000451
30
0
41
1
10
26.6005443228595
20
-1.35171348089534
30
0
41
1
10
26.490480712636
20
-1.31292732999938
30
0
41
1
10
26.269631216083
20
-1.23151295426109
30
0
41
1
10
26.1589105692785
20
-1.18890157910118
30
0
41
1
10
25.8284340987396
20
-1.05681446762341
30
0
41
1
10
25.6093688246242
20
-0.962731419800917
30
0
41
1
10
24.9534672861812
20
-0.666903575576384
30
0
41
1
10
24.5181617690499
20
-0.451079365272335
30
0
41
1
10
23.9688373186801
20
-0.172511129283151
30
0
41
1
10
23.8587226944384
20
-0.116339565474277
30
0
41
1
10
23.6377697869867
20
-0.0034818160495149
30
0
41
1
10
23.527059204707
20
0.0531678216956948
30
0
41
1
10
23.1965997197629
20
0.221953307234003
30
0
41
1
10
22.9774415721289
20
0.333155514957355
30
0
41
1
10
22.3211452828337
20
0.658382945756159
30
0
41
1
10
21.8854955378644
20
0.864504495421755
30
0
41
1
10
21.2254677021105
20
1.1405087589886
30
0
41
1
10
21.003589207674
20
1.22720854053895
30
0
41
1
10
20.6340818130757
20
1.35911543907628
30
0
41
1
10
20.4853968387131
20
1.40877722376121
30
0
41
1
10
20.3368819075628
20
1.45464826970795
30
0
0
SPLINE
5
B1
100
AcDbEntity
8
1
62
256
6
ByLayer
370
18
48
1
60
0
100
AcDbSpline
70
4
71
3
72
8
73
4
40
0
40
0
40
0
40
0
40
1
40
1
40
1
40
1
41
1
10
20.336882052497
20
1.4546482249429
30
0
41
1
10
20.2794737646087
20
1.4723796296621
30
0
41
1
10
20.2220908846021
20
1.48954462192222
30
0
41
1
10
20.16471906797
20
1.50613017485458
30
0
0
SPLINE
5
B2
100
AcDbEntity
8
1
62
256
6
ByLayer
370
18
48
1
60
0
100
AcDbSpline
70
4
71
3
72
8
73
4
40
0
40
0
40
0
40
0
40
1
40
1
40
1
40
1
41
1
10
29.9662680922718
20
-0.529393164963068
30
0
41
1
10
29.9771439119083
20
-0.384590077498444
30
0
41
1
10
29.9850591353051
20
-0.239933253313893
30
0
41
1
10
29.9900080554077
20
-0.0954229743568362
30
0
0
SPLINE
5
B3
100
AcDbEntity
8
1
62
256
6
ByLayer
370
18
48
1
60
0
100
AcDbSpline
70
4
71
3
72
10
73
6
40
0
40
0
40
0
40
0
40
0.5
40
0.5
40
1
40
1
40
1
40
1
41
1
10
29.2888066044154
20
0.539300288659575
30
0
41
1
10
29.4018639154806
20
0.536743007834644
30
0
41
1
10
29.5149408124746
20
0.534103367764828
30
0
41
1
10
29.7408593003673
20
0.530228758498197
30
0
41
1
10
29.8535647752829
20
0.529804528510397
30
0
41
1
10
29.9662680922718
20
0.529393164962784
30
0
0
SPLINE
5
B4
100
AcDbEntity
8
1
62
256
6
ByLayer
370
18
48
1
60
0
100
AcDbSpline
70
4
71
3
72
8
73
4
40
0
40
0
40
0
40
0
40
1
40
1
40
1
40
1
41
1
10
29.4406416306696
20
-1.86065691121374
30
0
41
1
10
29.401856701082
20
-1.89260738696302
30
0
41
1
10
29.3666657496404
20
-1.91413571807553
30
0
41
1
10
29.3349787881481
20
-1.92412873425334
30
0
0
SPLINE
5
B5
100
AcDbEntity
8
1
62
256
6
ByLayer
370
18
48
1
60
0
100
AcDbSpline
70
4
71
3
72
56
73
52
40
0
40
0
40
0
40
0
40
0.125000000000022
40
0.125000000000022
40
0.187500000000031
40
0.187500000000031
40
0.250000000000041
40
0.250000000000041
40
0.281250000000046
40
0.281250000000046
40
0.312500000000051
40
0.312500000000051
40
0.328125000000053
40
0.328125000000053
40
0.343750000000056
40
0.343750000000056
40
0.359375000000058
40
0.359375000000058
40
0.37500000000006
40
0.37500000000006
40
0.390625000000063
40
0.390625000000063
40
0.406250000000065
40
0.406250000000065
40
0.421875000000068
40
0.421875000000068
40
0.43750000000007
40
0.43750000000007
40
0.468750000000075
40
0.468750000000075
40
0.50000000000008
40
0.50000000000008
40
0.50390625000008
40
0.50390625000008
40
0.50781250000008
40
0.50781250000008
40
0.51562500000008
40
0.51562500000008
40
0.531250000000077
40
0.531250000000077
40
0.562500000000071
40
0.562500000000071
40
0.625000000000061
40
0.625000000000061
40
0.68750000000005
40
0.68750000000005
40
0.750000000000039
40
0.750000000000039
40
0.875000000000019
40
0.875000000000019
40
1
40
1
40
1
40
1
41
1
10
8.05309091783136
20
-0.816807421535628
30
0
41
1
10
7.7848806064695
20
-0.676442518108928
30
0
41
1
10
7.51809210594863
20
-0.525318474683388
30
0
41
1
10
7.12172615566254
20
-0.275845249201893
30
0
41
1
10
6.99004249814558
20
-0.18858796042295
30
0
41
1
10
6.73445530669949
20
-0.0061797479815766
30
0
41
1
10
6.60986839992074
20
0.0891357716024572
30
0
41
1
10
6.43186948220367
20
0.243530877803494
30
0
41
1
10
6.37373182434894
20
0.297261894530067
30
0
41
1
10
6.26403229258159
20
0.408798940635847
30
0
41
1
10
6.21240613431985
20
0.466518500514098
30
0
41
1
10
6.14274968173217
20
0.557988953057162
30
0
41
1
10
6.1208455960718
20
0.589306003203831
30
0
41
1
10
6.08063982974579
20
0.654243310744079
30
0
41
1
10
6.06246642303498
20
0.687725332249443
30
0
41
1
10
6.03217497011002
20
0.755678005013891
30
0
41
1
10
6.01983846361131
20
0.790695397298208
30
0
41
1
10
6.00340587867385
20
0.860991935089544
30
0
41
1
10
5.9993409074329
20
0.895865643245713
30
0
41
1
10
6.00083981216017
20
0.965095732367388
30
0
41
1
10
6.00665797376638
20
0.999609721132543
30
0
41
1
10
6.02766267551456
20
1.06390603484215
30
0
41
1
10
6.04298773470387
20
1.09454739742037
30
0
41
1
10
6.08106981895295
20
1.15137393872556
30
0
41
1
10
6.10345485796154
20
1.17724233735004
30
0
41
1
10
6.15328013614482
20
1.22523326439472
30
0
41
1
10
6.1809415487898
20
1.24746720620806
30
0
41
1
10
6.26802896889569
20
1.30838510194064
30
0
41
1
10
6.33161628173178
20
1.34190662253673
30
0
41
1
10
6.46543128249044
20
1.40091776231867
30
0
41
1
10
6.53578455457262
20
1.42625952687899
30
0
41
1
10
6.61659920815382
20
1.45136661274327
30
0
41
1
10
6.62560159043588
20
1.45410833652994
30
0
41
1
10
6.64365035428759
20
1.45950069580752
30
0
41
1
10
6.65300043734567
20
1.46169085958755
30
0
41
1
10
6.68297358121717
20
1.46501337427006
30
0
41
1
10
6.70258216409349
20
1.46327915641959
30
0
41
1
10
6.76164614649485
20
1.46059355778678
30
0
41
1
10
6.80100531959673
20
1.45862061242695
30
0
41
1
10
6.91903286280422
20
1.45215000765225
30
0
41
1
10
6.99761599138557
20
1.44710314972764
30
0
41
1
10
7.23286130685412
20
1.42972660490779
30
0
41
1
10
7.38910349854771
20
1.4151687306354
30
0
41
1
10
7.70046350982804
20
1.37972380348913
30
0
41
1
10
7.8556225966818
20
1.35880784469063
30
0
41
1
10
8.16303460838964
20
1.31040884690404
30
0
41
1
10
8.31552429665081
20
1.28291065185414
30
0
41
1
10
8.76960674796908
20
1.19007445487989
30
0
41
1
10
9.0677497255933
20
1.11422274571669
30
0
41
1
10
9.65707343965647
20
0.933994064894904
30
0
41
1
10
9.94825752721295
20
0.829575257922414
30
0
41
1
10
10.2376014315565
20
0.712475137062597
30
0
0
SPLINE
5
B6
100
AcDbEntity
8
1
62
256
6
ByLayer
370
18
48
1
60
0
100
AcDbSpline
70
4
71
3
72
22
73
18
40
0
40
0
40
0
40
0
40
0.125383970329093
40
0.125383970329093
40
0.250767940658187
40
0.250767940658187
40
0.37615191098728
40
0.37615191098728
40
0.501535881316374
40
0.501535881316374
40
0.626919851645467
40
0.626919851645467
40
0.75230382197456
40
0.75230382197456
40
0.877687792303654
40
0.877687792303654
40
1
40
1
40
1
40
1
41
1
10
10.237601431556
20
-1.59461476172697
30
0
41
1
10
10.4182496322106
20
-1.63893369436937
30
0
41
1
10
10.5986814009198
20
-1.67763921023558
30
0
41
1
10
10.9585165860368
20
-1.74182529740429
30
0
41
1
10
11.1382986534915
20
-1.76683306471188
30
0
41
1
10
11.4988359309177
20
-1.80338203154326
30
0
41
1
10
11.6795176019401
20
-1.81516369920007
30
0
41
1
10
12.0398999339038
20
-1.82552998486861
30
0
41
1
10
12.2199102148299
20
-1.82351046081919
30
0
41
1
10
12.5797129299895
20
-1.80466219006851
30
0
41
1
10
12.7599880034258
20
-1.78825143292468
30
0
41
1
10
13.1211501341008
20
-1.74369086062688
30
0
41
1
10
13.3011432729894
20
-1.71578676779072
30
0
41
1
10
13.6610001939617
20
-1.64450044353998
30
0
41
1
10
13.8409796130669
20
-1.60167257086283
30
0
41
1
10
14.1967788269341
20
-1.50537186708377
30
0
41
1
10
14.373150663762
20
-1.45283665115409
30
0
41
1
10
14.5489374344275
20
-1.39571253646571
30
0
0
SPLINE
5
B7
100
AcDbEntity
8
1
62
256
6
ByLayer
370
18
48
1
60
0
100
AcDbSpline
70
4
71
3
72
24
73
20
40
0
40
0
40
0
40
0
40
0.0463411668143792
40
0.0463411668143792
40
0.109918422360085
40
0.109918422360085
40
0.237072933451499
40
0.237072933451499
40
0.364227444542913
40
0.364227444542913
40
0.491381955634327
40
0.491381955634327
40
0.618536466725742
40
0.618536466725742
40
0.745690977817156
40
0.745690977817156
40
0.872845488908578
40
0.872845488908578
40
1
40
1
40
1
40
1
41
1
10
23.2882460907715
20
1.82813342328632
30
0
41
1
10
23.3540091686467
20
1.82818217057354
30
0
41
1
10
23.4197461608154
20
1.82739110310948
30
0
41
1
10
23.5756687022059
20
1.82370146763114
30
0
41
1
10
23.6658847842479
20
1.82031203836794
30
0
41
1
10
23.9361518293597
20
1.80352486585545
30
0
41
1
10
24.1159540522217
20
1.78441467168685
30
0
41
1
10
24.476353838991
20
1.73331474225165
30
0
41
1
10
24.6573041633193
20
1.7008000896225
30
0
41
1
10
25.0178427357989
20
1.62475028757501
30
0
41
1
10
25.19780480316
20
1.58025270889965
30
0
41
1
10
25.5580813679991
20
1.47892516794403
30
0
41
1
10
25.7383041970785
20
1.42206794873272
30
0
41
1
10
26.0995366144015
20
1.29908033579565
30
0
41
1
10
26.2798985470392
20
1.23355185517823
30
0
41
1
10
26.6396766045418
20
1.09069060998706
30
0
41
1
10
26.8197719577799
20
1.01487655930487
30
0
41
1
10
27.1805726066063
20
0.856341703663617
30
0
41
1
10
27.3611889894036
20
0.773432413500331
30
0
41
1
10
27.5414361874231
20
0.688500058817937
30
0
0
SPLINE
5
B8
100
AcDbEntity
8
1
62
256
6
ByLayer
370
18
48
1
60
0
100
AcDbSpline
70
4
71
3
72
8
73
4
40
0
40
0
40
0
40
0
40
1
40
1
40
1
40
1
41
1
10
8.05288938870916
20
1.78157324446605
30
0
41
1
10
8.06072911711524
20
1.77021151900857
30
0
41
1
10
8.06934727708006
20
1.75947212976524
30
0
41
1
10
8.078737858831
20
1.74946689774336
30
0
0
SPLINE
5
B9
100
AcDbEntity
8
1
62
256
6
ByLayer
370
18
48
1
60
0
100
AcDbSpline
70
4
71
3
72
10
73
6
40
0
40
0
40
0
40
0
40
0.5
40
0.5
40
1
40
1
40
1
40
1
41
1
10
8.12443550509587
20
1.7349131722485
30
0
41
1
10
8.10445175765588
20
1.7405622534607
30
0
41
1
10
8.08697841536423
20
1.74764039794871
30
0
41
1
10
8.06127106599592
20
1.76366559885261
30
0
41
1
10
8.05288577929937
20
1.77264929842025
30
0
41
1
10
8.05288938870635
20
1.7815732444669
30
0
0
SPLINE
5
BA
100
AcDbEntity
8
1
62
256
6
ByLayer
370
18
48
1
60
0
100
AcDbSpline
70
4
71
3
72
14
73
10
40
0
40
0
40
0
40
0
40
0.278670610083678
40
0.278670610083678
40
0.557341220167356
40
0.557341220167356
40
0.836011830251035
40
0.836011830251035
40
1
40
1
40
1
40
1
41
1
10
29.1967005826152
20
-1.43589286622011
30
0
41
1
10
29.1962135857024
20
-1.50284954297075
30
0
41
1
10
29.1988674453556
20
-1.56260723917171
30
0
41
1
10
29.21043796547
20
-1.66419648118361
30
0
41
1
10
29.2192996053042
20
-1.70630554342222
30
0
41
1
10
29.2435519216353
20
-1.77344679654621
30
0
41
1
10
29.2591089754389
20
-1.79842326214859
30
0
41
1
10
29.2886124501156
20
-1.82307529234546
30
0
41
1
10
29.3006098502468
20
-1.82906616725009
30
0
41
1
10
29.3137330604728
20
-1.83194011671114
30
0
0
SPLINE
5
BB
100
AcDbEntity
8
1
62
256
6
ByLayer
370
18
48
1
60
0
100
AcDbSpline
70
4
71
3
72
8
73
4
40
0
40
0
40
0
40
0
40
1
40
1
40
1
40
1
41
1
10
29.3349787881481
20
1.92412873425334
30
0
41
1
10
29.2378388236713
20
1.9283125719484
30
0
41
1
10
29.1405569118597
20
1.93033935010632
30
0
41
1
10
29.0433183381905
20
1.93023343546278
30
0
0
SPLINE
5
BC
100
AcDbEntity
8
1
62
256
6
ByLayer
370
18
48
1
60
0
100
AcDbSpline
70
4
71
3
72
34
73
30
40
0
40
0
40
0
40
0
40
0.0072284040127719
40
0.0072284040127719
40
0.0382525163873726
40
0.0382525163873726
40
0.0692766287619734
40
0.0692766287619734
40
0.131324853511175
40
0.131324853511175
40
0.25542130300958
40
0.25542130300958
40
0.317469527758782
40
0.317469527758782
40
0.379517752507985
40
0.379517752507985
40
0.50361420200639
40
0.50361420200639
40
0.627710651504794
40
0.627710651504794
40
0.689758876253997
40
0.689758876253997
40
0.720782988628598
40
0.720782988628598
40
0.751807101003199
40
0.751807101003199
40
0.8759035505016
40
0.8759035505016
40
1
40
1
40
1
40
1
41
1
10
18.8477564826634
20
-1.84138381358375
30
0
41
1
10
18.8219645632717
20
-1.8453831651147
30
0
41
1
10
18.7961545907037
20
-1.84924279975147
30
0
41
1
10
18.6594671192853
20
-1.86892186563011
30
0
41
1
10
18.5482964621407
20
-1.88223839449031
30
0
41
1
10
18.3271316391629
20
-1.90329854131679
30
0
41
1
10
18.2168685516134
20
-1.9110849485084
30
0
41
1
10
17.8867597449763
20
-1.92627593217279
30
0
41
1
10
17.6676317567213
20
-1.92550592086417
30
0
41
1
10
17.0104487492615
20
-1.8909147885058
30
0
41
1
10
16.5724355201271
20
-1.82493123645892
30
0
41
1
10
15.9063522798425
20
-1.66390031430066
30
0
41
1
10
15.685204538968
20
-1.60060403953341
30
0
41
1
10
15.2451724360485
20
-1.45752721807443
30
0
41
1
10
15.0260757474206
20
-1.37750608305473
30
0
41
1
10
14.3687584948495
20
-1.11576118694512
30
0
41
1
10
13.9300257471896
20
-0.912226743637291
30
0
41
1
10
13.0413066681211
20
-0.467197968197269
30
0
41
1
10
12.6034204633103
20
-0.23184121785647
30
0
41
1
10
11.9458180002693
20
0.120483430753779
30
0
41
1
10
11.7265532555593
20
0.237929877738821
30
0
41
1
10
11.3964145966609
20
0.411923513715777
30
0
41
1
10
11.2861422607756
20
0.46952206941404
30
0
41
1
10
11.064925000266
20
0.58350018351311
30
0
41
1
10
10.9537234545276
20
0.640010537056952
30
0
41
1
10
10.3988485143135
20
0.916878298217341
30
0
41
1
10
9.9614209869396
20
1.11918666813091
30
0
41
1
10
9.0857588736979
20
1.46523329178422
30
0
41
1
10
8.64789580780615
20
1.60948190303279
30
0
41
1
10
8.20302014410277
20
1.71544928320398
30
0
0
SPLINE
5
BD
100
AcDbEntity
8
1
62
256
6
ByLayer
370
18
48
1
60
0
100
AcDbSpline
70
4
71
3
72
20
73
16
40
0
40
0
40
0
40
0
40
0.165866192657794
40
0.165866192657794
40
0.332692954126235
40
0.332692954126235
40
0.416106334860455
40
0.416106334860455
40
0.499519715594676
40
0.499519715594676
40
0.666346477063117
40
0.666346477063117
40
0.833173238531559
40
0.833173238531559
40
1
40
1
40
1
40
1
41
1
10
8.0529279260212
20
-1.91713240205948
30
0
41
1
10
8.05292637274297
20
-1.91706210230251
30
0
41
1
10
8.05292281329983
20
-1.90585154244098
30
0
41
1
10
8.05291699216431
20
-1.86057767209104
30
0
41
1
10
8.05291484237947
20
-1.82698794141973
30
0
41
1
10
8.05291581946526
20
-1.76080117988579
30
0
41
1
10
8.0529168342153
20
-1.73608744664162
30
0
41
1
10
8.05292064260135
20
-1.68123047702869
30
0
41
1
10
8.05292345547161
20
-1.65099095011584
30
0
41
1
10
8.05293476995894
20
-1.55397536128561
30
0
41
1
10
8.05294620764712
20
-1.48044186783267
30
0
41
1
10
8.05297710785473
20
-1.31584390773392
30
0
41
1
10
8.05299680719293
20
-1.22387839003085
30
0
41
1
10
8.05304103369954
20
-1.02927639730049
30
0
41
1
10
8.05306564685762
20
-0.926043971774163
30
0
41
1
10
8.05309091784
20
-0.816807421536112
30
0
0
SPLINE
5
BE
100
AcDbEntity
8
1
62
256
6
ByLayer
370
18
48
1
60
0
100
AcDbSpline
70
4
71
3
72
33
73
29
40
0
40
0
40
0
40
0
40
0.135413196095932
40
0.135413196095932
40
0.215400755391669
40
0.215400755391669
40
0.295388314687406
40
0.295388314687406
40
0.45536343327888
40
0.45536343327888
40
0.535350992574616
40
0.535350992574616
40
0.575344772222485
40
0.575344772222485
40
0.585343217134452
40
0.590342439590436
40
0.590342439590436
40
0.595341662046419
40
0.595341662046419
40
0.605340106958387
40
0.605340106958387
40
0.615338551870354
40
0.615338551870354
40
0.77531367046183
40
0.77531367046183
40
0.935288789053306
40
0.935288789053306
40
1
40
1
40
1
40
1
41
1
10
10.237601431556
20
0.71247513708883
30
0
41
1
10
10.237601431556
20
0.662450589254718
30
0
41
1
10
10.237601431556
20
0.601603503294513
30
0
41
1
10
10.237601431556
20
0.488507052354748
30
0
41
1
10
10.237601431556
20
0.442872766866827
30
0
41
1
10
10.237601431556
20
0.346576407172137
30
0
41
1
10
10.237601431556
20
0.2956921432108
30
0
41
1
10
10.237601431556
20
0.135260089796162
30
0
41
1
10
10.237601431556
20
0.0179969947464258
30
0
41
1
10
10.237601431556
20
-0.172977849422608
30
0
41
1
10
10.237601431556
20
-0.239080921689776
30
0
41
1
10
10.237601431556
20
-0.340819369782508
30
0
41
1
10
10.237601431556
20
-0.375219130753521
30
0
41
1
10
10.237601431556
20
-0.418785796397458
30
0
41
1
10
10.237601431556
20
-0.431896287177835
30
0
41
1
10
10.2376014315562
20
-0.445067395091428
30
0
41
1
10
10.2376014315562
20
-0.453861593458555
30
0
41
1
10
10.237601431556
20
-0.458179144412895
30
0
41
1
10
10.237601431556
20
-0.47199303990476
30
0
41
1
10
10.237601431556
20
-0.482396311875078
30
0
41
1
10
10.237601431556
20
-0.502547463959445
30
0
41
1
10
10.237601431556
20
-0.512614931172521
30
0
41
1
10
10.237601431556
20
-0.683612071739702
30
0
41
1
10
10.237601431556
20
-0.842507989578166
30
0
41
1
10
10.237601431556
20
-1.14645237636651
30
0
41
1
10
10.237601431556
20
-1.29233679784986
30
0
41
1
10
10.237601431556
20
-1.48764527728812
30
0
41
1
10
10.237601431556
20
-1.54208999088183
30
0
41
1
10
10.237601431556
20
-1.59461476172561
30
0
0
SPLINE
5
BF
100
AcDbEntity
8
1
62
256
6
ByLayer
370
18
48
1
60
0
100
AcDbSpline
70
4
71
3
72
26
73
22
40
0
40
0
40
0
40
0
40
0.0625000000000023
40
0.0625000000000023
40
0.125000000000005
40
0.125000000000005
40
0.187500000000007
40
0.187500000000007
40
0.250000000000009
40
0.250000000000009
40
0.375000000000014
40
0.375000000000014
40
0.437500000000016
40
0.437500000000016
40
0.500000000000019
40
0.500000000000019
40
0.625000000000014
40
0.625000000000014
40
0.750000000000009
40
0.750000000000009
40
1
40
1
40
1
40
1
41
1
10
27.5414361874231
20
0.688500058817766
30
0
41
1
10
27.5367121948362
20
0.630884395668716
30
0
41
1
10
27.5362496093614
20
0.57207654781692
30
0
41
1
10
27.543994703187
20
0.452035231476714
30
0
41
1
10
27.552342205716
20
0.390530613761911
30
0
41
1
10
27.5768057899658
20
0.269882750997567
30
0
41
1
10
27.5929185326181
20
0.2101499221246
30
0
41
1
10
27.6322183492233
20
0.0917617465451883
30
0
41
1
10
27.655614242877
20
0.0327217276119143
30
0
41
1
10
27.7335803207638
20
-0.138315578963216
30
0
41
1
10
27.7959976469059
20
-0.24542741267544
30
0
41
1
10
27.9014743690148
20
-0.398247938829655
30
0
41
1
10
27.9386816922818
20
-0.447872200062449
30
0
41
1
10
28.0151740793622
20
-0.5429329985989
30
0
41
1
10
28.0546402059625
20
-0.588643946741257
30
0
41
1
10
28.1761867894937
20
-0.721081449263522
30
0
41
1
10
28.261391835938
20
-0.803147880811679
30
0
41
1
10
28.4385316411729
20
-0.957243813929267
30
0
41
1
10
28.5305139572712
20
-1.02918252238072
30
0
41
1
10
28.8092209524374
20
-1.22799900255001
30
0
41
1
10
29.0006899577119
20
-1.340129675903
30
0
41
1
10
29.1967005826152
20
-1.43589286622011
30
0
0
SPLINE
5
C0
100
AcDbEntity
8
1
62
256
6
ByLayer
370
18
48
1
60
0
100
AcDbSpline
70
4
71
3
72
10
73
6
40
0
40
0
40
0
40
0
40
0.5
40
0.5
40
1
40
1
40
1
40
1
41
1
10
29.4406416306695
20
1.86065691121414
30
0
41
1
10
29.5227339938164
20
1.63629683880563
30
0
41
1
10
29.6079818215308
20
1.41336857213344
30
0
41
1
10
29.7836509088498
20
0.969759469688682
30
0
41
1
10
29.8741286499962
20
0.748851914014409
30
0
41
1
10
29.9662680922718
20
0.529393164962755
30
0
0
SPLINE
5
C1
100
AcDbEntity
8
1
62
256
6
ByLayer
370
18
48
1
60
0
100
AcDbSpline
70
4
71
3
72
8
73
4
40
0
40
0
40
0
40
0
40
1
40
1
40
1
40
1
41
1
10
29.9900080554077
20
-0.0954229743567794
30
0
41
1
10
29.9906133306555
20
-0.0777487155090171
30
0
41
1
10
29.9944438141691
20
-0.0554520134184031
30
0
41
1
10
29.9999496003412
20
-0.032143618276649
30
0
0
SPLINE
5
C2
100
AcDbEntity
8
1
62
256
6
ByLayer
370
18
48
1
60
0
100
AcDbSpline
70
4
71
3
72
14
73
10
40
0
40
0
40
0
40
0
40
0.49838745338262
40
0.49838745338262
40
0.74758118007393
40
0.74758118007393
40
0.99677490676524
40
0.99677490676524
40
1
40
1
40
1
40
1
41
1
10
8.05288938870919
20
1.78157324446605
30
0
41
1
10
8.05290746507765
20
1.82626550378168
30
0
41
1
10
8.05291793291315
20
1.86006758687927
30
0
41
1
10
8.05292623061484
20
1.89430677757346
30
0
41
1
10
8.05292774219532
20
1.90289572964895
30
0
41
1
10
8.0529289813108
20
1.91426584817222
30
0
41
1
10
8.05292872221145
20
1.91710297035095
30
0
41
1
10
8.05292798547848
20
1.91713387607824
30
0
41
1
10
8.05292792831926
20
1.91713255952906
30
0
41
1
10
8.05292791051854
20
1.91713155952847
30
0
0
SPLINE
5
C3
100
AcDbEntity
8
1
62
256
6
ByLayer
370
18
48
1
60
0
100
AcDbSpline
70
4
71
3
72
8
73
4
40
0
40
0
40
0
40
0
40
1
40
1
40
1
40
1
41
1
10
29.9900080554077
20
0.0954229743568646
30
0
41
1
10
29.9906133306554
20
0.0777487155141046
30
0
41
1
10
29.994443814167
20
0.0554520134308234
30
0
41
1
10
29.9999496003364
20
0.0321436182965442
30
0
0
SPLINE
5
C4
100
AcDbEntity
8
1
62
256
6
ByLayer
370
18
48
1
60
0
100
AcDbSpline
70
4
71
3
72
62
73
58
40
0
40
0
40
0
40
0
40
0.0289137820865614
40
0.0289137820865614
40
0.0682792725906077
40
0.0682792725906077
40
0.107644763094654
40
0.107644763094654
40
0.1470102535987
40
0.1470102535987
40
0.166692998850724
40
0.166692998850724
40
0.186375744102747
40
0.186375744102747
40
0.225741234606792
40
0.225741234606792
40
0.245423979858815
40
0.245423979858815
40
0.265106725110838
40
0.265106725110838
40
0.304472215614883
40
0.304472215614883
40
0.343837706118928
40
0.343837706118928
40
0.383203196622973
40
0.383203196622973
40
0.422568687127019
40
0.422568687127019
40
0.461934177631063
40
0.461934177631063
40
0.501299668135109
40
0.501299668135109
40
0.540665158639154
40
0.540665158639154
40
0.580030649143199
40
0.580030649143199
40
0.619396139647244
40
0.619396139647244
40
0.658761630151289
40
0.658761630151289
40
0.698127120655334
40
0.698127120655334
40
0.737492611159379
40
0.737492611159379
40
0.776858101663424
40
0.776858101663424
40
0.816223592167469
40
0.816223592167469
40
0.855589082671514
40
0.855589082671514
40
0.894954573175559
40
0.894954573175559
40
0.934320063679604
40
0.934320063679604
40
0.97368555418365
40
0.97368555418365
40
1
40
1
40
1
40
1
41
1
10
25.7785477279716
20
-1.40743149305206
30
0
41
1
10
25.6464700057301
20
-1.45061121563811
30
0
41
1
10
25.5145094007094
20
-1.49110635764436
30
0
41
1
10
25.2024831252185
20
-1.5790340011059
30
0
41
1
10
25.0222287890283
20
-1.6237220956464
30
0
41
1
10
24.6616654756891
20
-1.69998069782002
30
0
41
1
10
24.4815850504016
20
-1.73243088283013
30
0
41
1
10
24.1218511370011
20
-1.78371635589818
30
0
41
1
10
23.9421262591535
20
-1.80297505365061
30
0
41
1
10
23.6715168389091
20
-1.82004736864576
30
0
41
1
10
23.5810647033695
20
-1.82351669811933
30
0
41
1
10
23.4006379289171
20
-1.82789704786597
30
0
41
1
10
23.3106632902168
20
-1.82865231678994
30
0
41
1
10
23.0404708017932
20
-1.82604785877376
30
0
41
1
10
22.8604174641122
20
-1.81789683607073
30
0
41
1
10
22.5902594146664
20
-1.79478290578064
30
0
41
1
10
22.5001691446268
20
-1.78523786462807
30
0
41
1
10
22.3195447318414
20
-1.76185573824668
30
0
41
1
10
22.2290707217643
20
-1.74796684536582
30
0
41
1
10
21.9581276846658
20
-1.70327795043218
30
0
41
1
10
21.7780973014733
20
-1.66767091875693
30
0
41
1
10
21.4175436923508
20
-1.58431139426918
30
0
41
1
10
21.2371934867706
20
-1.53670107969194
30
0
41
1
10
20.8756010742632
20
-1.42818037741893
30
0
41
1
10
20.6951803233256
20
-1.36810762537215
30
0
41
1
10
20.3344146957609
20
-1.23904265098145
30
0
41
1
10
20.1543588496295
20
-1.16882365590055
30
0
41
1
10
19.7931801806563
20
-1.02176199646337
30
0
41
1
10
19.6122635895077
20
-0.944109681169635
30
0
41
1
10
19.2517406137561
20
-0.781802328832327
30
0
41
1
10
19.071553938263
20
-0.697441418522516
30
0
41
1
10
18.7107804538682
20
-0.524127858565151
30
0
41
1
10
18.5302800091877
20
-0.434583414379773
30
0
41
1
10
18.1690572182314
20
-0.253989006356249
30
0
41
1
10
17.9889911053079
20
-0.16230936888698
30
0
41
1
10
17.6286943620687
20
0.0213382763478194
30
0
41
1
10
17.4482867352401
20
0.112929656484994
30
0
41
1
10
17.0871432635793
20
0.295982714562427
30
0
41
1
10
16.9067707423069
20
0.38718996288361
30
0
41
1
10
16.546435458402
20
0.564538437477893
30
0
41
1
10
16.3664179979894
20
0.650483562467059
30
0
41
1
10
16.0058171819943
20
0.818298398444227
30
0
41
1
10
15.8247547893197
20
0.899674944935214
30
0
41
1
10
15.4646485088245
20
1.0563148566599
30
0
41
1
10
15.2847024526926
20
1.13041700931447
30
0
41
1
10
14.9244122905298
20
1.26717692781895
30
0
41
1
10
14.7442023655087
20
1.33197359225514
30
0
41
1
10
14.382927799953
20
1.44992252724177
30
0
41
1
10
14.2025625191618
20
1.50377263692337
30
0
41
1
10
13.842636234164
20
1.60125772066863
30
0
41
1
10
13.6624804266103
20
1.64418197352876
30
0
41
1
10
13.3015011008417
20
1.71574099660853
30
0
41
1
10
13.1207609228236
20
1.74374365238896
30
0
41
1
10
12.7599500089165
20
1.78825134462062
30
0
41
1
10
12.5797850141508
20
1.80466627282718
30
0
41
1
10
12.2790095289161
20
1.8204092781306
30
0
41
1
10
12.1581079380963
20
1.82338951900127
30
0
41
1
10
12.0373154899001
20
1.82310787372833
30
0
0
SPLINE
5
C5
100
AcDbEntity
8
1
62
256
6
ByLayer
370
18
48
1
60
0
100
AcDbSpline
70
4
71
3
72
72
73
68
40
0
40
0
40
0
40
0
40
0.0133424438400947
40
0.0133424438400947
40
0.034896995632154
40
0.034896995632154
40
0.0780060992162727
40
0.0780060992162727
40
0.0995606510083321
40
0.0995606510083321
40
0.121115202800391
40
0.121115202800391
40
0.16422430638451
40
0.16422430638451
40
0.18577885817657
40
0.18577885817657
40
0.207333409968629
40
0.207333409968629
40
0.250442513552746
40
0.250442513552746
40
0.293551617136864
40
0.293551617136864
40
0.315106168928923
40
0.315106168928923
40
0.336660720720982
40
0.336660720720982
40
0.379769824305099
40
0.379769824305099
40
0.422878927889217
40
0.422878927889217
40
0.465988031473334
40
0.465988031473334
40
0.509097135057452
40
0.509097135057452
40
0.552206238641569
40
0.552206238641569
40
0.573760790433629
40
0.573760790433629
40
0.595315342225688
40
0.595315342225688
40
0.638424445809805
40
0.638424445809805
40
0.659978997601865
40
0.659978997601865
40
0.681533549393924
40
0.681533549393924
40
0.724642652978043
40
0.724642652978043
40
0.746197204770102
40
0.746197204770102
40
0.767751756562162
40
0.767751756562162
40
0.810860860146279
40
0.810860860146279
40
0.853969963730396
40
0.853969963730396
40
0.875524515522456
40
0.875524515522456
40
0.897079067314516
40
0.897079067314516
40
0.940188170898639
40
0.940188170898639
40
0.961742722690701
40
0.961742722690701
40
0.983297274482763
40
0.983297274482763
40
1
40
1
40
1
40
1
41
1
10
14.5546631789385
20
1.41163855688831
30
0
41
1
10
14.6165944967417
20
1.43409772167155
30
0
41
1
10
14.6785258794771
20
1.45591352125487
30
0
41
1
10
14.840362939833
20
1.51146847237359
30
0
41
1
10
14.9402050209019
20
1.54423271253617
30
0
41
1
10
15.2401745254547
20
1.63689470605848
30
0
41
1
10
15.4413311553746
20
1.69080943610348
30
0
41
1
10
15.7411545190688
20
1.76000107345442
30
0
41
1
10
15.8408142694929
20
1.78115900823499
30
0
41
1
10
16.040671727549
20
1.81888836862149
30
0
41
1
10
16.1407680832918
20
1.8355614888446
30
0
41
1
10
16.4410459287814
20
1.87933271307867
30
0
41
1
10
16.6412959096244
20
1.90012234868331
30
0
41
1
10
16.9415232807685
20
1.91744230675155
30
0
41
1
10
17.0416182225279
20
1.920977314038
30
0
41
1
10
17.241493737328
20
1.9236029568861
30
0
41
1
10
17.3411284272405
20
1.92265903878606
30
0
41
1
10
17.6409400515923
20
1.91306111691588
30
0
41
1
10
17.842024038561
20
1.89774839660527
30
0
41
1
10
18.2418268423141
20
1.84920785033299
30
0
41
1
10
18.4416458323761
20
1.81632624584677
30
0
41
1
10
18.741685088959
20
1.75456774775716
30
0
41
1
10
18.8414793259292
20
1.73168638849069
30
0
41
1
10
19.0415616810516
20
1.68197720955058
30
0
41
1
10
19.1419132083808
20
1.65519654016509
30
0
41
1
10
19.4424592576392
20
1.56952668202789
30
0
41
1
10
19.6418230214444
20
1.50435740372143
30
0
41
1
10
20.0414837655206
20
1.3611087038195
30
0
41
1
10
20.2422764241248
20
1.28315572988552
30
0
41
1
10
20.642110648768
20
1.1139945199194
30
0
41
1
10
20.8423164554097
20
1.02522890431629
30
0
41
1
10
21.2417422761824
20
0.837054625880029
30
0
41
1
10
21.4416836514443
20
0.738177146712218
30
0
41
1
10
21.8427381469881
20
0.535725051670852
30
0
41
1
10
22.0419722712921
20
0.430520546542226
30
0
41
1
10
22.3417848711424
20
0.272013378146681
30
0
41
1
10
22.4418567020157
20
0.219022286924997
30
0
41
1
10
22.64181550441
20
0.111880313100585
30
0
41
1
10
22.7417764340355
20
0.0578041755978802
30
0
41
1
10
23.0421919305043
20
-0.1043060473163
30
0
41
1
10
23.2424852870238
20
-0.210817813080951
30
0
41
1
10
23.5418539752008
20
-0.37031119700913
30
0
41
1
10
23.6414936442803
20
-0.423367772752897
30
0
41
1
10
23.8414036475616
20
-0.52756795932288
30
0
41
1
10
23.9415879858476
20
-0.578873714724182
30
0
41
1
10
24.2422350423678
20
-0.731476039566019
30
0
41
1
10
24.4417913386075
20
-0.831043437728255
30
0
41
1
10
24.7416236573502
20
-0.972222829862091
30
0
41
1
10
24.8416348480557
20
-1.0180663570876
30
0
41
1
10
25.0414395610808
20
-1.10786202016163
30
0
41
1
10
25.1411184750461
20
-1.15197234811487
30
0
41
1
10
25.4413213389597
20
-1.27911852116603
30
0
41
1
10
25.6419353377034
20
-1.35769347997498
30
0
41
1
10
26.0410595427219
20
-1.50260783468946
30
0
41
1
10
26.2408616381355
20
-1.56786397076948
30
0
41
1
10
26.5411333775437
20
-1.65480563326469
30
0
41
1
10
26.6411506113714
20
-1.68222368325618
30
0
41
1
10
26.8411111583244
20
-1.73261179530252
30
0
41
1
10
26.9411138546033
20
-1.7556367032621
30
0
41
1
10
27.2410810306971
20
-1.8184498106724
30
0
41
1
10
27.440271612864
20
-1.85239163793412
30
0
41
1
10
27.7402458014103
20
-1.88984040796078
30
0
41
1
10
27.8405727974879
20
-1.9001020514728
30
0
41
1
10
28.0409757180834
20
-1.91620366759994
30
0
41
1
10
28.1408454912612
20
-1.92206928149963
30
0
41
1
10
28.3179919552557
20
-1.92843302994282
30
0
41
1
10
28.3954220346787
20
-1.9298543961377
30
0
41
1
10
28.4728969408579
20
-1.92991943590408
30
0
0
SPLINE
5
C6
100
AcDbEntity
8
1
62
256
6
ByLayer
370
13
48
1
60
0
100
AcDbSpline
70
4
71
3
72
12
73
8
40
0
40
0
40
0
40
0
40
0.449405994660874
40
0.449405994660874
40
0.898811989321748
40
0.898811989321748
40
1
40
1
40
1
40
1
41
1
10
8.2502712878987
20
1.66487290328496
30
0
41
1
10
8.25027491877108
20
1.71133928191171
30
0
41
1
10
8.25027188595971
20
1.74755028120936
30
0
41
1
10
8.2502578387338
20
1.79951955916445
30
0
41
1
10
8.25024698849239
20
1.81469496558375
30
0
41
1
10
8.25023254076038
20
1.820446296743
30
0
41
1
10
8.25022983500438
20
1.82097126808154
30
0
41
1
10
8.25022710753643
20
1.82096046113165
30
0
0
SPLINE
5
C7
100
AcDbEntity
8
1
62
256
6
ByLayer
370
18
48
1
60
0
100
AcDbSpline
70
4
71
3
72
30
73
26
40
0
40
0
40
0
40
0
40
0.250000000000011
40
0.250000000000011
40
0.375000000000016
40
0.375000000000016
40
0.500000000000022
40
0.500000000000022
40
0.625000000000027
40
0.625000000000027
40
0.750000000000033
40
0.750000000000033
40
0.812500000000035
40
0.812500000000035
40
0.828125000000033
40
0.828125000000033
40
0.84375000000003
40
0.84375000000003
40
0.851562500000029
40
0.851562500000029
40
0.859375000000028
40
0.859375000000028
40
0.875000000000025
40
0.875000000000025
40
1
40
1
40
1
40
1
41
1
10
27.5414361874231
20
0.688500058817937
30
0
41
1
10
27.6865093135173
20
0.563968575651529
30
0
41
1
10
27.8386054440604
20
0.455472970524852
30
0
41
1
10
28.0777132618963
20
0.317763194364403
30
0
41
1
10
28.1589973375086
20
0.2764593178849
30
0
41
1
10
28.3216913384542
20
0.205909142762408
30
0
41
1
10
28.403510576504
20
0.176050592285634
30
0
41
1
10
28.5681650140472
20
0.127986509016324
30
0
41
1
10
28.6513770893858
20
0.109681468730599
30
0
41
1
10
28.8173042560589
20
0.0876234980893571
30
0
41
1
10
28.8992506142682
20
0.0839415075970464
30
0
41
1
10
29.0203552767931
20
0.091526609080006
30
0
41
1
10
29.0603852640282
20
0.0962559737498339
30
0
41
1
10
29.1095523615816
20
0.105110464391601
30
0
41
1
10
29.1193502614053
20
0.10702967835428
30
0
41
1
10
29.1388416242875
20
0.111162571955788
30
0
41
1
10
29.1492450442295
20
0.112597160461348
30
0
41
1
10
29.1604668503708
20
0.12306325487728
30
0
41
1
10
29.1628077994862
20
0.128253982199681
30
0
41
1
10
29.1653024553574
20
0.139782790399295
30
0
41
1
10
29.1665207245031
20
0.145561957714563
30
0
41
1
10
29.1701443556514
20
0.162915298663762
30
0
41
1
10
29.1724013088072
20
0.174569470624561
30
0
41
1
10
29.1913118332364
20
0.280014226606852
30
0
41
1
10
29.1982596397623
20
0.378276150042581
30
0
41
1
10
29.1983541812311
20
0.476945962621699
30
0
0
SPLINE
5
C8
100
AcDbEntity
8
1
62
256
6
ByLayer
370
18
48
1
60
0
100
AcDbSpline
70
4
71
3
72
10
73
6
40
0
40
0
40
0
40
0
40
0.5
40
0.5
40
1
40
1
40
1
40
1
41
1
10
8.05309091783019
20
-0.816807421542734
30
0
41
1
10
8.07793278165639
20
-0.81012995799037
30
0
41
1
10
8.10975387813488
20
-0.810749600210727
30
0
41
1
10
8.17812316615263
20
-0.824934940326244
30
0
41
1
10
8.21446713463493
20
-0.838284869114602
30
0
41
1
10
8.25030963107656
20
-0.856278728624062
30
0
0
SPLINE
5
C9
100
AcDbEntity
8
1
62
256
6
ByLayer
370
18
48
1
60
0
100
AcDbSpline
70
4
71
3
72
8
73
4
40
0
40
0
40
0
40
0
40
1
40
1
40
1
40
1
41
1
10
29.9662680922718
20
0.529393164962784
30
0
41
1
10
29.9771497573349
20
0.384512250185509
30
0
41
1
10
29.9850617940502
20
0.239855616982737
30
0
41
1
10
29.9900080554077
20
0.0954229743568646
30
0
0
SPLINE
5
CA
100
AcDbEntity
8
1
62
256
6
ByLayer
370
18
48
1
60
0
100
AcDbSpline
70
4
71
3
72
12
73
8
40
0
40
0
40
0
40
0
40
0.25
40
0.25
40
0.5
40
0.5
40
1
40
1
40
1
40
1
41
1
10
8.25030963148652
20
-0.856278728830006
30
0
41
1
10
8.41339062996872
20
-0.938149604644025
30
0
41
1
10
8.57700132884202
20
-1.01510927994374
30
0
41
1
10
8.90573127713935
20
-1.15956701837789
30
0
41
1
10
9.07105448433515
20
-1.22721223017831
30
0
41
1
10
9.56735644523096
20
-1.41430179531099
30
0
41
1
10
9.8993923928212
20
-1.51591293092807
30
0
41
1
10
10.2376014315554
20
-1.59461476172652
30
0
0
SPLINE
5
CB
100
AcDbEntity
8
1
62
256
6
ByLayer
370
18
48
1
60
0
100
AcDbSpline
70
4
71
3
72
38
73
34
40
0
40
0
40
0
40
0
40
0.0572065578167529
40
0.0572065578167529
40
0.114413115633506
40
0.114413115633506
40
0.228826231267014
40
0.228826231267014
40
0.257429510175392
40
0.257429510175392
40
0.28603278908377
40
0.28603278908377
40
0.343239346900524
40
0.343239346900524
40
0.457652462534034
40
0.457652462534034
40
0.486255741442412
40
0.486255741442412
40
0.514859020350789
40
0.514859020350789
40
0.572065578167544
40
0.572065578167544
40
0.686478693801054
40
0.686478693801054
40
0.743685251617809
40
0.743685251617809
40
0.800891809434564
40
0.800891809434564
40
0.915304925068074
40
0.915304925068074
40
0.972511482884829
40
0.972511482884829
40
1
40
1
40
1
40
1
41
1
10
29.3349787881481
20
-1.92412873425462
30
0
41
1
10
29.1132970159216
20
-1.93367661251398
30
0
41
1
10
28.8915007006894
20
-1.93203143124697
30
0
41
1
10
28.4480284665115
20
-1.90667225045684
30
0
41
1
10
28.2277658190036
20
-1.88307525352968
30
0
41
1
10
27.5691255292127
20
-1.78138758533871
30
0
41
1
10
27.1330073671694
20
-1.67218808251434
30
0
41
1
10
26.5829689252136
20
-1.49099230389794
30
0
41
1
10
26.4727351309884
20
-1.45250314736054
30
0
41
1
10
26.2515772387407
20
-1.37124277276479
30
0
41
1
10
26.1404038872961
20
-1.32836832851518
30
0
41
1
10
25.8083386903658
20
-1.19478970243972
30
0
41
1
10
25.588384779848
20
-1.09897024938232
30
0
41
1
10
24.9301484280685
20
-0.795751149159884
30
0
41
1
10
24.4937811554394
20
-0.572085440498654
30
0
41
1
10
23.9429453872973
20
-0.28037380166333
30
0
41
1
10
23.8325171485014
20
-0.221412670448018
30
0
41
1
10
23.610930385722
20
-0.102620115333622
30
0
41
1
10
23.4998141356006
20
-0.0427600110869548
30
0
41
1
10
23.1683219066159
20
0.135852591563207
30
0
41
1
10
22.9485859683668
20
0.253944371811542
30
0
41
1
10
22.2907073881739
20
0.600857214681895
30
0
41
1
10
21.8543626418501
20
0.823143783760798
30
0
41
1
10
21.192668100001
20
1.12408818373373
30
0
41
1
10
20.9699670312035
20
1.21943225632614
30
0
41
1
10
20.5282473878094
20
1.39365829251128
30
0
41
1
10
20.3086625707461
20
1.47283606002978
30
0
41
1
10
19.6511509164087
20
1.68384182808711
30
0
41
1
10
19.2141787076191
20
1.78891046379482
30
0
41
1
10
18.551884052418
20
1.88448458897466
30
0
41
1
10
18.3291399123319
20
1.90586495250665
30
0
41
1
10
18.0024037500949
20
1.9209796224942
30
0
41
1
10
17.8966396720162
20
1.92335216828945
30
0
41
1
10
17.7910584906762
20
1.92321566513536
30
0
0
SPLINE
5
CC
100
AcDbEntity
8
1
62
256
6
ByLayer
370
18
48
1
60
0
100
AcDbSpline
70
4
71
3
72
8
73
4
40
0
40
0
40
0
40
0
40
1
40
1
40
1
40
1
41
1
10
29.9999496003364
20
0.0321436182965442
30
0
41
1
10
29.9949106404538
20
0.014557508852846
30
0
41
1
10
29.9871849410455
20
-0.0039461489846815
30
0
41
1
10
29.9790638230958
20
-0.0172619409567574
30
0
0
SPLINE
5
CD
100
AcDbEntity
8
1
62
256
6
ByLayer
370
18
48
1
60
0
100
AcDbSpline
70
4
71
3
72
8
73
4
40
0
40
0
40
0
40
0
40
1
40
1
40
1
40
1
41
1
10
29.9790638230958
20
-0.0172619409567858
30
0
41
1
10
29.7005196559304
20
-0.473976916404155
30
0
41
1
10
29.4395254276666
20
-0.946665950857152
30
0
41
1
10
29.1967005826152
20
-1.43589286622011
30
0
0
SPLINE
5
CE
100
AcDbEntity
8
1
62
256
6
ByLayer
370
18
48
1
60
0
100
AcDbSpline
70
4
71
3
72
10
73
6
40
0
40
0
40
0
40
0
40
0.5
40
0.5
40
1
40
1
40
1
40
1
41
1
10
29.4406416306696
20
-1.86065691121374
30
0
41
1
10
29.5231388279851
20
-1.63519041891561
30
0
41
1
10
29.6085315713737
20
-1.41194904240388
30
0
41
1
10
29.7841219153091
20
-0.968601512610348
30
0
41
1
10
29.8742852651757
20
-0.748478886237081
30
0
41
1
10
29.9662680922727
20
-0.529393164960567
30
0
0
SPLINE
5
CF
100
AcDbEntity
8
1
62
256
6
ByLayer
370
18
48
1
60
0
100
AcDbSpline
70
4
71
3
72
8
73
4
40
0
40
0
40
0
40
0
40
1
40
1
40
1
40
1
41
1
10
29.4406416306696
20
1.86065691121377
30
0
41
1
10
29.401856701082
20
1.89260738696302
30
0
41
1
10
29.3666657496403
20
1.9141357180755
30
0
41
1
10
29.3349787881481
20
1.92412873425334
30
0
0
SPLINE
5
D0
100
AcDbEntity
8
1
62
256
6
ByLayer
370
18
48
1
60
0
100
AcDbSpline
70
4
71
3
72
12
73
8
40
0
40
0
40
0
40
0
40
0.25
40
0.25
40
0.5
40
0.5
40
1
40
1
40
1
40
1
41
1
10
29.1983541812311
20
0.476945962621699
30
0
41
1
10
29.1983636924136
20
0.486872470013225
30
0
41
1
10
29.201159629854
20
0.496770463971217
30
0
41
1
10
29.2120378243419
20
0.513805445599218
30
0
41
1
10
29.2200957047148
20
0.520921189930533
30
0
41
1
10
29.2470223342315
20
0.536396240884102
30
0
41
1
10
29.2681390827048
20
0.539767774189414
30
0
41
1
10
29.2888066044154
20
0.539300288659547
30
0
0
SPLINE
5
D1
100
AcDbEntity
8
1
62
256
6
ByLayer
370
18
48
1
60
0
100
AcDbSpline
70
4
71
3
72
14
73
10
40
0
40
0
40
0
40
0
40
0.25
40
0.25
40
0.5
40
0.5
40
0.75
40
0.75
40
1
40
1
40
1
40
1
41
1
10
29.3429372999456
20
-1.83340499891963
30
0
41
1
10
29.3461880225792
20
-1.8330797481637
30
0
41
1
10
29.3488464742952
20
-1.83431012355811
30
0
41
1
10
29.3525904422748
20
-1.8408542081342
30
0
41
1
10
29.3536373845657
20
-1.84621351154266
30
0
41
1
10
29.3529926144529
20
-1.8622818644136
30
0
41
1
10
29.3512169410982
20
-1.87298315067744
30
0
41
1
10
29.344780552895
20
-1.89744822496414
30
0
41
1
10
29.340141538684
20
-1.91112102622301
30
0
41
1
10
29.3349787881481
20
-1.92412873425337
30
0
0
SPLINE
5
D2
100
AcDbEntity
8
1
62
256
6
ByLayer
370
18
48
1
60
0
100
AcDbSpline
70
4
71
3
72
16
73
12
40
0
40
0
40
0
40
0
40
0.216942676709955
40
0.216942676709955
40
0.353126725886482
40
0.353126725886482
40
0.48931077506301
40
0.48931077506301
40
0.761678873416065
40
0.761678873416065
40
1
40
1
40
1
40
1
41
1
10
18.008308426533
20
-1.82680068938797
30
0
41
1
10
17.8333376909583
20
-1.826744089497
30
0
41
1
10
17.6584208747076
20
-1.82015249998062
30
0
41
1
10
17.3731779129064
20
-1.79880118021626
30
0
41
1
10
17.2630329816269
20
-1.78801236045388
30
0
41
1
10
17.0422691838983
20
-1.76133249386649
30
0
41
1
10
16.9314276142973
20
-1.74540204929843
30
0
41
1
10
16.5998883702118
20
-1.69027593480752
30
0
41
1
10
16.3802675144245
20
-1.64375625636254
30
0
41
1
10
15.9695708930352
20
-1.54020937437775
30
0
41
1
10
15.7783215934009
20
-1.48524999388653
30
0
41
1
10
15.5870099608204
20
-1.42420742711215
30
0
0
SPLINE
5
D3
100
AcDbEntity
8
1
62
256
6
ByLayer
370
13
48
1
60
0
100
AcDbSpline
70
4
71
3
72
24
73
20
40
0
40
0
40
0
40
0
40
0.12416566682033
40
0.12416566682033
40
0.179350234829236
40
0.179350234829236
40
0.234534802838141
40
0.234534802838141
40
0.344903938855952
40
0.344903938855952
40
0.56564221089157
40
0.56564221089157
40
0.620826778900475
40
0.620826778900475
40
0.67601134690938
40
0.67601134690938
40
0.786380482927191
40
0.786380482927191
40
1
40
1
40
1
40
1
41
1
10
15.5870099608285
20
-1.42420742711477
30
0
41
1
10
15.3410361013002
20
-1.34572356524794
30
0
41
1
10
15.0949592001209
20
-1.25718368006866
30
0
41
1
10
14.7379201675878
20
-1.11646959225294
30
0
41
1
10
14.6278279910995
20
-1.07143992056649
30
0
41
1
10
14.4069731554353
20
-0.978218807415345
30
0
41
1
10
14.2960581927718
20
-0.929948929269074
30
0
41
1
10
13.9648865494828
20
-0.78208830846026
30
0
41
1
10
13.7453678806845
20
-0.67912513419347
30
0
41
1
10
13.0883797673373
20
-0.361280975946641
30
0
41
1
10
12.6525018742572
20
-0.137361376997774
30
0
41
1
10
12.1025943299035
20
0.14222503127516
30
0
41
1
10
11.9923530656866
20
0.198119606995192
30
0
41
1
10
11.7711904852692
20
0.309535943099689
30
0
41
1
10
11.6603491096894
20
0.365048260373925
30
0
41
1
10
11.3294708958277
20
0.529030101102478
30
0
41
1
10
11.1100742109729
20
0.635338774131554
30
0
41
1
10
10.4672574803308
20
0.934313990984236
30
0
41
1
10
10.0451868387513
20
1.11517070248954
30
0
41
1
10
9.61928921022979
20
1.27029765120798
30
0
0
SPLINE
5
D4
100
AcDbEntity
8
1
62
256
6
ByLayer
370
18
48
1
60
0
100
AcDbSpline
70
4
71
3
72
38
73
34
40
0
40
0
40
0
40
0
40
0.0859252333933212
40
0.0859252333933212
40
0.171850466786643
40
0.171850466786643
40
0.257775700179964
40
0.257775700179964
40
0.343700933573285
40
0.343700933573285
40
0.429626166966606
40
0.429626166966606
40
0.515551400359927
40
0.515551400359927
40
0.558514017056587
40
0.558514017056587
40
0.601476633753246
40
0.601476633753246
40
0.644439250449906
40
0.644439250449906
40
0.687401867146565
40
0.687401867146565
40
0.773327100539884
40
0.773327100539884
40
0.816289717236544
40
0.816289717236544
40
0.859252333933203
40
0.859252333933203
40
0.945177567326522
40
0.945177567326522
40
0.988140184023181
40
0.988140184023181
40
1
40
1
40
1
40
1
41
1
10
10.237601431556
20
0.712475137062768
30
0
41
1
10
10.4376395794272
20
0.611690061657953
30
0
41
1
10
10.6379319343619
20
0.50946549814347
30
0
41
1
10
11.0381817543798
20
0.300808208317221
30
0
41
1
10
11.2375297990298
20
0.193203667251623
30
0
41
1
10
11.6389046639398
20
-0.0206946208589613
30
0
41
1
10
11.8388894611594
20
-0.128800245452709
30
0
41
1
10
12.2386599217035
20
-0.341691881455432
30
0
41
1
10
12.4389975553028
20
-0.446007154695764
30
0
41
1
10
12.8390130178401
20
-0.65319000197394
30
0
41
1
10
13.0399649172351
20
-0.752736032959604
30
0
41
1
10
13.4397224504659
20
-0.945358882822262
30
0
41
1
10
13.6392322038081
20
-1.03795594762386
30
0
41
1
10
13.939915273922
20
-1.1681648986206
30
0
41
1
10
14.0403904696369
20
-1.21032267169028
30
0
41
1
10
14.2404079350643
20
-1.29237032416623
30
0
41
1
10
14.3403067348787
20
-1.33181771941111
30
0
41
1
10
14.5403376944604
20
-1.40702517781909
30
0
41
1
10
14.6404417009914
20
-1.44284009623394
30
0
41
1
10
14.840362939833
20
-1.51146847237359
30
0
41
1
10
14.9402050209019
20
-1.54423271253617
30
0
41
1
10
15.2401745254547
20
-1.63689470605848
30
0
41
1
10
15.4413311553746
20
-1.69080943610348
30
0
41
1
10
15.7411545190688
20
-1.76000107345442
30
0
41
1
10
15.8408142694928
20
-1.78115900823499
30
0
41
1
10
16.040671727549
20
-1.81888836862149
30
0
41
1
10
16.1407680832918
20
-1.8355614888446
30
0
41
1
10
16.4410459287814
20
-1.87933271307867
30
0
41
1
10
16.6412959096244
20
-1.90012234868331
30
0
41
1
10
16.9415232807685
20
-1.91744230675155
30
0
41
1
10
17.0416182225279
20
-1.920977314038
30
0
41
1
10
17.1691437644493
20
-1.92265253937728
30
0
41
1
10
17.1967084541923
20
-1.92284297202741
30
0
41
1
10
17.2242627882138
20
-1.92286146181794
30
0
0
SPLINE
5
D5
100
AcDbEntity
8
1
62
256
6
ByLayer
370
18
48
1
60
0
100
AcDbSpline
70
4
71
3
72
24
73
20
40
0
40
0
40
0
40
0
40
0.0116115713502497
40
0.0116115713502497
40
0.176342976125208
40
0.176342976125208
40
0.258708678512692
40
0.258708678512692
40
0.341074380900175
40
0.341074380900175
40
0.505805785675134
40
0.505805785675134
40
0.588171488062609
40
0.588171488062609
40
0.670537190450084
40
0.670537190450084
40
0.835268595225042
40
0.835268595225042
40
1
40
1
40
1
40
1
41
1
10
25.7992821544765
20
1.41473737936715
30
0
41
1
10
25.8133587854027
20
1.41990555182315
30
0
41
1
10
25.8274307260042
20
1.42504330281244
30
0
41
1
10
26.0410595427218
20
1.50260783468943
30
0
41
1
10
26.2408616381355
20
1.56786397076945
30
0
41
1
10
26.5411333775436
20
1.65480563326466
30
0
41
1
10
26.6411506113713
20
1.68222368325618
30
0
41
1
10
26.8411111583244
20
1.73261179530249
30
0
41
1
10
26.9411138546033
20
1.7556367032621
30
0
41
1
10
27.241081030697
20
1.8184498106724
30
0
41
1
10
27.4402716128639
20
1.85239163793412
30
0
41
1
10
27.7402458014102
20
1.88984040796075
30
0
41
1
10
27.8405727974879
20
1.9001020514728
30
0
41
1
10
28.0409757180834
20
1.91620366759994
30
0
41
1
10
28.1408454912611
20
1.92206928149963
30
0
41
1
10
28.4402640255767
20
1.93282548960366
30
0
41
1
10
28.6404745293784
20
1.93095695759277
30
0
41
1
10
29.0405456284838
20
1.90916367652872
30
0
41
1
10
29.2406271438905
20
1.88914118564955
30
0
41
1
10
29.4406416306695
20
1.86065691121374
30
0
0
SPLINE
5
D6
100
AcDbEntity
8
1
62
256
6
ByLayer
370
13
48
1
60
0
100
AcDbSpline
70
4
71
3
72
22
73
18
40
0
40
0
40
0
40
0
40
0.0479520176037689
40
0.0479520176037689
40
0.134501834185245
40
0.134501834185245
40
0.307601467348196
40
0.307601467348196
40
0.480701100511147
40
0.480701100511147
40
0.567250917092622
40
0.567250917092622
40
0.653800733674098
40
0.653800733674098
40
0.826900366837049
40
0.826900366837049
40
1
40
1
40
1
40
1
41
1
10
8.25022718672386
20
-1.82096062435582
30
0
41
1
10
8.25022383156696
20
-1.82096008767022
30
0
41
1
10
8.25022044312198
20
-1.82014859627219
30
0
41
1
10
8.25021099608989
20
-1.81557805391429
30
0
41
1
10
8.25020495417206
20
-1.80992075610683
30
0
41
1
10
8.25018819446876
20
-1.78503083527136
30
0
41
1
10
8.25017889189607
20
-1.75812722955686
30
0
41
1
10
8.2501675772601
20
-1.68424180620096
30
0
41
1
10
8.2501656068346
20
-1.63669184717057
30
0
41
1
10
8.25016993139559
20
-1.55163803616674
30
0
41
1
10
8.25017255325406
20
-1.52103013077553
30
0
41
1
10
8.25018022369335
20
-1.45530121985712
30
0
41
1
10
8.25018530554067
20
-1.41999506807119
30
0
41
1
10
8.25020391730459
20
-1.30869197607251
30
0
41
1
10
8.25022075927336
20
-1.22757890498366
30
0
41
1
10
8.25026105292716
20
-1.05208061465831
30
0
41
1
10
8.25028460432907
20
-0.957365857028236
30
0
41
1
10
8.25030963107659
20
-0.85627872862409
30
0
0
SPLINE
5
D7
100
AcDbEntity
8
1
62
256
6
ByLayer
370
18
48
1
60
0
100
AcDbSpline
70
4
71
1
72
4
73
2
40
0
40
0
40
1
40
1
41
1
10
18.1094314837324
20
-0.226239825276849
30
0
41
1
10
18.1820227252879
20
-0.260221966754273
30
0
0
SPLINE
5
D8
100
AcDbEntity
8
1
62
256
6
ByLayer
370
18
48
1
60
0
100
AcDbSpline
70
4
71
3
72
8
73
4
40
0
40
0
40
0
40
0
40
1
40
1
40
1
40
1
41
1
10
22.8210450759133
20
0.0150125054615842
30
0
41
1
10
22.8089033763878
20
0.0215615067870942
30
0
41
1
10
22.7967578824671
20
0.0281587825300562
30
0
41
1
10
22.7846086131332
20
0.0348045602727609
30
0
0
SPLINE
5
D9
100
AcDbEntity
8
1
62
256
6
ByLayer
370
18
48
1
60
0
100
AcDbSpline
70
4
71
3
72
17
73
13
40
0
40
0
40
0
40
0
40
0.130915594045569
40
0.217558021620914
40
0.274315000158065
40
0.331709549416112
40
0.519661807048488
40
0.60732956033597
40
0.691461960693886
40
0.766670779465257
40
0.872297098571328
40
1
40
1
40
1
40
1
41
1
10
17.9795797688382
20
-1.82687329645998
30
0
41
1
10
18.2114741029827
20
-1.82681102593051
30
0
41
1
10
18.5968570940514
20
-1.82688037482095
30
0
41
1
10
19.0828170372814
20
-1.82733017185262
30
0
41
1
10
19.4385449986673
20
-1.8278338821392
30
0
41
1
10
19.9737509056045
20
-1.82683325000525
30
0
41
1
10
20.5637181744416
20
-1.82751640898593
30
0
41
1
10
21.2010523890123
20
-1.82878921309972
30
0
41
1
10
21.6386499714312
20
-1.82749602035773
30
0
41
1
10
22.1080628708775
20
-1.82697463197059
30
0
41
1
10
22.6546607157261
20
-1.83054931633825
30
0
41
1
10
23.0680235680778
20
-1.82942983664503
30
0
41
1
10
23.2942605301486
20
-1.82840976619221
30
0
0
SPLINE
5
DA
100
AcDbEntity
8
1
62
256
6
ByLayer
370
18
48
1
60
0
100
AcDbSpline
70
4
71
2
72
6
73
3
40
0
40
0
40
0
40
1
40
1
40
1
41
1
10
29.0203690292063
20
-1.83067545222946
30
0
41
1
10
29.1692076489045
20
-1.8313191379066
30
0
41
1
10
29.3182346132708
20
-1.83192150560763
30
0
0
SPLINE
5
DB
100
AcDbEntity
8
1
62
256
6
ByLayer
370
18
48
1
60
0
100
AcDbSpline
70
4
71
3
72
20
73
16
40
0
40
0
40
0
40
0
40
0.115393455379141
40
0.22016030101476
40
0.290042698257664
40
0.35339045269969
40
0.420317586695258
40
0.488599501800012
40
0.556879311128526
40
0.625173283567802
40
0.693477189899024
40
0.760514673758098
40
0.824003082311163
40
0.896362921553581
40
1
40
1
40
1
40
1
41
1
10
23.2905608215657
20
1.82839458564888
30
0
41
1
10
23.1175284930133
20
1.82888742163527
30
0
41
1
10
22.7873814508839
20
1.82926638790005
30
0
41
1
10
22.3522751324476
20
1.82908313197652
30
0
41
1
10
21.9953849837675
20
1.82701803000614
30
0
41
1
10
21.6952394996019
20
1.8275473622536
30
0
41
1
10
21.3974081338714
20
1.82801392705406
30
0
41
1
10
21.0921904834956
20
1.82876805985163
30
0
41
1
10
20.784919663455
20
1.82789168587183
30
0
41
1
10
20.4776159989708
20
1.82767013015186
30
0
41
1
10
20.1721762798277
20
1.82700625789766
30
0
41
1
10
19.8739446686567
20
1.82704854369294
30
0
41
1
10
19.5696256686124
20
1.82769992642605
30
0
41
1
10
19.2104307452252
20
1.82763007107923
30
0
41
1
10
18.946460958896
20
1.82722131443097
30
0
41
1
10
18.7910253093991
20
1.82705190812479
30
0
0
SPLINE
5
DC
100
AcDbEntity
8
1
62
256
6
ByLayer
370
18
48
1
60
0
100
AcDbSpline
70
4
71
3
72
16
73
12
40
0
40
0
40
0
40
0
40
0.17128133011086
40
0.306531024949793
40
0.39892186616074
40
0.496409571654744
40
0.574446008431889
40
0.648222156413186
40
0.73414540339626
40
0.862404106881135
40
1
40
1
40
1
40
1
41
1
10
12.0393359324188
20
1.82315632412906
30
0
41
1
10
11.8230293011946
20
1.82261005798941
30
0
41
1
10
11.4359167471299
20
1.82179637280663
30
0
41
1
10
10.9319685075286
20
1.82283484066156
30
0
41
1
10
10.521444878238
20
1.82155889861764
30
0
41
1
10
10.1830146488693
20
1.8211977920902
30
0
41
1
10
9.86811995300707
20
1.82155200249355
30
0
41
1
10
9.56782478281113
20
1.821814433242
30
0
41
1
10
9.20410555755996
20
1.82125748198007
30
0
41
1
10
8.75976334213644
20
1.82096882383479
30
0
41
1
10
8.42397752933215
20
1.82084924819776
30
0
41
1
10
8.25019129188252
20
1.82083720683977
30
0
0
SPLINE
5
DD
100
AcDbEntity
8
1
62
256
6
ByLayer
370
18
48
1
60
0
100
AcDbSpline
70
4
71
3
72
16
73
12
40
0
40
0
40
0
40
0
40
0.129290685219594
40
0.249848276007098
40
0.338378149976235
40
0.424737124620606
40
0.509853358813847
40
0.60664792462727
40
0.70311050587952
40
0.84289122863075
40
1
40
1
40
1
40
1
41
1
10
8.25022256658977
20
-1.82084289333457
30
0
41
1
10
8.413565656809
20
-1.82088472374639
30
0
41
1
10
8.72921201945849
20
-1.82104444104661
30
0
41
1
10
9.15675248102667
20
-1.82109006611481
30
0
41
1
10
9.5299346690621
20
-1.82185184318354
30
0
41
1
10
9.85843526262653
20
-1.82156703150753
30
0
41
1
10
10.1973727487831
20
-1.82116647373482
30
0
41
1
10
10.5490740964983
20
-1.82166235009026
30
0
41
1
10
10.9698404945421
20
-1.82287255443723
30
0
41
1
10
11.4667975077581
20
-1.82183639939959
30
0
41
1
10
11.8418897613915
20
-1.82263544357525
30
0
41
1
10
12.0403820669375
20
-1.82314968026577
30
0
0
LINE
5
7B
100
AcDbEntity
8
SK1
62
256
6
ByLayer
370
18
48
1
60
0
100
AcDbLine
10
0
20
-3
30
0
11
0
21
3
31
0
39
0
210
0
220
0
230
1
0
LINE
5
7D
100
AcDbEntity
8
SK1
62
256
6
ByLayer
370
18
48
1
60
0
100
AcDbLine
10
-36
20
2.065
30
0
11
-36
21
-2.065
31
0
39
0
210
0
220
0
230
1
0
LINE
5
7E
100
AcDbEntity
8
SK1
62
256
6
ByLayer
370
18
48
1
60
0
100
AcDbLine
10
-35.065
20
3
30
0
11
-35.065
21
-3
31
0
39
0
210
0
220
0
230
1
0
LINE
5
7F
100
AcDbEntity
8
1
62
256
6
ByLayer
370
18
48
1
60
0
100
AcDbLine
10
0
20
-3
30
0
11
0
21
3
31
0
39
0
210
0
220
0
230
1
0
LINE
5
80
100
AcDbEntity
8
1
62
256
6
ByLayer
370
13
48
1
60
0
100
AcDbLine
10
29.198354
20
0.476946
30
0
11
29.979064
21
-0.017262
31
0
39
0
210
0
220
0
230
1
0
LINE
5
81
100
AcDbEntity
8
1
62
256
6
ByLayer
370
13
48
1
60
0
100
AcDbLine
10
29.288807
20
0.5393
30
0
11
29.990008
21
0.095423
31
0
39
0
210
0
220
0
230
1
0
LINE
5
82
100
AcDbEntity
8
1
62
256
6
ByLayer
370
13
48
1
60
0
100
AcDbLine
10
0.757757
20
2.456524
30
0
11
0.757757
21
-2.456524
31
0
39
0
210
0
220
0
230
1
0
LINE
5
83
100
AcDbEntity
8
1
62
256
6
ByLayer
370
13
48
1
60
0
100
AcDbLine
10
1.516014
20
1.913047
30
0
11
1.516014
21
-1.913047
31
0
39
0
210
0
220
0
230
1
0
LINE
5
84
100
AcDbEntity
8
80
62
256
6
ByLayer
370
18
48
1
60
0
100
AcDbLine
10
0
20
0
30
0
11
-5
21
0
31
0
39
0
210
0
220
0
230
1
0
LINE
5
85
100
AcDbEntity
8
4
62
256
6
ByLayer
370
18
48
0.05
60
0
100
AcDbLine
10
30
20
0
30
0
11
0
21
0
31
0
39
0
210
0
220
0
230
1
0
LINE
5
87
100
AcDbEntity
8
SK4
62
256
6
ByLayer
370
18
48
0.05
60
0
100
AcDbLine
10
35
20
0
30
0
11
-41
21
0
31
0
39
0
210
0
220
0
230
1
0
LINE
5
89
100
AcDbEntity
8
SK1
62
256
6
ByLayer
370
18
48
1
60
0
100
AcDbLine
10
-35.065
20
-3
30
0
11
0
21
-3
31
0
39
0
210
0
220
0
230
1
0
LINE
5
8A
100
AcDbEntity
8
SK1
62
256
6
ByLayer
370
18
48
1
60
0
100
AcDbLine
10
0
20
3
30
0
11
-35.065
21
3
31
0
39
0
210
0
220
0
230
1
0
LINE
5
8B
100
AcDbEntity
8
SK1
62
256
6
ByLayer
370
18
48
1
60
0
100
AcDbLine
10
-36
20
-2.065
30
0
11
-35.065
21
-3
31
0
39
0
210
0
220
0
230
1
0
LINE
5
8C
100
AcDbEntity
8
SK1
62
256
6
ByLayer
370
18
48
1
60
0
100
AcDbLine
10
-35.065
20
3
30
0
11
-36
21
2.065
31
0
39
0
210
0
220
0
230
1
0
LINE
5
8D
100
AcDbEntity
8
1
62
256
6
ByLayer
370
18
48
1
60
0
100
AcDbLine
10
1.516014
20
-1.913047
30
0
11
8.052906
21
-1.917133
31
0
39
0
210
0
220
0
230
1
0
LINE
5
8E
100
AcDbEntity
8
1
62
256
6
ByLayer
370
18
48
1
60
0
100
AcDbLine
10
17.224676
20
-1.922865
30
0
11
17.794423
21
-1.923221
31
0
39
0
210
0
220
0
230
1
0
LINE
5
8F
100
AcDbEntity
8
1
62
256
6
ByLayer
370
18
48
1
60
0
100
AcDbLine
10
28.474409
20
-1.929896
30
0
11
29.045914
21
-1.930253
31
0
39
0
210
0
220
0
230
1
0
LINE
5
90
100
AcDbEntity
8
1
62
256
6
ByLayer
370
18
48
1
60
0
100
AcDbLine
10
29.046065
20
1.930253
30
0
11
28.474409
21
1.929896
31
0
39
0
210
0
220
0
230
1
0
LINE
5
91
100
AcDbEntity
8
1
62
256
6
ByLayer
370
18
48
1
60
0
100
AcDbLine
10
17.795334
20
1.923222
30
0
11
17.224676
21
1.922865
31
0
39
0
210
0
220
0
230
1
0
LINE
5
92
100
AcDbEntity
8
1
62
256
6
ByLayer
370
18
48
1
60
0
100
AcDbLine
10
8.052906
20
1.917133
30
0
11
1.516014
21
1.913047
31
0
39
0
210
0
220
0
230
1
0
LINE
5
93
100
AcDbEntity
8
81
62
256
6
ByLayer
370
18
48
1
60
0
100
AcDbLine
10
30
20
0
30
0
11
35
21
0
31
0
39
0
210
0
220
0
230
1
0
LINE
5
94
100
AcDbEntity
8
SK2
62
256
6
ByLayer
370
13
48
1
60
0
100
AcDbLine
10
-44.625163
20
32.117107
30
0
11
-44.625163
21
-11.75
31
0
39
0
210
0
220
0
230
1
0
LINE
5
96
100
AcDbEntity
8
SK2
62
256
6
ByLayer
370
13
48
1
60
0
100
AcDbLine
10
-37.5875
20
3
30
0
11
-46.625163
21
3
31
0
39
0
210
0
220
0
230
1
0
LINE
5
97
100
AcDbEntity
8
SK2
62
256
6
ByLayer
370
13
48
1
60
0
100
AcDbLine
10
-37.5875
20
-3
30
0
11
-46.625163
21
-3
31
0
39
0
210
0
220
0
230
1
0
LINE
5
98
100
AcDbEntity
8
1
62
256
6
ByLayer
370
18
48
1
60
1
100
AcDbLine
10
-44.625163
20
3
30
0
11
-45.085946
21
6.499998
31
0
39
0
210
0
220
0
230
1
0
LINE
5
99
100
AcDbEntity
8
1
62
256
6
ByLayer
370
18
48
1
60
1
100
AcDbLine
10
-45.085946
20
6.499998
30
0
11
-44.164379
21
6.500002
31
0
39
0
210
0
220
0
230
1
0
LINE
5
9A
100
AcDbEntity
8
1
62
256
6
ByLayer
370
18
48
1
60
1
100
AcDbLine
10
-44.164379
20
6.500002
30
0
11
-44.625163
21
3
31
0
39
0
210
0
220
0
230
1
0
LINE
5
9B
100
AcDbEntity
8
1
62
256
6
ByLayer
370
18
48
1
60
1
100
AcDbLine
10
-44.625163
20
-3
30
0
11
-44.164379
21
-6.499998
31
0
39
0
210
0
220
0
230
1
0
LINE
5
9C
100
AcDbEntity
8
1
62
256
6
ByLayer
370
18
48
1
60
1
100
AcDbLine
10
-44.164379
20
-6.499998
30
0
11
-45.085946
21
-6.500002
31
0
39
0
210
0
220
0
230
1
0
LINE
5
9D
100
AcDbEntity
8
1
62
256
6
ByLayer
370
18
48
1
60
1
100
AcDbLine
10
-45.085946
20
-6.500002
30
0
11
-44.625163
21
-3
31
0
39
0
210
0
220
0
230
1
0
LINE
5
9E
100
AcDbEntity
8
2
62
256
6
ByLayer
370
13
48
1
60
0
100
AcDbLine
10
42.083343
20
28.765827
30
0
11
42.083343
21
-10.6805
31
0
39
0
210
0
220
0
230
1
0
LINE
5
A0
100
AcDbEntity
8
2
62
256
6
ByLayer
370
13
48
1
60
0
100
AcDbLine
10
31.0288
20
1.9305
30
0
11
44.083343
21
1.9305
31
0
39
0
210
0
220
0
230
1
0
LINE
5
A1
100
AcDbEntity
8
2
62
256
6
ByLayer
370
13
48
1
60
0
100
AcDbLine
10
31.0288
20
-1.9305
30
0
11
44.083343
21
-1.9305
31
0
39
0
210
0
220
0
230
1
0
LINE
5
A2
100
AcDbEntity
8
1
62
256
6
ByLayer
370
18
48
1
60
1
100
AcDbLine
10
42.083343
20
1.9305
30
0
11
41.622559
21
5.430498
31
0
39
0
210
0
220
0
230
1
0
LINE
5
A3
100
AcDbEntity
8
1
62
256
6
ByLayer
370
18
48
1
60
1
100
AcDbLine
10
41.622559
20
5.430498
30
0
11
42.544126
21
5.430502
31
0
39
0
210
0
220
0
230
1
0
LINE
5
A4
100
AcDbEntity
8
1
62
256
6
ByLayer
370
18
48
1
60
1
100
AcDbLine
10
42.544126
20
5.430502
30
0
11
42.083343
21
1.9305
31
0
39
0
210
0
220
0
230
1
0
LINE
5
A5
100
AcDbEntity
8
1
62
256
6
ByLayer
370
18
48
1
60
1
100
AcDbLine
10
42.083343
20
-1.9305
30
0
11
42.544126
21
-5.430498
31
0
39
0
210
0
220
0
230
1
0
LINE
5
A6
100
AcDbEntity
8
1
62
256
6
ByLayer
370
18
48
1
60
1
100
AcDbLine
10
42.544126
20
-5.430498
30
0
11
41.622559
21
-5.430502
31
0
39
0
210
0
220
0
230
1
0
LINE
5
A7
100
AcDbEntity
8
1
62
256
6
ByLayer
370
18
48
1
60
1
100
AcDbLine
10
41.622559
20
-5.430502
30
0
11
42.083343
21
-1.9305
31
0
39
0
210
0
220
0
230
1
0
LINE
5
E4
100
AcDbEntity
8
1
62
256
6
ByLayer
370
18
48
1
60
1
100
AcDbLine
10
-44.625163
20
3
30
0
11
-45.085946
21
6.499998
31
0
39
0
210
0
220
0
230
1
0
LINE
5
E5
100
AcDbEntity
8
1
62
256
6
ByLayer
370
18
48
1
60
1
100
AcDbLine
10
-45.085946
20
6.499998
30
0
11
-44.164379
21
6.500002
31
0
39
0
210
0
220
0
230
1
0
LINE
5
E6
100
AcDbEntity
8
1
62
256
6
ByLayer
370
18
48
1
60
1
100
AcDbLine
10
-44.164379
20
6.500002
30
0
11
-44.625163
21
3
31
0
39
0
210
0
220
0
230
1
0
LINE
5
E8
100
AcDbEntity
8
1
62
256
6
ByLayer
370
18
48
1
60
1
100
AcDbLine
10
-44.625163
20
-3
30
0
11
-44.164379
21
-6.499998
31
0
39
0
210
0
220
0
230
1
0
LINE
5
E9
100
AcDbEntity
8
1
62
256
6
ByLayer
370
18
48
1
60
1
100
AcDbLine
10
-44.164379
20
-6.499998
30
0
11
-45.085946
21
-6.500002
31
0
39
0
210
0
220
0
230
1
0
LINE
5
EA
100
AcDbEntity
8
1
62
256
6
ByLayer
370
18
48
1
60
1
100
AcDbLine
10
-45.085946
20
-6.500002
30
0
11
-44.625163
21
-3
31
0
39
0
210
0
220
0
230
1
0
LINE
5
EE
100
AcDbEntity
8
1
62
256
6
ByLayer
370
18
48
1
60
1
100
AcDbLine
10
42.083343
20
1.9305
30
0
11
41.622559
21
5.430498
31
0
39
0
210
0
220
0
230
1
0
LINE
5
EF
100
AcDbEntity
8
1
62
256
6
ByLayer
370
18
48
1
60
1
100
AcDbLine
10
41.622559
20
5.430498
30
0
11
42.544126
21
5.430502
31
0
39
0
210
0
220
0
230
1
0
LINE
5
F0
100
AcDbEntity
8
1
62
256
6
ByLayer
370
18
48
1
60
1
100
AcDbLine
10
42.544126
20
5.430502
30
0
11
42.083343
21
1.9305
31
0
39
0
210
0
220
0
230
1
0
LINE
5
F2
100
AcDbEntity
8
1
62
256
6
ByLayer
370
18
48
1
60
1
100
AcDbLine
10
42.083343
20
-1.9305
30
0
11
42.544126
21
-5.430498
31
0
39
0
210
0
220
0
230
1
0
LINE
5
F3
100
AcDbEntity
8
1
62
256
6
ByLayer
370
18
48
1
60
1
100
AcDbLine
10
42.544126
20
-5.430498
30
0
11
41.622559
21
-5.430502
31
0
39
0
210
0
220
0
230
1
0
LINE
5
F4
100
AcDbEntity
8
1
62
256
6
ByLayer
370
18
48
1
60
1
100
AcDbLine
10
41.622559
20
-5.430502
30
0
11
42.083343
21
-1.9305
31
0
39
0
210
0
220
0
230
1
0
MTEXT
5
DE
100
AcDbEntity
8
SK6
62
256
6
ByLayer
370
13
48
1
60
0
100
AcDbMText
10
-31.70776
20
34.470828
30
0
210
0
220
0
230
1
1
\W0.7563;462.1-0386-011A0-XM X2BM
40
3.5
41
0
44
1.084337
50
0
71
7
72
5
7
iso_b_vert
0
MTEXT
5
E2
100
AcDbEntity
8
SK2
62
256
6
ByLayer
370
18
48
1
60
0
100
AcDbMText
10
-46.189796
20
16.409024
30
0
210
0
220
0
230
1
1
%%c
40
3.5
41
0
44
1.084337
50
90
71
7
72
5
7
iso_b_vert
0
MTEXT
5
E3
100
AcDbEntity
8
SK2
62
256
6
ByLayer
370
18
48
1
60
0
100
AcDbMText
10
-46.189796
20
21.63168
30
0
210
0
220
0
230
1
1
\W0.7317;6,000
40
3.5
41
0
44
1.084337
50
90
71
7
72
5
7
iso_b_vert
0
MTEXT
5
EC
100
AcDbEntity
8
2
62
256
6
ByLayer
370
18
48
1
60
0
100
AcDbMText
10
40.518709
20
13.93261
30
0
210
0
220
0
230
1
1
%%c
40
3.5
41
0
44
1.084337
50
90
71
7
72
5
7
iso_b_vert
0
MTEXT
5
ED
100
AcDbEntity
8
2
62
256
6
ByLayer
370
18
48
1
60
0
100
AcDbMText
10
40.518709
20
19.155266
30
0
210
0
220
0
230
1
1
\W0.7211;3,861
40
3.5
41
0
44
1.084337
50
90
71
7
72
5
7
iso_b_vert
0
HATCH
5
E7
100
AcDbEntity
8
SK2
62
256
6
ByLayer
370
13
48
1
60
0
100
AcDbHatch
10
0
20
0
30
0
210
0
220
0
230
1
2
ANSI31
70
0
71
0
91
1
92
5
93
3
72
1
10
-44.6251625675374
20
3
11
-45.0859463090902
21
6.49999830744682
72
1
10
-45.0859463090902
20
6.49999830744682
11
-44.1643788259847
21
6.50000169255318
72
1
10
-44.1643788259847
20
6.50000169255318
11
-44.6251625675374
21
3
97
0
75
0
76
1
52
0
41
0.0062
77
0
78
1
53
45
43
0
44
0
45
-0.0139193969876572
46
0.0139193969876572
79
0
47
0
98
1
10
0
20
0
0
HATCH
5
EB
100
AcDbEntity
8
SK2
62
256
6
ByLayer
370
13
48
1
60
0
100
AcDbHatch
10
0
20
0
30
0
210
0
220
0
230
1
2
ANSI31
70
0
71
0
91
1
92
5
93
3
72
1
10
-44.6251625675374
20
-3
11
-44.1643788259847
21
-6.49999830744682
72
1
10
-44.1643788259847
20
-6.49999830744682
11
-45.0859463090902
21
-6.50000169255318
72
1
10
-45.0859463090902
20
-6.50000169255318
11
-44.6251625675374
21
-3
97
0
75
0
76
1
52
0
41
0.0062
77
0
78
1
53
45
43
0
44
0
45
-0.0139193969876572
46
0.0139193969876572
79
0
47
0
98
1
10
0
20
0
0
HATCH
5
F1
100
AcDbEntity
8
2
62
256
6
ByLayer
370
13
48
1
60
0
100
AcDbHatch
10
0
20
0
30
0
210
0
220
0
230
1
2
ANSI31
70
0
71
0
91
1
92
5
93
3
72
1
10
42.083342615295
20
1.93050000000002
11
41.6225588737423
21
5.43049830744684
72
1
10
41.6225588737423
20
5.43049830744684
11
42.5441263568478
21
5.43050169255321
72
1
10
42.5441263568478
20
5.43050169255321
11
42.083342615295
21
1.93050000000002
97
0
75
0
76
1
52
0
41
0.0062
77
0
78
1
53
45
43
0
44
0
45
-0.0139193969876572
46
0.0139193969876572
79
0
47
0
98
1
10
0
20
0
0
HATCH
5
F5
100
AcDbEntity
8
2
62
256
6
ByLayer
370
13
48
1
60
0
100
AcDbHatch
10
0
20
0
30
0
210
0
220
0
230
1
2
ANSI31
70
0
71
0
91
1
92
5
93
3
72
1
10
42.083342615295
20
-1.9305
11
42.5441263568478
21
-5.43049830744681
72
1
10
42.5441263568478
20
-5.43049830744681
11
41.6225588737423
21
-5.43050169255318
72
1
10
41.6225588737423
20
-5.43050169255318
11
42.083342615295
21
-1.9305
97
0
75
0
76
1
52
0
41
0.0062
77
0
78
1
53
45
43
0
44
0
45
-0.0139193969876572
46
0.0139193969876572
79
0
47
0
98
1
10
0
20
0
0
DIMENSION
5
F7
100
AcDbEntity
8
SK2
62
256
6
ByLayer
370
13
48
1
60
0
100
AcDbDimension
2
_U0
10
29.4413
20
-12.143898
30
0
11
14.72065
21
-12.143898
31
0
70
32
71
1
72
1
41
1
210
0
220
0
230
1
3
Standard
100
AcDbAlignedDimension
13
0
23
0
33
0
14
29.4413
24
-1.9305
34
0
50
0
100
AcDbRotatedDimension
1001
ACAD
1000
DSTYLE
1002
{
1070
   371
1070
    13
1070
   372
1070
    13
1070
   170
1070
     0
1070
   144
1040
1.0
1070
   277
1070
     2
1070
   278
1070
    44
1070
   146
1040
1.0
1070
   345
1005
16
1070
   347
1005
16
1070
   346
1005
16
1070
   344
1005
0
1070
   343
1005
0
1070
   172
1070
     1
1070
    76
1070
     0
1070
    75
1070
     0
1070
   282
1070
     0
1070
   281
1070
     0
1070
    71
1070
     0
1070
    74
1070
     0
1070
   279
1070
     0
1070
   173
1070
     1
1070
   340
1005
DF
1070
   271
1070
     2
1070
   272
1070
     2
1070
    77
1070
     1
1070
    73
1070
     1
1070
   171
1070
     3
1070
   274
1070
     4
1070
   177
1070
    35
1070
   176
1070
    35
1070
   178
1070
    35
1070
    48
1040
-0.1
1070
    41
1040
3.5
1070
   147
1040
1.75
1070
    42
1040
1.5875
1070
    44
1040
2.0
1070
   140
1040
3.5
1002
}
1001
ACAD_DSTYLE_DIM_LINETYPE
1070
   380
1005
16
1001
ACAD_DSTYLE_DIM_EXT1_LINETYPE
1070
   381
1005
16
1001
ACAD_DSTYLE_DIM_EXT2_LINETYPE
1070
   382
1005
16
0
DIMENSION
5
110
100
AcDbEntity
8
SK2
62
256
6
ByLayer
370
13
48
1
60
0
100
AcDbDimension
2
_U1
10
30
20
-31.692985
30
0
11
-3
21
-31.692985
31
0
70
32
71
1
72
1
41
1
210
0
220
0
230
1
3
Standard
100
AcDbAlignedDimension
13
-36
23
-3
33
0
14
30
24
0
34
0
50
0
100
AcDbRotatedDimension
1001
ACAD
1000
DSTYLE
1002
{
1070
   371
1070
    13
1070
   372
1070
    13
1070
   170
1070
     0
1070
   144
1040
1.0
1070
   277
1070
     2
1070
   278
1070
    44
1070
   146
1040
1.0
1070
   345
1005
16
1070
   347
1005
16
1070
   346
1005
16
1070
   344
1005
0
1070
   343
1005
0
1070
   172
1070
     1
1070
    76
1070
     0
1070
    75
1070
     0
1070
   282
1070
     0
1070
   281
1070
     0
1070
    71
1070
     0
1070
    74
1070
     0
1070
   279
1070
     0
1070
   173
1070
     1
1070
   340
1005
DF
1070
   271
1070
     2
1070
   272
1070
     2
1070
    77
1070
     1
1070
    73
1070
     1
1070
   171
1070
     3
1070
   274
1070
     4
1070
   177
1070
    35
1070
   176
1070
    35
1070
   178
1070
    35
1070
    48
1040
-0.1
1070
    41
1040
3.5
1070
   147
1040
1.75
1070
    42
1040
1.5875
1070
    44
1040
2.0
1070
   140
1040
3.5
1002
}
1001
ACAD_DSTYLE_DIM_LINETYPE
1070
   380
1005
16
1001
ACAD_DSTYLE_DIM_EXT1_LINETYPE
1070
   381
1005
16
1001
ACAD_DSTYLE_DIM_EXT2_LINETYPE
1070
   382
1005
16
0
DIMENSION
5
128
100
AcDbEntity
8
SK2
62
256
6
ByLayer
370
13
48
1
60
0
100
AcDbDimension
2
_U2
10
30
20
13.539619
30
0
11
23.93
21
13.539619
31
0
70
32
71
1
72
1
41
1
210
0
220
0
230
1
3
Standard
100
AcDbAlignedDimension
13
17.86
23
1.9305
33
0
14
30
24
0
34
0
50
0
100
AcDbRotatedDimension
1001
ACAD
1000
DSTYLE
1002
{
1070
   371
1070
    13
1070
   372
1070
    13
1070
   170
1070
     0
1070
   144
1040
1.0
1070
   277
1070
     2
1070
   278
1070
    44
1070
   146
1040
1.0
1070
   345
1005
16
1070
   347
1005
16
1070
   346
1005
16
1070
   344
1005
0
1070
   343
1005
0
1070
   172
1070
     1
1070
    76
1070
     0
1070
    75
1070
     0
1070
   282
1070
     0
1070
   281
1070
     0
1070
    71
1070
     0
1070
    74
1070
     0
1070
   279
1070
     0
1070
   173
1070
     1
1070
   340
1005
DF
1070
   271
1070
     2
1070
   272
1070
     2
1070
    77
1070
     1
1070
    73
1070
     1
1070
   171
1070
     3
1070
   274
1070
     4
1070
   177
1070
    35
1070
   176
1070
    35
1070
   178
1070
    35
1070
    48
1040
-0.1
1070
    41
1040
3.5
1070
   147
1040
1.75
1070
    42
1040
1.5875
1070
    44
1040
2.0
1070
   140
1040
3.5
1002
}
1001
ACAD_DSTYLE_DIM_LINETYPE
1070
   380
1005
16
1001
ACAD_DSTYLE_DIM_EXT1_LINETYPE
1070
   381
1005
16
1001
ACAD_DSTYLE_DIM_EXT2_LINETYPE
1070
   382
1005
16
0
DIMENSION
5
141
100
AcDbEntity
8
SK2
62
256
6
ByLayer
370
13
48
1
60
0
100
AcDbDimension
2
_U3
10
29.4413
20
-14.733003
30
0
11
47.583333
21
-14.733003
31
0
70
32
71
1
72
1
41
1
210
0
220
0
230
1
3
Standard
100
AcDbAlignedDimension
13
30
23
0
33
0
14
29.4413
24
-1.9305
34
0
50
0
100
AcDbRotatedDimension
1001
ACAD
1000
DSTYLE
1002
{
1070
   371
1070
    13
1070
   372
1070
    13
1070
   170
1070
     0
1070
   144
1040
1.0
1070
   277
1070
     2
1070
   278
1070
    44
1070
   146
1040
1.0
1070
   345
1005
16
1070
   347
1005
16
1070
   346
1005
16
1070
   344
1005
0
1070
   343
1005
0
1070
   172
1070
     1
1070
    76
1070
     0
1070
    75
1070
     0
1070
   282
1070
     0
1070
   281
1070
     0
1070
    71
1070
     0
1070
    74
1070
     0
1070
   279
1070
     0
1070
   173
1070
     1
1070
   340
1005
DF
1070
   271
1070
     2
1070
   272
1070
     2
1070
    77
1070
     1
1070
    73
1070
     1
1070
   171
1070
     3
1070
   274
1070
     4
1070
   177
1070
    35
1070
   176
1070
    35
1070
   178
1070
    35
1070
    48
1040
-0.1
1070
    41
1040
3.5
1070
   147
1040
1.75
1070
    42
1040
1.5875
1070
    44
1040
2.0
1070
   140
1040
3.5
1002
}
1001
ACAD_DSTYLE_DIM_LINETYPE
1070
   380
1005
16
1001
ACAD_DSTYLE_DIM_EXT1_LINETYPE
1070
   381
1005
16
1001
ACAD_DSTYLE_DIM_EXT2_LINETYPE
1070
   382
1005
16
0
DIMENSION
5
15B
100
AcDbEntity
8
SK2
62
256
6
ByLayer
370
13
48
1
60
0
100
AcDbDimension
2
_U4
10
29.4413
20
-21.343428
30
0
11
-3.27935
21
-21.343428
31
0
70
32
71
1
72
1
41
1
210
0
220
0
230
1
3
Standard
100
AcDbAlignedDimension
13
-36
23
-3
33
0
14
29.4413
24
-1.9305
34
0
50
0
100
AcDbRotatedDimension
1001
ACAD
1000
DSTYLE
1002
{
1070
   371
1070
    13
1070
   372
1070
    13
1070
   170
1070
     0
1070
   144
1040
1.0
1070
   277
1070
     2
1070
   278
1070
    44
1070
   146
1040
1.0
1070
   345
1005
16
1070
   347
1005
16
1070
   346
1005
16
1070
   344
1005
0
1070
   343
1005
0
1070
   172
1070
     1
1070
    76
1070
     0
1070
    75
1070
     0
1070
   282
1070
     0
1070
   281
1070
     0
1070
    71
1070
     0
1070
    74
1070
     0
1070
   279
1070
     0
1070
   173
1070
     1
1070
   340
1005
DF
1070
   271
1070
     2
1070
   272
1070
     2
1070
    77
1070
     1
1070
    73
1070
     1
1070
   171
1070
     3
1070
   274
1070
     4
1070
   177
1070
    35
1070
   176
1070
    35
1070
   178
1070
    35
1070
    48
1040
-0.1
1070
    41
1040
3.5
1070
   147
1040
1.75
1070
    42
1040
1.5875
1070
    44
1040
2.0
1070
   140
1040
3.5
1002
}
1001
ACAD_DSTYLE_DIM_LINETYPE
1070
   380
1005
16
1001
ACAD_DSTYLE_DIM_EXT1_LINETYPE
1070
   381
1005
16
1001
ACAD_DSTYLE_DIM_EXT2_LINETYPE
1070
   382
1005
16
0
ENDSEC
0
SECTION
2
OBJECTS
0
DICTIONARY
5
1e3
330
0
100
AcDbDictionary
280
0
281
1
3
ACAD_GROUP
350
1e4
3
ACAD_MLINESTYLE
350
1e5
0
DICTIONARY
5
1e4
330
0
100
AcDbDictionary
280
0
281
1
0
DICTIONARY
5
1e5
330
0
100
AcDbDictionary
280
0
281
1
3
Standard
350
18
0
MLINESTYLE
5
18
330
1e5
100
AcDbMlineStyle
2
Standard
70
0
3

62
256
51
90
52
90
71
2
49
-0.5
62
256
6
ByLayer
49
0.5
62
256
6
ByLayer
0
RASTERVARIABLES
5
1d1
330

100
AcDbRasterVariables
90
0
70
1
71
1
72
1
0
ENDSEC
0
EOF
