0
SECTION
2
HEADER
9
$ACADVER
1
AC1015
9
$DWGCODEPAGE
3
ANSI_1252
9
$HANDSEED
5
1f1
9
$ANGBASE
50
0
9
$ANGDIR
70
0
9
$ATTMODE
70
1
9
$AUNITS
70
0
9
$AUPREC
70
0
9
$CECOLOR
62
256
9
$CELTSCALE
40
1
9
$CELTYPE
6
ByLayer
9
$CELWEIGHT
370
18
9
$CLAYER
8
0
9
$CMLJUST
70
0
9
$CMLSCALE
40
1
9
$CMLSTYLE
2
Standard
9
$DIMSTYLE
2
Standard
9
$TEXTSIZE
40
0.2
9
$TEXTSTYLE
7
Standard
9
$LUNITS
70
2
9
$LUPREC
70
4
9
$EXTNAMES
290
1
9
$INSUNITS
70
4
9
$LTSCALE
40
1
9
$LWDISPLAY
290
1
9
$PDMODE
70
0
9
$PDSIZE
40
0
9
$PLINEGEN
70
0
0
ENDSEC
0
SECTION
2
CLASSES
0
CLASS
1
RASTERVARIABLES
2
AcDbRasterVariables
3
ISM
90
0
280
0
281
0
0
ENDSEC
0
SECTION
2
TABLES
0
TABLE
2
VPORT
5
1e7
100
AcDbSymbolTable
0
VPORT
5
1
100
AcDbSymbolTableRecord
100
AcDbViewportTableRecord
2
*Active
70
0
10
0
20
0
11
1
21
1
12
-1
22
1
13
0
23
0
14
0.5
24
0.5
15
10
25
10
16
0
26
0
36
1
17
0
27
0
37
0
0
ENDTAB
0
TABLE
2
LTYPE
5
1e8
100
AcDbSymbolTable
0
LTYPE
5
14
100
AcDbSymbolTableRecord
100
AcDbLinetypeTableRecord
70
0
2
ByBlock
3

72
65
73
0
40
0
0
LTYPE
5
15
100
AcDbSymbolTableRecord
100
AcDbLinetypeTableRecord
70
0
2
ByLayer
3

72
65
73
0
40
0
0
LTYPE
5
16
100
AcDbSymbolTableRecord
100
AcDbLinetypeTableRecord
70
0
2
Continuous
3
Solid line
72
65
73
0
40
0
0
LTYPE
5
6E
100
AcDbSymbolTableRecord
100
AcDbLinetypeTableRecord
70
0
2
CENTER
3
____ _ ____ _ ____ _ ____
72
65
73
4
40
47.5
49
22
74
0
49
-8.5
74
0
49
8.5
74
0
49
-8.5
74
0
0
LTYPE
5
6F
100
AcDbSymbolTableRecord
100
AcDbLinetypeTableRecord
70
0
2
DASHED
3
__ __ __ __ __ __ __ __ __
72
65
73
2
40
25.72
49
12.86
74
0
49
-12.86
74
0
0
ENDTAB
0
TABLE
2
LAYER
5
1e9
100
AcDbSymbolTable
0
LAYER
5
10
100
AcDbSymbolTableRecord
100
AcDbLayerTableRecord
2
0
70
0
62
7
6
Continuous
290
1
370
-3
390
0
0
LAYER
5
71
100
AcDbSymbolTableRecord
100
AcDbLayerTableRecord
2
80
70
0
62
-6
6
Continuous
290
1
370
-3
390
0
0
LAYER
5
73
100
AcDbSymbolTableRecord
100
AcDbLayerTableRecord
2
81
70
0
62
-3
6
Continuous
290
1
370
-3
390
0
0
LAYER
5
75
100
AcDbSymbolTableRecord
100
AcDbLayerTableRecord
2
1
70
0
62
4
6
Continuous
290
1
370
-3
390
0
0
LAYER
5
86
100
AcDbSymbolTableRecord
100
AcDbLayerTableRecord
2
4
70
0
62
-2
6
CENTER
290
1
370
-3
390
0
0
LAYER
5
9F
100
AcDbSymbolTableRecord
100
AcDbLayerTableRecord
2
2
70
0
62
7
6
Continuous
290
1
370
-3
390
0
0
LAYER
5
FB
100
AcDbSymbolTableRecord
100
AcDbLayerTableRecord
2
Defpoints
70
0
62
7
6
Continuous
290
0
370
-3
390
0
0
LAYER
5
1d3
100
AcDbSymbolTableRecord
100
AcDbLayerTableRecord
2
SK1
70
0
62
4
6
Continuous
290
1
370
-3
390
0
0
LAYER
5
1d4
100
AcDbSymbolTableRecord
100
AcDbLayerTableRecord
2
SK4
70
0
62
2
6
CENTER
290
1
370
-3
390
0
0
LAYER
5
1d5
100
AcDbSymbolTableRecord
100
AcDbLayerTableRecord
2
SK2
70
0
62
7
6
Continuous
290
1
370
-3
390
0
0
LAYER
5
1d6
100
AcDbSymbolTableRecord
100
AcDbLayerTableRecord
2
SK6
70
0
62
5
6
Continuous
290
1
370
-3
390
0
0
ENDTAB
0
TABLE
2
STYLE
5
1ea
100
AcDbSymbolTable
0
STYLE
5
11
100
AcDbSymbolTableRecord
100
AcDbTextStyleTableRecord
2
Standard
3
txt
70
0
71
0
40
0
41
1
42
0
50
0
0
STYLE
5
E0
100
AcDbSymbolTableRecord
100
AcDbTextStyleTableRecord
2
iso_b_vert
3
simplex.shx
70
0
71
0
40
0
41
1
42
0
50
0
0
STYLE
5
E1
100
AcDbSymbolTableRecord
100
AcDbTextStyleTableRecord
2
DWGDirectTextStyle
3
simplex
70
0
71
0
40
0
41
1
42
0
50
0
0
ENDTAB
0
TABLE
2
DIMSTYLE
5
1eb
100
AcDbSymbolTable
100
AcDbDimStyleTable
0
DIMSTYLE
105
27
100
AcDbSymbolTableRecord
100
AcDbDimStyleTableRecord
2
Standard
70
0
3
<>
41
0.18
42
0.0625
44
0.18
140
0.18
147
0.09
73
0
74
0
77
1
271
2
275
0
278
52
280
0
340
11
0
ENDTAB
0
TABLE
2
VIEW
5
1ec
100
AcDbSymbolTable
0
ENDTAB
0
TABLE
2
UCS
5
1ed
100
AcDbSymbolTable
0
ENDTAB
0
TABLE
2
APPID
5
1ee
100
AcDbSymbolTable
0
APPID
5
12
100
AcDbSymbolTableRecord
100
AcDbRegAppTableRecord
2
ACAD
70
0
0
APPID
5
F7
100
AcDbSymbolTableRecord
100
AcDbRegAppTableRecord
2
ACAD_DSTYLE_DIMBREAK
70
0
0
APPID
5
192
100
AcDbSymbolTableRecord
100
AcDbRegAppTableRecord
2
ACAD_DSTYLE_DIM_LINETYPE
70
0
0
APPID
5
193
100
AcDbSymbolTableRecord
100
AcDbRegAppTableRecord
2
ACAD_DSTYLE_DIM_EXT1_LINETYPE
70
0
0
APPID
5
194
100
AcDbSymbolTableRecord
100
AcDbRegAppTableRecord
2
ACAD_DSTYLE_DIM_EXT2_LINETYPE
70
0
0
APPID
5
1CF
100
AcDbSymbolTableRecord
100
AcDbRegAppTableRecord
2
ACAD_MLEADERVER
70
0
0
ENDTAB
0
TABLE
2
BLOCK_RECORD
5
1ef
100
AcDbSymbolTable
0
BLOCK_RECORD
5
1F
100
AcDbSymbolTableRecord
100
AcDbBlockTableRecord
2
*Model_Space
340
0
70
0
0
BLOCK_RECORD
5
1B
100
AcDbSymbolTableRecord
100
AcDbBlockTableRecord
2
*Paper_Space
340
0
70
0
0
BLOCK_RECORD
5
23
100
AcDbSymbolTableRecord
100
AcDbBlockTableRecord
2
*Paper_Space0
340
0
70
0
0
BLOCK_RECORD
5
FC
100
AcDbSymbolTableRecord
100
AcDbBlockTableRecord
2
*D1
340
0
70
0
0
BLOCK_RECORD
5
108
100
AcDbSymbolTableRecord
100
AcDbBlockTableRecord
2
_U0
340
0
70
0
0
BLOCK_RECORD
5
114
100
AcDbSymbolTableRecord
100
AcDbBlockTableRecord
2
*D3
340
0
70
0
0
BLOCK_RECORD
5
120
100
AcDbSymbolTableRecord
100
AcDbBlockTableRecord
2
_U1
340
0
70
0
0
BLOCK_RECORD
5
12C
100
AcDbSymbolTableRecord
100
AcDbBlockTableRecord
2
*D5
340
0
70
0
0
BLOCK_RECORD
5
139
100
AcDbSymbolTableRecord
100
AcDbBlockTableRecord
2
_U2
340
0
70
0
0
BLOCK_RECORD
5
145
100
AcDbSymbolTableRecord
100
AcDbBlockTableRecord
2
*D7
340
0
70
0
0
BLOCK_RECORD
5
153
100
AcDbSymbolTableRecord
100
AcDbBlockTableRecord
2
_U3
340
0
70
0
0
BLOCK_RECORD
5
15F
100
AcDbSymbolTableRecord
100
AcDbBlockTableRecord
2
*D9
340
0
70
0
0
BLOCK_RECORD
5
16B
100
AcDbSymbolTableRecord
100
AcDbBlockTableRecord
2
_U4
340
0
70
0
0
ENDTAB
0
ENDSEC
0
SECTION
2
BLOCKS
0
BLOCK
5
20
100
AcDbEntity
8
0
100
AcDbBlockBegin
2
*Model_Space
70
0
10
0
20
0
30
0
3
*Model_Space
0
ENDBLK
5
21
100
AcDbEntity
8
0
100
AcDbBlockEnd
0
BLOCK
5
1C
100
AcDbEntity
8
0
100
AcDbBlockBegin
2
*Paper_Space
70
0
10
0
20
0
30
0
3
*Paper_Space
0
ENDBLK
5
1D
100
AcDbEntity
8
0
100
AcDbBlockEnd
0
BLOCK
5
24
100
AcDbEntity
8
0
100
AcDbBlockBegin
2
*Paper_Space0
70
0
10
0
20
0
30
0
3
*Paper_Space0
0
ENDBLK
5
25
100
AcDbEntity
8
0
100
AcDbBlockEnd
0
BLOCK
5
FD
100
AcDbEntity
8
0
100
AcDbBlockBegin
2
*D1
70
1
10
0
20
0
30
0
3
*D1
0
LINE
5
FF
100
AcDbEntity
8
0
62
256
6
ByLayer
370
-2
48
1
60
0
100
AcDbLine
10
0
20
-1.5875
30
0
11
0
21
-13.903398
31
0
39
0
210
0
220
0
230
1
0
LINE
5
100
100
AcDbEntity
8
0
62
256
6
ByLayer
370
-2
48
1
60
0
100
AcDbLine
10
25.5136
20
-3.2775
30
0
11
25.5136
21
-13.903398
31
0
39
0
210
0
220
0
230
1
0
LINE
5
101
100
AcDbEntity
8
0
62
256
6
ByLayer
370
-2
48
1
60
0
100
AcDbLine
10
3.5
20
-11.903398
30
0
11
22.0136
21
-11.903398
31
0
39
0
210
0
220
0
230
1
0
SOLID
5
102
100
AcDbEntity
8
0
62
256
6
ByLayer
370
-1
48
1
60
0
100
AcDbTrace
10
3.5
20
-11.320065
30
0
11
3.5
21
-12.486732
31
0
12
0
22
-11.903398
32
0
13
0
23
-11.903398
33
0
39
0
210
0
220
0
230
1
0
SOLID
5
103
100
AcDbEntity
8
0
62
256
6
ByLayer
370
-1
48
1
60
0
100
AcDbTrace
10
22.0136
20
-12.486732
30
0
11
22.0136
21
-11.320065
31
0
12
25.5136
22
-11.903398
32
0
13
25.5136
23
-11.903398
33
0
39
0
210
0
220
0
230
1
0
MTEXT
5
104
100
AcDbEntity
8
0
62
256
6
ByLayer
370
18
48
1
60
0
100
AcDbMText
10
12.7568
20
-4.903398
30
0
210
0
220
0
230
1
1
\A1;25.51
40
3.5
41
0
44
1
50
0
71
5
72
5
7
iso_b_vert
0
POINT
5
105
100
AcDbEntity
8
Defpoints
62
0
6
ByLayer
370
-1
48
1
60
0
100
AcDbPoint
10
0
20
0
30
0
39
0
210
0
220
0
230
1
50
360
0
POINT
5
106
100
AcDbEntity
8
Defpoints
62
0
6
ByLayer
370
-1
48
1
60
0
100
AcDbPoint
10
25.5136
20
-1.69
30
0
39
0
210
0
220
0
230
1
50
360
0
POINT
5
107
100
AcDbEntity
8
Defpoints
62
0
6
ByLayer
370
-1
48
1
60
0
100
AcDbPoint
10
25.5136
20
-11.903398
30
0
39
0
210
0
220
0
230
1
50
360
0
ENDBLK
5
FE
100
AcDbEntity
8
0
100
AcDbBlockEnd
0
BLOCK
5
10F
100
AcDbEntity
8
0
100
AcDbBlockBegin
2
_U0
70
0
10
0
20
0
30
0
3
_U0
0
MTEXT
5
109
100
AcDbEntity
8
SK2
62
256
6
ByLayer
370
13
48
1
60
0
100
AcDbMText
10
8.056935
20
-10.870765
30
0
210
0
220
0
230
1
1
\W0.7211;25,51
40
3.5
41
0
44
1.084337
50
0
71
7
72
5
7
iso_b_vert
0
LINE
5
10A
100
AcDbEntity
8
SK2
62
256
6
ByLayer
370
13
48
1
60
0
100
AcDbLine
10
0
20
-1.5875
30
0
11
0
21
-13.903398
31
0
39
0
210
0
220
0
230
1
0
LINE
5
10B
100
AcDbEntity
8
SK2
62
256
6
ByLayer
370
13
48
1
60
0
100
AcDbLine
10
25.5136
20
-3.2775
30
0
11
25.5136
21
-13.903398
31
0
39
0
210
0
220
0
230
1
0
LINE
5
10C
100
AcDbEntity
8
SK2
62
256
6
ByLayer
370
13
48
1
60
0
100
AcDbLine
10
0
20
-11.903398
30
0
11
25.5136
21
-11.903398
31
0
39
0
210
0
220
0
230
1
0
SOLID
5
10D
100
AcDbEntity
8
SK2
62
256
6
ByLayer
370
18
48
1
60
0
100
AcDbTrace
10
0
20
-11.903398
30
0
11
3.499998
21
-11.442615
31
0
12
3.500002
22
-12.364182
32
0
13
3.500002
23
-12.364182
33
0
39
0
210
0
220
0
230
1
0
SOLID
5
10E
100
AcDbEntity
8
SK2
62
256
6
ByLayer
370
18
48
1
60
0
100
AcDbTrace
10
25.5136
20
-11.903398
30
0
11
22.013602
21
-12.364182
31
0
12
22.013598
22
-11.442615
32
0
13
22.013598
23
-11.442615
33
0
39
0
210
0
220
0
230
1
0
ENDBLK
5
110
100
AcDbEntity
8
0
100
AcDbBlockEnd
0
BLOCK
5
115
100
AcDbEntity
8
0
100
AcDbBlockBegin
2
*D3
70
1
10
0
20
0
30
0
3
*D3
0
LINE
5
117
100
AcDbEntity
8
0
62
256
6
ByLayer
370
-2
48
1
60
0
100
AcDbLine
10
-36
20
-4.5875
30
0
11
-36
21
-33.692985
31
0
39
0
210
0
220
0
230
1
0
LINE
5
118
100
AcDbEntity
8
0
62
256
6
ByLayer
370
-2
48
1
60
0
100
AcDbLine
10
26
20
-1.5875
30
0
11
26
21
-33.692985
31
0
39
0
210
0
220
0
230
1
0
LINE
5
119
100
AcDbEntity
8
0
62
256
6
ByLayer
370
-2
48
1
60
0
100
AcDbLine
10
-32.5
20
-31.692985
30
0
11
22.5
21
-31.692985
31
0
39
0
210
0
220
0
230
1
0
SOLID
5
11A
100
AcDbEntity
8
0
62
256
6
ByLayer
370
-1
48
1
60
0
100
AcDbTrace
10
-32.5
20
-31.109652
30
0
11
-32.5
21
-32.276319
31
0
12
-36
22
-31.692985
32
0
13
-36
23
-31.692985
33
0
39
0
210
0
220
0
230
1
0
SOLID
5
11B
100
AcDbEntity
8
0
62
256
6
ByLayer
370
-1
48
1
60
0
100
AcDbTrace
10
22.5
20
-32.276319
30
0
11
22.5
21
-31.109652
31
0
12
26
22
-31.692985
32
0
13
26
23
-31.692985
33
0
39
0
210
0
220
0
230
1
0
MTEXT
5
11C
100
AcDbEntity
8
0
62
256
6
ByLayer
370
18
48
1
60
0
100
AcDbMText
10
-5
20
-24.692985
30
0
210
0
220
0
230
1
1
\A1;62.00
40
3.5
41
0
44
1
50
0
71
5
72
5
7
iso_b_vert
0
POINT
5
11D
100
AcDbEntity
8
Defpoints
62
0
6
ByLayer
370
-1
48
1
60
0
100
AcDbPoint
10
-36
20
-3
30
0
39
0
210
0
220
0
230
1
50
360
0
POINT
5
11E
100
AcDbEntity
8
Defpoints
62
0
6
ByLayer
370
-1
48
1
60
0
100
AcDbPoint
10
26
20
0
30
0
39
0
210
0
220
0
230
1
50
360
0
POINT
5
11F
100
AcDbEntity
8
Defpoints
62
0
6
ByLayer
370
-1
48
1
60
0
100
AcDbPoint
10
26
20
-31.692985
30
0
39
0
210
0
220
0
230
1
50
360
0
ENDBLK
5
116
100
AcDbEntity
8
0
100
AcDbBlockEnd
0
BLOCK
5
127
100
AcDbEntity
8
0
100
AcDbBlockBegin
2
_U1
70
0
10
0
20
0
30
0
3
_U1
0
MTEXT
5
121
100
AcDbEntity
8
SK2
62
256
6
ByLayer
370
13
48
1
60
0
100
AcDbMText
10
-10.137299
20
-30.660352
30
0
210
0
220
0
230
1
1
\W0.7317;62,00
40
3.5
41
0
44
1.084337
50
0
71
7
72
5
7
iso_b_vert
0
LINE
5
122
100
AcDbEntity
8
SK2
62
256
6
ByLayer
370
13
48
1
60
0
100
AcDbLine
10
-36
20
-4.5875
30
0
11
-36
21
-33.692985
31
0
39
0
210
0
220
0
230
1
0
LINE
5
123
100
AcDbEntity
8
SK2
62
256
6
ByLayer
370
13
48
1
60
0
100
AcDbLine
10
26
20
-1.5875
30
0
11
26
21
-33.692985
31
0
39
0
210
0
220
0
230
1
0
LINE
5
124
100
AcDbEntity
8
SK2
62
256
6
ByLayer
370
13
48
1
60
0
100
AcDbLine
10
-36
20
-31.692985
30
0
11
26
21
-31.692985
31
0
39
0
210
0
220
0
230
1
0
SOLID
5
125
100
AcDbEntity
8
SK2
62
256
6
ByLayer
370
18
48
1
60
0
100
AcDbTrace
10
-36
20
-31.692985
30
0
11
-32.500002
21
-31.232202
31
0
12
-32.499998
22
-32.153769
32
0
13
-32.499998
23
-32.153769
33
0
39
0
210
0
220
0
230
1
0
SOLID
5
126
100
AcDbEntity
8
SK2
62
256
6
ByLayer
370
18
48
1
60
0
100
AcDbTrace
10
26
20
-31.692985
30
0
11
22.500002
21
-32.153769
31
0
12
22.499998
22
-31.232202
32
0
13
22.499998
23
-31.232202
33
0
39
0
210
0
220
0
230
1
0
ENDBLK
5
128
100
AcDbEntity
8
0
100
AcDbBlockEnd
0
BLOCK
5
12D
100
AcDbEntity
8
0
100
AcDbBlockBegin
2
*D5
70
1
10
0
20
0
30
0
3
*D5
0
LINE
5
12F
100
AcDbEntity
8
0
62
256
6
ByLayer
370
-2
48
1
60
0
100
AcDbLine
10
15.37
20
3.2775
30
0
11
15.37
21
15.299119
31
0
39
0
210
0
220
0
230
1
0
LINE
5
130
100
AcDbEntity
8
0
62
256
6
ByLayer
370
-2
48
1
60
0
100
AcDbLine
10
26
20
1.5875
30
0
11
26
21
15.299119
31
0
39
0
210
0
220
0
230
1
0
LINE
5
131
100
AcDbEntity
8
0
62
256
6
ByLayer
370
-2
48
1
60
0
100
AcDbLine
10
11.87
20
13.299119
30
0
11
8.37
21
13.299119
31
0
39
0
210
0
220
0
230
1
0
LINE
5
132
100
AcDbEntity
8
0
62
256
6
ByLayer
370
-2
48
1
60
0
100
AcDbLine
10
29.5
20
13.299119
30
0
11
33
21
13.299119
31
0
39
0
210
0
220
0
230
1
0
SOLID
5
133
100
AcDbEntity
8
0
62
256
6
ByLayer
370
-1
48
1
60
0
100
AcDbTrace
10
11.87
20
12.715786
30
0
11
11.87
21
13.882453
31
0
12
15.37
22
13.299119
32
0
13
15.37
23
13.299119
33
0
39
0
210
0
220
0
230
1
0
SOLID
5
134
100
AcDbEntity
8
0
62
256
6
ByLayer
370
-1
48
1
60
0
100
AcDbTrace
10
29.5
20
13.882453
30
0
11
29.5
21
12.715786
31
0
12
26
22
13.299119
32
0
13
26
23
13.299119
33
0
39
0
210
0
220
0
230
1
0
MTEXT
5
135
100
AcDbEntity
8
0
62
256
6
ByLayer
370
18
48
1
60
0
100
AcDbMText
10
20.685
20
20.299119
30
0
210
0
220
0
230
1
1
\A1;10.63
40
3.5
41
0
44
1
50
0
71
5
72
5
7
iso_b_vert
0
POINT
5
136
100
AcDbEntity
8
Defpoints
62
0
6
ByLayer
370
-1
48
1
60
0
100
AcDbPoint
10
15.37
20
1.69
30
0
39
0
210
0
220
0
230
1
50
360
0
POINT
5
137
100
AcDbEntity
8
Defpoints
62
0
6
ByLayer
370
-1
48
1
60
0
100
AcDbPoint
10
26
20
0
30
0
39
0
210
0
220
0
230
1
50
360
0
POINT
5
138
100
AcDbEntity
8
Defpoints
62
0
6
ByLayer
370
-1
48
1
60
0
100
AcDbPoint
10
26
20
13.299119
30
0
39
0
210
0
220
0
230
1
50
360
0
ENDBLK
5
12E
100
AcDbEntity
8
0
100
AcDbBlockEnd
0
BLOCK
5
140
100
AcDbEntity
8
0
100
AcDbBlockBegin
2
_U2
70
0
10
0
20
0
30
0
3
_U2
0
MTEXT
5
13A
100
AcDbEntity
8
SK2
62
256
6
ByLayer
370
13
48
1
60
0
100
AcDbMText
10
15.985135
20
14.331753
30
0
210
0
220
0
230
1
1
\W0.6713;10,63
40
3.5
41
0
44
1.084337
50
0
71
7
72
5
7
iso_b_vert
0
LINE
5
13B
100
AcDbEntity
8
SK2
62
256
6
ByLayer
370
13
48
1
60
0
100
AcDbLine
10
15.37
20
3.2775
30
0
11
15.37
21
15.299119
31
0
39
0
210
0
220
0
230
1
0
LINE
5
13C
100
AcDbEntity
8
SK2
62
256
6
ByLayer
370
13
48
1
60
0
100
AcDbLine
10
26
20
1.5875
30
0
11
26
21
15.299119
31
0
39
0
210
0
220
0
230
1
0
LINE
5
13D
100
AcDbEntity
8
SK2
62
256
6
ByLayer
370
13
48
1
60
0
100
AcDbLine
10
15.37
20
13.299119
30
0
11
26
21
13.299119
31
0
39
0
210
0
220
0
230
1
0
SOLID
5
13E
100
AcDbEntity
8
SK2
62
256
6
ByLayer
370
18
48
1
60
0
100
AcDbTrace
10
15.37
20
13.299119
30
0
11
18.869998
21
13.759903
31
0
12
18.870002
22
12.838335
32
0
13
18.870002
23
12.838335
33
0
39
0
210
0
220
0
230
1
0
SOLID
5
13F
100
AcDbEntity
8
SK2
62
256
6
ByLayer
370
18
48
1
60
0
100
AcDbTrace
10
26
20
13.299119
30
0
11
22.500002
21
12.838335
31
0
12
22.499998
22
13.759903
32
0
13
22.499998
23
13.759903
33
0
39
0
210
0
220
0
230
1
0
ENDBLK
5
141
100
AcDbEntity
8
0
100
AcDbBlockEnd
0
BLOCK
5
146
100
AcDbEntity
8
0
100
AcDbBlockBegin
2
*D7
70
1
10
0
20
0
30
0
3
*D7
0
LINE
5
148
100
AcDbEntity
8
0
62
256
6
ByLayer
370
-2
48
1
60
0
100
AcDbLine
10
26
20
-1.5875
30
0
11
26
21
-16.492503
31
0
39
0
210
0
220
0
230
1
0
LINE
5
149
100
AcDbEntity
8
0
62
256
6
ByLayer
370
-2
48
1
60
0
100
AcDbLine
10
25.5136
20
-3.2775
30
0
11
25.5136
21
-16.492503
31
0
39
0
210
0
220
0
230
1
0
LINE
5
14A
100
AcDbEntity
8
0
62
256
6
ByLayer
370
-2
48
1
60
0
100
AcDbLine
10
26
20
-14.492503
30
0
11
54
21
-14.492503
31
0
39
0
210
0
220
0
230
1
0
LINE
5
14B
100
AcDbEntity
8
0
62
256
6
ByLayer
370
-2
48
1
60
0
100
AcDbLine
10
29.5
20
-14.492503
30
0
11
33
21
-14.492503
31
0
39
0
210
0
220
0
230
1
0
LINE
5
14C
100
AcDbEntity
8
0
62
256
6
ByLayer
370
-2
48
1
60
0
100
AcDbLine
10
22.0136
20
-14.492503
30
0
11
18.5136
21
-14.492503
31
0
39
0
210
0
220
0
230
1
0
SOLID
5
14D
100
AcDbEntity
8
0
62
256
6
ByLayer
370
-1
48
1
60
0
100
AcDbTrace
10
29.5
20
-13.90917
30
0
11
29.5
21
-15.075837
31
0
12
26
22
-14.492503
32
0
13
26
23
-14.492503
33
0
39
0
210
0
220
0
230
1
0
SOLID
5
14E
100
AcDbEntity
8
0
62
256
6
ByLayer
370
-1
48
1
60
0
100
AcDbTrace
10
22.0136
20
-15.075837
30
0
11
22.0136
21
-13.90917
31
0
12
25.5136
22
-14.492503
32
0
13
25.5136
23
-14.492503
33
0
39
0
210
0
220
0
230
1
0
MTEXT
5
14F
100
AcDbEntity
8
0
62
256
6
ByLayer
370
18
48
1
60
0
100
AcDbMText
10
43.5
20
-7.492503
30
0
210
0
220
0
230
1
1
\A1;0.49
40
3.5
41
0
44
1
50
0
71
5
72
5
7
iso_b_vert
0
POINT
5
150
100
AcDbEntity
8
Defpoints
62
0
6
ByLayer
370
-1
48
1
60
0
100
AcDbPoint
10
26
20
0
30
0
39
0
210
0
220
0
230
1
50
360
0
POINT
5
151
100
AcDbEntity
8
Defpoints
62
0
6
ByLayer
370
-1
48
1
60
0
100
AcDbPoint
10
25.5136
20
-1.69
30
0
39
0
210
0
220
0
230
1
50
360
0
POINT
5
152
100
AcDbEntity
8
Defpoints
62
0
6
ByLayer
370
-1
48
1
60
0
100
AcDbPoint
10
25.5136
20
-14.492503
30
0
39
0
210
0
220
0
230
1
50
360
0
ENDBLK
5
147
100
AcDbEntity
8
0
100
AcDbBlockEnd
0
BLOCK
5
15A
100
AcDbEntity
8
0
100
AcDbBlockBegin
2
_U3
70
0
10
0
20
0
30
0
3
_U3
0
MTEXT
5
154
100
AcDbEntity
8
SK2
62
256
6
ByLayer
370
13
48
1
60
0
100
AcDbMText
10
31.967593
20
-13.45987
30
0
210
0
220
0
230
1
1
\W0.7607;0,49
40
3.5
41
0
44
1.084337
50
0
71
7
72
5
7
iso_b_vert
0
LINE
5
155
100
AcDbEntity
8
SK2
62
256
6
ByLayer
370
13
48
1
60
0
100
AcDbLine
10
26
20
-1.5875
30
0
11
26
21
-16.492503
31
0
39
0
210
0
220
0
230
1
0
LINE
5
156
100
AcDbEntity
8
SK2
62
256
6
ByLayer
370
13
48
1
60
0
100
AcDbLine
10
25.5136
20
-3.2775
30
0
11
25.5136
21
-16.492503
31
0
39
0
210
0
220
0
230
1
0
LINE
5
157
100
AcDbEntity
8
SK2
62
256
6
ByLayer
370
13
48
1
60
0
100
AcDbLine
10
16.7636
20
-14.492503
30
0
11
40.180758
21
-14.492503
31
0
39
0
210
0
220
0
230
1
0
SOLID
5
158
100
AcDbEntity
8
SK2
62
256
6
ByLayer
370
18
48
1
60
0
100
AcDbTrace
10
26
20
-14.492503
30
0
11
29.499998
21
-14.031719
31
0
12
29.500002
22
-14.953287
32
0
13
29.500002
23
-14.953287
33
0
39
0
210
0
220
0
230
1
0
SOLID
5
159
100
AcDbEntity
8
SK2
62
256
6
ByLayer
370
18
48
1
60
0
100
AcDbTrace
10
25.5136
20
-14.492503
30
0
11
22.013602
21
-14.953287
31
0
12
22.013598
22
-14.031719
32
0
13
22.013598
23
-14.031719
33
0
39
0
210
0
220
0
230
1
0
ENDBLK
5
15B
100
AcDbEntity
8
0
100
AcDbBlockEnd
0
BLOCK
5
160
100
AcDbEntity
8
0
100
AcDbBlockBegin
2
*D9
70
1
10
0
20
0
30
0
3
*D9
0
LINE
5
162
100
AcDbEntity
8
0
62
256
6
ByLayer
370
-2
48
1
60
0
100
AcDbLine
10
-36
20
-4.5875
30
0
11
-36
21
-23.343428
31
0
39
0
210
0
220
0
230
1
0
LINE
5
163
100
AcDbEntity
8
0
62
256
6
ByLayer
370
-2
48
1
60
0
100
AcDbLine
10
25.5136
20
-3.2775
30
0
11
25.5136
21
-23.343428
31
0
39
0
210
0
220
0
230
1
0
LINE
5
164
100
AcDbEntity
8
0
62
256
6
ByLayer
370
-2
48
1
60
0
100
AcDbLine
10
-32.5
20
-21.343428
30
0
11
22.0136
21
-21.343428
31
0
39
0
210
0
220
0
230
1
0
SOLID
5
165
100
AcDbEntity
8
0
62
256
6
ByLayer
370
-1
48
1
60
0
100
AcDbTrace
10
-32.5
20
-20.760095
30
0
11
-32.5
21
-21.926762
31
0
12
-36
22
-21.343428
32
0
13
-36
23
-21.343428
33
0
39
0
210
0
220
0
230
1
0
SOLID
5
166
100
AcDbEntity
8
0
62
256
6
ByLayer
370
-1
48
1
60
0
100
AcDbTrace
10
22.0136
20
-21.926762
30
0
11
22.0136
21
-20.760095
31
0
12
25.5136
22
-21.343428
32
0
13
25.5136
23
-21.343428
33
0
39
0
210
0
220
0
230
1
0
MTEXT
5
167
100
AcDbEntity
8
0
62
256
6
ByLayer
370
18
48
1
60
0
100
AcDbMText
10
-5.2432
20
-14.343428
30
0
210
0
220
0
230
1
1
\A1;61.51
40
3.5
41
0
44
1
50
0
71
5
72
5
7
iso_b_vert
0
POINT
5
168
100
AcDbEntity
8
Defpoints
62
0
6
ByLayer
370
-1
48
1
60
0
100
AcDbPoint
10
-36
20
-3
30
0
39
0
210
0
220
0
230
1
50
360
0
POINT
5
169
100
AcDbEntity
8
Defpoints
62
0
6
ByLayer
370
-1
48
1
60
0
100
AcDbPoint
10
25.5136
20
-1.69
30
0
39
0
210
0
220
0
230
1
50
360
0
POINT
5
16A
100
AcDbEntity
8
Defpoints
62
0
6
ByLayer
370
-1
48
1
60
0
100
AcDbPoint
10
25.5136
20
-21.343428
30
0
39
0
210
0
220
0
230
1
50
360
0
ENDBLK
5
161
100
AcDbEntity
8
0
100
AcDbBlockEnd
0
BLOCK
5
172
100
AcDbEntity
8
0
100
AcDbBlockBegin
2
_U4
70
0
10
0
20
0
30
0
3
_U4
0
MTEXT
5
16C
100
AcDbEntity
8
SK2
62
256
6
ByLayer
370
13
48
1
60
0
100
AcDbMText
10
-9.505632
20
-20.310795
30
0
210
0
220
0
230
1
1
\W0.6563;61,51
40
3.5
41
0
44
1.084337
50
0
71
7
72
5
7
iso_b_vert
0
LINE
5
16D
100
AcDbEntity
8
SK2
62
256
6
ByLayer
370
13
48
1
60
0
100
AcDbLine
10
-36
20
-4.5875
30
0
11
-36
21
-23.343428
31
0
39
0
210
0
220
0
230
1
0
LINE
5
16E
100
AcDbEntity
8
SK2
62
256
6
ByLayer
370
13
48
1
60
0
100
AcDbLine
10
25.5136
20
-3.2775
30
0
11
25.5136
21
-23.343428
31
0
39
0
210
0
220
0
230
1
0
LINE
5
16F
100
AcDbEntity
8
SK2
62
256
6
ByLayer
370
13
48
1
60
0
100
AcDbLine
10
-36
20
-21.343428
30
0
11
25.5136
21
-21.343428
31
0
39
0
210
0
220
0
230
1
0
SOLID
5
170
100
AcDbEntity
8
SK2
62
256
6
ByLayer
370
18
48
1
60
0
100
AcDbTrace
10
-36
20
-21.343428
30
0
11
-32.500002
21
-20.882645
31
0
12
-32.499998
22
-21.804212
32
0
13
-32.499998
23
-21.804212
33
0
39
0
210
0
220
0
230
1
0
SOLID
5
171
100
AcDbEntity
8
SK2
62
256
6
ByLayer
370
18
48
1
60
0
100
AcDbTrace
10
25.5136
20
-21.343428
30
0
11
22.013602
21
-21.804212
31
0
12
22.013598
22
-20.882645
32
0
13
22.013598
23
-20.882645
33
0
39
0
210
0
220
0
230
1
0
ENDBLK
5
173
100
AcDbEntity
8
0
100
AcDbBlockEnd
0
ENDSEC
0
SECTION
2
ENTITIES
0
ARC
5
A8
100
AcDbEntity
8
1
62
256
6
ByLayer
370
18
48
1
60
0
100
AcDbCircle
39
0
10
1.576183
20
-2.475042
30
0
40
0.800000000000001
210
0
220
0
230
1
100
AcDbArc
50
89.96419
51
170.101626
0
ARC
5
A9
100
AcDbEntity
8
1
62
256
6
ByLayer
370
18
48
1
60
0
100
AcDbCircle
39
0
10
1.576183
20
2.475042
30
0
40
0.800000000000001
210
0
220
0
230
1
100
AcDbArc
50
189.898374
51
270.03581
0
ARC
5
AA
100
AcDbEntity
8
1
62
256
6
ByLayer
370
18
48
1
60
0
100
AcDbCircle
39
0
10
0
20
-2.2
30
0
40
0.800000000000001
210
0
220
0
230
1
100
AcDbArc
50
270
51
350.101626
0
ARC
5
AB
100
AcDbEntity
8
1
62
256
6
ByLayer
370
18
48
1
60
0
100
AcDbCircle
39
0
10
0
20
2.2
30
0
40
0.800000000000001
210
0
220
0
230
1
100
AcDbArc
50
9.898374
51
90
0
ELLIPSE
5
AC
100
AcDbEntity
8
1
62
256
6
ByLayer
370
13
48
1
60
0
100
AcDbEllipse
10
8.173092
20
-1.654336
30
0
11
-0.0587890396029349
21
0.0808940592538448
31
0
210
0
220
0
230
1
40
0.299782
41
0.276898481654306
42
0.625710263783152
0
ELLIPSE
5
AD
100
AcDbEntity
8
1
62
256
6
ByLayer
370
18
48
1
60
0
100
AcDbEllipse
10
8.25
20
1.844917
30
0
11
0.25
21
0
31
0
210
0
220
0
230
1
40
1
41
-2.41223666035465
42
-1.56289236307779
0
ELLIPSE
5
AE
100
AcDbEntity
8
1
62
256
6
ByLayer
370
18
48
1
60
0
100
AcDbEllipse
10
8.25
20
-1.844917
30
0
11
0.25
21
0
31
0
210
0
220
0
230
1
40
1
41
1.57716364534501
42
2.41233598267813
0
POINT
5
70
100
AcDbEntity
8
80
62
256
6
ByLayer
370
18
48
1
60
0
100
AcDbPoint
10
0
20
0
30
0
39
0
210
0
220
0
230
1
50
360
0
POINT
5
72
100
AcDbEntity
8
81
62
256
6
ByLayer
370
18
48
1
60
0
100
AcDbPoint
10
26
20
0
30
0
39
0
210
0
220
0
230
1
50
360
0
POINT
5
74
100
AcDbEntity
8
1
62
256
6
ByLayer
370
18
48
1
60
1
100
AcDbPoint
10
25.5136
20
-1.69
30
0
39
0
210
0
220
0
230
1
50
360
0
POINT
5
76
100
AcDbEntity
8
1
62
256
6
ByLayer
370
18
48
1
60
1
100
AcDbPoint
10
-36
20
-3
30
0
39
0
210
0
220
0
230
1
50
360
0
POINT
5
77
100
AcDbEntity
8
1
62
256
6
ByLayer
370
18
48
1
60
1
100
AcDbPoint
10
15.37
20
1.69
30
0
39
0
210
0
220
0
230
1
50
360
0
POINT
5
78
100
AcDbEntity
8
1
62
256
6
ByLayer
370
18
48
1
60
1
100
AcDbPoint
10
25.5136
20
-1.69
30
0
39
0
210
0
220
0
230
1
50
360
0
POINT
5
79
100
AcDbEntity
8
1
62
256
6
ByLayer
370
18
48
1
60
1
100
AcDbPoint
10
-36
20
-3
30
0
39
0
210
0
220
0
230
1
50
360
0
POINT
5
7A
100
AcDbEntity
8
1
62
256
6
ByLayer
370
18
48
1
60
1
100
AcDbPoint
10
25.5136
20
-1.69
30
0
39
0
210
0
220
0
230
1
50
360
0
SPLINE
5
AF
100
AcDbEntity
8
1
62
256
6
ByLayer
370
18
48
1
60
0
100
AcDbSpline
70
4
71
3
72
10
73
6
40
0
40
0
40
0
40
0
40
0.5
40
0.5
40
1
40
1
40
1
40
1
41
1
10
8.11123797551491
20
1.59908952575236
30
0
41
1
10
8.09740712178143
20
1.60280744496802
30
0
41
1
10
8.08569316838236
20
1.60699892646267
30
0
41
1
10
8.06832524511367
20
1.61610791812473
30
0
41
1
10
8.06290251309679
20
1.62092059051793
30
0
41
1
10
8.06290477738469
20
1.62556426845649
30
0
0
SPLINE
5
B0
100
AcDbEntity
8
1
62
256
6
ByLayer
370
18
48
1
60
0
100
AcDbSpline
70
4
71
3
72
8
73
4
40
0
40
0
40
0
40
0
40
1
40
1
40
1
40
1
41
1
10
25.9899592936968
20
-0.0954538416887942
30
0
41
1
10
25.9905851505684
20
-0.0777695288046516
30
0
41
1
10
25.9944277371561
20
-0.0554650799359422
30
0
41
1
10
25.9999424177399
20
-0.0321465049081553
30
0
0
SPLINE
5
B1
100
AcDbEntity
8
1
62
256
6
ByLayer
370
18
48
1
60
0
100
AcDbSpline
70
4
71
3
72
8
73
4
40
0
40
0
40
0
40
0
40
1
40
1
40
1
40
1
41
1
10
25.9698019148517
20
0.461345321070098
30
0
41
1
10
25.9789312698197
20
0.339199184036374
30
0
41
1
10
25.9856493808885
20
0.217235434367041
30
0
41
1
10
25.9899592936968
20
0.0954538416889079
30
0
0
SPLINE
5
B2
100
AcDbEntity
8
1
62
256
6
ByLayer
370
18
48
1
60
0
100
AcDbSpline
70
4
71
3
72
12
73
8
40
0
40
0
40
0
40
0
40
0.249999999999964
40
0.249999999999964
40
0.499999999999928
40
0.499999999999928
40
1
40
1
40
1
40
1
41
1
10
25.3169541014279
20
0.401869372323404
30
0
41
1
10
25.3170996760949
20
0.411698895180251
30
0
41
1
10
25.3200029162278
20
0.421464664862327
30
0
41
1
10
25.3308747999978
20
0.438319195812625
30
0
41
1
10
25.3388183059295
20
0.44541006948441
30
0
41
1
10
25.365455134612
20
0.461096012399963
30
0
41
1
10
25.3863668042565
20
0.464797336812239
30
0
41
1
10
25.4068892836776
20
0.464551124262215
30
0
0
SPLINE
5
B3
100
AcDbEntity
8
1
62
256
6
ByLayer
370
18
48
1
60
0
100
AcDbSpline
70
4
71
3
72
40
73
36
40
0
40
0
40
0
40
0
40
0.0584196665581833
40
0.0584196665581833
40
0.116839333116367
40
0.116839333116367
40
0.233678666232733
40
0.233678666232733
40
0.262888499511826
40
0.262888499511826
40
0.292098332790918
40
0.292098332790918
40
0.350517999349101
40
0.350517999349101
40
0.467357332465468
40
0.467357332465468
40
0.496567165744559
40
0.496567165744559
40
0.52577699902365
40
0.52577699902365
40
0.584196665581831
40
0.584196665581831
40
0.642616332140013
40
0.642616332140013
40
0.671826165419105
40
0.671826165419105
40
0.701035998698196
40
0.701035998698196
40
0.817875331814562
40
0.817875331814562
40
0.876294998372743
40
0.876294998372743
40
0.934714664930925
40
0.934714664930925
40
1
40
1
40
1
40
1
41
1
10
25.4137510829623
20
-1.68564088192181
30
0
41
1
10
25.2333267962469
20
-1.69314856431774
30
0
41
1
10
25.053193734703
20
-1.69050958355331
30
0
41
1
10
24.6919212059555
20
-1.66523342952863
30
0
41
1
10
24.5117149771117
20
-1.64261147687904
30
0
41
1
10
23.9747899120411
20
-1.54700830647042
30
0
41
1
10
23.620115366165
20
-1.445904051855
30
0
41
1
10
23.1721134789096
20
-1.27983585517441
30
0
41
1
10
23.0822958601101
20
-1.24462981131148
30
0
41
1
10
22.9020946878613
20
-1.17029553369568
30
0
41
1
10
22.8115955751514
20
-1.13110097610382
30
0
41
1
10
22.5416217463777
20
-1.00940849569093
30
0
41
1
10
22.3627745589891
20
-0.922467929228389
30
0
41
1
10
21.827311295387
20
-0.647964899903059
30
0
41
1
10
21.4720586827045
20
-0.446260241221722
30
0
41
1
10
21.0218541207671
20
-0.183857704765074
30
0
41
1
10
20.9312889064084
20
-0.13071720438495
30
0
41
1
10
20.7510134451156
20
-0.0247127334315849
30
0
41
1
10
20.6612135488821
20
0.0282510176612618
30
0
41
1
10
20.3925616124951
20
0.186575740480379
30
0
41
1
10
20.2142323048736
20
0.290973331123695
30
0
41
1
10
19.8575681340383
20
0.494905146020869
30
0
41
1
10
19.6792360847271
20
0.594450341506217
30
0
41
1
10
19.4109342552652
20
0.738751215709357
30
0
41
1
10
19.3213002022254
20
0.785907491025085
30
0
41
1
10
19.1414220373436
20
0.877985000559931
30
0
41
1
10
19.0509489327431
20
0.923021108920352
30
0
41
1
10
18.5996632599364
20
1.14032946609964
30
0
41
1
10
18.2439580286109
20
1.28856978551829
30
0
41
1
10
17.7088470450533
20
1.46242359058607
30
0
41
1
10
17.5301438228927
20
1.51221891320077
30
0
41
1
10
17.1705062853507
20
1.59392751653232
30
0
41
1
10
16.9890419947897
20
1.62583420360247
30
0
41
1
10
16.6089341504768
20
1.67214124671565
30
0
41
1
10
16.4095118669224
20
1.68429112067713
30
0
41
1
10
16.2102092455234
20
1.68419972222179
30
0
0
SPLINE
5
B4
100
AcDbEntity
8
1
62
256
6
ByLayer
370
18
48
1
60
0
100
AcDbSpline
70
4
71
3
72
8
73
4
40
0
40
0
40
0
40
0
40
1
40
1
40
1
40
1
41
1
10
25.4137510829623
20
1.68564088192159
30
0
41
1
10
25.3453048970087
20
1.68848901414762
30
0
41
1
10
25.276766642605
20
1.6898708842472
30
0
41
1
10
25.2082107082825
20
1.6897989423515
30
0
0
SPLINE
5
B5
100
AcDbEntity
8
1
62
256
6
ByLayer
370
18
48
1
60
0
100
AcDbSpline
70
4
71
3
72
36
73
32
40
0
40
0
40
0
40
0
40
0.0222354336075905
40
0.0222354336075905
40
0.14445600440664
40
0.14445600440664
40
0.205566289806164
40
0.205566289806164
40
0.266676575205689
40
0.266676575205689
40
0.388897146004738
40
0.388897146004738
40
0.419452288704501
40
0.419452288704501
40
0.450007431404264
40
0.450007431404264
40
0.511117716803789
40
0.511117716803789
40
0.572228002203313
40
0.572228002203313
40
0.602783144903076
40
0.602783144903076
40
0.63333828760284
40
0.63333828760284
40
0.755558858401894
40
0.755558858401894
40
0.816669143801421
40
0.816669143801421
40
0.877779429200948
40
0.877779429200948
40
1
40
1
40
1
40
1
41
1
10
17.005673478895
20
-1.61998220721461
30
0
41
1
10
16.9403132918043
20
-1.63048589182415
30
0
41
1
10
16.8750844952495
20
-1.63971115716919
30
0
41
1
10
16.4522294637894
20
-1.69126502490178
30
0
41
1
10
16.0969890366038
20
-1.69594975780146
30
0
41
1
10
15.5588071166737
20
-1.64374867426085
30
0
41
1
10
15.3774480710388
20
-1.61626525973881
30
0
41
1
10
15.0173291092698
20
-1.54294777910812
30
0
41
1
10
14.8385116964615
20
-1.497119184078
30
0
41
1
10
14.3030772341391
20
-1.33464737214371
30
0
41
1
10
13.9471018090986
20
-1.19350855843422
30
0
41
1
10
13.4962065793805
20
-0.983204551330601
30
0
41
1
10
13.4055783508326
20
-0.939423405457745
30
0
41
1
10
13.2253553616973
20
-0.849735263114553
30
0
41
1
10
13.1355413412641
20
-0.803724224190233
30
0
41
1
10
12.8666984343631
20
-0.662682170353406
30
0
41
1
10
12.6882543093579
20
-0.564665286116082
30
0
41
1
10
12.3313815185294
20
-0.363250440547659
30
0
41
1
10
12.1530055943114
20
-0.259762222868687
30
0
41
1
10
11.884249042993
20
-0.102493946161104
30
0
41
1
10
11.7944563452975
20
-0.0497469778916013
30
0
41
1
10
11.6142442999354
20
0.0560371275755926
30
0
41
1
10
11.5235965438682
20
0.109211541524758
30
0
41
1
10
11.0723800877037
20
0.372579805947879
30
0
41
1
10
10.7166229977819
20
0.576575183591473
30
0
41
1
10
10.1807472154459
20
0.856356749422247
30
0
41
1
10
10.0017678502495
20
0.945290895835058
30
0
41
1
10
9.64173377383929
20
1.1122625429376
30
0
41
1
10
9.46034703772602
20
1.19014074073348
30
0
41
1
10
8.92015897296488
20
1.39928894055461
30
0
41
1
10
8.56242754516541
20
1.50810477309472
30
0
41
1
10
8.20013194671057
20
1.57975108168881
30
0
0
SPLINE
5
B6
100
AcDbEntity
8
1
62
256
6
ByLayer
370
18
48
1
60
0
100
AcDbSpline
70
4
71
3
72
8
73
4
40
0
40
0
40
0
40
0
40
1
40
1
40
1
40
1
41
1
10
8.20013194671063
20
1.57975108168881
30
0
41
1
10
8.16917420817651
20
1.58587317563047
30
0
41
1
10
8.1382856773802
20
1.59181874027212
30
0
41
1
10
8.11123797551494
20
1.59908952575233
30
0
0
SPLINE
5
B7
100
AcDbEntity
8
1
62
256
6
ByLayer
370
13
48
1
60
0
100
AcDbSpline
70
4
71
3
72
22
73
18
40
0
40
0
40
0
40
0
40
0.0718825321032843
40
0.0718825321032843
40
0.226568776752737
40
0.226568776752737
40
0.38125502140219
40
0.38125502140219
40
0.535941266051643
40
0.535941266051643
40
0.613284388376369
40
0.613284388376369
40
0.690627510701095
40
0.690627510701095
40
0.845313755350548
40
0.845313755350548
40
1
40
1
40
1
40
1
41
1
10
8.25019359130073
20
-1.59491742677659
30
0
41
1
10
8.25018376863554
20
-1.59496986795901
30
0
41
1
10
8.2501736155254
20
-1.59292143322608
30
0
41
1
10
8.25014157139242
20
-1.58004480374044
30
0
41
1
10
8.25011964907475
20
-1.56188312848212
30
0
41
1
10
8.25008123407989
20
-1.50653228786763
30
0
41
1
10
8.2500648035485
20
-1.46905961450344
30
0
41
1
10
8.25004294508852
20
-1.37680310316193
30
0
41
1
10
8.25003747336964
20
-1.32194361233218
30
0
41
1
10
8.25003884429395
20
-1.22883515200189
30
0
41
1
10
8.25004086597184
20
-1.19590716082206
30
0
41
1
10
8.250048090869
20
-1.12622053891212
30
0
41
1
10
8.25005333741331
20
-1.08924782915841
30
0
41
1
10
8.25007342992677
20
-0.97443400092169
30
0
41
1
10
8.25009259373795
20
-0.892631299504046
30
0
41
1
10
8.25013935150855
20
-0.718832030734433
30
0
41
1
10
8.25016720905057
20
-0.626060041862303
30
0
41
1
10
8.25019656020251
20
-0.529742815990886
30
0
0
SPLINE
5
B8
100
AcDbEntity
8
1
62
256
6
ByLayer
370
18
48
1
60
0
100
AcDbSpline
70
4
71
3
72
64
73
60
40
0
40
0
40
0
40
0
40
0.0226210019663268
40
0.0226210019663268
40
0.0681393778554633
40
0.0681393778554633
40
0.1136577537446
40
0.1136577537446
40
0.159176129633737
40
0.159176129633737
40
0.204694505522873
40
0.204694505522873
40
0.25021288141201
40
0.25021288141201
40
0.295731257301146
40
0.295731257301146
40
0.318490445245715
40
0.318490445245715
40
0.341249633190283
40
0.341249633190283
40
0.386768009079418
40
0.386768009079418
40
0.432286384968553
40
0.432286384968553
40
0.477804760857688
40
0.477804760857688
40
0.523323136746823
40
0.523323136746823
40
0.568841512635959
40
0.568841512635959
40
0.591600700580526
40
0.591600700580526
40
0.614359888525094
40
0.614359888525094
40
0.637119076469662
40
0.637119076469662
40
0.659878264414229
40
0.659878264414229
40
0.705396640303363
40
0.705396640303363
40
0.72815582824793
40
0.72815582824793
40
0.750915016192497
40
0.750915016192497
40
0.796433392081629
40
0.796433392081629
40
0.819192580026195
40
0.819192580026195
40
0.84195176797076
40
0.84195176797076
40
0.887470143859893
40
0.887470143859893
40
0.932988519749025
40
0.932988519749025
40
0.95574770769359
40
0.95574770769359
40
0.978506895638156
40
0.978506895638156
40
1
40
1
40
1
40
1
41
1
10
13.6563971858191
20
1.25660919474433
30
0
41
1
10
13.7399815035281
20
1.28920047110643
30
0
41
1
10
13.8233721901923
20
1.3201645896327
30
0
41
1
10
14.0738119120732
20
1.40875525206218
30
0
41
1
10
14.2415587305244
20
1.46014780509518
30
0
41
1
10
14.576565716121
20
1.5487583070275
30
0
41
1
10
14.7443483440614
20
1.58541748949653
30
0
41
1
10
15.0825743447538
20
1.64194966122972
30
0
41
1
10
15.252266264624
20
1.66217140118539
30
0
41
1
10
15.5895810814447
20
1.68434134224412
30
0
41
1
10
15.7571233806103
20
1.68675696971192
30
0
41
1
10
16.0918840181101
20
1.67427808714186
30
0
41
1
10
16.259666222459
20
1.65962143434041
30
0
41
1
10
16.5944818894396
20
1.61276425003723
30
0
41
1
10
16.763047879898
20
1.58117226824973
30
0
41
1
10
17.0169286841666
20
1.52093909292452
30
0
41
1
10
17.1018045613552
20
1.49864685604879
30
0
41
1
10
17.2707797337531
20
1.45056404554654
30
0
41
1
10
17.3551111735226
20
1.42476473652101
30
0
41
1
10
17.607678190514
20
1.34228293113063
30
0
41
1
10
17.7746713607158
20
1.27961172881456
30
0
41
1
10
18.1096291424388
20
1.14310602395304
30
0
41
1
10
18.2769702712966
20
1.0686145153233
30
0
41
1
10
18.6125060981553
20
0.908371496396256
30
0
41
1
10
18.781509324616
20
0.823870102756189
30
0
41
1
10
19.120494570396
20
0.643305507638274
30
0
41
1
10
19.2892293978173
20
0.550570611570322
30
0
41
1
10
19.6250259248057
20
0.360394851411343
30
0
41
1
10
19.7919652886766
20
0.262667279199832
30
0
41
1
10
20.0432745614114
20
0.116131973719149
30
0
41
1
10
20.1270885009791
20
0.0671179601426388
30
0
41
1
10
20.2944639032103
20
-0.0318501442650643
30
0
41
1
10
20.3781592473909
20
-0.081574508004735
30
0
41
1
10
20.5463159114249
20
-0.180189831760231
30
0
41
1
10
20.6307220604855
20
-0.229174215203557
30
0
41
1
10
20.7997711661576
20
-0.327244526134194
30
0
41
1
10
20.8846255521572
20
-0.376448945299842
30
0
41
1
10
21.1382846651803
20
-0.521576388195825
30
0
41
1
10
21.3068697793851
20
-0.614419167278214
30
0
41
1
10
21.5581312044897
20
-0.749414336046556
30
0
41
1
10
21.6416263771708
20
-0.793657498893111
30
0
41
1
10
21.8089871688144
20
-0.879294816092994
30
0
41
1
10
21.8927872738951
20
-0.920804314023002
30
0
41
1
10
22.1439718484761
20
-1.0422574206867
30
0
41
1
10
22.3110974318708
20
-1.11909891150125
30
0
41
1
10
22.5639324099447
20
-1.22451834072501
30
0
41
1
10
22.6484908580788
20
-1.25813815963886
30
0
41
1
10
22.8178212148642
20
-1.3226842903363
30
0
41
1
10
22.9024323778159
20
-1.35351164952007
30
0
41
1
10
23.1556140386354
20
-1.43936271826894
30
0
41
1
10
23.3236764101225
20
-1.48884719907107
30
0
41
1
10
23.6582435485055
20
-1.57265839801065
30
0
41
1
10
23.8257307768116
20
-1.60628656302327
30
0
41
1
10
24.0768296096255
20
-1.64465953124216
30
0
41
1
10
24.1603757404732
20
-1.65545321432737
30
0
41
1
10
24.328240419345
20
-1.67260150663952
30
0
41
1
10
24.4124890638463
20
-1.67900966652354
30
0
41
1
10
24.5766718998672
20
-1.68729753824721
30
0
41
1
10
24.6565706100054
20
-1.68936488454469
30
0
41
1
10
24.7364837924353
20
-1.68947226252411
30
0
0
SPLINE
5
B9
100
AcDbEntity
8
1
62
256
6
ByLayer
370
18
48
1
60
0
100
AcDbSpline
70
4
71
3
72
10
73
6
40
0
40
0
40
0
40
0
40
0.5
40
0.5
40
1
40
1
40
1
40
1
41
1
10
25.5098118874925
20
1.62928125846244
30
0
41
1
10
25.5815290389247
20
1.43247670821677
30
0
41
1
10
25.6563334292495
20
1.23701120637671
30
0
41
1
10
25.8101302375397
20
0.847838472459159
30
0
41
1
10
25.8892749830874
20
0.654005649575822
30
0
41
1
10
25.9698019148516
20
0.461345321070098
30
0
0
SPLINE
5
BA
100
AcDbEntity
8
1
62
256
6
ByLayer
370
18
48
1
60
0
100
AcDbSpline
70
4
71
3
72
32
73
28
40
0
40
0
40
0
40
0
40
0.13212115210174
40
0.13212115210174
40
0.211277116258858
40
0.211277116258858
40
0.290433080415976
40
0.290433080415976
40
0.448745008730212
40
0.448745008730212
40
0.52790097288733
40
0.52790097288733
40
0.567478954965889
40
0.567478954965889
40
0.577373450485529
40
0.577373450485529
40
0.587267946005168
40
0.587267946005168
40
0.597162441524808
40
0.597162441524808
40
0.607056937044448
40
0.607056937044448
40
0.765368865358684
40
0.765368865358684
40
0.923680793672921
40
0.923680793672921
40
1
40
1
40
1
40
1
41
1
10
9.36229268325269
20
1.02451058509115
30
0
41
1
10
9.36229268325269
20
0.957347230398881
30
0
41
1
10
9.36229268325272
20
0.88230625216292
30
0
41
1
10
9.36229268325272
20
0.750811248095687
30
0
41
1
10
9.36229268325272
20
0.698654381549233
30
0
41
1
10
9.36229268325272
20
0.590688805487218
30
0
41
1
10
9.36229268325272
20
0.53503073072028
30
0
41
1
10
9.36229268325272
20
0.363380851877849
30
0
41
1
10
9.36229268325272
20
0.242752973433397
30
0
41
1
10
9.36229268325272
20
0.0530276839814405
30
0
41
1
10
9.36229268325275
20
-0.0118648075875853
30
0
41
1
10
9.36229268325275
20
-0.110443735612506
30
0
41
1
10
9.36229268325272
20
-0.143531733612889
30
0
41
1
10
9.36229268325272
20
-0.185174498212888
30
0
41
1
10
9.36229268325275
20
-0.1935142660341
30
0
41
1
10
9.36229268325275
20
-0.210214826631642
30
0
41
1
10
9.36229268325275
20
-0.218519201149462
30
0
41
1
10
9.36229268325275
20
-0.236285253736213
30
0
41
1
10
9.36229268325269
20
-0.244621672564136
30
0
41
1
10
9.36229268325269
20
-0.260785875048413
30
0
41
1
10
9.36229268325272
20
-0.268845373020014
30
0
41
1
10
9.36229268325272
20
-0.405470777180568
30
0
41
1
10
9.36229268325275
20
-0.528646211002666
30
0
41
1
10
9.36229268325275
20
-0.755524770868021
30
0
41
1
10
9.36229268325269
20
-0.859162534992151
30
0
41
1
10
9.36229268325269
20
-0.996493756374804
30
0
41
1
10
9.36229268325275
20
-1.03854029946819
30
0
41
1
10
9.36229268325275
20
-1.07682328577661
30
0
0
SPLINE
5
BB
100
AcDbEntity
8
1
62
256
6
ByLayer
370
13
48
1
60
0
100
AcDbSpline
70
4
71
3
72
30
73
26
40
0
40
0
40
0
40
0
40
0.147514135944453
40
0.147514135944453
40
0.221271203916679
40
0.221271203916679
40
0.258149737902793
40
0.258149737902793
40
0.295028271888906
40
0.295028271888906
40
0.442542407833354
40
0.442542407833354
40
0.479420941819466
40
0.479420941819466
40
0.516299475805577
40
0.516299475805577
40
0.5900565437778
40
0.5900565437778
40
0.737570679722247
40
0.737570679722247
40
0.81132774769447
40
0.81132774769447
40
0.885084815666693
40
0.885084815666693
40
1
40
1
40
1
40
1
41
1
10
25.4174906749475
20
-1.60546255366628
30
0
41
1
10
25.0602106085484
20
-1.6063773918774
30
0
41
1
10
24.7063572895772
20
-1.56949467908535
30
0
41
1
10
24.1728336700859
20
-1.46188642807579
30
0
41
1
10
23.9946082942066
20
-1.41720798058748
30
0
41
1
10
23.7253474552254
20
-1.33764396871558
30
0
41
1
10
23.63511030818
20
-1.30896920570876
30
0
41
1
10
23.4555549960045
20
-1.24815332882073
30
0
41
1
10
23.3660566904048
20
-1.21596693157488
30
0
41
1
10
22.9195171840767
20
-1.04678436484599
30
0
41
1
10
22.5654961955831
20
-0.884918374989979
30
0
41
1
10
22.1192387156544
20
-0.660629646024347
30
0
41
1
10
22.0298062283312
20
-0.614671282686317
30
0
41
1
10
21.850422728184
20
-0.520766149217167
30
0
41
1
10
21.7602440314552
20
-0.472710071499847
30
0
41
1
10
21.4905127886439
20
-0.327071462281111
30
0
41
1
10
21.3119087309284
20
-0.228144790280453
30
0
41
1
10
20.7773927804022
20
0.0698330966828564
30
0
41
1
10
20.423119154679
20
0.270704548783897
30
0
41
1
10
19.885469327352
20
0.55836547000527
30
0
41
1
10
19.7046818058566
20
0.652131132666767
30
0
41
1
10
19.3467314251969
20
0.829708386465001
30
0
41
1
10
19.1686117650352
20
0.913672221602525
30
0
41
1
10
18.7133082541679
20
1.11336697178439
30
0
41
1
10
18.4364117784499
20
1.2207580996656
30
0
41
1
10
18.157171525058
20
1.31028434656369
30
0
0
SPLINE
5
BC
100
AcDbEntity
8
1
62
256
6
ByLayer
370
18
48
1
60
0
100
AcDbSpline
70
4
71
3
72
8
73
4
40
0
40
0
40
0
40
0
40
1
40
1
40
1
40
1
41
1
10
25.9790683899335
20
-0.0172648318734332
30
0
41
1
10
25.7361756496633
20
-0.41583348909856
30
0
41
1
10
25.508549856091
20
-0.828289344143201
30
0
41
1
10
25.2967263598034
20
-1.2551193653351
30
0
0
SPLINE
5
BD
100
AcDbEntity
8
1
62
256
6
ByLayer
370
18
48
1
60
0
100
AcDbSpline
70
4
71
3
72
8
73
4
40
0
40
0
40
0
40
0
40
1
40
1
40
1
40
1
41
1
10
25.9999424177352
20
0.0321465049279652
30
0
41
1
10
26.0000192073885
20
0.0107117888114203
30
0
41
1
10
26.0000191797735
20
-0.01071949712113
30
0
41
1
10
25.9999424177354
20
-0.032146504893575
30
0
0
SPLINE
5
BE
100
AcDbEntity
8
1
62
256
6
ByLayer
370
18
48
1
60
0
100
AcDbSpline
70
4
71
3
72
10
73
6
40
0
40
0
40
0
40
0
40
0.5
40
0.5
40
1
40
1
40
1
40
1
41
1
10
8.0630223382777
20
-0.450531520064942
30
0
41
1
10
8.08787250384253
20
-0.45633132314228
30
0
41
1
10
8.11789045601742
20
-0.466455615459893
30
0
41
1
10
8.18190710340824
20
-0.493427592288157
30
0
41
1
10
8.21605096203388
20
-0.510313967762244
30
0
41
1
10
8.25019656020248
20
-0.529742815989977
30
0
0
SPLINE
5
BF
100
AcDbEntity
8
1
62
256
6
ByLayer
370
18
48
1
60
0
100
AcDbSpline
70
4
71
3
72
10
73
6
40
0
40
0
40
0
40
0
40
0.5
40
0.5
40
1
40
1
40
1
40
1
41
1
10
8.2501965602082
20
-0.529742815993302
30
0
41
1
10
8.43346811020243
20
-0.6340243433431
30
0
41
1
10
8.6171314234459
20
-0.732737096727021
30
0
41
1
10
8.98780626985464
20
-0.91666549719838
30
0
41
1
10
9.17393023091464
20
-1.00153979238343
30
0
41
1
10
9.36229268325275
20
-1.07682328578483
30
0
0
SPLINE
5
C0
100
AcDbEntity
8
1
62
256
6
ByLayer
370
18
48
1
60
0
100
AcDbSpline
70
4
71
3
72
26
73
22
40
0
40
0
40
0
40
0
40
0.105713840281421
40
0.105713840281421
40
0.211427680562842
40
0.211427680562842
40
0.317141520844264
40
0.317141520844264
40
0.422855361125685
40
0.422855361125685
40
0.528569201407106
40
0.528569201407106
40
0.634283041688527
40
0.634283041688527
40
0.739996881969948
40
0.739996881969948
40
0.845710722251369
40
0.845710722251369
40
0.95142456253279
40
0.95142456253279
40
1
40
1
40
1
40
1
41
1
10
9.36229268325275
20
-1.07682328578483
30
0
41
1
10
9.51404067875905
20
-1.13901245280087
30
0
41
1
10
9.66546640856421
20
-1.19609106407688
30
0
41
1
10
9.96761085664005
20
-1.30104095416027
30
0
41
1
10
10.1187476865732
20
-1.3487354583537
30
0
41
1
10
10.4219234828662
20
-1.43208016127053
30
0
41
1
10
10.5733292196268
20
-1.46754490887389
30
0
41
1
10
10.8756511604896
20
-1.52577371718326
30
0
41
1
10
11.0268815805718
20
-1.54880439429823
30
0
41
1
10
11.3294382629132
20
-1.58260503864895
30
0
41
1
10
11.481244782538
20
-1.5924786618487
30
0
41
1
10
11.7836313474638
20
-1.59818901327813
30
0
41
1
10
11.9345521070352
20
-1.59441398728509
30
0
41
1
10
12.2371988231788
20
-1.57530124649585
30
0
41
1
10
12.3889935309678
20
-1.55990124651797
30
0
41
1
10
12.6909796734403
20
-1.51316200910321
30
0
41
1
10
12.8420332741292
20
-1.48296285931338
30
0
41
1
10
13.1441400154623
20
-1.41072827484916
30
0
41
1
10
13.2956732256768
20
-1.36907577221891
30
0
41
1
10
13.5164550722934
20
-1.3009444972983
30
0
41
1
10
13.5858927345109
20
-1.27824702877715
30
0
41
1
10
13.655268139666
20
-1.25446648476327
30
0
0
SPLINE
5
C1
100
AcDbEntity
8
1
62
256
6
ByLayer
370
18
48
1
60
0
100
AcDbSpline
70
4
71
3
72
20
73
16
40
0
40
0
40
0
40
0
40
0.131314933443078
40
0.131314933443078
40
0.276095777869232
40
0.276095777869232
40
0.420876622295386
40
0.420876622295386
40
0.56565746672154
40
0.56565746672154
40
0.710438311147693
40
0.710438311147693
40
0.855219155573847
40
0.855219155573847
40
1
40
1
40
1
40
1
41
1
10
20.7445997194776
20
1.60158485913027
30
0
41
1
10
20.8817606367184
20
1.60224481506884
30
0
41
1
10
21.0189527395303
20
1.5968189605629
30
0
41
1
10
21.3067729232683
20
1.57355528408701
30
0
41
1
10
21.4573063357044
20
1.55431192325048
30
0
41
1
10
21.7595829816428
20
1.5040525070286
30
0
41
1
10
21.911034718565
20
1.47326258123047
30
0
41
1
10
22.2126192943623
20
1.398079229286
30
0
41
1
10
22.3633359889752
20
1.3543299231907
30
0
41
1
10
22.6653109102287
20
1.25648603062845
30
0
41
1
10
22.8165767788843
20
1.202610252162
30
0
41
1
10
23.1183610855017
20
1.08497432878352
30
0
41
1
10
23.2688472854003
20
1.02038682149222
30
0
41
1
10
23.5704344568255
20
0.884197991462628
30
0
41
1
10
23.7218924410117
20
0.812435823581239
30
0
41
1
10
23.8727127375623
20
0.737857238567244
30
0
0
SPLINE
5
C2
100
AcDbEntity
8
1
62
256
6
ByLayer
370
18
48
1
60
0
100
AcDbSpline
70
4
71
3
72
8
73
4
40
0
40
0
40
0
40
0
40
1
40
1
40
1
40
1
41
1
10
8.07769508594794
20
-1.60862709064168
30
0
41
1
10
8.09085927443726
20
-1.59477131123805
30
0
41
1
10
8.10551524638595
20
-1.58236542690085
30
0
41
1
10
8.12182007842378
20
-1.57157537788976
30
0
0
SPLINE
5
C3
100
AcDbEntity
8
1
62
256
6
ByLayer
370
18
48
1
60
0
100
AcDbSpline
70
4
71
3
72
14
73
10
40
0
40
0
40
0
40
0
40
0.25
40
0.25
40
0.5
40
0.5
40
0.75
40
0.75
40
1
40
1
40
1
40
1
41
1
10
25.4174906379876
20
-1.6054625537609
30
0
41
1
10
25.4204421255183
20
-1.60540288851703
30
0
41
1
10
25.4229088871532
20
-1.60661305331846
30
0
41
1
10
25.4265760524359
20
-1.6123101637119
30
0
41
1
10
25.4277613955396
20
-1.61683986350258
30
0
41
1
10
25.4279610720197
20
-1.63026798979544
30
0
41
1
10
25.4269035205276
20
-1.63933983509335
30
0
41
1
10
25.4220666540881
20
-1.66086559857189
30
0
41
1
10
25.4182762847127
20
-1.67331453851804
30
0
41
1
10
25.4137510829624
20
-1.68564088192159
30
0
0
SPLINE
5
C4
100
AcDbEntity
8
1
62
256
6
ByLayer
370
18
48
1
60
0
100
AcDbSpline
70
4
71
3
72
26
73
22
40
0
40
0
40
0
40
0
40
0.0625
40
0.0625
40
0.125
40
0.125
40
0.1875
40
0.1875
40
0.25
40
0.25
40
0.375
40
0.375
40
0.5
40
0.5
40
0.625
40
0.625
40
0.75
40
0.75
40
0.875
40
0.875
40
1
40
1
40
1
40
1
41
1
10
23.8727127375698
20
0.737857238563578
30
0
41
1
10
23.861388766299
20
0.687742083037392
30
0
41
1
10
23.8539105886774
20
0.635748017749023
30
0
41
1
10
23.847306263827
20
0.527679400055433
30
0
41
1
10
23.8483038750356
20
0.472198387778008
30
0
41
1
10
23.8585324092752
20
0.361622142608724
30
0
41
1
10
23.867726493069
20
0.306050419711141
30
0
41
1
10
23.8939736359408
20
0.194360672934181
30
0
41
1
10
23.910938968065
20
0.138828335253862
30
0
41
1
10
23.9708899120727
20
-0.0233604826682665
30
0
41
1
10
24.0239495736325
20
-0.128185647952222
30
0
41
1
10
24.1444755205606
20
-0.322084197217322
30
0
41
1
10
24.2122508550321
20
-0.412313194176335
30
0
41
1
10
24.3592174929035
20
-0.582558888521532
30
0
41
1
10
24.4368947864351
20
-0.660784633680038
30
0
41
1
10
24.5973502316989
20
-0.805805564880728
30
0
41
1
10
24.6803711589175
20
-0.87278903526709
30
0
41
1
10
24.8510129699557
20
-0.997653908028269
30
0
41
1
10
24.9389086127619
20
-1.05566138948345
30
0
41
1
10
25.1162865986001
20
-1.16209483696753
30
0
41
1
10
25.2060271876893
20
-1.21070613859129
30
0
41
1
10
25.2967263598034
20
-1.2551193653351
30
0
0
SPLINE
5
C5
100
AcDbEntity
8
1
62
256
6
ByLayer
370
18
48
1
60
0
100
AcDbSpline
70
4
71
3
72
10
73
6
40
0
40
0
40
0
40
0
40
0.5
40
0.5
40
1
40
1
40
1
40
1
41
1
10
25.5098118874926
20
-1.62928125846213
30
0
41
1
10
25.4920711684221
20
-1.64386092507186
30
0
41
1
10
25.4749779666278
20
-1.65607652721337
30
0
41
1
10
25.4428333801749
20
-1.67497493885338
30
0
41
1
10
25.4278029952598
20
-1.68167649877304
30
0
41
1
10
25.4137510829624
20
-1.68564088192159
30
0
0
SPLINE
5
C6
100
AcDbEntity
8
1
62
256
6
ByLayer
370
18
48
1
60
0
100
AcDbSpline
70
4
71
3
72
10
73
6
40
0
40
0
40
0
40
0
40
0.5
40
0.5
40
1
40
1
40
1
40
1
41
1
10
25.5098118874926
20
-1.6292812584619
30
0
41
1
10
25.5814104549943
20
-1.43280212349913
30
0
41
1
10
25.6562191988503
20
-1.23730217285367
30
0
41
1
10
25.8101752514023
20
-0.847722654747344
30
0
41
1
10
25.889312869379
20
-0.653915006790555
30
0
41
1
10
25.9698019148529
20
-0.461345321067228
30
0
0
SPLINE
5
C7
100
AcDbEntity
8
1
62
256
6
ByLayer
370
18
48
1
60
0
100
AcDbSpline
70
4
71
3
72
8
73
4
40
0
40
0
40
0
40
0
40
1
40
1
40
1
40
1
41
1
10
8.06290477738503
20
1.62556426845649
30
0
41
1
10
8.06761244766332
20
1.61970265837564
30
0
41
1
10
8.07253951791006
20
1.61405349014211
30
0
41
1
10
8.0776954253019
20
1.60862673346014
30
0
0
SPLINE
5
C8
100
AcDbEntity
8
1
62
256
6
ByLayer
370
18
48
1
60
0
100
AcDbSpline
70
4
71
3
72
8
73
4
40
0
40
0
40
0
40
0
40
1
40
1
40
1
40
1
41
1
10
25.9899592936968
20
0.0954538416889079
30
0
41
1
10
25.9905851505681
20
0.0777695288097675
30
0
41
1
10
25.994427737154
20
0.0554650799483341
30
0
41
1
10
25.9999424177352
20
0.0321465049279652
30
0
0
SPLINE
5
C9
100
AcDbEntity
8
1
62
256
6
ByLayer
370
18
48
1
60
0
100
AcDbSpline
70
4
71
3
72
12
73
8
40
0
40
0
40
0
40
0
40
0.384517784085967
40
0.384517784085967
40
0.707091124163319
40
0.707091124163319
40
1
40
1
40
1
40
1
41
1
10
16.4053664108803
20
-1.59979785551786
30
0
41
1
10
16.1926626363927
20
-1.59974236068106
30
0
41
1
10
15.9807445718995
20
-1.58646395559799
30
0
41
1
10
15.5902672678452
20
-1.53829787574918
30
0
41
1
10
15.4117754785021
20
-1.50731038180652
30
0
41
1
10
15.0691432940708
20
-1.43112291005076
30
0
41
1
10
14.9052023147004
20
-1.38732426206172
30
0
41
1
10
14.7424588787011
20
-1.33740523620867
30
0
0
SPLINE
5
CA
100
AcDbEntity
8
1
62
256
6
ByLayer
370
13
48
1
60
0
100
AcDbSpline
70
4
71
3
72
24
73
20
40
0
40
0
40
0
40
0
40
0.0085324914920731
40
0.0085324914920731
40
0.194094654261679
40
0.194094654261679
40
0.286875735646483
40
0.286875735646483
40
0.379656817031286
40
0.379656817031286
40
0.565218979800892
40
0.565218979800892
40
0.658000061185694
40
0.658000061185694
40
0.750781142570496
40
0.750781142570496
40
0.9363433053401
40
0.9363433053401
40
1
40
1
40
1
40
1
41
1
10
14.7424598346099
20
-1.33740552941882
30
0
41
1
10
14.7259776085446
20
-1.3323498646831
30
0
41
1
10
14.7095076657639
20
-1.32723142256844
30
0
41
1
10
14.3351827134945
20
-1.2094041049325
30
0
41
1
10
13.9803030436197
20
-1.06732988921235
30
0
41
1
10
13.444362081425
20
-0.82022654969748
30
0
41
1
10
13.2644792977252
20
-0.732065308729631
30
0
41
1
10
12.9042802012878
20
-0.547876991130977
30
0
41
1
10
12.7253900497382
20
-0.452676213393744
30
0
41
1
10
12.190172992409
20
-0.161640622319254
30
0
41
1
10
11.8353774005568
20
0.03977729274186
30
0
41
1
10
11.2971019252241
20
0.336353188771113
30
0
41
1
10
11.1161501060043
20
0.434485495300919
30
0
41
1
10
10.7577424177018
20
0.623037923846795
30
0
41
1
10
10.5794235585661
20
0.713736449502136
30
0
41
1
10
10.0448388992423
20
0.971325651094247
30
0
41
1
10
9.68921555383272
20
1.1241957975831
30
0
41
1
10
9.20444563231052
20
1.29198009519712
30
0
41
1
10
9.08105086480103
20
1.33118418823671
30
0
41
1
10
8.95783902777089
20
1.36653550797743
30
0
0
SPLINE
5
CB
100
AcDbEntity
8
1
62
256
6
ByLayer
370
18
48
1
60
0
100
AcDbSpline
70
4
71
3
72
36
73
32
40
0
40
0
40
0
40
0
40
0.124999999999994
40
0.124999999999994
40
0.249999999999987
40
0.249999999999987
40
0.374999999999981
40
0.374999999999981
40
0.499999999999974
40
0.499999999999974
40
0.624999999999967
40
0.624999999999967
40
0.749999999999961
40
0.749999999999961
40
0.812499999999957
40
0.812499999999957
40
0.843749999999959
40
0.843749999999959
40
0.85937499999996
40
0.85937499999996
40
0.874999999999962
40
0.874999999999962
40
0.882812499999964
40
0.882812499999964
40
0.890624999999967
40
0.890624999999967
40
0.906249999999971
40
0.906249999999971
40
0.937499999999981
40
0.937499999999981
40
1
40
1
40
1
40
1
41
1
10
23.8727127375698
20
0.737857238563549
30
0
41
1
10
23.9324617653823
20
0.678417179704638
30
0
41
1
10
23.9945962754881
20
0.621980723135692
30
0
41
1
10
24.1211849239625
20
0.517917194390293
30
0
41
1
10
24.1859224443271
20
0.470092225316932
30
0
41
1
10
24.3180874834238
20
0.382283406109934
30
0
41
1
10
24.3855365722853
20
0.34236243108856
30
0
41
1
10
24.5233665935709
20
0.271066558383581
30
0
41
1
10
24.5940240681329
20
0.239674759099898
30
0
41
1
10
24.7347657510443
20
0.18840922325424
30
0
41
1
10
24.8052732399925
20
0.168286551599095
30
0
41
1
10
24.9465912250176
20
0.140259496509998
30
0
41
1
10
25.0179319317618
20
0.13232509179943
30
0
41
1
10
25.122882357649
20
0.131513147967638
30
0
41
1
10
25.1575078401343
20
0.133080340050412
30
0
41
1
10
25.2088530477957
20
0.138475515189754
30
0
41
1
10
25.2258689765959
20
0.140782867494949
30
0
41
1
10
25.2512346091358
20
0.145056364157881
30
0
41
1
10
25.2596670210425
20
0.146597299520778
30
0
41
1
10
25.2764182697195
20
0.150027375429545
30
0
41
1
10
25.2854517414734
20
0.151758240835619
30
0
41
1
10
25.2934718838706
20
0.162392903867499
30
0
41
1
10
25.2948554744779
20
0.167214093584988
30
0
41
1
10
25.2966791680481
20
0.177091107763886
30
0
41
1
10
25.2974911553636
20
0.182074598984542
30
0
41
1
10
25.3000470474313
20
0.196971047201316
30
0
41
1
10
25.3016216397181
20
0.206960275122867
30
0
41
1
10
25.3059755270879
20
0.237094584621104
30
0
41
1
10
25.3083790619756
20
0.257365717082848
30
0
41
1
10
25.3142329016935
20
0.318590428106006
30
0
41
1
10
25.3163338732056
20
0.35999019366335
30
0
41
1
10
25.3169541014279
20
0.401869372323404
30
0
0
SPLINE
5
CC
100
AcDbEntity
8
1
62
256
6
ByLayer
370
18
48
1
60
0
100
AcDbSpline
70
4
71
3
72
34
73
30
40
0
40
0
40
0
40
0
40
0.0791442127675941
40
0.0791442127675941
40
0.158288425535188
40
0.158288425535188
40
0.237432638302782
40
0.237432638302782
40
0.277004744686581
40
0.277004744686581
40
0.316576851070379
40
0.316576851070379
40
0.395721063837975
40
0.395721063837975
40
0.474865276605572
40
0.474865276605572
40
0.554009489373169
40
0.554009489373169
40
0.633153702140765
40
0.633153702140765
40
0.712297914908362
40
0.712297914908362
40
0.791442127675958
40
0.791442127675958
40
0.870586340443555
40
0.870586340443555
40
0.949730553211152
40
0.949730553211152
40
1
40
1
40
1
40
1
41
1
10
9.36229268325269
20
1.02451058509115
30
0
41
1
10
9.53161292985592
20
0.944780063699312
30
0
41
1
10
9.70059373305429
20
0.861554496479187
30
0
41
1
10
10.0370292400353
20
0.687256507013103
30
0
41
1
10
10.2039750357621
20
0.595304773896459
30
0
41
1
10
10.5394453865238
20
0.408488600559565
30
0
41
1
10
10.7067039915488
20
0.311542281146558
30
0
41
1
10
10.9591975468589
20
0.164671949712101
30
0
41
1
10
11.0436755544306
20
0.115564564380264
30
0
41
1
10
11.2130301838762
20
0.0166292189935007
30
0
41
1
10
11.2979488421647
20
-0.0335966628428821
30
0
41
1
10
11.5516509540399
20
-0.183066792663908
30
0
41
1
10
11.7203495030913
20
-0.280414350504259
30
0
41
1
10
12.0556479274509
20
-0.472857825820768
30
0
41
1
10
12.2229612095462
20
-0.56669059212129
30
0
41
1
10
12.5583683630393
20
-0.747295767339352
30
0
41
1
10
12.7255838247891
20
-0.835427521284771
30
0
41
1
10
13.0631534436168
20
-1.00087185449218
30
0
41
1
10
13.2331796136777
20
-1.08020248330283
30
0
41
1
10
13.5709069769283
20
-1.22492375862322
30
0
41
1
10
13.7392150972233
20
-1.29039482085056
30
0
41
1
10
14.0738119120732
20
-1.40875525206218
30
0
41
1
10
14.2415587305244
20
-1.46014780509518
30
0
41
1
10
14.576565716121
20
-1.5487583070275
30
0
41
1
10
14.7443483440614
20
-1.58541748949653
30
0
41
1
10
15.0825743447538
20
-1.64194966122972
30
0
41
1
10
15.252266264624
20
-1.66217140118539
30
0
41
1
10
15.5280485571054
20
-1.68029713081384
30
0
41
1
10
15.6347235708989
20
-1.68384040319688
30
0
41
1
10
15.7411929485891
20
-1.68388984657932
30
0
0
SPLINE
5
CD
100
AcDbEntity
8
1
62
256
6
ByLayer
370
18
48
1
60
0
100
AcDbSpline
70
4
71
3
72
24
73
20
40
0
40
0
40
0
40
0
40
0.0276672509967769
40
0.0276672509967769
40
0.116061137269799
40
0.116061137269799
40
0.292848909815839
40
0.292848909815839
40
0.46963668236188
40
0.46963668236188
40
0.5580305686349
40
0.5580305686349
40
0.64642445490792
40
0.64642445490792
40
0.82321222745396
40
0.82321222745396
40
0.91160611372698
40
0.91160611372698
40
1
40
1
40
1
40
1
41
1
10
22.6536922213087
20
1.25970572394115
30
0
41
1
10
22.6801661588539
20
1.27007637217127
30
0
41
1
10
22.7066558695477
20
1.2803097684606
30
0
41
1
10
22.8178212148641
20
1.3226842903363
30
0
41
1
10
22.9024323778159
20
1.35351164952007
30
0
41
1
10
23.1556140386354
20
1.43936271826894
30
0
41
1
10
23.3236764101225
20
1.48884719907107
30
0
41
1
10
23.6582435485056
20
1.57265839801065
30
0
41
1
10
23.8257307768117
20
1.60628656302327
30
0
41
1
10
24.0768296096255
20
1.64465953124216
30
0
41
1
10
24.1603757404733
20
1.65545321432737
30
0
41
1
10
24.3282404193451
20
1.67260150663952
30
0
41
1
10
24.4124890638463
20
1.67900966652354
30
0
41
1
10
24.665809366198
20
1.69179715528776
30
0
41
1
10
24.8353891357733
20
1.69154012866971
30
0
41
1
10
25.0887920121113
20
1.67795393107872
30
0
41
1
10
25.1732355786252
20
1.67128111219446
30
0
41
1
10
25.341698527392
20
1.65355839913303
30
0
41
1
10
25.4256272440925
20
1.64244392274122
30
0
41
1
10
25.5098118874927
20
1.62928125846176
30
0
0
SPLINE
5
CE
100
AcDbEntity
8
1
62
256
6
ByLayer
370
18
48
1
60
0
100
AcDbSpline
70
4
71
3
72
10
73
6
40
0
40
0
40
0
40
0
40
0.767724366013799
40
0.767724366013799
40
1
40
1
40
1
40
1
41
1
10
8.06290477738509
20
1.62556426845649
30
0
41
1
10
8.06291807251841
20
1.65283037557165
30
0
41
1
10
8.06292033202649
20
1.66969134225448
30
0
41
1
10
8.06291422032194
20
1.67809601998934
30
0
41
1
10
8.06291215072471
20
1.67907968434062
30
0
41
1
10
8.06290957241896
20
1.67909024260342
30
0
0
SPLINE
5
CF
100
AcDbEntity
8
1
62
256
6
ByLayer
370
18
48
1
60
0
100
AcDbSpline
70
4
71
3
72
14
73
10
40
0
40
0
40
0
40
0
40
0.25
40
0.25
40
0.5
40
0.5
40
0.75
40
0.75
40
1
40
1
40
1
40
1
41
1
10
25.2967263598034
20
-1.2551193653351
30
0
41
1
10
25.2962528639286
20
-1.31220752168542
30
0
41
1
10
25.2983262766416
20
-1.36263083601401
30
0
41
1
10
25.3077020227765
20
-1.45038287643473
30
0
41
1
10
25.3151285118047
20
-1.48794235598933
30
0
41
1
10
25.3351931378243
20
-1.54724829310803
30
0
41
1
10
25.3477930398237
20
-1.56931290422503
30
0
41
1
10
25.3784756076109
20
-1.598669752847
30
0
41
1
10
25.3966822532605
20
-1.60588320329629
30
0
41
1
10
25.4174906443572
20
-1.60546255363215
30
0
0
SPLINE
5
D0
100
AcDbEntity
8
1
62
256
6
ByLayer
370
18
48
1
60
0
100
AcDbSpline
70
4
71
3
72
62
73
58
40
0
40
0
40
0
40
0
40
0.0129868112837932
40
0.0129868112837932
40
0.0545233958563901
40
0.0545233958563901
40
0.096059980428987
40
0.096059980428987
40
0.137596565001584
40
0.137596565001584
40
0.179133149574181
40
0.179133149574181
40
0.220669734146778
40
0.220669734146778
40
0.262206318719375
40
0.262206318719375
40
0.282974611005673
40
0.282974611005673
40
0.303742903291972
40
0.303742903291972
40
0.345279487864568
40
0.345279487864568
40
0.386816072437165
40
0.386816072437165
40
0.428352657009762
40
0.428352657009762
40
0.469889241582359
40
0.469889241582359
40
0.511425826154956
40
0.511425826154956
40
0.552962410727553
40
0.552962410727553
40
0.59449899530015
40
0.59449899530015
40
0.636035579872747
40
0.636035579872747
40
0.677572164445344
40
0.677572164445344
40
0.698340456731641
40
0.698340456731641
40
0.719108749017939
40
0.719108749017939
40
0.760645333590533
40
0.760645333590533
40
0.802181918163127
40
0.802181918163127
40
0.822950210449425
40
0.822950210449425
40
0.843718502735723
40
0.843718502735723
40
0.885255087308317
40
0.885255087308317
40
0.926791671880911
40
0.926791671880911
40
0.968328256453505
40
0.968328256453505
40
1
40
1
40
1
40
1
41
1
10
22.6566304504907
20
-1.25785566155679
30
0
41
1
10
22.6094311190246
20
-1.27410828691416
30
0
41
1
10
22.5622096520679
20
-1.28988758987012
30
0
41
1
10
22.3638422757295
20
-1.35418052686819
30
0
41
1
10
22.2131485273499
20
-1.39792693597016
30
0
41
1
10
21.9119592649601
20
-1.47305235742044
30
0
41
1
10
21.7611678320587
20
-1.50375147030039
30
0
41
1
10
21.4587642554301
20
-1.55410666403898
30
0
41
1
10
21.3081763318094
20
-1.57339418654269
30
0
41
1
10
21.0067885728963
20
-1.59784930377666
30
0
41
1
10
20.8562322153134
20
-1.60326594495732
30
0
41
1
10
20.5540649590623
20
-1.59918806326317
30
0
41
1
10
20.4028186822288
20
-1.59183271378049
30
0
41
1
10
20.1013129335549
20
-1.56407346642356
30
0
41
1
10
19.950900023291
20
-1.54388939802246
30
0
41
1
10
19.7242724740235
20
-1.50232814145562
30
0
41
1
10
19.6485101814118
20
-1.48626213223559
30
0
41
1
10
19.4972930404033
20
-1.45198157926566
30
0
41
1
10
19.4217851243402
20
-1.43363407003957
30
0
41
1
10
19.195274959892
20
-1.37448195732415
30
0
41
1
10
19.0442224248195
20
-1.32980321542192
30
0
41
1
10
18.7423548947764
20
-1.22841893338398
30
0
41
1
10
18.5907339142658
20
-1.17205902522784
30
0
41
1
10
18.288659781209
20
-1.05003408804981
30
0
41
1
10
18.137944219243
20
-0.984526410788163
30
0
41
1
10
17.8356355500812
20
-0.845819021244097
30
0
41
1
10
17.6840813647502
20
-0.772843189516948
30
0
41
1
10
17.3822476337917
20
-0.621065276079378
30
0
41
1
10
17.2313827140926
20
-0.54260054834424
30
0
41
1
10
16.9293815123295
20
-0.38089382554827
30
0
41
1
10
16.7778738467273
20
-0.29778989240134
30
0
41
1
10
16.4755181855459
20
-0.130819851963139
30
0
41
1
10
16.3248421319059
20
-0.0462241983018714
30
0
41
1
10
16.0228183847761
20
0.122263091543971
30
0
41
1
10
15.8711683182258
20
0.206266750395258
30
0
41
1
10
15.5687619292941
20
0.372355548043203
30
0
41
1
10
15.4178559347469
20
0.454183712165275
30
0
41
1
10
15.1912494032095
20
0.573468213321348
30
0
41
1
10
15.1157086771773
20
0.612749915221627
30
0
41
1
10
14.9645519967337
20
0.689941277244884
30
0
41
1
10
14.8886386011402
20
0.727314066254621
30
0
41
1
10
14.6612625230217
20
0.837608465414547
30
0
41
1
10
14.5100261216515
20
0.908678440060982
30
0
41
1
10
14.2076868312229
20
1.04341560851333
30
0
41
1
10
14.0561227161583
20
1.10725697395597
30
0
41
1
10
13.8287218480203
20
1.19338997281562
30
0
41
1
10
13.753158780741
20
1.22061901438494
30
0
41
1
10
13.6019248871712
20
1.27296852192114
30
0
41
1
10
13.5262909929047
20
1.29786169910022
30
0
41
1
10
13.299329835394
20
1.3680390265487
30
0
41
1
10
13.1479257093566
20
1.40973597228856
30
0
41
1
10
12.84488090823
20
1.48236722699647
30
0
41
1
10
12.6935846701074
20
1.51267832309577
30
0
41
1
10
12.3916104176565
20
1.55957534562617
30
0
41
1
10
12.2403062781371
20
1.57503356917601
30
0
41
1
10
11.9729097198127
20
1.59204498023283
30
0
41
1
10
11.8575590668623
20
1.59601947692337
30
0
41
1
10
11.7422506490439
20
1.59625337525847
30
0
0
SPLINE
5
D1
100
AcDbEntity
8
1
62
256
6
ByLayer
370
18
48
1
60
0
100
AcDbSpline
70
4
71
3
72
10
73
6
40
0
40
0
40
0
40
0
40
0.5
40
0.5
40
1
40
1
40
1
40
1
41
1
10
25.5098118874926
20
1.62928125846185
30
0
41
1
10
25.4919679255552
20
1.64394577205971
30
0
41
1
10
25.4749504585548
20
1.65608876058997
30
0
41
1
10
25.442949928619
20
1.67491034600894
30
0
41
1
10
25.4278941721141
20
1.68165077558484
30
0
41
1
10
25.4137510829623
20
1.68564088192159
30
0
0
SPLINE
5
D2
100
AcDbEntity
8
1
62
256
6
ByLayer
370
18
48
1
60
0
100
AcDbSpline
70
4
71
3
72
46
73
42
40
0
40
0
40
0
40
0
40
0.125000000000036
40
0.125000000000036
40
0.187500000000056
40
0.187500000000056
40
0.250000000000076
40
0.250000000000076
40
0.312500000000095
40
0.312500000000095
40
0.343750000000104
40
0.343750000000104
40
0.375000000000113
40
0.375000000000113
40
0.406250000000121
40
0.406250000000121
40
0.43750000000013
40
0.43750000000013
40
0.453125000000134
40
0.453125000000134
40
0.468750000000139
40
0.468750000000139
40
0.500000000000145
40
0.500000000000145
40
0.531250000000152
40
0.531250000000152
40
0.546875000000154
40
0.546875000000154
40
0.554687500000155
40
0.554687500000155
40
0.558593750000156
40
0.558593750000156
40
0.562500000000156
40
0.562500000000156
40
0.625000000000134
40
0.625000000000134
40
0.750000000000089
40
0.750000000000089
40
0.875000000000045
40
0.875000000000045
40
1
40
1
40
1
40
1
41
1
10
8.06302233827773
20
-0.450531520064942
30
0
41
1
10
7.83027875920337
20
-0.312055696543467
30
0
41
1
10
7.59920061128048
20
-0.167853517449686
30
0
41
1
10
7.25450641333202
20
0.0567291694875962
30
0
41
1
10
7.13995986598817
20
0.133023995404273
30
0
41
1
10
6.91206923355085
20
0.289598490591373
30
0
41
1
10
6.79949140398114
20
0.369331618562086
30
0
41
1
10
6.58161240900424
20
0.531757838238747
30
0
41
1
10
6.47579258727836
20
0.61459178150966
30
0
41
1
10
6.3260462595822
20
0.744807510522094
30
0
41
1
10
6.27751631558118
20
0.789356311726323
30
0
41
1
10
6.18594639906655
20
0.881456602429836
30
0
41
1
10
6.14355574799205
20
0.928266569415399
30
0
41
1
10
6.06999315719244
20
1.02502022363225
30
0
41
1
10
6.03899711557429
20
1.07486440272427
30
0
41
1
10
6.00071692676505
20
1.17486742030704
30
0
41
1
10
5.99433333340539
20
1.22515935270701
30
0
41
1
10
6.01158200537435
20
1.2930340612246
30
0
41
1
10
6.02147255117544
20
1.31405214518409
30
0
41
1
10
6.04890131237275
20
1.35330890841197
30
0
41
1
10
6.06631872631237
20
1.37126367529396
30
0
41
1
10
6.12570365867387
20
1.41966559072904
30
0
41
1
10
6.1758221781192
20
1.44573706401323
30
0
41
1
10
6.28341861115391
20
1.48855256937929
30
0
41
1
10
6.34157596209596
20
1.50574516090259
30
0
41
1
10
6.43290724524783
20
1.52780521844892
30
0
41
1
10
6.46388902111178
20
1.53447574513416
30
0
41
1
10
6.51103405513322
20
1.54367853211937
30
0
41
1
10
6.52666282446674
20
1.54686343760568
30
0
41
1
10
6.55094197042985
20
1.55058619154022
30
0
41
1
10
6.55945459819333
20
1.55142815219617
30
0
41
1
10
6.57713844948131
20
1.55186523241085
30
0
41
1
10
6.58584187052739
20
1.55158720955677
30
0
41
1
10
6.73342002708807
20
1.54548350977748
30
0
41
1
10
6.87175579117894
20
1.53760828392572
30
0
41
1
10
7.28425506658618
20
1.5076578068776
30
0
41
1
10
7.55642413470309
20
1.47864209499312
30
0
41
1
10
8.08774437211071
20
1.39630918705561
30
0
41
1
10
8.34788660738661
20
1.34281731456909
30
0
41
1
10
8.86003732138818
20
1.20610041723972
30
0
41
1
10
9.11207384939647
20
1.12283290231338
30
0
41
1
10
9.36229268325266
20
1.02451058509115
30
0
0
SPLINE
5
D3
100
AcDbEntity
8
1
62
256
6
ByLayer
370
18
48
1
60
0
100
AcDbSpline
70
4
71
3
72
8
73
4
40
0
40
0
40
0
40
0
40
1
40
1
40
1
40
1
41
1
10
8.20013194671063
20
-1.57975108168881
30
0
41
1
10
8.17857436614281
20
-1.58401423331551
30
0
41
1
10
8.15705034513309
20
-1.58819178403275
30
0
41
1
10
8.13683344669323
20
-1.59279082968371
30
0
0
SPLINE
5
D4
100
AcDbEntity
8
1
62
256
6
ByLayer
370
18
48
1
60
0
100
AcDbSpline
70
4
71
3
72
8
73
4
40
0
40
0
40
0
40
0
40
1
40
1
40
1
40
1
41
1
10
25.4068892836776
20
0.464551124262272
30
0
41
1
10
25.5946821393479
20
0.46229813343561
30
0
41
1
10
25.7825336237077
20
0.459598047445809
30
0
41
1
10
25.9698019148517
20
0.461345321070098
30
0
0
SPLINE
5
D5
100
AcDbEntity
8
1
62
256
6
ByLayer
370
18
48
1
60
0
100
AcDbSpline
70
4
71
3
72
25
73
21
40
0
40
0
40
0
40
0
40
0.0294649731448417
40
0.0294649731448417
40
0.104121513672162
40
0.178778054199481
40
0.178778054199481
40
0.253434594726801
40
0.253434594726801
40
0.402747675781441
40
0.402747675781441
40
0.55206075683608
40
0.55206075683608
40
0.70137383789072
40
0.70137383789072
40
0.77603037841804
40
0.77603037841804
40
0.85068691894536
40
0.85068691894536
40
1
40
1
40
1
40
1
41
1
10
8.06290956954689
20
-1.67909025396136
30
0
41
1
10
8.06290788761694
20
-1.67909666920909
30
0
41
1
10
8.06290598929363
20
-1.67868910320601
30
0
41
1
10
8.06289865497627
20
-1.67578149027108
30
0
41
1
10
8.06288587761495
20
-1.66634620579458
30
0
41
1
10
8.06287081477831
20
-1.64655817337834
30
0
41
1
10
8.06285564400901
20
-1.62153593227041
30
0
41
1
10
8.06284796726717
20
-1.60630566902353
30
0
41
1
10
8.06282659756673
20
-1.55334884225968
30
0
41
1
10
8.06281461051117
20
-1.50855412435789
30
0
41
1
10
8.06280106224185
20
-1.40041055589216
30
0
41
1
10
8.06279961923798
20
-1.33622309484463
30
0
41
1
10
8.06281085559465
20
-1.19360382822259
30
0
41
1
10
8.06282335932968
20
-1.11503927104891
30
0
41
1
10
8.06285252095537
20
-0.986236630747044
30
0
41
1
10
8.06286404069903
20
-0.941203718071279
30
0
41
1
10
8.06288985912613
20
-0.848998018538339
30
0
41
1
10
8.06290415116709
20
-0.801780931513207
30
0
41
1
10
8.06295032437328
20
-0.6568670499679
30
0
41
1
10
8.06298557388254
20
-0.555938626917623
30
0
41
1
10
8.06302233827762
20
-0.450531520064942
30
0
0
SPLINE
5
D6
100
AcDbEntity
8
1
62
256
6
ByLayer
370
18
48
1
60
0
100
AcDbSpline
70
4
71
3
72
8
73
4
40
0
40
0
40
0
40
0
40
1
40
1
40
1
40
1
41
1
10
25.9698019148516
20
-0.46134532107061
30
0
41
1
10
25.9789265648785
20
-0.339262133761849
30
0
41
1
10
25.9856471583597
20
-0.217298234499594
30
0
41
1
10
25.9899592936968
20
-0.0954538416888511
30
0
0
SPLINE
5
D7
100
AcDbEntity
8
1
62
256
6
ByLayer
370
18
48
1
60
0
100
AcDbSpline
70
4
71
3
72
8
73
4
40
0
40
0
40
0
40
0
40
1
40
1
40
1
40
1
41
1
10
25.9999424177352
20
0.0321465049279652
30
0
41
1
10
25.9949082776707
20
0.0145591319907794
30
0
41
1
10
25.9871854603367
20
-0.0039453318850917
30
0
41
1
10
25.9790683899335
20
-0.0172648318734048
30
0
0
SPLINE
5
D8
100
AcDbEntity
8
1
62
256
6
ByLayer
370
18
48
1
60
0
100
AcDbSpline
70
4
71
3
72
8
73
4
40
0
40
0
40
0
40
0
40
1
40
1
40
1
40
1
41
1
10
11.2124647728543
20
0.0157110626189478
30
0
41
1
10
11.178699637631
20
0.0353494524634925
30
0
41
1
10
11.1450943075009
20
0.0554431201402963
30
0
41
1
10
11.1116593639117
20
0.0760050639789824
30
0
0
SPLINE
5
D9
100
AcDbEntity
8
1
62
256
6
ByLayer
370
18
48
1
60
0
100
AcDbSpline
70
4
71
2
72
6
73
3
40
0
40
0
40
0
40
1
40
1
40
1
41
1
10
8.40637787902187
20
1.48817609157595
30
0
41
1
10
8.71078543378309
20
1.43224164878666
30
0
41
1
10
9.01430701563274
20
1.32896777380171
30
0
0
SPLINE
5
DA
100
AcDbEntity
8
1
62
256
6
ByLayer
370
18
48
1
60
0
100
AcDbSpline
70
4
71
3
72
18
73
14
40
0
40
0
40
0
40
0
40
0.124835465774276
40
0.213652621044328
40
0.27570529222207
40
0.339948321633078
40
0.40700780030598
40
0.474112968613736
40
0.67234937389736
40
0.717867396815209
40
0.783056536410725
40
0.882239282165948
40
1
40
1
40
1
40
1
41
1
10
16.3813226280654
20
-1.5998693425949
30
0
41
1
10
16.5626605199216
20
-1.5997931968667
30
0
41
1
10
16.8730435207795
20
-1.5997178158018
30
0
41
1
10
17.273685728852
20
-1.60066067781145
30
0
41
1
10
17.586244660212
20
-1.6002454582306
30
0
41
1
10
17.8672101099771
20
-1.59975822575333
30
0
41
1
10
18.1555157203952
20
-1.60036909014315
30
0
41
1
10
18.6385292245506
20
-1.60120079723549
30
0
41
1
10
19.0902373857087
20
-1.60031743659459
30
0
41
1
10
19.5391686753758
20
-1.59996809662951
30
0
41
1
10
19.8441481814615
20
-1.60321043844485
30
0
41
1
10
20.2541101502754
20
-1.60040593150927
30
0
41
1
10
20.5693344512291
20
-1.60142953975651
30
0
41
1
10
20.7404422026339
20
-1.60195619109777
30
0
0
SPLINE
5
DB
100
AcDbEntity
8
1
62
256
6
ByLayer
370
18
48
1
60
0
100
AcDbSpline
70
4
71
2
72
6
73
3
40
0
40
0
40
0
40
1
40
1
40
1
41
1
10
25.1771615022049
20
-1.60131928376137
30
0
41
1
10
25.2861075453684
20
-1.60206395389668
30
0
41
1
10
25.3952111523419
20
-1.60263184153638
30
0
0
SPLINE
5
DC
100
AcDbEntity
8
1
62
256
6
ByLayer
370
18
48
1
60
0
100
AcDbSpline
70
4
71
3
72
18
73
14
40
0
40
0
40
0
40
0
40
0.144352304489681
40
0.258240803979701
40
0.329421499776689
40
0.39475600867996
40
0.460757300824344
40
0.526846661065406
40
0.592497021218857
40
0.657634751834815
40
0.785372621751519
40
0.897217616387513
40
1
40
1
40
1
40
1
41
1
10
20.7423709271765
20
1.60196287319354
30
0
41
1
10
20.5679326829364
20
1.60142401472697
30
0
41
1
10
20.2558675991266
20
1.60039928055832
30
0
41
1
10
19.8577815144707
20
1.60318430429322
30
0
41
1
10
19.5551822591942
20
1.59999980766983
30
0
41
1
10
19.3104466513674
20
1.60012789017026
30
0
41
1
10
19.0718656809534
20
1.6004505693507
30
0
41
1
10
18.8329018043078
20
1.60111409907756
30
0
41
1
10
18.5949806071359
20
1.60122877336335
30
0
41
1
10
18.2825593528263
20
1.60037477489732
30
0
41
1
10
17.9143144663528
20
1.5996528915552
30
0
41
1
10
17.5005708155066
20
1.60056924645758
30
0
41
1
10
17.2412068323128
20
1.60033185790201
30
0
41
1
10
17.1170029365188
20
1.60022809368863
30
0
0
SPLINE
5
DD
100
AcDbEntity
8
1
62
256
6
ByLayer
370
18
48
1
60
0
100
AcDbSpline
70
4
71
3
72
16
73
12
40
0
40
0
40
0
40
0
40
0.152314653397609
40
0.266797764343561
40
0.368853387871092
40
0.476871797759183
40
0.563423817154498
40
0.646329464587469
40
0.727176204213
40
0.850413216369629
40
1
40
1
40
1
40
1
41
1
10
11.7382044630183
20
1.59617684295543
30
0
41
1
10
11.5611214893368
20
1.5964223690419
30
0
41
1
10
11.2509379334044
20
1.5967124768506
30
0
41
1
10
10.8220828284643
20
1.59547948321023
30
0
41
1
10
10.4447568871612
20
1.59630800360796
30
0
41
1
10
10.0998482739207
20
1.59541469856714
30
0
41
1
10
9.77722010389587
20
1.5949936052472
30
0
41
1
10
9.4861841403779
20
1.59538558925786
30
0
41
1
10
9.15248968966802
20
1.59553588044832
30
0
41
1
10
8.7413091789613
20
1.59474387403048
30
0
41
1
10
8.42410319335184
20
1.59477172113293
30
0
41
1
10
8.25018272767008
20
1.5948250098759
30
0
0
SPLINE
5
DE
100
AcDbEntity
8
1
62
256
6
ByLayer
370
18
48
1
60
0
100
AcDbSpline
70
4
71
3
72
16
73
12
40
0
40
0
40
0
40
0
40
0.149626176987819
40
0.272895643346288
40
0.353763673786651
40
0.436691154243387
40
0.523265966926681
40
0.631312823230483
40
0.733395322886745
40
0.847908582713913
40
1
40
1
40
1
40
1
41
1
10
8.25018272767011
20
-1.5948250098759
30
0
41
1
10
8.42410319335187
20
-1.59477172113299
30
0
41
1
10
8.74130917896099
20
-1.59474387399644
30
0
41
1
10
9.15248968966907
20
-1.59553588053131
30
0
41
1
10
9.48618414037563
20
-1.59538558906183
30
0
41
1
10
9.77722010390528
20
-1.59499360602482
30
0
41
1
10
10.0998482738804
20
-1.59541469520184
30
0
41
1
10
10.4447568873491
20
-1.59630801927222
30
0
41
1
10
10.8220828277783
20
-1.595479425928
30
0
41
1
10
11.250631830461
20
-1.59671187420085
30
0
41
1
10
11.5605092957104
20
-1.5964221410764
30
0
41
1
10
11.7372861798662
20
-1.59617717403862
30
0
0
LINE
5
7B
100
AcDbEntity
8
SK1
62
256
6
ByLayer
370
18
48
1
60
0
100
AcDbLine
10
-36
20
2.065
30
0
11
-36
21
-2.065
31
0
39
0
210
0
220
0
230
1
0
LINE
5
7D
100
AcDbEntity
8
SK1
62
256
6
ByLayer
370
18
48
1
60
0
100
AcDbLine
10
-35.065
20
3
30
0
11
-35.065
21
-3
31
0
39
0
210
0
220
0
230
1
0
LINE
5
7E
100
AcDbEntity
8
SK1
62
256
6
ByLayer
370
18
48
1
60
0
100
AcDbLine
10
0
20
-3
30
0
11
0
21
3
31
0
39
0
210
0
220
0
230
1
0
LINE
5
7F
100
AcDbEntity
8
1
62
256
6
ByLayer
370
13
48
1
60
0
100
AcDbLine
10
0.788091
20
2.337521
30
0
11
0.788091
21
-2.337521
31
0
39
0
210
0
220
0
230
1
0
LINE
5
80
100
AcDbEntity
8
1
62
256
6
ByLayer
370
18
48
1
60
0
100
AcDbLine
10
0
20
-3
30
0
11
0
21
3
31
0
39
0
210
0
220
0
230
1
0
LINE
5
81
100
AcDbEntity
8
1
62
256
6
ByLayer
370
13
48
1
60
0
100
AcDbLine
10
1.576683
20
1.675042
30
0
11
1.576683
21
-1.675042
31
0
39
0
210
0
220
0
230
1
0
LINE
5
82
100
AcDbEntity
8
1
62
256
6
ByLayer
370
13
48
1
60
0
100
AcDbLine
10
25.316954
20
0.401869
30
0
11
25.979068
21
-0.017265
31
0
39
0
210
0
220
0
230
1
0
LINE
5
83
100
AcDbEntity
8
1
62
256
6
ByLayer
370
13
48
1
60
0
100
AcDbLine
10
25.406889
20
0.464551
30
0
11
25.989959
21
0.095454
31
0
39
0
210
0
220
0
230
1
0
LINE
5
84
100
AcDbEntity
8
80
62
256
6
ByLayer
370
18
48
1
60
0
100
AcDbLine
10
0
20
0
30
0
11
-5
21
0
31
0
39
0
210
0
220
0
230
1
0
LINE
5
85
100
AcDbEntity
8
4
62
256
6
ByLayer
370
18
48
0.05
60
0
100
AcDbLine
10
26
20
0
30
0
11
0
21
0
31
0
39
0
210
0
220
0
230
1
0
LINE
5
87
100
AcDbEntity
8
SK4
62
256
6
ByLayer
370
18
48
0.05
60
0
100
AcDbLine
10
31
20
0
30
0
11
-41
21
0
31
0
39
0
210
0
220
0
230
1
0
LINE
5
89
100
AcDbEntity
8
SK1
62
256
6
ByLayer
370
18
48
1
60
0
100
AcDbLine
10
-35.065
20
-3
30
0
11
0
21
-3
31
0
39
0
210
0
220
0
230
1
0
LINE
5
8A
100
AcDbEntity
8
SK1
62
256
6
ByLayer
370
18
48
1
60
0
100
AcDbLine
10
0
20
3
30
0
11
-35.065
21
3
31
0
39
0
210
0
220
0
230
1
0
LINE
5
8B
100
AcDbEntity
8
SK1
62
256
6
ByLayer
370
18
48
1
60
0
100
AcDbLine
10
-36
20
-2.065
30
0
11
-35.065
21
-3
31
0
39
0
210
0
220
0
230
1
0
LINE
5
8C
100
AcDbEntity
8
SK1
62
256
6
ByLayer
370
18
48
1
60
0
100
AcDbLine
10
-35.065
20
3
30
0
11
-36
21
2.065
31
0
39
0
210
0
220
0
230
1
0
LINE
5
8D
100
AcDbEntity
8
1
62
256
6
ByLayer
370
18
48
1
60
0
100
AcDbLine
10
1.576683
20
-1.675042
30
0
11
8.062908
21
-1.679096
31
0
39
0
210
0
220
0
230
1
0
LINE
5
8E
100
AcDbEntity
8
1
62
256
6
ByLayer
370
18
48
1
60
0
100
AcDbLine
10
15.740873
20
-1.683895
30
0
11
16.210184
21
-1.684188
31
0
39
0
210
0
220
0
230
1
0
LINE
5
8F
100
AcDbEntity
8
1
62
256
6
ByLayer
370
18
48
1
60
0
100
AcDbLine
10
24.739981
20
-1.689519
30
0
11
25.209808
21
-1.689813
31
0
39
0
210
0
220
0
230
1
0
LINE
5
90
100
AcDbEntity
8
1
62
256
6
ByLayer
370
18
48
1
60
0
100
AcDbLine
10
25.209822
20
1.689813
30
0
11
24.739981
21
1.689519
31
0
39
0
210
0
220
0
230
1
0
LINE
5
91
100
AcDbEntity
8
1
62
256
6
ByLayer
370
18
48
1
60
0
100
AcDbLine
10
16.208883
20
1.684187
30
0
11
15.740873
21
1.683895
31
0
39
0
210
0
220
0
230
1
0
LINE
5
92
100
AcDbEntity
8
1
62
256
6
ByLayer
370
18
48
1
60
0
100
AcDbLine
10
8.062908
20
1.679096
30
0
11
1.576683
21
1.675042
31
0
39
0
210
0
220
0
230
1
0
LINE
5
93
100
AcDbEntity
8
81
62
256
6
ByLayer
370
18
48
1
60
0
100
AcDbLine
10
26
20
0
30
0
11
31
21
0
31
0
39
0
210
0
220
0
230
1
0
LINE
5
94
100
AcDbEntity
8
SK2
62
256
6
ByLayer
370
13
48
1
60
0
100
AcDbLine
10
-44.625163
20
32.117107
30
0
11
-44.625163
21
-11.75
31
0
39
0
210
0
220
0
230
1
0
LINE
5
96
100
AcDbEntity
8
SK2
62
256
6
ByLayer
370
13
48
1
60
0
100
AcDbLine
10
-37.5875
20
3
30
0
11
-46.625163
21
3
31
0
39
0
210
0
220
0
230
1
0
LINE
5
97
100
AcDbEntity
8
SK2
62
256
6
ByLayer
370
13
48
1
60
0
100
AcDbLine
10
-37.5875
20
-3
30
0
11
-46.625163
21
-3
31
0
39
0
210
0
220
0
230
1
0
LINE
5
98
100
AcDbEntity
8
1
62
256
6
ByLayer
370
18
48
1
60
1
100
AcDbLine
10
-44.625163
20
3
30
0
11
-45.085946
21
6.499998
31
0
39
0
210
0
220
0
230
1
0
LINE
5
99
100
AcDbEntity
8
1
62
256
6
ByLayer
370
18
48
1
60
1
100
AcDbLine
10
-45.085946
20
6.499998
30
0
11
-44.164379
21
6.500002
31
0
39
0
210
0
220
0
230
1
0
LINE
5
9A
100
AcDbEntity
8
1
62
256
6
ByLayer
370
18
48
1
60
1
100
AcDbLine
10
-44.164379
20
6.500002
30
0
11
-44.625163
21
3
31
0
39
0
210
0
220
0
230
1
0
LINE
5
9B
100
AcDbEntity
8
1
62
256
6
ByLayer
370
18
48
1
60
1
100
AcDbLine
10
-44.625163
20
-3
30
0
11
-44.164379
21
-6.499998
31
0
39
0
210
0
220
0
230
1
0
LINE
5
9C
100
AcDbEntity
8
1
62
256
6
ByLayer
370
18
48
1
60
1
100
AcDbLine
10
-44.164379
20
-6.499998
30
0
11
-45.085946
21
-6.500002
31
0
39
0
210
0
220
0
230
1
0
LINE
5
9D
100
AcDbEntity
8
1
62
256
6
ByLayer
370
18
48
1
60
1
100
AcDbLine
10
-45.085946
20
-6.500002
30
0
11
-44.625163
21
-3
31
0
39
0
210
0
220
0
230
1
0
LINE
5
9E
100
AcDbEntity
8
2
62
256
6
ByLayer
370
13
48
1
60
0
100
AcDbLine
10
38.083343
20
29.400193
30
0
11
38.083343
21
-10.44
31
0
39
0
210
0
220
0
230
1
0
LINE
5
A0
100
AcDbEntity
8
2
62
256
6
ByLayer
370
13
48
1
60
0
100
AcDbLine
10
27.1011
20
1.69
30
0
11
40.083343
21
1.69
31
0
39
0
210
0
220
0
230
1
0
LINE
5
A1
100
AcDbEntity
8
2
62
256
6
ByLayer
370
13
48
1
60
0
100
AcDbLine
10
27.1011
20
-1.69
30
0
11
40.083343
21
-1.69
31
0
39
0
210
0
220
0
230
1
0
LINE
5
A2
100
AcDbEntity
8
1
62
256
6
ByLayer
370
18
48
1
60
1
100
AcDbLine
10
38.083343
20
1.69
30
0
11
37.622559
21
5.189998
31
0
39
0
210
0
220
0
230
1
0
LINE
5
A3
100
AcDbEntity
8
1
62
256
6
ByLayer
370
18
48
1
60
1
100
AcDbLine
10
37.622559
20
5.189998
30
0
11
38.544126
21
5.190002
31
0
39
0
210
0
220
0
230
1
0
LINE
5
A4
100
AcDbEntity
8
1
62
256
6
ByLayer
370
18
48
1
60
1
100
AcDbLine
10
38.544126
20
5.190002
30
0
11
38.083343
21
1.69
31
0
39
0
210
0
220
0
230
1
0
LINE
5
A5
100
AcDbEntity
8
1
62
256
6
ByLayer
370
18
48
1
60
1
100
AcDbLine
10
38.083343
20
-1.69
30
0
11
38.544126
21
-5.189998
31
0
39
0
210
0
220
0
230
1
0
LINE
5
A6
100
AcDbEntity
8
1
62
256
6
ByLayer
370
18
48
1
60
1
100
AcDbLine
10
38.544126
20
-5.189998
30
0
11
37.622559
21
-5.190002
31
0
39
0
210
0
220
0
230
1
0
LINE
5
A7
100
AcDbEntity
8
1
62
256
6
ByLayer
370
18
48
1
60
1
100
AcDbLine
10
37.622559
20
-5.190002
30
0
11
38.083343
21
-1.69
31
0
39
0
210
0
220
0
230
1
0
LINE
5
E5
100
AcDbEntity
8
1
62
256
6
ByLayer
370
18
48
1
60
1
100
AcDbLine
10
-44.625163
20
3
30
0
11
-45.085946
21
6.499998
31
0
39
0
210
0
220
0
230
1
0
LINE
5
E6
100
AcDbEntity
8
1
62
256
6
ByLayer
370
18
48
1
60
1
100
AcDbLine
10
-45.085946
20
6.499998
30
0
11
-44.164379
21
6.500002
31
0
39
0
210
0
220
0
230
1
0
LINE
5
E7
100
AcDbEntity
8
1
62
256
6
ByLayer
370
18
48
1
60
1
100
AcDbLine
10
-44.164379
20
6.500002
30
0
11
-44.625163
21
3
31
0
39
0
210
0
220
0
230
1
0
LINE
5
E9
100
AcDbEntity
8
1
62
256
6
ByLayer
370
18
48
1
60
1
100
AcDbLine
10
-44.625163
20
-3
30
0
11
-44.164379
21
-6.499998
31
0
39
0
210
0
220
0
230
1
0
LINE
5
EA
100
AcDbEntity
8
1
62
256
6
ByLayer
370
18
48
1
60
1
100
AcDbLine
10
-44.164379
20
-6.499998
30
0
11
-45.085946
21
-6.500002
31
0
39
0
210
0
220
0
230
1
0
LINE
5
EB
100
AcDbEntity
8
1
62
256
6
ByLayer
370
18
48
1
60
1
100
AcDbLine
10
-45.085946
20
-6.500002
30
0
11
-44.625163
21
-3
31
0
39
0
210
0
220
0
230
1
0
LINE
5
EF
100
AcDbEntity
8
1
62
256
6
ByLayer
370
18
48
1
60
1
100
AcDbLine
10
38.083343
20
1.69
30
0
11
37.622559
21
5.189998
31
0
39
0
210
0
220
0
230
1
0
LINE
5
F0
100
AcDbEntity
8
1
62
256
6
ByLayer
370
18
48
1
60
1
100
AcDbLine
10
37.622559
20
5.189998
30
0
11
38.544126
21
5.190002
31
0
39
0
210
0
220
0
230
1
0
LINE
5
F1
100
AcDbEntity
8
1
62
256
6
ByLayer
370
18
48
1
60
1
100
AcDbLine
10
38.544126
20
5.190002
30
0
11
38.083343
21
1.69
31
0
39
0
210
0
220
0
230
1
0
LINE
5
F3
100
AcDbEntity
8
1
62
256
6
ByLayer
370
18
48
1
60
1
100
AcDbLine
10
38.083343
20
-1.69
30
0
11
38.544126
21
-5.189998
31
0
39
0
210
0
220
0
230
1
0
LINE
5
F4
100
AcDbEntity
8
1
62
256
6
ByLayer
370
18
48
1
60
1
100
AcDbLine
10
38.544126
20
-5.189998
30
0
11
37.622559
21
-5.190002
31
0
39
0
210
0
220
0
230
1
0
LINE
5
F5
100
AcDbEntity
8
1
62
256
6
ByLayer
370
18
48
1
60
1
100
AcDbLine
10
37.622559
20
-5.190002
30
0
11
38.083343
21
-1.69
31
0
39
0
210
0
220
0
230
1
0
MTEXT
5
DF
100
AcDbEntity
8
SK6
62
256
6
ByLayer
370
13
48
1
60
0
100
AcDbMText
10
-34.145193
20
34.230328
30
0
210
0
220
0
230
1
1
\W0.7670;462.1-0338-010A0-XM X2BM
40
3.5
41
0
44
1.084337
50
0
71
7
72
5
7
iso_b_vert
0
MTEXT
5
E3
100
AcDbEntity
8
SK2
62
256
6
ByLayer
370
18
48
1
60
0
100
AcDbMText
10
-46.189796
20
16.409024
30
0
210
0
220
0
230
1
1
%%c
40
3.5
41
0
44
1.084337
50
90
71
7
72
5
7
iso_b_vert
0
MTEXT
5
E4
100
AcDbEntity
8
SK2
62
256
6
ByLayer
370
18
48
1
60
0
100
AcDbMText
10
-46.189796
20
21.63168
30
0
210
0
220
0
230
1
1
\W0.7317;6,000
40
3.5
41
0
44
1.084337
50
90
71
7
72
5
7
iso_b_vert
0
MTEXT
5
ED
100
AcDbEntity
8
2
62
256
6
ByLayer
370
18
48
1
60
0
100
AcDbMText
10
36.518709
20
13.69211
30
0
210
0
220
0
230
1
1
%%c
40
3.5
41
0
44
1.084337
50
90
71
7
72
5
7
iso_b_vert
0
MTEXT
5
EE
100
AcDbEntity
8
2
62
256
6
ByLayer
370
18
48
1
60
0
100
AcDbMText
10
36.518709
20
18.914766
30
0
210
0
220
0
230
1
1
\W0.7317;3,380
40
3.5
41
0
44
1.084337
50
90
71
7
72
5
7
iso_b_vert
0
HATCH
5
E8
100
AcDbEntity
8
SK2
62
256
6
ByLayer
370
13
48
1
60
0
100
AcDbHatch
10
0
20
0
30
0
210
0
220
0
230
1
2
ANSI31
70
0
71
0
91
1
92
5
93
3
72
1
10
-44.6251625675374
20
3
11
-45.0859463090902
21
6.49999830744682
72
1
10
-45.0859463090902
20
6.49999830744682
11
-44.1643788259847
21
6.50000169255318
72
1
10
-44.1643788259847
20
6.50000169255318
11
-44.6251625675374
21
3
97
0
75
0
76
1
52
0
41
0.0062
77
0
78
1
53
45
43
0
44
0
45
-0.0139193969876572
46
0.0139193969876572
79
0
47
0
98
1
10
0
20
0
0
HATCH
5
EC
100
AcDbEntity
8
SK2
62
256
6
ByLayer
370
13
48
1
60
0
100
AcDbHatch
10
0
20
0
30
0
210
0
220
0
230
1
2
ANSI31
70
0
71
0
91
1
92
5
93
3
72
1
10
-44.6251625675374
20
-3
11
-44.1643788259847
21
-6.49999830744682
72
1
10
-44.1643788259847
20
-6.49999830744682
11
-45.0859463090902
21
-6.50000169255318
72
1
10
-45.0859463090902
20
-6.50000169255318
11
-44.6251625675374
21
-3
97
0
75
0
76
1
52
0
41
0.0062
77
0
78
1
53
45
43
0
44
0
45
-0.0139193969876572
46
0.0139193969876572
79
0
47
0
98
1
10
0
20
0
0
HATCH
5
F2
100
AcDbEntity
8
2
62
256
6
ByLayer
370
13
48
1
60
0
100
AcDbHatch
10
0
20
0
30
0
210
0
220
0
230
1
2
ANSI31
70
0
71
0
91
1
92
5
93
3
72
1
10
38.083342615295
20
1.69
11
37.6225588737423
21
5.18999830744681
72
1
10
37.6225588737423
20
5.18999830744681
11
38.5441263568478
21
5.19000169255318
72
1
10
38.5441263568478
20
5.19000169255318
11
38.083342615295
21
1.69
97
0
75
0
76
1
52
0
41
0.0062
77
0
78
1
53
45
43
0
44
0
45
-0.0139193969876572
46
0.0139193969876572
79
0
47
0
98
1
10
0
20
0
0
HATCH
5
F6
100
AcDbEntity
8
2
62
256
6
ByLayer
370
13
48
1
60
0
100
AcDbHatch
10
0
20
0
30
0
210
0
220
0
230
1
2
ANSI31
70
0
71
0
91
1
92
5
93
3
72
1
10
38.083342615295
20
-1.69
11
38.5441263568478
21
-5.18999830744681
72
1
10
38.5441263568478
20
-5.18999830744681
11
37.6225588737423
21
-5.19000169255318
72
1
10
37.6225588737423
20
-5.19000169255318
11
38.083342615295
21
-1.69
97
0
75
0
76
1
52
0
41
0.0062
77
0
78
1
53
45
43
0
44
0
45
-0.0139193969876572
46
0.0139193969876572
79
0
47
0
98
1
10
0
20
0
0
DIMENSION
5
F8
100
AcDbEntity
8
SK2
62
256
6
ByLayer
370
13
48
1
60
0
100
AcDbDimension
2
_U0
10
25.5136
20
-11.903398
30
0
11
12.7568
21
-11.903398
31
0
70
32
71
1
72
1
41
1
210
0
220
0
230
1
3
Standard
100
AcDbAlignedDimension
13
0
23
0
33
0
14
25.5136
24
-1.69
34
0
50
0
100
AcDbRotatedDimension
1001
ACAD
1000
DSTYLE
1002
{
1070
   371
1070
    13
1070
   372
1070
    13
1070
   170
1070
     0
1070
   144
1040
1.0
1070
   277
1070
     2
1070
   278
1070
    44
1070
   146
1040
1.0
1070
   345
1005
16
1070
   347
1005
16
1070
   346
1005
16
1070
   344
1005
0
1070
   343
1005
0
1070
   172
1070
     1
1070
    76
1070
     0
1070
    75
1070
     0
1070
   282
1070
     0
1070
   281
1070
     0
1070
    71
1070
     0
1070
    74
1070
     0
1070
   279
1070
     0
1070
   173
1070
     1
1070
   340
1005
E0
1070
   271
1070
     2
1070
   272
1070
     2
1070
    77
1070
     1
1070
    73
1070
     1
1070
   171
1070
     3
1070
   274
1070
     4
1070
   177
1070
    35
1070
   176
1070
    35
1070
   178
1070
    35
1070
    48
1040
-0.1
1070
    41
1040
3.5
1070
   147
1040
1.75
1070
    42
1040
1.5875
1070
    44
1040
2.0
1070
   140
1040
3.5
1002
}
1001
ACAD_DSTYLE_DIM_LINETYPE
1070
   380
1005
16
1001
ACAD_DSTYLE_DIM_EXT1_LINETYPE
1070
   381
1005
16
1001
ACAD_DSTYLE_DIM_EXT2_LINETYPE
1070
   382
1005
16
0
DIMENSION
5
111
100
AcDbEntity
8
SK2
62
256
6
ByLayer
370
13
48
1
60
0
100
AcDbDimension
2
_U1
10
26
20
-31.692985
30
0
11
-5
21
-31.692985
31
0
70
32
71
1
72
1
41
1
210
0
220
0
230
1
3
Standard
100
AcDbAlignedDimension
13
-36
23
-3
33
0
14
26
24
0
34
0
50
0
100
AcDbRotatedDimension
1001
ACAD
1000
DSTYLE
1002
{
1070
   371
1070
    13
1070
   372
1070
    13
1070
   170
1070
     0
1070
   144
1040
1.0
1070
   277
1070
     2
1070
   278
1070
    44
1070
   146
1040
1.0
1070
   345
1005
16
1070
   347
1005
16
1070
   346
1005
16
1070
   344
1005
0
1070
   343
1005
0
1070
   172
1070
     1
1070
    76
1070
     0
1070
    75
1070
     0
1070
   282
1070
     0
1070
   281
1070
     0
1070
    71
1070
     0
1070
    74
1070
     0
1070
   279
1070
     0
1070
   173
1070
     1
1070
   340
1005
E0
1070
   271
1070
     2
1070
   272
1070
     2
1070
    77
1070
     1
1070
    73
1070
     1
1070
   171
1070
     3
1070
   274
1070
     4
1070
   177
1070
    35
1070
   176
1070
    35
1070
   178
1070
    35
1070
    48
1040
-0.1
1070
    41
1040
3.5
1070
   147
1040
1.75
1070
    42
1040
1.5875
1070
    44
1040
2.0
1070
   140
1040
3.5
1002
}
1001
ACAD_DSTYLE_DIM_LINETYPE
1070
   380
1005
16
1001
ACAD_DSTYLE_DIM_EXT1_LINETYPE
1070
   381
1005
16
1001
ACAD_DSTYLE_DIM_EXT2_LINETYPE
1070
   382
1005
16
0
DIMENSION
5
129
100
AcDbEntity
8
SK2
62
256
6
ByLayer
370
13
48
1
60
0
100
AcDbDimension
2
_U2
10
26
20
13.299119
30
0
11
20.685
21
13.299119
31
0
70
32
71
1
72
1
41
1
210
0
220
0
230
1
3
Standard
100
AcDbAlignedDimension
13
15.37
23
1.69
33
0
14
26
24
0
34
0
50
0
100
AcDbRotatedDimension
1001
ACAD
1000
DSTYLE
1002
{
1070
   371
1070
    13
1070
   372
1070
    13
1070
   170
1070
     0
1070
   144
1040
1.0
1070
   277
1070
     2
1070
   278
1070
    44
1070
   146
1040
1.0
1070
   345
1005
16
1070
   347
1005
16
1070
   346
1005
16
1070
   344
1005
0
1070
   343
1005
0
1070
   172
1070
     1
1070
    76
1070
     0
1070
    75
1070
     0
1070
   282
1070
     0
1070
   281
1070
     0
1070
    71
1070
     0
1070
    74
1070
     0
1070
   279
1070
     0
1070
   173
1070
     1
1070
   340
1005
E0
1070
   271
1070
     2
1070
   272
1070
     2
1070
    77
1070
     1
1070
    73
1070
     1
1070
   171
1070
     3
1070
   274
1070
     4
1070
   177
1070
    35
1070
   176
1070
    35
1070
   178
1070
    35
1070
    48
1040
-0.1
1070
    41
1040
3.5
1070
   147
1040
1.75
1070
    42
1040
1.5875
1070
    44
1040
2.0
1070
   140
1040
3.5
1002
}
1001
ACAD_DSTYLE_DIM_LINETYPE
1070
   380
1005
16
1001
ACAD_DSTYLE_DIM_EXT1_LINETYPE
1070
   381
1005
16
1001
ACAD_DSTYLE_DIM_EXT2_LINETYPE
1070
   382
1005
16
0
DIMENSION
5
142
100
AcDbEntity
8
SK2
62
256
6
ByLayer
370
13
48
1
60
0
100
AcDbDimension
2
_U3
10
25.5136
20
-14.492503
30
0
11
43.5
21
-14.492503
31
0
70
32
71
1
72
1
41
1
210
0
220
0
230
1
3
Standard
100
AcDbAlignedDimension
13
26
23
0
33
0
14
25.5136
24
-1.69
34
0
50
0
100
AcDbRotatedDimension
1001
ACAD
1000
DSTYLE
1002
{
1070
   371
1070
    13
1070
   372
1070
    13
1070
   170
1070
     0
1070
   144
1040
1.0
1070
   277
1070
     2
1070
   278
1070
    44
1070
   146
1040
1.0
1070
   345
1005
16
1070
   347
1005
16
1070
   346
1005
16
1070
   344
1005
0
1070
   343
1005
0
1070
   172
1070
     1
1070
    76
1070
     0
1070
    75
1070
     0
1070
   282
1070
     0
1070
   281
1070
     0
1070
    71
1070
     0
1070
    74
1070
     0
1070
   279
1070
     0
1070
   173
1070
     1
1070
   340
1005
E0
1070
   271
1070
     2
1070
   272
1070
     2
1070
    77
1070
     1
1070
    73
1070
     1
1070
   171
1070
     3
1070
   274
1070
     4
1070
   177
1070
    35
1070
   176
1070
    35
1070
   178
1070
    35
1070
    48
1040
-0.1
1070
    41
1040
3.5
1070
   147
1040
1.75
1070
    42
1040
1.5875
1070
    44
1040
2.0
1070
   140
1040
3.5
1002
}
1001
ACAD_DSTYLE_DIM_LINETYPE
1070
   380
1005
16
1001
ACAD_DSTYLE_DIM_EXT1_LINETYPE
1070
   381
1005
16
1001
ACAD_DSTYLE_DIM_EXT2_LINETYPE
1070
   382
1005
16
0
DIMENSION
5
15C
100
AcDbEntity
8
SK2
62
256
6
ByLayer
370
13
48
1
60
0
100
AcDbDimension
2
_U4
10
25.5136
20
-21.343428
30
0
11
-5.2432
21
-21.343428
31
0
70
32
71
1
72
1
41
1
210
0
220
0
230
1
3
Standard
100
AcDbAlignedDimension
13
-36
23
-3
33
0
14
25.5136
24
-1.69
34
0
50
0
100
AcDbRotatedDimension
1001
ACAD
1000
DSTYLE
1002
{
1070
   371
1070
    13
1070
   372
1070
    13
1070
   170
1070
     0
1070
   144
1040
1.0
1070
   277
1070
     2
1070
   278
1070
    44
1070
   146
1040
1.0
1070
   345
1005
16
1070
   347
1005
16
1070
   346
1005
16
1070
   344
1005
0
1070
   343
1005
0
1070
   172
1070
     1
1070
    76
1070
     0
1070
    75
1070
     0
1070
   282
1070
     0
1070
   281
1070
     0
1070
    71
1070
     0
1070
    74
1070
     0
1070
   279
1070
     0
1070
   173
1070
     1
1070
   340
1005
E0
1070
   271
1070
     2
1070
   272
1070
     2
1070
    77
1070
     1
1070
    73
1070
     1
1070
   171
1070
     3
1070
   274
1070
     4
1070
   177
1070
    35
1070
   176
1070
    35
1070
   178
1070
    35
1070
    48
1040
-0.1
1070
    41
1040
3.5
1070
   147
1040
1.75
1070
    42
1040
1.5875
1070
    44
1040
2.0
1070
   140
1040
3.5
1002
}
1001
ACAD_DSTYLE_DIM_LINETYPE
1070
   380
1005
16
1001
ACAD_DSTYLE_DIM_EXT1_LINETYPE
1070
   381
1005
16
1001
ACAD_DSTYLE_DIM_EXT2_LINETYPE
1070
   382
1005
16
0
ENDSEC
0
SECTION
2
OBJECTS
0
DICTIONARY
5
1e4
330
0
100
AcDbDictionary
280
0
281
1
3
ACAD_GROUP
350
1e5
3
ACAD_MLINESTYLE
350
1e6
0
DICTIONARY
5
1e5
330
0
100
AcDbDictionary
280
0
281
1
0
DICTIONARY
5
1e6
330
0
100
AcDbDictionary
280
0
281
1
3
Standard
350
18
0
MLINESTYLE
5
18
330
1e6
100
AcDbMlineStyle
2
Standard
70
0
3

62
256
51
90
52
90
71
2
49
-0.5
62
256
6
ByLayer
49
0.5
62
256
6
ByLayer
0
RASTERVARIABLES
5
1d2
330

100
AcDbRasterVariables
90
0
70
1
71
1
72
1
0
ENDSEC
0
EOF
