0
SECTION
2
HEADER
9
$ACADVER
1
AC1015
9
$DWGCODEPAGE
3
ANSI_1252
9
$HANDSEED
5
1f2
9
$ANGBASE
50
0
9
$ANGDIR
70
0
9
$ATTMODE
70
1
9
$AUNITS
70
0
9
$AUPREC
70
0
9
$CECOLOR
62
256
9
$CELTSCALE
40
1
9
$CELTYPE
6
ByLayer
9
$CELWEIGHT
370
18
9
$CLAYER
8
0
9
$CMLJUST
70
0
9
$CMLSCALE
40
1
9
$CMLSTYLE
2
Standard
9
$DIMSTYLE
2
Standard
9
$TEXTSIZE
40
0.2
9
$TEXTSTYLE
7
Standard
9
$LUNITS
70
2
9
$LUPREC
70
4
9
$EXTNAMES
290
1
9
$INSUNITS
70
4
9
$LTSCALE
40
1
9
$LWDISPLAY
290
1
9
$PDMODE
70
0
9
$PDSIZE
40
0
9
$PLINEGEN
70
0
0
ENDSEC
0
SECTION
2
CLASSES
0
CLASS
1
RASTERVARIABLES
2
AcDbRasterVariables
3
ISM
90
0
280
0
281
0
0
ENDSEC
0
SECTION
2
TABLES
0
TABLE
2
VPORT
5
1e8
100
AcDbSymbolTable
0
VPORT
5
1
100
AcDbSymbolTableRecord
100
AcDbViewportTableRecord
2
*Active
70
0
10
0
20
0
11
1
21
1
12
-1
22
1
13
0
23
0
14
0.5
24
0.5
15
10
25
10
16
0
26
0
36
1
17
0
27
0
37
0
0
ENDTAB
0
TABLE
2
LTYPE
5
1e9
100
AcDbSymbolTable
0
LTYPE
5
14
100
AcDbSymbolTableRecord
100
AcDbLinetypeTableRecord
70
0
2
ByBlock
3

72
65
73
0
40
0
0
LTYPE
5
15
100
AcDbSymbolTableRecord
100
AcDbLinetypeTableRecord
70
0
2
ByLayer
3

72
65
73
0
40
0
0
LTYPE
5
16
100
AcDbSymbolTableRecord
100
AcDbLinetypeTableRecord
70
0
2
Continuous
3
Solid line
72
65
73
0
40
0
0
LTYPE
5
6E
100
AcDbSymbolTableRecord
100
AcDbLinetypeTableRecord
70
0
2
CENTER
3
____ _ ____ _ ____ _ ____
72
65
73
4
40
47.5
49
22
74
0
49
-8.5
74
0
49
8.5
74
0
49
-8.5
74
0
0
LTYPE
5
6F
100
AcDbSymbolTableRecord
100
AcDbLinetypeTableRecord
70
0
2
DASHED
3
__ __ __ __ __ __ __ __ __
72
65
73
2
40
25.72
49
12.86
74
0
49
-12.86
74
0
0
ENDTAB
0
TABLE
2
LAYER
5
1ea
100
AcDbSymbolTable
0
LAYER
5
10
100
AcDbSymbolTableRecord
100
AcDbLayerTableRecord
2
0
70
0
62
7
6
Continuous
290
1
370
-3
390
0
0
LAYER
5
71
100
AcDbSymbolTableRecord
100
AcDbLayerTableRecord
2
80
70
0
62
-6
6
Continuous
290
1
370
-3
390
0
0
LAYER
5
73
100
AcDbSymbolTableRecord
100
AcDbLayerTableRecord
2
81
70
0
62
-3
6
Continuous
290
1
370
-3
390
0
0
LAYER
5
75
100
AcDbSymbolTableRecord
100
AcDbLayerTableRecord
2
1
70
0
62
4
6
Continuous
290
1
370
-3
390
0
0
LAYER
5
87
100
AcDbSymbolTableRecord
100
AcDbLayerTableRecord
2
4
70
0
62
-2
6
CENTER
290
1
370
-3
390
0
0
LAYER
5
A0
100
AcDbSymbolTableRecord
100
AcDbLayerTableRecord
2
2
70
0
62
7
6
Continuous
290
1
370
-3
390
0
0
LAYER
5
FD
100
AcDbSymbolTableRecord
100
AcDbLayerTableRecord
2
Defpoints
70
0
62
7
6
Continuous
290
0
370
-3
390
0
0
LAYER
5
1d4
100
AcDbSymbolTableRecord
100
AcDbLayerTableRecord
2
SK1
70
0
62
4
6
Continuous
290
1
370
-3
390
0
0
LAYER
5
1d5
100
AcDbSymbolTableRecord
100
AcDbLayerTableRecord
2
SK4
70
0
62
2
6
CENTER
290
1
370
-3
390
0
0
LAYER
5
1d6
100
AcDbSymbolTableRecord
100
AcDbLayerTableRecord
2
SK2
70
0
62
7
6
Continuous
290
1
370
-3
390
0
0
LAYER
5
1d7
100
AcDbSymbolTableRecord
100
AcDbLayerTableRecord
2
SK6
70
0
62
5
6
Continuous
290
1
370
-3
390
0
0
ENDTAB
0
TABLE
2
STYLE
5
1eb
100
AcDbSymbolTable
0
STYLE
5
11
100
AcDbSymbolTableRecord
100
AcDbTextStyleTableRecord
2
Standard
3
txt
70
0
71
0
40
0
41
1
42
0
50
0
0
STYLE
5
E2
100
AcDbSymbolTableRecord
100
AcDbTextStyleTableRecord
2
iso_b_vert
3
simplex.shx
70
0
71
0
40
0
41
1
42
0
50
0
0
STYLE
5
E3
100
AcDbSymbolTableRecord
100
AcDbTextStyleTableRecord
2
DWGDirectTextStyle
3
simplex
70
0
71
0
40
0
41
1
42
0
50
0
0
ENDTAB
0
TABLE
2
DIMSTYLE
5
1ec
100
AcDbSymbolTable
100
AcDbDimStyleTable
0
DIMSTYLE
105
27
100
AcDbSymbolTableRecord
100
AcDbDimStyleTableRecord
2
Standard
70
0
3
<>
41
0.18
42
0.0625
44
0.18
140
0.18
147
0.09
73
0
74
0
77
1
271
2
275
0
278
52
280
0
340
11
0
ENDTAB
0
TABLE
2
VIEW
5
1ed
100
AcDbSymbolTable
0
ENDTAB
0
TABLE
2
UCS
5
1ee
100
AcDbSymbolTable
0
ENDTAB
0
TABLE
2
APPID
5
1ef
100
AcDbSymbolTable
0
APPID
5
12
100
AcDbSymbolTableRecord
100
AcDbRegAppTableRecord
2
ACAD
70
0
0
APPID
5
F9
100
AcDbSymbolTableRecord
100
AcDbRegAppTableRecord
2
ACAD_DSTYLE_DIMBREAK
70
0
0
APPID
5
193
100
AcDbSymbolTableRecord
100
AcDbRegAppTableRecord
2
ACAD_DSTYLE_DIM_LINETYPE
70
0
0
APPID
5
194
100
AcDbSymbolTableRecord
100
AcDbRegAppTableRecord
2
ACAD_DSTYLE_DIM_EXT1_LINETYPE
70
0
0
APPID
5
195
100
AcDbSymbolTableRecord
100
AcDbRegAppTableRecord
2
ACAD_DSTYLE_DIM_EXT2_LINETYPE
70
0
0
APPID
5
1D0
100
AcDbSymbolTableRecord
100
AcDbRegAppTableRecord
2
ACAD_MLEADERVER
70
0
0
ENDTAB
0
TABLE
2
BLOCK_RECORD
5
1f0
100
AcDbSymbolTable
0
BLOCK_RECORD
5
1F
100
AcDbSymbolTableRecord
100
AcDbBlockTableRecord
2
*Model_Space
340
0
70
0
0
BLOCK_RECORD
5
1B
100
AcDbSymbolTableRecord
100
AcDbBlockTableRecord
2
*Paper_Space
340
0
70
0
0
BLOCK_RECORD
5
23
100
AcDbSymbolTableRecord
100
AcDbBlockTableRecord
2
*Paper_Space0
340
0
70
0
0
BLOCK_RECORD
5
FE
100
AcDbSymbolTableRecord
100
AcDbBlockTableRecord
2
*D1
340
0
70
0
0
BLOCK_RECORD
5
10A
100
AcDbSymbolTableRecord
100
AcDbBlockTableRecord
2
_U0
340
0
70
0
0
BLOCK_RECORD
5
116
100
AcDbSymbolTableRecord
100
AcDbBlockTableRecord
2
*D3
340
0
70
0
0
BLOCK_RECORD
5
122
100
AcDbSymbolTableRecord
100
AcDbBlockTableRecord
2
_U1
340
0
70
0
0
BLOCK_RECORD
5
12E
100
AcDbSymbolTableRecord
100
AcDbBlockTableRecord
2
*D5
340
0
70
0
0
BLOCK_RECORD
5
13A
100
AcDbSymbolTableRecord
100
AcDbBlockTableRecord
2
_U2
340
0
70
0
0
BLOCK_RECORD
5
146
100
AcDbSymbolTableRecord
100
AcDbBlockTableRecord
2
*D7
340
0
70
0
0
BLOCK_RECORD
5
154
100
AcDbSymbolTableRecord
100
AcDbBlockTableRecord
2
_U3
340
0
70
0
0
BLOCK_RECORD
5
160
100
AcDbSymbolTableRecord
100
AcDbBlockTableRecord
2
*D9
340
0
70
0
0
BLOCK_RECORD
5
16C
100
AcDbSymbolTableRecord
100
AcDbBlockTableRecord
2
_U4
340
0
70
0
0
ENDTAB
0
ENDSEC
0
SECTION
2
BLOCKS
0
BLOCK
5
20
100
AcDbEntity
8
0
100
AcDbBlockBegin
2
*Model_Space
70
0
10
0
20
0
30
0
3
*Model_Space
0
ENDBLK
5
21
100
AcDbEntity
8
0
100
AcDbBlockEnd
0
BLOCK
5
1C
100
AcDbEntity
8
0
100
AcDbBlockBegin
2
*Paper_Space
70
0
10
0
20
0
30
0
3
*Paper_Space
0
ENDBLK
5
1D
100
AcDbEntity
8
0
100
AcDbBlockEnd
0
BLOCK
5
24
100
AcDbEntity
8
0
100
AcDbBlockBegin
2
*Paper_Space0
70
0
10
0
20
0
30
0
3
*Paper_Space0
0
ENDBLK
5
25
100
AcDbEntity
8
0
100
AcDbBlockEnd
0
BLOCK
5
FF
100
AcDbEntity
8
0
100
AcDbBlockBegin
2
*D1
70
1
10
0
20
0
30
0
3
*D1
0
LINE
5
101
100
AcDbEntity
8
0
62
256
6
ByLayer
370
-2
48
1
60
0
100
AcDbLine
10
0
20
-1.5875
30
0
11
0
21
-21.613398
31
0
39
0
210
0
220
0
230
1
0
LINE
5
102
100
AcDbEntity
8
0
62
256
6
ByLayer
370
-2
48
1
60
0
100
AcDbLine
10
78.1898
20
-10.9875
30
0
11
78.1898
21
-21.613398
31
0
39
0
210
0
220
0
230
1
0
LINE
5
103
100
AcDbEntity
8
0
62
256
6
ByLayer
370
-2
48
1
60
0
100
AcDbLine
10
3.5
20
-19.613398
30
0
11
74.6898
21
-19.613398
31
0
39
0
210
0
220
0
230
1
0
SOLID
5
104
100
AcDbEntity
8
0
62
256
6
ByLayer
370
-1
48
1
60
0
100
AcDbTrace
10
3.5
20
-19.030065
30
0
11
3.5
21
-20.196732
31
0
12
0
22
-19.613398
32
0
13
0
23
-19.613398
33
0
39
0
210
0
220
0
230
1
0
SOLID
5
105
100
AcDbEntity
8
0
62
256
6
ByLayer
370
-1
48
1
60
0
100
AcDbTrace
10
74.6898
20
-20.196732
30
0
11
74.6898
21
-19.030065
31
0
12
78.1898
22
-19.613398
32
0
13
78.1898
23
-19.613398
33
0
39
0
210
0
220
0
230
1
0
MTEXT
5
106
100
AcDbEntity
8
0
62
256
6
ByLayer
370
18
48
1
60
0
100
AcDbMText
10
39.0949
20
-12.613398
30
0
210
0
220
0
230
1
1
\A1;78.19
40
3.5
41
0
44
1
50
0
71
5
72
5
7
iso_b_vert
0
POINT
5
107
100
AcDbEntity
8
Defpoints
62
0
6
ByLayer
370
-1
48
1
60
0
100
AcDbPoint
10
0
20
0
30
0
39
0
210
0
220
0
230
1
50
360
0
POINT
5
108
100
AcDbEntity
8
Defpoints
62
0
6
ByLayer
370
-1
48
1
60
0
100
AcDbPoint
10
78.1898
20
-9.4
30
0
39
0
210
0
220
0
230
1
50
360
0
POINT
5
109
100
AcDbEntity
8
Defpoints
62
0
6
ByLayer
370
-1
48
1
60
0
100
AcDbPoint
10
78.1898
20
-19.613398
30
0
39
0
210
0
220
0
230
1
50
360
0
ENDBLK
5
100
100
AcDbEntity
8
0
100
AcDbBlockEnd
0
BLOCK
5
111
100
AcDbEntity
8
0
100
AcDbBlockBegin
2
_U0
70
0
10
0
20
0
30
0
3
_U0
0
MTEXT
5
10B
100
AcDbEntity
8
SK2
62
256
6
ByLayer
370
13
48
1
60
0
100
AcDbMText
10
34.395035
20
-18.580765
30
0
210
0
220
0
230
1
1
\W0.6791;78,19
40
3.5
41
0
44
1.084337
50
0
71
7
72
5
7
iso_b_vert
0
LINE
5
10C
100
AcDbEntity
8
SK2
62
256
6
ByLayer
370
13
48
1
60
0
100
AcDbLine
10
0
20
-1.5875
30
0
11
0
21
-21.613398
31
0
39
0
210
0
220
0
230
1
0
LINE
5
10D
100
AcDbEntity
8
SK2
62
256
6
ByLayer
370
13
48
1
60
0
100
AcDbLine
10
78.1898
20
-10.9875
30
0
11
78.1898
21
-21.613398
31
0
39
0
210
0
220
0
230
1
0
LINE
5
10E
100
AcDbEntity
8
SK2
62
256
6
ByLayer
370
13
48
1
60
0
100
AcDbLine
10
0
20
-19.613398
30
0
11
78.1898
21
-19.613398
31
0
39
0
210
0
220
0
230
1
0
SOLID
5
10F
100
AcDbEntity
8
SK2
62
256
6
ByLayer
370
18
48
1
60
0
100
AcDbTrace
10
0
20
-19.613398
30
0
11
3.499998
21
-19.152615
31
0
12
3.500002
22
-20.074182
32
0
13
3.500002
23
-20.074182
33
0
39
0
210
0
220
0
230
1
0
SOLID
5
110
100
AcDbEntity
8
SK2
62
256
6
ByLayer
370
18
48
1
60
0
100
AcDbTrace
10
78.1898
20
-19.613398
30
0
11
74.689802
21
-20.074182
31
0
12
74.689798
22
-19.152615
32
0
13
74.689798
23
-19.152615
33
0
39
0
210
0
220
0
230
1
0
ENDBLK
5
112
100
AcDbEntity
8
0
100
AcDbBlockEnd
0
BLOCK
5
117
100
AcDbEntity
8
0
100
AcDbBlockBegin
2
*D3
70
1
10
0
20
0
30
0
3
*D3
0
LINE
5
119
100
AcDbEntity
8
0
62
256
6
ByLayer
370
-2
48
1
60
0
100
AcDbLine
10
-50
20
-11.5875
30
0
11
-50
21
-40.692985
31
0
39
0
210
0
220
0
230
1
0
LINE
5
11A
100
AcDbEntity
8
0
62
256
6
ByLayer
370
-2
48
1
60
0
100
AcDbLine
10
81
20
-1.5875
30
0
11
81
21
-40.692985
31
0
39
0
210
0
220
0
230
1
0
LINE
5
11B
100
AcDbEntity
8
0
62
256
6
ByLayer
370
-2
48
1
60
0
100
AcDbLine
10
-46.5
20
-38.692985
30
0
11
77.5
21
-38.692985
31
0
39
0
210
0
220
0
230
1
0
SOLID
5
11C
100
AcDbEntity
8
0
62
256
6
ByLayer
370
-1
48
1
60
0
100
AcDbTrace
10
-46.5
20
-38.109652
30
0
11
-46.5
21
-39.276319
31
0
12
-50
22
-38.692985
32
0
13
-50
23
-38.692985
33
0
39
0
210
0
220
0
230
1
0
SOLID
5
11D
100
AcDbEntity
8
0
62
256
6
ByLayer
370
-1
48
1
60
0
100
AcDbTrace
10
77.5
20
-39.276319
30
0
11
77.5
21
-38.109652
31
0
12
81
22
-38.692985
32
0
13
81
23
-38.692985
33
0
39
0
210
0
220
0
230
1
0
MTEXT
5
11E
100
AcDbEntity
8
0
62
256
6
ByLayer
370
18
48
1
60
0
100
AcDbMText
10
15.5
20
-31.692985
30
0
210
0
220
0
230
1
1
\A1;131.00
40
3.5
41
0
44
1
50
0
71
5
72
5
7
iso_b_vert
0
POINT
5
11F
100
AcDbEntity
8
Defpoints
62
0
6
ByLayer
370
-1
48
1
60
0
100
AcDbPoint
10
-50
20
-10
30
0
39
0
210
0
220
0
230
1
50
360
0
POINT
5
120
100
AcDbEntity
8
Defpoints
62
0
6
ByLayer
370
-1
48
1
60
0
100
AcDbPoint
10
81
20
0
30
0
39
0
210
0
220
0
230
1
50
360
0
POINT
5
121
100
AcDbEntity
8
Defpoints
62
0
6
ByLayer
370
-1
48
1
60
0
100
AcDbPoint
10
81
20
-38.692985
30
0
39
0
210
0
220
0
230
1
50
360
0
ENDBLK
5
118
100
AcDbEntity
8
0
100
AcDbBlockEnd
0
BLOCK
5
129
100
AcDbEntity
8
0
100
AcDbBlockBegin
2
_U1
70
0
10
0
20
0
30
0
3
_U1
0
MTEXT
5
123
100
AcDbEntity
8
SK2
62
256
6
ByLayer
370
13
48
1
60
0
100
AcDbMText
10
9.929835
20
-37.660352
30
0
210
0
220
0
230
1
1
\W0.6440;131,00
40
3.5
41
0
44
1.084337
50
0
71
7
72
5
7
iso_b_vert
0
LINE
5
124
100
AcDbEntity
8
SK2
62
256
6
ByLayer
370
13
48
1
60
0
100
AcDbLine
10
-50
20
-11.5875
30
0
11
-50
21
-40.692985
31
0
39
0
210
0
220
0
230
1
0
LINE
5
125
100
AcDbEntity
8
SK2
62
256
6
ByLayer
370
13
48
1
60
0
100
AcDbLine
10
81
20
-1.5875
30
0
11
81
21
-40.692985
31
0
39
0
210
0
220
0
230
1
0
LINE
5
126
100
AcDbEntity
8
SK2
62
256
6
ByLayer
370
13
48
1
60
0
100
AcDbLine
10
-50
20
-38.692985
30
0
11
81
21
-38.692985
31
0
39
0
210
0
220
0
230
1
0
SOLID
5
127
100
AcDbEntity
8
SK2
62
256
6
ByLayer
370
18
48
1
60
0
100
AcDbTrace
10
-50
20
-38.692985
30
0
11
-46.500002
21
-38.232202
31
0
12
-46.499998
22
-39.153769
32
0
13
-46.499998
23
-39.153769
33
0
39
0
210
0
220
0
230
1
0
SOLID
5
128
100
AcDbEntity
8
SK2
62
256
6
ByLayer
370
18
48
1
60
0
100
AcDbTrace
10
81
20
-38.692985
30
0
11
77.500002
21
-39.153769
31
0
12
77.499998
22
-38.232202
32
0
13
77.499998
23
-38.232202
33
0
39
0
210
0
220
0
230
1
0
ENDBLK
5
12A
100
AcDbEntity
8
0
100
AcDbBlockEnd
0
BLOCK
5
12F
100
AcDbEntity
8
0
100
AcDbBlockBegin
2
*D5
70
1
10
0
20
0
30
0
3
*D5
0
LINE
5
131
100
AcDbEntity
8
0
62
256
6
ByLayer
370
-2
48
1
60
0
100
AcDbLine
10
21.79
20
10.9875
30
0
11
21.79
21
23.009119
31
0
39
0
210
0
220
0
230
1
0
LINE
5
132
100
AcDbEntity
8
0
62
256
6
ByLayer
370
-2
48
1
60
0
100
AcDbLine
10
81
20
1.5875
30
0
11
81
21
23.009119
31
0
39
0
210
0
220
0
230
1
0
LINE
5
133
100
AcDbEntity
8
0
62
256
6
ByLayer
370
-2
48
1
60
0
100
AcDbLine
10
25.29
20
21.009119
30
0
11
77.5
21
21.009119
31
0
39
0
210
0
220
0
230
1
0
SOLID
5
134
100
AcDbEntity
8
0
62
256
6
ByLayer
370
-1
48
1
60
0
100
AcDbTrace
10
25.29
20
21.592453
30
0
11
25.29
21
20.425786
31
0
12
21.79
22
21.009119
32
0
13
21.79
23
21.009119
33
0
39
0
210
0
220
0
230
1
0
SOLID
5
135
100
AcDbEntity
8
0
62
256
6
ByLayer
370
-1
48
1
60
0
100
AcDbTrace
10
77.5
20
20.425786
30
0
11
77.5
21
21.592453
31
0
12
81
22
21.009119
32
0
13
81
23
21.009119
33
0
39
0
210
0
220
0
230
1
0
MTEXT
5
136
100
AcDbEntity
8
0
62
256
6
ByLayer
370
18
48
1
60
0
100
AcDbMText
10
51.395
20
28.009119
30
0
210
0
220
0
230
1
1
\A1;59.21
40
3.5
41
0
44
1
50
0
71
5
72
5
7
iso_b_vert
0
POINT
5
137
100
AcDbEntity
8
Defpoints
62
0
6
ByLayer
370
-1
48
1
60
0
100
AcDbPoint
10
21.79
20
9.4
30
0
39
0
210
0
220
0
230
1
50
360
0
POINT
5
138
100
AcDbEntity
8
Defpoints
62
0
6
ByLayer
370
-1
48
1
60
0
100
AcDbPoint
10
81
20
0
30
0
39
0
210
0
220
0
230
1
50
360
0
POINT
5
139
100
AcDbEntity
8
Defpoints
62
0
6
ByLayer
370
-1
48
1
60
0
100
AcDbPoint
10
81
20
21.009119
30
0
39
0
210
0
220
0
230
1
50
360
0
ENDBLK
5
130
100
AcDbEntity
8
0
100
AcDbBlockEnd
0
BLOCK
5
141
100
AcDbEntity
8
0
100
AcDbBlockBegin
2
_U2
70
0
10
0
20
0
30
0
3
_U2
0
MTEXT
5
13B
100
AcDbEntity
8
SK2
62
256
6
ByLayer
370
13
48
1
60
0
100
AcDbMText
10
46.695135
20
22.041753
30
0
210
0
220
0
230
1
1
\W0.7211;59,21
40
3.5
41
0
44
1.084337
50
0
71
7
72
5
7
iso_b_vert
0
LINE
5
13C
100
AcDbEntity
8
SK2
62
256
6
ByLayer
370
13
48
1
60
0
100
AcDbLine
10
21.79
20
10.9875
30
0
11
21.79
21
23.009119
31
0
39
0
210
0
220
0
230
1
0
LINE
5
13D
100
AcDbEntity
8
SK2
62
256
6
ByLayer
370
13
48
1
60
0
100
AcDbLine
10
81
20
1.5875
30
0
11
81
21
23.009119
31
0
39
0
210
0
220
0
230
1
0
LINE
5
13E
100
AcDbEntity
8
SK2
62
256
6
ByLayer
370
13
48
1
60
0
100
AcDbLine
10
21.79
20
21.009119
30
0
11
81
21
21.009119
31
0
39
0
210
0
220
0
230
1
0
SOLID
5
13F
100
AcDbEntity
8
SK2
62
256
6
ByLayer
370
18
48
1
60
0
100
AcDbTrace
10
21.79
20
21.009119
30
0
11
25.289998
21
21.469903
31
0
12
25.290002
22
20.548335
32
0
13
25.290002
23
20.548335
33
0
39
0
210
0
220
0
230
1
0
SOLID
5
140
100
AcDbEntity
8
SK2
62
256
6
ByLayer
370
18
48
1
60
0
100
AcDbTrace
10
81
20
21.009119
30
0
11
77.500002
21
20.548335
31
0
12
77.499998
22
21.469903
32
0
13
77.499998
23
21.469903
33
0
39
0
210
0
220
0
230
1
0
ENDBLK
5
142
100
AcDbEntity
8
0
100
AcDbBlockEnd
0
BLOCK
5
147
100
AcDbEntity
8
0
100
AcDbBlockBegin
2
*D7
70
1
10
0
20
0
30
0
3
*D7
0
LINE
5
149
100
AcDbEntity
8
0
62
256
6
ByLayer
370
-2
48
1
60
0
100
AcDbLine
10
81
20
-1.5875
30
0
11
81
21
-24.202503
31
0
39
0
210
0
220
0
230
1
0
LINE
5
14A
100
AcDbEntity
8
0
62
256
6
ByLayer
370
-2
48
1
60
0
100
AcDbLine
10
78.1898
20
-10.9875
30
0
11
78.1898
21
-24.202503
31
0
39
0
210
0
220
0
230
1
0
LINE
5
14B
100
AcDbEntity
8
0
62
256
6
ByLayer
370
-2
48
1
60
0
100
AcDbLine
10
81
20
-22.202503
30
0
11
108.166667
21
-22.202503
31
0
39
0
210
0
220
0
230
1
0
LINE
5
14C
100
AcDbEntity
8
0
62
256
6
ByLayer
370
-2
48
1
60
0
100
AcDbLine
10
84.5
20
-22.202503
30
0
11
88
21
-22.202503
31
0
39
0
210
0
220
0
230
1
0
LINE
5
14D
100
AcDbEntity
8
0
62
256
6
ByLayer
370
-2
48
1
60
0
100
AcDbLine
10
74.6898
20
-22.202503
30
0
11
71.1898
21
-22.202503
31
0
39
0
210
0
220
0
230
1
0
SOLID
5
14E
100
AcDbEntity
8
0
62
256
6
ByLayer
370
-1
48
1
60
0
100
AcDbTrace
10
84.5
20
-21.61917
30
0
11
84.5
21
-22.785837
31
0
12
81
22
-22.202503
32
0
13
81
23
-22.202503
33
0
39
0
210
0
220
0
230
1
0
SOLID
5
14F
100
AcDbEntity
8
0
62
256
6
ByLayer
370
-1
48
1
60
0
100
AcDbTrace
10
74.6898
20
-22.785837
30
0
11
74.6898
21
-21.61917
31
0
12
78.1898
22
-22.202503
32
0
13
78.1898
23
-22.202503
33
0
39
0
210
0
220
0
230
1
0
MTEXT
5
150
100
AcDbEntity
8
0
62
256
6
ByLayer
370
18
48
1
60
0
100
AcDbMText
10
98.083333
20
-15.202503
30
0
210
0
220
0
230
1
1
\A1;2.81
40
3.5
41
0
44
1
50
0
71
5
72
5
7
iso_b_vert
0
POINT
5
151
100
AcDbEntity
8
Defpoints
62
0
6
ByLayer
370
-1
48
1
60
0
100
AcDbPoint
10
81
20
0
30
0
39
0
210
0
220
0
230
1
50
360
0
POINT
5
152
100
AcDbEntity
8
Defpoints
62
0
6
ByLayer
370
-1
48
1
60
0
100
AcDbPoint
10
78.1898
20
-9.4
30
0
39
0
210
0
220
0
230
1
50
360
0
POINT
5
153
100
AcDbEntity
8
Defpoints
62
0
6
ByLayer
370
-1
48
1
60
0
100
AcDbPoint
10
78.1898
20
-22.202503
30
0
39
0
210
0
220
0
230
1
50
360
0
ENDBLK
5
148
100
AcDbEntity
8
0
100
AcDbBlockEnd
0
BLOCK
5
15B
100
AcDbEntity
8
0
100
AcDbBlockBegin
2
_U3
70
0
10
0
20
0
30
0
3
_U3
0
MTEXT
5
155
100
AcDbEntity
8
SK2
62
256
6
ByLayer
370
13
48
1
60
0
100
AcDbMText
10
87.589293
20
-21.16987
30
0
210
0
220
0
230
1
1
\W0.6993;2,81
40
3.5
41
0
44
1.084337
50
0
71
7
72
5
7
iso_b_vert
0
LINE
5
156
100
AcDbEntity
8
SK2
62
256
6
ByLayer
370
13
48
1
60
0
100
AcDbLine
10
81
20
-1.5875
30
0
11
81
21
-24.202503
31
0
39
0
210
0
220
0
230
1
0
LINE
5
157
100
AcDbEntity
8
SK2
62
256
6
ByLayer
370
13
48
1
60
0
100
AcDbLine
10
78.1898
20
-10.9875
30
0
11
78.1898
21
-24.202503
31
0
39
0
210
0
220
0
230
1
0
LINE
5
158
100
AcDbEntity
8
SK2
62
256
6
ByLayer
370
13
48
1
60
0
100
AcDbLine
10
69.4398
20
-22.202503
30
0
11
94.559058
21
-22.202503
31
0
39
0
210
0
220
0
230
1
0
SOLID
5
159
100
AcDbEntity
8
SK2
62
256
6
ByLayer
370
18
48
1
60
0
100
AcDbTrace
10
81
20
-22.202503
30
0
11
84.499998
21
-21.741719
31
0
12
84.500002
22
-22.663287
32
0
13
84.500002
23
-22.663287
33
0
39
0
210
0
220
0
230
1
0
SOLID
5
15A
100
AcDbEntity
8
SK2
62
256
6
ByLayer
370
18
48
1
60
0
100
AcDbTrace
10
78.1898
20
-22.202503
30
0
11
74.689802
21
-22.663287
31
0
12
74.689798
22
-21.741719
32
0
13
74.689798
23
-21.741719
33
0
39
0
210
0
220
0
230
1
0
ENDBLK
5
15C
100
AcDbEntity
8
0
100
AcDbBlockEnd
0
BLOCK
5
161
100
AcDbEntity
8
0
100
AcDbBlockBegin
2
*D9
70
1
10
0
20
0
30
0
3
*D9
0
LINE
5
163
100
AcDbEntity
8
0
62
256
6
ByLayer
370
-2
48
1
60
0
100
AcDbLine
10
-50
20
-11.5875
30
0
11
-50
21
-30.343428
31
0
39
0
210
0
220
0
230
1
0
LINE
5
164
100
AcDbEntity
8
0
62
256
6
ByLayer
370
-2
48
1
60
0
100
AcDbLine
10
78.1898
20
-10.9875
30
0
11
78.1898
21
-30.343428
31
0
39
0
210
0
220
0
230
1
0
LINE
5
165
100
AcDbEntity
8
0
62
256
6
ByLayer
370
-2
48
1
60
0
100
AcDbLine
10
-46.5
20
-28.343428
30
0
11
74.6898
21
-28.343428
31
0
39
0
210
0
220
0
230
1
0
SOLID
5
166
100
AcDbEntity
8
0
62
256
6
ByLayer
370
-1
48
1
60
0
100
AcDbTrace
10
-46.5
20
-27.760095
30
0
11
-46.5
21
-28.926762
31
0
12
-50
22
-28.343428
32
0
13
-50
23
-28.343428
33
0
39
0
210
0
220
0
230
1
0
SOLID
5
167
100
AcDbEntity
8
0
62
256
6
ByLayer
370
-1
48
1
60
0
100
AcDbTrace
10
74.6898
20
-28.926762
30
0
11
74.6898
21
-27.760095
31
0
12
78.1898
22
-28.343428
32
0
13
78.1898
23
-28.343428
33
0
39
0
210
0
220
0
230
1
0
MTEXT
5
168
100
AcDbEntity
8
0
62
256
6
ByLayer
370
18
48
1
60
0
100
AcDbMText
10
14.0949
20
-21.343428
30
0
210
0
220
0
230
1
1
\A1;128.19
40
3.5
41
0
44
1
50
0
71
5
72
5
7
iso_b_vert
0
POINT
5
169
100
AcDbEntity
8
Defpoints
62
0
6
ByLayer
370
-1
48
1
60
0
100
AcDbPoint
10
-50
20
-10
30
0
39
0
210
0
220
0
230
1
50
360
0
POINT
5
16A
100
AcDbEntity
8
Defpoints
62
0
6
ByLayer
370
-1
48
1
60
0
100
AcDbPoint
10
78.1898
20
-9.4
30
0
39
0
210
0
220
0
230
1
50
360
0
POINT
5
16B
100
AcDbEntity
8
Defpoints
62
0
6
ByLayer
370
-1
48
1
60
0
100
AcDbPoint
10
78.1898
20
-28.343428
30
0
39
0
210
0
220
0
230
1
50
360
0
ENDBLK
5
162
100
AcDbEntity
8
0
100
AcDbBlockEnd
0
BLOCK
5
173
100
AcDbEntity
8
0
100
AcDbBlockBegin
2
_U4
70
0
10
0
20
0
30
0
3
_U4
0
MTEXT
5
16D
100
AcDbEntity
8
SK2
62
256
6
ByLayer
370
13
48
1
60
0
100
AcDbMText
10
8.524735
20
-27.310795
30
0
210
0
220
0
230
1
1
\W0.6501;128,19
40
3.5
41
0
44
1.084337
50
0
71
7
72
5
7
iso_b_vert
0
LINE
5
16E
100
AcDbEntity
8
SK2
62
256
6
ByLayer
370
13
48
1
60
0
100
AcDbLine
10
-50
20
-11.5875
30
0
11
-50
21
-30.343428
31
0
39
0
210
0
220
0
230
1
0
LINE
5
16F
100
AcDbEntity
8
SK2
62
256
6
ByLayer
370
13
48
1
60
0
100
AcDbLine
10
78.1898
20
-10.9875
30
0
11
78.1898
21
-30.343428
31
0
39
0
210
0
220
0
230
1
0
LINE
5
170
100
AcDbEntity
8
SK2
62
256
6
ByLayer
370
13
48
1
60
0
100
AcDbLine
10
-50
20
-28.343428
30
0
11
78.1898
21
-28.343428
31
0
39
0
210
0
220
0
230
1
0
SOLID
5
171
100
AcDbEntity
8
SK2
62
256
6
ByLayer
370
18
48
1
60
0
100
AcDbTrace
10
-50
20
-28.343428
30
0
11
-46.500002
21
-27.882645
31
0
12
-46.499998
22
-28.804212
32
0
13
-46.499998
23
-28.804212
33
0
39
0
210
0
220
0
230
1
0
SOLID
5
172
100
AcDbEntity
8
SK2
62
256
6
ByLayer
370
18
48
1
60
0
100
AcDbTrace
10
78.1898
20
-28.343428
30
0
11
74.689802
21
-28.804212
31
0
12
74.689798
22
-27.882645
32
0
13
74.689798
23
-27.882645
33
0
39
0
210
0
220
0
230
1
0
ENDBLK
5
174
100
AcDbEntity
8
0
100
AcDbBlockEnd
0
ENDSEC
0
SECTION
2
ENTITIES
0
ARC
5
A9
100
AcDbEntity
8
1
62
256
6
ByLayer
370
18
48
1
60
0
100
AcDbCircle
39
0
10
1.286004
20
-10.151942
30
0
40
0.800000000000003
210
0
220
0
230
1
100
AcDbArc
50
89.96419
51
143.48995
0
ARC
5
AA
100
AcDbEntity
8
1
62
256
6
ByLayer
370
18
48
1
60
0
100
AcDbCircle
39
0
10
1.286004
20
10.151942
30
0
40
0.800000000000003
210
0
220
0
230
1
100
AcDbArc
50
216.51005
51
270.03581
0
ARC
5
AB
100
AcDbEntity
8
1
62
256
6
ByLayer
370
18
48
1
60
0
100
AcDbCircle
39
0
10
0
20
-9.2
30
0
40
0.799999999999998
210
0
220
0
230
1
100
AcDbArc
50
270
51
323.48995
0
ARC
5
AC
100
AcDbEntity
8
1
62
256
6
ByLayer
370
18
48
1
60
0
100
AcDbCircle
39
0
10
0
20
9.2
30
0
40
0.799999999999998
210
0
220
0
230
1
100
AcDbArc
50
36.51005
51
90
0
ELLIPSE
5
AD
100
AcDbEntity
8
1
62
256
6
ByLayer
370
13
48
1
60
0
100
AcDbEllipse
10
4.250126
20
-4.371559
30
0
11
0.0413025334877196
21
0.0910719535724133
31
0
210
0
220
0
230
1
40
0.2234
41
1.11125991336393
42
2.67361216377649
0
ELLIPSE
5
AE
100
AcDbEntity
8
1
62
256
6
ByLayer
370
13
48
1
60
0
100
AcDbEllipse
10
4.180838
20
-4.34844
30
0
11
-0.0195559749100017
21
-0.0980691788755233
31
0
210
0
220
0
230
1
40
0.567887
41
-1.90739644438106
42
-0.5588095783407
0
POINT
5
70
100
AcDbEntity
8
80
62
256
6
ByLayer
370
18
48
1
60
0
100
AcDbPoint
10
0
20
0
30
0
39
0
210
0
220
0
230
1
50
360
0
POINT
5
72
100
AcDbEntity
8
81
62
256
6
ByLayer
370
18
48
1
60
0
100
AcDbPoint
10
81
20
0
30
0
39
0
210
0
220
0
230
1
50
360
0
POINT
5
74
100
AcDbEntity
8
1
62
256
6
ByLayer
370
18
48
1
60
1
100
AcDbPoint
10
78.1898
20
-9.4
30
0
39
0
210
0
220
0
230
1
50
360
0
POINT
5
76
100
AcDbEntity
8
1
62
256
6
ByLayer
370
18
48
1
60
1
100
AcDbPoint
10
-50
20
-10
30
0
39
0
210
0
220
0
230
1
50
360
0
POINT
5
77
100
AcDbEntity
8
1
62
256
6
ByLayer
370
18
48
1
60
1
100
AcDbPoint
10
21.79
20
9.4
30
0
39
0
210
0
220
0
230
1
50
360
0
POINT
5
78
100
AcDbEntity
8
1
62
256
6
ByLayer
370
18
48
1
60
1
100
AcDbPoint
10
78.1898
20
-9.4
30
0
39
0
210
0
220
0
230
1
50
360
0
POINT
5
79
100
AcDbEntity
8
1
62
256
6
ByLayer
370
18
48
1
60
1
100
AcDbPoint
10
-50
20
-10
30
0
39
0
210
0
220
0
230
1
50
360
0
POINT
5
7A
100
AcDbEntity
8
1
62
256
6
ByLayer
370
18
48
1
60
1
100
AcDbPoint
10
78.1898
20
-9.4
30
0
39
0
210
0
220
0
230
1
50
360
0
SPLINE
5
AF
100
AcDbEntity
8
1
62
256
6
ByLayer
370
18
48
1
60
0
100
AcDbSpline
70
4
71
3
72
10
73
6
40
0
40
0
40
0
40
0
40
0.5
40
0.5
40
1
40
1
40
1
40
1
41
1
10
80.9692129041609
20
-0.248255639201147
30
0
41
1
10
80.9699817893319
20
-0.222929731471993
30
0
41
1
10
80.9734829312031
20
-0.193862078752517
30
0
41
1
10
80.9842237132209
20
-0.131106882907744
30
0
41
1
10
80.9913324083654
20
-0.0983046817587194
30
0
41
1
10
80.9999586269162
20
-0.0642641715761556
30
0
0
SPLINE
5
B0
100
AcDbEntity
8
1
62
256
6
ByLayer
370
18
48
1
60
0
100
AcDbSpline
70
4
71
3
72
20
73
16
40
0
40
0
40
0
40
0
40
0.125
40
0.125
40
0.250000000000001
40
0.250000000000001
40
0.375000000000001
40
0.375000000000001
40
0.500000000000001
40
0.500000000000001
40
0.625000000000002
40
0.625000000000002
40
0.750000000000002
40
0.750000000000002
40
1
40
1
40
1
40
1
41
1
10
4.25054606854832
20
8.25919199703495
30
0
41
1
10
4.23677913286093
20
8.2646516909075
30
0
41
1
10
4.22242773592478
20
8.27081276389308
30
0
41
1
10
4.19199292888635
20
8.28515053970003
30
0
41
1
10
4.17573894610081
20
8.29342209109021
30
0
41
1
10
4.14229330582668
20
8.31225343151618
30
0
41
1
10
4.12485783996405
20
8.32297850341004
30
0
41
1
10
4.09152635034303
20
8.34599152510992
30
0
41
1
10
4.07613581189233
20
8.35796504479038
30
0
41
1
10
4.05041673508492
20
8.38057495263533
30
0
41
1
10
4.04001752560242
20
8.39120995917079
30
0
41
1
10
4.02366556923741
20
8.41037012306697
30
0
41
1
10
4.01746360551988
20
8.41915956219194
30
0
41
1
10
4.00350208578624
20
8.44307617414421
30
0
41
1
10
3.99999996541629
20
8.4560446969918
30
0
41
1
10
3.99999996541627
20
8.46721246438184
30
0
0
SPLINE
5
B1
100
AcDbEntity
8
1
62
256
6
ByLayer
370
18
48
1
60
0
100
AcDbSpline
70
4
71
3
72
12
73
8
40
0
40
0
40
0
40
0
40
0.5
40
0.5
40
0.75
40
0.75
40
1
40
1
40
1
40
1
41
1
10
77.8605193411046
20
2.21613312691432
30
0
41
1
10
78.3635489851844
20
2.19997545718036
30
0
41
1
10
78.8666156793846
20
2.18342835092642
30
0
41
1
10
79.6210727041199
20
2.16011094909413
30
0
41
1
10
79.8725392923182
20
2.15253910365436
30
0
41
1
10
80.3753533669413
20
2.13864730020003
30
0
41
1
10
80.6266815281892
20
2.13253047052999
30
0
41
1
10
80.8779924897484
20
2.12659442804397
30
0
0
SPLINE
5
B2
100
AcDbEntity
8
1
62
256
6
ByLayer
370
13
48
1
60
0
100
AcDbSpline
70
4
71
3
72
8
73
4
40
0
40
0
40
0
40
0
40
1
40
1
40
1
40
1
41
1
10
4.13472994664397
20
-4.42570314112777
30
0
41
1
10
4.1565454019744
20
-4.43000958145714
30
0
41
1
10
4.18007215151152
20
-4.43784720614954
30
0
41
1
10
4.20408698101923
20
-4.44867685697645
30
0
0
SPLINE
5
B3
100
AcDbEntity
8
1
62
256
6
ByLayer
370
13
48
1
60
0
100
AcDbSpline
70
4
71
3
72
14
73
10
40
0
40
0
40
0
40
0
40
0.25
40
0.25
40
0.5
40
0.5
40
0.75
40
0.75
40
1
40
1
40
1
40
1
41
1
10
3.99999996541627
20
-4.29688618613054
30
0
41
1
10
3.99999996541627
20
-4.30951026861749
30
0
41
1
10
4.00289712234061
20
-4.32246510272222
30
0
41
1
10
4.01443092143307
20
-4.34727564298711
30
0
41
1
10
4.02306684620066
20
-4.35928003699587
30
0
41
1
10
4.04568280284769
20
-4.38165133035514
30
0
41
1
10
4.05999913930202
20
-4.39229746304636
30
0
41
1
10
4.09368601306781
20
-4.41103814260535
30
0
41
1
10
4.11284259884161
20
-4.41912356793242
30
0
41
1
10
4.13472994664397
20
-4.42570314112777
30
0
0
SPLINE
5
B4
100
AcDbEntity
8
1
62
256
6
ByLayer
370
18
48
1
60
0
100
AcDbSpline
70
4
71
3
72
10
73
6
40
0
40
0
40
0
40
0
40
0.5
40
0.5
40
1
40
1
40
1
40
1
41
1
10
80.9999586269189
20
0.0642641715808736
30
0
41
1
10
80.9937201826888
20
0.0447839749254513
30
0
41
1
10
80.9864847544437
20
0.0255357892199868
30
0
41
1
10
80.9701557310036
20
-0.0113354797242096
30
0
41
1
10
80.9614562191915
20
-0.0280510135180521
30
0
41
1
10
80.952545248807
20
-0.0426189902371732
30
0
0
SPLINE
5
B5
100
AcDbEntity
8
1
62
256
6
ByLayer
370
18
48
1
60
0
100
AcDbSpline
70
4
71
3
72
14
73
10
40
0
40
0
40
0
40
0
40
0.25
40
0.25
40
0.5
40
0.5
40
0.75
40
0.75
40
1
40
1
40
1
40
1
41
1
10
77.8480075359597
20
-8.9203908420877
30
0
41
1
10
77.8514699541407
20
-8.91974879803388
30
0
41
1
10
77.8542921237506
20
-8.92080108147252
30
0
41
1
10
77.8582444231175
20
-8.92737200627587
30
0
41
1
10
77.8593198255538
20
-8.93297434730579
30
0
41
1
10
77.8585256228136
20
-8.94980979887876
30
0
41
1
10
77.8565758987027
20
-8.96108664046969
30
0
41
1
10
77.8496603346952
20
-8.98676010618641
30
0
41
1
10
77.8447789597537
20
-9.00087963725031
30
0
41
1
10
77.8393895209373
20
-9.01423798004637
30
0
0
SPLINE
5
B6
100
AcDbEntity
8
1
62
256
6
ByLayer
370
18
48
1
60
0
100
AcDbSpline
70
4
71
3
72
32
73
28
40
0
40
0
40
0
40
0
40
0.0624999999999987
40
0.0624999999999987
40
0.124999999999997
40
0.124999999999997
40
0.187499999999996
40
0.187499999999996
40
0.249999999999995
40
0.249999999999995
40
0.374999999999992
40
0.374999999999992
40
0.437499999999992
40
0.437499999999992
40
0.499999999999993
40
0.499999999999993
40
0.624999999999995
40
0.624999999999995
40
0.687499999999996
40
0.687499999999996
40
0.749999999999997
40
0.749999999999997
40
0.874999999999999
40
0.874999999999999
40
0.937499999999999
40
0.937499999999999
40
1
40
1
40
1
40
1
41
1
10
19.908367212673
20
0.767869374794827
30
0
41
1
10
19.5590525088982
20
0.936582211458216
30
0
41
1
10
19.2116014865887
20
1.10782545604604
30
0
41
1
10
18.5197529856428
20
1.45423595851565
30
0
41
1
10
18.1753487506257
20
1.62933660682666
30
0
41
1
10
17.4888075800596
20
1.98154092913867
30
0
41
1
10
17.1466797955174
20
2.15868736727694
30
0
41
1
10
16.4641044917421
20
2.5139677275661
30
0
41
1
10
16.1233714412957
20
2.69224086266593
30
0
41
1
10
15.1047875593862
20
3.22513946234389
30
0
41
1
10
14.4316641119592
20
3.57716462947593
30
0
41
1
10
13.4281177545876
20
4.09295093715653
30
0
41
1
10
13.0946578494339
20
4.26264253112493
30
0
41
1
10
12.4294375767437
20
4.59792394137634
30
0
41
1
10
12.0976568319697
20
4.76375768228667
30
0
41
1
10
11.1046818946451
20
5.25417964471526
30
0
41
1
10
10.4457271388836
20
5.57194880808856
30
0
41
1
10
9.46255824495242
20
6.03207908407467
30
0
41
1
10
9.1357351139898
20
6.18269851567769
30
0
41
1
10
8.48438027810283
20
6.47787664288615
30
0
41
1
10
8.15936066155547
20
6.62265308318948
30
0
41
1
10
7.19687458412452
20
7.04598508595671
30
0
41
1
10
6.56976720900758
20
7.313209142408
30
0
41
1
10
5.66475145525379
20
7.68902760645051
30
0
41
1
10
5.36913006346657
20
7.8100879539445
30
0
41
1
10
4.79491013822584
20
8.04247780823425
30
0
41
1
10
4.51618631369422
20
8.15384434004207
30
0
41
1
10
4.25054606543173
20
8.25919199827092
30
0
0
SPLINE
5
B7
100
AcDbEntity
8
1
62
256
6
ByLayer
370
18
48
1
60
0
100
AcDbSpline
70
4
71
3
72
8
73
4
40
0
40
0
40
0
40
0
40
1
40
1
40
1
40
1
41
1
10
77.8393895209228
20
-9.01423798008238
30
0
41
1
10
77.7889939799807
20
-9.13914911354789
30
0
41
1
10
77.7384802504853
20
-9.26381982906045
30
0
41
1
10
77.6878583529612
20
-9.38825512960679
30
0
0
SPLINE
5
B8
100
AcDbEntity
8
1
62
256
6
ByLayer
370
18
48
1
60
0
100
AcDbSpline
70
4
71
3
72
10
73
6
40
0
40
0
40
0
40
0
40
0.5
40
0.5
40
1
40
1
40
1
40
1
41
1
10
80.9692129041608
20
0.248255639201318
30
0
41
1
10
80.9699817893319
20
0.222929731472561
30
0
41
1
10
80.9734829312029
20
0.193862078753625
30
0
41
1
10
80.9842237132204
20
0.131106882909933
30
0
41
1
10
80.9913324083648
20
0.0983046817615048
30
0
41
1
10
80.9999586269153
20
0.0642641715795378
30
0
0
SPLINE
5
B9
100
AcDbEntity
8
1
62
256
6
ByLayer
370
18
48
1
60
0
100
AcDbSpline
70
4
71
3
72
12
73
8
40
0
40
0
40
0
40
0
40
0.457980186483307
40
0.457980186483307
40
0.915960372966614
40
0.915960372966614
40
1
40
1
40
1
40
1
41
1
10
4.20408698101923
20
-4.44867685697645
30
0
41
1
10
4.97683810997634
20
-4.79715423839912
30
0
41
1
10
5.74661134978999
20
-5.13099550837961
30
0
41
1
10
7.27973789278991
20
-5.7643190817721
30
0
41
1
10
8.04376268471054
20
-6.06389843723383
30
0
41
1
10
8.94661308999386
20
-6.39602822263271
30
0
41
1
10
9.08655620005982
20
-6.44689209046174
30
0
41
1
10
9.22646546988389
20
-6.49711230002492
30
0
0
SPLINE
5
BA
100
AcDbEntity
8
1
62
256
6
ByLayer
370
13
48
1
60
0
100
AcDbSpline
70
4
71
3
72
18
73
14
40
0
40
0
40
0
40
0
40
0.266446706256094
40
0.266446706256094
40
0.413128127166164
40
0.413128127166164
40
0.486468837621198
40
0.486468837621198
40
0.559809548076232
40
0.559809548076232
40
0.853172389896369
40
0.853172389896369
40
1
40
1
40
1
40
1
41
1
10
9.22646563601134
20
-6.49711235965611
30
0
41
1
10
10.6114482156308
20
-6.99424964573399
30
0
41
1
10
11.9931146842877
20
-7.42831284150165
30
0
41
1
10
14.1439426077609
20
-7.98678433771636
30
0
41
1
10
14.9091287626707
20
-8.16274731094836
30
0
41
1
10
16.0613301853322
20
-8.39095715382012
30
0
41
1
10
16.4461391969059
20
-8.4610664339254
30
0
41
1
10
17.2176451061424
20
-8.5889139039771
30
0
41
1
10
17.6040986877287
20
-8.64658530739985
30
0
41
1
10
19.5298104973342
20
-8.90162993113398
30
0
41
1
10
21.0594350569038
20
-9.00070403612187
30
0
41
1
10
23.3546581119551
20
-8.99138938114433
30
0
41
1
10
24.1203382767876
20
-8.96191110959646
30
0
41
1
10
24.887510980211
20
-8.90610096558987
30
0
0
SPLINE
5
BB
100
AcDbEntity
8
1
62
256
6
ByLayer
370
18
48
1
60
0
100
AcDbSpline
70
4
71
3
72
8
73
4
40
0
40
0
40
0
40
0
40
1
40
1
40
1
40
1
41
1
10
80.8779924897418
20
-2.12659442804414
30
0
41
1
10
80.9198092886102
20
-1.49990094667419
30
0
41
1
10
80.9502219821352
20
-0.873787717436073
30
0
41
1
10
80.9692129041608
20
-0.24825563920129
30
0
0
SPLINE
5
BC
100
AcDbEntity
8
1
62
256
6
ByLayer
370
18
48
1
60
0
100
AcDbSpline
70
4
71
3
72
52
73
48
40
0
40
0
40
0
40
0
40
0.0058323832130657
40
0.0058323832130657
40
0.0447126148709987
40
0.0447126148709987
40
0.0641527306999652
40
0.0641527306999652
40
0.0835928465289318
40
0.0835928465289318
40
0.103032962357898
40
0.103032962357898
40
0.122473078186865
40
0.122473078186865
40
0.161353309844799
40
0.161353309844799
40
0.180793425673765
40
0.180793425673765
40
0.185653454631006
40
0.185653454631006
40
0.188083469109626
40
0.188083469109626
40
0.190513483588246
40
0.190513483588246
40
0.195373512545486
40
0.195373512545486
40
0.200233541502725
40
0.200233541502725
40
0.205093570459965
40
0.205093570459965
40
0.209953599417204
40
0.219673657331682
40
0.239113773160637
40
0.239113773160637
40
0.316874236476461
40
0.316874236476461
40
0.394634699792284
40
0.394634699792284
40
0.472395163108107
40
0.472395163108107
40
0.55015562642393
40
0.55015562642393
40
0.705676553055576
40
0.705676553055576
40
0.861197479687221
40
0.861197479687221
40
1
40
1
40
1
40
1
41
1
10
2.00700542787445
20
-9.35227399606231
30
0
41
1
10
2.0096646177677
20
-9.35246437053303
30
0
41
1
10
2.01307985609637
20
-9.35242244449333
30
0
41
1
10
2.04506233287157
20
-9.35031349204678
30
0
41
1
10
2.10577194623477
20
-9.33838033763709
30
0
41
1
10
2.24214367242263
20
-9.30780696736329
30
0
41
1
10
2.29481725375246
20
-9.29557329508279
30
0
41
1
10
2.41110454856431
20
-9.26810700400074
30
0
41
1
10
2.47496036921876
20
-9.25281957906552
30
0
41
1
10
2.61264946215169
20
-9.21969332755813
30
0
41
1
10
2.68648152510252
20
-9.20185225920201
30
0
41
1
10
2.84308382062113
20
-9.16406147347348
30
0
41
1
10
2.92590041044718
20
-9.14409708550954
30
0
41
1
10
3.18316415404683
20
-9.08235751943724
30
0
41
1
10
3.36768453988489
20
-9.03845334920388
30
0
41
1
10
3.65810007121439
20
-8.97053948374426
30
0
41
1
10
3.75707465183604
20
-8.94757911039207
30
0
41
1
10
3.88319268770624
20
-8.91859936150837
30
0
41
1
10
3.90851628022432
20
-8.91279401560084
30
0
41
1
10
3.94664687410608
20
-8.90407376637791
30
0
41
1
10
3.95942122965127
20
-8.90118484170014
30
0
41
1
10
3.98474391546472
20
-8.8952673940033
30
0
41
1
10
3.99739412875354
20
-8.8922881500101
30
0
41
1
10
4.03705923453722
20
-8.88416952379603
30
0
41
1
10
4.06626911507206
20
-8.88009681685611
30
0
41
1
10
4.12863321824764
20
-8.87392554748712
30
0
41
1
10
4.161085465133
20
-8.87186730272433
30
0
41
1
10
4.22541833828166
20
-8.8696724573131
30
0
41
1
10
4.25770295239295
20
-8.86922887276637
30
0
41
1
10
4.3222145384666
20
-8.86802163370902
30
0
41
1
10
4.41899178652923
20
-8.86626382943382
30
0
41
1
10
4.64487425690453
20
-8.86253470415497
30
0
41
1
10
4.83860528073447
20
-8.85998006898052
30
0
41
1
10
5.48463397882819
20
-8.85290021433991
30
0
41
1
10
6.00156877520399
20
-8.85186967518663
30
0
41
1
10
7.03345060502596
20
-8.85882126234341
30
0
41
1
10
7.54874274054012
20
-8.86679811199113
30
0
41
1
10
8.57806488370176
20
-8.89092154718247
30
0
41
1
10
9.09262254901032
20
-8.90710019375547
30
0
41
1
10
10.118191409907
20
-8.94610753882446
30
0
41
1
10
10.6273433686953
20
-8.96884086246152
30
0
41
1
10
12.1443779584017
20
-9.04349140621568
30
0
41
1
10
13.1418134588969
20
-9.10200540422213
30
0
41
1
10
15.1120289169605
20
-9.21430217907175
30
0
41
1
10
16.0847320769725
20
-9.2679840441206
30
0
41
1
10
17.9065626536287
20
-9.34058335428969
30
0
41
1
10
18.7577249278853
20
-9.36250241875243
30
0
41
1
10
19.6031323102081
20
-9.36338188313735
30
0
0
SPLINE
5
BD
100
AcDbEntity
8
1
62
256
6
ByLayer
370
13
48
1
60
0
100
AcDbSpline
70
4
71
3
72
14
73
10
40
0
40
0
40
0
40
0
40
0.25
40
0.25
40
0.5
40
0.5
40
0.75
40
0.75
40
1
40
1
40
1
40
1
41
1
10
3.99999996541629
20
-4.29688618613054
30
0
41
1
10
3.99999996541629
20
-4.29788647126287
30
0
41
1
10
4.00289231504357
20
-4.29887119702863
30
0
41
1
10
4.01441842537474
20
-4.30066761183832
30
0
41
1
10
4.02305217856718
20
-4.3014931176111
30
0
41
1
10
4.04566925222025
20
-4.30296360074976
30
0
41
1
10
4.05999014695834
20
-4.30362652439689
30
0
41
1
10
4.09368613305156
20
-4.30474653474809
30
0
41
1
10
4.11284641933597
20
-4.30520442430222
30
0
41
1
10
4.13472994664397
20
-4.30556684800365
30
0
0
SPLINE
5
BE
100
AcDbEntity
8
1
62
256
6
ByLayer
370
18
48
1
60
0
100
AcDbSpline
70
4
71
3
72
64
73
60
40
0
40
0
40
0
40
0
40
0.0207978036112082
40
0.0207978036112082
40
0.0415956072224163
40
0.0415956072224163
40
0.0831912144448332
40
0.0831912144448332
40
0.12478682166725
40
0.12478682166725
40
0.166382428889667
40
0.166382428889667
40
0.207978036112084
40
0.207978036112084
40
0.228775839723293
40
0.228775839723293
40
0.249573643334501
40
0.249573643334501
40
0.291169250556918
40
0.291169250556918
40
0.332764857779335
40
0.332764857779335
40
0.374360465001752
40
0.374360465001752
40
0.39515826861296
40
0.39515826861296
40
0.415956072224169
40
0.415956072224169
40
0.499147286669001
40
0.499147286669001
40
0.582338501113833
40
0.582338501113833
40
0.603136304725041
40
0.603136304725041
40
0.623934108336249
40
0.623934108336249
40
0.665529715558666
40
0.665529715558666
40
0.707125322781082
40
0.707125322781082
40
0.748720930003498
40
0.748720930003498
40
0.769518733614706
40
0.769518733614706
40
0.790316537225915
40
0.790316537225915
40
0.831912144448331
40
0.831912144448331
40
0.873507751670747
40
0.873507751670747
40
0.915103358893163
40
0.915103358893163
40
0.95669896611558
40
0.95669896611558
40
0.977496769726787
40
0.977496769726787
40
0.998294573337995
40
0.998294573337995
40
1
40
1
40
1
40
1
41
1
10
77.6878583529612
20
-9.38825512960676
30
0
41
1
10
77.304640756186
20
-9.39828433149933
30
0
41
1
10
76.9214333018039
20
-9.4013982793023
30
0
41
1
10
76.1546971827742
20
-9.39380378086599
30
0
41
1
10
75.7710633366312
20
-9.38308265418911
30
0
41
1
10
74.6217010732848
20
-9.33034184167744
30
0
41
1
10
73.8567272060887
20
-9.26775128307023
30
0
41
1
10
72.3263863473335
20
-9.08872884482926
30
0
41
1
10
71.5607877849277
20
-8.97229834657114
30
0
41
1
10
70.0266945556811
20
-8.6869051560997
30
0
41
1
10
69.261316518586
20
-8.51856494628251
30
0
41
1
10
67.7309087854134
20
-8.13319996921186
30
0
41
1
10
66.9658552502555
20
-7.91619371255968
30
0
41
1
10
65.8162246478819
20
-7.55623419464894
30
0
41
1
10
65.4324695839136
20
-7.43043428763119
30
0
41
1
10
64.6660581371217
20
-7.16851860000207
30
0
41
1
10
64.2831730101681
20
-7.03233326479119
30
0
41
1
10
63.1349349309985
20
-6.60881661910517
30
0
41
1
10
62.3700053091155
20
-6.30651592626006
30
0
41
1
10
60.8382902923343
20
-5.665939198437
30
0
41
1
10
60.0705541416868
20
-5.32731764869476
30
0
41
1
10
58.5386410470211
20
-4.62259694902647
30
0
41
1
10
57.7736611134713
20
-4.25610495227266
30
0
41
1
10
56.6254129983225
20
-3.68885017001807
30
0
41
1
10
56.2425215610067
20
-3.49686621325196
30
0
41
1
10
55.4760206184345
20
-3.10782732831939
30
0
41
1
10
55.0921893762891
20
-2.9106035973773
30
0
41
1
10
53.1756462430347
20
-1.91592004677975
30
0
41
1
10
51.6479498367152
20
-1.09118725703883
30
0
41
1
10
48.5789885787749
20
0.571273090486756
30
0
41
1
10
47.0504927933641
20
1.40156365255274
30
0
41
1
10
45.1342171283684
20
2.41020994129974
30
0
41
1
10
44.7503749478349
20
2.61062703853383
30
0
41
1
10
43.9835970828186
20
3.00676214497423
30
0
41
1
10
43.6005503265946
20
3.20255218454662
30
0
41
1
10
42.4518666471183
20
3.78212859952103
30
0
41
1
10
41.6866828981471
20
4.15811642199185
30
0
41
1
10
40.1546196498553
20
4.88440367904235
30
0
41
1
10
39.3867583079442
20
5.23520558367707
30
0
41
1
10
37.8542305935908
20
5.90218842765756
30
0
41
1
10
37.0889460607926
20
6.21872715896947
30
0
41
1
10
35.9403310313118
20
6.66513674898872
30
0
41
1
10
35.5573596714397
20
6.80922602950693
30
0
41
1
10
34.7908203280116
20
7.08742553851806
30
0
41
1
10
34.4069580294333
20
7.22161977000297
30
0
41
1
10
33.2564862870563
20
7.60743209756563
30
0
41
1
10
32.4908772815369
20
7.84240363181246
30
0
41
1
10
30.9595451677337
20
8.26516100777368
30
0
41
1
10
30.1939167562001
20
8.45301542478811
30
0
41
1
10
28.6592698988824
20
8.77844406921912
30
0
41
1
10
27.8926855666604
20
8.9155707251316
30
0
41
1
10
26.3611631278626
20
9.13649129151486
30
0
41
1
10
25.5957289612966
20
9.22041056712916
30
0
41
1
10
24.4457283625021
20
9.30548549287568
30
0
41
1
10
24.0618170730454
20
9.32705760716794
30
0
41
1
10
23.294669728116
20
9.35640068725289
30
0
41
1
10
22.9114842844492
20
9.36417797853684
30
0
41
1
10
22.4970447351286
20
9.36515075818639
30
0
41
1
10
22.4656371275834
20
9.36517825475002
30
0
41
1
10
22.4342304735239
20
9.36515953791988
30
0
0
SPLINE
5
BF
100
AcDbEntity
8
1
62
256
6
ByLayer
370
18
48
1
60
0
100
AcDbSpline
70
4
71
3
72
8
73
4
40
0
40
0
40
0
40
0
40
1
40
1
40
1
40
1
41
1
10
80.8779924897419
20
2.12659442804434
30
0
41
1
10
80.9198129877746
20
1.49984550861438
30
0
41
1
10
80.9502236626646
20
0.873732363352588
30
0
41
1
10
80.9692129041608
20
0.248255639201318
30
0
0
SPLINE
5
C0
100
AcDbEntity
8
1
62
256
6
ByLayer
370
18
48
1
60
0
100
AcDbSpline
70
4
71
3
72
49
73
45
40
0
40
0
40
0
40
0
40
0.125
40
0.125
40
0.187499999999999
40
0.187499999999999
40
0.218749999999999
40
0.218749999999999
40
0.25
40
0.25
40
0.375000000000002
40
0.375000000000002
40
0.500000000000004
40
0.500000000000004
40
0.562500000000004
40
0.562500000000004
40
0.593750000000004
40
0.593750000000004
40
0.625000000000004
40
0.625000000000004
40
0.749999999999993
40
0.749999999999993
40
0.81249999999999
40
0.81249999999999
40
0.843749999999989
40
0.843749999999989
40
0.85937499999999
40
0.85937499999999
40
0.867187499999991
40
0.867187499999991
40
0.871093749999992
40
0.871093749999992
40
0.874999999999992
40
0.874999999999992
40
0.878906249999992
40
0.878906249999992
40
0.882812499999993
40
0.890624999999993
40
0.890624999999993
40
0.906249999999994
40
0.906249999999994
40
0.937499999999996
40
0.937499999999996
40
1
40
1
40
1
40
1
41
1
10
68.941583553927
20
3.44731439044614
30
0
41
1
10
69.3138927144284
20
3.10755672549237
30
0
41
1
10
69.6972308337392
20
2.78980227662655
30
0
41
1
10
70.288659876288
20
2.34593288118361
30
0
41
1
10
70.4885427297285
20
2.2034425054712
30
0
41
1
10
70.7926432271507
20
1.99823816720436
30
0
41
1
10
70.894733048486
20
1.93127911295096
30
0
41
1
10
71.1004153097434
20
1.80035878891633
30
0
41
1
10
71.2041323512203
20
1.73631133541639
30
0
41
1
10
71.7230494956672
20
1.42562036087523
30
0
41
1
10
72.1414671860671
20
1.20595965000521
30
0
41
1
10
72.9848960993814
20
0.824647440865533
30
0
41
1
10
73.4098847241967
20
0.662797126872164
30
0
41
1
10
74.0528965295639
20
0.468664062196581
30
0
41
1
10
74.2681900721134
20
0.412366240556224
30
0
41
1
10
74.5926614196287
20
0.341389383109885
30
0
41
1
10
74.7010737596851
20
0.319975866726395
30
0
41
1
10
74.918433953001
20
0.281860223366408
30
0
41
1
10
75.0275928591072
20
0.265134464498999
30
0
41
1
10
75.5710426818758
20
0.194429928909557
30
0
41
1
10
75.9997222301977
20
0.178276644550863
30
0
41
1
10
76.631853097613
20
0.226412473030109
30
0
41
1
10
76.8408529633972
20
0.254732523800755
30
0
41
1
10
77.1478602779598
20
0.317554570720489
30
0
41
1
10
77.2492602844151
20
0.341942038919029
30
0
41
1
10
77.3995084515242
20
0.383855000045486
30
0
41
1
10
77.4492333026406
20
0.398862696124581
30
0
41
1
10
77.5236419749807
20
0.421857079608287
30
0
41
1
10
77.5478265389881
20
0.430986170702369
30
0
41
1
10
77.5780073567248
20
0.456992658948792
30
0
41
1
10
77.5867589250979
20
0.467243027247719
30
0
41
1
10
77.6008678321444
20
0.491650214952188
30
0
41
1
10
77.6056359049646
20
0.505571047958114
30
0
41
1
10
77.6108343046985
20
0.535883755599656
30
0
41
1
10
77.6121522079527
20
0.551710331769186
30
0
41
1
10
77.6154588720805
20
0.582943578901393
30
0
41
1
10
77.620265951663
20
0.629850100137787
30
0
41
1
10
77.6246200857116
20
0.676924422690718
30
0
41
1
10
77.6327392882819
20
0.771291297060287
30
0
41
1
10
77.6373621320905
20
0.834439661235621
30
0
41
1
10
77.6489832514852
20
1.02452039467204
30
0
41
1
10
77.6537381408893
20
1.15210483775414
30
0
41
1
10
77.6599025787872
20
1.53719673755091
30
0
41
1
10
77.6531836210852
20
1.79657985422384
30
0
41
1
10
77.6378698045379
20
2.05564996215182
30
0
0
SPLINE
5
C1
100
AcDbEntity
8
1
62
256
6
ByLayer
370
18
48
1
60
0
100
AcDbSpline
70
4
71
3
72
10
73
6
40
0
40
0
40
0
40
0
40
0.5
40
0.5
40
1
40
1
40
1
40
1
41
1
10
78.1787859104344
20
-9.13695378537204
30
0
41
1
10
78.0885925465555
20
-9.20484896861504
30
0
41
1
10
78.0025053022773
20
-9.26026301015943
30
0
41
1
10
77.8384782445334
20
-9.34471226981216
30
0
41
1
10
77.7603049047216
20
-9.37366398259496
30
0
41
1
10
77.6878583529613
20
-9.38825512960676
30
0
0
SPLINE
5
C2
100
AcDbEntity
8
1
62
256
6
ByLayer
370
18
48
1
60
0
100
AcDbSpline
70
4
71
3
72
92
73
88
40
0
40
0
40
0
40
0
40
0.0336185306432796
40
0.0336185306432796
40
0.0504277959649194
40
0.0504277959649194
40
0.0672370612865592
40
0.0672370612865592
40
0.10085559192984
40
0.10085559192984
40
0.13447412257312
40
0.13447412257312
40
0.1680926532164
40
0.1680926532164
40
0.18490191853804
40
0.18490191853804
40
0.20171118385968
40
0.20171118385968
40
0.21852044918132
40
0.21852044918132
40
0.23532971450296
40
0.23532971450296
40
0.26894824514624
40
0.26894824514624
40
0.28575751046788
40
0.28575751046788
40
0.30256677578952
40
0.30256677578952
40
0.3361853064328
40
0.3361853064328
40
0.36980383707608
40
0.36980383707608
40
0.40342236771936
40
0.40342236771936
40
0.420231633041
40
0.420231633041
40
0.43704089836264
40
0.43704089836264
40
0.45385016368428
40
0.45385016368428
40
0.470659429005921
40
0.470659429005921
40
0.5042779596492
40
0.5042779596492
40
0.52108722497084
40
0.52108722497084
40
0.537896490292481
40
0.537896490292481
40
0.571515020935761
40
0.571515020935761
40
0.605133551579041
40
0.605133551579041
40
0.638752082222321
40
0.638752082222321
40
0.655561347543961
40
0.655561347543961
40
0.672370612865602
40
0.672370612865602
40
0.689179878187242
40
0.689179878187242
40
0.705989143508882
40
0.705989143508882
40
0.739607674152162
40
0.739607674152162
40
0.756416939473802
40
0.756416939473802
40
0.773226204795442
40
0.773226204795442
40
0.806844735438723
40
0.806844735438723
40
0.840463266082003
40
0.840463266082003
40
0.874081796725283
40
0.874081796725283
40
0.890891062046924
40
0.890891062046924
40
0.907700327368564
40
0.907700327368564
40
0.924509592690204
40
0.924509592690204
40
0.941318858011844
40
0.941318858011844
40
0.974937388655125
40
0.974937388655125
40
0.991746653976766
40
0.991746653976766
40
1
40
1
40
1
40
1
41
1
10
19.908367212673
20
9.36276873063565
30
0
41
1
10
20.5202578430322
20
9.35875799625285
30
0
41
1
10
21.1310602821967
20
9.3370894889878
30
0
41
1
10
22.044613002768
20
9.27919737186662
30
0
41
1
10
22.348661676963
20
9.25564443702621
30
0
41
1
10
22.9555208302903
20
9.19992136773453
30
0
41
1
10
23.2582055551593
20
9.16767923463948
30
0
41
1
10
24.1664488849892
20
9.05876712488072
30
0
41
1
10
24.7718719272392
20
8.96995311386328
30
0
41
1
10
25.9811855858786
20
8.75965940207135
30
0
41
1
10
26.5843374311351
20
8.63749591556228
30
0
41
1
10
27.7937713123863
20
8.36336184807871
30
0
41
1
10
28.3995570394243
20
8.21123147214436
30
0
41
1
10
29.3087465450147
20
7.95916791731216
30
0
41
1
10
29.6117166928098
20
7.87094816613347
30
0
41
1
10
30.2190651157924
20
7.68767358207225
30
0
41
1
10
30.523372979854
20
7.5925710065498
30
0
41
1
10
31.1330930271001
20
7.39526760440214
30
0
41
1
10
31.438491529481
20
7.29305051518435
30
0
41
1
10
32.0502347006345
20
7.08121535664654
30
0
41
1
10
32.3568812968732
20
6.97139558295325
30
0
41
1
10
33.2734445845294
20
6.63220767250741
30
0
41
1
10
33.8829644189111
20
6.395249642642
30
0
41
1
10
34.7949188335078
20
6.02396606316464
30
0
41
1
10
35.0984800584886
20
5.89750756606429
30
0
41
1
10
35.7045245768828
20
5.63884529439545
30
0
41
1
10
36.0068517593478
20
5.50639108875961
30
0
41
1
10
36.9141676478739
20
5.10339005737717
30
0
41
1
10
37.5191310385322
20
4.82673437074865
30
0
41
1
10
38.7278360238088
20
4.25541345470131
30
0
41
1
10
39.3308507713726
20
3.95943095731715
30
0
41
1
10
40.5403574696021
20
3.35719847225073
30
0
41
1
10
41.1463333858342
20
3.05016748240738
30
0
41
1
10
42.0560413815369
20
2.57861923813246
30
0
41
1
10
42.3592302664303
20
2.41926490496348
30
0
41
1
10
42.9671162579597
20
2.09915652465938
30
0
41
1
10
43.2717333118127
20
1.93826578719597
30
0
41
1
10
43.8821504618049
20
1.61449947931791
30
0
41
1
10
44.1879374397642
20
1.45159837062343
30
0
41
1
10
44.8005412648542
20
1.12345061203817
30
0
41
1
10
45.1065698123326
20
0.958483513380912
30
0
41
1
10
46.0215406261189
20
0.46241713342252
30
0
41
1
10
46.6301828841231
20
0.133190297465973
30
0
41
1
10
47.5410021833516
20
-0.358899020044703
30
0
41
1
10
47.8442203009523
20
-0.522694713759961
30
0
41
1
10
48.4496443542826
20
-0.850263318438635
30
0
41
1
10
48.751701425845
20
-1.01431241935265
30
0
41
1
10
49.6583334603257
20
-1.50267562382743
30
0
41
1
10
50.2629802323992
20
-1.82397929005251
30
0
41
1
10
51.4713259516178
20
-2.46072505015164
30
0
41
1
10
52.0743065563859
20
-2.77742986247105
30
0
41
1
10
53.2840508097877
20
-3.39627757911313
30
0
41
1
10
53.8902840780524
20
-3.69942732586421
30
0
41
1
10
54.8005890250266
20
-4.1465679355496
30
0
41
1
10
55.104017892219
20
-4.2946282012629
30
0
41
1
10
55.7124702521003
20
-4.58596791563298
30
0
41
1
10
56.0174067723905
20
-4.72940411049311
30
0
41
1
10
56.6285340911786
20
-5.01209397098057
30
0
41
1
10
56.9351201494596
20
-5.15155041345298
30
0
41
1
10
57.5472495308629
20
-5.42554460189334
30
0
41
1
10
57.8525174127433
20
-5.56009164589261
30
0
41
1
10
58.7660857934522
20
-5.95609949634232
30
0
41
1
10
59.3739594027742
20
-6.20715025707213
30
0
41
1
10
60.2838075526707
20
-6.56531649643719
30
0
41
1
10
60.5867357499823
20
-6.68166805120083
30
0
41
1
10
61.191644351823
20
-6.90859485658376
30
0
41
1
10
61.4934809089293
20
-7.01933359600773
30
0
41
1
10
62.3995663889228
20
-7.34031400277914
30
0
41
1
10
63.003983218845
20
-7.53997458929521
30
0
41
1
10
64.2121346477887
20
-7.9125176843493
30
0
41
1
10
64.8151569807321
20
-8.08596116492311
30
0
41
1
10
66.0252727703116
20
-8.40088339703951
30
0
41
1
10
66.631826376149
20
-8.54306026906895
30
0
41
1
10
67.5428179686953
20
-8.73391835047576
30
0
41
1
10
67.846514688089
20
-8.79388216489522
30
0
41
1
10
68.4555829246267
20
-8.90528753602246
30
0
41
1
10
68.7608625933387
20
-8.95681511440492
30
0
41
1
10
69.3727459701879
20
-9.05161772593411
30
0
41
1
10
69.6794260471446
20
-9.09489759528856
30
0
41
1
10
70.2907211361188
20
-9.17280210230004
30
0
41
1
10
70.5956702170765
20
-9.20751869375965
30
0
41
1
10
71.5086118368996
20
-9.29881757716771
30
0
41
1
10
72.116522849425
20
-9.34197310767135
30
0
41
1
10
73.0270368101249
20
-9.38097557087983
30
0
41
1
10
73.330291173313
20
-9.38968257103147
30
0
41
1
10
73.7818869958062
20
-9.39624354347094
30
0
41
1
10
73.9304784500534
20
-9.39735999995435
30
0
41
1
10
74.0790436685363
20
-9.39743276077724
30
0
0
SPLINE
5
C3
100
AcDbEntity
8
1
62
256
6
ByLayer
370
18
48
1
60
0
100
AcDbSpline
70
4
71
3
72
12
73
8
40
0
40
0
40
0
40
0
40
0.847008963794954
40
0.847008963794954
40
0.952885084269323
40
0.952885084269323
40
1
40
1
40
1
40
1
41
1
10
77.8480075361809
20
-8.9203908420825
30
0
41
1
10
74.7685235181233
20
-8.99242499851619
30
0
41
1
10
71.7342620319201
20
-8.63738589687685
30
0
41
1
10
68.2719771137137
20
-7.80356532840125
30
0
41
1
10
67.8860070237596
20
-7.70474431009319
30
0
41
1
10
67.3293049592734
20
-7.55410089273528
30
0
41
1
10
67.1580491629528
20
-7.50664862913669
30
0
41
1
10
66.9869642530803
20
-7.45815813848481
30
0
0
SPLINE
5
C4
100
AcDbEntity
8
1
62
256
6
ByLayer
370
13
48
1
60
0
100
AcDbSpline
70
4
71
3
72
26
73
22
40
0
40
0
40
0
40
0
40
0.0297109196262124
40
0.0297109196262124
40
0.136777310184079
40
0.136777310184079
40
0.350910091299813
40
0.350910091299813
40
0.565042872415547
40
0.565042872415547
40
0.61857606769448
40
0.61857606769448
40
0.672109262973414
40
0.672109262973414
40
0.779175653531281
40
0.779175653531281
40
0.886242044089148
40
0.886242044089148
40
0.993308434647015
40
0.993308434647015
40
1
40
1
40
1
40
1
41
1
10
66.9869646310456
20
-7.45815824561132
30
0
41
1
10
66.7735892866905
20
-7.39768140515235
30
0
41
1
10
66.5604797531878
20
-7.33558962092107
30
0
41
1
10
65.5805016410335
20
-7.04250635649831
30
0
41
1
10
64.8164205906327
20
-6.79276735492149
30
0
41
1
10
62.5292240817781
20
-5.98825910143791
30
0
41
1
10
61.0112155319158
20
-5.37822067939135
30
0
41
1
10
57.9664731683474
20
-4.04605592975656
30
0
41
1
10
56.4400828467267
20
-3.32329648964273
30
0
41
1
10
54.512798100931
20
-2.37259479670291
30
0
41
1
10
54.1268056847491
20
-2.18026682940499
30
0
41
1
10
53.3564504396864
20
-1.79349553845057
30
0
41
1
10
52.9716469957366
20
-1.59883002597272
30
0
41
1
10
51.8178470708778
20
-1.011985458304
30
0
41
1
10
51.0492811366466
20
-0.617309229758121
30
0
41
1
10
49.5110926132075
20
0.174385859885462
30
0
41
1
10
48.7412134545015
20
0.571161289987913
30
0
41
1
10
47.1976279423145
20
1.36067375871985
30
0
41
1
10
46.4279052247639
20
1.75138818386907
30
0
41
1
10
45.6108226644839
20
2.15944122066443
30
0
41
1
10
45.5627617465057
20
2.1834181380701
30
0
41
1
10
45.5147027115228
20
2.20736846256617
30
0
0
SPLINE
5
C5
100
AcDbEntity
8
1
62
256
6
ByLayer
370
18
48
1
60
0
100
AcDbSpline
70
4
71
3
72
8
73
4
40
0
40
0
40
0
40
0
40
1
40
1
40
1
40
1
41
1
10
77.6878583529612
20
9.38825512960676
30
0
41
1
10
77.4028044109824
20
9.39571528686059
30
0
41
1
10
77.1176180228347
20
9.39934135414637
30
0
41
1
10
76.8324193700966
20
9.3991451069171
30
0
0
SPLINE
5
C6
100
AcDbEntity
8
1
62
256
6
ByLayer
370
18
48
1
60
0
100
AcDbSpline
70
4
71
3
72
32
73
28
40
0
40
0
40
0
40
0
40
0.0287961085569405
40
0.0287961085569405
40
0.125916497701246
40
0.125916497701246
40
0.174476692273399
40
0.174476692273399
40
0.223036886845552
40
0.223036886845552
40
0.320157275989858
40
0.320157275989858
40
0.417277665134164
40
0.417277665134164
40
0.51439805427847
40
0.51439805427847
40
0.562958248850622
40
0.562958248850622
40
0.611518443422774
40
0.611518443422774
40
0.708638832567081
40
0.708638832567081
40
0.757199027139235
40
0.757199027139235
40
0.805759221711388
40
0.805759221711388
40
1
40
1
40
1
40
1
41
1
10
27.8079188946574
20
-8.92083673337874
30
0
41
1
10
27.5808195653534
20
-8.95822931750271
30
0
41
1
10
27.3537730003118
20
-8.99330958981443
30
0
41
1
10
26.3610213414333
20
-9.13650745581509
30
0
41
1
10
25.595468444406
20
-9.22044272904301
30
0
41
1
10
24.4450437624183
20
-9.30552968680189
30
0
41
1
10
24.0610309385562
20
-9.32709530674808
30
0
41
1
10
23.2941776136675
20
-9.35641186745571
30
0
41
1
10
22.9110980242038
20
-9.36418272750208
30
0
41
1
10
21.7622003647221
20
-9.3668679080576
30
0
41
1
10
20.9967302415786
20
-9.34116860662286
30
0
41
1
10
19.4639072616974
20
-9.2350980530305
30
0
41
1
10
18.6957779818298
20
-9.15449115376813
30
0
41
1
10
17.1629911991813
20
-8.94040764061722
30
0
41
1
10
16.3975168411834
20
-8.80694472180315
30
0
41
1
10
15.2484889511128
20
-8.56851317807414
30
0
41
1
10
14.865332678368
20
-8.48267028170861
30
0
41
1
10
14.0983349729525
20
-8.29851516581493
30
0
41
1
10
13.7142541224934
20
-8.20013267497259
30
0
41
1
10
12.5634661847097
20
-7.88749692485811
30
0
41
1
10
11.79766276079
20
-7.65548374672852
30
0
41
1
10
10.6484776510338
20
-7.27484324476035
30
0
41
1
10
10.2653240587901
20
-7.14254432976995
30
0
41
1
10
9.49850525427723
20
-6.86747893818901
30
0
41
1
10
9.1146039235623
20
-6.72461933136501
30
0
41
1
10
7.19571273358301
20
-5.98643793354918
30
0
41
1
10
5.66662581589043
20
-5.32061362883434
30
0
41
1
10
4.13118116934228
20
-4.59783874043575
30
0
0
SPLINE
5
C7
100
AcDbEntity
8
1
62
256
6
ByLayer
370
18
48
1
60
0
100
AcDbSpline
70
4
71
3
72
68
73
64
40
0
40
0
40
0
40
0
40
0.0269825971745703
40
0.0269825971745703
40
0.0644063434370866
40
0.0644063434370866
40
0.101830089699603
40
0.101830089699603
40
0.139253835962119
40
0.139253835962119
40
0.176677582224635
40
0.176677582224635
40
0.214101328487152
40
0.214101328487152
40
0.251525074749668
40
0.251525074749668
40
0.288948821012184
40
0.288948821012184
40
0.3263725672747
40
0.3263725672747
40
0.363796313537217
40
0.363796313537217
40
0.401220059799733
40
0.401220059799733
40
0.438643806062249
40
0.438643806062249
40
0.476067552324766
40
0.476067552324766
40
0.494779425456024
40
0.494779425456024
40
0.513491298587282
40
0.513491298587282
40
0.550915044849799
40
0.550915044849799
40
0.588338791112316
40
0.588338791112316
40
0.607050664243575
40
0.607050664243575
40
0.625762537374833
40
0.625762537374833
40
0.66318628363735
40
0.66318628363735
40
0.700610029899867
40
0.700610029899867
40
0.719321903031126
40
0.719321903031126
40
0.738033776162384
40
0.738033776162384
40
0.775457522424902
40
0.775457522424902
40
0.79416939555616
40
0.79416939555616
40
0.812881268687419
40
0.812881268687419
40
0.850305014949935
40
0.850305014949935
40
0.887728761212451
40
0.887728761212451
40
0.906440634343709
40
0.906440634343709
40
0.925152507474967
40
0.925152507474967
40
1
40
1
40
1
40
1
41
1
10
60.8558466134517
20
-6.7789139188119
30
0
41
1
10
60.4878472889019
20
-6.90170288556919
30
0
41
1
10
60.119501489499
20
-7.01939461488143
30
0
41
1
10
59.2392363947147
20
-7.28942493098663
30
0
41
1
10
58.7268643657386
20
-7.43855855833257
30
0
41
1
10
57.7051191378059
20
-7.71625000336567
30
0
41
1
10
57.1949069321542
20
-7.84514066487117
30
0
41
1
10
56.174272421363
20
-8.08093558073548
30
0
41
1
10
55.6638650096897
20
-8.1863093750672
30
0
41
1
10
54.6434838752887
20
-8.37877071348646
30
0
41
1
10
54.1333354073629
20
-8.46530589211318
30
0
41
1
10
53.1111718914619
20
-8.61632244617368
30
0
41
1
10
52.5988078940181
20
-8.68106878436552
30
0
41
1
10
51.5765703266314
20
-8.78548593123367
30
0
41
1
10
51.0663101073571
20
-8.82379625396558
30
0
41
1
10
50.0454313863864
20
-8.87993933254396
30
0
41
1
10
49.5350917450954
20
-8.8978914851337
30
0
41
1
10
48.5147815412183
20
-8.91161505955014
30
0
41
1
10
48.0049311665445
20
-8.90743644824835
30
0
41
1
10
46.9830992806762
20
-8.87437904370958
30
0
41
1
10
46.4705712325057
20
-8.84396620658941
30
0
41
1
10
45.4476091063807
20
-8.76307857006626
30
0
41
1
10
44.9372368911421
20
-8.71073562445699
30
0
41
1
10
43.9160986667883
20
-8.58297832766092
30
0
41
1
10
43.4055882636877
20
-8.50907088130742
30
0
41
1
10
42.3847911484705
20
-8.33993206064815
30
0
41
1
10
41.8747522687466
20
-8.24425985586112
30
0
41
1
10
41.1082875422527
20
-8.08448507926542
30
0
41
1
10
40.8526070533571
20
-8.02858751990112
30
0
41
1
10
40.3406862372029
20
-7.9107484908028
30
0
41
1
10
40.0843850225291
20
-7.84841198488559
30
0
41
1
10
39.3165804526934
20
-7.65445159495343
30
0
41
1
10
38.8058472906133
20
-7.51634717817532
30
0
41
1
10
37.7845218230943
20
-7.22199855633087
30
0
41
1
10
37.2739176820271
20
-7.06584580663053
30
0
41
1
10
36.5079786911662
20
-6.81756473471378
30
0
41
1
10
36.252681683225
20
-6.73253781379103
30
0
41
1
10
35.7419818005782
20
-6.55705382531073
30
0
41
1
10
35.4865424190479
20
-6.46638592738239
30
0
41
1
10
34.7196052737609
20
-6.18957422936654
30
0
41
1
10
34.2071348518879
20
-5.99781326003207
30
0
41
1
10
33.1833024766914
20
-5.59953813358271
30
0
41
1
10
32.6724852112242
20
-5.39269672390554
30
0
41
1
10
31.9066573315456
20
-5.07228329162436
30
0
41
1
10
31.6513965133029
20
-4.96393451051392
30
0
41
1
10
31.1407777232253
20
-4.74384169889564
30
0
41
1
10
30.8853891874219
20
-4.63199391742597
30
0
41
1
10
30.1192468135625
20
-4.29262630663959
30
0
41
1
10
29.6087636108258
20
-4.06075249652724
30
0
41
1
10
28.8423277507605
20
-3.70444204300566
30
0
41
1
10
28.5865891184674
20
-3.58436078237929
30
0
41
1
10
28.074728051154
20
-3.34214935191693
30
0
41
1
10
27.8184590527086
20
-3.21992095640343
30
0
41
1
10
27.050587078278
20
-2.85063685985048
30
0
41
1
10
26.5397979400907
20
-2.60060586536156
30
0
41
1
10
25.5198749492001
20
-2.0940238067341
30
0
41
1
10
25.0101910656608
20
-1.83854645694635
30
0
41
1
10
24.2456722673328
20
-1.45259236106304
30
0
41
1
10
23.9908100573647
20
-1.3234843828225
30
0
41
1
10
23.4812216693014
20
-1.06433310241221
30
0
41
1
10
23.2265182236721
20
-0.934242269353263
30
0
41
1
10
21.9532137567357
20
-0.281463915538779
30
0
41
1
10
20.9329633828844
20
0.243774689894906
30
0
41
1
10
19.908367212673
20
0.767869374794827
30
0
0
SPLINE
5
C8
100
AcDbEntity
8
1
62
256
6
ByLayer
370
13
48
1
60
0
100
AcDbSpline
70
4
71
3
72
8
73
4
40
0
40
0
40
0
40
0
40
1
40
1
40
1
40
1
41
1
10
4.25021045575684
20
-4.32289586091878
30
0
41
1
10
4.21000296301935
20
-4.31207013024141
30
0
41
1
10
4.17076567219891
20
-4.306163653119
30
0
41
1
10
4.13472994664397
20
-4.30556684800368
30
0
0
SPLINE
5
C9
100
AcDbEntity
8
1
62
256
6
ByLayer
370
18
48
1
60
0
100
AcDbSpline
70
4
71
3
72
18
73
14
40
0
40
0
40
0
40
0
40
0.249999999999999
40
0.249999999999999
40
0.374999999999999
40
0.374999999999999
40
0.499999999999999
40
0.499999999999999
40
0.749999999999999
40
0.749999999999999
40
0.875
40
0.875
40
1
40
1
40
1
40
1
41
1
10
77.0880934783073
20
-7.03747187550786
30
0
41
1
10
77.0871555705515
20
-7.36554359132441
30
0
41
1
10
77.1017376303407
20
-7.65269293844207
30
0
41
1
10
77.1476154720889
20
-8.02314078681056
30
0
41
1
10
77.1669404547637
20
-8.13651821164729
30
0
41
1
10
77.2141782939179
20
-8.34251644492804
30
0
41
1
10
77.241839711205
20
-8.43390386705002
30
0
41
1
10
77.3364815146284
20
-8.67271252049355
30
0
41
1
10
77.4152183988696
20
-8.78592265989565
30
0
41
1
10
77.5587222289942
20
-8.88806347952922
30
0
41
1
10
77.6110283143919
20
-8.91078150476778
30
0
41
1
10
77.7235713045417
20
-8.93284859735977
30
0
41
1
10
77.7837596635778
20
-8.93230447073961
30
0
41
1
10
77.8480075359982
20
-8.92039084208054
30
0
0
SPLINE
5
CA
100
AcDbEntity
8
1
62
256
6
ByLayer
370
18
48
1
60
0
100
AcDbSpline
70
4
71
3
72
20
73
16
40
0
40
0
40
0
40
0
40
0.0405447811812551
40
0.0405447811812551
40
0.196186791851902
40
0.196186791851902
40
0.274007797187226
40
0.274007797187226
40
0.351828802522551
40
0.351828802522551
40
0.663112823863844
40
0.663112823863844
40
0.974396845205137
40
0.974396845205137
40
1
40
1
40
1
40
1
41
1
10
49.6615607638099
20
-0.0146173042529369
30
0
41
1
10
49.8621076188734
20
-0.119003259220136
30
0
41
1
10
50.0625819195861
20
-0.223359295623339
30
0
41
1
10
51.0324024729588
20
-0.727930771999894
30
0
41
1
10
51.801256372862
20
-1.12677216521158
30
0
41
1
10
52.9555787152705
20
-1.71928556810201
30
0
41
1
10
53.3405661962589
20
-1.91575485277207
30
0
41
1
10
54.1113102759849
20
-2.30596749556324
30
0
41
1
10
54.4975424135307
20
-2.49995056528212
30
0
41
1
10
56.4254441869296
20
-3.45815666127424
30
0
41
1
10
57.9521136397269
20
-4.18521444857308
30
0
41
1
10
60.9974357538186
20
-5.52260416705494
30
0
41
1
10
62.5157373332319
20
-6.13359309458716
30
0
41
1
10
64.1664832530195
20
-6.7132855051297
30
0
41
1
10
64.2919852291311
20
-6.75683197932551
30
0
41
1
10
64.4175399992116
20
-6.79986024691914
30
0
0
SPLINE
5
CB
100
AcDbEntity
8
1
62
256
6
ByLayer
370
13
48
1
60
0
100
AcDbSpline
70
4
71
3
72
16
73
12
40
0
40
0
40
0
40
0
40
0.143175350464839
40
0.143175350464839
40
0.228857815418356
40
0.228857815418356
40
0.314540280371873
40
0.314540280371873
40
0.657270140185937
40
0.657270140185937
40
1
40
1
40
1
40
1
41
1
10
64.4175399989988
20
-6.79986024684621
30
0
41
1
10
65.0552347980823
20
-7.01840154512456
30
0
41
1
10
65.6942914921719
20
-7.2235749720455
30
0
41
1
10
66.7192595627798
20
-7.52838045274834
30
0
41
1
10
67.103789363924
20
-7.63728781781884
30
0
41
1
10
67.874771576758
20
-7.84417814207166
30
0
41
1
10
68.2608578392511
20
-7.94204770435792
30
0
41
1
10
70.1849437780961
20
-8.40001538491882
30
0
41
1
10
71.7131649693557
20
-8.66801229164244
30
0
41
1
10
74.7701490659491
20
-8.99812700635042
30
0
41
1
10
76.2990843140124
20
-9.06037486659963
30
0
41
1
10
77.8393895208553
20
-9.01423798004885
30
0
0
SPLINE
5
CC
100
AcDbEntity
8
1
62
256
6
ByLayer
370
18
48
1
60
0
100
AcDbSpline
70
4
71
3
72
36
73
32
40
0
40
0
40
0
40
0
40
0.0127958596977621
40
0.0127958596977621
40
0.0887346397210123
40
0.0887346397210123
40
0.126704029732638
40
0.126704029732638
40
0.164673419744263
40
0.164673419744263
40
0.240612199767512
40
0.240612199767512
40
0.316550979790761
40
0.316550979790761
40
0.39248975981401
40
0.39248975981401
40
0.468428539837258
40
0.468428539837258
40
0.544367319860507
40
0.544367319860507
40
0.620306099883756
40
0.620306099883756
40
0.696244879907005
40
0.696244879907005
40
0.772183659930254
40
0.772183659930254
40
0.848122439953502
40
0.848122439953502
40
0.924061219976751
40
0.924061219976751
40
1
40
1
40
1
40
1
41
1
10
48.7706287323771
20
8.90725337752053
30
0
41
1
10
48.8565864354276
20
8.90672157608191
30
0
41
1
10
48.9425572846052
20
8.90586996716598
30
0
41
1
10
49.5388690662699
20
8.89778799682475
30
0
41
1
10
50.0497560393189
20
8.87977145168864
30
0
41
1
10
50.8167605102741
20
8.83748468331117
30
0
41
1
10
51.0725554569196
20
8.82093288335443
30
0
41
1
10
51.5843299644483
20
8.78165626529261
30
0
41
1
10
51.8398460142897
20
8.75865470694836
30
0
41
1
10
52.6061871009902
20
8.68018975637821
30
0
41
1
10
53.1166366903393
20
8.61557960747663
30
0
41
1
10
54.1369196981344
20
8.46471122455478
30
0
41
1
10
54.6465325803157
20
8.37823140209193
30
0
41
1
10
55.6666081005834
20
8.18575605123132
30
0
41
1
10
56.1772242568278
20
8.08030755376137
30
0
41
1
10
57.1992532526141
20
7.84408222863158
30
0
41
1
10
57.7110566641022
20
7.71470978738449
30
0
41
1
10
58.7326747004013
20
7.43690507310788
30
0
41
1
10
59.2431974780566
20
7.28824078610398
30
0
41
1
10
60.2638865275111
20
6.97507189899744
30
0
41
1
10
60.7738135303412
20
6.80961269169046
30
0
41
1
10
61.7934974926518
20
6.45796573334661
30
0
41
1
10
62.3039270676218
20
6.2734335727387
30
0
41
1
10
63.3259600052273
20
5.8885975488391
30
0
41
1
10
63.8379643385757
20
5.68793210900319
30
0
41
1
10
64.8597105607203
20
5.2734370600835
30
0
41
1
10
65.3703242905381
20
5.0601438745131
30
0
41
1
10
66.3908852197775
20
4.61997047528982
30
0
41
1
10
66.9008613530185
20
4.39362090335811
30
0
41
1
10
67.9204681975604
20
3.92833802576863
30
0
41
1
10
68.4306361441196
20
3.68999358454133
30
0
41
1
10
68.9415835539269
20
3.44731439044625
30
0
0
SPLINE
5
CD
100
AcDbEntity
8
1
62
256
6
ByLayer
370
18
48
1
60
0
100
AcDbSpline
70
4
71
3
72
14
73
10
40
0
40
0
40
0
40
0
40
0.25
40
0.25
40
0.5
40
0.5
40
0.75
40
0.75
40
1
40
1
40
1
40
1
41
1
10
77.637869804538
20
2.05564996215182
30
0
41
1
10
77.6363707061734
20
2.08101082329989
30
0
41
1
10
77.6416364226312
20
2.10672424495866
30
0
41
1
10
77.6668604141627
20
2.15140368797356
30
0
41
1
10
77.6867969181363
20
2.17011223032094
30
0
41
1
10
77.7317508460518
20
2.1966642774467
30
0
41
1
10
77.757119010579
20
2.2052452388071
30
0
41
1
10
77.8081627281647
20
2.21531157927294
30
0
41
1
10
77.8343748141004
20
2.2169729077059
30
0
41
1
10
77.8605193411047
20
2.21613312691434
30
0
0
SPLINE
5
CE
100
AcDbEntity
8
1
62
256
6
ByLayer
370
18
48
1
60
0
100
AcDbSpline
70
4
71
3
72
38
73
34
40
0
40
0
40
0
40
0
40
0.0625000000000026
40
0.0625000000000026
40
0.0937500000000039
40
0.0937500000000039
40
0.125000000000005
40
0.125000000000005
40
0.187500000000008
40
0.187500000000008
40
0.218750000000009
40
0.218750000000009
40
0.25000000000001
40
0.25000000000001
40
0.375000000000012
40
0.375000000000012
40
0.406250000000012
40
0.406250000000012
40
0.437500000000013
40
0.437500000000013
40
0.500000000000011
40
0.500000000000011
40
0.625000000000007
40
0.625000000000007
40
0.656250000000006
40
0.656250000000006
40
0.687500000000004
40
0.687500000000004
40
0.750000000000003
40
0.750000000000003
40
0.875000000000002
40
0.875000000000002
40
1
40
1
40
1
40
1
41
1
10
68.9415835539268
20
3.44731439044571
30
0
41
1
10
68.9132358366992
20
3.16412880823023
30
0
41
1
10
68.9063390340777
20
2.87424793180591
30
0
41
1
10
68.9291183169198
20
2.42908774870895
30
0
41
1
10
68.9423600056647
20
2.27817485715116
30
0
41
1
10
68.9795552600541
20
1.97750112264529
30
0
41
1
10
69.0034258642037
20
1.82779116827467
30
0
41
1
10
69.0899581638953
20
1.3804352263738
30
0
41
1
10
69.1674930801724
20
1.0845575404617
30
0
41
1
10
69.3110205188949
20
0.643977844161327
30
0
41
1
10
69.3635550266765
20
0.497299812585368
30
0
41
1
10
69.4768024198623
20
0.206593271292235
30
0
41
1
10
69.5371140135214
20
0.0635199966288269
30
0
41
1
10
69.8554374066692
20
-0.641481363610922
30
0
41
1
10
70.16291465487
20
-1.1728280575858
30
0
41
1
10
70.5970786790923
20
-1.80621240444569
30
0
41
1
10
70.6864163463519
20
-1.93124315512904
30
0
41
1
10
70.8680125160053
20
-2.17589965028301
30
0
41
1
10
70.9604978312175
20
-2.29586251955527
30
0
41
1
10
71.2425955121741
20
-2.64924374099777
30
0
41
1
10
71.4367807464058
20
-2.8762512532478
30
0
41
1
10
72.0365668013338
20
-3.53311804831424
30
0
41
1
10
72.4593775248334
20
-3.93885025810891
30
0
41
1
10
73.0099112925122
20
-4.41514452012174
30
0
41
1
10
73.1212755980241
20
-4.5089149753897
30
0
41
1
10
73.344816238216
20
-4.69231044850477
30
0
41
1
10
73.4571360915918
20
-4.78206512416187
30
0
41
1
10
73.7956451337433
20
-5.04585043301586
30
0
41
1
10
74.0233797733007
20
-5.21441660191647
30
0
41
1
10
74.7121312028257
20
-5.70050000644363
30
0
41
1
10
75.178659438719
20
-5.99852965965195
30
0
41
1
10
76.1242260816988
20
-6.55035502175019
30
0
41
1
10
76.6032726121321
20
-6.80412200779875
30
0
41
1
10
77.0880934783074
20
-7.03747187550786
30
0
0
SPLINE
5
CF
100
AcDbEntity
8
1
62
256
6
ByLayer
370
18
48
1
60
0
100
AcDbSpline
70
4
71
3
72
12
73
8
40
0
40
0
40
0
40
0
40
0.249999999999996
40
0.249999999999996
40
0.499999999999992
40
0.499999999999992
40
1
40
1
40
1
40
1
41
1
10
4.13118116934371
20
-4.5978387404364
30
0
41
1
10
4.11128715073517
20
-4.58847409345162
30
0
41
1
10
4.09327614986495
20
-4.57700560769837
30
0
41
1
10
4.06091652827058
20
-4.54994713592183
30
0
41
1
10
4.04676692008076
20
-4.53439759795103
30
0
41
1
10
4.01247653912571
20
-4.48408455875028
30
0
41
1
10
3.99999996541624
20
-4.44486898995538
30
0
41
1
10
3.99999996541624
20
-4.40497564126454
30
0
0
SPLINE
5
D0
100
AcDbEntity
8
1
62
256
6
ByLayer
370
13
48
1
60
0
100
AcDbSpline
70
4
71
3
72
10
73
6
40
0
40
0
40
0
40
0
40
0.167901423042485
40
0.167901423042485
40
1
40
1
40
1
40
1
41
1
10
4.13118116934351
20
-4.59783874044689
30
0
41
1
10
4.13137725737363
20
-4.58820716576591
30
0
41
1
10
4.13157376910075
20
-4.57857520166942
30
0
41
1
10
4.132746693878
20
-4.52120608066147
30
0
41
1
10
4.13373309842493
20
-4.47345966292622
30
0
41
1
10
4.13472994664397
20
-4.42570314112777
30
0
0
SPLINE
5
D1
100
AcDbEntity
8
1
62
256
6
ByLayer
370
18
48
1
60
0
100
AcDbSpline
70
4
71
3
72
8
73
4
40
0
40
0
40
0
40
0
40
1
40
1
40
1
40
1
41
1
10
80.9999586269166
20
0.0642641715771504
30
0
41
1
10
81.0000137931268
20
0.0214197606898949
30
0
41
1
10
81.000013788449
20
-0.0214233936149526
30
0
41
1
10
80.9999586269167
20
-0.0642641715751324
30
0
0
SPLINE
5
D2
100
AcDbEntity
8
1
62
256
6
ByLayer
370
18
48
1
60
0
100
AcDbSpline
70
4
71
3
72
8
73
4
40
0
40
0
40
0
40
0
40
1
40
1
40
1
40
1
41
1
10
80.952545248807
20
-0.0426189902372016
30
0
41
1
10
79.5756181377151
20
-2.29366923874176
30
0
41
1
10
78.2864318957431
20
-4.62434698180371
30
0
41
1
10
77.0880934783073
20
-7.03747187550789
30
0
0
SPLINE
5
D3
100
AcDbEntity
8
1
62
256
6
ByLayer
370
18
48
1
60
0
100
AcDbSpline
70
4
71
3
72
14
73
10
40
0
40
0
40
0
40
0
40
0.25
40
0.25
40
0.5
40
0.5
40
0.75
40
0.75
40
1
40
1
40
1
40
1
41
1
10
78.1787859104357
20
9.13695378537102
30
0
41
1
10
78.3861392361545
20
8.54885900954335
30
0
41
1
10
78.5987182097968
20
7.96129785906828
30
0
41
1
10
79.0330176197891
20
6.78747287006215
30
0
41
1
10
79.2547964738902
20
6.20121618414689
30
0
41
1
10
79.706671094542
20
5.03016823233841
30
0
41
1
10
79.9367172293208
20
4.44555331550859
30
0
41
1
10
80.4026903643346
20
3.28259569941218
30
0
41
1
10
80.6388879086926
20
2.70357748145102
30
0
41
1
10
80.8779924897428
20
2.12659442804167
30
0
0
SPLINE
5
D4
100
AcDbEntity
8
1
62
256
6
ByLayer
370
18
48
1
60
0
100
AcDbSpline
70
4
71
3
72
16
73
12
40
0
40
0
40
0
40
0
40
0.421842092742155
40
0.421842092742155
40
0.527461041400827
40
0.527461041400827
40
0.633079990059501
40
0.633079990059501
40
0.844317887376846
40
0.844317887376846
40
1
40
1
40
1
40
1
41
1
10
22.6105245292509
20
-8.89525618205658
30
0
41
1
10
21.0836640399822
20
-8.89254263638435
30
0
41
1
10
19.556750280853
20
-8.78604509013465
30
0
41
1
10
17.6340803119306
20
-8.5238930758016
30
0
41
1
10
17.2477762360445
20
-8.46482677135765
30
0
41
1
10
16.4767098949808
20
-8.3344241842139
30
0
41
1
10
16.0921318563589
20
-8.26314515385894
30
0
41
1
10
14.9406656845715
20
-8.03174639529666
30
0
41
1
10
14.1760291317566
20
-7.85407920203178
30
0
41
1
10
12.8506499477615
20
-7.50746973383943
30
0
41
1
10
12.2892516813021
20
-7.34849528871055
30
0
41
1
10
11.7282282266644
20
-7.17833844366083
30
0
0
SPLINE
5
D5
100
AcDbEntity
8
1
62
256
6
ByLayer
370
13
48
1
60
0
100
AcDbSpline
70
4
71
3
72
10
73
6
40
0
40
0
40
0
40
0
40
0.387067309712044
40
0.387067309712044
40
1
40
1
40
1
40
1
41
1
10
11.7282282263214
20
-7.17833844355684
30
0
41
1
10
10.7667978434869
20
-6.88673929680076
30
0
41
1
10
9.80646820617838
20
-6.56229973261813
30
0
41
1
10
7.32075733716579
20
-5.6487165113991
30
0
41
1
10
5.79330384203166
20
-5.01492696875869
30
0
41
1
10
4.25021045575687
20
-4.32289586091878
30
0
0
SPLINE
5
D6
100
AcDbEntity
8
1
62
256
6
ByLayer
370
18
48
1
60
0
100
AcDbSpline
70
4
71
3
72
42
73
38
40
0
40
0
40
0
40
0
40
0.061171300118947
40
0.061171300118947
40
0.110038402118236
40
0.110038402118236
40
0.158905504117525
40
0.158905504117525
40
0.35437391211468
40
0.35437391211468
40
0.452108116113258
40
0.452108116113258
40
0.549842320111835
40
0.549842320111835
40
0.745310728108991
40
0.745310728108991
40
0.843044932107568
40
0.843044932107568
40
0.891912034106857
40
0.891912034106857
40
0.916345585106502
40
0.916345585106502
40
0.928562360606324
40
0.928562360606324
40
0.934670748356235
40
0.934670748356235
40
0.940779136106146
40
0.940779136106146
40
0.946887523856057
40
0.946887523856057
40
0.952995911605968
40
0.952995911605968
40
0.96521268710579
40
0.96521268710579
40
0.989646238105435
40
0.989646238105435
40
1
40
1
40
1
40
1
41
1
10
19.908367212673
20
9.36276873052643
30
0
41
1
10
19.908367212673
20
9.17083375573728
30
0
41
1
10
19.908367212673
20
8.97786186691999
30
0
41
1
10
19.908367212673
20
8.628863700507
30
0
41
1
10
19.908367212673
20
8.47312588120647
30
0
41
1
10
19.908367212673
20
8.16302878633925
30
0
41
1
10
19.908367212673
20
8.00833338422856
30
0
41
1
10
19.908367212673
20
7.23657819039914
30
0
41
1
10
19.908367212673
20
6.62465130232488
30
0
41
1
10
19.908367212673
20
5.7145557405548
30
0
41
1
10
19.908367212673
20
5.41249610553959
30
0
41
1
10
19.908367212673
20
4.81098941110392
30
0
41
1
10
19.908367212673
20
4.51447091217403
30
0
41
1
10
19.908367212673
20
3.63729999857256
30
0
41
1
10
19.908367212673
20
3.06888179924616
30
0
41
1
10
19.908367212673
20
2.24005192418772
30
0
41
1
10
19.908367212673
20
1.96736001953008
30
0
41
1
10
19.908367212673
20
1.5657844986859
30
0
41
1
10
19.908367212673
20
1.43329250874703
30
0
41
1
10
19.908367212673
20
1.23659171518344
30
0
41
1
10
19.908367212673
20
1.17136221654098
30
0
41
1
10
19.908367212673
20
1.07403323479068
30
0
41
1
10
19.908367212673
20
1.04168801633117
30
0
41
1
10
19.908367212673
20
0.993316435064713
30
0
41
1
10
19.908367212673
20
0.977174357973468
30
0
41
1
10
19.908367212673
20
0.948509293447501
30
0
41
1
10
19.9083672126731
20
0.935283683834456
30
0
41
1
10
19.9083672126731
20
0.913260391439508
30
0
41
1
10
19.908367212673
20
0.904444575492732
30
0
41
1
10
19.908367212673
20
0.891131848373874
30
0
41
1
10
19.908367212673
20
0.886244068719748
30
0
41
1
10
19.908367212673
20
0.869691841751632
30
0
41
1
10
19.908367212673
20
0.858823086215637
30
0
41
1
10
19.908367212673
20
0.826735550513689
30
0
41
1
10
19.908367212673
20
0.806037364804467
30
0
41
1
10
19.908367212673
20
0.777560585669164
30
0
41
1
10
19.908367212673
20
0.769210226452145
30
0
41
1
10
19.908367212673
20
0.76098573057277
30
0
0
SPLINE
5
D7
100
AcDbEntity
8
1
62
256
6
ByLayer
370
13
48
1
60
0
100
AcDbSpline
70
4
71
3
72
38
73
34
40
0
40
0
40
0
40
0
40
0.0624999999999999
40
0.0624999999999999
40
0.125
40
0.125
40
0.25
40
0.25
40
0.281249999999999
40
0.281249999999999
40
0.312499999999999
40
0.312499999999999
40
0.374999999999999
40
0.374999999999999
40
0.437499999999999
40
0.437499999999999
40
0.468749999999999
40
0.468749999999999
40
0.499999999999999
40
0.499999999999999
40
0.562499999999999
40
0.562499999999999
40
0.625
40
0.625
40
0.75
40
0.75
40
0.8125
40
0.8125
40
0.84375
40
0.84375
40
0.875
40
0.875
40
1
40
1
40
1
40
1
41
1
10
4.25021045575682
20
-4.32289586091878
30
0
41
1
10
4.25021881493132
20
-4.04547265618436
30
0
41
1
10
4.25022504397128
20
-3.76098763815259
30
0
41
1
10
4.25023420434471
20
-3.17801783938037
30
0
41
1
10
4.25023713234322
20
-2.87844055213859
30
0
41
1
10
4.25024232125315
20
-1.97353732640383
30
0
41
1
10
4.25024112454625
20
-1.35844733328835
30
0
41
1
10
4.25023874149389
20
-0.574907664529661
30
0
41
1
10
4.25023821788304
20
-0.41745813734687
30
0
41
1
10
4.25023719278121
20
-0.10104654733945
30
0
41
1
10
4.25023669144627
20
0.0580251408091499
30
0
41
1
10
4.25023540743905
20
0.531787166962289
30
0
41
1
10
4.25023484242175
20
0.844935519227505
30
0
41
1
10
4.25023506420712
20
1.46598576588823
30
0
41
1
10
4.25023584956625
20
1.77388738262388
30
0
41
1
10
4.25023853324123
20
2.23177469870282
30
0
41
1
10
4.25023967800777
20
2.38374158775008
30
0
41
1
10
4.25024254277099
20
2.68632886352273
30
0
41
1
10
4.25024426806829
20
2.83731247777561
30
0
41
1
10
4.2502503706994
20
3.28524842180806
30
0
41
1
10
4.25025566395908
20
3.57665034512982
30
0
41
1
10
4.25026895338056
20
4.1452056365307
30
0
41
1
10
4.25027696653348
20
4.42284908339255
30
0
41
1
10
4.25030515016408
20
5.23085748719961
30
0
41
1
10
4.25032908022467
20
5.7247661004748
30
0
41
1
10
4.25037100461122
20
6.40082057949232
30
0
41
1
10
4.25038597057983
20
6.61527883339903
30
0
41
1
10
4.25040954968222
20
6.92007330389612
30
0
41
1
10
4.25041757785831
20
7.01857952600437
30
0
41
1
10
4.25043373573294
20
7.20767153880067
30
0
41
1
10
4.25044188645541
20
7.29853306863029
30
0
41
1
10
4.25048276513581
20
7.73471152032798
30
0
41
1
10
4.25051594861318
20
8.02625073834801
30
0
41
1
10
4.25054606854829
20
8.25919199703495
30
0
0
SPLINE
5
D8
100
AcDbEntity
8
1
62
256
6
ByLayer
370
18
48
1
60
0
100
AcDbSpline
70
4
71
3
72
12
73
8
40
0
40
0
40
0
40
0
40
0.249999999999999
40
0.249999999999999
40
0.499999999999998
40
0.499999999999998
40
1
40
1
40
1
40
1
41
1
10
78.1787859104297
20
-9.13695378538796
30
0
41
1
10
78.387868933426
20
-8.54395324820243
30
0
41
1
10
78.6014991044274
20
-7.95365202025178
30
0
41
1
10
79.0367488326036
20
-6.77751973114476
30
0
41
1
10
79.2584216134657
20
-6.19171959992303
30
0
41
1
10
79.9344199778699
20
-4.4401554001376
30
0
41
1
10
80.3998925697435
20
-3.28029692284267
30
0
41
1
10
80.8779924897418
20
-2.12659442804412
30
0
0
SPLINE
5
D9
100
AcDbEntity
8
1
62
256
6
ByLayer
370
18
48
1
60
0
100
AcDbSpline
70
4
71
3
72
34
73
30
40
0
40
0
40
0
40
0
40
0.0018386991294897
40
0.0018386991294897
40
0.0543735044384647
40
0.0543735044384647
40
0.159443115056415
40
0.159443115056415
40
0.264512725674365
40
0.264512725674365
40
0.369582336292315
40
0.369582336292315
40
0.422117141601289
40
0.422117141601289
40
0.474651946910264
40
0.474651946910264
40
0.527186752219238
40
0.527186752219238
40
0.579721557528212
40
0.579721557528212
40
0.684791168146159
40
0.684791168146159
40
0.737325973455133
40
0.737325973455133
40
0.789860778764107
40
0.789860778764107
40
0.894930389382053
40
0.894930389382053
40
1
40
1
40
1
40
1
41
1
10
60.8574309420253
20
6.78320729995309
30
0
41
1
10
60.8680178887501
20
6.78718556010571
30
0
41
1
10
60.8786042600819
20
6.79116027595549
30
0
41
1
10
61.1916443518231
20
6.90859485658379
30
0
41
1
10
61.4934809089293
20
7.01933359600773
30
0
41
1
10
62.3995663889229
20
7.34031400277914
30
0
41
1
10
63.003983218845
20
7.53997458929524
30
0
41
1
10
64.2121346477888
20
7.91251768434933
30
0
41
1
10
64.8151569807322
20
8.08596116492313
30
0
41
1
10
66.0252727703116
20
8.40088339703954
30
0
41
1
10
66.6318263761491
20
8.54306026906897
30
0
41
1
10
67.5428179686954
20
8.73391835047579
30
0
41
1
10
67.846514688089
20
8.79388216489522
30
0
41
1
10
68.4555829246268
20
8.90528753602248
30
0
41
1
10
68.7608625933387
20
8.95681511440492
30
0
41
1
10
69.372745970188
20
9.05161772593411
30
0
41
1
10
69.6794260471447
20
9.09489759528859
30
0
41
1
10
70.2907211361189
20
9.17280210230004
30
0
41
1
10
70.5956702170765
20
9.20751869375965
30
0
41
1
10
71.5086118368996
20
9.29881757716771
30
0
41
1
10
72.1165228494251
20
9.34197310767135
30
0
41
1
10
73.0270368101249
20
9.38097557087983
30
0
41
1
10
73.330291173313
20
9.38968257103144
30
0
41
1
10
73.9360535892063
20
9.39848334003239
30
0
41
1
10
74.238423929866
20
9.39855268111657
30
0
41
1
10
75.14645881746
20
9.38577861896559
30
0
41
1
10
75.7526053890649
20
9.36011997946147
30
0
41
1
10
76.9650557339839
20
9.27447275503172
30
0
41
1
10
77.5706643385861
20
9.21405880478889
30
0
41
1
10
78.1787859104357
20
9.13695378537105
30
0
0
SPLINE
5
DA
100
AcDbEntity
8
1
62
256
6
ByLayer
370
18
48
1
60
0
100
AcDbSpline
70
4
71
3
72
24
73
20
40
0
40
0
40
0
40
0
40
0.170940235386392
40
0.170940235386392
40
0.341880470772784
40
0.341880470772784
40
0.42735058846598
40
0.42735058846598
40
0.512820706159176
40
0.512820706159176
40
0.68376094154557
40
0.68376094154557
40
0.769231059238767
40
0.769231059238767
40
0.854701176931965
40
0.854701176931965
40
0.940171294625162
40
0.940171294625162
40
1
40
1
40
1
40
1
41
1
10
3.99999996542326
20
8.56778782050014
30
0
41
1
10
3.8182371045059
20
8.63813745881993
30
0
41
1
10
3.64037729260661
20
8.70644215913643
30
0
41
1
10
3.30021321236296
20
8.83638366910466
30
0
41
1
10
3.13768495573373
20
8.89810750437206
30
0
41
1
10
2.90876191838009
20
8.98489777165568
30
0
41
1
10
2.83494747216872
20
9.01285753599029
30
0
41
1
10
2.69315359574662
20
9.06660661547392
30
0
41
1
10
2.62496121009463
20
9.09247676062955
30
0
41
1
10
2.43247321893102
20
9.16573680135582
30
0
41
1
10
2.32045829182559
20
9.20866870554048
30
0
41
1
10
2.18485356854711
20
9.26220518186889
30
0
41
1
10
2.14509483303399
20
9.27823102937845
30
0
41
1
10
2.07841593975354
20
9.30613840081907
30
0
41
1
10
2.05208493522048
20
9.31777965045399
30
0
41
1
10
2.01470924210639
20
9.33616453904304
30
0
41
1
10
2.00361778875731
20
9.34292709990851
30
0
41
1
10
1.99871245629626
20
9.35012118354703
30
0
41
1
10
2.0008012616978
20
9.35182989285423
30
0
41
1
10
2.00700578721944
20
9.35227402178643
30
0
0
SPLINE
5
DB
100
AcDbEntity
8
1
62
256
6
ByLayer
370
18
48
1
60
0
100
AcDbSpline
70
4
71
3
72
50
73
46
40
0
40
0
40
0
40
0
40
0.024767061407554
40
0.024767061407554
40
0.0442717201793973
40
0.0442717201793973
40
0.0637763789512406
40
0.0637763789512406
40
0.0832810377230838
40
0.0832810377230838
40
0.102785696494927
40
0.102785696494927
40
0.141795014038614
40
0.141795014038614
40
0.161299672810457
40
0.161299672810457
40
0.166175837503418
40
0.166175837503418
40
0.168613919849899
40
0.168613919849899
40
0.171052002196379
40
0.171052002196379
40
0.175928166889341
40
0.175928166889341
40
0.180804331582304
40
0.180804331582304
40
0.185680496275266
40
0.185680496275266
40
0.190556660968228
40
0.200308990354152
40
0.219813649126001
40
0.219813649126001
40
0.297832284213402
40
0.297832284213402
40
0.375850919300802
40
0.375850919300802
40
0.453869554388202
40
0.453869554388202
40
0.531888189475602
40
0.531888189475602
40
0.687925459650402
40
0.687925459650402
40
0.843962729825201
40
0.843962729825201
40
1
40
1
40
1
40
1
41
1
10
2.06073749671364
20
9.34618041912174
30
0
41
1
10
2.09341857363157
20
9.34047369067568
30
0
41
1
10
2.1389647178795
20
9.33093880319089
30
0
41
1
10
2.24214367241771
20
9.3078069673644
30
0
41
1
10
2.29481725374723
20
9.29557329508398
30
0
41
1
10
2.4111045485584
20
9.26810700400213
30
0
41
1
10
2.47496036921254
20
9.25281957906702
30
0
41
1
10
2.61264946214493
20
9.21969332755978
30
0
41
1
10
2.68648152509547
20
9.20185225920372
30
0
41
1
10
2.84308382061363
20
9.16406147347527
30
0
41
1
10
2.92590041043954
20
9.14409708551139
30
0
41
1
10
3.18316415403876
20
9.08235751943917
30
0
41
1
10
3.36768453987662
20
9.03845334920584
30
0
41
1
10
3.65810007120589
20
8.97053948374625
30
0
41
1
10
3.75707465182745
20
8.94757911039403
30
0
41
1
10
3.88319268769763
20
8.91859936151033
30
0
41
1
10
3.90851628021571
20
8.91279401560283
30
0
41
1
10
3.94664687409744
20
8.9040737663799
30
0
41
1
10
3.95942122964266
20
8.90118484170213
30
0
41
1
10
3.98474391545614
20
8.89526739400529
30
0
41
1
10
3.99739412874482
20
8.89228815001204
30
0
41
1
10
4.03705923452779
20
8.88416952379762
30
0
41
1
10
4.06626911506197
20
8.88009681685736
30
0
41
1
10
4.1286332182367
20
8.87392554748791
30
0
41
1
10
4.1610854651222
20
8.87186730272487
30
0
41
1
10
4.22541833827086
20
8.8696724573133
30
0
41
1
10
4.2577029523822
20
8.86922887276657
30
0
41
1
10
4.32221453845591
20
8.86802163370922
30
0
41
1
10
4.41899178651857
20
8.86626382943399
30
0
41
1
10
4.64487425689401
20
8.86253470415514
30
0
41
1
10
4.83860528072407
20
8.85998006898063
30
0
41
1
10
5.48463397881818
20
8.85290021433991
30
0
41
1
10
6.00156877519436
20
8.85186967518661
30
0
41
1
10
7.03345060501698
20
8.8588212623433
30
0
41
1
10
7.54874274053145
20
8.86679811199096
30
0
41
1
10
8.57806488369371
20
8.89092154718224
30
0
41
1
10
9.0926225490025
20
8.90710019375521
30
0
41
1
10
10.1181914099
20
8.94610753882415
30
0
41
1
10
10.6273433686887
20
8.96884086246121
30
0
41
1
10
12.1443779583963
20
9.04349140621537
30
0
41
1
10
13.1418134588922
20
9.10200540422184
30
0
41
1
10
15.1120289169573
20
9.21430217907155
30
0
41
1
10
16.08473207697
20
9.26798404412051
30
0
41
1
10
18.0100477960477
20
9.34470720095729
30
0
41
1
10
18.9626493261143
20
9.36760389446837
30
0
41
1
10
19.908367212673
20
9.36276873063565
30
0
0
SPLINE
5
DC
100
AcDbEntity
8
1
62
256
6
ByLayer
370
18
48
1
60
0
100
AcDbSpline
70
4
71
3
72
10
73
6
40
0
40
0
40
0
40
0
40
0.5
40
0.5
40
1
40
1
40
1
40
1
41
1
10
78.1787859104357
20
9.13695378537105
30
0
41
1
10
78.0885925465566
20
9.20484896861436
30
0
41
1
10
78.0025053022779
20
9.26026301015895
30
0
41
1
10
77.8384782445337
20
9.34471226981202
30
0
41
1
10
77.7603049047219
20
9.37366398259493
30
0
41
1
10
77.6878583529613
20
9.38825512960679
30
0
0
SPLINE
5
DD
100
AcDbEntity
8
1
62
256
6
ByLayer
370
18
48
1
60
0
100
AcDbSpline
70
4
71
3
72
37
73
33
40
0
40
0
40
0
40
0
40
0.0369529710844329
40
0.072290782754195
40
0.100597049422126
40
0.121886410839877
40
0.149681878183869
40
0.175014929077166
40
0.200151950697506
40
0.226430722622811
40
0.253946044642199
40
0.282737303997293
40
0.313987907876924
40
0.350590169416715
40
0.402430797878998
40
0.454662972466706
40
0.500863250792867
40
0.541158614174695
40
0.576203076584786
40
0.605400216944244
40
0.632891600785958
40
0.661765581850193
40
0.693261638877385
40
0.728606440623744
40
0.768724098837323
40
0.815630244588412
40
0.86451331852464
40
0.908947735202681
40
0.947464883636314
40
0.980943203324575
40
0.997191695246197
40
1
40
1
40
1
40
1
41
1
10
22.6509992412766
20
-8.89530312756267
30
0
41
1
10
22.9718576569533
20
-8.89540359467068
30
0
41
1
10
23.5995392404644
20
-8.89568372516524
30
0
41
1
10
24.4730307828366
20
-8.89648111560322
30
0
41
1
10
25.2103942427817
20
-8.89704974855957
30
0
41
1
10
25.8827843145908
20
-8.89748129575307
30
0
41
1
10
26.5243867950941
20
-8.89729891870712
30
0
41
1
10
27.2057024347129
20
-8.8976189667024
30
0
41
1
10
27.8697221737841
20
-8.89800677969751
30
0
41
1
10
28.5554916493708
20
-8.89834109373535
30
0
41
1
10
29.2724750618636
20
-8.89897981991624
30
0
41
1
10
30.0327766989573
20
-8.89886468223028
30
0
41
1
10
30.8719272789179
20
-8.89990507532525
30
0
41
1
10
31.9112478115717
20
-8.90146822619371
30
0
41
1
10
33.1327349680685
20
-8.90091178081596
30
0
41
1
10
34.4375681301726
20
-8.89946917617416
30
0
41
1
10
35.6421623784245
20
-8.90310750100812
30
0
41
1
10
36.6974932966981
20
-8.90367378144478
30
0
41
1
10
37.605205096281
20
-8.90299754757342
30
0
41
1
10
38.4017351788163
20
-8.90264500048397
30
0
41
1
10
39.144689072427
20
-8.90228049059391
30
0
41
1
10
39.9075933661017
20
-8.90444472606231
30
0
41
1
10
40.7387238739697
20
-8.90743939566855
30
0
41
1
10
41.6673236759298
20
-8.90594661388087
30
0
41
1
10
42.7297791245667
20
-8.90508687507727
30
0
41
1
10
43.9098791076498
20
-8.9038526692529
30
0
41
1
10
45.1272008477768
20
-8.90787141806791
30
0
41
1
10
46.272008255816
20
-8.90745766939153
30
0
41
1
10
47.2827762898922
20
-8.91026514406508
30
0
41
1
10
48.0493206755272
20
-8.90858183629436
30
0
41
1
10
48.5047571476814
20
-8.90805018002723
30
0
41
1
10
48.6684130818152
20
-8.90767791847054
30
0
41
1
10
48.6925107832425
20
-8.90762161084049
30
0
0
SPLINE
5
DE
100
AcDbEntity
8
1
62
256
6
ByLayer
370
18
48
1
60
0
100
AcDbSpline
70
4
71
3
72
27
73
23
40
0
40
0
40
0
40
0
40
0.0042875521690461
40
0.0351411755882263
40
0.0651296070758707
40
0.115050154473392
40
0.161130877969146
40
0.209113460872669
40
0.277389594588455
40
0.352966068486613
40
0.431448471387148
40
0.502652349064416
40
0.555391587799171
40
0.615021824137967
40
0.671665671264163
40
0.724092891518087
40
0.773979792394361
40
0.821653641921832
40
0.873259393422408
40
0.933708312597574
40
0.98804347518918
40
1
40
1
40
1
40
1
41
1
10
48.7674638663618
20
8.90722155806154
30
0
41
1
10
48.7379004890019
20
8.90732202308274
30
0
41
1
10
48.4954245082129
20
8.90811675849187
30
0
41
1
10
48.0413628436541
20
8.90863065795077
30
0
41
1
10
47.2683686035257
20
8.90997655342011
30
0
41
1
10
46.3862562812117
20
8.90753423795783
30
0
41
1
10
45.380994166338
20
8.907876290622
30
0
41
1
10
44.2449609191872
20
8.90496254577101
30
0
41
1
10
42.9056211089803
20
8.9039898543754
30
0
41
1
10
41.3496367415071
20
8.90742231976387
30
0
41
1
10
39.7758929668236
20
8.90354328529062
30
0
41
1
10
38.3598437817889
20
8.90234368793853
30
0
41
1
10
37.0760986018697
20
8.90336675656118
30
0
41
1
10
35.8942480571537
20
8.90408480496995
30
0
41
1
10
34.7143472412643
20
8.89966533828647
30
0
41
1
10
33.602901326108
20
8.90063193643189
30
0
41
1
10
32.5539144046741
20
8.90096444737506
30
0
41
1
10
31.5107364294362
20
8.90138137331766
30
0
41
1
10
30.393679011517
20
8.89875781095935
30
0
41
1
10
29.230039674707
20
8.89911867370745
30
0
41
1
10
28.3436578859416
20
8.89816121050228
30
0
41
1
10
27.8800734513531
20
8.89801162618099
30
0
41
1
10
27.7964602185443
20
8.89798890113482
30
0
0
SPLINE
5
DF
100
AcDbEntity
8
1
62
256
6
ByLayer
370
18
48
1
60
0
100
AcDbSpline
70
4
71
2
72
6
73
3
40
0
40
0
40
0
40
1
40
1
40
1
41
1
10
77.0355699502063
20
-8.92925453928004
30
0
41
1
10
77.3743986395773
20
-8.93032602240373
30
0
41
1
10
77.7084329195694
20
-8.92698529843886
30
0
0
SPLINE
5
E0
100
AcDbEntity
8
1
62
256
6
ByLayer
370
18
48
1
60
0
100
AcDbSpline
70
4
71
2
72
6
73
3
40
0
40
0
40
0
40
1
40
1
40
1
41
1
10
49.637869682033
20
-0.0022867747783266
30
0
41
1
10
49.6378318487865
20
-0.0022669555795289
30
0
41
1
10
49.6377940152939
20
-0.0022463173244205
30
0
0
LINE
5
7B
100
AcDbEntity
8
SK1
62
256
6
ByLayer
370
18
48
1
60
0
100
AcDbLine
10
-46.745
20
10
30
0
11
-46.745
21
-10
31
0
39
0
210
0
220
0
230
1
0
LINE
5
7D
100
AcDbEntity
8
SK1
62
256
6
ByLayer
370
18
48
1
60
0
100
AcDbLine
10
-50
20
6.745
30
0
11
-50
21
-6.745
31
0
39
0
210
0
220
0
230
1
0
LINE
5
7E
100
AcDbEntity
8
SK1
62
256
6
ByLayer
370
18
48
1
60
0
100
AcDbLine
10
0
20
-10
30
0
11
0
21
10
31
0
39
0
210
0
220
0
230
1
0
LINE
5
7F
100
AcDbEntity
8
1
62
256
6
ByLayer
370
13
48
1
60
0
100
AcDbLine
10
77.860519
20
2.216133
30
0
11
80.969213
21
0.248256
31
0
39
0
210
0
220
0
230
1
0
LINE
5
80
100
AcDbEntity
8
1
62
256
6
ByLayer
370
18
48
1
60
0
100
AcDbLine
10
0
20
-10
30
0
11
0
21
10
31
0
39
0
210
0
220
0
230
1
0
LINE
5
81
100
AcDbEntity
8
1
62
256
6
ByLayer
370
13
48
1
60
0
100
AcDbLine
10
77.63787
20
2.05565
30
0
11
80.952545
21
-0.042619
31
0
39
0
210
0
220
0
230
1
0
LINE
5
82
100
AcDbEntity
8
1
62
256
6
ByLayer
370
13
48
1
60
0
100
AcDbLine
10
1.286504
20
9.351942
30
0
11
1.286504
21
-9.351942
31
0
39
0
210
0
220
0
230
1
0
LINE
5
83
100
AcDbEntity
8
1
62
256
6
ByLayer
370
18
48
1
60
0
100
AcDbLine
10
4
20
-4.404976
30
0
11
4
21
8.567788
31
0
39
0
210
0
220
0
230
1
0
LINE
5
84
100
AcDbEntity
8
1
62
256
6
ByLayer
370
13
48
1
60
0
100
AcDbLine
10
0.643002
20
9.675971
30
0
11
0.643002
21
-9.675971
31
0
39
0
210
0
220
0
230
1
0
LINE
5
85
100
AcDbEntity
8
80
62
256
6
ByLayer
370
18
48
1
60
0
100
AcDbLine
10
0
20
0
30
0
11
-5
21
0
31
0
39
0
210
0
220
0
230
1
0
LINE
5
86
100
AcDbEntity
8
4
62
256
6
ByLayer
370
18
48
0.05
60
0
100
AcDbLine
10
81
20
0
30
0
11
0
21
0
31
0
39
0
210
0
220
0
230
1
0
LINE
5
88
100
AcDbEntity
8
SK4
62
256
6
ByLayer
370
18
48
0.05
60
0
100
AcDbLine
10
86
20
0
30
0
11
-55
21
0
31
0
39
0
210
0
220
0
230
1
0
LINE
5
8A
100
AcDbEntity
8
SK1
62
256
6
ByLayer
370
18
48
1
60
0
100
AcDbLine
10
-46.745
20
-10
30
0
11
0
21
-10
31
0
39
0
210
0
220
0
230
1
0
LINE
5
8B
100
AcDbEntity
8
SK1
62
256
6
ByLayer
370
18
48
1
60
0
100
AcDbLine
10
0
20
10
30
0
11
-46.745
21
10
31
0
39
0
210
0
220
0
230
1
0
LINE
5
8C
100
AcDbEntity
8
SK1
62
256
6
ByLayer
370
18
48
1
60
0
100
AcDbLine
10
-50
20
-6.745
30
0
11
-46.745
21
-10
31
0
39
0
210
0
220
0
230
1
0
LINE
5
8D
100
AcDbEntity
8
SK1
62
256
6
ByLayer
370
18
48
1
60
0
100
AcDbLine
10
-46.745
20
10
30
0
11
-50
21
6.745
31
0
39
0
210
0
220
0
230
1
0
LINE
5
8E
100
AcDbEntity
8
1
62
256
6
ByLayer
370
18
48
1
60
0
100
AcDbLine
10
1.286504
20
-9.351942
30
0
11
2.016418
21
-9.352398
31
0
39
0
210
0
220
0
230
1
0
LINE
5
8F
100
AcDbEntity
8
1
62
256
6
ByLayer
370
18
48
1
60
0
100
AcDbLine
10
19.602802
20
-9.36339
30
0
11
22.432656
21
-9.365159
31
0
39
0
210
0
220
0
230
1
0
LINE
5
90
100
AcDbEntity
8
1
62
256
6
ByLayer
370
18
48
1
60
0
100
AcDbLine
10
74.075543
20
-9.397435
30
0
11
76.833769
21
-9.399159
31
0
39
0
210
0
220
0
230
1
0
LINE
5
91
100
AcDbEntity
8
1
62
256
6
ByLayer
370
18
48
1
60
0
100
AcDbLine
10
76.833811
20
9.399159
30
0
11
74.075543
21
9.397435
31
0
39
0
210
0
220
0
230
1
0
LINE
5
92
100
AcDbEntity
8
1
62
256
6
ByLayer
370
18
48
1
60
0
100
AcDbLine
10
22.432737
20
9.365159
30
0
11
19.602802
21
9.36339
31
0
39
0
210
0
220
0
230
1
0
LINE
5
93
100
AcDbEntity
8
1
62
256
6
ByLayer
370
18
48
1
60
0
100
AcDbLine
10
2.016418
20
9.352398
30
0
11
1.286504
21
9.351942
31
0
39
0
210
0
220
0
230
1
0
LINE
5
94
100
AcDbEntity
8
81
62
256
6
ByLayer
370
18
48
1
60
0
100
AcDbLine
10
81
20
0
30
0
11
86
21
0
31
0
39
0
210
0
220
0
230
1
0
LINE
5
95
100
AcDbEntity
8
SK2
62
256
6
ByLayer
370
13
48
1
60
0
100
AcDbLine
10
-58.625163
20
-10
30
0
11
-58.625163
21
41.732039
31
0
39
0
210
0
220
0
230
1
0
LINE
5
97
100
AcDbEntity
8
SK2
62
256
6
ByLayer
370
13
48
1
60
0
100
AcDbLine
10
-51.5875
20
10
30
0
11
-60.625163
21
10
31
0
39
0
210
0
220
0
230
1
0
LINE
5
98
100
AcDbEntity
8
SK2
62
256
6
ByLayer
370
13
48
1
60
0
100
AcDbLine
10
-51.5875
20
-10
30
0
11
-60.625163
21
-10
31
0
39
0
210
0
220
0
230
1
0
LINE
5
99
100
AcDbEntity
8
1
62
256
6
ByLayer
370
18
48
1
60
1
100
AcDbLine
10
-58.625163
20
10
30
0
11
-58.164379
21
6.500002
31
0
39
0
210
0
220
0
230
1
0
LINE
5
9A
100
AcDbEntity
8
1
62
256
6
ByLayer
370
18
48
1
60
1
100
AcDbLine
10
-58.164379
20
6.500002
30
0
11
-59.085946
21
6.499998
31
0
39
0
210
0
220
0
230
1
0
LINE
5
9B
100
AcDbEntity
8
1
62
256
6
ByLayer
370
18
48
1
60
1
100
AcDbLine
10
-59.085946
20
6.499998
30
0
11
-58.625163
21
10
31
0
39
0
210
0
220
0
230
1
0
LINE
5
9C
100
AcDbEntity
8
1
62
256
6
ByLayer
370
18
48
1
60
1
100
AcDbLine
10
-58.625163
20
-10
30
0
11
-59.085946
21
-6.500002
31
0
39
0
210
0
220
0
230
1
0
LINE
5
9D
100
AcDbEntity
8
1
62
256
6
ByLayer
370
18
48
1
60
1
100
AcDbLine
10
-59.085946
20
-6.500002
30
0
11
-58.164379
21
-6.499998
31
0
39
0
210
0
220
0
230
1
0
LINE
5
9E
100
AcDbEntity
8
1
62
256
6
ByLayer
370
18
48
1
60
1
100
AcDbLine
10
-58.164379
20
-6.499998
30
0
11
-58.625163
21
-10
31
0
39
0
210
0
220
0
230
1
0
LINE
5
9F
100
AcDbEntity
8
2
62
256
6
ByLayer
370
13
48
1
60
0
100
AcDbLine
10
93.083343
20
-9.4
30
0
11
93.083343
21
38.850259
31
0
39
0
210
0
220
0
230
1
0
LINE
5
A1
100
AcDbEntity
8
2
62
256
6
ByLayer
370
13
48
1
60
0
100
AcDbLine
10
79.7773
20
9.4
30
0
11
95.083343
21
9.4
31
0
39
0
210
0
220
0
230
1
0
LINE
5
A2
100
AcDbEntity
8
2
62
256
6
ByLayer
370
13
48
1
60
0
100
AcDbLine
10
79.7773
20
-9.4
30
0
11
95.083343
21
-9.4
31
0
39
0
210
0
220
0
230
1
0
LINE
5
A3
100
AcDbEntity
8
1
62
256
6
ByLayer
370
18
48
1
60
1
100
AcDbLine
10
93.083343
20
9.4
30
0
11
93.544126
21
5.900002
31
0
39
0
210
0
220
0
230
1
0
LINE
5
A4
100
AcDbEntity
8
1
62
256
6
ByLayer
370
18
48
1
60
1
100
AcDbLine
10
93.544126
20
5.900002
30
0
11
92.622559
21
5.899998
31
0
39
0
210
0
220
0
230
1
0
LINE
5
A5
100
AcDbEntity
8
1
62
256
6
ByLayer
370
18
48
1
60
1
100
AcDbLine
10
92.622559
20
5.899998
30
0
11
93.083343
21
9.4
31
0
39
0
210
0
220
0
230
1
0
LINE
5
A6
100
AcDbEntity
8
1
62
256
6
ByLayer
370
18
48
1
60
1
100
AcDbLine
10
93.083343
20
-9.4
30
0
11
92.622559
21
-5.900002
31
0
39
0
210
0
220
0
230
1
0
LINE
5
A7
100
AcDbEntity
8
1
62
256
6
ByLayer
370
18
48
1
60
1
100
AcDbLine
10
92.622559
20
-5.900002
30
0
11
93.544126
21
-5.899998
31
0
39
0
210
0
220
0
230
1
0
LINE
5
A8
100
AcDbEntity
8
1
62
256
6
ByLayer
370
18
48
1
60
1
100
AcDbLine
10
93.544126
20
-5.899998
30
0
11
93.083343
21
-9.4
31
0
39
0
210
0
220
0
230
1
0
LINE
5
E7
100
AcDbEntity
8
1
62
256
6
ByLayer
370
18
48
1
60
1
100
AcDbLine
10
-58.625163
20
10
30
0
11
-58.164379
21
6.500002
31
0
39
0
210
0
220
0
230
1
0
LINE
5
E8
100
AcDbEntity
8
1
62
256
6
ByLayer
370
18
48
1
60
1
100
AcDbLine
10
-58.164379
20
6.500002
30
0
11
-59.085946
21
6.499998
31
0
39
0
210
0
220
0
230
1
0
LINE
5
E9
100
AcDbEntity
8
1
62
256
6
ByLayer
370
18
48
1
60
1
100
AcDbLine
10
-59.085946
20
6.499998
30
0
11
-58.625163
21
10
31
0
39
0
210
0
220
0
230
1
0
LINE
5
EB
100
AcDbEntity
8
1
62
256
6
ByLayer
370
18
48
1
60
1
100
AcDbLine
10
-58.625163
20
-10
30
0
11
-59.085946
21
-6.500002
31
0
39
0
210
0
220
0
230
1
0
LINE
5
EC
100
AcDbEntity
8
1
62
256
6
ByLayer
370
18
48
1
60
1
100
AcDbLine
10
-59.085946
20
-6.500002
30
0
11
-58.164379
21
-6.499998
31
0
39
0
210
0
220
0
230
1
0
LINE
5
ED
100
AcDbEntity
8
1
62
256
6
ByLayer
370
18
48
1
60
1
100
AcDbLine
10
-58.164379
20
-6.499998
30
0
11
-58.625163
21
-10
31
0
39
0
210
0
220
0
230
1
0
LINE
5
F1
100
AcDbEntity
8
1
62
256
6
ByLayer
370
18
48
1
60
1
100
AcDbLine
10
93.083343
20
9.4
30
0
11
93.544126
21
5.900002
31
0
39
0
210
0
220
0
230
1
0
LINE
5
F2
100
AcDbEntity
8
1
62
256
6
ByLayer
370
18
48
1
60
1
100
AcDbLine
10
93.544126
20
5.900002
30
0
11
92.622559
21
5.899998
31
0
39
0
210
0
220
0
230
1
0
LINE
5
F3
100
AcDbEntity
8
1
62
256
6
ByLayer
370
18
48
1
60
1
100
AcDbLine
10
92.622559
20
5.899998
30
0
11
93.083343
21
9.4
31
0
39
0
210
0
220
0
230
1
0
LINE
5
F5
100
AcDbEntity
8
1
62
256
6
ByLayer
370
18
48
1
60
1
100
AcDbLine
10
93.083343
20
-9.4
30
0
11
92.622559
21
-5.900002
31
0
39
0
210
0
220
0
230
1
0
LINE
5
F6
100
AcDbEntity
8
1
62
256
6
ByLayer
370
18
48
1
60
1
100
AcDbLine
10
92.622559
20
-5.900002
30
0
11
93.544126
21
-5.899998
31
0
39
0
210
0
220
0
230
1
0
LINE
5
F7
100
AcDbEntity
8
1
62
256
6
ByLayer
370
18
48
1
60
1
100
AcDbLine
10
93.544126
20
-5.899998
30
0
11
93.083343
21
-9.4
31
0
39
0
210
0
220
0
230
1
0
MTEXT
5
E1
100
AcDbEntity
8
SK6
62
256
6
ByLayer
370
13
48
1
60
0
100
AcDbMText
10
-13.645193
20
41.940328
30
0
210
0
220
0
230
1
1
\W0.7670;462.1-1880-056A0-XM X2BM
40
3.5
41
0
44
1.084337
50
0
71
7
72
5
7
iso_b_vert
0
MTEXT
5
E5
100
AcDbEntity
8
SK2
62
256
6
ByLayer
370
18
48
1
60
0
100
AcDbMText
10
-60.189796
20
23.409024
30
0
210
0
220
0
230
1
1
%%c
40
3.5
41
0
44
1.084337
50
90
71
7
72
5
7
iso_b_vert
0
MTEXT
5
E6
100
AcDbEntity
8
SK2
62
256
6
ByLayer
370
18
48
1
60
0
100
AcDbMText
10
-60.189796
20
28.63168
30
0
210
0
220
0
230
1
1
\W0.7421;20,000
40
3.5
41
0
44
1.084337
50
90
71
7
72
5
7
iso_b_vert
0
MTEXT
5
EF
100
AcDbEntity
8
2
62
256
6
ByLayer
370
18
48
1
60
0
100
AcDbMText
10
91.518709
20
21.40211
30
0
210
0
220
0
230
1
1
%%c
40
3.5
41
0
44
1.084337
50
90
71
7
72
5
7
iso_b_vert
0
MTEXT
5
F0
100
AcDbEntity
8
2
62
256
6
ByLayer
370
18
48
1
60
0
100
AcDbMText
10
91.518709
20
26.624766
30
0
210
0
220
0
230
1
1
\W0.6930;18,800
40
3.5
41
0
44
1.084337
50
90
71
7
72
5
7
iso_b_vert
0
HATCH
5
EA
100
AcDbEntity
8
SK2
62
256
6
ByLayer
370
13
48
1
60
0
100
AcDbHatch
10
0
20
0
30
0
210
0
220
0
230
1
2
ANSI31
70
0
71
0
91
1
92
5
93
3
72
1
10
-58.6251625675374
20
10
11
-58.1643788259847
21
6.50000169255318
72
1
10
-58.1643788259847
20
6.50000169255318
11
-59.0859463090902
21
6.49999830744682
72
1
10
-59.0859463090902
20
6.49999830744682
11
-58.6251625675374
21
10
97
0
75
0
76
1
52
0
41
0.0062
77
0
78
1
53
45
43
0
44
0
45
-0.0139193969876572
46
0.0139193969876572
79
0
47
0
98
1
10
0
20
0
0
HATCH
5
EE
100
AcDbEntity
8
SK2
62
256
6
ByLayer
370
13
48
1
60
0
100
AcDbHatch
10
0
20
0
30
0
210
0
220
0
230
1
2
ANSI31
70
0
71
0
91
1
92
5
93
3
72
1
10
-58.6251625675374
20
-10
11
-59.0859463090902
21
-6.50000169255318
72
1
10
-59.0859463090902
20
-6.50000169255318
11
-58.1643788259847
21
-6.49999830744682
72
1
10
-58.1643788259847
20
-6.49999830744682
11
-58.6251625675374
21
-10
97
0
75
0
76
1
52
0
41
0.0062
77
0
78
1
53
45
43
0
44
0
45
-0.0139193969876572
46
0.0139193969876572
79
0
47
0
98
1
10
0
20
0
0
HATCH
5
F4
100
AcDbEntity
8
2
62
256
6
ByLayer
370
13
48
1
60
0
100
AcDbHatch
10
0
20
0
30
0
210
0
220
0
230
1
2
ANSI31
70
0
71
0
91
1
92
5
93
3
72
1
10
93.083342615295
20
9.40000000000001
11
93.5441263568478
21
5.90000169255319
72
1
10
93.5441263568478
20
5.90000169255319
11
92.6225588737423
21
5.89999830744682
72
1
10
92.6225588737423
20
5.89999830744682
11
93.083342615295
21
9.40000000000001
97
0
75
0
76
1
52
0
41
0.0062
77
0
78
1
53
45
43
0
44
0
45
-0.0139193969876572
46
0.0139193969876572
79
0
47
0
98
1
10
0
20
0
0
HATCH
5
F8
100
AcDbEntity
8
2
62
256
6
ByLayer
370
13
48
1
60
0
100
AcDbHatch
10
0
20
0
30
0
210
0
220
0
230
1
2
ANSI31
70
0
71
0
91
1
92
5
93
3
72
1
10
93.083342615295
20
-9.40000000000001
11
92.6225588737423
21
-5.90000169255319
72
1
10
92.6225588737423
20
-5.90000169255319
11
93.5441263568478
21
-5.89999830744682
72
1
10
93.5441263568478
20
-5.89999830744682
11
93.083342615295
21
-9.40000000000001
97
0
75
0
76
1
52
0
41
0.0062
77
0
78
1
53
45
43
0
44
0
45
-0.0139193969876572
46
0.0139193969876572
79
0
47
0
98
1
10
0
20
0
0
DIMENSION
5
FA
100
AcDbEntity
8
SK2
62
256
6
ByLayer
370
13
48
1
60
0
100
AcDbDimension
2
_U0
10
78.1898
20
-19.613398
30
0
11
39.0949
21
-19.613398
31
0
70
32
71
1
72
1
41
1
210
0
220
0
230
1
3
Standard
100
AcDbAlignedDimension
13
0
23
0
33
0
14
78.1898
24
-9.4
34
0
50
0
100
AcDbRotatedDimension
1001
ACAD
1000
DSTYLE
1002
{
1070
   371
1070
    13
1070
   372
1070
    13
1070
   170
1070
     0
1070
   144
1040
1.0
1070
   277
1070
     2
1070
   278
1070
    44
1070
   146
1040
1.0
1070
   345
1005
16
1070
   347
1005
16
1070
   346
1005
16
1070
   344
1005
0
1070
   343
1005
0
1070
   172
1070
     1
1070
    76
1070
     0
1070
    75
1070
     0
1070
   282
1070
     0
1070
   281
1070
     0
1070
    71
1070
     0
1070
    74
1070
     0
1070
   279
1070
     0
1070
   173
1070
     1
1070
   340
1005
E2
1070
   271
1070
     2
1070
   272
1070
     2
1070
    77
1070
     1
1070
    73
1070
     1
1070
   171
1070
     3
1070
   274
1070
     4
1070
   177
1070
    35
1070
   176
1070
    35
1070
   178
1070
    35
1070
    48
1040
-0.1
1070
    41
1040
3.5
1070
   147
1040
1.75
1070
    42
1040
1.5875
1070
    44
1040
2.0
1070
   140
1040
3.5
1002
}
1001
ACAD_DSTYLE_DIM_LINETYPE
1070
   380
1005
16
1001
ACAD_DSTYLE_DIM_EXT1_LINETYPE
1070
   381
1005
16
1001
ACAD_DSTYLE_DIM_EXT2_LINETYPE
1070
   382
1005
16
0
DIMENSION
5
113
100
AcDbEntity
8
SK2
62
256
6
ByLayer
370
13
48
1
60
0
100
AcDbDimension
2
_U1
10
81
20
-38.692985
30
0
11
15.5
21
-38.692985
31
0
70
32
71
1
72
1
41
1
210
0
220
0
230
1
3
Standard
100
AcDbAlignedDimension
13
-50
23
-10
33
0
14
81
24
0
34
0
50
0
100
AcDbRotatedDimension
1001
ACAD
1000
DSTYLE
1002
{
1070
   371
1070
    13
1070
   372
1070
    13
1070
   170
1070
     0
1070
   144
1040
1.0
1070
   277
1070
     2
1070
   278
1070
    44
1070
   146
1040
1.0
1070
   345
1005
16
1070
   347
1005
16
1070
   346
1005
16
1070
   344
1005
0
1070
   343
1005
0
1070
   172
1070
     1
1070
    76
1070
     0
1070
    75
1070
     0
1070
   282
1070
     0
1070
   281
1070
     0
1070
    71
1070
     0
1070
    74
1070
     0
1070
   279
1070
     0
1070
   173
1070
     1
1070
   340
1005
E2
1070
   271
1070
     2
1070
   272
1070
     2
1070
    77
1070
     1
1070
    73
1070
     1
1070
   171
1070
     3
1070
   274
1070
     4
1070
   177
1070
    35
1070
   176
1070
    35
1070
   178
1070
    35
1070
    48
1040
-0.1
1070
    41
1040
3.5
1070
   147
1040
1.75
1070
    42
1040
1.5875
1070
    44
1040
2.0
1070
   140
1040
3.5
1002
}
1001
ACAD_DSTYLE_DIM_LINETYPE
1070
   380
1005
16
1001
ACAD_DSTYLE_DIM_EXT1_LINETYPE
1070
   381
1005
16
1001
ACAD_DSTYLE_DIM_EXT2_LINETYPE
1070
   382
1005
16
0
DIMENSION
5
12B
100
AcDbEntity
8
SK2
62
256
6
ByLayer
370
13
48
1
60
0
100
AcDbDimension
2
_U2
10
81
20
21.009119
30
0
11
51.395
21
21.009119
31
0
70
32
71
1
72
1
41
1
210
0
220
0
230
1
3
Standard
100
AcDbAlignedDimension
13
21.79
23
9.4
33
0
14
81
24
0
34
0
50
0
100
AcDbRotatedDimension
1001
ACAD
1000
DSTYLE
1002
{
1070
   371
1070
    13
1070
   372
1070
    13
1070
   170
1070
     0
1070
   144
1040
1.0
1070
   277
1070
     2
1070
   278
1070
    44
1070
   146
1040
1.0
1070
   345
1005
16
1070
   347
1005
16
1070
   346
1005
16
1070
   344
1005
0
1070
   343
1005
0
1070
   172
1070
     1
1070
    76
1070
     0
1070
    75
1070
     0
1070
   282
1070
     0
1070
   281
1070
     0
1070
    71
1070
     0
1070
    74
1070
     0
1070
   279
1070
     0
1070
   173
1070
     1
1070
   340
1005
E2
1070
   271
1070
     2
1070
   272
1070
     2
1070
    77
1070
     1
1070
    73
1070
     1
1070
   171
1070
     3
1070
   274
1070
     4
1070
   177
1070
    35
1070
   176
1070
    35
1070
   178
1070
    35
1070
    48
1040
-0.1
1070
    41
1040
3.5
1070
   147
1040
1.75
1070
    42
1040
1.5875
1070
    44
1040
2.0
1070
   140
1040
3.5
1002
}
1001
ACAD_DSTYLE_DIM_LINETYPE
1070
   380
1005
16
1001
ACAD_DSTYLE_DIM_EXT1_LINETYPE
1070
   381
1005
16
1001
ACAD_DSTYLE_DIM_EXT2_LINETYPE
1070
   382
1005
16
0
DIMENSION
5
143
100
AcDbEntity
8
SK2
62
256
6
ByLayer
370
13
48
1
60
0
100
AcDbDimension
2
_U3
10
78.1898
20
-22.202503
30
0
11
98.083333
21
-22.202503
31
0
70
32
71
1
72
1
41
1
210
0
220
0
230
1
3
Standard
100
AcDbAlignedDimension
13
81
23
0
33
0
14
78.1898
24
-9.4
34
0
50
0
100
AcDbRotatedDimension
1001
ACAD
1000
DSTYLE
1002
{
1070
   371
1070
    13
1070
   372
1070
    13
1070
   170
1070
     0
1070
   144
1040
1.0
1070
   277
1070
     2
1070
   278
1070
    44
1070
   146
1040
1.0
1070
   345
1005
16
1070
   347
1005
16
1070
   346
1005
16
1070
   344
1005
0
1070
   343
1005
0
1070
   172
1070
     1
1070
    76
1070
     0
1070
    75
1070
     0
1070
   282
1070
     0
1070
   281
1070
     0
1070
    71
1070
     0
1070
    74
1070
     0
1070
   279
1070
     0
1070
   173
1070
     1
1070
   340
1005
E2
1070
   271
1070
     2
1070
   272
1070
     2
1070
    77
1070
     1
1070
    73
1070
     1
1070
   171
1070
     3
1070
   274
1070
     4
1070
   177
1070
    35
1070
   176
1070
    35
1070
   178
1070
    35
1070
    48
1040
-0.1
1070
    41
1040
3.5
1070
   147
1040
1.75
1070
    42
1040
1.5875
1070
    44
1040
2.0
1070
   140
1040
3.5
1002
}
1001
ACAD_DSTYLE_DIM_LINETYPE
1070
   380
1005
16
1001
ACAD_DSTYLE_DIM_EXT1_LINETYPE
1070
   381
1005
16
1001
ACAD_DSTYLE_DIM_EXT2_LINETYPE
1070
   382
1005
16
0
DIMENSION
5
15D
100
AcDbEntity
8
SK2
62
256
6
ByLayer
370
13
48
1
60
0
100
AcDbDimension
2
_U4
10
78.1898
20
-28.343428
30
0
11
14.0949
21
-28.343428
31
0
70
32
71
1
72
1
41
1
210
0
220
0
230
1
3
Standard
100
AcDbAlignedDimension
13
-50
23
-10
33
0
14
78.1898
24
-9.4
34
0
50
0
100
AcDbRotatedDimension
1001
ACAD
1000
DSTYLE
1002
{
1070
   371
1070
    13
1070
   372
1070
    13
1070
   170
1070
     0
1070
   144
1040
1.0
1070
   277
1070
     2
1070
   278
1070
    44
1070
   146
1040
1.0
1070
   345
1005
16
1070
   347
1005
16
1070
   346
1005
16
1070
   344
1005
0
1070
   343
1005
0
1070
   172
1070
     1
1070
    76
1070
     0
1070
    75
1070
     0
1070
   282
1070
     0
1070
   281
1070
     0
1070
    71
1070
     0
1070
    74
1070
     0
1070
   279
1070
     0
1070
   173
1070
     1
1070
   340
1005
E2
1070
   271
1070
     2
1070
   272
1070
     2
1070
    77
1070
     1
1070
    73
1070
     1
1070
   171
1070
     3
1070
   274
1070
     4
1070
   177
1070
    35
1070
   176
1070
    35
1070
   178
1070
    35
1070
    48
1040
-0.1
1070
    41
1040
3.5
1070
   147
1040
1.75
1070
    42
1040
1.5875
1070
    44
1040
2.0
1070
   140
1040
3.5
1002
}
1001
ACAD_DSTYLE_DIM_LINETYPE
1070
   380
1005
16
1001
ACAD_DSTYLE_DIM_EXT1_LINETYPE
1070
   381
1005
16
1001
ACAD_DSTYLE_DIM_EXT2_LINETYPE
1070
   382
1005
16
0
ENDSEC
0
SECTION
2
OBJECTS
0
DICTIONARY
5
1e5
330
0
100
AcDbDictionary
280
0
281
1
3
ACAD_GROUP
350
1e6
3
ACAD_MLINESTYLE
350
1e7
0
DICTIONARY
5
1e6
330
0
100
AcDbDictionary
280
0
281
1
0
DICTIONARY
5
1e7
330
0
100
AcDbDictionary
280
0
281
1
3
Standard
350
18
0
MLINESTYLE
5
18
330
1e7
100
AcDbMlineStyle
2
Standard
70
0
3

62
256
51
90
52
90
71
2
49
-0.5
62
256
6
ByLayer
49
0.5
62
256
6
ByLayer
0
RASTERVARIABLES
5
1d3
330

100
AcDbRasterVariables
90
0
70
1
71
1
72
1
0
ENDSEC
0
EOF
