0
SECTION
2
HEADER
9
$ACADVER
1
AC1015
9
$DWGCODEPAGE
3
ANSI_1252
9
$HANDSEED
5
1f5
9
$ANGBASE
50
0
9
$ANGDIR
70
0
9
$ATTMODE
70
1
9
$AUNITS
70
0
9
$AUPREC
70
0
9
$CECOLOR
62
256
9
$CELTSCALE
40
1
9
$CELTYPE
6
ByLayer
9
$CELWEIGHT
370
18
9
$CLAYER
8
0
9
$CMLJUST
70
0
9
$CMLSCALE
40
1
9
$CMLSTYLE
2
Standard
9
$DIMSTYLE
2
Standard
9
$TEXTSIZE
40
0.2
9
$TEXTSTYLE
7
Standard
9
$LUNITS
70
2
9
$LUPREC
70
4
9
$EXTNAMES
290
1
9
$INSUNITS
70
4
9
$LTSCALE
40
1
9
$LWDISPLAY
290
1
9
$PDMODE
70
0
9
$PDSIZE
40
0
9
$PLINEGEN
70
0
0
ENDSEC
0
SECTION
2
CLASSES
0
CLASS
1
RASTERVARIABLES
2
AcDbRasterVariables
3
ISM
90
0
280
0
281
0
0
ENDSEC
0
SECTION
2
TABLES
0
TABLE
2
VPORT
5
1eb
100
AcDbSymbolTable
0
VPORT
5
1
100
AcDbSymbolTableRecord
100
AcDbViewportTableRecord
2
*Active
70
0
10
0
20
0
11
1
21
1
12
-1
22
1
13
0
23
0
14
0.5
24
0.5
15
10
25
10
16
0
26
0
36
1
17
0
27
0
37
0
0
ENDTAB
0
TABLE
2
LTYPE
5
1ec
100
AcDbSymbolTable
0
LTYPE
5
14
100
AcDbSymbolTableRecord
100
AcDbLinetypeTableRecord
70
0
2
ByBlock
3

72
65
73
0
40
0
0
LTYPE
5
15
100
AcDbSymbolTableRecord
100
AcDbLinetypeTableRecord
70
0
2
ByLayer
3

72
65
73
0
40
0
0
LTYPE
5
16
100
AcDbSymbolTableRecord
100
AcDbLinetypeTableRecord
70
0
2
Continuous
3
Solid line
72
65
73
0
40
0
0
LTYPE
5
6E
100
AcDbSymbolTableRecord
100
AcDbLinetypeTableRecord
70
0
2
CENTER
3
____ _ ____ _ ____ _ ____
72
65
73
4
40
47.5
49
22
74
0
49
-8.5
74
0
49
8.5
74
0
49
-8.5
74
0
0
LTYPE
5
6F
100
AcDbSymbolTableRecord
100
AcDbLinetypeTableRecord
70
0
2
DASHED
3
__ __ __ __ __ __ __ __ __
72
65
73
2
40
25.72
49
12.86
74
0
49
-12.86
74
0
0
ENDTAB
0
TABLE
2
LAYER
5
1ed
100
AcDbSymbolTable
0
LAYER
5
10
100
AcDbSymbolTableRecord
100
AcDbLayerTableRecord
2
0
70
0
62
7
6
Continuous
290
1
370
-3
390
0
0
LAYER
5
71
100
AcDbSymbolTableRecord
100
AcDbLayerTableRecord
2
80
70
0
62
-6
6
Continuous
290
1
370
-3
390
0
0
LAYER
5
73
100
AcDbSymbolTableRecord
100
AcDbLayerTableRecord
2
81
70
0
62
-3
6
Continuous
290
1
370
-3
390
0
0
LAYER
5
75
100
AcDbSymbolTableRecord
100
AcDbLayerTableRecord
2
1
70
0
62
4
6
Continuous
290
1
370
-3
390
0
0
LAYER
5
87
100
AcDbSymbolTableRecord
100
AcDbLayerTableRecord
2
4
70
0
62
-2
6
CENTER
290
1
370
-3
390
0
0
LAYER
5
A0
100
AcDbSymbolTableRecord
100
AcDbLayerTableRecord
2
2
70
0
62
7
6
Continuous
290
1
370
-3
390
0
0
LAYER
5
100
100
AcDbSymbolTableRecord
100
AcDbLayerTableRecord
2
Defpoints
70
0
62
7
6
Continuous
290
0
370
-3
390
0
0
LAYER
5
1d7
100
AcDbSymbolTableRecord
100
AcDbLayerTableRecord
2
SK1
70
0
62
4
6
Continuous
290
1
370
-3
390
0
0
LAYER
5
1d8
100
AcDbSymbolTableRecord
100
AcDbLayerTableRecord
2
SK4
70
0
62
2
6
CENTER
290
1
370
-3
390
0
0
LAYER
5
1d9
100
AcDbSymbolTableRecord
100
AcDbLayerTableRecord
2
SK2
70
0
62
7
6
Continuous
290
1
370
-3
390
0
0
LAYER
5
1da
100
AcDbSymbolTableRecord
100
AcDbLayerTableRecord
2
SK6
70
0
62
5
6
Continuous
290
1
370
-3
390
0
0
ENDTAB
0
TABLE
2
STYLE
5
1ee
100
AcDbSymbolTable
0
STYLE
5
11
100
AcDbSymbolTableRecord
100
AcDbTextStyleTableRecord
2
Standard
3
txt
70
0
71
0
40
0
41
1
42
0
50
0
0
STYLE
5
E5
100
AcDbSymbolTableRecord
100
AcDbTextStyleTableRecord
2
iso_b_vert
3
simplex.shx
70
0
71
0
40
0
41
1
42
0
50
0
0
STYLE
5
E6
100
AcDbSymbolTableRecord
100
AcDbTextStyleTableRecord
2
DWGDirectTextStyle
3
simplex
70
0
71
0
40
0
41
1
42
0
50
0
0
ENDTAB
0
TABLE
2
DIMSTYLE
5
1ef
100
AcDbSymbolTable
100
AcDbDimStyleTable
0
DIMSTYLE
105
27
100
AcDbSymbolTableRecord
100
AcDbDimStyleTableRecord
2
Standard
70
0
3
<>
41
0.18
42
0.0625
44
0.18
140
0.18
147
0.09
73
0
74
0
77
1
271
2
275
0
278
52
280
0
340
11
0
ENDTAB
0
TABLE
2
VIEW
5
1f0
100
AcDbSymbolTable
0
ENDTAB
0
TABLE
2
UCS
5
1f1
100
AcDbSymbolTable
0
ENDTAB
0
TABLE
2
APPID
5
1f2
100
AcDbSymbolTable
0
APPID
5
12
100
AcDbSymbolTableRecord
100
AcDbRegAppTableRecord
2
ACAD
70
0
0
APPID
5
FC
100
AcDbSymbolTableRecord
100
AcDbRegAppTableRecord
2
ACAD_DSTYLE_DIMBREAK
70
0
0
APPID
5
196
100
AcDbSymbolTableRecord
100
AcDbRegAppTableRecord
2
ACAD_DSTYLE_DIM_LINETYPE
70
0
0
APPID
5
197
100
AcDbSymbolTableRecord
100
AcDbRegAppTableRecord
2
ACAD_DSTYLE_DIM_EXT1_LINETYPE
70
0
0
APPID
5
198
100
AcDbSymbolTableRecord
100
AcDbRegAppTableRecord
2
ACAD_DSTYLE_DIM_EXT2_LINETYPE
70
0
0
APPID
5
1D3
100
AcDbSymbolTableRecord
100
AcDbRegAppTableRecord
2
ACAD_MLEADERVER
70
0
0
ENDTAB
0
TABLE
2
BLOCK_RECORD
5
1f3
100
AcDbSymbolTable
0
BLOCK_RECORD
5
1F
100
AcDbSymbolTableRecord
100
AcDbBlockTableRecord
2
*Model_Space
340
0
70
0
0
BLOCK_RECORD
5
1B
100
AcDbSymbolTableRecord
100
AcDbBlockTableRecord
2
*Paper_Space
340
0
70
0
0
BLOCK_RECORD
5
23
100
AcDbSymbolTableRecord
100
AcDbBlockTableRecord
2
*Paper_Space0
340
0
70
0
0
BLOCK_RECORD
5
101
100
AcDbSymbolTableRecord
100
AcDbBlockTableRecord
2
*D1
340
0
70
0
0
BLOCK_RECORD
5
10D
100
AcDbSymbolTableRecord
100
AcDbBlockTableRecord
2
_U0
340
0
70
0
0
BLOCK_RECORD
5
119
100
AcDbSymbolTableRecord
100
AcDbBlockTableRecord
2
*D3
340
0
70
0
0
BLOCK_RECORD
5
125
100
AcDbSymbolTableRecord
100
AcDbBlockTableRecord
2
_U1
340
0
70
0
0
BLOCK_RECORD
5
131
100
AcDbSymbolTableRecord
100
AcDbBlockTableRecord
2
*D5
340
0
70
0
0
BLOCK_RECORD
5
13D
100
AcDbSymbolTableRecord
100
AcDbBlockTableRecord
2
_U2
340
0
70
0
0
BLOCK_RECORD
5
149
100
AcDbSymbolTableRecord
100
AcDbBlockTableRecord
2
*D7
340
0
70
0
0
BLOCK_RECORD
5
157
100
AcDbSymbolTableRecord
100
AcDbBlockTableRecord
2
_U3
340
0
70
0
0
BLOCK_RECORD
5
163
100
AcDbSymbolTableRecord
100
AcDbBlockTableRecord
2
*D9
340
0
70
0
0
BLOCK_RECORD
5
16F
100
AcDbSymbolTableRecord
100
AcDbBlockTableRecord
2
_U4
340
0
70
0
0
ENDTAB
0
ENDSEC
0
SECTION
2
BLOCKS
0
BLOCK
5
20
100
AcDbEntity
8
0
100
AcDbBlockBegin
2
*Model_Space
70
0
10
0
20
0
30
0
3
*Model_Space
0
ENDBLK
5
21
100
AcDbEntity
8
0
100
AcDbBlockEnd
0
BLOCK
5
1C
100
AcDbEntity
8
0
100
AcDbBlockBegin
2
*Paper_Space
70
0
10
0
20
0
30
0
3
*Paper_Space
0
ENDBLK
5
1D
100
AcDbEntity
8
0
100
AcDbBlockEnd
0
BLOCK
5
24
100
AcDbEntity
8
0
100
AcDbBlockBegin
2
*Paper_Space0
70
0
10
0
20
0
30
0
3
*Paper_Space0
0
ENDBLK
5
25
100
AcDbEntity
8
0
100
AcDbBlockEnd
0
BLOCK
5
102
100
AcDbEntity
8
0
100
AcDbBlockBegin
2
*D1
70
1
10
0
20
0
30
0
3
*D1
0
LINE
5
104
100
AcDbEntity
8
0
62
256
6
ByLayer
370
-2
48
1
60
0
100
AcDbLine
10
0
20
-1.5875
30
0
11
0
21
-18.863398
31
0
39
0
210
0
220
0
230
1
0
LINE
5
105
100
AcDbEntity
8
0
62
256
6
ByLayer
370
-2
48
1
60
0
100
AcDbLine
10
60.0187
20
-8.2375
30
0
11
60.0187
21
-18.863398
31
0
39
0
210
0
220
0
230
1
0
LINE
5
106
100
AcDbEntity
8
0
62
256
6
ByLayer
370
-2
48
1
60
0
100
AcDbLine
10
3.5
20
-16.863398
30
0
11
56.5187
21
-16.863398
31
0
39
0
210
0
220
0
230
1
0
SOLID
5
107
100
AcDbEntity
8
0
62
256
6
ByLayer
370
-1
48
1
60
0
100
AcDbTrace
10
3.5
20
-16.280065
30
0
11
3.5
21
-17.446732
31
0
12
0
22
-16.863398
32
0
13
0
23
-16.863398
33
0
39
0
210
0
220
0
230
1
0
SOLID
5
108
100
AcDbEntity
8
0
62
256
6
ByLayer
370
-1
48
1
60
0
100
AcDbTrace
10
56.5187
20
-17.446732
30
0
11
56.5187
21
-16.280065
31
0
12
60.0187
22
-16.863398
32
0
13
60.0187
23
-16.863398
33
0
39
0
210
0
220
0
230
1
0
MTEXT
5
109
100
AcDbEntity
8
0
62
256
6
ByLayer
370
18
48
1
60
0
100
AcDbMText
10
30.00935
20
-9.863398
30
0
210
0
220
0
230
1
1
\A1;60.02
40
3.5
41
0
44
1
50
0
71
5
72
5
7
iso_b_vert
0
POINT
5
10A
100
AcDbEntity
8
Defpoints
62
0
6
ByLayer
370
-1
48
1
60
0
100
AcDbPoint
10
0
20
0
30
0
39
0
210
0
220
0
230
1
50
360
0
POINT
5
10B
100
AcDbEntity
8
Defpoints
62
0
6
ByLayer
370
-1
48
1
60
0
100
AcDbPoint
10
60.0187
20
-6.65
30
0
39
0
210
0
220
0
230
1
50
360
0
POINT
5
10C
100
AcDbEntity
8
Defpoints
62
0
6
ByLayer
370
-1
48
1
60
0
100
AcDbPoint
10
60.0187
20
-16.863398
30
0
39
0
210
0
220
0
230
1
50
360
0
ENDBLK
5
103
100
AcDbEntity
8
0
100
AcDbBlockEnd
0
BLOCK
5
114
100
AcDbEntity
8
0
100
AcDbBlockBegin
2
_U0
70
0
10
0
20
0
30
0
3
_U0
0
MTEXT
5
10E
100
AcDbEntity
8
SK2
62
256
6
ByLayer
370
13
48
1
60
0
100
AcDbMText
10
24.872051
20
-15.830765
30
0
210
0
220
0
230
1
1
\W0.7317;60,02
40
3.5
41
0
44
1.084337
50
0
71
7
72
5
7
iso_b_vert
0
LINE
5
10F
100
AcDbEntity
8
SK2
62
256
6
ByLayer
370
13
48
1
60
0
100
AcDbLine
10
0
20
-1.5875
30
0
11
0
21
-18.863398
31
0
39
0
210
0
220
0
230
1
0
LINE
5
110
100
AcDbEntity
8
SK2
62
256
6
ByLayer
370
13
48
1
60
0
100
AcDbLine
10
60.0187
20
-8.2375
30
0
11
60.0187
21
-18.863398
31
0
39
0
210
0
220
0
230
1
0
LINE
5
111
100
AcDbEntity
8
SK2
62
256
6
ByLayer
370
13
48
1
60
0
100
AcDbLine
10
0
20
-16.863398
30
0
11
60.0187
21
-16.863398
31
0
39
0
210
0
220
0
230
1
0
SOLID
5
112
100
AcDbEntity
8
SK2
62
256
6
ByLayer
370
18
48
1
60
0
100
AcDbTrace
10
0
20
-16.863398
30
0
11
3.499998
21
-16.402615
31
0
12
3.500002
22
-17.324182
32
0
13
3.500002
23
-17.324182
33
0
39
0
210
0
220
0
230
1
0
SOLID
5
113
100
AcDbEntity
8
SK2
62
256
6
ByLayer
370
18
48
1
60
0
100
AcDbTrace
10
60.0187
20
-16.863398
30
0
11
56.518702
21
-17.324182
31
0
12
56.518698
22
-16.402615
32
0
13
56.518698
23
-16.402615
33
0
39
0
210
0
220
0
230
1
0
ENDBLK
5
115
100
AcDbEntity
8
0
100
AcDbBlockEnd
0
BLOCK
5
11A
100
AcDbEntity
8
0
100
AcDbBlockBegin
2
*D3
70
1
10
0
20
0
30
0
3
*D3
0
LINE
5
11C
100
AcDbEntity
8
0
62
256
6
ByLayer
370
-2
48
1
60
0
100
AcDbLine
10
-45
20
-8.5875
30
0
11
-45
21
-37.692985
31
0
39
0
210
0
220
0
230
1
0
LINE
5
11D
100
AcDbEntity
8
0
62
256
6
ByLayer
370
-2
48
1
60
0
100
AcDbLine
10
62
20
-1.5875
30
0
11
62
21
-37.692985
31
0
39
0
210
0
220
0
230
1
0
LINE
5
11E
100
AcDbEntity
8
0
62
256
6
ByLayer
370
-2
48
1
60
0
100
AcDbLine
10
-41.5
20
-35.692985
30
0
11
58.5
21
-35.692985
31
0
39
0
210
0
220
0
230
1
0
SOLID
5
11F
100
AcDbEntity
8
0
62
256
6
ByLayer
370
-1
48
1
60
0
100
AcDbTrace
10
-41.5
20
-35.109652
30
0
11
-41.5
21
-36.276319
31
0
12
-45
22
-35.692985
32
0
13
-45
23
-35.692985
33
0
39
0
210
0
220
0
230
1
0
SOLID
5
120
100
AcDbEntity
8
0
62
256
6
ByLayer
370
-1
48
1
60
0
100
AcDbTrace
10
58.5
20
-36.276319
30
0
11
58.5
21
-35.109652
31
0
12
62
22
-35.692985
32
0
13
62
23
-35.692985
33
0
39
0
210
0
220
0
230
1
0
MTEXT
5
121
100
AcDbEntity
8
0
62
256
6
ByLayer
370
18
48
1
60
0
100
AcDbMText
10
8.5
20
-28.692985
30
0
210
0
220
0
230
1
1
\A1;107.00
40
3.5
41
0
44
1
50
0
71
5
72
5
7
iso_b_vert
0
POINT
5
122
100
AcDbEntity
8
Defpoints
62
0
6
ByLayer
370
-1
48
1
60
0
100
AcDbPoint
10
-45
20
-7
30
0
39
0
210
0
220
0
230
1
50
360
0
POINT
5
123
100
AcDbEntity
8
Defpoints
62
0
6
ByLayer
370
-1
48
1
60
0
100
AcDbPoint
10
62
20
0
30
0
39
0
210
0
220
0
230
1
50
360
0
POINT
5
124
100
AcDbEntity
8
Defpoints
62
0
6
ByLayer
370
-1
48
1
60
0
100
AcDbPoint
10
62
20
-35.692985
30
0
39
0
210
0
220
0
230
1
50
360
0
ENDBLK
5
11B
100
AcDbEntity
8
0
100
AcDbBlockEnd
0
BLOCK
5
12C
100
AcDbEntity
8
0
100
AcDbBlockBegin
2
_U1
70
0
10
0
20
0
30
0
3
_U1
0
MTEXT
5
126
100
AcDbEntity
8
SK2
62
256
6
ByLayer
370
13
48
1
60
0
100
AcDbMText
10
2.492401
20
-34.660352
30
0
210
0
220
0
230
1
1
\W0.6930;107,00
40
3.5
41
0
44
1.084337
50
0
71
7
72
5
7
iso_b_vert
0
LINE
5
127
100
AcDbEntity
8
SK2
62
256
6
ByLayer
370
13
48
1
60
0
100
AcDbLine
10
-45
20
-8.5875
30
0
11
-45
21
-37.692985
31
0
39
0
210
0
220
0
230
1
0
LINE
5
128
100
AcDbEntity
8
SK2
62
256
6
ByLayer
370
13
48
1
60
0
100
AcDbLine
10
62
20
-1.5875
30
0
11
62
21
-37.692985
31
0
39
0
210
0
220
0
230
1
0
LINE
5
129
100
AcDbEntity
8
SK2
62
256
6
ByLayer
370
13
48
1
60
0
100
AcDbLine
10
-45
20
-35.692985
30
0
11
62
21
-35.692985
31
0
39
0
210
0
220
0
230
1
0
SOLID
5
12A
100
AcDbEntity
8
SK2
62
256
6
ByLayer
370
18
48
1
60
0
100
AcDbTrace
10
-45
20
-35.692985
30
0
11
-41.500002
21
-35.232202
31
0
12
-41.499998
22
-36.153769
32
0
13
-41.499998
23
-36.153769
33
0
39
0
210
0
220
0
230
1
0
SOLID
5
12B
100
AcDbEntity
8
SK2
62
256
6
ByLayer
370
18
48
1
60
0
100
AcDbTrace
10
62
20
-35.692985
30
0
11
58.500002
21
-36.153769
31
0
12
58.499998
22
-35.232202
32
0
13
58.499998
23
-35.232202
33
0
39
0
210
0
220
0
230
1
0
ENDBLK
5
12D
100
AcDbEntity
8
0
100
AcDbBlockEnd
0
BLOCK
5
132
100
AcDbEntity
8
0
100
AcDbBlockBegin
2
*D5
70
1
10
0
20
0
30
0
3
*D5
0
LINE
5
134
100
AcDbEntity
8
0
62
256
6
ByLayer
370
-2
48
1
60
0
100
AcDbLine
10
20.12
20
8.2375
30
0
11
20.12
21
20.259119
31
0
39
0
210
0
220
0
230
1
0
LINE
5
135
100
AcDbEntity
8
0
62
256
6
ByLayer
370
-2
48
1
60
0
100
AcDbLine
10
62
20
1.5875
30
0
11
62
21
20.259119
31
0
39
0
210
0
220
0
230
1
0
LINE
5
136
100
AcDbEntity
8
0
62
256
6
ByLayer
370
-2
48
1
60
0
100
AcDbLine
10
23.62
20
18.259119
30
0
11
58.5
21
18.259119
31
0
39
0
210
0
220
0
230
1
0
SOLID
5
137
100
AcDbEntity
8
0
62
256
6
ByLayer
370
-1
48
1
60
0
100
AcDbTrace
10
23.62
20
18.842453
30
0
11
23.62
21
17.675786
31
0
12
20.12
22
18.259119
32
0
13
20.12
23
18.259119
33
0
39
0
210
0
220
0
230
1
0
SOLID
5
138
100
AcDbEntity
8
0
62
256
6
ByLayer
370
-1
48
1
60
0
100
AcDbTrace
10
58.5
20
17.675786
30
0
11
58.5
21
18.842453
31
0
12
62
22
18.259119
32
0
13
62
23
18.259119
33
0
39
0
210
0
220
0
230
1
0
MTEXT
5
139
100
AcDbEntity
8
0
62
256
6
ByLayer
370
18
48
1
60
0
100
AcDbMText
10
41.06
20
25.259119
30
0
210
0
220
0
230
1
1
\A1;41.88
40
3.5
41
0
44
1
50
0
71
5
72
5
7
iso_b_vert
0
POINT
5
13A
100
AcDbEntity
8
Defpoints
62
0
6
ByLayer
370
-1
48
1
60
0
100
AcDbPoint
10
20.12
20
6.65
30
0
39
0
210
0
220
0
230
1
50
360
0
POINT
5
13B
100
AcDbEntity
8
Defpoints
62
0
6
ByLayer
370
-1
48
1
60
0
100
AcDbPoint
10
62
20
0
30
0
39
0
210
0
220
0
230
1
50
360
0
POINT
5
13C
100
AcDbEntity
8
Defpoints
62
0
6
ByLayer
370
-1
48
1
60
0
100
AcDbPoint
10
62
20
18.259119
30
0
39
0
210
0
220
0
230
1
50
360
0
ENDBLK
5
133
100
AcDbEntity
8
0
100
AcDbBlockEnd
0
BLOCK
5
144
100
AcDbEntity
8
0
100
AcDbBlockBegin
2
_U2
70
0
10
0
20
0
30
0
3
_U2
0
MTEXT
5
13E
100
AcDbEntity
8
SK2
62
256
6
ByLayer
370
13
48
1
60
0
100
AcDbMText
10
36.175868
20
19.291753
30
0
210
0
220
0
230
1
1
\W0.6977;41,88
40
3.5
41
0
44
1.084337
50
0
71
7
72
5
7
iso_b_vert
0
LINE
5
13F
100
AcDbEntity
8
SK2
62
256
6
ByLayer
370
13
48
1
60
0
100
AcDbLine
10
20.12
20
8.2375
30
0
11
20.12
21
20.259119
31
0
39
0
210
0
220
0
230
1
0
LINE
5
140
100
AcDbEntity
8
SK2
62
256
6
ByLayer
370
13
48
1
60
0
100
AcDbLine
10
62
20
1.5875
30
0
11
62
21
20.259119
31
0
39
0
210
0
220
0
230
1
0
LINE
5
141
100
AcDbEntity
8
SK2
62
256
6
ByLayer
370
13
48
1
60
0
100
AcDbLine
10
20.12
20
18.259119
30
0
11
62
21
18.259119
31
0
39
0
210
0
220
0
230
1
0
SOLID
5
142
100
AcDbEntity
8
SK2
62
256
6
ByLayer
370
18
48
1
60
0
100
AcDbTrace
10
20.12
20
18.259119
30
0
11
23.619998
21
18.719903
31
0
12
23.620002
22
17.798335
32
0
13
23.620002
23
17.798335
33
0
39
0
210
0
220
0
230
1
0
SOLID
5
143
100
AcDbEntity
8
SK2
62
256
6
ByLayer
370
18
48
1
60
0
100
AcDbTrace
10
62
20
18.259119
30
0
11
58.500002
21
17.798335
31
0
12
58.499998
22
18.719903
32
0
13
58.499998
23
18.719903
33
0
39
0
210
0
220
0
230
1
0
ENDBLK
5
145
100
AcDbEntity
8
0
100
AcDbBlockEnd
0
BLOCK
5
14A
100
AcDbEntity
8
0
100
AcDbBlockBegin
2
*D7
70
1
10
0
20
0
30
0
3
*D7
0
LINE
5
14C
100
AcDbEntity
8
0
62
256
6
ByLayer
370
-2
48
1
60
0
100
AcDbLine
10
62
20
-1.5875
30
0
11
62
21
-21.452503
31
0
39
0
210
0
220
0
230
1
0
LINE
5
14D
100
AcDbEntity
8
0
62
256
6
ByLayer
370
-2
48
1
60
0
100
AcDbLine
10
60.0187
20
-8.2375
30
0
11
60.0187
21
-21.452503
31
0
39
0
210
0
220
0
230
1
0
LINE
5
14E
100
AcDbEntity
8
0
62
256
6
ByLayer
370
-2
48
1
60
0
100
AcDbLine
10
62
20
-19.452503
30
0
11
89.666667
21
-19.452503
31
0
39
0
210
0
220
0
230
1
0
LINE
5
14F
100
AcDbEntity
8
0
62
256
6
ByLayer
370
-2
48
1
60
0
100
AcDbLine
10
65.5
20
-19.452503
30
0
11
69
21
-19.452503
31
0
39
0
210
0
220
0
230
1
0
LINE
5
150
100
AcDbEntity
8
0
62
256
6
ByLayer
370
-2
48
1
60
0
100
AcDbLine
10
56.5187
20
-19.452503
30
0
11
53.0187
21
-19.452503
31
0
39
0
210
0
220
0
230
1
0
SOLID
5
151
100
AcDbEntity
8
0
62
256
6
ByLayer
370
-1
48
1
60
0
100
AcDbTrace
10
65.5
20
-18.86917
30
0
11
65.5
21
-20.035837
31
0
12
62
22
-19.452503
32
0
13
62
23
-19.452503
33
0
39
0
210
0
220
0
230
1
0
SOLID
5
152
100
AcDbEntity
8
0
62
256
6
ByLayer
370
-1
48
1
60
0
100
AcDbTrace
10
56.5187
20
-20.035837
30
0
11
56.5187
21
-18.86917
31
0
12
60.0187
22
-19.452503
32
0
13
60.0187
23
-19.452503
33
0
39
0
210
0
220
0
230
1
0
MTEXT
5
153
100
AcDbEntity
8
0
62
256
6
ByLayer
370
18
48
1
60
0
100
AcDbMText
10
79.333333
20
-12.452503
30
0
210
0
220
0
230
1
1
\A1;1.98
40
3.5
41
0
44
1
50
0
71
5
72
5
7
iso_b_vert
0
POINT
5
154
100
AcDbEntity
8
Defpoints
62
0
6
ByLayer
370
-1
48
1
60
0
100
AcDbPoint
10
62
20
0
30
0
39
0
210
0
220
0
230
1
50
360
0
POINT
5
155
100
AcDbEntity
8
Defpoints
62
0
6
ByLayer
370
-1
48
1
60
0
100
AcDbPoint
10
60.0187
20
-6.65
30
0
39
0
210
0
220
0
230
1
50
360
0
POINT
5
156
100
AcDbEntity
8
Defpoints
62
0
6
ByLayer
370
-1
48
1
60
0
100
AcDbPoint
10
60.0187
20
-19.452503
30
0
39
0
210
0
220
0
230
1
50
360
0
ENDBLK
5
14B
100
AcDbEntity
8
0
100
AcDbBlockEnd
0
BLOCK
5
15E
100
AcDbEntity
8
0
100
AcDbBlockBegin
2
_U3
70
0
10
0
20
0
30
0
3
_U3
0
MTEXT
5
158
100
AcDbEntity
8
SK2
62
256
6
ByLayer
370
13
48
1
60
0
100
AcDbMText
10
68.589293
20
-18.41987
30
0
210
0
220
0
230
1
1
\W0.6367;1,98
40
3.5
41
0
44
1.084337
50
0
71
7
72
5
7
iso_b_vert
0
LINE
5
159
100
AcDbEntity
8
SK2
62
256
6
ByLayer
370
13
48
1
60
0
100
AcDbLine
10
62
20
-1.5875
30
0
11
62
21
-21.452503
31
0
39
0
210
0
220
0
230
1
0
LINE
5
15A
100
AcDbEntity
8
SK2
62
256
6
ByLayer
370
13
48
1
60
0
100
AcDbLine
10
60.0187
20
-8.2375
30
0
11
60.0187
21
-21.452503
31
0
39
0
210
0
220
0
230
1
0
LINE
5
15B
100
AcDbEntity
8
SK2
62
256
6
ByLayer
370
13
48
1
60
0
100
AcDbLine
10
51.2687
20
-19.452503
30
0
11
75.559058
21
-19.452503
31
0
39
0
210
0
220
0
230
1
0
SOLID
5
15C
100
AcDbEntity
8
SK2
62
256
6
ByLayer
370
18
48
1
60
0
100
AcDbTrace
10
62
20
-19.452503
30
0
11
65.499998
21
-18.991719
31
0
12
65.500002
22
-19.913287
32
0
13
65.500002
23
-19.913287
33
0
39
0
210
0
220
0
230
1
0
SOLID
5
15D
100
AcDbEntity
8
SK2
62
256
6
ByLayer
370
18
48
1
60
0
100
AcDbTrace
10
60.0187
20
-19.452503
30
0
11
56.518702
21
-19.913287
31
0
12
56.518698
22
-18.991719
32
0
13
56.518698
23
-18.991719
33
0
39
0
210
0
220
0
230
1
0
ENDBLK
5
15F
100
AcDbEntity
8
0
100
AcDbBlockEnd
0
BLOCK
5
164
100
AcDbEntity
8
0
100
AcDbBlockBegin
2
*D9
70
1
10
0
20
0
30
0
3
*D9
0
LINE
5
166
100
AcDbEntity
8
0
62
256
6
ByLayer
370
-2
48
1
60
0
100
AcDbLine
10
-45
20
-8.5875
30
0
11
-45
21
-27.343428
31
0
39
0
210
0
220
0
230
1
0
LINE
5
167
100
AcDbEntity
8
0
62
256
6
ByLayer
370
-2
48
1
60
0
100
AcDbLine
10
60.0187
20
-8.2375
30
0
11
60.0187
21
-27.343428
31
0
39
0
210
0
220
0
230
1
0
LINE
5
168
100
AcDbEntity
8
0
62
256
6
ByLayer
370
-2
48
1
60
0
100
AcDbLine
10
-41.5
20
-25.343428
30
0
11
56.5187
21
-25.343428
31
0
39
0
210
0
220
0
230
1
0
SOLID
5
169
100
AcDbEntity
8
0
62
256
6
ByLayer
370
-1
48
1
60
0
100
AcDbTrace
10
-41.5
20
-24.760095
30
0
11
-41.5
21
-25.926762
31
0
12
-45
22
-25.343428
32
0
13
-45
23
-25.343428
33
0
39
0
210
0
220
0
230
1
0
SOLID
5
16A
100
AcDbEntity
8
0
62
256
6
ByLayer
370
-1
48
1
60
0
100
AcDbTrace
10
56.5187
20
-25.926762
30
0
11
56.5187
21
-24.760095
31
0
12
60.0187
22
-25.343428
32
0
13
60.0187
23
-25.343428
33
0
39
0
210
0
220
0
230
1
0
MTEXT
5
16B
100
AcDbEntity
8
0
62
256
6
ByLayer
370
18
48
1
60
0
100
AcDbMText
10
7.50935
20
-18.343428
30
0
210
0
220
0
230
1
1
\A1;105.02
40
3.5
41
0
44
1
50
0
71
5
72
5
7
iso_b_vert
0
POINT
5
16C
100
AcDbEntity
8
Defpoints
62
0
6
ByLayer
370
-1
48
1
60
0
100
AcDbPoint
10
-45
20
-7
30
0
39
0
210
0
220
0
230
1
50
360
0
POINT
5
16D
100
AcDbEntity
8
Defpoints
62
0
6
ByLayer
370
-1
48
1
60
0
100
AcDbPoint
10
60.0187
20
-6.65
30
0
39
0
210
0
220
0
230
1
50
360
0
POINT
5
16E
100
AcDbEntity
8
Defpoints
62
0
6
ByLayer
370
-1
48
1
60
0
100
AcDbPoint
10
60.0187
20
-25.343428
30
0
39
0
210
0
220
0
230
1
50
360
0
ENDBLK
5
165
100
AcDbEntity
8
0
100
AcDbBlockEnd
0
BLOCK
5
176
100
AcDbEntity
8
0
100
AcDbBlockBegin
2
_U4
70
0
10
0
20
0
30
0
3
_U4
0
MTEXT
5
170
100
AcDbEntity
8
SK2
62
256
6
ByLayer
370
13
48
1
60
0
100
AcDbMText
10
1.501751
20
-24.310795
30
0
210
0
220
0
230
1
1
\W0.6930;105,02
40
3.5
41
0
44
1.084337
50
0
71
7
72
5
7
iso_b_vert
0
LINE
5
171
100
AcDbEntity
8
SK2
62
256
6
ByLayer
370
13
48
1
60
0
100
AcDbLine
10
-45
20
-8.5875
30
0
11
-45
21
-27.343428
31
0
39
0
210
0
220
0
230
1
0
LINE
5
172
100
AcDbEntity
8
SK2
62
256
6
ByLayer
370
13
48
1
60
0
100
AcDbLine
10
60.0187
20
-8.2375
30
0
11
60.0187
21
-27.343428
31
0
39
0
210
0
220
0
230
1
0
LINE
5
173
100
AcDbEntity
8
SK2
62
256
6
ByLayer
370
13
48
1
60
0
100
AcDbLine
10
-45
20
-25.343428
30
0
11
60.0187
21
-25.343428
31
0
39
0
210
0
220
0
230
1
0
SOLID
5
174
100
AcDbEntity
8
SK2
62
256
6
ByLayer
370
18
48
1
60
0
100
AcDbTrace
10
-45
20
-25.343428
30
0
11
-41.500002
21
-24.882645
31
0
12
-41.499998
22
-25.804212
32
0
13
-41.499998
23
-25.804212
33
0
39
0
210
0
220
0
230
1
0
SOLID
5
175
100
AcDbEntity
8
SK2
62
256
6
ByLayer
370
18
48
1
60
0
100
AcDbTrace
10
60.0187
20
-25.343428
30
0
11
56.518702
21
-25.804212
31
0
12
56.518698
22
-24.882645
32
0
13
56.518698
23
-24.882645
33
0
39
0
210
0
220
0
230
1
0
ENDBLK
5
177
100
AcDbEntity
8
0
100
AcDbBlockEnd
0
ENDSEC
0
SECTION
2
ENTITIES
0
ARC
5
A9
100
AcDbEntity
8
1
62
256
6
ByLayer
370
18
48
1
60
0
100
AcDbCircle
39
0
10
1.043199
20
-7.413151
30
0
40
0.800000000000002
210
0
220
0
230
1
100
AcDbArc
50
89.96419
51
130.692503
0
ARC
5
AA
100
AcDbEntity
8
1
62
256
6
ByLayer
370
18
48
1
60
0
100
AcDbCircle
39
0
10
1.043199
20
7.413151
30
0
40
0.800000000000002
210
0
220
0
230
1
100
AcDbArc
50
229.307497
51
270.03581
0
ARC
5
AB
100
AcDbEntity
8
1
62
256
6
ByLayer
370
18
48
1
60
0
100
AcDbCircle
39
0
10
0
20
-6.2
30
0
40
0.800000000000002
210
0
220
0
230
1
100
AcDbArc
50
270
51
310.692503
0
ARC
5
AC
100
AcDbEntity
8
1
62
256
6
ByLayer
370
18
48
1
60
0
100
AcDbCircle
39
0
10
0
20
6.2
30
0
40
0.800000000000002
210
0
220
0
230
1
100
AcDbArc
50
49.307497
51
90
0
ELLIPSE
5
AD
100
AcDbEntity
8
1
62
256
6
ByLayer
370
13
48
1
60
0
100
AcDbEllipse
10
4.180026
20
-1.072446
30
0
11
-0.0390645532755479
21
-0.0920541181989262
31
0
210
0
220
0
230
1
40
0.487852
41
-1.52502697629314
42
-0.184737768714968
0
ELLIPSE
5
AE
100
AcDbEntity
8
1
62
256
6
ByLayer
370
13
48
1
60
0
100
AcDbEllipse
10
4.250135
20
-1.105643
30
0
11
0.0460104656291178
21
0.0887864688597974
31
0
210
0
220
0
230
1
40
0.079881
41
1.41592231875934
42
2.97477108424049
0
POINT
5
70
100
AcDbEntity
8
80
62
256
6
ByLayer
370
18
48
1
60
0
100
AcDbPoint
10
0
20
0
30
0
39
0
210
0
220
0
230
1
50
360
0
POINT
5
72
100
AcDbEntity
8
81
62
256
6
ByLayer
370
18
48
1
60
0
100
AcDbPoint
10
62
20
0
30
0
39
0
210
0
220
0
230
1
50
360
0
POINT
5
74
100
AcDbEntity
8
1
62
256
6
ByLayer
370
18
48
1
60
1
100
AcDbPoint
10
60.0187
20
-6.65
30
0
39
0
210
0
220
0
230
1
50
360
0
POINT
5
76
100
AcDbEntity
8
1
62
256
6
ByLayer
370
18
48
1
60
1
100
AcDbPoint
10
-45
20
-7
30
0
39
0
210
0
220
0
230
1
50
360
0
POINT
5
77
100
AcDbEntity
8
1
62
256
6
ByLayer
370
18
48
1
60
1
100
AcDbPoint
10
20.12
20
6.65
30
0
39
0
210
0
220
0
230
1
50
360
0
POINT
5
78
100
AcDbEntity
8
1
62
256
6
ByLayer
370
18
48
1
60
1
100
AcDbPoint
10
60.0187
20
-6.65
30
0
39
0
210
0
220
0
230
1
50
360
0
POINT
5
79
100
AcDbEntity
8
1
62
256
6
ByLayer
370
18
48
1
60
1
100
AcDbPoint
10
-45
20
-7
30
0
39
0
210
0
220
0
230
1
50
360
0
POINT
5
7A
100
AcDbEntity
8
1
62
256
6
ByLayer
370
18
48
1
60
1
100
AcDbPoint
10
60.0187
20
-6.65
30
0
39
0
210
0
220
0
230
1
50
360
0
SPLINE
5
AF
100
AcDbEntity
8
1
62
256
6
ByLayer
370
18
48
1
60
0
100
AcDbSpline
70
4
71
3
72
14
73
10
40
0
40
0
40
0
40
0
40
0.25
40
0.25
40
0.5
40
0.5
40
0.75
40
0.75
40
1
40
1
40
1
40
1
41
1
10
60.0008896028793
20
6.46635210260038
30
0
41
1
10
60.1486827364371
20
6.04843349146734
30
0
41
1
10
60.3002526880396
20
5.63107880411104
30
0
41
1
10
60.609858145456
20
4.79755128090599
30
0
41
1
10
60.767924455714
20
4.38138291812064
30
0
41
1
10
61.0898711380145
20
3.55027699468832
30
0
41
1
10
61.2538396578288
20
3.1353361527413
30
0
41
1
10
61.5857222282546
20
2.30977283118744
30
0
41
1
10
61.7538061226024
20
1.8986737128117
30
0
41
1
10
61.9238457952338
20
1.48897315863871
30
0
0
SPLINE
5
B0
100
AcDbEntity
8
1
62
256
6
ByLayer
370
18
48
1
60
0
100
AcDbSpline
70
4
71
3
72
8
73
4
40
0
40
0
40
0
40
0
40
1
40
1
40
1
40
1
41
1
10
61.9238457952324
20
1.48897315864227
30
0
41
1
10
61.9540013759303
20
1.03684698508687
30
0
41
1
10
61.9757622027434
20
0.585211033039542
30
0
41
1
10
61.9891220806027
20
0.134065664268633
30
0
0
SPLINE
5
B1
100
AcDbEntity
8
1
62
256
6
ByLayer
370
18
48
1
60
0
100
AcDbSpline
70
4
71
3
72
18
73
14
40
0
40
0
40
0
40
0
40
0.125000000000001
40
0.125000000000001
40
0.250000000000002
40
0.250000000000002
40
0.375000000000003
40
0.375000000000003
40
0.500000000000004
40
0.500000000000004
40
0.750000000000002
40
0.750000000000002
40
1
40
1
40
1
40
1
41
1
10
4.25051000532429
20
6.25863305002073
30
0
41
1
10
4.23637144786275
20
6.2597092360179
30
0
41
1
10
4.2217954200139
20
6.26185044408047
30
0
41
1
10
4.19146490276921
20
6.2689400754175
30
0
41
1
10
4.17552819885759
20
6.27397377950757
30
0
41
1
10
4.1436236375867
20
6.28751004693771
30
0
41
1
10
4.12723276723193
20
6.29623947108445
30
0
41
1
10
4.09634422045747
20
6.31710133617656
30
0
41
1
10
4.08155021263153
20
6.32947790001703
30
0
41
1
10
4.04325590479073
20
6.36899006782963
30
0
41
1
10
4.0255064010766
20
6.39863025572717
30
0
41
1
10
4.0043086667369
20
6.45362132404062
30
0
41
1
10
3.99999985810493
20
6.47995985928168
30
0
41
1
10
3.9999998581049
20
6.50453045102907
30
0
0
SPLINE
5
B2
100
AcDbEntity
8
1
62
256
6
ByLayer
370
13
48
1
60
0
100
AcDbSpline
70
4
71
3
72
31
73
27
40
0
40
0
40
0
40
0
40
0.125
40
0.125
40
0.15625
40
0.15625
40
0.1875
40
0.1875
40
0.25
40
0.25
40
0.375
40
0.375
40
0.5
40
0.5
40
0.5625
40
0.5625
40
0.625
40
0.625
40
0.6875
40
0.6875
40
0.75
40
0.8125
40
0.8125
40
0.875
40
0.875
40
1
40
1
40
1
40
1
41
1
10
4.25022455513934
20
-1.08831603593487
30
0
41
1
10
4.25023900862641
20
-0.65743808044067
30
0
41
1
10
4.25024464500871
20
-0.225174134871679
30
0
41
1
10
4.25024561363333
20
0.316845231205264
30
0
41
1
10
4.25024550108995
20
0.425334437993797
30
0
41
1
10
4.25024478073601
20
0.642485915850216
30
0
41
1
10
4.25024417036113
20
0.751404199313242
30
0
41
1
10
4.25024180000204
20
1.07522375435289
30
0
41
1
10
4.25023950697658
20
1.28792162508148
30
0
41
1
10
4.2502319900064
20
1.91674346018647
30
0
41
1
10
4.25022614766044
20
2.32369553580688
30
0
41
1
10
4.25021979320704
20
3.11211288180525
30
0
41
1
10
4.25021945258618
20
3.48057578925443
30
0
41
1
10
4.25022656101405
20
3.99426550071749
30
0
41
1
10
4.25023018368429
20
4.15905596327323
30
0
41
1
10
4.25024033925948
20
4.4754075556701
30
0
41
1
10
4.250246882428
20
4.62675397034758
30
0
41
1
10
4.25026288071095
20
4.91131427075444
30
0
41
1
10
4.25027234596325
20
5.04474658184509
30
0
41
1
10
4.25029381695322
20
5.29105032180757
30
0
41
1
10
4.25031788150574
20
5.51783811483884
30
0
41
1
10
4.25034652962484
20
5.70606463087006
30
0
41
1
10
4.2503770480684
20
5.874622862498
30
0
41
1
10
4.25039332523582
20
5.94927320456972
30
0
41
1
10
4.25044297680776
20
6.13846074550469
30
0
41
1
10
4.25047746099008
20
6.22042922314643
30
0
41
1
10
4.25051000532625
20
6.25863305002304
30
0
0
SPLINE
5
B3
100
AcDbEntity
8
1
62
256
6
ByLayer
370
18
48
1
60
0
100
AcDbSpline
70
4
71
3
72
18
73
14
40
0
40
0
40
0
40
0
40
0.25
40
0.25
40
0.5
40
0.5
40
0.625
40
0.625
40
0.75
40
0.75
40
0.875
40
0.875
40
1
40
1
40
1
40
1
41
1
10
3.99999985810493
20
-6.50453045102907
30
0
41
1
10
3.99999985810493
20
-6.47997549404187
30
0
41
1
10
4.00413450211087
20
-6.45428906099502
30
0
41
1
10
4.02524688140642
20
-6.39909195552661
30
0
41
1
10
4.04304213514388
20
-6.36931541646513
30
0
41
1
10
4.08111086226529
20
-6.32987995093362
30
0
41
1
10
4.09594751747017
20
-6.31740675728864
30
0
41
1
10
4.12687379216322
20
-6.29644533307325
30
0
41
1
10
4.14331749111454
20
-6.28765915431202
30
0
41
1
10
4.17530181902217
20
-6.27405092630755
30
0
41
1
10
4.1912944346887
20
-6.26898715732435
30
0
41
1
10
4.22171224524769
20
-6.26186271020853
30
0
41
1
10
4.23633036346291
20
-6.25971236324497
30
0
41
1
10
4.25051000532127
20
-6.2586330500225
30
0
0
SPLINE
5
B4
100
AcDbEntity
8
1
62
256
6
ByLayer
370
13
48
1
60
0
100
AcDbSpline
70
4
71
3
72
8
73
4
40
0
40
0
40
0
40
0
40
1
40
1
40
1
40
1
41
1
10
4.25022455513937
20
-1.08831603593487
30
0
41
1
10
4.20951178336941
20
-1.07585303237423
30
0
41
1
10
4.169770652907
20
-1.06544479129249
30
0
41
1
10
4.1333771390992
20
-1.05761994093209
30
0
0
SPLINE
5
B5
100
AcDbEntity
8
1
62
256
6
ByLayer
370
18
48
1
60
0
100
AcDbSpline
70
4
71
3
72
44
73
40
40
0
40
0
40
0
40
0
40
0.124999999999992
40
0.124999999999992
40
0.18749999999999
40
0.18749999999999
40
0.249999999999987
40
0.249999999999987
40
0.374999999999986
40
0.374999999999986
40
0.499999999999985
40
0.499999999999985
40
0.562499999999986
40
0.562499999999986
40
0.624999999999987
40
0.624999999999987
40
0.749999999999993
40
0.749999999999993
40
0.812499999999996
40
0.812499999999996
40
0.843749999999996
40
0.843749999999996
40
0.859374999999997
40
0.859374999999997
40
0.867187499999998
40
0.867187499999998
40
0.874999999999999
40
0.874999999999999
40
0.878906249999999
40
0.878906249999999
40
0.882812499999999
40
0.882812499999999
40
0.890624999999999
40
0.890624999999999
40
0.906249999999999
40
0.906249999999999
40
0.937499999999999
40
0.937499999999999
40
1
40
1
40
1
40
1
41
1
10
53.43137528376
20
2.51337057215039
30
0
41
1
10
53.6912441994008
20
2.27077957387027
30
0
41
1
10
53.9590815845396
20
2.04349997061971
30
0
41
1
10
54.3727933737526
20
1.72555343672676
30
0
41
1
10
54.5127141948859
20
1.6234467107422
30
0
41
1
10
54.7967762280903
20
1.4273427298377
30
0
41
1
10
54.9414048080371
20
1.33303641149809
30
0
41
1
10
55.3777868817277
20
1.06510484965793
30
0
41
1
10
55.6712817379448
20
0.906603772996704
30
0
41
1
10
56.2634237409029
20
0.629883321598214
30
0
41
1
10
56.5620633360892
20
0.511604907200706
30
0
41
1
10
57.0144195192031
20
0.368562326540143
30
0
41
1
10
57.1659406407141
20
0.326633537405314
30
0
41
1
10
57.4705695259705
20
0.255180665203056
30
0
41
1
10
57.6242569128029
20
0.225574138835896
30
0
41
1
10
58.0832965167992
20
0.157953920620969
30
0
41
1
10
58.385616843427
20
0.140612741705382
30
0
41
1
10
58.8323669697883
20
0.164975905867323
30
0
41
1
10
58.9801307976677
20
0.181708886415237
30
0
41
1
10
59.1975439369091
20
0.220852435948416
30
0
41
1
10
59.2694078009829
20
0.236244180106297
30
0
41
1
10
59.3760199408856
20
0.262934479954254
30
0
41
1
10
59.4113594947406
20
0.272425599362805
30
0
41
1
10
59.4640468382592
20
0.287592574539587
30
0
41
1
10
59.4817511046293
20
0.293236646391364
30
0
41
1
10
59.5108086648988
20
0.315565337202997
30
0
41
1
10
59.5226440976289
20
0.331862344359792
30
0
41
1
10
59.5300967214371
20
0.362995369629971
30
0
41
1
10
59.531092326142
20
0.374085077417362
30
0
41
1
10
59.5335404577357
20
0.396041852619334
30
0
41
1
10
59.5349546251359
20
0.406945610289711
30
0
41
1
10
59.5388058072692
20
0.439809429210044
30
0
41
1
10
59.5412300618156
20
0.461773532639569
30
0
41
1
10
59.5480835327178
20
0.527826564205157
30
0
41
1
10
59.5520923528576
20
0.572067362921189
30
0
41
1
10
59.5625117209397
20
0.705258840960198
30
0
41
1
10
59.5673221015949
20
0.794723305786761
30
0
41
1
10
59.575955085811
20
1.0649359226822
30
0
41
1
10
59.5739611505868
20
1.24677923354071
30
0
41
1
10
59.5657761131696
20
1.42887451948667
30
0
0
SPLINE
5
B6
100
AcDbEntity
8
1
62
256
6
ByLayer
370
18
48
1
60
0
100
AcDbSpline
70
4
71
3
72
14
73
10
40
0
40
0
40
0
40
0
40
0.370645628037501
40
0.370645628037501
40
0.555968442056253
40
0.555968442056253
40
0.74129125607501
40
0.74129125607501
40
1
40
1
40
1
40
1
41
1
10
15.2720656371082
20
-6.30440774725741
30
0
41
1
10
15.7416399389896
20
-6.38382258892705
30
0
41
1
10
16.2103709459638
20
-6.44774462688312
30
0
41
1
10
16.9111891157788
20
-6.52208565014016
30
0
41
1
10
17.1443745618207
20
-6.54327097723103
30
0
41
1
10
17.609620749159
20
-6.57848307493987
30
0
41
1
10
17.8418207966924
20
-6.59244947009975
30
0
41
1
10
18.398400904642
20
-6.6170416933634
30
0
41
1
10
18.7226714641939
20
-6.62426392190281
30
0
41
1
10
19.0466880743135
20
-6.62441646699591
30
0
0
SPLINE
5
B7
100
AcDbEntity
8
1
62
256
6
ByLayer
370
18
48
1
60
0
100
AcDbSpline
70
4
71
3
72
34
73
30
40
0
40
0
40
0
40
0
40
0.0178525615665166
40
0.0178525615665166
40
0.0756259402978977
40
0.0756259402978977
40
0.133399319029279
40
0.133399319029279
40
0.191172697760661
40
0.191172697760661
40
0.306719455223423
40
0.306719455223423
40
0.422266212686186
40
0.422266212686186
40
0.537812970148949
40
0.537812970148949
40
0.653359727611712
40
0.653359727611712
40
0.711133106343093
40
0.711133106343093
40
0.768906485074474
40
0.768906485074474
40
0.826679863805856
40
0.826679863805856
40
0.884453242537237
40
0.884453242537237
40
0.942226621268618
40
0.942226621268618
40
1
40
1
40
1
40
1
41
1
10
47.890748506322
20
4.80119258466422
30
0
41
1
10
47.9626647589564
20
4.82851067666735
30
0
41
1
10
48.0346263523659
20
4.8555660886876
30
0
41
1
10
48.3397082411273
20
4.96899706226185
30
0
41
1
10
48.573267660439
20
5.05287928100904
30
0
41
1
10
49.0412232808376
20
5.21528304272667
30
0
41
1
10
49.2756304494682
20
5.29379233050454
30
0
41
1
10
49.7450639034736
20
5.44561628293516
30
0
41
1
10
49.979821491046
20
5.51894267035669
30
0
41
1
10
50.6824211552968
20
5.72782560654565
30
0
41
1
10
51.1497032199179
20
5.85322592495044
30
0
41
1
10
52.080836752796
20
6.07820789275141
30
0
41
1
10
52.5442978782111
20
6.17788212701535
30
0
41
1
10
53.4722774259487
20
6.3481297860038
30
0
41
1
10
53.9360993164495
20
6.41936392774963
30
0
41
1
10
54.8621466488102
20
6.53434294174181
30
0
41
1
10
55.325949882717
20
6.5773659163977
30
0
41
1
10
56.0232308564911
20
6.62026606693035
30
0
41
1
10
56.255868811571
20
6.63097279873494
30
0
41
1
10
56.7212711452058
20
6.64511216346219
30
0
41
1
10
56.9540381891537
20
6.64851623658407
30
0
41
1
10
57.4209605453766
20
6.64787941572834
30
0
41
1
10
57.6550074593578
20
6.64386351438935
30
0
41
1
10
58.1241304671586
20
6.62841227919125
30
0
41
1
10
58.3594549091587
20
6.6169574672389
30
0
41
1
10
58.8291165909907
20
6.58658617021541
30
0
41
1
10
59.0633984126468
20
6.56761150928384
30
0
41
1
10
59.5320107280588
20
6.52236518349415
30
0
41
1
10
59.7664244101595
20
6.49614240853552
30
0
41
1
10
60.0008896028847
20
6.46635210258529
30
0
0
SPLINE
5
B8
100
AcDbEntity
8
1
62
256
6
ByLayer
370
13
48
1
60
0
100
AcDbSpline
70
4
71
3
72
8
73
4
40
0
40
0
40
0
40
0
40
1
40
1
40
1
40
1
41
1
10
4.1333771390992
20
-1.15943299388317
30
0
41
1
10
4.15542677853219
20
-1.1687669871792
30
0
41
1
10
4.17926145724419
20
-1.18001532778433
30
0
41
1
10
4.20358526769695
20
-1.19258683499172
30
0
0
SPLINE
5
B9
100
AcDbEntity
8
1
62
256
6
ByLayer
370
18
48
1
60
0
100
AcDbSpline
70
4
71
3
72
10
73
6
40
0
40
0
40
0
40
0
40
0.5
40
0.5
40
1
40
1
40
1
40
1
41
1
10
59.7446997210244
20
1.55483877835832
30
0
41
1
10
60.1079987752175
20
1.54269555217516
30
0
41
1
10
60.4713183868629
20
1.53033053931503
30
0
41
1
10
61.1977827503942
20
1.50748701025432
30
0
41
1
10
61.5608449222876
20
1.4978994187608
30
0
41
1
10
61.9238457952411
20
1.48897315864175
30
0
0
SPLINE
5
BA
100
AcDbEntity
8
1
62
256
6
ByLayer
370
18
48
1
60
0
100
AcDbSpline
70
4
71
3
72
32
73
28
40
0
40
0
40
0
40
0
40
0.062499999999999
40
0.062499999999999
40
0.0937499999999986
40
0.0937499999999986
40
0.124999999999998
40
0.124999999999998
40
0.187499999999997
40
0.187499999999997
40
0.218749999999997
40
0.218749999999997
40
0.249999999999998
40
0.249999999999998
40
0.374999999999996
40
0.374999999999996
40
0.499999999999995
40
0.499999999999995
40
0.562499999999995
40
0.562499999999995
40
0.624999999999994
40
0.624999999999994
40
0.749999999999996
40
0.749999999999996
40
0.874999999999998
40
0.874999999999998
40
1
40
1
40
1
40
1
41
1
10
53.4313752837599
20
2.51337057215025
30
0
41
1
10
53.407255127174
20
2.31186119418354
30
0
41
1
10
53.3985802322545
20
2.10506605837614
30
0
41
1
10
53.4096622937765
20
1.78662764234957
30
0
41
1
10
53.4174620969821
20
1.67855463736905
30
0
41
1
10
53.4408512892148
20
1.46356428593029
30
0
41
1
10
53.456404863301
20
1.3564012223251
30
0
41
1
10
53.5140278077677
20
1.03585546441437
30
0
41
1
10
53.5670257032639
20
0.823413302967737
30
0
41
1
10
53.6666762273978
20
0.506484530810866
30
0
41
1
10
53.7034309313069
20
0.400702530536051
30
0
41
1
10
53.7825540428572
20
0.192081386339481
30
0
41
1
10
53.8248462381299
20
0.0893432872439917
30
0
41
1
10
54.0487446458292
20
-0.417184957405993
30
0
41
1
10
54.2672470371231
20
-0.800120123113288
30
0
41
1
10
54.7630769475132
20
-1.53053232784023
30
0
41
1
10
55.0326119454132
20
-1.86707377886268
30
0
41
1
10
55.4627897375902
20
-2.33757953292434
30
0
41
1
10
55.6104209816366
20
-2.4887950299532
30
0
41
1
10
55.9130824200187
20
-2.78141622237342
30
0
41
1
10
56.0684938161333
20
-2.92308969687784
30
0
41
1
10
56.5425222300449
20
-3.33249900077627
30
0
41
1
10
56.8658108269356
20
-3.58233758671506
30
0
41
1
10
57.5239173406689
20
-4.04537776963707
30
0
41
1
10
57.8587639911194
20
-4.25848805916442
30
0
41
1
10
58.5383930741115
20
-4.65313547169694
30
0
41
1
10
58.8831906788697
20
-4.83462438159583
30
0
41
1
10
59.2326304249964
20
-5.0013618505802
30
0
0
SPLINE
5
BB
100
AcDbEntity
8
1
62
256
6
ByLayer
370
18
48
1
60
0
100
AcDbSpline
70
4
71
3
72
58
73
54
40
0
40
0
40
0
40
0
40
0.0312500000000013
40
0.0312500000000013
40
0.0625000000000026
40
0.0625000000000026
40
0.0937500000000039
40
0.0937500000000039
40
0.125000000000005
40
0.125000000000005
40
0.156250000000006
40
0.156250000000006
40
0.171875000000007
40
0.171875000000007
40
0.187500000000007
40
0.187500000000007
40
0.203125000000008
40
0.203125000000008
40
0.218750000000008
40
0.218750000000008
40
0.234375000000009
40
0.234375000000009
40
0.250000000000009
40
0.250000000000009
40
0.26562500000001
40
0.26562500000001
40
0.28125000000001
40
0.28125000000001
40
0.312500000000011
40
0.312500000000011
40
0.343750000000012
40
0.343750000000012
40
0.351562500000012
40
0.355468750000012
40
0.355468750000012
40
0.359375000000012
40
0.359375000000012
40
0.367187500000012
40
0.367187500000012
40
0.371093750000012
40
0.371093750000012
40
0.375000000000012
40
0.43750000000001
40
0.43750000000001
40
0.500000000000009
40
0.500000000000009
40
0.625000000000007
40
0.625000000000007
40
0.750000000000005
40
0.750000000000005
40
0.875000000000002
40
0.875000000000002
40
1
40
1
40
1
40
1
41
1
10
3.99999985810177
20
-6.57840745063515
30
0
41
1
10
3.8493995701879
20
-6.59153029601478
30
0
41
1
10
3.70133385225384
20
-6.60144429750869
30
0
41
1
10
3.41176895769871
20
-6.61367444351151
30
0
41
1
10
3.2698342711052
20
-6.61599404789578
30
0
41
1
10
2.99694731749571
20
-6.61119324723833
30
0
41
1
10
2.86629375398056
20
-6.60412039788352
30
0
41
1
10
2.6208092723478
20
-6.57814083119692
30
0
41
1
10
2.50534953237087
20
-6.55905578379949
30
0
41
1
10
2.30252492787463
20
-6.50621165651955
30
0
41
1
10
2.2144982753685
20
-6.4725325596674
30
0
41
1
10
2.11133010382449
20
-6.40742408228368
30
0
41
1
10
2.08163654551191
20
-6.38303926119963
30
0
41
1
10
2.03534673761095
20
-6.3296610646558
30
0
41
1
10
2.0186757027214
20
-6.3007397970012
30
0
41
1
10
1.99970521955618
20
-6.23816875510866
30
0
41
1
10
1.99741563773659
20
-6.20430291585069
30
0
41
1
10
2.00869555069232
20
-6.13248246873678
30
0
41
1
10
2.02208722836036
20
-6.09510429612442
30
0
41
1
10
2.06364601655233
20
-6.01775197329934
30
0
41
1
10
2.09179487857267
20
-5.97777563418791
30
0
41
1
10
2.16235201726812
20
-5.89552844396943
30
0
41
1
10
2.20411687700692
20
-5.85403434166059
30
0
41
1
10
2.29793162941883
20
-5.77136913295061
30
0
41
1
10
2.35010472991107
20
-5.73006018131986
30
0
41
1
10
2.46353512484549
20
-5.64764257533122
30
0
41
1
10
2.5251318501268
20
-5.60632974166896
30
0
41
1
10
2.71916662610386
20
-5.48454651989272
30
0
41
1
10
2.86016868438935
20
-5.40639818917725
30
0
41
1
10
3.15860525003535
20
-5.25525295265572
30
0
41
1
10
3.31612595058837
20
-5.18226453020136
30
0
41
1
10
3.52101971044397
20
-5.09397299388462
30
0
41
1
10
3.5829745111694
20
-5.06775890046649
30
0
41
1
10
3.64561352851248
20
-5.04194085315959
30
0
41
1
10
3.68752044646555
20
-5.02481548924618
30
0
41
1
10
3.70821726314165
20
-5.01564368960916
30
0
41
1
10
3.77450038382182
20
-4.99546948161202
30
0
41
1
10
3.82435651971815
20
-4.9908966564671
30
0
41
1
10
3.89755992541882
20
-4.98985637413622
30
0
41
1
10
3.92197069468276
20
-4.99004465503438
30
0
41
1
10
3.97078346908032
20
-4.98993448163901
30
0
41
1
10
4.38571272391954
20
-4.98945003279371
30
0
41
1
10
4.80055528206503
20
-4.99668076382201
30
0
41
1
10
5.58007725724752
20
-5.02335696636999
30
0
41
1
10
5.96992100695905
20
-5.0432669455067
30
0
41
1
10
7.13323366371972
20
-5.12086779616652
30
0
41
1
10
7.89968370772422
20
-5.19645806611769
30
0
41
1
10
9.41584990486044
20
-5.38167715523096
30
0
41
1
10
10.1655106312826
20
-5.49136639360538
30
0
41
1
10
11.650091433008
20
-5.72571332745346
30
0
41
1
10
12.3853974412508
20
-5.85036633177441
30
0
41
1
10
13.8429376708298
20
-6.09092724301905
30
0
41
1
10
14.5610781653247
20
-6.20592464957974
30
0
41
1
10
15.2720656371082
20
-6.30440774725741
30
0
0
SPLINE
5
BC
100
AcDbEntity
8
1
62
256
6
ByLayer
370
18
48
1
60
0
100
AcDbSpline
70
4
71
3
72
32
73
28
40
0
40
0
40
0
40
0
40
0.052498417109433
40
0.052498417109433
40
0.138634924644939
40
0.138634924644939
40
0.224771432180445
40
0.224771432180445
40
0.267839685948198
40
0.267839685948198
40
0.310907939715951
40
0.310907939715951
40
0.397044447251457
40
0.397044447251457
40
0.483180954786963
40
0.483180954786963
40
0.569317462322469
40
0.569317462322469
40
0.655453969857975
40
0.655453969857975
40
0.741590477393482
40
0.741590477393482
40
0.827726984928988
40
0.827726984928988
40
0.913863492464494
40
0.913863492464494
40
1
40
1
40
1
40
1
41
1
10
39.5844327218556
20
6.30078882039422
30
0
41
1
10
39.8266058343504
20
6.29931802674287
30
0
41
1
10
40.0687846094661
20
6.29404986052987
30
0
41
1
10
40.7083127569705
20
6.2676653700743
30
0
41
1
10
41.1064428191897
20
6.24016094916024
30
0
41
1
10
41.9030563672438
20
6.16604883183015
30
0
41
1
10
42.3007399580079
20
6.11927589445466
30
0
41
1
10
42.896646502209
20
6.03600624093892
30
0
41
1
10
43.0952264077554
20
6.00626802153116
30
0
41
1
10
43.4924786535256
20
5.94148923428105
30
0
41
1
10
43.6911132577849
20
5.9062286157058
30
0
41
1
10
44.2871120173764
20
5.79289617890188
30
0
41
1
10
44.6845300063233
20
5.70785758101846
30
0
41
1
10
45.4800387963487
20
5.51872143700061
30
0
41
1
10
45.878827647795
20
5.41499275014996
30
0
41
1
10
46.6749601519702
20
5.19349771162447
30
0
41
1
10
47.0723170424978
20
5.07394671843613
30
0
41
1
10
47.8662955364111
20
4.81664735263251
30
0
41
1
10
48.2634822735839
20
4.68017219271758
30
0
41
1
10
49.0585628055771
20
4.39318501846932
30
0
41
1
10
49.4562727009127
20
4.24257965942954
30
0
41
1
10
50.2528597287664
20
3.92801183567192
30
0
41
1
10
50.6509151619149
20
3.76444398054522
30
0
41
1
10
51.4458413219841
20
3.4255703083567
30
0
41
1
10
51.842729265207
20
3.25026930112142
30
0
41
1
10
52.6364522716058
20
2.88851693698902
30
0
41
1
10
53.0337220082167
20
2.70298582665799
30
0
41
1
10
53.4313752837599
20
2.51337057215045
30
0
0
SPLINE
5
BD
100
AcDbEntity
8
1
62
256
6
ByLayer
370
18
48
1
60
0
100
AcDbSpline
70
4
71
3
72
8
73
4
40
0
40
0
40
0
40
0
40
1
40
1
40
1
40
1
41
1
10
61.9238457952324
20
-1.48897315864198
30
0
41
1
10
61.9539971240718
20
-1.03691073370248
30
0
41
1
10
61.9757603180406
20
-0.585274676957397
30
0
41
1
10
61.9891220806027
20
-0.134065664268604
30
0
0
SPLINE
5
BE
100
AcDbEntity
8
1
62
256
6
ByLayer
370
18
48
1
60
0
100
AcDbSpline
70
4
71
3
72
8
73
4
40
0
40
0
40
0
40
0
40
1
40
1
40
1
40
1
41
1
10
61.9504616433427
20
-0.0806885413024929
30
0
41
1
10
60.982472988576
20
-1.66453441953254
30
0
41
1
10
60.0758064565239
20
-3.30410207361558
30
0
41
1
10
59.2326304249964
20
-5.00136185058022
30
0
0
SPLINE
5
BF
100
AcDbEntity
8
1
62
256
6
ByLayer
370
18
48
1
60
0
100
AcDbSpline
70
4
71
3
72
8
73
4
40
0
40
0
40
0
40
0
40
1
40
1
40
1
40
1
41
1
10
60.0008896028841
20
-6.4663521025858
30
0
41
1
10
59.8717899110706
20
-6.56307586776765
30
0
41
1
10
59.7561768003892
20
-6.62253395490418
30
0
41
1
10
59.653258751276
20
-6.64239844280203
30
0
0
SPLINE
5
C0
100
AcDbEntity
8
1
62
256
6
ByLayer
370
18
48
1
60
0
100
AcDbSpline
70
4
71
3
72
10
73
6
40
0
40
0
40
0
40
0
40
0.567759820397108
40
0.567759820397108
40
1
40
1
40
1
40
1
41
1
10
3.99999985811022
20
6.57840745063441
30
0
41
1
10
3.84939957019614
20
6.59153029601416
30
0
41
1
10
3.70133385226183
20
6.60144429750824
30
0
41
1
10
3.44632734761603
20
6.61221482543547
30
0
41
1
10
3.33775382415391
20
6.61467046431753
30
0
41
1
10
3.23199724771121
20
6.61451833868273
30
0
0
SPLINE
5
C1
100
AcDbEntity
8
1
62
256
6
ByLayer
370
18
48
1
60
0
100
AcDbSpline
70
4
71
3
72
12
73
8
40
0
40
0
40
0
40
0
40
0.332387517689388
40
0.332387517689388
40
0.666193758844694
40
0.666193758844694
40
1
40
1
40
1
40
1
41
1
10
8.66743222927275
20
5.29024934626685
30
0
41
1
10
9.42222209873745
20
5.38260967979943
30
0
41
1
10
10.1686654698679
20
5.49186439731685
30
0
41
1
10
11.6500914330065
20
5.72571332745321
30
0
41
1
10
12.3853974412489
20
5.8503663317741
30
0
41
1
10
13.842937670829
20
6.09092724301894
30
0
41
1
10
14.5610781653244
20
6.20592464957969
30
0
41
1
10
15.2720656371083
20
6.30440774725741
30
0
0
SPLINE
5
C2
100
AcDbEntity
8
1
62
256
6
ByLayer
370
18
48
1
60
0
100
AcDbSpline
70
4
71
3
72
16
73
12
40
0
40
0
40
0
40
0
40
0.0582962794479962
40
0.0582962794479962
40
0.176988248660253
40
0.176988248660253
40
0.414372187084761
40
0.414372187084761
40
0.889140063933782
40
0.889140063933782
40
1
40
1
40
1
40
1
41
1
10
21.1422608104078
20
-6.2933288687328
30
0
41
1
10
20.9994051743618
20
-6.29295462364848
30
0
41
1
10
20.8564399424901
20
-6.29127321758128
30
0
41
1
10
20.422492448435
20
-6.28217695731124
30
0
41
1
10
20.132230142495
20
-6.27065611406536
30
0
41
1
10
19.2631987242271
20
-6.22004624354921
30
0
41
1
10
18.6862788072759
20
-6.16498456629938
30
0
41
1
10
16.9590544784031
20
-5.93880234771026
30
0
41
1
10
15.8118611328068
20
-5.70642205599725
30
0
41
1
10
14.3907545109889
20
-5.32767375138445
30
0
41
1
10
14.1214439516878
20
-5.25191393394326
30
0
41
1
10
13.8517266090161
20
-5.17220559154921
30
0
0
SPLINE
5
C3
100
AcDbEntity
8
1
62
256
6
ByLayer
370
13
48
1
60
0
100
AcDbSpline
70
4
71
3
72
14
73
10
40
0
40
0
40
0
40
0
40
0.0963299781034112
40
0.0963299781034112
40
0.277063982482729
40
0.277063982482729
40
0.638531991241365
40
0.638531991241365
40
1
40
1
40
1
40
1
41
1
10
13.8517266087828
20
-5.17220559148029
30
0
41
1
10
13.5438992826758
20
-5.0812347786092
30
0
41
1
10
13.2355420982152
20
-4.98512078860034
30
0
41
1
10
12.3466383814647
20
-4.69437206214067
30
0
41
1
10
11.7627902924924
20
-4.48662280637834
30
0
41
1
10
10.0224699773421
20
-3.82349076058986
30
0
41
1
10
8.8715283537735
20
-3.32590111422357
30
0
41
1
10
6.5670781318008
20
-2.25569033016572
30
0
41
1
10
5.41423063182032
20
-1.6820745604293
30
0
41
1
10
4.25022455513934
20
-1.08831603593487
30
0
0
SPLINE
5
C4
100
AcDbEntity
8
1
62
256
6
ByLayer
370
13
48
1
60
0
100
AcDbSpline
70
4
71
3
72
12
73
8
40
0
40
0
40
0
40
0
40
0.500000000000016
40
0.500000000000016
40
0.750000000000008
40
0.750000000000008
40
1
40
1
40
1
40
1
41
1
10
3.99999985810493
20
-0.965438221414701
30
0
41
1
10
3.99999985810496
20
-0.983804675893566
30
0
41
1
10
4.01164606798875
20
-1.00247077816149
30
0
41
1
10
4.04523061615075
20
-1.02640906615235
30
0
41
1
10
4.05935404820278
20
-1.03394840875435
30
0
41
1
10
4.09275123296601
20
-1.04725128567418
30
0
41
1
10
4.11173232359761
20
-1.05296615995132
30
0
41
1
10
4.1333771390992
20
-1.05761994093209
30
0
0
SPLINE
5
C5
100
AcDbEntity
8
1
62
256
6
ByLayer
370
18
48
1
60
0
100
AcDbSpline
70
4
71
3
72
18
73
14
40
0
40
0
40
0
40
0
40
0.25
40
0.25
40
0.375
40
0.375
40
0.5
40
0.5
40
0.75
40
0.75
40
0.875
40
0.875
40
1
40
1
40
1
40
1
41
1
10
59.2326304249964
20
-5.00136185058022
30
0
41
1
10
59.2326873139992
20
-5.22718510127044
30
0
41
1
10
59.2433022951161
20
-5.42506689835196
30
0
41
1
10
59.2755396502278
20
-5.68076784104827
30
0
41
1
10
59.2890252080887
20
-5.7591089718666
30
0
41
1
10
59.321817013705
20
-5.9016599367726
30
0
41
1
10
59.3410166104507
20
-5.96525251427914
30
0
41
1
10
59.4064666874617
20
-6.13159946302039
30
0
41
1
10
59.460725215827
20
-6.21110111814281
30
0
41
1
10
59.5592578061391
20
-6.28436340099645
30
0
41
1
10
59.595084810742
20
-6.30109615888108
30
0
41
1
10
59.6723805457388
20
-6.3187341364831
30
0
41
1
10
59.713691838965
20
-6.31965593625404
30
0
41
1
10
59.7577582461274
20
-6.31283092322812
30
0
0
SPLINE
5
C6
100
AcDbEntity
8
1
62
256
6
ByLayer
370
18
48
1
60
0
100
AcDbSpline
70
4
71
3
72
8
73
4
40
0
40
0
40
0
40
0
40
1
40
1
40
1
40
1
41
1
10
61.9891220806027
20
-0.134065664268519
30
0
41
1
10
61.9898574843285
20
-0.109232055115967
30
0
41
1
10
61.9939142327463
20
-0.0796275614191586
30
0
41
1
10
61.9999671062591
20
-0.0481962783585743
30
0
0
SPLINE
5
C7
100
AcDbEntity
8
1
62
256
6
ByLayer
370
18
48
1
60
0
100
AcDbSpline
70
4
71
3
72
8
73
4
40
0
40
0
40
0
40
0
40
1
40
1
40
1
40
1
41
1
10
61.9999671062591
20
0.0481962783584322
30
0
41
1
10
62.000010966659
20
0.0160639041386617
30
0
41
1
10
62.000010962314
20
-0.0160670873463573
30
0
41
1
10
61.9999671062591
20
-0.0481962783585175
30
0
0
SPLINE
5
C8
100
AcDbEntity
8
1
62
256
6
ByLayer
370
18
48
1
60
0
100
AcDbSpline
70
4
71
3
72
8
73
4
40
0
40
0
40
0
40
0
40
1
40
1
40
1
40
1
41
1
10
59.6532587512761
20
6.64239844280203
30
0
41
1
10
59.4623388002106
20
6.64721656870276
30
0
41
1
10
59.2714194700956
20
6.64955798504786
30
0
41
1
10
59.0804578924902
20
6.64942463763876
30
0
0
SPLINE
5
C9
100
AcDbEntity
8
1
62
256
6
ByLayer
370
18
48
1
60
0
100
AcDbSpline
70
4
71
3
72
34
73
30
40
0
40
0
40
0
40
0
40
0.0334514162295299
40
0.0334514162295299
40
0.0754752676978111
40
0.0754752676978111
40
0.159522970634374
40
0.159522970634374
40
0.201546822102656
40
0.201546822102656
40
0.243570673570938
40
0.243570673570938
40
0.327618376507501
40
0.327618376507501
40
0.411666079444064
40
0.411666079444064
40
0.495713782380626
40
0.495713782380626
40
0.579761485317189
40
0.579761485317189
40
0.663809188253752
40
0.663809188253752
40
0.747856891190314
40
0.747856891190314
40
0.789880742658595
40
0.789880742658595
40
0.831904594126876
40
0.831904594126876
40
1
40
1
40
1
40
1
41
1
10
24.7830303341211
20
-6.30419915468863
30
0
41
1
10
24.552414880709
20
-6.34295032963138
30
0
41
1
10
24.3216341396949
20
-6.37832632519402
30
0
41
1
10
23.801760294559
20
-6.4501939381465
30
0
41
1
10
23.5126303076397
20
-6.48468559940218
30
0
41
1
10
22.645603261182
20
-6.5714297218957
30
0
41
1
10
22.0681276846028
20
-6.60698241308123
30
0
41
1
10
21.2008155138546
20
-6.62649598967354
30
0
41
1
10
20.9115204334397
20
-6.62736280806004
30
0
41
1
10
20.3322032989452
20
-6.61775670034038
30
0
41
1
10
20.0422051924877
20
-6.6072702450455
30
0
41
1
10
19.1738945029823
20
-6.55898871369448
30
0
41
1
10
18.5962935728292
20
-6.50432909422784
30
0
41
1
10
17.4406522746711
20
-6.35120316420179
30
0
41
1
10
16.86254945744
20
-6.25278592492401
30
0
41
1
10
15.7032886391007
20
-6.01336584338114
30
0
41
1
10
15.1244952017378
20
-5.87267261484439
30
0
41
1
10
13.9685565131788
20
-5.55290475425716
30
0
41
1
10
13.3909347769232
20
-5.37373496054747
30
0
41
1
10
12.2338251560696
20
-4.97941307089349
30
0
41
1
10
11.6534355608442
20
-4.76396154229491
30
0
41
1
10
10.495819492711
20
-4.30336274068864
30
0
41
1
10
9.91801254617027
20
-4.05775983494823
30
0
41
1
10
9.05048260037938
20
-3.66972646466323
30
0
41
1
10
8.76115468449257
20
-3.53713635390309
30
0
41
1
10
8.18190887188209
20
-3.2658882389569
30
0
41
1
10
7.89177537328496
20
-3.12711982949776
30
0
41
1
10
6.44343357138288
20
-2.42177896188102
30
0
41
1
10
5.28988667369651
20
-1.81891714015754
30
0
41
1
10
4.13030940301729
20
-1.19688044072092
30
0
0
SPLINE
5
CA
100
AcDbEntity
8
1
62
256
6
ByLayer
370
18
48
1
60
0
100
AcDbSpline
70
4
71
3
72
42
73
38
40
0
40
0
40
0
40
0
40
0.0861578271097917
40
0.0861578271097917
40
0.147110723236149
40
0.147110723236149
40
0.208063619362507
40
0.208063619362507
40
0.329969411615221
40
0.329969411615221
40
0.390922307741579
40
0.390922307741579
40
0.451875203867936
40
0.451875203867936
40
0.573780996120651
40
0.573780996120651
40
0.577590552128549
40
0.577590552128549
40
0.581400108136446
40
0.581400108136446
40
0.585209664144343
40
0.585209664144343
40
0.589019220152241
40
0.589019220152241
40
0.60425744418383
40
0.60425744418383
40
0.634733892247009
40
0.634733892247009
40
0.695686788373366
40
0.695686788373366
40
0.817592580626082
40
0.817592580626082
40
0.878545476752439
40
0.878545476752439
40
0.939498372878797
40
0.939498372878797
40
1
40
1
40
1
40
1
41
1
10
15.2720656371082
20
6.30440774724931
30
0
41
1
10
15.2720656371085
20
6.00296822141917
30
0
41
1
10
15.2720656371089
20
5.70575752720589
30
0
41
1
10
15.2720656371089
20
5.20525688840101
30
0
41
1
10
15.2720656371089
20
4.99993753400057
30
0
41
1
10
15.2720656371089
20
4.59342718025923
30
0
41
1
10
15.2720656371089
20
4.3943846982238
30
0
41
1
10
15.2720656371089
20
3.81230918861482
30
0
41
1
10
15.2720656371089
20
3.44284052564942
30
0
41
1
10
15.2720656371089
20
2.91480413748334
30
0
41
1
10
15.2720656371089
20
2.74317476619177
30
0
41
1
10
15.2720656371089
20
2.40863402852375
30
0
41
1
10
15.2720656371089
20
2.24542263179419
30
0
41
1
10
15.2720656371089
20
1.77109795031925
30
0
41
1
10
15.2720656371089
20
1.47693308884263
30
0
41
1
10
15.2720656371089
20
1.19712595618927
30
0
41
1
10
15.2720656371089
20
1.18823162274816
30
0
41
1
10
15.2720656371089
20
1.17279189332288
30
0
41
1
10
15.2720656371089
20
1.16643605185121
30
0
41
1
10
15.2720656371089
20
1.15659785184206
30
0
41
1
10
15.2720656371089
20
1.15328756362203
30
0
41
1
10
15.2720656371089
20
1.14988627079899
30
0
41
1
10
15.2720656371089
20
1.15043433069209
30
0
41
1
10
15.2720656371089
20
1.15342339083639
30
0
41
1
10
15.2720656371089
20
1.15634784708314
30
0
41
1
10
15.2720656371089
20
1.16672039023609
30
0
41
1
10
15.2720656371089
20
1.17576720594704
30
0
41
1
10
15.2720656371089
20
1.20936168469115
30
0
41
1
10
15.2720656371089
20
1.24041663738149
30
0
41
1
10
15.2720656371089
20
1.35981402129752
30
0
41
1
10
15.2720656371089
20
1.47334719068152
30
0
41
1
10
15.2720656371089
20
1.69626737979081
30
0
41
1
10
15.2720656371089
20
1.77938848766783
30
0
41
1
10
15.2720656371089
20
1.9641659065723
30
0
41
1
10
15.2720656371089
20
2.06624964588252
30
0
41
1
10
15.2720656371089
20
2.28547192565915
30
0
41
1
10
15.2720656371089
20
2.40270608866308
30
0
41
1
10
15.2720656371089
20
2.52821031769193
30
0
0
SPLINE
5
CB
100
AcDbEntity
8
1
62
256
6
ByLayer
370
18
48
1
60
0
100
AcDbSpline
70
4
71
3
72
58
73
54
40
0
40
0
40
0
40
0
40
0.0448531064918152
40
0.0448531064918152
40
0.0897062129836304
40
0.0897062129836304
40
0.134559319475445
40
0.134559319475445
40
0.156985872721353
40
0.156985872721353
40
0.179412425967261
40
0.179412425967261
40
0.224265532459076
40
0.224265532459076
40
0.246692085704983
40
0.246692085704983
40
0.269118638950891
40
0.269118638950891
40
0.358824851934523
40
0.358824851934523
40
0.381251405180431
40
0.381251405180431
40
0.40367795842634
40
0.40367795842634
40
0.448531064918157
40
0.448531064918157
40
0.470957618164065
40
0.470957618164065
40
0.493384171409974
40
0.493384171409974
40
0.538237277901792
40
0.538237277901792
40
0.58309038439361
40
0.58309038439361
40
0.627943490885428
40
0.627943490885428
40
0.672796597377246
40
0.672796597377246
40
0.717649703869064
40
0.717649703869064
40
0.762502810360882
40
0.762502810360882
40
0.8073559168527
40
0.8073559168527
40
0.897062129836337
40
0.897062129836337
40
0.919488683082247
40
0.919488683082247
40
0.941915236328156
40
0.941915236328156
40
0.986768342819974
40
0.986768342819974
40
1
40
1
40
1
40
1
41
1
10
59.653258751276
20
-6.64239844280203
30
0
41
1
10
59.0746515205689
20
-6.65700038706745
30
0
41
1
10
58.4959864230808
20
-6.6488440708051
30
0
41
1
10
57.3376256368165
20
-6.5872282482502
30
0
41
1
10
56.7600048531076
20
-6.533889754185
30
0
41
1
10
55.6052848124409
20
-6.38334139123637
30
0
41
1
10
55.0280960201133
20
-6.28617102024705
30
0
41
1
10
54.1606407762694
20
-6.10851156352712
30
0
41
1
10
53.8709396192311
20
-6.0439191746583
30
0
41
1
10
53.2919565498011
20
-5.90461119840163
30
0
41
1
10
53.0028349368253
20
-5.82994509119121
30
0
41
1
10
52.1360733110239
20
-5.5914328139886
30
0
41
1
10
51.5590148849478
20
-5.4130916108715
30
0
41
1
10
50.6925916917819
20
-5.11869348496867
30
0
41
1
10
50.4036429252875
20
-5.01608144536132
30
0
41
1
10
49.8250956219043
20
-4.80229928788111
30
0
41
1
10
49.5352338314602
20
-4.69101680850326
30
0
41
1
10
48.0880981634449
20
-4.11592083306905
30
0
41
1
10
46.9359885365638
20
-3.59545262598084
30
0
41
1
10
45.4889428088864
20
-2.89028343103328
30
0
41
1
10
45.1990302640464
20
-2.74641693057703
30
0
41
1
10
44.620338019568
20
-2.4547688666745
30
0
41
1
10
44.3313212883819
20
-2.30687675000934
30
0
41
1
10
43.4647409762341
20
-1.85790826566966
30
0
41
1
10
42.887564391403
20
-1.55168450805459
30
0
41
1
10
42.0206504080086
20
-1.08547103576404
30
0
41
1
10
41.731483735086
20
-0.928927153499387
30
0
41
1
10
41.1524345742809
20
-0.614137986521456
30
0
41
1
10
40.8625881089957
20
-0.455908958499578
30
0
41
1
10
39.9947792176859
20
0.0186319878023369
30
0
41
1
10
39.4173632874515
20
0.335232694488752
30
0
41
1
10
38.2622572943416
20
0.96429873982089
30
0
41
1
10
37.684443464164
20
1.27653773568815
30
0
41
1
10
36.5257511656466
20
1.89177824345953
30
0
41
1
10
35.947153844586
20
2.19357377281497
30
0
41
1
10
34.7917505245236
20
2.77932201350151
30
0
41
1
10
34.2144573003112
20
3.06351570576089
30
0
41
1
10
33.0578928117039
20
3.60988391685652
30
0
41
1
10
32.4777296449405
20
3.87233691732209
30
0
41
1
10
31.3209281107989
20
4.36742768323703
30
0
41
1
10
30.7436298127856
20
4.60065641257199
30
0
41
1
10
29.5881692072207
20
5.03437923532755
30
0
41
1
10
29.009588995447
20
5.23495894850439
30
0
41
1
10
27.2709405261148
20
5.78176526311026
30
0
41
1
10
26.1184531673629
20
6.07036072337539
30
0
41
1
10
24.6714701639398
20
6.3244633088371
30
0
41
1
10
24.3815504646079
20
6.37003466338976
30
0
41
1
10
23.8022840628352
20
6.45013031096258
30
0
41
1
10
23.5130258281651
20
6.48464203114858
30
0
41
1
10
22.6457463459139
20
6.57142339474677
30
0
41
1
10
22.0682784336752
20
6.60697031993317
30
0
41
1
10
21.3197369166229
20
6.62382295166287
30
0
41
1
10
21.1491686772666
20
6.6257003867367
30
0
41
1
10
20.978513955475
20
6.62561070243217
30
0
0
SPLINE
5
CC
100
AcDbEntity
8
1
62
256
6
ByLayer
370
18
48
1
60
0
100
AcDbSpline
70
4
71
3
72
10
73
6
40
0
40
0
40
0
40
0
40
0.5
40
0.5
40
1
40
1
40
1
40
1
41
1
10
61.9999671062591
20
0.0481962783584038
30
0
41
1
10
61.9952274755246
20
0.0266004904365502
30
0
41
1
10
61.9884110600585
20
0.0031323306595539
30
0
41
1
10
61.9713423039953
20
-0.0418614586935462
30
0
41
1
10
61.9609766435058
20
-0.0634836499168614
30
0
41
1
10
61.9504616433427
20
-0.0806885413024645
30
0
0
SPLINE
5
CD
100
AcDbEntity
8
1
62
256
6
ByLayer
370
18
48
1
60
0
100
AcDbSpline
70
4
71
3
72
8
73
4
40
0
40
0
40
0
40
0
40
1
40
1
40
1
40
1
41
1
10
61.9891220806027
20
0.134065664268604
30
0
41
1
10
61.9898574843285
20
0.109232055115967
30
0
41
1
10
61.9939142327463
20
0.0796275614191018
30
0
41
1
10
61.9999671062591
20
0.0481962783584038
30
0
0
SPLINE
5
CE
100
AcDbEntity
8
1
62
256
6
ByLayer
370
18
48
1
60
0
100
AcDbSpline
70
4
71
3
72
30
73
26
40
0
40
0
40
0
40
0
40
0.0247705756207248
40
0.0247705756207248
40
0.0662623651829354
40
0.0662623651829354
40
0.149245944307357
40
0.149245944307357
40
0.315213102556199
40
0.315213102556199
40
0.398196681680621
40
0.398196681680621
40
0.481180260805042
40
0.481180260805042
40
0.564163839929463
40
0.564163839929463
40
0.605655629491673
40
0.605655629491673
40
0.647147419053883
40
0.647147419053883
40
0.813114577302721
40
0.813114577302721
40
0.979081735551559
40
0.979081735551559
40
1
40
1
40
1
40
1
41
1
10
28.8209466964458
20
5.10564982403062
30
0
41
1
10
28.9941823514826
20
5.05070348272645
30
0
41
1
10
29.1676459106795
20
4.99410464816361
30
0
41
1
10
29.632371528188
20
4.83836195358529
30
0
41
1
10
29.9240574264737
20
4.73629459865867
30
0
41
1
10
30.7977053111718
20
4.41842732537893
30
0
41
1
10
31.3797031974282
20
4.19069299851154
30
0
41
1
10
33.12857696079
20
3.46568822986592
30
0
41
1
10
34.2877428321399
20
2.92965691451312
30
0
41
1
10
36.0317660905915
20
2.07438780907205
30
0
41
1
10
36.6150928830343
20
1.78014753534353
30
0
41
1
10
37.7786652011254
20
1.18289018907609
30
0
41
1
10
38.3593120768511
20
0.879634046442987
30
0
41
1
10
39.5208785474384
20
0.268655907661071
30
0
41
1
10
40.1019813141127
20
-0.0386964154660063
30
0
41
1
10
40.9757163709711
20
-0.499510067368391
30
0
41
1
10
41.266946556355
20
-0.652813856441952
30
0
41
1
10
41.8473704467261
20
-0.956982876522005
30
0
41
1
10
42.1369061733807
20
-1.10802910547443
30
0
41
1
10
43.5820152011006
20
-1.85658228139042
30
0
41
1
10
44.7297993604589
20
-2.43428485459961
30
0
41
1
10
47.0292591212968
20
-3.51089759890863
30
0
41
1
10
48.1805638739837
20
-4.01049594535908
30
0
41
1
10
49.4905633082396
20
-4.50892682030459
30
0
41
1
10
49.6373899264669
20
-4.56380528061337
30
0
41
1
10
49.7841539689519
20
-4.61765089020543
30
0
0
SPLINE
5
CF
100
AcDbEntity
8
1
62
256
6
ByLayer
370
13
48
1
60
0
100
AcDbSpline
70
4
71
3
72
20
73
16
40
0
40
0
40
0
40
0
40
0.0431326875979361
40
0.0431326875979361
40
0.130120625089031
40
0.130120625089031
40
0.304096500071224
40
0.304096500071224
40
0.652048250035614
40
0.652048250035614
40
0.826024125017809
40
0.826024125017809
40
0.913012062508905
40
0.913012062508905
40
1
40
1
40
1
40
1
41
1
10
49.7841530299993
20
-4.6176505457172
30
0
41
1
10
49.9284986698532
20
-4.67060888251433
30
0
41
1
10
50.072783779777
20
-4.72256812737533
30
0
41
1
10
50.5071282203189
20
-4.87595366079981
30
0
41
1
10
50.7967840588694
20
-4.97417670475846
30
0
41
1
10
51.6641550488926
20
-5.25542225418963
30
0
41
1
10
52.2402665080282
20
-5.42504659411225
30
0
41
1
10
53.9658825604307
20
-5.87688726735263
30
0
41
1
10
55.1128118984794
20
-6.10151841636502
30
0
41
1
10
56.8427457500762
20
-6.31310820376814
30
0
41
1
10
57.4210352275078
20
-6.36274704855259
30
0
41
1
10
58.2928077619802
20
-6.40436301865432
30
0
41
1
10
58.5843448399856
20
-6.41274687282046
30
0
41
1
10
59.1666767456178
20
-6.41831680170608
30
0
41
1
10
59.4577374416016
20
-6.41552465784542
30
0
41
1
10
59.7488428126874
20
-6.40713018475071
30
0
0
SPLINE
5
D0
100
AcDbEntity
8
1
62
256
6
ByLayer
370
18
48
1
60
0
100
AcDbSpline
70
4
71
3
72
14
73
10
40
0
40
0
40
0
40
0
40
0.25
40
0.25
40
0.5
40
0.5
40
0.75
40
0.75
40
1
40
1
40
1
40
1
41
1
10
59.5657761131697
20
1.42887451948667
30
0
41
1
10
59.5648714473431
20
1.44900092502175
30
0
41
1
10
59.5694649645945
20
1.46931715488253
30
0
41
1
10
59.5901904545298
20
1.50441506351822
30
0
41
1
10
59.6062655107354
20
1.51901065848372
30
0
41
1
10
59.6422384330178
20
1.53972978352735
30
0
41
1
10
59.6624466125168
20
1.54642278032523
30
0
41
1
10
59.7030839418251
20
1.5542585652058
30
0
41
1
10
59.7239062692154
20
1.55553379692643
30
0
41
1
10
59.7446997210244
20
1.55483877835832
30
0
0
SPLINE
5
D1
100
AcDbEntity
8
1
62
256
6
ByLayer
370
18
48
1
60
0
100
AcDbSpline
70
4
71
3
72
14
73
10
40
0
40
0
40
0
40
0
40
0.25
40
0.25
40
0.5
40
0.5
40
0.75
40
0.75
40
1
40
1
40
1
40
1
41
1
10
59.7577582461113
20
-6.31283092323062
30
0
41
1
10
59.7611766856822
20
-6.31230147469836
30
0
41
1
10
59.7639595453111
20
-6.31344888626879
30
0
41
1
10
59.7678405501974
20
-6.32017272679138
30
0
41
1
10
59.7688857768644
20
-6.32582979215283
30
0
41
1
10
59.7680429586673
20
-6.34273869905792
30
0
41
1
10
59.7660737532962
20
-6.35403401333286
30
0
41
1
10
59.759127351118
20
-6.37970760481107
30
0
41
1
10
59.7542340065741
20
-6.39381082048811
30
0
41
1
10
59.7488428127854
20
-6.40713018474787
30
0
0
SPLINE
5
D2
100
AcDbEntity
8
1
62
256
6
ByLayer
370
18
48
1
60
0
100
AcDbSpline
70
4
71
3
72
92
73
88
40
0
40
0
40
0
40
0
40
0.0333828532115163
40
0.0333828532115163
40
0.0500742798172747
40
0.0500742798172747
40
0.0667657064230327
40
0.0667657064230327
40
0.100148559634549
40
0.100148559634549
40
0.116839986240307
40
0.116839986240307
40
0.133531412846065
40
0.133531412846065
40
0.166914266057581
40
0.166914266057581
40
0.200297119269097
40
0.200297119269097
40
0.216988545874855
40
0.216988545874855
40
0.233679972480613
40
0.233679972480613
40
0.267062825692129
40
0.267062825692129
40
0.283754252297887
40
0.283754252297887
40
0.300445678903645
40
0.300445678903645
40
0.317137105509403
40
0.317137105509403
40
0.333828532115161
40
0.333828532115161
40
0.367211385326677
40
0.367211385326677
40
0.400594238538193
40
0.400594238538193
40
0.417285665143951
40
0.417285665143951
40
0.433977091749709
40
0.433977091749709
40
0.450668518355467
40
0.450668518355467
40
0.467359944961225
40
0.467359944961225
40
0.484051371566983
40
0.484051371566983
40
0.500742798172741
40
0.500742798172741
40
0.534125651384258
40
0.534125651384258
40
0.567508504595775
40
0.567508504595775
40
0.600891357807292
40
0.600891357807292
40
0.61758278441305
40
0.61758278441305
40
0.634274211018809
40
0.634274211018809
40
0.650965637624568
40
0.650965637624568
40
0.667657064230327
40
0.667657064230327
40
0.701039917441844
40
0.701039917441844
40
0.734422770653362
40
0.734422770653362
40
0.767805623864879
40
0.767805623864879
40
0.784497050470638
40
0.784497050470638
40
0.801188477076397
40
0.801188477076397
40
0.817879903682155
40
0.817879903682155
40
0.834571330287914
40
0.834571330287914
40
0.867954183499432
40
0.867954183499432
40
0.901337036710951
40
0.901337036710951
40
0.934719889922469
40
0.934719889922469
40
0.968102743133987
40
0.968102743133987
40
0.984794169739747
40
0.984794169739747
40
1
40
1
40
1
40
1
41
1
10
15.2720656371082
20
6.30440774725741
30
0
41
1
10
15.7416399389896
20
6.38382258892705
30
0
41
1
10
16.2103709459638
20
6.44774462688309
30
0
41
1
10
16.9111891157788
20
6.52208565014016
30
0
41
1
10
17.1443745618207
20
6.54327097723103
30
0
41
1
10
17.609620749159
20
6.57848307493987
30
0
41
1
10
17.8418207966924
20
6.59244947009975
30
0
41
1
10
18.538710398254
20
6.6232412005748
30
0
41
1
10
19.0032767528491
20
6.62918336644881
30
0
41
1
10
19.6990234573374
20
6.61637869801962
30
0
41
1
10
19.9305875516687
20
6.60843562244841
30
0
41
1
10
20.3942740593738
20
6.58529998557293
30
0
41
1
10
20.6264036159155
20
6.57013338495136
30
0
41
1
10
21.3234697347151
20
6.51389554503953
30
0
41
1
10
21.7888679251462
20
6.46206396660983
30
0
41
1
10
22.7208304067056
20
6.32877414359044
30
0
41
1
10
23.1889849035951
20
6.24812332932839
30
0
41
1
10
23.8941299247708
20
6.10578177044047
30
0
41
1
10
24.1294257668288
20
6.0547673358121
30
0
41
1
10
24.5978562789234
20
5.9458972977352
30
0
41
1
10
24.8315391600638
20
5.88813572578371
30
0
41
1
10
25.5321952072717
20
5.70609967125023
30
0
41
1
10
25.9984171654828
20
5.57285871988023
30
0
41
1
10
26.6952891132293
20
5.35422631789206
30
0
41
1
10
26.927060187191
20
5.27806682163273
30
0
41
1
10
27.390902703974
20
5.12070242414006
30
0
41
1
10
27.6228983782327
20
5.03942891618848
30
0
41
1
10
28.0869040582084
20
4.87160458884998
30
0
41
1
10
28.3189106187783
20
4.78504991990513
30
0
41
1
10
28.7827599037923
20
4.60641307858629
30
0
41
1
10
29.0144504673223
20
4.51411773505808
30
0
41
1
10
29.7099814635491
20
4.22976432774996
30
0
41
1
10
30.1751192835743
20
4.03150280894084
30
0
41
1
10
31.1073808022804
20
3.61630175526221
30
0
41
1
10
31.5737484304284
20
3.3980186594394
30
0
41
1
10
32.2775074643859
20
3.06048652499393
30
0
41
1
10
32.5130547944629
20
2.94603223326914
30
0
41
1
10
32.9827131967223
20
2.71451569754285
30
0
41
1
10
33.2170252415468
20
2.59740075059909
30
0
41
1
10
33.6843083803404
20
2.35990801285959
30
0
41
1
10
33.9172980919516
20
2.23956041980193
30
0
41
1
10
34.3832044150954
20
1.99789306521143
30
0
41
1
10
34.6160129849005
20
1.87638059073319
30
0
41
1
10
35.0812003347651
20
1.63175618223022
30
0
41
1
10
35.3135796391973
20
1.50864526935229
30
0
41
1
10
35.7777201498592
20
1.26047893485281
30
0
41
1
10
36.009311875605
20
1.13511001970133
30
0
41
1
10
36.7042781661385
20
0.758133012289136
30
0
41
1
10
37.1682367512812
20
0.50639747456168
30
0
41
1
10
38.0962834149137
20
-4.10560508897E-05
30
0
41
1
10
38.5597089811684
20
-0.256009078295676
30
0
41
1
10
39.4907003185032
20
-0.763437929464629
30
0
41
1
10
39.9578749681727
20
-1.0156107175325
30
0
41
1
10
40.6599080443463
20
-1.3940105470528
30
0
41
1
10
40.8943920029265
20
-1.52004997151235
30
0
41
1
10
41.3643641712528
20
-1.76945217777239
30
0
41
1
10
41.598977309788
20
-1.89262610031918
30
0
41
1
10
42.0673201072174
20
-2.13626982751609
30
0
41
1
10
42.3010557404955
20
-2.25672910528962
30
0
41
1
10
42.7674366116501
20
-2.49533116192851
30
0
41
1
10
42.9999328721739
20
-2.61372454093225
30
0
41
1
10
43.6972838732767
20
-2.96278129441868
30
0
41
1
10
44.1619626407094
20
-3.18748797282021
30
0
41
1
10
45.0896708947515
20
-3.62321652063642
30
0
41
1
10
45.5521543445221
20
-3.83498097196687
30
0
41
1
10
46.479749767279
20
-4.23802895319446
30
0
41
1
10
46.9443158907375
20
-4.43026355222059
30
0
41
1
10
47.6411187414911
20
-4.70611902307172
30
0
41
1
10
47.8735821623224
20
-4.79568905259319
30
0
41
1
10
48.3397082411273
20
-4.96899706226182
30
0
41
1
10
48.573267660439
20
-5.05287928100904
30
0
41
1
10
49.0412232808376
20
-5.21528304272667
30
0
41
1
10
49.2756304494682
20
-5.29379233050454
30
0
41
1
10
49.7450639034736
20
-5.44561628293516
30
0
41
1
10
49.9798214910461
20
-5.51894267035669
30
0
41
1
10
50.6824211552968
20
-5.72782560654565
30
0
41
1
10
51.1497032199179
20
-5.85322592495041
30
0
41
1
10
52.080836752796
20
-6.07820789275141
30
0
41
1
10
52.5442978782111
20
-6.17788212701535
30
0
41
1
10
53.4722774259487
20
-6.3481297860038
30
0
41
1
10
53.9360993164494
20
-6.41936392774963
30
0
41
1
10
54.8621466488102
20
-6.53434294174178
30
0
41
1
10
55.325949882717
20
-6.5773659163977
30
0
41
1
10
56.0232308564911
20
-6.62026606693035
30
0
41
1
10
56.255868811571
20
-6.63097279873494
30
0
41
1
10
56.7005599135548
20
-6.64448293658234
30
0
41
1
10
56.9126045211081
20
-6.64788124973731
30
0
41
1
10
57.1251787942593
20
-6.64819442078988
30
0
0
SPLINE
5
D3
100
AcDbEntity
8
1
62
256
6
ByLayer
370
18
48
1
60
0
100
AcDbSpline
70
4
71
3
72
8
73
4
40
0
40
0
40
0
40
0
40
1
40
1
40
1
40
1
41
1
10
3.99999985810493
20
-6.57840745063368
30
0
41
1
10
3.99999985810493
20
-6.55353934124622
30
0
41
1
10
3.99999985810496
20
-6.52891365400919
30
0
41
1
10
3.99999985810496
20
-6.50453045102913
30
0
0
SPLINE
5
D4
100
AcDbEntity
8
1
62
256
6
ByLayer
370
18
48
1
60
0
100
AcDbSpline
70
4
71
3
72
8
73
4
40
0
40
0
40
0
40
0
40
1
40
1
40
1
40
1
41
1
10
60.0008896028841
20
6.46635210258569
30
0
41
1
10
59.8717899110706
20
6.56307586776759
30
0
41
1
10
59.7561768003893
20
6.62253395490418
30
0
41
1
10
59.6532587512761
20
6.64239844280203
30
0
0
SPLINE
5
D5
100
AcDbEntity
8
1
62
256
6
ByLayer
370
18
48
1
60
0
100
AcDbSpline
70
4
71
3
72
26
73
22
40
0
40
0
40
0
40
0
40
0.25
40
0.25
40
0.375
40
0.375
40
0.4375
40
0.4375
40
0.5
40
0.5
40
0.625
40
0.625
40
0.75
40
0.75
40
0.8125
40
0.8125
40
0.875
40
0.875
40
0.9375
40
0.9375
40
1
40
1
40
1
40
1
41
1
10
15.2720656371089
20
2.52821031769199
30
0
41
1
10
14.3044794561244
20
2.97037488116771
30
0
41
1
10
13.3550421304188
20
3.4155670832393
30
0
41
1
10
11.9368031701052
20
4.0415216106926
30
0
41
1
10
11.4677339618175
20
4.24194617653404
30
0
41
1
10
10.7682742991693
20
4.52450403583387
30
0
41
1
10
10.5357832359017
20
4.61577545449728
30
0
41
1
10
10.071793421945
20
4.7936251299468
30
0
41
1
10
9.84032012894409
20
4.87988398854486
30
0
41
1
10
9.14727211478328
20
5.12985214140159
30
0
41
1
10
8.68701702154982
20
5.28483080875134
30
0
41
1
10
7.77002196539226
20
5.56719055456853
30
0
41
1
10
7.31332669091782
20
5.69360561614113
30
0
41
1
10
6.63203001979952
20
5.86201761323423
30
0
41
1
10
6.40586937505276
20
5.91431811568162
30
0
41
1
10
5.95887064325831
20
6.00991472394239
30
0
41
1
10
5.73762741124111
20
6.05336036439004
30
0
41
1
10
5.3007743931808
20
6.13062402431089
30
0
41
1
10
5.08516261325474
20
6.16443141307133
30
0
41
1
10
4.66145188190933
20
6.22070318236271
30
0
41
1
10
4.45332583137753
20
6.24319529743886
30
0
41
1
10
4.25051000530735
20
6.25863305002375
30
0
0
SPLINE
5
D6
100
AcDbEntity
8
1
62
256
6
ByLayer
370
18
48
1
60
0
100
AcDbSpline
70
4
71
3
72
18
73
14
40
0
40
0
40
0
40
0
40
0.152189275729394
40
0.152189275729394
40
0.304378551458789
40
0.304378551458789
40
0.456567827188183
40
0.456567827188183
40
0.608757102917578
40
0.608757102917578
40
0.913135654376363
40
0.913135654376363
40
1
40
1
40
1
40
1
41
1
10
4.25051000543027
20
-6.25863305001442
30
0
41
1
10
4.45328475957857
20
-6.24319842370241
30
0
41
1
10
4.66140642296361
20
-6.2207089173057
30
0
41
1
10
5.08517113807443
20
-6.16443058321403
30
0
41
1
10
5.30084125100686
20
-6.13061422093205
30
0
41
1
10
5.73786496096238
20
-6.05331632756278
30
0
41
1
10
5.95922043435456
20
-6.00984556716577
30
0
41
1
10
6.40649201590367
20
-5.91417929268795
30
0
41
1
10
6.63284045794055
20
-5.86182351753038
30
0
41
1
10
7.31352502345973
20
-5.69354408620322
30
0
41
1
10
7.76993085828877
20
-5.56721357335781
30
0
41
1
10
8.35905952599967
20
-5.38581642514609
30
0
41
1
10
8.4900111841344
20
-5.34441636562306
30
0
41
1
10
8.62111541385636
20
-5.30193955655744
30
0
0
SPLINE
5
D7
100
AcDbEntity
8
1
62
256
6
ByLayer
370
18
48
1
60
0
100
AcDbSpline
70
4
71
3
72
16
73
12
40
0
40
0
40
0
40
0
40
0.108283727817908
40
0.108283727817908
40
0.216567455635815
40
0.216567455635815
40
0.433134911271631
40
0.433134911271631
40
0.866269822543261
40
0.866269822543261
40
1
40
1
40
1
40
1
41
1
10
59.7577582462047
20
-6.3128309232288
30
0
41
1
10
59.4668682051861
20
-6.31850835945698
30
0
41
1
10
59.1760229881261
20
-6.31868710624363
30
0
41
1
10
58.5941301029775
20
-6.30809492316698
30
0
41
1
10
58.302864863528
20
-6.29730132257723
30
0
41
1
10
57.431943008651
20
-6.24880045414662
30
0
41
1
10
56.8541340708336
20
-6.19501191600992
30
0
41
1
10
55.1254250314261
20
-5.97226426584834
30
0
41
1
10
53.9789827570648
20
-5.74197275259277
30
0
41
1
10
52.4741001592147
20
-5.34281305611509
30
0
41
1
10
52.1187297712626
20
-5.24158445988419
30
0
41
1
10
51.7627297833261
20
-5.13356687955365
30
0
0
SPLINE
5
D8
100
AcDbEntity
8
1
62
256
6
ByLayer
370
13
48
1
60
0
100
AcDbSpline
70
4
71
3
72
26
73
22
40
0
40
0
40
0
40
0
40
0.0423045272912915
40
0.0423045272912915
40
0.0976044403918755
40
0.0976044403918755
40
0.15290435349246
40
0.15290435349246
40
0.374104005894798
40
0.374104005894798
40
0.595303658297137
40
0.595303658297137
40
0.650603571397719
40
0.650603571397719
40
0.705903484498302
40
0.705903484498302
40
0.816503310699469
40
0.816503310699469
40
0.927103136900635
40
0.927103136900635
40
1
40
1
40
1
40
1
41
1
10
51.7627294416195
20
-5.13356677587296
30
0
41
1
10
51.5422103681053
20
-5.06665683633378
30
0
41
1
10
51.321449716736
20
-4.99714196032028
30
0
41
1
10
50.8114034338305
20
-4.83089786195791
30
0
41
1
10
50.5219014790765
20
-4.73236273567676
30
0
41
1
10
49.941495330663
20
-4.52692459545924
30
0
41
1
10
49.6500751531377
20
-4.41981180105836
30
0
41
1
10
48.1972709941169
20
-3.86710575615098
30
0
41
1
10
47.0466970779098
20
-3.36990775363304
30
0
41
1
10
44.748449422564
20
-2.30171876033728
30
0
41
1
10
43.6011368085172
20
-1.73005830709798
30
0
41
1
10
42.1567852940272
20
-0.991250191403225
30
0
41
1
10
41.8674133417401
20
-0.842258348911798
30
0
41
1
10
41.2873448235941
20
-0.542408962867796
30
0
41
1
10
40.9962894181784
20
-0.391363832086085
30
0
41
1
10
40.1233534606054
20
0.0622523933654406
30
0
41
1
10
39.5426928253286
20
0.364407791445416
30
0
41
1
10
38.3819996734616
20
0.964496159707068
30
0
41
1
10
37.8017851324026
20
1.26204975640994
30
0
41
1
10
36.8372765666747
20
1.74760097593318
30
0
41
1
10
36.4534710211388
20
1.93843545458495
30
0
41
1
10
36.0700049210978
20
2.12591707354704
30
0
0
SPLINE
5
D9
100
AcDbEntity
8
1
62
256
6
ByLayer
370
18
48
1
60
0
100
AcDbSpline
70
4
71
3
72
70
73
66
40
0
40
0
40
0
40
0
40
0.0127785887075984
40
0.0127785887075984
40
0.0493423446813893
40
0.0493423446813893
40
0.0859061006551803
40
0.0859061006551803
40
0.122469856628971
40
0.122469856628971
40
0.140751734615867
40
0.140751734615867
40
0.159033612602763
40
0.159033612602763
40
0.195597368576556
40
0.195597368576556
40
0.232161124550349
40
0.232161124550349
40
0.268724880524142
40
0.268724880524142
40
0.305288636497935
40
0.305288636497935
40
0.341852392471728
40
0.341852392471728
40
0.378416148445521
40
0.378416148445521
40
0.414979904419314
40
0.414979904419314
40
0.451543660393107
40
0.451543660393107
40
0.4881074163669
40
0.4881074163669
40
0.506389294353796
40
0.506389294353796
40
0.524671172340693
40
0.524671172340693
40
0.561234928314486
40
0.561234928314486
40
0.597798684288279
40
0.597798684288279
40
0.634362440262072
40
0.634362440262072
40
0.670926196235865
40
0.670926196235865
40
0.707489952209657
40
0.707489952209657
40
0.725771830196554
40
0.725771830196554
40
0.74405370818345
40
0.74405370818345
40
0.780617464157243
40
0.780617464157243
40
0.817181220131036
40
0.817181220131036
40
0.853744976104829
40
0.853744976104829
40
0.872026854091725
40
0.872026854091725
40
0.890308732078621
40
0.890308732078621
40
0.926872488052414
40
0.926872488052414
40
0.963436244026207
40
0.963436244026207
40
1
40
1
40
1
40
1
41
1
10
47.8866506861274
20
-4.80722971651269
30
0
41
1
10
47.7477804436369
20
-4.85409727300279
30
0
41
1
10
47.6088886591374
20
-4.90006027067369
30
0
41
1
10
47.0724674250413
20
-5.07390719273161
30
0
41
1
10
46.6737147369803
20
-5.19386118420786
30
0
41
1
10
45.877596991044
20
-5.41531810196071
30
0
41
1
10
45.4801955089836
20
-5.51866969469077
30
0
41
1
10
44.6861916237651
20
-5.70747697323984
30
0
41
1
10
44.2891139010066
20
-5.79248286256407
30
0
41
1
10
43.6930199229298
20
-5.90588225729209
30
0
41
1
10
43.4942462025698
20
-5.94118692100918
30
0
41
1
10
43.0964714623445
20
-6.00607897190056
30
0
41
1
10
42.8975161347393
20
-6.03588168701805
30
0
41
1
10
42.3002356504753
20
-6.11935242475093
30
0
41
1
10
41.9017106316031
20
-6.16618652978153
30
0
41
1
10
41.1062521602521
20
-6.24016616392478
30
0
41
1
10
40.7092487847818
20
-6.26760291286826
30
0
41
1
10
39.9151676097781
20
-6.30041127716623
30
0
41
1
10
39.5176317479979
20
-6.30413434306436
30
0
41
1
10
38.7219424509443
20
-6.29425199117043
30
0
41
1
10
38.3238166334302
20
-6.2804497348568
30
0
41
1
10
37.5274757666315
20
-6.23319952402142
30
0
41
1
10
37.1297838157978
20
-6.2000487569577
30
0
41
1
10
36.335019852952
20
-6.11227734324376
30
0
41
1
10
35.9381391492084
20
-6.05655291757185
30
0
41
1
10
35.1439173598824
20
-5.92871617747704
30
0
41
1
10
34.7463309174265
20
-5.8546208803098
30
0
41
1
10
33.9502257062345
20
-5.68778850430525
30
0
41
1
10
33.551759290864
20
-5.59539258149283
30
0
41
1
10
32.7561663814079
20
-5.39422021539878
30
0
41
1
10
32.3586947698277
20
-5.28534829337235
30
0
41
1
10
31.7629022487655
20
-5.10890066173019
30
0
41
1
10
31.5643983920753
20
-5.04773334228261
30
0
41
1
10
31.1673228842298
20
-4.92042306046608
30
0
41
1
10
30.9687101341895
20
-4.85458870491615
30
0
41
1
10
30.3725361654344
20
-4.65230157698795
30
0
41
1
10
29.9746890080988
20
-4.51100325733631
30
0
41
1
10
29.1781558020307
20
-4.21342391976174
30
0
41
1
10
28.7802988983669
20
-4.05723692981854
30
0
41
1
10
27.985417068477
20
-3.73333490677888
30
0
41
1
10
27.587946467342
20
-3.56419292340112
30
0
41
1
10
26.7936231796134
20
-3.21637204224521
30
0
41
1
10
26.3968256196208
20
-3.03693965061703
30
0
41
1
10
25.6018363829428
20
-2.66965543541792
30
0
41
1
10
25.2033170081568
20
-2.48147493989708
30
0
41
1
10
24.6062997582137
20
-2.19270713393436
30
0
41
1
10
24.4075699119503
20
-2.09528378310071
30
0
41
1
10
24.0102424038764
20
-1.89925174582697
30
0
41
1
10
23.8116544190953
20
-1.80068885668138
30
0
41
1
10
23.2160387594533
20
-1.50333436079546
30
0
41
1
10
22.8190683556896
20
-1.30294689366309
30
0
41
1
10
22.0257094075183
20
-0.897360912986471
30
0
41
1
10
21.6291645901437
20
-0.692456601181533
30
0
41
1
10
20.8344435384953
20
-0.281757076556175
30
0
41
1
10
20.4360319545237
20
-0.0754628525142493
30
0
41
1
10
19.8390723446695
20
0.234537288376401
30
0
41
1
10
19.6403449009056
20
0.337815868532147
30
0
41
1
10
19.2429796605201
20
0.543316192341422
30
0
41
1
10
19.0443584255209
20
0.645546359461775
30
0
41
1
10
18.4487026376558
20
0.9514423774921
30
0
41
1
10
18.0519034689646
20
1.15420759505235
30
0
41
1
10
17.2590502505721
20
1.55690981120284
30
0
41
1
10
16.8626690939693
20
1.7562816379828
30
0
41
1
10
16.0684630898835
20
2.14769413262113
30
0
41
1
10
15.6705052966672
20
2.33938491004301
30
0
41
1
10
15.2720656371089
20
2.52821031769199
30
0
0
SPLINE
5
DA
100
AcDbEntity
8
1
62
256
6
ByLayer
370
18
48
1
60
0
100
AcDbSpline
70
4
71
3
72
12
73
8
40
0
40
0
40
0
40
0
40
0.443212608288069
40
0.443212608288069
40
0.886425216576138
40
0.886425216576138
40
1
40
1
40
1
40
1
41
1
10
4.20358526769695
20
-1.19258683499172
30
0
41
1
10
5.36884546663401
20
-1.79483938986544
30
0
41
1
10
6.52258991934951
20
-2.37524495994012
30
0
41
1
10
8.82866680556819
20
-3.45542326051495
30
0
41
1
10
9.98033383667729
20
-3.95623987148801
30
0
41
1
10
11.439010546534
20
-4.5133033161537
30
0
41
1
10
11.7375566684732
20
-4.62331984749281
30
0
41
1
10
12.036036096123
20
-4.72906953584453
30
0
0
SPLINE
5
DB
100
AcDbEntity
8
1
62
256
6
ByLayer
370
13
48
1
60
0
100
AcDbSpline
70
4
71
3
72
20
73
16
40
0
40
0
40
0
40
0
40
0.0766856515267063
40
0.0766856515267063
40
0.233991882615599
40
0.233991882615599
40
0.548604344793384
40
0.548604344793384
40
0.705910575882277
40
0.705910575882277
40
0.784563691426724
40
0.784563691426724
40
0.86321680697117
40
0.86321680697117
40
1
40
1
40
1
40
1
41
1
10
12.0360364744049
20
-4.72906966986784
30
0
41
1
10
12.3199478425223
20
-4.8296579680848
30
0
41
1
10
12.6037988674382
20
-4.92638576726401
30
0
41
1
10
13.4669268906527
20
-5.20804003722455
30
0
41
1
10
14.0446553998553
20
-5.37937757467034
30
0
41
1
10
15.7737156026936
20
-5.83607964048718
30
0
41
1
10
16.9214268881904
20
-6.06399108013036
30
0
41
1
10
18.6496543024645
20
-6.28096588579373
30
0
41
1
10
19.2269172380022
20
-6.33251517832429
30
0
41
1
10
20.096612656153
20
-6.37721166213259
30
0
41
1
10
20.3871155380596
20
-6.38666371586271
30
0
41
1
10
20.9696670135846
20
-6.39452691592285
30
0
41
1
10
21.261014961314
20
-6.39291268236863
30
0
41
1
10
22.0561193495984
20
-6.37351977345716
30
0
41
1
10
22.5588895170572
20
-6.34463887959288
30
0
41
1
10
23.060480662801
20
-6.29971957751744
30
0
0
SPLINE
5
DC
100
AcDbEntity
8
1
62
256
6
ByLayer
370
18
48
1
60
0
100
AcDbSpline
70
4
71
3
72
12
73
8
40
0
40
0
40
0
40
0
40
0.24999999999999
40
0.24999999999999
40
0.49999999999998
40
0.49999999999998
40
1
40
1
40
1
40
1
41
1
10
4.13030940301726
20
-1.19688044072089
30
0
41
1
10
4.11052941197912
20
-1.18626978056795
30
0
41
1
10
4.09262863792725
20
-1.17331191498741
30
0
41
1
10
4.06048110895196
20
-1.14281719855808
30
0
41
1
10
4.04642459624705
20
-1.1253188073384
30
0
41
1
10
4.01237743899986
20
-1.06881442866271
30
0
41
1
10
3.9999998581047
20
-1.02490470339211
30
0
41
1
10
3.99999985810473
20
-0.980342608299196
30
0
0
SPLINE
5
DD
100
AcDbEntity
8
1
62
256
6
ByLayer
370
18
48
1
60
0
100
AcDbSpline
70
4
71
3
72
14
73
10
40
0
40
0
40
0
40
0
40
0.25
40
0.25
40
0.5
40
0.5
40
0.75
40
0.75
40
1
40
1
40
1
40
1
41
1
10
60.0008896028782
20
-6.46635210260379
30
0
41
1
10
60.1487436737401
20
-6.04826117741993
30
0
41
1
10
60.3003388974566
20
-5.63084341205249
30
0
41
1
10
60.6099347330355
20
-4.79734838857044
30
0
41
1
10
60.7679659302615
20
-4.38127651080447
30
0
41
1
10
61.0897906215494
20
-3.55048418886253
30
0
41
1
10
61.2537802624816
20
-3.13548452856242
30
0
41
1
10
61.5857370764835
20
-2.30973526713603
30
0
41
1
10
61.7538264344379
20
-1.89862477264325
30
0
41
1
10
61.9238457952324
20
-1.48897315864204
30
0
0
SPLINE
5
DE
100
AcDbEntity
8
1
62
256
6
ByLayer
370
18
48
1
60
0
100
AcDbSpline
70
4
71
3
72
12
73
8
40
0
40
0
40
0
40
0
40
0.499999999999997
40
0.499999999999997
40
0.749999999999999
40
0.749999999999999
40
1
40
1
40
1
40
1
41
1
10
3.99999985810493
20
-0.965438221414701
30
0
41
1
10
3.9999998581049
20
-1.00337407954149
30
0
41
1
10
4.01166727447716
20
-1.04234503610249
30
0
41
1
10
4.04524989254304
20
-1.09284117621453
30
0
41
1
10
4.05936747675327
20
-1.10883496787602
30
0
41
1
10
4.09275181990961
20
-1.13718188627169
30
0
41
1
10
4.1117275840989
20
-1.14942929376627
30
0
41
1
10
4.1333771390992
20
-1.15943299388317
30
0
0
SPLINE
5
DF
100
AcDbEntity
8
1
62
256
6
ByLayer
370
13
48
1
60
0
100
AcDbSpline
70
4
71
3
72
8
73
4
40
0
40
0
40
0
40
0
40
1
40
1
40
1
40
1
41
1
10
4.13030940301726
20
-1.19688044072089
30
0
41
1
10
4.13132057751784
20
-1.18440985108589
30
0
41
1
10
4.13234314255877
20
-1.17192756183701
30
0
41
1
10
4.1333771390992
20
-1.15943299388317
30
0
0
SPLINE
5
E0
100
AcDbEntity
8
1
62
256
6
ByLayer
370
18
48
1
60
0
100
AcDbSpline
70
4
71
3
72
8
73
4
40
0
40
0
40
0
40
0
40
1
40
1
40
1
40
1
41
1
10
59.7488428127679
20
-6.4071301847911
30
0
41
1
10
59.7170444286757
20
-6.48569056996612
30
0
41
1
10
59.685181392035
20
-6.5641124678011
30
0
41
1
10
59.6532587512761
20
-6.64239844280206
30
0
0
SPLINE
5
E1
100
AcDbEntity
8
1
62
256
6
ByLayer
370
18
48
1
60
0
100
AcDbSpline
70
4
71
3
72
35
73
31
40
0
40
0
40
0
40
0
40
0.0333688342971585
40
0.061440068592454
40
0.0827129822002298
40
0.103666104516685
40
0.125204394053152
40
0.147398182281963
40
0.171185469266874
40
0.207638409443726
40
0.247445360101858
40
0.287168240192001
40
0.322117678365682
40
0.377380268575392
40
0.438976824237725
40
0.490994759064271
40
0.542130438656436
40
0.583318683702174
40
0.620857886430234
40
0.661028259317321
40
0.704238336733745
40
0.753686496872486
40
0.814574117779494
40
0.850423834036873
40
0.882735908001822
40
0.906533452836765
40
0.926738157838066
40
0.950530985123407
40
0.977677147001459
40
1
40
1
40
1
40
1
41
1
10
21.1615196291182
20
-6.29319328190323
30
0
41
1
10
21.359059070645
20
-6.29265175905863
30
0
41
1
10
21.7259146075686
20
-6.29215574011999
30
0
41
1
10
22.2390109197756
20
-6.2897423150369
30
0
41
1
10
22.6633012718958
20
-6.29300234526011
30
0
41
1
10
23.0499106857866
20
-6.29400143389131
30
0
41
1
10
23.4461211157358
20
-6.29445682805283
30
0
41
1
10
23.8614710079669
20
-6.29459026986763
30
0
41
1
10
24.368885136047
20
-6.29514597990791
30
0
41
1
10
24.9847819228331
20
-6.29584041913887
30
0
41
1
10
25.6987431605998
20
-6.29549720203457
30
0
41
1
10
26.4034559810717
20
-6.29526561618036
30
0
41
1
10
27.2033328626224
20
-6.29498324945681
30
0
41
1
10
28.1378304621609
20
-6.2983723674472
30
0
41
1
10
29.1774265228721
20
-6.29674461770941
30
0
41
1
10
30.1916065421972
20
-6.29599394506303
30
0
41
1
10
31.0801509428944
20
-6.29826924496246
30
0
41
1
10
31.8795813502907
20
-6.30009837587593
30
0
41
1
10
32.6115052019504
20
-6.29854579013414
30
0
41
1
10
33.3558764832425
20
-6.29773992486602
30
0
41
1
10
34.1735582062674
20
-6.29774027336001
30
0
41
1
10
35.1187650031186
20
-6.30072604107474
30
0
41
1
10
36.0187031891589
20
-6.30103405879865
30
0
41
1
10
36.8130500695561
20
-6.30227792708899
30
0
41
1
10
37.3793111395857
20
-6.30078116516717
30
0
41
1
10
37.8483900094247
20
-6.29992699643628
30
0
41
1
10
38.2659751633147
20
-6.29930606266456
30
0
41
1
10
38.7031686459371
20
-6.29961755587658
30
0
41
1
10
39.144240582293
20
-6.29952302684222
30
0
41
1
10
39.4484445238505
20
-6.3003961283228
30
0
41
1
10
39.5861223280227
20
-6.30089365175135
30
0
0
SPLINE
5
E2
100
AcDbEntity
8
1
62
256
6
ByLayer
370
18
48
1
60
0
100
AcDbSpline
70
4
71
2
72
6
73
3
40
0
40
0
40
0
40
1
40
1
40
1
41
1
10
59.2685377525378
20
-6.31703067234395
30
0
41
1
10
59.4716418175108
20
-6.31768415231912
30
0
41
1
10
59.6718116619509
20
-6.31563207145072
30
0
0
SPLINE
5
E3
100
AcDbEntity
8
1
62
256
6
ByLayer
370
18
48
1
60
0
100
AcDbSpline
70
4
71
3
72
28
73
24
40
0
40
0
40
0
40
0
40
0.0365880821229495
40
0.0715740988435982
40
0.101254444396662
40
0.128056635356581
40
0.162242606941941
40
0.20598255524893
40
0.249273170939159
40
0.28940924972996
40
0.325525790626683
40
0.393377778391535
40
0.454195753918842
40
0.5100045026298
40
0.569483747940481
40
0.623780601807269
40
0.676622502888122
40
0.739247552724414
40
0.802468274154642
40
0.860805570748651
40
0.933231111785765
40
0.998595893894502
40
1
40
1
40
1
40
1
41
1
10
39.5905937158325
20
6.30084275717414
30
0
41
1
10
39.4100189642143
20
6.30034337172719
30
0
41
1
10
39.0571162272701
20
6.29960017613291
30
0
41
1
10
38.5644600272389
20
6.2994551018997
30
0
41
1
10
38.1107560638834
20
6.29941856545594
30
0
41
1
10
37.6625705380015
20
6.30030242782453
30
0
41
1
10
37.1439996070193
20
6.30127577889752
30
0
41
1
10
36.5437572456483
20
6.30261691485683
30
0
41
1
10
35.9140296065211
20
6.30031372664749
30
0
41
1
10
35.3220543045096
20
6.30060854274385
30
0
41
1
10
34.6084519617661
20
6.29928999492208
30
0
41
1
10
33.7924354596865
20
6.29727354106035
30
0
41
1
10
32.8789046345421
20
6.29817359169391
30
0
41
1
10
32.0068324828581
20
6.29994689798903
30
0
41
1
10
31.1670500146607
20
6.29865083522998
30
0
41
1
10
30.3419701938511
20
6.29613047052169
30
0
41
1
10
29.5013216341259
20
6.29653481960341
30
0
41
1
10
28.6164609837699
20
6.29775878342116
30
0
41
1
10
27.7043870164466
20
6.29640417019417
30
0
41
1
10
26.7438097117783
20
6.294818488798
30
0
41
1
10
25.7725995088703
20
6.29554271249447
30
0
41
1
10
25.0833183873893
20
6.29580911838286
30
0
41
1
10
24.7526858953865
20
6.29557612286544
30
0
41
1
10
24.745732911642
20
6.29557107051542
30
0
0
LINE
5
7B
100
AcDbEntity
8
SK1
62
256
6
ByLayer
370
18
48
1
60
0
100
AcDbLine
10
0
20
-7
30
0
11
0
21
7
31
0
39
0
210
0
220
0
230
1
0
LINE
5
7D
100
AcDbEntity
8
SK1
62
256
6
ByLayer
370
18
48
1
60
0
100
AcDbLine
10
-43.055
20
7
30
0
11
-43.055
21
-7
31
0
39
0
210
0
220
0
230
1
0
LINE
5
7E
100
AcDbEntity
8
SK1
62
256
6
ByLayer
370
18
48
1
60
0
100
AcDbLine
10
-45
20
5.055
30
0
11
-45
21
-5.055
31
0
39
0
210
0
220
0
230
1
0
LINE
5
7F
100
AcDbEntity
8
1
62
256
6
ByLayer
370
18
48
1
60
0
100
AcDbLine
10
0
20
-7
30
0
11
0
21
7
31
0
39
0
210
0
220
0
230
1
0
LINE
5
80
100
AcDbEntity
8
1
62
256
6
ByLayer
370
13
48
1
60
0
100
AcDbLine
10
59.565776
20
1.428875
30
0
11
61.950462
21
-0.080689
31
0
39
0
210
0
220
0
230
1
0
LINE
5
81
100
AcDbEntity
8
1
62
256
6
ByLayer
370
18
48
1
60
0
100
AcDbLine
10
4
20
-0.980343
30
0
11
4
21
6.578407
31
0
39
0
210
0
220
0
230
1
0
LINE
5
82
100
AcDbEntity
8
1
62
256
6
ByLayer
370
13
48
1
60
0
100
AcDbLine
10
1.043699
20
6.613152
30
0
11
1.043699
21
-6.613152
31
0
39
0
210
0
220
0
230
1
0
LINE
5
83
100
AcDbEntity
8
1
62
256
6
ByLayer
370
13
48
1
60
0
100
AcDbLine
10
0.521599
20
6.806576
30
0
11
0.521599
21
-6.806576
31
0
39
0
210
0
220
0
230
1
0
LINE
5
84
100
AcDbEntity
8
1
62
256
6
ByLayer
370
13
48
1
60
0
100
AcDbLine
10
59.7447
20
1.554839
30
0
11
61.989122
21
0.134066
31
0
39
0
210
0
220
0
230
1
0
LINE
5
85
100
AcDbEntity
8
80
62
256
6
ByLayer
370
18
48
1
60
0
100
AcDbLine
10
0
20
0
30
0
11
-5
21
0
31
0
39
0
210
0
220
0
230
1
0
LINE
5
86
100
AcDbEntity
8
4
62
256
6
ByLayer
370
18
48
0.05
60
0
100
AcDbLine
10
62
20
0
30
0
11
0
21
0
31
0
39
0
210
0
220
0
230
1
0
LINE
5
88
100
AcDbEntity
8
SK4
62
256
6
ByLayer
370
18
48
0.05
60
0
100
AcDbLine
10
67
20
0
30
0
11
-50
21
0
31
0
39
0
210
0
220
0
230
1
0
LINE
5
8A
100
AcDbEntity
8
1
62
256
6
ByLayer
370
18
48
1
60
0
100
AcDbLine
10
19.044956
20
-6.624402
30
0
11
20.975734
21
-6.625609
31
0
39
0
210
0
220
0
230
1
0
LINE
5
8B
100
AcDbEntity
8
1
62
256
6
ByLayer
370
18
48
1
60
0
100
AcDbLine
10
20.975911
20
6.625609
30
0
11
19.044956
21
6.624402
31
0
39
0
210
0
220
0
230
1
0
LINE
5
8C
100
AcDbEntity
8
SK1
62
256
6
ByLayer
370
18
48
1
60
0
100
AcDbLine
10
-43.055
20
-7
30
0
11
0
21
-7
31
0
39
0
210
0
220
0
230
1
0
LINE
5
8D
100
AcDbEntity
8
SK1
62
256
6
ByLayer
370
18
48
1
60
0
100
AcDbLine
10
0
20
7
30
0
11
-43.055
21
7
31
0
39
0
210
0
220
0
230
1
0
LINE
5
8E
100
AcDbEntity
8
SK1
62
256
6
ByLayer
370
18
48
1
60
0
100
AcDbLine
10
-45
20
-5.055
30
0
11
-43.055
21
-7
31
0
39
0
210
0
220
0
230
1
0
LINE
5
8F
100
AcDbEntity
8
SK1
62
256
6
ByLayer
370
18
48
1
60
0
100
AcDbLine
10
-43.055
20
7
30
0
11
-45
21
5.055
31
0
39
0
210
0
220
0
230
1
0
LINE
5
90
100
AcDbEntity
8
1
62
256
6
ByLayer
370
18
48
1
60
0
100
AcDbLine
10
1.043699
20
-6.613152
30
0
11
3.238057
21
-6.614523
31
0
39
0
210
0
220
0
230
1
0
LINE
5
91
100
AcDbEntity
8
1
62
256
6
ByLayer
370
18
48
1
60
0
100
AcDbLine
10
57.145551
20
-6.648215
30
0
11
59.081897
21
-6.649425
31
0
39
0
210
0
220
0
230
1
0
LINE
5
92
100
AcDbEntity
8
1
62
256
6
ByLayer
370
18
48
1
60
0
100
AcDbLine
10
59.081858
20
6.649425
30
0
11
57.145551
21
6.648215
31
0
39
0
210
0
220
0
230
1
0
LINE
5
93
100
AcDbEntity
8
1
62
256
6
ByLayer
370
18
48
1
60
0
100
AcDbLine
10
3.238057
20
6.614523
30
0
11
1.043699
21
6.613152
31
0
39
0
210
0
220
0
230
1
0
LINE
5
94
100
AcDbEntity
8
81
62
256
6
ByLayer
370
18
48
1
60
0
100
AcDbLine
10
62
20
0
30
0
11
67
21
0
31
0
39
0
210
0
220
0
230
1
0
LINE
5
95
100
AcDbEntity
8
SK2
62
256
6
ByLayer
370
13
48
1
60
0
100
AcDbLine
10
-53.625163
20
-7
30
0
11
-53.625163
21
38.225706
31
0
39
0
210
0
220
0
230
1
0
LINE
5
97
100
AcDbEntity
8
SK2
62
256
6
ByLayer
370
13
48
1
60
0
100
AcDbLine
10
-46.5875
20
7
30
0
11
-55.625163
21
7
31
0
39
0
210
0
220
0
230
1
0
LINE
5
98
100
AcDbEntity
8
SK2
62
256
6
ByLayer
370
13
48
1
60
0
100
AcDbLine
10
-46.5875
20
-7
30
0
11
-55.625163
21
-7
31
0
39
0
210
0
220
0
230
1
0
LINE
5
99
100
AcDbEntity
8
1
62
256
6
ByLayer
370
18
48
1
60
1
100
AcDbLine
10
-53.625163
20
7
30
0
11
-53.164379
21
3.500002
31
0
39
0
210
0
220
0
230
1
0
LINE
5
9A
100
AcDbEntity
8
1
62
256
6
ByLayer
370
18
48
1
60
1
100
AcDbLine
10
-53.164379
20
3.500002
30
0
11
-54.085946
21
3.499998
31
0
39
0
210
0
220
0
230
1
0
LINE
5
9B
100
AcDbEntity
8
1
62
256
6
ByLayer
370
18
48
1
60
1
100
AcDbLine
10
-54.085946
20
3.499998
30
0
11
-53.625163
21
7
31
0
39
0
210
0
220
0
230
1
0
LINE
5
9C
100
AcDbEntity
8
1
62
256
6
ByLayer
370
18
48
1
60
1
100
AcDbLine
10
-53.625163
20
-7
30
0
11
-54.085946
21
-3.500002
31
0
39
0
210
0
220
0
230
1
0
LINE
5
9D
100
AcDbEntity
8
1
62
256
6
ByLayer
370
18
48
1
60
1
100
AcDbLine
10
-54.085946
20
-3.500002
30
0
11
-53.164379
21
-3.499998
31
0
39
0
210
0
220
0
230
1
0
LINE
5
9E
100
AcDbEntity
8
1
62
256
6
ByLayer
370
18
48
1
60
1
100
AcDbLine
10
-53.164379
20
-3.499998
30
0
11
-53.625163
21
-7
31
0
39
0
210
0
220
0
230
1
0
LINE
5
9F
100
AcDbEntity
8
2
62
256
6
ByLayer
370
13
48
1
60
0
100
AcDbLine
10
74.083343
20
-6.65
30
0
11
74.083343
21
36.100259
31
0
39
0
210
0
220
0
230
1
0
LINE
5
A1
100
AcDbEntity
8
2
62
256
6
ByLayer
370
13
48
1
60
0
100
AcDbLine
10
61.6062
20
6.65
30
0
11
76.083343
21
6.65
31
0
39
0
210
0
220
0
230
1
0
LINE
5
A2
100
AcDbEntity
8
2
62
256
6
ByLayer
370
13
48
1
60
0
100
AcDbLine
10
61.6062
20
-6.65
30
0
11
76.083343
21
-6.65
31
0
39
0
210
0
220
0
230
1
0
LINE
5
A3
100
AcDbEntity
8
1
62
256
6
ByLayer
370
18
48
1
60
1
100
AcDbLine
10
74.083343
20
6.65
30
0
11
74.544126
21
3.150002
31
0
39
0
210
0
220
0
230
1
0
LINE
5
A4
100
AcDbEntity
8
1
62
256
6
ByLayer
370
18
48
1
60
1
100
AcDbLine
10
74.544126
20
3.150002
30
0
11
73.622559
21
3.149998
31
0
39
0
210
0
220
0
230
1
0
LINE
5
A5
100
AcDbEntity
8
1
62
256
6
ByLayer
370
18
48
1
60
1
100
AcDbLine
10
73.622559
20
3.149998
30
0
11
74.083343
21
6.65
31
0
39
0
210
0
220
0
230
1
0
LINE
5
A6
100
AcDbEntity
8
1
62
256
6
ByLayer
370
18
48
1
60
1
100
AcDbLine
10
74.083343
20
-6.65
30
0
11
73.622559
21
-3.150002
31
0
39
0
210
0
220
0
230
1
0
LINE
5
A7
100
AcDbEntity
8
1
62
256
6
ByLayer
370
18
48
1
60
1
100
AcDbLine
10
73.622559
20
-3.150002
30
0
11
74.544126
21
-3.149998
31
0
39
0
210
0
220
0
230
1
0
LINE
5
A8
100
AcDbEntity
8
1
62
256
6
ByLayer
370
18
48
1
60
1
100
AcDbLine
10
74.544126
20
-3.149998
30
0
11
74.083343
21
-6.65
31
0
39
0
210
0
220
0
230
1
0
LINE
5
EA
100
AcDbEntity
8
1
62
256
6
ByLayer
370
18
48
1
60
1
100
AcDbLine
10
-53.625163
20
7
30
0
11
-53.164379
21
3.500002
31
0
39
0
210
0
220
0
230
1
0
LINE
5
EB
100
AcDbEntity
8
1
62
256
6
ByLayer
370
18
48
1
60
1
100
AcDbLine
10
-53.164379
20
3.500002
30
0
11
-54.085946
21
3.499998
31
0
39
0
210
0
220
0
230
1
0
LINE
5
EC
100
AcDbEntity
8
1
62
256
6
ByLayer
370
18
48
1
60
1
100
AcDbLine
10
-54.085946
20
3.499998
30
0
11
-53.625163
21
7
31
0
39
0
210
0
220
0
230
1
0
LINE
5
EE
100
AcDbEntity
8
1
62
256
6
ByLayer
370
18
48
1
60
1
100
AcDbLine
10
-53.625163
20
-7
30
0
11
-54.085946
21
-3.500002
31
0
39
0
210
0
220
0
230
1
0
LINE
5
EF
100
AcDbEntity
8
1
62
256
6
ByLayer
370
18
48
1
60
1
100
AcDbLine
10
-54.085946
20
-3.500002
30
0
11
-53.164379
21
-3.499998
31
0
39
0
210
0
220
0
230
1
0
LINE
5
F0
100
AcDbEntity
8
1
62
256
6
ByLayer
370
18
48
1
60
1
100
AcDbLine
10
-53.164379
20
-3.499998
30
0
11
-53.625163
21
-7
31
0
39
0
210
0
220
0
230
1
0
LINE
5
F4
100
AcDbEntity
8
1
62
256
6
ByLayer
370
18
48
1
60
1
100
AcDbLine
10
74.083343
20
6.65
30
0
11
74.544126
21
3.150002
31
0
39
0
210
0
220
0
230
1
0
LINE
5
F5
100
AcDbEntity
8
1
62
256
6
ByLayer
370
18
48
1
60
1
100
AcDbLine
10
74.544126
20
3.150002
30
0
11
73.622559
21
3.149998
31
0
39
0
210
0
220
0
230
1
0
LINE
5
F6
100
AcDbEntity
8
1
62
256
6
ByLayer
370
18
48
1
60
1
100
AcDbLine
10
73.622559
20
3.149998
30
0
11
74.083343
21
6.65
31
0
39
0
210
0
220
0
230
1
0
LINE
5
F8
100
AcDbEntity
8
1
62
256
6
ByLayer
370
18
48
1
60
1
100
AcDbLine
10
74.083343
20
-6.65
30
0
11
73.622559
21
-3.150002
31
0
39
0
210
0
220
0
230
1
0
LINE
5
F9
100
AcDbEntity
8
1
62
256
6
ByLayer
370
18
48
1
60
1
100
AcDbLine
10
73.622559
20
-3.150002
30
0
11
74.544126
21
-3.149998
31
0
39
0
210
0
220
0
230
1
0
LINE
5
FA
100
AcDbEntity
8
1
62
256
6
ByLayer
370
18
48
1
60
1
100
AcDbLine
10
74.544126
20
-3.149998
30
0
11
74.083343
21
-6.65
31
0
39
0
210
0
220
0
230
1
0
MTEXT
5
E4
100
AcDbEntity
8
SK6
62
256
6
ByLayer
370
13
48
1
60
0
100
AcDbMText
10
-20.645193
20
39.190328
30
0
210
0
220
0
230
1
1
\W0.7670;462.1-1330-039A0-XM X2BM
40
3.5
41
0
44
1.084337
50
0
71
7
72
5
7
iso_b_vert
0
MTEXT
5
E8
100
AcDbEntity
8
SK2
62
256
6
ByLayer
370
18
48
1
60
0
100
AcDbMText
10
-55.189796
20
20.409024
30
0
210
0
220
0
230
1
1
%%c
40
3.5
41
0
44
1.084337
50
90
71
7
72
5
7
iso_b_vert
0
MTEXT
5
E9
100
AcDbEntity
8
SK2
62
256
6
ByLayer
370
18
48
1
60
0
100
AcDbMText
10
-55.189796
20
25.63168
30
0
210
0
220
0
230
1
1
\W0.7145;14,000
40
3.5
41
0
44
1.084337
50
90
71
7
72
5
7
iso_b_vert
0
MTEXT
5
F2
100
AcDbEntity
8
2
62
256
6
ByLayer
370
18
48
1
60
0
100
AcDbMText
10
72.518709
20
18.65211
30
0
210
0
220
0
230
1
1
%%c
40
3.5
41
0
44
1.084337
50
90
71
7
72
5
7
iso_b_vert
0
MTEXT
5
F3
100
AcDbEntity
8
2
62
256
6
ByLayer
370
18
48
1
60
0
100
AcDbMText
10
72.518709
20
23.874766
30
0
210
0
220
0
230
1
1
\W0.6930;13,300
40
3.5
41
0
44
1.084337
50
90
71
7
72
5
7
iso_b_vert
0
HATCH
5
ED
100
AcDbEntity
8
SK2
62
256
6
ByLayer
370
13
48
1
60
0
100
AcDbHatch
10
0
20
0
30
0
210
0
220
0
230
1
2
ANSI31
70
0
71
0
91
1
92
5
93
3
72
1
10
-53.6251625675374
20
7
11
-53.1643788259847
21
3.50000169255318
72
1
10
-53.1643788259847
20
3.50000169255318
11
-54.0859463090902
21
3.49999830744682
72
1
10
-54.0859463090902
20
3.49999830744682
11
-53.6251625675374
21
7
97
0
75
0
76
1
52
0
41
0.0062
77
0
78
1
53
45
43
0
44
0
45
-0.0139193969876572
46
0.0139193969876572
79
0
47
0
98
1
10
0
20
0
0
HATCH
5
F1
100
AcDbEntity
8
SK2
62
256
6
ByLayer
370
13
48
1
60
0
100
AcDbHatch
10
0
20
0
30
0
210
0
220
0
230
1
2
ANSI31
70
0
71
0
91
1
92
5
93
3
72
1
10
-53.6251625675374
20
-7
11
-54.0859463090902
21
-3.50000169255318
72
1
10
-54.0859463090902
20
-3.50000169255318
11
-53.1643788259847
21
-3.49999830744682
72
1
10
-53.1643788259847
20
-3.49999830744682
11
-53.6251625675374
21
-7
97
0
75
0
76
1
52
0
41
0.0062
77
0
78
1
53
45
43
0
44
0
45
-0.0139193969876572
46
0.0139193969876572
79
0
47
0
98
1
10
0
20
0
0
HATCH
5
F7
100
AcDbEntity
8
2
62
256
6
ByLayer
370
13
48
1
60
0
100
AcDbHatch
10
0
20
0
30
0
210
0
220
0
230
1
2
ANSI31
70
0
71
0
91
1
92
5
93
3
72
1
10
74.083342615295
20
6.65000000000001
11
74.5441263568477
21
3.15000169255319
72
1
10
74.5441263568477
20
3.15000169255319
11
73.6225588737422
21
3.14999830744682
72
1
10
73.6225588737422
20
3.14999830744682
11
74.083342615295
21
6.65000000000001
97
0
75
0
76
1
52
0
41
0.0062
77
0
78
1
53
45
43
0
44
0
45
-0.0139193969876572
46
0.0139193969876572
79
0
47
0
98
1
10
0
20
0
0
HATCH
5
FB
100
AcDbEntity
8
2
62
256
6
ByLayer
370
13
48
1
60
0
100
AcDbHatch
10
0
20
0
30
0
210
0
220
0
230
1
2
ANSI31
70
0
71
0
91
1
92
5
93
3
72
1
10
74.083342615295
20
-6.65000000000001
11
73.6225588737422
21
-3.15000169255319
72
1
10
73.6225588737422
20
-3.15000169255319
11
74.5441263568477
21
-3.14999830744682
72
1
10
74.5441263568477
20
-3.14999830744682
11
74.083342615295
21
-6.65000000000001
97
0
75
0
76
1
52
0
41
0.0062
77
0
78
1
53
45
43
0
44
0
45
-0.0139193969876572
46
0.0139193969876572
79
0
47
0
98
1
10
0
20
0
0
DIMENSION
5
FD
100
AcDbEntity
8
SK2
62
256
6
ByLayer
370
13
48
1
60
0
100
AcDbDimension
2
_U0
10
60.0187
20
-16.863398
30
0
11
30.00935
21
-16.863398
31
0
70
32
71
1
72
1
41
1
210
0
220
0
230
1
3
Standard
100
AcDbAlignedDimension
13
0
23
0
33
0
14
60.0187
24
-6.65
34
0
50
0
100
AcDbRotatedDimension
1001
ACAD
1000
DSTYLE
1002
{
1070
   371
1070
    13
1070
   372
1070
    13
1070
   170
1070
     0
1070
   144
1040
1.0
1070
   277
1070
     2
1070
   278
1070
    44
1070
   146
1040
1.0
1070
   345
1005
16
1070
   347
1005
16
1070
   346
1005
16
1070
   344
1005
0
1070
   343
1005
0
1070
   172
1070
     1
1070
    76
1070
     0
1070
    75
1070
     0
1070
   282
1070
     0
1070
   281
1070
     0
1070
    71
1070
     0
1070
    74
1070
     0
1070
   279
1070
     0
1070
   173
1070
     1
1070
   340
1005
E5
1070
   271
1070
     2
1070
   272
1070
     2
1070
    77
1070
     1
1070
    73
1070
     1
1070
   171
1070
     3
1070
   274
1070
     4
1070
   177
1070
    35
1070
   176
1070
    35
1070
   178
1070
    35
1070
    48
1040
-0.1
1070
    41
1040
3.5
1070
   147
1040
1.75
1070
    42
1040
1.5875
1070
    44
1040
2.0
1070
   140
1040
3.5
1002
}
1001
ACAD_DSTYLE_DIM_LINETYPE
1070
   380
1005
16
1001
ACAD_DSTYLE_DIM_EXT1_LINETYPE
1070
   381
1005
16
1001
ACAD_DSTYLE_DIM_EXT2_LINETYPE
1070
   382
1005
16
0
DIMENSION
5
116
100
AcDbEntity
8
SK2
62
256
6
ByLayer
370
13
48
1
60
0
100
AcDbDimension
2
_U1
10
62
20
-35.692985
30
0
11
8.5
21
-35.692985
31
0
70
32
71
1
72
1
41
1
210
0
220
0
230
1
3
Standard
100
AcDbAlignedDimension
13
-45
23
-7
33
0
14
62
24
0
34
0
50
0
100
AcDbRotatedDimension
1001
ACAD
1000
DSTYLE
1002
{
1070
   371
1070
    13
1070
   372
1070
    13
1070
   170
1070
     0
1070
   144
1040
1.0
1070
   277
1070
     2
1070
   278
1070
    44
1070
   146
1040
1.0
1070
   345
1005
16
1070
   347
1005
16
1070
   346
1005
16
1070
   344
1005
0
1070
   343
1005
0
1070
   172
1070
     1
1070
    76
1070
     0
1070
    75
1070
     0
1070
   282
1070
     0
1070
   281
1070
     0
1070
    71
1070
     0
1070
    74
1070
     0
1070
   279
1070
     0
1070
   173
1070
     1
1070
   340
1005
E5
1070
   271
1070
     2
1070
   272
1070
     2
1070
    77
1070
     1
1070
    73
1070
     1
1070
   171
1070
     3
1070
   274
1070
     4
1070
   177
1070
    35
1070
   176
1070
    35
1070
   178
1070
    35
1070
    48
1040
-0.1
1070
    41
1040
3.5
1070
   147
1040
1.75
1070
    42
1040
1.5875
1070
    44
1040
2.0
1070
   140
1040
3.5
1002
}
1001
ACAD_DSTYLE_DIM_LINETYPE
1070
   380
1005
16
1001
ACAD_DSTYLE_DIM_EXT1_LINETYPE
1070
   381
1005
16
1001
ACAD_DSTYLE_DIM_EXT2_LINETYPE
1070
   382
1005
16
0
DIMENSION
5
12E
100
AcDbEntity
8
SK2
62
256
6
ByLayer
370
13
48
1
60
0
100
AcDbDimension
2
_U2
10
62
20
18.259119
30
0
11
41.06
21
18.259119
31
0
70
32
71
1
72
1
41
1
210
0
220
0
230
1
3
Standard
100
AcDbAlignedDimension
13
20.12
23
6.65
33
0
14
62
24
0
34
0
50
0
100
AcDbRotatedDimension
1001
ACAD
1000
DSTYLE
1002
{
1070
   371
1070
    13
1070
   372
1070
    13
1070
   170
1070
     0
1070
   144
1040
1.0
1070
   277
1070
     2
1070
   278
1070
    44
1070
   146
1040
1.0
1070
   345
1005
16
1070
   347
1005
16
1070
   346
1005
16
1070
   344
1005
0
1070
   343
1005
0
1070
   172
1070
     1
1070
    76
1070
     0
1070
    75
1070
     0
1070
   282
1070
     0
1070
   281
1070
     0
1070
    71
1070
     0
1070
    74
1070
     0
1070
   279
1070
     0
1070
   173
1070
     1
1070
   340
1005
E5
1070
   271
1070
     2
1070
   272
1070
     2
1070
    77
1070
     1
1070
    73
1070
     1
1070
   171
1070
     3
1070
   274
1070
     4
1070
   177
1070
    35
1070
   176
1070
    35
1070
   178
1070
    35
1070
    48
1040
-0.1
1070
    41
1040
3.5
1070
   147
1040
1.75
1070
    42
1040
1.5875
1070
    44
1040
2.0
1070
   140
1040
3.5
1002
}
1001
ACAD_DSTYLE_DIM_LINETYPE
1070
   380
1005
16
1001
ACAD_DSTYLE_DIM_EXT1_LINETYPE
1070
   381
1005
16
1001
ACAD_DSTYLE_DIM_EXT2_LINETYPE
1070
   382
1005
16
0
DIMENSION
5
146
100
AcDbEntity
8
SK2
62
256
6
ByLayer
370
13
48
1
60
0
100
AcDbDimension
2
_U3
10
60.0187
20
-19.452503
30
0
11
79.333333
21
-19.452503
31
0
70
32
71
1
72
1
41
1
210
0
220
0
230
1
3
Standard
100
AcDbAlignedDimension
13
62
23
0
33
0
14
60.0187
24
-6.65
34
0
50
0
100
AcDbRotatedDimension
1001
ACAD
1000
DSTYLE
1002
{
1070
   371
1070
    13
1070
   372
1070
    13
1070
   170
1070
     0
1070
   144
1040
1.0
1070
   277
1070
     2
1070
   278
1070
    44
1070
   146
1040
1.0
1070
   345
1005
16
1070
   347
1005
16
1070
   346
1005
16
1070
   344
1005
0
1070
   343
1005
0
1070
   172
1070
     1
1070
    76
1070
     0
1070
    75
1070
     0
1070
   282
1070
     0
1070
   281
1070
     0
1070
    71
1070
     0
1070
    74
1070
     0
1070
   279
1070
     0
1070
   173
1070
     1
1070
   340
1005
E5
1070
   271
1070
     2
1070
   272
1070
     2
1070
    77
1070
     1
1070
    73
1070
     1
1070
   171
1070
     3
1070
   274
1070
     4
1070
   177
1070
    35
1070
   176
1070
    35
1070
   178
1070
    35
1070
    48
1040
-0.1
1070
    41
1040
3.5
1070
   147
1040
1.75
1070
    42
1040
1.5875
1070
    44
1040
2.0
1070
   140
1040
3.5
1002
}
1001
ACAD_DSTYLE_DIM_LINETYPE
1070
   380
1005
16
1001
ACAD_DSTYLE_DIM_EXT1_LINETYPE
1070
   381
1005
16
1001
ACAD_DSTYLE_DIM_EXT2_LINETYPE
1070
   382
1005
16
0
DIMENSION
5
160
100
AcDbEntity
8
SK2
62
256
6
ByLayer
370
13
48
1
60
0
100
AcDbDimension
2
_U4
10
60.0187
20
-25.343428
30
0
11
7.50935
21
-25.343428
31
0
70
32
71
1
72
1
41
1
210
0
220
0
230
1
3
Standard
100
AcDbAlignedDimension
13
-45
23
-7
33
0
14
60.0187
24
-6.65
34
0
50
0
100
AcDbRotatedDimension
1001
ACAD
1000
DSTYLE
1002
{
1070
   371
1070
    13
1070
   372
1070
    13
1070
   170
1070
     0
1070
   144
1040
1.0
1070
   277
1070
     2
1070
   278
1070
    44
1070
   146
1040
1.0
1070
   345
1005
16
1070
   347
1005
16
1070
   346
1005
16
1070
   344
1005
0
1070
   343
1005
0
1070
   172
1070
     1
1070
    76
1070
     0
1070
    75
1070
     0
1070
   282
1070
     0
1070
   281
1070
     0
1070
    71
1070
     0
1070
    74
1070
     0
1070
   279
1070
     0
1070
   173
1070
     1
1070
   340
1005
E5
1070
   271
1070
     2
1070
   272
1070
     2
1070
    77
1070
     1
1070
    73
1070
     1
1070
   171
1070
     3
1070
   274
1070
     4
1070
   177
1070
    35
1070
   176
1070
    35
1070
   178
1070
    35
1070
    48
1040
-0.1
1070
    41
1040
3.5
1070
   147
1040
1.75
1070
    42
1040
1.5875
1070
    44
1040
2.0
1070
   140
1040
3.5
1002
}
1001
ACAD_DSTYLE_DIM_LINETYPE
1070
   380
1005
16
1001
ACAD_DSTYLE_DIM_EXT1_LINETYPE
1070
   381
1005
16
1001
ACAD_DSTYLE_DIM_EXT2_LINETYPE
1070
   382
1005
16
0
ENDSEC
0
SECTION
2
OBJECTS
0
DICTIONARY
5
1e8
330
0
100
AcDbDictionary
280
0
281
1
3
ACAD_GROUP
350
1e9
3
ACAD_MLINESTYLE
350
1ea
0
DICTIONARY
5
1e9
330
0
100
AcDbDictionary
280
0
281
1
0
DICTIONARY
5
1ea
330
0
100
AcDbDictionary
280
0
281
1
3
Standard
350
18
0
MLINESTYLE
5
18
330
1ea
100
AcDbMlineStyle
2
Standard
70
0
3

62
256
51
90
52
90
71
2
49
-0.5
62
256
6
ByLayer
49
0.5
62
256
6
ByLayer
0
RASTERVARIABLES
5
1d6
330

100
AcDbRasterVariables
90
0
70
1
71
1
72
1
0
ENDSEC
0
EOF
