0
SECTION
2
HEADER
9
$ACADVER
1
AC1015
9
$DWGCODEPAGE
3
ANSI_1252
9
$HANDSEED
5
203
9
$ANGBASE
50
0
9
$ANGDIR
70
0
9
$ATTMODE
70
1
9
$AUNITS
70
0
9
$AUPREC
70
0
9
$CECOLOR
62
256
9
$CELTSCALE
40
1
9
$CELTYPE
6
ByLayer
9
$CELWEIGHT
370
18
9
$CLAYER
8
0
9
$CMLJUST
70
0
9
$CMLSCALE
40
1
9
$CMLSTYLE
2
Standard
9
$DIMSTYLE
2
Standard
9
$TEXTSIZE
40
0.2
9
$TEXTSTYLE
7
Standard
9
$LUNITS
70
2
9
$LUPREC
70
4
9
$EXTNAMES
290
1
9
$INSUNITS
70
4
9
$LTSCALE
40
1
9
$LWDISPLAY
290
1
9
$PDMODE
70
0
9
$PDSIZE
40
0
9
$PLINEGEN
70
0
0
ENDSEC
0
SECTION
2
CLASSES
0
CLASS
1
RASTERVARIABLES
2
AcDbRasterVariables
3
ISM
90
0
280
0
281
0
0
ENDSEC
0
SECTION
2
TABLES
0
TABLE
2
VPORT
5
1f9
100
AcDbSymbolTable
0
VPORT
5
1
100
AcDbSymbolTableRecord
100
AcDbViewportTableRecord
2
*Active
70
0
10
0
20
0
11
1
21
1
12
-1
22
1
13
0
23
0
14
0.5
24
0.5
15
10
25
10
16
0
26
0
36
1
17
0
27
0
37
0
0
ENDTAB
0
TABLE
2
LTYPE
5
1fa
100
AcDbSymbolTable
0
LTYPE
5
14
100
AcDbSymbolTableRecord
100
AcDbLinetypeTableRecord
70
0
2
ByBlock
3

72
65
73
0
40
0
0
LTYPE
5
15
100
AcDbSymbolTableRecord
100
AcDbLinetypeTableRecord
70
0
2
ByLayer
3

72
65
73
0
40
0
0
LTYPE
5
16
100
AcDbSymbolTableRecord
100
AcDbLinetypeTableRecord
70
0
2
Continuous
3
Solid line
72
65
73
0
40
0
0
LTYPE
5
6E
100
AcDbSymbolTableRecord
100
AcDbLinetypeTableRecord
70
0
2
CENTER
3
____ _ ____ _ ____ _ ____
72
65
73
4
40
47.5
49
22
74
0
49
-8.5
74
0
49
8.5
74
0
49
-8.5
74
0
0
LTYPE
5
6F
100
AcDbSymbolTableRecord
100
AcDbLinetypeTableRecord
70
0
2
DASHED
3
__ __ __ __ __ __ __ __ __
72
65
73
2
40
25.72
49
12.86
74
0
49
-12.86
74
0
0
ENDTAB
0
TABLE
2
LAYER
5
1fb
100
AcDbSymbolTable
0
LAYER
5
10
100
AcDbSymbolTableRecord
100
AcDbLayerTableRecord
2
0
70
0
62
7
6
Continuous
290
1
370
-3
390
0
0
LAYER
5
71
100
AcDbSymbolTableRecord
100
AcDbLayerTableRecord
2
80
70
0
62
-6
6
Continuous
290
1
370
-3
390
0
0
LAYER
5
73
100
AcDbSymbolTableRecord
100
AcDbLayerTableRecord
2
81
70
0
62
-3
6
Continuous
290
1
370
-3
390
0
0
LAYER
5
75
100
AcDbSymbolTableRecord
100
AcDbLayerTableRecord
2
1
70
0
62
4
6
Continuous
290
1
370
-3
390
0
0
LAYER
5
8D
100
AcDbSymbolTableRecord
100
AcDbLayerTableRecord
2
4
70
0
62
-2
6
CENTER
290
1
370
-3
390
0
0
LAYER
5
A4
100
AcDbSymbolTableRecord
100
AcDbLayerTableRecord
2
2
70
0
62
7
6
Continuous
290
1
370
-3
390
0
0
LAYER
5
10E
100
AcDbSymbolTableRecord
100
AcDbLayerTableRecord
2
Defpoints
70
0
62
7
6
Continuous
290
0
370
-3
390
0
0
LAYER
5
1e5
100
AcDbSymbolTableRecord
100
AcDbLayerTableRecord
2
SK1
70
0
62
4
6
Continuous
290
1
370
-3
390
0
0
LAYER
5
1e6
100
AcDbSymbolTableRecord
100
AcDbLayerTableRecord
2
SK4
70
0
62
2
6
CENTER
290
1
370
-3
390
0
0
LAYER
5
1e7
100
AcDbSymbolTableRecord
100
AcDbLayerTableRecord
2
SK2
70
0
62
7
6
Continuous
290
1
370
-3
390
0
0
LAYER
5
1e8
100
AcDbSymbolTableRecord
100
AcDbLayerTableRecord
2
SK6
70
0
62
5
6
Continuous
290
1
370
-3
390
0
0
ENDTAB
0
TABLE
2
STYLE
5
1fc
100
AcDbSymbolTable
0
STYLE
5
11
100
AcDbSymbolTableRecord
100
AcDbTextStyleTableRecord
2
Standard
3
txt
70
0
71
0
40
0
41
1
42
0
50
0
0
STYLE
5
F3
100
AcDbSymbolTableRecord
100
AcDbTextStyleTableRecord
2
iso_b_vert
3
simplex.shx
70
0
71
0
40
0
41
1
42
0
50
0
0
STYLE
5
F4
100
AcDbSymbolTableRecord
100
AcDbTextStyleTableRecord
2
DWGDirectTextStyle
3
simplex
70
0
71
0
40
0
41
1
42
0
50
0
0
ENDTAB
0
TABLE
2
DIMSTYLE
5
1fd
100
AcDbSymbolTable
100
AcDbDimStyleTable
0
DIMSTYLE
105
27
100
AcDbSymbolTableRecord
100
AcDbDimStyleTableRecord
2
Standard
70
0
3
<>
41
0.18
42
0.0625
44
0.18
140
0.18
147
0.09
73
0
74
0
77
1
271
2
275
0
278
52
280
0
340
11
0
ENDTAB
0
TABLE
2
VIEW
5
1fe
100
AcDbSymbolTable
0
ENDTAB
0
TABLE
2
UCS
5
1ff
100
AcDbSymbolTable
0
ENDTAB
0
TABLE
2
APPID
5
200
100
AcDbSymbolTable
0
APPID
5
12
100
AcDbSymbolTableRecord
100
AcDbRegAppTableRecord
2
ACAD
70
0
0
APPID
5
10A
100
AcDbSymbolTableRecord
100
AcDbRegAppTableRecord
2
ACAD_DSTYLE_DIMBREAK
70
0
0
APPID
5
1A4
100
AcDbSymbolTableRecord
100
AcDbRegAppTableRecord
2
ACAD_DSTYLE_DIM_LINETYPE
70
0
0
APPID
5
1A5
100
AcDbSymbolTableRecord
100
AcDbRegAppTableRecord
2
ACAD_DSTYLE_DIM_EXT1_LINETYPE
70
0
0
APPID
5
1A6
100
AcDbSymbolTableRecord
100
AcDbRegAppTableRecord
2
ACAD_DSTYLE_DIM_EXT2_LINETYPE
70
0
0
APPID
5
1E1
100
AcDbSymbolTableRecord
100
AcDbRegAppTableRecord
2
ACAD_MLEADERVER
70
0
0
ENDTAB
0
TABLE
2
BLOCK_RECORD
5
201
100
AcDbSymbolTable
0
BLOCK_RECORD
5
1F
100
AcDbSymbolTableRecord
100
AcDbBlockTableRecord
2
*Model_Space
340
0
70
0
0
BLOCK_RECORD
5
1B
100
AcDbSymbolTableRecord
100
AcDbBlockTableRecord
2
*Paper_Space
340
0
70
0
0
BLOCK_RECORD
5
23
100
AcDbSymbolTableRecord
100
AcDbBlockTableRecord
2
*Paper_Space0
340
0
70
0
0
BLOCK_RECORD
5
10F
100
AcDbSymbolTableRecord
100
AcDbBlockTableRecord
2
*D1
340
0
70
0
0
BLOCK_RECORD
5
11B
100
AcDbSymbolTableRecord
100
AcDbBlockTableRecord
2
_U0
340
0
70
0
0
BLOCK_RECORD
5
127
100
AcDbSymbolTableRecord
100
AcDbBlockTableRecord
2
*D3
340
0
70
0
0
BLOCK_RECORD
5
133
100
AcDbSymbolTableRecord
100
AcDbBlockTableRecord
2
_U1
340
0
70
0
0
BLOCK_RECORD
5
13F
100
AcDbSymbolTableRecord
100
AcDbBlockTableRecord
2
*D5
340
0
70
0
0
BLOCK_RECORD
5
14B
100
AcDbSymbolTableRecord
100
AcDbBlockTableRecord
2
_U2
340
0
70
0
0
BLOCK_RECORD
5
157
100
AcDbSymbolTableRecord
100
AcDbBlockTableRecord
2
*D7
340
0
70
0
0
BLOCK_RECORD
5
165
100
AcDbSymbolTableRecord
100
AcDbBlockTableRecord
2
_U3
340
0
70
0
0
BLOCK_RECORD
5
171
100
AcDbSymbolTableRecord
100
AcDbBlockTableRecord
2
*D9
340
0
70
0
0
BLOCK_RECORD
5
17D
100
AcDbSymbolTableRecord
100
AcDbBlockTableRecord
2
_U4
340
0
70
0
0
ENDTAB
0
ENDSEC
0
SECTION
2
BLOCKS
0
BLOCK
5
20
100
AcDbEntity
8
0
100
AcDbBlockBegin
2
*Model_Space
70
0
10
0
20
0
30
0
3
*Model_Space
0
ENDBLK
5
21
100
AcDbEntity
8
0
100
AcDbBlockEnd
0
BLOCK
5
1C
100
AcDbEntity
8
0
100
AcDbBlockBegin
2
*Paper_Space
70
0
10
0
20
0
30
0
3
*Paper_Space
0
ENDBLK
5
1D
100
AcDbEntity
8
0
100
AcDbBlockEnd
0
BLOCK
5
24
100
AcDbEntity
8
0
100
AcDbBlockBegin
2
*Paper_Space0
70
0
10
0
20
0
30
0
3
*Paper_Space0
0
ENDBLK
5
25
100
AcDbEntity
8
0
100
AcDbBlockEnd
0
BLOCK
5
110
100
AcDbEntity
8
0
100
AcDbBlockBegin
2
*D1
70
1
10
0
20
0
30
0
3
*D1
0
LINE
5
112
100
AcDbEntity
8
0
62
256
6
ByLayer
370
-2
48
1
60
0
100
AcDbLine
10
0
20
-1.5875
30
0
11
0
21
-16.463398
31
0
39
0
210
0
220
0
230
1
0
LINE
5
113
100
AcDbEntity
8
0
62
256
6
ByLayer
370
-2
48
1
60
0
100
AcDbLine
10
47.742
20
-5.8375
30
0
11
47.742
21
-16.463398
31
0
39
0
210
0
220
0
230
1
0
LINE
5
114
100
AcDbEntity
8
0
62
256
6
ByLayer
370
-2
48
1
60
0
100
AcDbLine
10
3.5
20
-14.463398
30
0
11
44.242
21
-14.463398
31
0
39
0
210
0
220
0
230
1
0
SOLID
5
115
100
AcDbEntity
8
0
62
256
6
ByLayer
370
-1
48
1
60
0
100
AcDbTrace
10
3.5
20
-13.880065
30
0
11
3.5
21
-15.046732
31
0
12
0
22
-14.463398
32
0
13
0
23
-14.463398
33
0
39
0
210
0
220
0
230
1
0
SOLID
5
116
100
AcDbEntity
8
0
62
256
6
ByLayer
370
-1
48
1
60
0
100
AcDbTrace
10
44.242
20
-15.046732
30
0
11
44.242
21
-13.880065
31
0
12
47.742
22
-14.463398
32
0
13
47.742
23
-14.463398
33
0
39
0
210
0
220
0
230
1
0
MTEXT
5
117
100
AcDbEntity
8
0
62
256
6
ByLayer
370
18
48
1
60
0
100
AcDbMText
10
23.871
20
-7.463398
30
0
210
0
220
0
230
1
1
\A1;47.74
40
3.5
41
0
44
1
50
0
71
5
72
5
7
iso_b_vert
0
POINT
5
118
100
AcDbEntity
8
Defpoints
62
0
6
ByLayer
370
-1
48
1
60
0
100
AcDbPoint
10
0
20
0
30
0
39
0
210
0
220
0
230
1
50
360
0
POINT
5
119
100
AcDbEntity
8
Defpoints
62
0
6
ByLayer
370
-1
48
1
60
0
100
AcDbPoint
10
47.742
20
-4.25
30
0
39
0
210
0
220
0
230
1
50
360
0
POINT
5
11A
100
AcDbEntity
8
Defpoints
62
0
6
ByLayer
370
-1
48
1
60
0
100
AcDbPoint
10
47.742
20
-14.463398
30
0
39
0
210
0
220
0
230
1
50
360
0
ENDBLK
5
111
100
AcDbEntity
8
0
100
AcDbBlockEnd
0
BLOCK
5
122
100
AcDbEntity
8
0
100
AcDbBlockBegin
2
_U0
70
0
10
0
20
0
30
0
3
_U0
0
MTEXT
5
11C
100
AcDbEntity
8
SK2
62
256
6
ByLayer
370
13
48
1
60
0
100
AcDbMText
10
18.365168
20
-13.430765
30
0
210
0
220
0
230
1
1
\W0.7756;47,74
40
3.5
41
0
44
1.084337
50
0
71
7
72
5
7
iso_b_vert
0
LINE
5
11D
100
AcDbEntity
8
SK2
62
256
6
ByLayer
370
13
48
1
60
0
100
AcDbLine
10
0
20
-1.5875
30
0
11
0
21
-16.463398
31
0
39
0
210
0
220
0
230
1
0
LINE
5
11E
100
AcDbEntity
8
SK2
62
256
6
ByLayer
370
13
48
1
60
0
100
AcDbLine
10
47.742
20
-5.8375
30
0
11
47.742
21
-16.463398
31
0
39
0
210
0
220
0
230
1
0
LINE
5
11F
100
AcDbEntity
8
SK2
62
256
6
ByLayer
370
13
48
1
60
0
100
AcDbLine
10
0
20
-14.463398
30
0
11
47.742
21
-14.463398
31
0
39
0
210
0
220
0
230
1
0
SOLID
5
120
100
AcDbEntity
8
SK2
62
256
6
ByLayer
370
18
48
1
60
0
100
AcDbTrace
10
0
20
-14.463398
30
0
11
3.499998
21
-14.002615
31
0
12
3.500002
22
-14.924182
32
0
13
3.500002
23
-14.924182
33
0
39
0
210
0
220
0
230
1
0
SOLID
5
121
100
AcDbEntity
8
SK2
62
256
6
ByLayer
370
18
48
1
60
0
100
AcDbTrace
10
47.742
20
-14.463398
30
0
11
44.242002
21
-14.924182
31
0
12
44.241998
22
-14.002615
32
0
13
44.241998
23
-14.002615
33
0
39
0
210
0
220
0
230
1
0
ENDBLK
5
123
100
AcDbEntity
8
0
100
AcDbBlockEnd
0
BLOCK
5
128
100
AcDbEntity
8
0
100
AcDbBlockBegin
2
*D3
70
1
10
0
20
0
30
0
3
*D3
0
LINE
5
12A
100
AcDbEntity
8
0
62
256
6
ByLayer
370
-2
48
1
60
0
100
AcDbLine
10
-40
20
-6.5875
30
0
11
-40
21
-35.692985
31
0
39
0
210
0
220
0
230
1
0
LINE
5
12B
100
AcDbEntity
8
0
62
256
6
ByLayer
370
-2
48
1
60
0
100
AcDbLine
10
49
20
-1.5875
30
0
11
49
21
-35.692985
31
0
39
0
210
0
220
0
230
1
0
LINE
5
12C
100
AcDbEntity
8
0
62
256
6
ByLayer
370
-2
48
1
60
0
100
AcDbLine
10
-36.5
20
-33.692985
30
0
11
45.5
21
-33.692985
31
0
39
0
210
0
220
0
230
1
0
SOLID
5
12D
100
AcDbEntity
8
0
62
256
6
ByLayer
370
-1
48
1
60
0
100
AcDbTrace
10
-36.5
20
-33.109652
30
0
11
-36.5
21
-34.276319
31
0
12
-40
22
-33.692985
32
0
13
-40
23
-33.692985
33
0
39
0
210
0
220
0
230
1
0
SOLID
5
12E
100
AcDbEntity
8
0
62
256
6
ByLayer
370
-1
48
1
60
0
100
AcDbTrace
10
45.5
20
-34.276319
30
0
11
45.5
21
-33.109652
31
0
12
49
22
-33.692985
32
0
13
49
23
-33.692985
33
0
39
0
210
0
220
0
230
1
0
MTEXT
5
12F
100
AcDbEntity
8
0
62
256
6
ByLayer
370
18
48
1
60
0
100
AcDbMText
10
4.5
20
-26.692985
30
0
210
0
220
0
230
1
1
\A1;89.00
40
3.5
41
0
44
1
50
0
71
5
72
5
7
iso_b_vert
0
POINT
5
130
100
AcDbEntity
8
Defpoints
62
0
6
ByLayer
370
-1
48
1
60
0
100
AcDbPoint
10
-40
20
-5
30
0
39
0
210
0
220
0
230
1
50
360
0
POINT
5
131
100
AcDbEntity
8
Defpoints
62
0
6
ByLayer
370
-1
48
1
60
0
100
AcDbPoint
10
49
20
0
30
0
39
0
210
0
220
0
230
1
50
360
0
POINT
5
132
100
AcDbEntity
8
Defpoints
62
0
6
ByLayer
370
-1
48
1
60
0
100
AcDbPoint
10
49
20
-33.692985
30
0
39
0
210
0
220
0
230
1
50
360
0
ENDBLK
5
129
100
AcDbEntity
8
0
100
AcDbBlockEnd
0
BLOCK
5
13A
100
AcDbEntity
8
0
100
AcDbBlockBegin
2
_U1
70
0
10
0
20
0
30
0
3
_U1
0
MTEXT
5
134
100
AcDbEntity
8
SK2
62
256
6
ByLayer
370
13
48
1
60
0
100
AcDbMText
10
-0.637299
20
-32.660352
30
0
210
0
220
0
230
1
1
\W0.7317;89,00
40
3.5
41
0
44
1.084337
50
0
71
7
72
5
7
iso_b_vert
0
LINE
5
135
100
AcDbEntity
8
SK2
62
256
6
ByLayer
370
13
48
1
60
0
100
AcDbLine
10
-40
20
-6.5875
30
0
11
-40
21
-35.692985
31
0
39
0
210
0
220
0
230
1
0
LINE
5
136
100
AcDbEntity
8
SK2
62
256
6
ByLayer
370
13
48
1
60
0
100
AcDbLine
10
49
20
-1.5875
30
0
11
49
21
-35.692985
31
0
39
0
210
0
220
0
230
1
0
LINE
5
137
100
AcDbEntity
8
SK2
62
256
6
ByLayer
370
13
48
1
60
0
100
AcDbLine
10
-40
20
-33.692985
30
0
11
49
21
-33.692985
31
0
39
0
210
0
220
0
230
1
0
SOLID
5
138
100
AcDbEntity
8
SK2
62
256
6
ByLayer
370
18
48
1
60
0
100
AcDbTrace
10
-40
20
-33.692985
30
0
11
-36.500002
21
-33.232202
31
0
12
-36.499998
22
-34.153769
32
0
13
-36.499998
23
-34.153769
33
0
39
0
210
0
220
0
230
1
0
SOLID
5
139
100
AcDbEntity
8
SK2
62
256
6
ByLayer
370
18
48
1
60
0
100
AcDbTrace
10
49
20
-33.692985
30
0
11
45.500002
21
-34.153769
31
0
12
45.499998
22
-33.232202
32
0
13
45.499998
23
-33.232202
33
0
39
0
210
0
220
0
230
1
0
ENDBLK
5
13B
100
AcDbEntity
8
0
100
AcDbBlockEnd
0
BLOCK
5
140
100
AcDbEntity
8
0
100
AcDbBlockBegin
2
*D5
70
1
10
0
20
0
30
0
3
*D5
0
LINE
5
142
100
AcDbEntity
8
0
62
256
6
ByLayer
370
-2
48
1
60
0
100
AcDbLine
10
22.24
20
5.8375
30
0
11
22.24
21
17.859119
31
0
39
0
210
0
220
0
230
1
0
LINE
5
143
100
AcDbEntity
8
0
62
256
6
ByLayer
370
-2
48
1
60
0
100
AcDbLine
10
49
20
1.5875
30
0
11
49
21
17.859119
31
0
39
0
210
0
220
0
230
1
0
LINE
5
144
100
AcDbEntity
8
0
62
256
6
ByLayer
370
-2
48
1
60
0
100
AcDbLine
10
25.74
20
15.859119
30
0
11
45.5
21
15.859119
31
0
39
0
210
0
220
0
230
1
0
SOLID
5
145
100
AcDbEntity
8
0
62
256
6
ByLayer
370
-1
48
1
60
0
100
AcDbTrace
10
25.74
20
16.442453
30
0
11
25.74
21
15.275786
31
0
12
22.24
22
15.859119
32
0
13
22.24
23
15.859119
33
0
39
0
210
0
220
0
230
1
0
SOLID
5
146
100
AcDbEntity
8
0
62
256
6
ByLayer
370
-1
48
1
60
0
100
AcDbTrace
10
45.5
20
15.275786
30
0
11
45.5
21
16.442453
31
0
12
49
22
15.859119
32
0
13
49
23
15.859119
33
0
39
0
210
0
220
0
230
1
0
MTEXT
5
147
100
AcDbEntity
8
0
62
256
6
ByLayer
370
18
48
1
60
0
100
AcDbMText
10
35.62
20
22.859119
30
0
210
0
220
0
230
1
1
\A1;26.76
40
3.5
41
0
44
1
50
0
71
5
72
5
7
iso_b_vert
0
POINT
5
148
100
AcDbEntity
8
Defpoints
62
0
6
ByLayer
370
-1
48
1
60
0
100
AcDbPoint
10
22.24
20
4.25
30
0
39
0
210
0
220
0
230
1
50
360
0
POINT
5
149
100
AcDbEntity
8
Defpoints
62
0
6
ByLayer
370
-1
48
1
60
0
100
AcDbPoint
10
49
20
0
30
0
39
0
210
0
220
0
230
1
50
360
0
POINT
5
14A
100
AcDbEntity
8
Defpoints
62
0
6
ByLayer
370
-1
48
1
60
0
100
AcDbPoint
10
49
20
15.859119
30
0
39
0
210
0
220
0
230
1
50
360
0
ENDBLK
5
141
100
AcDbEntity
8
0
100
AcDbBlockEnd
0
BLOCK
5
152
100
AcDbEntity
8
0
100
AcDbBlockBegin
2
_U2
70
0
10
0
20
0
30
0
3
_U2
0
MTEXT
5
14C
100
AcDbEntity
8
SK2
62
256
6
ByLayer
370
13
48
1
60
0
100
AcDbMText
10
30.482701
20
16.891753
30
0
210
0
220
0
230
1
1
\W0.7317;26,76
40
3.5
41
0
44
1.084337
50
0
71
7
72
5
7
iso_b_vert
0
LINE
5
14D
100
AcDbEntity
8
SK2
62
256
6
ByLayer
370
13
48
1
60
0
100
AcDbLine
10
22.24
20
5.8375
30
0
11
22.24
21
17.859119
31
0
39
0
210
0
220
0
230
1
0
LINE
5
14E
100
AcDbEntity
8
SK2
62
256
6
ByLayer
370
13
48
1
60
0
100
AcDbLine
10
49
20
1.5875
30
0
11
49
21
17.859119
31
0
39
0
210
0
220
0
230
1
0
LINE
5
14F
100
AcDbEntity
8
SK2
62
256
6
ByLayer
370
13
48
1
60
0
100
AcDbLine
10
22.24
20
15.859119
30
0
11
49
21
15.859119
31
0
39
0
210
0
220
0
230
1
0
SOLID
5
150
100
AcDbEntity
8
SK2
62
256
6
ByLayer
370
18
48
1
60
0
100
AcDbTrace
10
22.24
20
15.859119
30
0
11
25.739998
21
16.319903
31
0
12
25.740002
22
15.398335
32
0
13
25.740002
23
15.398335
33
0
39
0
210
0
220
0
230
1
0
SOLID
5
151
100
AcDbEntity
8
SK2
62
256
6
ByLayer
370
18
48
1
60
0
100
AcDbTrace
10
49
20
15.859119
30
0
11
45.500002
21
15.398335
31
0
12
45.499998
22
16.319903
32
0
13
45.499998
23
16.319903
33
0
39
0
210
0
220
0
230
1
0
ENDBLK
5
153
100
AcDbEntity
8
0
100
AcDbBlockEnd
0
BLOCK
5
158
100
AcDbEntity
8
0
100
AcDbBlockBegin
2
*D7
70
1
10
0
20
0
30
0
3
*D7
0
LINE
5
15A
100
AcDbEntity
8
0
62
256
6
ByLayer
370
-2
48
1
60
0
100
AcDbLine
10
49
20
-1.5875
30
0
11
49
21
-19.052503
31
0
39
0
210
0
220
0
230
1
0
LINE
5
15B
100
AcDbEntity
8
0
62
256
6
ByLayer
370
-2
48
1
60
0
100
AcDbLine
10
47.742
20
-5.8375
30
0
11
47.742
21
-19.052503
31
0
39
0
210
0
220
0
230
1
0
LINE
5
15C
100
AcDbEntity
8
0
62
256
6
ByLayer
370
-2
48
1
60
0
100
AcDbLine
10
49
20
-17.052503
30
0
11
76.666667
21
-17.052503
31
0
39
0
210
0
220
0
230
1
0
LINE
5
15D
100
AcDbEntity
8
0
62
256
6
ByLayer
370
-2
48
1
60
0
100
AcDbLine
10
52.5
20
-17.052503
30
0
11
56
21
-17.052503
31
0
39
0
210
0
220
0
230
1
0
LINE
5
15E
100
AcDbEntity
8
0
62
256
6
ByLayer
370
-2
48
1
60
0
100
AcDbLine
10
44.242
20
-17.052503
30
0
11
40.742
21
-17.052503
31
0
39
0
210
0
220
0
230
1
0
SOLID
5
15F
100
AcDbEntity
8
0
62
256
6
ByLayer
370
-1
48
1
60
0
100
AcDbTrace
10
52.5
20
-16.46917
30
0
11
52.5
21
-17.635837
31
0
12
49
22
-17.052503
32
0
13
49
23
-17.052503
33
0
39
0
210
0
220
0
230
1
0
SOLID
5
160
100
AcDbEntity
8
0
62
256
6
ByLayer
370
-1
48
1
60
0
100
AcDbTrace
10
44.242
20
-17.635837
30
0
11
44.242
21
-16.46917
31
0
12
47.742
22
-17.052503
32
0
13
47.742
23
-17.052503
33
0
39
0
210
0
220
0
230
1
0
MTEXT
5
161
100
AcDbEntity
8
0
62
256
6
ByLayer
370
18
48
1
60
0
100
AcDbMText
10
66.333333
20
-10.052503
30
0
210
0
220
0
230
1
1
\A1;1.26
40
3.5
41
0
44
1
50
0
71
5
72
5
7
iso_b_vert
0
POINT
5
162
100
AcDbEntity
8
Defpoints
62
0
6
ByLayer
370
-1
48
1
60
0
100
AcDbPoint
10
49
20
0
30
0
39
0
210
0
220
0
230
1
50
360
0
POINT
5
163
100
AcDbEntity
8
Defpoints
62
0
6
ByLayer
370
-1
48
1
60
0
100
AcDbPoint
10
47.742
20
-4.25
30
0
39
0
210
0
220
0
230
1
50
360
0
POINT
5
164
100
AcDbEntity
8
Defpoints
62
0
6
ByLayer
370
-1
48
1
60
0
100
AcDbPoint
10
47.742
20
-17.052503
30
0
39
0
210
0
220
0
230
1
50
360
0
ENDBLK
5
159
100
AcDbEntity
8
0
100
AcDbBlockEnd
0
BLOCK
5
16C
100
AcDbEntity
8
0
100
AcDbBlockBegin
2
_U3
70
0
10
0
20
0
30
0
3
_U3
0
MTEXT
5
166
100
AcDbEntity
8
SK2
62
256
6
ByLayer
370
13
48
1
60
0
100
AcDbMText
10
55.589293
20
-16.01987
30
0
210
0
220
0
230
1
1
\W0.6367;1,26
40
3.5
41
0
44
1.084337
50
0
71
7
72
5
7
iso_b_vert
0
LINE
5
167
100
AcDbEntity
8
SK2
62
256
6
ByLayer
370
13
48
1
60
0
100
AcDbLine
10
49
20
-1.5875
30
0
11
49
21
-19.052503
31
0
39
0
210
0
220
0
230
1
0
LINE
5
168
100
AcDbEntity
8
SK2
62
256
6
ByLayer
370
13
48
1
60
0
100
AcDbLine
10
47.742
20
-5.8375
30
0
11
47.742
21
-19.052503
31
0
39
0
210
0
220
0
230
1
0
LINE
5
169
100
AcDbEntity
8
SK2
62
256
6
ByLayer
370
13
48
1
60
0
100
AcDbLine
10
38.992
20
-17.052503
30
0
11
62.559058
21
-17.052503
31
0
39
0
210
0
220
0
230
1
0
SOLID
5
16A
100
AcDbEntity
8
SK2
62
256
6
ByLayer
370
18
48
1
60
0
100
AcDbTrace
10
49
20
-17.052503
30
0
11
52.499998
21
-16.591719
31
0
12
52.500002
22
-17.513287
32
0
13
52.500002
23
-17.513287
33
0
39
0
210
0
220
0
230
1
0
SOLID
5
16B
100
AcDbEntity
8
SK2
62
256
6
ByLayer
370
18
48
1
60
0
100
AcDbTrace
10
47.742
20
-17.052503
30
0
11
44.242002
21
-17.513287
31
0
12
44.241998
22
-16.591719
32
0
13
44.241998
23
-16.591719
33
0
39
0
210
0
220
0
230
1
0
ENDBLK
5
16D
100
AcDbEntity
8
0
100
AcDbBlockEnd
0
BLOCK
5
172
100
AcDbEntity
8
0
100
AcDbBlockBegin
2
*D9
70
1
10
0
20
0
30
0
3
*D9
0
LINE
5
174
100
AcDbEntity
8
0
62
256
6
ByLayer
370
-2
48
1
60
0
100
AcDbLine
10
-40
20
-6.5875
30
0
11
-40
21
-25.343428
31
0
39
0
210
0
220
0
230
1
0
LINE
5
175
100
AcDbEntity
8
0
62
256
6
ByLayer
370
-2
48
1
60
0
100
AcDbLine
10
47.742
20
-5.8375
30
0
11
47.742
21
-25.343428
31
0
39
0
210
0
220
0
230
1
0
LINE
5
176
100
AcDbEntity
8
0
62
256
6
ByLayer
370
-2
48
1
60
0
100
AcDbLine
10
-36.5
20
-23.343428
30
0
11
44.242
21
-23.343428
31
0
39
0
210
0
220
0
230
1
0
SOLID
5
177
100
AcDbEntity
8
0
62
256
6
ByLayer
370
-1
48
1
60
0
100
AcDbTrace
10
-36.5
20
-22.760095
30
0
11
-36.5
21
-23.926762
31
0
12
-40
22
-23.343428
32
0
13
-40
23
-23.343428
33
0
39
0
210
0
220
0
230
1
0
SOLID
5
178
100
AcDbEntity
8
0
62
256
6
ByLayer
370
-1
48
1
60
0
100
AcDbTrace
10
44.242
20
-23.926762
30
0
11
44.242
21
-22.760095
31
0
12
47.742
22
-23.343428
32
0
13
47.742
23
-23.343428
33
0
39
0
210
0
220
0
230
1
0
MTEXT
5
179
100
AcDbEntity
8
0
62
256
6
ByLayer
370
18
48
1
60
0
100
AcDbMText
10
3.871
20
-16.343428
30
0
210
0
220
0
230
1
1
\A1;87.74
40
3.5
41
0
44
1
50
0
71
5
72
5
7
iso_b_vert
0
POINT
5
17A
100
AcDbEntity
8
Defpoints
62
0
6
ByLayer
370
-1
48
1
60
0
100
AcDbPoint
10
-40
20
-5
30
0
39
0
210
0
220
0
230
1
50
360
0
POINT
5
17B
100
AcDbEntity
8
Defpoints
62
0
6
ByLayer
370
-1
48
1
60
0
100
AcDbPoint
10
47.742
20
-4.25
30
0
39
0
210
0
220
0
230
1
50
360
0
POINT
5
17C
100
AcDbEntity
8
Defpoints
62
0
6
ByLayer
370
-1
48
1
60
0
100
AcDbPoint
10
47.742
20
-23.343428
30
0
39
0
210
0
220
0
230
1
50
360
0
ENDBLK
5
173
100
AcDbEntity
8
0
100
AcDbBlockEnd
0
BLOCK
5
184
100
AcDbEntity
8
0
100
AcDbBlockBegin
2
_U4
70
0
10
0
20
0
30
0
3
_U4
0
MTEXT
5
17E
100
AcDbEntity
8
SK2
62
256
6
ByLayer
370
13
48
1
60
0
100
AcDbMText
10
-1.450565
20
-22.310795
30
0
210
0
220
0
230
1
1
\W0.7495;87,74
40
3.5
41
0
44
1.084337
50
0
71
7
72
5
7
iso_b_vert
0
LINE
5
17F
100
AcDbEntity
8
SK2
62
256
6
ByLayer
370
13
48
1
60
0
100
AcDbLine
10
-40
20
-6.5875
30
0
11
-40
21
-25.343428
31
0
39
0
210
0
220
0
230
1
0
LINE
5
180
100
AcDbEntity
8
SK2
62
256
6
ByLayer
370
13
48
1
60
0
100
AcDbLine
10
47.742
20
-5.8375
30
0
11
47.742
21
-25.343428
31
0
39
0
210
0
220
0
230
1
0
LINE
5
181
100
AcDbEntity
8
SK2
62
256
6
ByLayer
370
13
48
1
60
0
100
AcDbLine
10
-40
20
-23.343428
30
0
11
47.742
21
-23.343428
31
0
39
0
210
0
220
0
230
1
0
SOLID
5
182
100
AcDbEntity
8
SK2
62
256
6
ByLayer
370
18
48
1
60
0
100
AcDbTrace
10
-40
20
-23.343428
30
0
11
-36.500002
21
-22.882645
31
0
12
-36.499998
22
-23.804212
32
0
13
-36.499998
23
-23.804212
33
0
39
0
210
0
220
0
230
1
0
SOLID
5
183
100
AcDbEntity
8
SK2
62
256
6
ByLayer
370
18
48
1
60
0
100
AcDbTrace
10
47.742
20
-23.343428
30
0
11
44.242002
21
-23.804212
31
0
12
44.241998
22
-22.882645
32
0
13
44.241998
23
-22.882645
33
0
39
0
210
0
220
0
230
1
0
ENDBLK
5
185
100
AcDbEntity
8
0
100
AcDbBlockEnd
0
ENDSEC
0
SECTION
2
ENTITIES
0
ARC
5
AD
100
AcDbEntity
8
1
62
256
6
ByLayer
370
18
48
1
60
0
100
AcDbCircle
39
0
10
0
20
-4.2
30
0
40
0.800000000000005
210
0
220
0
230
1
100
AcDbArc
50
270
51
329.126396
0
ARC
5
AE
100
AcDbEntity
8
1
62
256
6
ByLayer
370
18
48
1
60
0
100
AcDbCircle
39
0
10
1.373282
20
-5.021033
30
0
40
0.799999999999995
210
0
220
0
230
1
100
AcDbArc
50
89.96419
51
149.126396
0
ARC
5
AF
100
AcDbEntity
8
1
62
256
6
ByLayer
370
18
48
1
60
0
100
AcDbCircle
39
0
10
1.373282
20
5.021033
30
0
40
0.799999999999995
210
0
220
0
230
1
100
AcDbArc
50
210.873604
51
270.03581
0
ARC
5
B0
100
AcDbEntity
8
1
62
256
6
ByLayer
370
18
48
1
60
0
100
AcDbCircle
39
0
10
0
20
4.2
30
0
40
0.800000000000005
210
0
220
0
230
1
100
AcDbArc
50
30.873604
51
90
0
ELLIPSE
5
B1
100
AcDbEntity
8
1
62
256
6
ByLayer
370
13
48
1
60
0
100
AcDbEllipse
10
4.185515
20
1.080409
30
0
11
-0.0497959767702815
21
-0.0867200132466179
31
0
210
0
220
0
230
1
40
0.280984
41
-1.13842491014426
42
-0.696066082928119
0
ELLIPSE
5
B2
100
AcDbEntity
8
1
62
256
6
ByLayer
370
18
48
1
60
0
100
AcDbEllipse
10
4.25
20
4.260924
30
0
11
0.25
21
0
31
0
210
0
220
0
230
1
40
0.999993
41
-2.95793928584935
42
-1.56726713191288
0
ELLIPSE
5
B3
100
AcDbEntity
8
1
62
256
6
ByLayer
370
18
48
1
60
0
100
AcDbEllipse
10
4.25
20
-4.260924
30
0
11
0.25
21
0
31
0
210
0
220
0
230
1
40
0.999993
41
1.56914019491851
42
2.9574848310718
0
POINT
5
70
100
AcDbEntity
8
80
62
256
6
ByLayer
370
18
48
1
60
0
100
AcDbPoint
10
0
20
0
30
0
39
0
210
0
220
0
230
1
50
360
0
POINT
5
72
100
AcDbEntity
8
81
62
256
6
ByLayer
370
18
48
1
60
0
100
AcDbPoint
10
49
20
0
30
0
39
0
210
0
220
0
230
1
50
360
0
POINT
5
74
100
AcDbEntity
8
1
62
256
6
ByLayer
370
18
48
1
60
1
100
AcDbPoint
10
47.742
20
-4.25
30
0
39
0
210
0
220
0
230
1
50
360
0
POINT
5
76
100
AcDbEntity
8
1
62
256
6
ByLayer
370
18
48
1
60
1
100
AcDbPoint
10
-40
20
-5
30
0
39
0
210
0
220
0
230
1
50
360
0
POINT
5
77
100
AcDbEntity
8
1
62
256
6
ByLayer
370
18
48
1
60
1
100
AcDbPoint
10
22.24
20
4.25
30
0
39
0
210
0
220
0
230
1
50
360
0
POINT
5
78
100
AcDbEntity
8
1
62
256
6
ByLayer
370
18
48
1
60
1
100
AcDbPoint
10
47.742
20
-4.25
30
0
39
0
210
0
220
0
230
1
50
360
0
POINT
5
79
100
AcDbEntity
8
1
62
256
6
ByLayer
370
18
48
1
60
1
100
AcDbPoint
10
-40
20
-5
30
0
39
0
210
0
220
0
230
1
50
360
0
POINT
5
7A
100
AcDbEntity
8
1
62
256
6
ByLayer
370
18
48
1
60
1
100
AcDbPoint
10
47.742
20
-4.25
30
0
39
0
210
0
220
0
230
1
50
360
0
SPLINE
5
B4
100
AcDbEntity
8
SK1
62
256
6
ByLayer
370
18
48
1
60
0
100
AcDbSpline
70
4
71
3
72
8
73
4
40
0
40
0
40
0
40
0
40
1
40
1
40
1
40
1
41
1
10
-39.35
20
-0.333173129935972
30
0
41
1
10
-39.5672428967253
20
-0.368043126119289
30
0
41
1
10
-39.7840155154954
20
-0.402982567085502
30
0
41
1
10
-40
20
-0.438038389889982
30
0
0
SPLINE
5
B5
100
AcDbEntity
8
SK1
62
256
6
ByLayer
370
18
48
1
60
0
100
AcDbSpline
70
4
71
3
72
8
73
4
40
0
40
0
40
0
40
0
40
1
40
1
40
1
40
1
41
1
10
-39.35
20
0.333173129935943
30
0
41
1
10
-39.5672428967253
20
0.368043126119289
30
0
41
1
10
-39.7840155154954
20
0.402982567085473
30
0
41
1
10
-40
20
0.438038389889982
30
0
0
SPLINE
5
B6
100
AcDbEntity
8
SK1
62
256
6
ByLayer
370
18
48
1
60
0
100
AcDbSpline
70
4
71
3
72
12
73
8
40
0
40
0
40
0
40
0
40
0.499999999999995
40
0.499999999999995
40
0.749999999999998
40
0.749999999999998
40
1
40
1
40
1
40
1
41
1
10
-39.35
20
-1.64229945204104
30
0
41
1
10
-39.3264103729719
20
-1.64608585986764
30
0
41
1
10
-39.3036886178189
20
-1.64212489602983
30
0
41
1
10
-39.275599229617
20
-1.62372812795988
30
0
41
1
10
-39.2670477807071
20
-1.61527322793742
30
0
41
1
10
-39.2542670006876
20
-1.59308148057013
30
0
41
1
10
-39.25
20
-1.57891123368654
30
0
41
1
10
-39.25
20
-1.56301112192659
30
0
0
SPLINE
5
B7
100
AcDbEntity
8
SK1
62
256
6
ByLayer
370
18
48
1
60
0
100
AcDbSpline
70
4
71
3
72
12
73
8
40
0
40
0
40
0
40
0
40
0.25
40
0.25
40
0.5
40
0.5
40
1
40
1
40
1
40
1
41
1
10
-39.25
20
-0.214914201852679
30
0
41
1
10
-39.25
20
-0.231915885021721
30
0
41
1
10
-39.2542356242269
20
-0.248386238417083
30
0
41
1
10
-39.2670201311554
20
-0.276460671643577
30
0
41
1
10
-39.2754786511825
20
-0.288280760609467
30
0
41
1
10
-39.3037388067419
20
-0.317613083308515
30
0
41
1
10
-39.3264172660865
20
-0.329387828533953
30
0
41
1
10
-39.35
20
-0.333173129936
30
0
0
SPLINE
5
B8
100
AcDbEntity
8
SK1
62
256
6
ByLayer
370
18
48
1
60
0
100
AcDbSpline
70
4
71
3
72
8
73
4
40
0
40
0
40
0
40
0
40
1
40
1
40
1
40
1
41
1
10
-40
20
-1.53743419208698
30
0
41
1
10
-39.7840042043132
20
-1.57249185077703
30
0
41
1
10
-39.567233287583
20
-1.60743099823608
30
0
41
1
10
-39.35
20
-1.64229945204099
30
0
0
SPLINE
5
B9
100
AcDbEntity
8
SK1
62
256
6
ByLayer
370
18
48
1
60
0
100
AcDbSpline
70
4
71
3
72
12
73
8
40
0
40
0
40
0
40
0
40
0.25
40
0.25
40
0.5
40
0.5
40
1
40
1
40
1
40
1
41
1
10
-39.25
20
0.214914201852679
30
0
41
1
10
-39.25
20
0.231915885021721
30
0
41
1
10
-39.2542356242269
20
0.248386238417083
30
0
41
1
10
-39.2670201311554
20
0.276460671643577
30
0
41
1
10
-39.2754786511825
20
0.288280760609467
30
0
41
1
10
-39.3037388067419
20
0.317613083308515
30
0
41
1
10
-39.3264172660865
20
0.329387828533953
30
0
41
1
10
-39.35
20
0.333173129936
30
0
0
SPLINE
5
BA
100
AcDbEntity
8
1
62
256
6
ByLayer
370
18
48
1
60
0
100
AcDbSpline
70
4
71
3
72
16
73
12
40
0
40
0
40
0
40
0
40
0.431640735937553
40
0.431640735937553
40
0.559534313018804
40
0.559534313018804
40
0.687427890100055
40
0.687427890100055
40
0.943215044262557
40
0.943215044262557
40
1
40
1
40
1
40
1
41
1
10
20.056111399303
20
-4.02024804718411
30
0
41
1
10
19.2995162278177
20
-4.01883612209164
30
0
41
1
10
18.5423278315488
20
-3.97129836642327
30
0
41
1
10
17.5544566390679
20
-3.85022672120252
30
0
41
1
10
17.3281831237627
20
-3.81851477448225
30
0
41
1
10
16.8745743225859
20
-3.74716026277034
30
0
41
1
10
16.647149317206
20
-3.70747383098742
30
0
41
1
10
15.967599703551
20
-3.57768288093482
30
0
41
1
10
15.5166000254054
20
-3.47663756861669
30
0
41
1
10
14.9669116314305
20
-3.33680195098648
30
0
41
1
10
14.8671072884499
20
-3.31073757781598
30
0
41
1
10
14.7673497304985
20
-3.28402938061765
30
0
0
SPLINE
5
BB
100
AcDbEntity
8
1
62
256
6
ByLayer
370
13
48
1
60
0
100
AcDbSpline
70
4
71
3
72
18
73
14
40
0
40
0
40
0
40
0
40
0.228593317200659
40
0.228593317200659
40
0.357161097667216
40
0.357161097667216
40
0.421444987900495
40
0.421444987900495
40
0.485728878133775
40
0.485728878133775
40
0.742864439066888
40
0.742864439066888
40
1
40
1
40
1
40
1
41
1
10
14.7673487641195
20
-3.28402912188798
30
0
41
1
10
13.9683931925615
20
-3.07012386214908
30
0
41
1
10
13.172438581135
20
-2.81492138517433
30
0
41
1
10
11.9248927087755
20
-2.36500246838105
30
0
41
1
10
11.4750712237947
20
-2.19251312222539
30
0
41
1
10
10.7979532993157
20
-1.92035381107655
30
0
41
1
10
10.5718080989925
20
-1.82744859650219
30
0
41
1
10
10.1183914862596
20
-1.63769553913224
30
0
41
1
10
9.89084669697095
20
-1.54072359172761
30
0
41
1
10
8.75690811183787
20
-1.05020780079934
30
0
41
1
10
7.85741823312503
20
-0.637151342368185
30
0
41
1
10
6.05790072227376
20
0.195494252370224
30
0
41
1
10
5.15809972730074
20
0.615570989634449
30
0
41
1
10
4.25026086086632
20
1.02180536923919
30
0
0
SPLINE
5
BC
100
AcDbEntity
8
1
62
256
6
ByLayer
370
13
48
1
60
0
100
AcDbSpline
70
4
71
3
72
27
73
23
40
0
40
0
40
0
40
0
40
0.147950378887867
40
0.147950378887867
40
0.221925568331801
40
0.221925568331801
40
0.295900757775734
40
0.369875947219668
40
0.369875947219668
40
0.443851136663601
40
0.443851136663601
40
0.591801515551468
40
0.591801515551468
40
0.665776704995402
40
0.665776704995402
40
0.739751894439336
40
0.739751894439336
40
0.813727083883269
40
0.813727083883269
40
0.887702273327203
40
0.887702273327203
40
1
40
1
40
1
40
1
41
1
10
4.25026086086632
20
1.02180536923919
30
0
41
1
10
4.25029468465146
20
1.27471638256725
30
0
41
1
10
4.25032176400231
20
1.51839166441627
30
0
41
1
10
4.25035600884928
20
1.87017863435844
30
0
41
1
10
4.25036634153213
20
1.98505431694798
30
0
41
1
10
4.25038515542772
20
2.20605196142122
30
0
41
1
10
4.25040222885582
20
2.41940266442495
30
0
41
1
10
4.25041712294762
20
2.6176986964268
30
0
41
1
10
4.25043151927264
20
2.80837457850277
30
0
41
1
10
4.25043850000367
20
2.9003022410698
30
0
41
1
10
4.25045929531552
20
3.16127349566156
30
0
41
1
10
4.25047287554074
20
3.31396989297753
30
0
41
1
10
4.25049543729477
20
3.51205477079296
30
0
41
1
10
4.25050331109742
20
3.57288659089247
30
0
41
1
10
4.25052007986846
20
3.68387336810056
30
0
41
1
10
4.25052897000401
20
3.73390051852309
30
0
41
1
10
4.25054767630169
20
3.82149004778805
30
0
41
1
10
4.25055752672557
20
3.85929296991904
30
0
41
1
10
4.25057827778107
20
3.92276350703338
30
0
41
1
10
4.25058915206097
20
3.94830176548805
30
0
41
1
10
4.25061741383752
20
3.99651302422242
30
0
41
1
10
4.25063519650834
20
4.01091252468123
30
0
41
1
10
4.25065327443784
20
4.01097824117093
30
0
0
SPLINE
5
BD
100
AcDbEntity
8
1
62
256
6
ByLayer
370
18
48
1
60
0
100
AcDbSpline
70
4
71
3
72
8
73
4
40
0
40
0
40
0
40
0
40
1
40
1
40
1
40
1
41
1
10
48.9479992601597
20
0.965137393912443
30
0
41
1
10
48.9669771538309
20
0.682355379605013
30
0
41
1
10
48.9808154067475
20
0.399897590032168
30
0
41
1
10
48.9895129446467
20
0.117764092961721
30
0
0
SPLINE
5
BE
100
AcDbEntity
8
1
62
256
6
ByLayer
370
18
48
1
60
0
100
AcDbSpline
70
4
71
3
72
50
73
46
40
0
40
0
40
0
40
0
40
0.0489875219027081
40
0.0489875219027081
40
0.0979750438054162
40
0.0979750438054162
40
0.146962565708124
40
0.146962565708124
40
0.195950087610832
40
0.195950087610832
40
0.24493760951354
40
0.24493760951354
40
0.293925131416248
40
0.293925131416248
40
0.342912653318957
40
0.342912653318957
40
0.391900175221665
40
0.391900175221665
40
0.440887697124373
40
0.440887697124373
40
0.489875219027081
40
0.489875219027081
40
0.538862740929789
40
0.538862740929789
40
0.587850262832497
40
0.587850262832497
40
0.636837784735205
40
0.636837784735205
40
0.685825306637913
40
0.685825306637913
40
0.734812828540621
40
0.734812828540621
40
0.759306589491975
40
0.759306589491975
40
0.783800350443328
40
0.783800350443328
40
0.88177539424874
40
0.88177539424874
40
0.906269155200093
40
0.906269155200093
40
0.930762916151445
40
0.930762916151445
40
0.97975043805415
40
0.97975043805415
40
1
40
1
40
1
40
1
41
1
10
47.5062442571744
20
-4.24391048488763
30
0
41
1
10
47.0545301430305
20
-4.25538292651066
30
0
41
1
10
46.6031480093277
20
-4.24944270312
30
0
41
1
10
45.6991031110492
20
-4.2029912677927
30
0
41
1
10
45.2467603336494
20
-4.16244182198088
30
0
41
1
10
44.3433655872836
20
-4.04785773499398
30
0
41
1
10
43.8913486967947
20
-3.97375426230667
30
0
41
1
10
42.9869938171876
20
-3.79359280567886
30
0
41
1
10
42.5355005197599
20
-3.68780517921505
30
0
41
1
10
41.6318881663196
20
-3.44683398078374
30
0
41
1
10
41.1793006344151
20
-3.31155236402313
30
0
41
1
10
40.2755964144671
20
-3.01567035322745
30
0
41
1
10
39.8240566353173
20
-2.85492513911532
30
0
41
1
10
38.9195117413249
20
-2.51082761267938
30
0
41
1
10
38.4677851634161
20
-2.3281113743943
30
0
41
1
10
37.5657374487233
20
-1.94588292908713
30
0
41
1
10
37.1150539436876
20
-1.74621667240117
30
0
41
1
10
36.2121745655964
20
-1.3338041690341
30
0
41
1
10
35.759321188566
20
-1.12058866066806
30
0
41
1
10
34.8563380372113
20
-0.688011449670057
30
0
41
1
10
34.4055702038785
20
-0.468559105175274
30
0
41
1
10
33.5034251665435
20
-0.0275342250922677
30
0
41
1
10
33.0519006096586
20
0.194314595941677
30
0
41
1
10
32.1471241174286
20
0.635447740076273
30
0
41
1
10
31.695910963179
20
0.853549274992275
30
0
41
1
10
30.7937975677863
20
1.28079051911539
30
0
41
1
10
30.3429075933581
20
1.48995093195094
30
0
41
1
10
29.4394523711657
20
1.89538847828064
30
0
41
1
10
28.9866242317975
20
2.09159903603413
30
0
41
1
10
28.0837667862315
20
2.46385643567493
30
0
41
1
10
27.6329475189841
20
2.64040122095014
30
0
41
1
10
26.9560733703081
20
2.88830326323503
30
0
41
1
10
26.730351259032
20
2.96813421349424
30
0
41
1
10
26.2784366923656
20
3.12174765331943
30
0
41
1
10
26.0520443043839
20
3.19559918546062
30
0
41
1
10
24.9217542742759
20
3.54743879086004
30
0
41
1
10
24.0215528683936
20
3.77364572013516
30
0
41
1
10
22.8912386729089
20
3.97687851594529
30
0
41
1
10
22.6647826947641
20
4.01354442990899
30
0
41
1
10
22.2127312408366
20
4.07844265484871
30
0
41
1
10
21.9869440683445
20
4.10671375080923
30
0
41
1
10
21.3099074166807
20
4.17885794827279
30
0
41
1
10
20.8591228601696
20
4.21010182809155
30
0
41
1
10
20.2210891982825
20
4.22986791387999
30
0
41
1
10
20.0342173237596
20
4.23269166619076
30
0
41
1
10
19.8472572948227
20
4.232563614962
30
0
0
SPLINE
5
BF
100
AcDbEntity
8
1
62
256
6
ByLayer
370
18
48
1
60
0
100
AcDbSpline
70
4
71
3
72
10
73
6
40
0
40
0
40
0
40
0
40
0.5
40
0.5
40
1
40
1
40
1
40
1
41
1
10
47.7199682971523
20
-4.1344288908648
30
0
41
1
10
47.6807617157164
20
-4.16364081847286
30
0
41
1
10
47.6431455882898
20
-4.18768474457002
30
0
41
1
10
47.5713745869493
20
-4.22456456459599
30
0
41
1
10
47.5377506493767
20
-4.23713605565479
30
0
41
1
10
47.5062442571743
20
-4.24391048488763
30
0
0
SPLINE
5
C0
100
AcDbEntity
8
1
62
256
6
ByLayer
370
13
48
1
60
0
100
AcDbSpline
70
4
71
3
72
8
73
4
40
0
40
0
40
0
40
0
40
1
40
1
40
1
40
1
41
1
10
4.25026086086632
20
1.02180536923922
30
0
41
1
10
4.21292003012701
20
1.03182749691979
30
0
41
1
10
4.17650199216345
20
1.04357533956448
30
0
41
1
10
4.14252425741364
20
1.05677494613312
30
0
0
SPLINE
5
C1
100
AcDbEntity
8
1
62
256
6
ByLayer
370
18
48
1
60
0
100
AcDbSpline
70
4
71
3
72
8
73
4
40
0
40
0
40
0
40
0
40
1
40
1
40
1
40
1
41
1
10
4.00762152320237
20
1.17537013699479
30
0
41
1
10
4.00448007805448
20
1.18731707473475
30
0
41
1
10
4.00287165346833
20
1.19943326800311
30
0
41
1
10
4.00287195165873
20
1.21172633091433
30
0
0
SPLINE
5
C2
100
AcDbEntity
8
1
62
256
6
ByLayer
370
18
48
1
60
0
100
AcDbSpline
70
4
71
3
72
30
73
26
40
0
40
0
40
0
40
0
40
0.0625000000000023
40
0.0625000000000023
40
0.125000000000005
40
0.125000000000005
40
0.187500000000007
40
0.187500000000007
40
0.250000000000009
40
0.250000000000009
40
0.312500000000012
40
0.312500000000012
40
0.375000000000014
40
0.375000000000014
40
0.50000000000001
40
0.50000000000001
40
0.625000000000005
40
0.625000000000005
40
0.750000000000001
40
0.750000000000001
40
0.874999999999997
40
0.874999999999997
40
0.937499999999998
40
0.937499999999998
40
1
40
1
40
1
40
1
41
1
10
48.1919602107141
20
-1.3675334621262
30
0
41
1
10
48.1887207310176
20
-1.39417088053403
30
0
41
1
10
48.1841259370279
20
-1.42305553275347
30
0
41
1
10
48.1725898187152
20
-1.48260466310762
30
0
41
1
10
48.1656700584489
20
-1.51332522843848
30
0
41
1
10
48.1495700179985
20
-1.5766471573595
30
0
41
1
10
48.1402954259074
20
-1.60950979197767
30
0
41
1
10
48.1202356796505
20
-1.67457115515859
30
0
41
1
10
48.1093955857522
20
-1.70703505830272
30
0
41
1
10
48.0861821716468
20
-1.77184338114307
30
0
41
1
10
48.0738340747272
20
-1.80407211829839
30
0
41
1
10
48.0485447957295
20
-1.86623088728805
30
0
41
1
10
48.0355009851318
20
-1.89645231433161
30
0
41
1
10
47.9952515716799
20
-1.98465911793761
30
0
41
1
10
47.9678076724817
20
-2.03830623317418
30
0
41
1
10
47.9129340137807
20
-2.13447403537293
30
0
41
1
10
47.8855333986068
20
-2.17676841105836
30
0
41
1
10
47.8341180197322
20
-2.24574911892435
30
0
41
1
10
47.8096976100081
20
-2.27317754992092
30
0
41
1
10
47.7637545614052
20
-2.31326970665057
30
0
41
1
10
47.7430723304283
20
-2.32522937629858
30
0
41
1
10
47.715403068872
20
-2.33091208503612
30
0
41
1
10
47.7066889966902
20
-2.33070081879581
30
0
41
1
10
47.6908904654488
20
-2.3258955205639
30
0
41
1
10
47.683772370141
20
-2.32134411454396
30
0
41
1
10
47.6774400890146
20
-2.31460061519948
30
0
0
SPLINE
5
C3
100
AcDbEntity
8
1
62
256
6
ByLayer
370
18
48
1
60
0
100
AcDbSpline
70
4
71
3
72
10
73
6
40
0
40
0
40
0
40
0
40
0.5
40
0.5
40
1
40
1
40
1
40
1
41
1
10
47.7199682971523
20
4.1344288908648
30
0
41
1
10
47.6807617157164
20
4.16364081847286
30
0
41
1
10
47.6431455882899
20
4.18768474457002
30
0
41
1
10
47.5713745869493
20
4.22456456459599
30
0
41
1
10
47.5377506493767
20
4.23713605565476
30
0
41
1
10
47.5062442571744
20
4.24391048488763
30
0
0
SPLINE
5
C4
100
AcDbEntity
8
1
62
256
6
ByLayer
370
18
48
1
60
0
100
AcDbSpline
70
4
71
3
72
36
73
32
40
0
40
0
40
0
40
0
40
0.0885476180236337
40
0.0885476180236337
40
0.134120237122452
40
0.134120237122452
40
0.179692856221271
40
0.179692856221271
40
0.225265475320089
40
0.225265475320089
40
0.270838094418907
40
0.270838094418907
40
0.316410713517725
40
0.316410713517725
40
0.361983332616544
40
0.361983332616544
40
0.407555951715362
40
0.407555951715362
40
0.45312857081418
40
0.45312857081418
40
0.544273809011817
40
0.544273809011817
40
0.635419047209454
40
0.635419047209454
40
0.72656428540709
40
0.72656428540709
40
0.817709523604727
40
0.817709523604727
40
0.908854761802363
40
0.908854761802363
40
1
40
1
40
1
40
1
41
1
10
32.6821776832388
20
4.02477053108134
30
0
41
1
10
33.0023908720634
20
4.02376098543706
30
0
41
1
10
33.3226185664519
20
4.01647994480297
30
0
41
1
10
33.806715886581
20
3.98951981977487
30
0
41
1
10
33.9713767330367
20
3.97790159448311
30
0
41
1
10
34.3005836410541
20
3.95032011899093
30
0
41
1
10
34.4651589711693
20
3.93430506173394
30
0
41
1
10
34.7947088056708
20
3.89821250373717
30
0
41
1
10
34.9595984754427
20
3.87810456073055
30
0
41
1
10
35.2894599308644
20
3.83386287325439
30
0
41
1
10
35.4545201655593
20
3.80970415858198
30
0
41
1
10
35.7846746098761
20
3.75809626140995
30
0
41
1
10
35.9495570984146
20
3.73056405305169
30
0
41
1
10
36.2790820122744
20
3.67070335391992
30
0
41
1
10
36.4437944735347
20
3.63849926907125
30
0
41
1
10
36.773024675216
20
3.56998139301905
30
0
41
1
10
36.9374777730352
20
3.53364209197812
30
0
41
1
10
37.266457582218
20
3.45723732654142
30
0
41
1
10
37.4311496202779
20
3.41733401649864
30
0
41
1
10
37.9248869216062
20
3.29154930140652
30
0
41
1
10
38.2545263121152
20
3.20136015606187
30
0
41
1
10
38.9142391378218
20
3.0065451066699
30
0
41
1
10
39.2442398144732
20
2.90146859824554
30
0
41
1
10
39.9029097042785
20
2.67979062469493
30
0
41
1
10
40.2318716393465
20
2.56296014185827
30
0
41
1
10
40.8900009068311
20
2.31974644567819
30
0
41
1
10
41.2191712864183
20
2.19377328296881
30
0
41
1
10
41.8783568091159
20
1.93084302129446
30
0
41
1
10
42.2084558793168
20
1.79317839726545
30
0
41
1
10
42.8681466632679
20
1.51294604369434
30
0
41
1
10
43.1975860928506
20
1.36953441716727
30
0
41
1
10
43.5270315425302
20
1.22405142436702
30
0
0
SPLINE
5
C5
100
AcDbEntity
8
1
62
256
6
ByLayer
370
18
48
1
60
0
100
AcDbSpline
70
4
71
3
72
18
73
14
40
0
40
0
40
0
40
0
40
0.316863482224028
40
0.316863482224028
40
0.475295223336042
40
0.475295223336042
40
0.633726964448055
40
0.633726964448055
40
0.792158705560069
40
0.792158705560069
40
0.950590446672083
40
0.950590446672083
40
1
40
1
40
1
40
1
41
1
10
11.8910563397549
20
2.9361337635612
30
0
41
1
10
11.2282766300117
20
3.12829672644875
30
0
41
1
10
10.5745955494878
20
3.31235741974507
30
0
41
1
10
9.59865471890387
20
3.54702277406653
30
0
41
1
10
9.27479195928836
20
3.61786711480099
30
0
41
1
10
8.62941458146997
20
3.7442948164321
30
0
41
1
10
8.3077826040645
20
3.80027933806278
30
0
41
1
10
7.6657572592932
20
3.89367622750112
30
0
41
1
10
7.34623597969045
20
3.93127154501863
30
0
41
1
10
6.71260971347437
20
3.98605430715435
30
0
41
1
10
6.39815346088801
20
4.0029157170292
30
0
41
1
10
5.98875414362138
20
4.01118463881639
30
0
41
1
10
5.89165805383578
20
4.0121291545461
30
0
41
1
10
5.79482069334861
20
4.01196272044726
30
0
0
SPLINE
5
C6
100
AcDbEntity
8
1
62
256
6
ByLayer
370
18
48
1
60
0
100
AcDbSpline
70
4
71
3
72
74
73
70
40
0
40
0
40
0
40
0
40
0.0331219116161664
40
0.0331219116161664
40
0.0662438232323329
40
0.0662438232323329
40
0.0993657348484993
40
0.0993657348484993
40
0.132487646464666
40
0.132487646464666
40
0.165609558080832
40
0.165609558080832
40
0.182170513888915
40
0.182170513888915
40
0.198731469696998
40
0.198731469696998
40
0.231853381313164
40
0.231853381313164
40
0.264975292929329
40
0.264975292929329
40
0.298097204545494
40
0.298097204545494
40
0.33121911616166
40
0.33121911616166
40
0.364341027777826
40
0.364341027777826
40
0.380901983585908
40
0.380901983585908
40
0.39746293939399
40
0.39746293939399
40
0.430584851010154
40
0.430584851010154
40
0.463706762626319
40
0.463706762626319
40
0.496828674242483
40
0.496828674242483
40
0.529950585858648
40
0.529950585858648
40
0.563072497474812
40
0.563072497474812
40
0.579633453282894
40
0.579633453282894
40
0.596194409090976
40
0.596194409090976
40
0.62931632070714
40
0.62931632070714
40
0.662438232323303
40
0.662438232323303
40
0.695560143939467
40
0.695560143939467
40
0.72868205555563
40
0.72868205555563
40
0.761803967171793
40
0.761803967171793
40
0.794925878787957
40
0.794925878787957
40
0.82804779040412
40
0.82804779040412
40
0.861169702020283
40
0.861169702020283
40
0.894291613636447
40
0.894291613636447
40
0.92741352525261
40
0.92741352525261
40
0.960535436868774
40
0.960535436868774
40
0.993657348484937
40
0.993657348484937
40
1
40
1
40
1
40
1
41
1
10
11.8910563397549
20
3.05492946416339
30
0
41
1
10
12.2671915919391
20
3.18328993425902
30
0
41
1
10
12.6426631962252
20
3.30060309301658
30
0
41
1
10
13.3907697917685
20
3.51653787660797
30
0
41
1
10
13.7629466829717
20
3.61550296573003
30
0
41
1
10
14.5072953448249
20
3.79130617581274
30
0
41
1
10
14.8791154640406
20
3.86866918647516
30
0
41
1
10
15.6218981210527
20
4.00237231289677
30
0
41
1
10
15.993506112621
20
4.05816852205086
30
0
41
1
10
16.7381514183447
20
4.14714372243364
30
0
41
1
10
17.1104463044847
20
4.18060517320757
30
0
41
1
10
17.6713721725895
20
4.21294835352734
30
0
41
1
10
17.8587769228031
20
4.22078395714217
30
0
41
1
10
18.2342137772608
20
4.23057623841643
30
0
41
1
10
18.4223151560288
20
4.23252707652156
30
0
41
1
10
18.9868817671855
20
4.22930431621182
30
0
41
1
10
19.3616660358718
20
4.21511731292654
30
0
41
1
10
20.1093369554404
20
4.16368077838789
30
0
41
1
10
20.4814308407573
20
4.12609735274018
30
0
41
1
10
21.2253854563934
20
4.02877171368698
30
0
41
1
10
21.5971906622889
20
3.96916093420873
30
0
41
1
10
22.339853984981
20
3.82759241734385
30
0
41
1
10
22.7113173111062
20
3.74604197210715
30
0
41
1
10
23.456013339228
20
3.56296761583801
30
0
41
1
10
23.8284075414743
20
3.46048384116435
30
0
41
1
10
24.3893213577709
20
3.29263894308821
30
0
41
1
10
24.5767462697319
20
3.23445442339238
30
0
41
1
10
24.9523040223438
20
3.1133208326921
30
0
41
1
10
25.140605948247
20
3.05013529837265
30
0
41
1
10
25.7047924461672
20
2.85410555377015
30
0
41
1
10
26.079231183402
20
2.71557808258643
30
0
41
1
10
26.8264818306647
20
2.4260772782404
30
0
41
1
10
27.1984441616854
20
2.27362480181989
30
0
41
1
10
27.9418335605844
20
1.95828928144141
30
0
41
1
10
28.3135271170393
20
1.79596345305114
30
0
41
1
10
29.055831133668
20
1.45997187360751
30
0
41
1
10
29.4270283637816
20
1.28738777620779
30
0
41
1
10
30.1714304162467
20
0.936915528585416
30
0
41
1
10
30.5437816503613
20
0.757274058726239
30
0
41
1
10
31.1043896878236
20
0.484903725262086
30
0
41
1
10
31.2917184618781
20
0.393880489413704
30
0
41
1
10
31.6671614993056
20
0.21107731253673
30
0
41
1
10
31.8554452276057
20
0.11901242018871
30
0
41
1
10
32.4196030196366
20
-0.157829626584657
30
0
41
1
10
32.7939240006328
20
-0.341720313819849
30
0
41
1
10
33.5411058500726
20
-0.703850226994177
30
0
41
1
10
33.9131283422305
20
-0.883880754948507
30
0
41
1
10
34.6562821134046
20
-1.23718556276609
30
0
41
1
10
35.0279631000677
20
-1.40939828589913
30
0
41
1
10
35.7701355341449
20
-1.74775712325598
30
0
41
1
10
36.1411712979993
20
-1.91278664715588
30
0
41
1
10
36.8853902855467
20
-2.23033925152555
30
0
41
1
10
37.2577596909065
20
-2.38436965213097
30
0
41
1
10
38.0049485368136
20
-2.67922845822943
30
0
41
1
10
38.3809284168452
20
-2.81917722208729
30
0
41
1
10
39.1331261760177
20
-3.08490625223007
30
0
41
1
10
39.5073304508922
20
-3.2089640755631
30
0
41
1
10
40.2544051221831
20
-3.43662057483647
30
0
41
1
10
40.626491094554
20
-3.54130143222653
30
0
41
1
10
41.3694590539223
20
-3.73030773940391
30
0
41
1
10
41.7410609924351
20
-3.81397678991812
30
0
41
1
10
42.4831638384535
20
-3.96106494074536
30
0
41
1
10
42.8540335920976
20
-4.02401128197755
30
0
41
1
10
43.5980434536198
20
-4.1269078222812
30
0
41
1
10
43.9704329452154
20
-4.16735652302927
30
0
41
1
10
44.7173909105389
20
-4.2249770940096
30
0
41
1
10
45.0930663864101
20
-4.24201151455713
30
0
41
1
10
45.541335087112
20
-4.2480949171659
30
0
41
1
10
45.613332904042
20
-4.24862787888787
30
0
41
1
10
45.685294190755
20
-4.24871850874544
30
0
0
SPLINE
5
C7
100
AcDbEntity
8
1
62
256
6
ByLayer
370
18
48
1
60
0
100
AcDbSpline
70
4
71
3
72
8
73
4
40
0
40
0
40
0
40
0
40
1
40
1
40
1
40
1
41
1
10
48.9999613328048
20
0.0417745553089333
30
0
41
1
10
49.0000128919885
20
0.0139232718232734
30
0
41
1
10
49.0000128852141
20
-0.0139269312105341
30
0
41
1
10
48.9999613328048
20
-0.0417745552970814
30
0
0
SPLINE
5
C8
100
AcDbEntity
8
1
62
256
6
ByLayer
370
18
48
1
60
0
100
AcDbSpline
70
4
71
3
72
38
73
34
40
0
40
0
40
0
40
0
40
0.12499999999999
40
0.12499999999999
40
0.24999999999998
40
0.24999999999998
40
0.312499999999975
40
0.312499999999975
40
0.374999999999971
40
0.374999999999971
40
0.406249999999968
40
0.406249999999968
40
0.437499999999965
40
0.437499999999965
40
0.453124999999964
40
0.453124999999964
40
0.468749999999963
40
0.468749999999963
40
0.484374999999961
40
0.484374999999961
40
0.49999999999996
40
0.49999999999996
40
0.531249999999963
40
0.531249999999963
40
0.562499999999965
40
0.562499999999965
40
0.62499999999997
40
0.62499999999997
40
0.74999999999998
40
0.74999999999998
40
0.87499999999999
40
0.87499999999999
40
1
40
1
40
1
40
1
41
1
10
47.6774400890148
20
-2.31460061519934
30
0
41
1
10
47.513883510159
20
-2.26826797402711
30
0
41
1
10
47.3504143447994
20
-2.20706351154144
30
0
41
1
10
47.0259929899047
20
-2.05436436722724
30
0
41
1
10
46.8675262795027
20
-1.96451808714241
30
0
41
1
10
46.6379986917472
20
-1.80028752453876
30
0
41
1
10
46.5628714938816
20
-1.74047785078167
30
0
41
1
10
46.4202149936346
20
-1.60816272200157
30
0
41
1
10
46.3520048119917
20
-1.53550523921896
30
0
41
1
10
46.2646432324609
20
-1.41251445874119
30
0
41
1
10
46.2375514459926
20
-1.36832789862848
30
0
41
1
10
46.1942058163191
20
-1.27454606624553
30
0
41
1
10
46.177927820313
20
-1.22447099181812
30
0
41
1
10
46.1701321765793
20
-1.15002131219242
30
0
41
1
10
46.1703838189597
20
-1.12509104643726
30
0
41
1
10
46.1771513157046
20
-1.0785634054952
30
0
41
1
10
46.1837595297196
20
-1.05633955259711
30
0
41
1
10
46.201953696869
20
-1.01668089792526
30
0
41
1
10
46.2136932020506
20
-0.998737146015941
30
0
41
1
10
46.2402398843183
20
-0.967368979899618
30
0
41
1
10
46.2550288654172
20
-0.953816533139815
30
0
41
1
10
46.3027552139405
20
-0.917883949586553
30
0
41
1
10
46.3385053226708
20
-0.900568678336754
30
0
41
1
10
46.4123404101424
20
-0.874424872201303
30
0
41
1
10
46.4511246669236
20
-0.865427700954257
30
0
41
1
10
46.5690896783201
20
-0.846965974098453
30
0
41
1
10
46.6492642830947
20
-0.845642494531745
30
0
41
1
10
46.8922365039008
20
-0.859235407374882
30
0
41
1
10
47.0582931543535
20
-0.892183662807128
30
0
41
1
10
47.3873781706185
20
-0.983899656143649
30
0
41
1
10
47.5520342823515
20
-1.04364780277388
30
0
41
1
10
47.8762201740743
20
-1.18637588059229
30
0
41
1
10
48.0358369714676
20
-1.26900664807005
30
0
41
1
10
48.1919602107141
20
-1.36753346212629
30
0
0
SPLINE
5
C9
100
AcDbEntity
8
1
62
256
6
ByLayer
370
18
48
1
60
0
100
AcDbSpline
70
4
71
3
72
8
73
4
40
0
40
0
40
0
40
0
40
1
40
1
40
1
40
1
41
1
10
47.5520022617596
20
-4.12947468441993
30
0
41
1
10
47.5367732264637
20
-4.16765862634466
30
0
41
1
10
47.5215197157519
20
-4.20580477839528
30
0
41
1
10
47.5062442571744
20
-4.24391048488763
30
0
0
SPLINE
5
CA
100
AcDbEntity
8
1
62
256
6
ByLayer
370
18
48
1
60
0
100
AcDbSpline
70
4
71
3
72
8
73
4
40
0
40
0
40
0
40
0
40
1
40
1
40
1
40
1
41
1
10
48.9642472143531
20
-0.0480548725774099
30
0
41
1
10
48.6996020808434
20
-0.48132824607174
30
0
41
1
10
48.4421346354168
20
-0.921119532179404
30
0
41
1
10
48.191960210714
20
-1.36753346212629
30
0
0
SPLINE
5
CB
100
AcDbEntity
8
1
62
256
6
ByLayer
370
18
48
1
60
0
100
AcDbSpline
70
4
71
3
72
10
73
6
40
0
40
0
40
0
40
0
40
0.5
40
0.5
40
1
40
1
40
1
40
1
41
1
10
47.7199682971473
20
-4.1344288908829
30
0
41
1
10
47.9118969030342
20
-3.59853571488668
30
0
41
1
10
48.1107104480543
20
-3.0671300286746
30
0
41
1
10
48.5204236749447
20
-2.0111859592177
30
0
41
1
10
48.7314064284166
20
-1.48671034790874
30
0
41
1
10
48.9479992601597
20
-0.965137393912443
30
0
0
SPLINE
5
CC
100
AcDbEntity
8
1
62
256
6
ByLayer
370
18
48
1
60
0
100
AcDbSpline
70
4
71
3
72
92
73
88
40
0
40
0
40
0
40
0
40
0.0116033991923608
40
0.0116033991923608
40
0.048210680703758
40
0.048210680703758
40
0.0665143214594559
40
0.0665143214594559
40
0.0848179622151539
40
0.0848179622151539
40
0.103121602970852
40
0.103121602970852
40
0.12142524372655
40
0.12142524372655
40
0.158032525237946
40
0.158032525237946
40
0.176336165993643
40
0.176336165993643
40
0.194639806749341
40
0.194639806749341
40
0.231247088260734
40
0.231247088260734
40
0.267854369772127
40
0.267854369772127
40
0.286158010527824
40
0.286158010527824
40
0.304461651283521
40
0.304461651283521
40
0.322765292039217
40
0.322765292039217
40
0.341068932794914
40
0.341068932794914
40
0.377676214306307
40
0.377676214306307
40
0.395979855062005
40
0.395979855062005
40
0.414283495817702
40
0.414283495817702
40
0.450890777329098
40
0.450890777329098
40
0.469194418084796
40
0.469194418084796
40
0.487498058840494
40
0.487498058840494
40
0.505801699596192
40
0.505801699596192
40
0.52410534035189
40
0.52410534035189
40
0.542408981107588
40
0.542408981107588
40
0.560712621863286
40
0.560712621863286
40
0.597319903374681
40
0.597319903374681
40
0.615623544130377
40
0.615623544130377
40
0.633927184886074
40
0.633927184886074
40
0.65223082564177
40
0.65223082564177
40
0.670534466397467
40
0.670534466397467
40
0.70714174790886
40
0.70714174790886
40
0.743749029420253
40
0.743749029420253
40
0.762052670175949
40
0.762052670175949
40
0.780356310931645
40
0.780356310931645
40
0.798659951687342
40
0.798659951687342
40
0.816963592443038
40
0.816963592443038
40
0.835267233198734
40
0.835267233198734
40
0.853570873954431
40
0.853570873954431
40
0.890178155465824
40
0.890178155465824
40
0.926785436977216
40
0.926785436977216
40
0.945089077732913
40
0.945089077732913
40
0.963392718488609
40
0.963392718488609
40
1
40
1
40
1
40
1
41
1
10
38.8988843155916
20
-3.00882424317521
30
0
41
1
10
38.7945051452036
20
-3.04112743481747
30
0
41
1
10
38.6901047620439
20
-3.07272602980177
30
0
41
1
10
38.2561880663441
20
-3.20089004974275
30
0
41
1
10
37.9256573756318
20
-3.29135396408771
30
0
41
1
10
37.4306740018465
20
-3.41745471318342
30
0
41
1
10
37.2656587506738
20
-3.45742996953021
30
0
41
1
10
36.9362167609674
20
-3.53392779806433
30
0
41
1
10
36.7716219186862
20
-3.57028547241308
30
0
41
1
10
36.4422935520495
20
-3.63879938225415
30
0
41
1
10
36.2776260491457
20
-3.67097983633695
30
0
41
1
10
35.9484042503337
20
-3.73076138554171
30
0
41
1
10
35.7837812321452
20
-3.75823989647191
30
0
41
1
10
35.2895527291254
20
-3.83548295125058
30
0
41
1
10
34.9602628801004
20
-3.88007723595766
30
0
41
1
10
34.465099286175
20
-3.93431342409218
30
0
41
1
10
34.3000001899483
20
-3.95037723169085
30
0
41
1
10
33.9701424177932
20
-3.97799673164289
30
0
41
1
10
33.8052495732313
20
-3.989617670831
30
0
41
1
10
33.3113943057745
20
-4.01707242533541
30
0
41
1
10
32.9819624532044
20
-4.02420122720972
30
0
41
1
10
32.3237249609796
20
-4.0254899416006
30
0
41
1
10
31.9945507665468
20
-4.01804560144825
30
0
41
1
10
31.5002251070265
20
-3.99404937337135
30
0
41
1
10
31.3352749388
20
-3.98395557347882
30
0
41
1
10
31.0051557338638
20
-3.95935112990091
30
0
41
1
10
30.8402063236061
20
-3.94475998716402
30
0
41
1
10
30.5104699097125
20
-3.91070588122909
30
0
41
1
10
30.3457009422505
20
-3.89115703177075
30
0
41
1
10
30.0165748283092
20
-3.8484946093572
30
0
41
1
10
29.8519789980549
20
-3.82523435582877
30
0
41
1
10
29.3581678559419
20
-3.74899200570141
30
0
41
1
10
29.0290949397127
20
-3.68955647826078
30
0
41
1
10
28.5351417308559
20
-3.58951012121409
30
0
41
1
10
28.3706049006159
20
-3.55424922236253
30
0
41
1
10
28.0410071467742
20
-3.48030450912557
30
0
41
1
10
27.8760114287075
20
-3.44150237911137
30
0
41
1
10
27.3808638989954
20
-3.31904561678772
30
0
41
1
10
27.0514628387351
20
-3.23024064849651
30
0
41
1
10
26.5578792254517
20
-3.08487294546836
30
0
41
1
10
26.3932818406018
20
-3.03469857989069
30
0
41
1
10
26.0641216037914
20
-2.93164592404
30
0
41
1
10
25.8996169029959
20
-2.87869382820608
30
0
41
1
10
25.5706229739152
20
-2.769743043994
30
0
41
1
10
25.405937664969
20
-2.71407753489518
30
0
41
1
10
25.0767929850003
20
-2.59926571910458
30
0
41
1
10
24.9122152002504
20
-2.54029610106099
30
0
41
1
10
24.5825479986415
20
-2.41996649709697
30
0
41
1
10
24.4174324777602
20
-2.35847371470945
30
0
41
1
10
24.0875123194012
20
-2.23248820184366
30
0
41
1
10
23.922751729127
20
-2.16799311403545
30
0
41
1
10
23.4284280045406
20
-1.97205222750915
30
0
41
1
10
23.0996157350032
20
-1.83698081081244
30
0
41
1
10
22.6060390947503
20
-1.62967571175551
30
0
41
1
10
22.4416224505163
20
-1.55946506488235
30
0
41
1
10
22.1126144303359
20
-1.41754148321326
30
0
41
1
10
21.9479405215708
20
-1.34600388844189
30
0
41
1
10
21.6188147302462
20
-1.20057529408336
30
0
41
1
10
21.4541056947152
20
-1.12712191756756
30
0
41
1
10
21.1240704841674
20
-0.979173833537914
30
0
41
1
10
20.9587947349909
20
-0.904690387878503
30
0
41
1
10
20.4638516946932
20
-0.679687115052076
30
0
41
1
10
20.1344030729168
20
-0.528279972831513
30
0
41
1
10
19.4759903508739
20
-0.223730171942606
30
0
41
1
10
19.1469535914832
20
-0.0707589846983012
30
0
41
1
10
18.6529681072066
20
0.158356335292041
30
0
41
1
10
18.4881322447006
20
0.234469622474279
30
0
41
1
10
18.1586340583322
20
0.387214352900372
30
0
41
1
10
17.9937169834249
20
0.463295302311508
30
0
41
1
10
17.6635310479121
20
0.614861104970942
30
0
41
1
10
17.4982844842754
20
0.690422710230848
30
0
41
1
10
17.1683625279901
20
0.840630775844545
30
0
41
1
10
17.0033764644696
20
0.914926433116875
30
0
41
1
10
16.6736592066291
20
1.06302759552173
30
0
41
1
10
16.5090452529036
20
1.13700435910596
30
0
41
1
10
16.1795338465195
20
1.28304053104537
30
0
41
1
10
16.0147275001837
20
1.35529397062004
30
0
41
1
10
15.5203700257928
20
1.57006655413869
30
0
41
1
10
15.1906953278583
20
1.71026391353828
30
0
41
1
10
14.5302700037835
20
1.98204623741753
30
0
41
1
10
14.1999094956594
20
2.1123959644593
30
0
41
1
10
13.7053680416454
20
2.302840716676
30
0
41
1
10
13.5404161386506
20
2.36496376007011
30
0
41
1
10
13.2108729822166
20
2.48729790813897
30
0
41
1
10
13.046228971302
20
2.5473855463992
30
0
41
1
10
12.5517497216085
20
2.72242574931974
30
0
41
1
10
12.2216090659521
20
2.83241349075553
30
0
41
1
10
11.8910563397549
20
2.9361337635612
30
0
0
SPLINE
5
CD
100
AcDbEntity
8
1
62
256
6
ByLayer
370
18
48
1
60
0
100
AcDbSpline
70
4
71
3
72
28
73
24
40
0
40
0
40
0
40
0
40
0.0625000000000007
40
0.0625000000000007
40
0.0937500000000011
40
0.0937500000000011
40
0.125000000000001
40
0.125000000000001
40
0.250000000000001
40
0.250000000000001
40
0.375000000000001
40
0.375000000000001
40
0.437500000000001
40
0.437500000000001
40
0.500000000000001
40
0.500000000000001
40
0.625000000000001
40
0.625000000000001
40
0.750000000000001
40
0.750000000000001
40
0.875
40
0.875
40
1
40
1
40
1
40
1
41
1
10
43.5270315425302
20
1.22405142436719
30
0
41
1
10
43.5307012461732
20
1.09828798398914
30
0
41
1
10
43.5430888851772
20
0.971589589198459
30
0
41
1
10
43.5742907279037
20
0.780188524724935
30
0
41
1
10
43.5867985988566
20
0.716162177291125
30
0
41
1
10
43.6160002637737
20
0.58766056338149
30
0
41
1
10
43.6327038249148
20
0.523240570775386
30
0
41
1
10
43.7247878802859
20
0.205712893469297
30
0
41
1
10
43.8264268387442
20
-0.0385853212314089
30
0
41
1
10
44.0752919526749
20
-0.511113509756598
30
0
41
1
10
44.2177143863064
20
-0.730502791825444
30
0
41
1
10
44.4507215710003
20
-1.04141400824429
30
0
41
1
10
44.5316921049608
20
-1.14195424277474
30
0
41
1
10
44.6995476820164
20
-1.33748680104588
30
0
41
1
10
44.7865683868532
20
-1.43257108243205
30
0
41
1
10
45.0516769427966
20
-1.70623239323328
30
0
41
1
10
45.2350487996286
20
-1.87490723844684
30
0
41
1
10
45.6122711008811
20
-2.190509233764
30
0
41
1
10
45.8061494720839
20
-2.33737842346562
30
0
41
1
10
46.2029042920552
20
-2.61244181964082
30
0
41
1
10
46.4062277953057
20
-2.7408196553875
30
0
41
1
10
46.8157868229965
20
-2.9776945143891
30
0
41
1
10
47.0226237551885
20
-3.08661917254284
30
0
41
1
10
47.2313392265053
20
-3.18685813330743
30
0
0
SPLINE
5
CE
100
AcDbEntity
8
1
62
256
6
ByLayer
370
18
48
1
60
0
100
AcDbSpline
70
4
71
3
72
8
73
4
40
0
40
0
40
0
40
0
40
1
40
1
40
1
40
1
41
1
10
48.9479992601597
20
-0.965137393912471
30
0
41
1
10
48.966972927304
20
-0.682418357394852
30
0
41
1
10
48.9808134687389
20
-0.399960455771833
30
0
41
1
10
48.9895129446467
20
-0.117764092961693
30
0
0
SPLINE
5
CF
100
AcDbEntity
8
1
62
256
6
ByLayer
370
18
48
1
60
0
100
AcDbSpline
70
4
71
3
72
16
73
12
40
0
40
0
40
0
40
0
40
0.109134660334639
40
0.109134660334639
40
0.218269320669277
40
0.218269320669277
40
0.436538641338555
40
0.436538641338555
40
0.873077282677103
40
0.873077282677103
40
1
40
1
40
1
40
1
41
1
10
47.5615191286761
20
-4.03530540149663
30
0
41
1
10
47.3346395831662
20
-4.03866641507105
30
0
41
1
10
47.1078033524401
20
-4.03782788294382
30
0
41
1
10
46.653987819942
20
-4.02780523648184
30
0
41
1
10
46.4267621128163
20
-4.01860275163637
30
0
41
1
10
45.7468885415001
20
-3.97870287355369
30
0
41
1
10
45.2958649022424
20
-3.93576611139267
30
0
41
1
10
43.9466515775503
20
-3.7604813654593
30
0
41
1
10
43.0521369597408
20
-3.58153743133585
30
0
41
1
10
41.8944775294337
20
-3.27983142539401
30
0
41
1
10
41.6334825494105
20
-3.20729789571465
30
0
41
1
10
41.3720781103786
20
-3.13039209413586
30
0
0
SPLINE
5
D0
100
AcDbEntity
8
1
62
256
6
ByLayer
370
13
48
1
60
0
100
AcDbSpline
70
4
71
3
72
24
73
20
40
0
40
0
40
0
40
0
40
0.0473256421944527
40
0.0473256421944527
40
0.103867122946808
40
0.103867122946808
40
0.160408603699162
40
0.160408603699162
40
0.386574526708581
40
0.386574526708581
40
0.612740449718
40
0.612740449718
40
0.725823411222709
40
0.725823411222709
40
0.838906372727417
40
0.838906372727417
40
0.951989334232125
40
0.951989334232125
40
1
40
1
40
1
40
1
41
1
10
41.3720776373315
20
-3.1303919549643
30
0
41
1
10
41.1839443532312
20
-3.07504269603055
30
0
41
1
10
40.9955989812256
20
-3.01742872758089
30
0
41
1
10
40.5816156512483
20
-2.88617496749808
30
0
41
1
10
40.3558681038716
20
-2.8115813589817
30
0
41
1
10
39.9033512493502
20
-2.65642911112596
30
0
41
1
10
39.6761937820205
20
-2.57572571271382
30
0
41
1
10
38.5423967297492
20
-2.16002418573308
30
0
41
1
10
37.6443354705688
20
-1.79015078826083
30
0
41
1
10
35.8511299186636
20
-1.00691798088818
30
0
41
1
10
34.9560935421758
20
-0.593234015825715
30
0
41
1
10
33.6041736528479
20
0.035194320527836
30
0
41
1
10
33.1514401215859
20
0.246272244730818
30
0
41
1
10
32.2433686766872
20
0.666132393513635
30
0
41
1
10
31.7904569718169
20
0.873574045702128
30
0
41
1
10
30.8849026730869
20
1.27929806088429
30
0
41
1
10
30.4322467213345
20
1.47756003763212
30
0
41
1
10
29.7863163189456
20
1.75082653717041
30
0
41
1
10
29.5935937500795
20
1.83110092588404
30
0
41
1
10
29.4008561217419
20
1.90995044278443
30
0
0
SPLINE
5
D1
100
AcDbEntity
8
1
62
256
6
ByLayer
370
18
48
1
60
0
100
AcDbSpline
70
4
71
3
72
8
73
4
40
0
40
0
40
0
40
0
40
1
40
1
40
1
40
1
41
1
10
11.8910563397549
20
3.05492946412767
30
0
41
1
10
11.8910563397549
20
3.01170416412933
30
0
41
1
10
11.8910563397549
20
2.96901527122594
30
0
41
1
10
11.8910563397549
20
2.92685746412766
30
0
0
SPLINE
5
D2
100
AcDbEntity
8
1
62
256
6
ByLayer
370
18
48
1
60
0
100
AcDbSpline
70
4
71
3
72
10
73
6
40
0
40
0
40
0
40
0
40
0.5
40
0.5
40
1
40
1
40
1
40
1
41
1
10
48.9999613328094
20
0.0417745553254463
30
0
41
1
10
48.9962277937679
20
0.0264324813207395
30
0
41
1
10
48.9911253650002
20
0.009984397178755
30
0
41
1
10
48.9788211523428
20
-0.021242504175035
30
0
41
1
10
48.9715817001124
20
-0.0360469533474657
30
0
41
1
10
48.9642472143531
20
-0.0480548725774383
30
0
0
SPLINE
5
D3
100
AcDbEntity
8
1
62
256
6
ByLayer
370
18
48
1
60
0
100
AcDbSpline
70
4
71
3
72
14
73
10
40
0
40
0
40
0
40
0
40
0.0887777390406862
40
0.0887777390406862
40
0.514674159761546
40
0.514674159761546
40
0.940570580482406
40
0.940570580482406
40
1
40
1
40
1
40
1
41
1
10
33.4709551227859
20
-0.0110662911145312
30
0
41
1
10
33.6596143163832
20
-0.100994307401578
30
0
41
1
10
33.8479526857357
20
-0.190756976478042
30
0
41
1
10
34.9377652844061
20
-0.709029371925425
30
0
41
1
10
35.8331177613086
20
-1.13084601526563
30
0
41
1
10
37.6272995022654
20
-1.92611269508203
30
0
41
1
10
38.5259539330947
20
-2.30000929007736
30
0
41
1
10
39.5608099510423
20
-2.68094390234168
30
0
41
1
10
39.6876210050905
20
-2.72677218252909
30
0
41
1
10
39.8143142344149
20
-2.77166931795148
30
0
0
SPLINE
5
D4
100
AcDbEntity
8
1
62
256
6
ByLayer
370
13
48
1
60
0
100
AcDbSpline
70
4
71
3
72
20
73
16
40
0
40
0
40
0
40
0
40
0.0386164148089286
40
0.0386164148089286
40
0.126014922553568
40
0.126014922553568
40
0.300811938042852
40
0.300811938042852
40
0.650405969021424
40
0.650405969021424
40
0.825202984510711
40
0.825202984510711
40
0.912601492255356
40
0.912601492255356
40
1
40
1
40
1
40
1
41
1
10
39.8143132913348
20
-2.77166898374577
30
0
41
1
10
39.9146047279207
20
-2.80720994103899
30
0
41
1
10
40.0148223306736
20
-2.84216740222453
30
0
41
1
10
40.3412794601825
20
-2.95415526650908
30
0
41
1
10
40.5671666173337
20
-3.02868992225322
30
0
41
1
10
41.2436107571143
20
-3.24241120380844
30
0
41
1
10
41.6929171113034
20
-3.37178642689525
30
0
41
1
10
43.0388962261314
20
-3.71758109725198
30
0
41
1
10
43.9337572955049
20
-3.89105385547998
30
0
41
1
10
45.2840451800205
20
-4.05497614561827
30
0
41
1
10
45.7355072226611
20
-4.09362039574185
30
0
41
1
10
46.4161945957862
20
-4.12630470930077
30
0
41
1
10
46.6436471699358
20
-4.13296813960957
30
0
41
1
10
47.0978792155308
20
-4.13767589609267
30
0
41
1
10
47.3249189583252
20
-4.13573580545307
30
0
41
1
10
47.5520022617517
20
-4.12947468441624
30
0
0
SPLINE
5
D5
100
AcDbEntity
8
1
62
256
6
ByLayer
370
18
48
1
60
0
100
AcDbSpline
70
4
71
3
72
8
73
4
40
0
40
0
40
0
40
0
40
1
40
1
40
1
40
1
41
1
10
48.9895129446467
20
-0.117764092961636
30
0
41
1
10
48.9901813320579
20
-0.0960827298101492
30
0
41
1
10
48.9941477828062
20
-0.0696335716343697
30
0
41
1
10
48.9999613328077
20
-0.0417745552931024
30
0
0
SPLINE
5
D6
100
AcDbEntity
8
1
62
256
6
ByLayer
370
18
48
1
60
0
100
AcDbSpline
70
4
71
3
72
8
73
4
40
0
40
0
40
0
40
0
40
1
40
1
40
1
40
1
41
1
10
47.6774400890147
20
-2.31460061519934
30
0
41
1
10
47.5257878495303
20
-2.60267251365957
30
0
41
1
10
47.3770792189956
20
-2.89341744355829
30
0
41
1
10
47.2313392265053
20
-3.18685813330745
30
0
0
SPLINE
5
D7
100
AcDbEntity
8
1
62
256
6
ByLayer
370
18
48
1
60
0
100
AcDbSpline
70
4
71
3
72
14
73
10
40
0
40
0
40
0
40
0
40
0.25
40
0.25
40
0.5
40
0.5
40
0.75
40
0.75
40
1
40
1
40
1
40
1
41
1
10
47.5615191286624
20
-4.03530540149683
30
0
41
1
10
47.564845492982
20
-4.03486248155602
30
0
41
1
10
47.5675068731031
20
-4.03615540056583
30
0
41
1
10
47.5711033308002
20
-4.04322336847542
30
0
41
1
10
47.571980906429
20
-4.04909801025212
30
0
41
1
10
47.5708568757878
20
-4.06623368298656
30
0
41
1
10
47.568799829042
20
-4.07745410869705
30
0
41
1
10
47.5619706442208
20
-4.1025682696141
30
0
41
1
10
47.5572406045563
20
-4.11634052501682
30
0
41
1
10
47.5520022617612
20
-4.12947468441598
30
0
0
SPLINE
5
D8
100
AcDbEntity
8
1
62
256
6
ByLayer
370
18
48
1
60
0
100
AcDbSpline
70
4
71
3
72
14
73
10
40
0
40
0
40
0
40
0
40
0.250000000000001
40
0.250000000000001
40
0.500000000000001
40
0.500000000000001
40
0.75
40
0.75
40
1
40
1
40
1
40
1
41
1
10
47.4357156280713
20
0.919542234338792
30
0
41
1
10
47.4346564734397
20
0.934908972342868
30
0
41
1
10
47.4376994310411
20
0.95052109028083
30
0
41
1
10
47.4528604385423
20
0.977643788133037
30
0
41
1
10
47.464950371507
20
0.988955930913619
30
0
41
1
10
47.4922019732947
20
1.00490218653707
30
0
41
1
10
47.5075898575117
20
1.01000025346099
30
0
41
1
10
47.5385136703982
20
1.01589450922358
30
0
41
1
10
47.5544136290704
20
1.01679874917775
30
0
41
1
10
47.5702405433579
20
1.01619751870044
30
0
0
SPLINE
5
D9
100
AcDbEntity
8
1
62
256
6
ByLayer
370
18
48
1
60
0
100
AcDbSpline
70
4
71
3
72
8
73
4
40
0
40
0
40
0
40
0
40
1
40
1
40
1
40
1
41
1
10
48.9895129446467
20
0.11776409296175
30
0
41
1
10
48.9901813320577
20
0.0960827298170557
30
0
41
1
10
48.9941477828036
20
0.0696335716509395
30
0
41
1
10
48.9999613328021
20
0.0417745553194209
30
0
0
SPLINE
5
DA
100
AcDbEntity
8
1
62
256
6
ByLayer
370
18
48
1
60
0
100
AcDbSpline
70
4
71
3
72
18
73
14
40
0
40
0
40
0
40
0
40
0.0949880727322095
40
0.0949880727322095
40
0.476849781439259
40
0.476849781439259
40
0.572315208616023
40
0.572315208616023
40
0.667780635792787
40
0.667780635792787
40
0.858711490146318
40
0.858711490146318
40
1
40
1
40
1
40
1
41
1
10
6.24519444506646
20
0.00117409746818
30
0
41
1
10
6.469325607907
20
-0.105251620768371
30
0
41
1
10
6.69332189779479
20
-0.211621372371639
30
0
41
1
10
7.81776956478268
20
-0.743952559912742
30
0
41
1
10
8.71788957266003
20
-1.16537809621155
30
0
41
1
10
9.85297580220038
20
-1.66398433896569
30
0
41
1
10
10.0807711138633
20
-1.76245692070503
30
0
41
1
10
10.5346041901839
20
-1.95490107057253
30
0
41
1
10
10.7609355651182
20
-2.04900689339547
30
0
41
1
10
11.4385520413473
20
-2.32434822101504
30
0
41
1
10
11.8886159705097
20
-2.4984017908437
30
0
41
1
10
12.670426991374
20
-2.78190810221304
30
0
41
1
10
13.0024713154233
20
-2.89650067992386
30
0
41
1
10
13.3344801804443
20
-3.00449802118993
30
0
0
SPLINE
5
DB
100
AcDbEntity
8
1
62
256
6
ByLayer
370
13
48
1
60
0
100
AcDbSpline
70
4
71
3
72
18
73
14
40
0
40
0
40
0
40
0
40
0.20544689970476
40
0.20544689970476
40
0.368499776212516
40
0.368499776212516
40
0.450026214466394
40
0.450026214466394
40
0.531552652720271
40
0.531552652720271
40
0.857658405735782
40
0.857658405735782
40
1
40
1
40
1
40
1
41
1
10
13.3344801803925
20
-3.00449802117308
30
0
41
1
10
13.8997946195563
20
-3.1883860520108
30
0
41
1
10
14.465006255285
20
-3.35315305797306
30
0
41
1
10
15.4822803691373
20
-3.60893376969926
30
0
41
1
10
15.933645509301
20
-3.70819771690327
30
0
41
1
10
16.6138702410764
20
-3.83449697461245
30
0
41
1
10
16.8415546151917
20
-3.87288237609101
30
0
41
1
10
17.2955529010179
20
-3.94134543092198
30
0
41
1
10
17.5220004932328
20
-3.97146220837985
30
0
41
1
10
18.6517962343221
20
-4.10122456274655
30
0
41
1
10
19.5485371763074
20
-4.13867468287165
30
0
41
1
10
20.8371561064406
20
-4.09705963506229
30
0
41
1
10
21.2288648105051
20
-4.07180915751769
30
0
41
1
10
21.621356756843
20
-4.03406162886336
30
0
0
SPLINE
5
DC
100
AcDbEntity
8
1
62
256
6
ByLayer
370
18
48
1
60
0
100
AcDbSpline
70
4
71
3
72
27
73
23
40
0
40
0
40
0
40
0
40
0.0740489843593843
40
0.0740489843593843
40
0.148097968718769
40
0.148097968718769
40
0.296195937437538
40
0.296195937437538
40
0.370244921796922
40
0.370244921796922
40
0.444293906156306
40
0.518342890515691
40
0.518342890515691
40
0.592391874875075
40
0.592391874875075
40
0.740489843593844
40
0.740489843593844
40
0.814538827953228
40
0.814538827953228
40
0.888587812312613
40
0.888587812312613
40
1
40
1
40
1
40
1
41
1
10
4.00287195165873
20
1.2117263309195
30
0
41
1
10
4.00287508275622
20
1.34080730083798
30
0
41
1
10
4.00287796426278
20
1.46837730478313
30
0
41
1
10
4.00288325582005
20
1.71747141057247
30
0
41
1
10
4.00288566196699
20
1.83872963188608
30
0
41
1
10
4.00289232858813
20
2.19291124978375
30
0
41
1
10
4.00289603928061
20
2.41632718311149
30
0
41
1
10
4.00290109874305
20
2.73190785293971
30
0
41
1
10
4.00290269822065
20
2.83369076097119
30
0
41
1
10
4.00290575772993
20
3.02634034563755
30
0
41
1
10
4.00290869654256
20
3.20924491337897
30
0
41
1
10
4.00291157457369
20
3.37296533264609
30
0
41
1
10
4.00291450031247
20
3.52698666512637
30
0
41
1
10
4.00291599244204
20
3.59938249684802
30
0
41
1
10
4.00292060634385
20
3.7998677978735
30
0
41
1
10
4.00292382288239
20
3.90936173896995
30
0
41
1
10
4.00292908158337
20
4.03859614501766
30
0
41
1
10
4.00293090474867
20
4.07579974907603
30
0
41
1
10
4.00293470534794
20
4.13818134455764
30
0
41
1
10
4.00293668833061
20
4.16333486568484
30
0
41
1
10
4.00294173288333
20
4.20983198132961
30
0
41
1
10
4.00294485990744
20
4.22338689771627
30
0
41
1
10
4.00294801736123
20
4.22267621788424
30
0
0
SPLINE
5
DD
100
AcDbEntity
8
1
62
256
6
ByLayer
370
18
48
1
60
0
100
AcDbSpline
70
4
71
3
72
14
73
10
40
0
40
0
40
0
40
0
40
0.25
40
0.25
40
0.5
40
0.5
40
0.75
40
0.75
40
1
40
1
40
1
40
1
41
1
10
4.00296342674895
20
-4.10082397399714
30
0
41
1
10
4.00704702863572
20
-4.07121945334598
30
0
41
1
10
4.01564152304371
20
-4.0409757886992
30
0
41
1
10
4.04357773111636
20
-3.98477316091447
30
0
41
1
10
4.06340720474117
20
-3.95841434415317
30
0
41
1
10
4.11204318148387
20
-3.91798753894821
30
0
41
1
10
4.14018706059511
20
-3.9044604027479
30
0
41
1
10
4.19651298445885
20
-3.89123759986836
30
0
41
1
10
4.22433935917945
20
-3.89119945162523
30
0
41
1
10
4.25074129420548
20
-3.89559704194645
30
0
0
SPLINE
5
DE
100
AcDbEntity
8
1
62
256
6
ByLayer
370
18
48
1
60
0
100
AcDbSpline
70
4
71
3
72
18
73
14
40
0
40
0
40
0
40
0
40
0.271822296814556
40
0.271822296814556
40
0.407733445221834
40
0.407733445221834
40
0.543644593629111
40
0.543644593629111
40
0.815466890443666
40
0.815466890443666
40
0.951378038850945
40
0.951378038850945
40
1
40
1
40
1
40
1
41
1
10
47.2313392265053
20
-3.18685813330743
30
0
41
1
10
47.2310785242599
20
-3.33151368906761
30
0
41
1
10
47.2375287206152
20
-3.45845394303095
30
0
41
1
10
47.2575666791686
20
-3.62278642920433
30
0
41
1
10
47.2659861746124
20
-3.67319306930168
30
0
41
1
10
47.2865204823729
20
-3.76504551498093
30
0
41
1
10
47.2985723376115
20
-3.80610723062381
30
0
41
1
10
47.3397189369165
20
-3.91374430032354
30
0
41
1
10
47.3739059389388
20
-3.96554768736468
30
0
41
1
10
47.4360794497262
20
-4.01402782502277
30
0
41
1
10
47.4586945957614
20
-4.02530391743437
30
0
41
1
10
47.4918507475317
20
-4.03378479031829
30
0
41
1
10
47.5008039411109
20
-4.03537608053938
30
0
41
1
10
47.509976795816
20
-4.03632844960322
30
0
0
SPLINE
5
DF
100
AcDbEntity
8
1
62
256
6
ByLayer
370
18
48
1
60
0
100
AcDbSpline
70
4
71
3
72
10
73
6
40
0
40
0
40
0
40
0
40
0.5
40
0.5
40
1
40
1
40
1
40
1
41
1
10
4.14041673343775
20
1.01752350330045
30
0
41
1
10
4.10753087057947
20
1.03308379662178
30
0
41
1
10
4.07869352614793
20
1.05540761624553
30
0
41
1
10
4.03311761779935
20
1.10967306343142
30
0
41
1
10
4.01645655373142
20
1.14177045446158
30
0
41
1
10
4.00762152320192
20
1.17537013699652
30
0
0
SPLINE
5
E0
100
AcDbEntity
8
1
62
256
6
ByLayer
370
13
48
1
60
0
100
AcDbSpline
70
4
71
3
72
12
73
8
40
0
40
0
40
0
40
0
40
0.499999999999999
40
0.499999999999999
40
0.75
40
0.75
40
1
40
1
40
1
40
1
41
1
10
4.00287195165868
20
1.21172633091646
30
0
41
1
10
4.0087755043852
20
1.17956809145588
30
0
41
1
10
4.02384728291605
20
1.14858259168761
30
0
41
1
10
4.05903497626778
20
1.10845890221131
30
0
41
1
10
4.07315159512632
20
1.09586191960679
30
0
41
1
10
4.10508460591589
20
1.07387103368555
30
0
41
1
10
4.12279934112172
20
1.06443764456114
30
0
41
1
10
4.14252425741364
20
1.05677494613309
30
0
0
SPLINE
5
E1
100
AcDbEntity
8
1
62
256
6
ByLayer
370
18
48
1
60
0
100
AcDbSpline
70
4
71
3
72
12
73
8
40
0
40
0
40
0
40
0
40
0.198705659628357
40
0.198705659628357
40
0.599352829814178
40
0.599352829814178
40
1
40
1
40
1
40
1
41
1
10
4.00294801398763
20
-4.22267697180362
30
0
41
1
10
4.00294905479075
20
-4.22244605584697
30
0
41
1
10
4.00295009890292
20
-4.22066503794309
30
0
41
1
10
4.00295325107373
20
-4.21062950273284
30
0
41
1
10
4.00295536208986
20
-4.19757451058169
30
0
41
1
10
4.00295951213769
20
-4.15843218288151
30
0
41
1
10
4.00296152122169
20
-4.13263658050761
30
0
41
1
10
4.00296342674952
20
-4.10082397399358
30
0
0
SPLINE
5
E2
100
AcDbEntity
8
1
62
256
6
ByLayer
370
18
48
1
60
0
100
AcDbSpline
70
4
71
3
72
38
73
34
40
0
40
0
40
0
40
0
40
0.25
40
0.25
40
0.312499999999999
40
0.312499999999999
40
0.374999999999997
40
0.374999999999997
40
0.499999999999995
40
0.499999999999995
40
0.562499999999996
40
0.562499999999996
40
0.624999999999998
40
0.624999999999998
40
0.749999999999995
40
0.749999999999995
40
0.812499999999994
40
0.812499999999994
40
0.84374999999999
40
0.84374999999999
40
0.851562499999991
40
0.851562499999991
40
0.859374999999991
40
0.859374999999991
40
0.863281249999991
40
0.863281249999991
40
0.867187499999992
40
0.867187499999992
40
0.874999999999992
40
0.874999999999992
40
0.937499999999996
40
0.937499999999996
40
1
40
1
40
1
40
1
41
1
10
43.5270315425302
20
1.22405142436705
30
0
41
1
10
43.8791301379979
20
0.952870980515371
30
0
41
1
10
44.2452163328454
20
0.719424377171862
30
0
41
1
10
44.7222467998761
20
0.480012101014779
30
0
41
1
10
44.8185239649382
20
0.434922372059532
30
0
41
1
10
45.0108262336408
20
0.351259257703333
30
0
41
1
10
45.107124021754
20
0.312542823168172
30
0
41
1
10
45.3964639927519
20
0.205880044123632
30
0
41
1
10
45.589939674041
20
0.147141787277519
30
0
41
1
10
45.8812204061244
20
0.0817033772874254
30
0
41
1
10
45.9784854153185
20
0.0635320160697859
30
0
41
1
10
46.1733700291567
20
0.034721376695984
30
0
41
1
10
46.2712763523987
20
0.0241457549007578
30
0
41
1
10
46.5621008027689
20
0.0059155356161682
30
0
41
1
10
46.7529091753206
20
0.0111121520924939
30
0
41
1
10
47.0337281599435
20
0.049343296749754
30
0
41
1
10
47.1261457869364
20
0.0671508973341304
30
0
41
1
10
47.2620544197932
20
0.102285300526063
30
0
41
1
10
47.3068837476058
20
0.115413987193961
30
0
41
1
10
47.362226170865
20
0.13368941574717
30
0
41
1
10
47.3732558704634
20
0.137450432972656
30
0
41
1
10
47.3953461557281
20
0.144893882375328
30
0
41
1
10
47.4063342250466
20
0.149278020651792
30
0
41
1
10
47.4194834171823
20
0.161241703445256
30
0
41
1
10
47.4233944908994
20
0.166036162192313
30
0
41
1
10
47.4291044268604
20
0.17737968013094
30
0
41
1
10
47.4309113593238
20
0.184001037590491
30
0
41
1
10
47.434229873961
20
0.204307601786695
30
0
41
1
10
47.4346473478905
20
0.21863949484316
30
0
41
1
10
47.4448128576787
20
0.34490556909725
30
0
41
1
10
47.4487583744345
20
0.458878971672561
30
0
41
1
10
47.4482004790612
20
0.688063161357007
30
0
41
1
10
47.4437163102873
20
0.803464389052976
30
0
41
1
10
47.4357156280713
20
0.919542234338792
30
0
0
SPLINE
5
E3
100
AcDbEntity
8
1
62
256
6
ByLayer
370
18
48
1
60
0
100
AcDbSpline
70
4
71
3
72
8
73
4
40
0
40
0
40
0
40
0
40
1
40
1
40
1
40
1
41
1
10
47.5062442571744
20
4.24391048488763
30
0
41
1
10
47.3533355841453
20
4.2477939938816
30
0
41
1
10
47.2004491710246
20
4.24968262655869
30
0
41
1
10
47.0475472800291
20
4.2495800887886
30
0
0
SPLINE
5
E4
100
AcDbEntity
8
1
62
256
6
ByLayer
370
18
48
1
60
0
100
AcDbSpline
70
4
71
3
72
32
73
28
40
0
40
0
40
0
40
0
40
0.0438715560433501
40
0.0438715560433501
40
0.0806457269647596
40
0.0806457269647596
40
0.117419897886169
40
0.117419897886169
40
0.264516581571809
40
0.264516581571809
40
0.338064923414628
40
0.338064923414628
40
0.411613265257447
40
0.411613265257447
40
0.485161607100267
40
0.485161607100267
40
0.558709948943086
40
0.558709948943086
40
0.632258290785905
40
0.632258290785905
40
0.705806632628724
40
0.705806632628724
40
0.779354974471543
40
0.779354974471543
40
0.852903316314363
40
0.852903316314363
40
1
40
1
40
1
40
1
41
1
10
22.5694218741016
20
-4.02677284115799
30
0
41
1
10
22.3002558017152
20
-4.06731226954687
30
0
41
1
10
22.0311093333484
20
-4.10200018169314
30
0
41
1
10
21.5359877563591
20
-4.15477327114218
30
0
41
1
10
21.3100840206974
20
-4.17464427974559
30
0
41
1
10
20.8578085279604
20
-4.20585870944069
30
0
41
1
10
20.631346250582
20
-4.21718864898253
30
0
41
1
10
19.5011223898518
20
-4.25204996815137
30
0
41
1
10
18.6005039731651
20
-4.21055835932711
30
0
41
1
10
17.2428834875735
20
-4.0465036115898
30
0
41
1
10
16.7906122991447
20
-3.97498965059469
30
0
41
1
10
15.8877548293618
20
-3.80056339628564
30
0
41
1
10
15.4365953018713
20
-3.69765272113676
30
0
41
1
10
14.5330216141025
20
-3.46208902944017
30
0
41
1
10
14.0798310853783
20
-3.32916709950567
30
0
41
1
10
13.1759434711192
20
-3.03815536036038
30
0
41
1
10
12.7247826329761
20
-2.87992973142647
30
0
41
1
10
11.8218633939607
20
-2.5413514651373
30
0
41
1
10
11.3700602608104
20
-2.36075930487215
30
0
41
1
10
10.46448097569
20
-1.98082758743365
30
0
41
1
10
10.0129029647017
20
-1.78269027993824
30
0
41
1
10
9.11015781232143
20
-1.37398065348216
30
0
41
1
10
8.65907693898754
20
-1.16323994247782
30
0
41
1
10
7.7553237051811
20
-0.733205490643172
30
0
41
1
10
7.30192322668347
20
-0.513689461143571
30
0
41
1
10
5.94629137513235
20
0.146125329129433
30
0
41
1
10
5.04592493493504
20
0.589072734625091
30
0
41
1
10
4.14041673343783
20
1.0175235033004
30
0
0
SPLINE
5
E5
100
AcDbEntity
8
1
62
256
6
ByLayer
370
18
48
1
60
0
100
AcDbSpline
70
4
71
3
72
56
73
52
40
0
40
0
40
0
40
0
40
0.0625000000000052
40
0.0625000000000052
40
0.0937500000000079
40
0.0937500000000079
40
0.12500000000001
40
0.12500000000001
40
0.156250000000013
40
0.156250000000013
40
0.187500000000016
40
0.187500000000016
40
0.203125000000017
40
0.203125000000017
40
0.218750000000018
40
0.218750000000018
40
0.23437500000002
40
0.23437500000002
40
0.250000000000021
40
0.250000000000021
40
0.265625000000022
40
0.265625000000022
40
0.281250000000023
40
0.281250000000023
40
0.296875000000025
40
0.296875000000025
40
0.312500000000026
40
0.312500000000026
40
0.343750000000029
40
0.343750000000029
40
0.375000000000031
40
0.375000000000031
40
0.390625000000033
40
0.390625000000033
40
0.394531250000033
40
0.394531250000033
40
0.398437500000033
40
0.398437500000033
40
0.406250000000033
40
0.406250000000033
40
0.437500000000031
40
0.437500000000031
40
0.500000000000027
40
0.500000000000027
40
0.62500000000002
40
0.62500000000002
40
0.750000000000014
40
0.750000000000014
40
0.875000000000007
40
0.875000000000007
40
1
40
1
40
1
40
1
41
1
10
4.00296342675026
20
-4.10082397399305
30
0
41
1
10
3.75897141733583
20
-4.06155337425224
30
0
41
1
10
3.52036083978768
20
-4.01175734521314
30
0
41
1
10
3.17532579307007
20
-3.91487036882987
30
0
41
1
10
3.06249099919097
20
-3.87883497672002
30
0
41
1
10
2.84277847126529
20
-3.797128258257
30
0
41
1
10
2.73573907626877
20
-3.75136718453891
30
0
41
1
10
2.53350731855136
20
-3.64820562338829
30
0
41
1
10
2.43756607693604
20
-3.59052767333702
30
0
41
1
10
2.26400965907249
20
-3.45900504988114
30
0
41
1
10
2.18759610656065
20
-3.3862301112367
30
0
41
1
10
2.09690722835904
20
-3.26169017349352
30
0
41
1
10
2.07061531962967
20
-3.21735245111003
30
0
41
1
10
2.02920438575967
20
-3.12297539789156
30
0
41
1
10
2.01446808916847
20
-3.07389267294073
30
0
41
1
10
1.99869792766489
20
-2.97155513126023
30
0
41
1
10
1.99781920869981
20
-2.91762076732584
30
0
41
1
10
2.01124417852174
20
-2.80948278592317
30
0
41
1
10
2.02530473731741
20
-2.75517741281558
30
0
41
1
10
2.06748536683494
20
-2.64628051490297
30
0
41
1
10
2.09580497346789
20
-2.59166766480152
30
0
41
1
10
2.1625319845146
20
-2.48678908044181
30
0
41
1
10
2.20114274118348
20
-2.4358822777497
30
0
41
1
10
2.28703320142643
20
-2.33671107154254
30
0
41
1
10
2.33445234210839
20
-2.28839222813005
30
0
41
1
10
2.43395851671718
20
-2.19634317455672
30
0
41
1
10
2.48633732038533
20
-2.15224784766815
30
0
41
1
10
2.64978628706695
20
-2.02470733822418
30
0
41
1
10
2.76747057210559
20
-1.94567938024741
30
0
41
1
10
3.01264591255449
20
-1.79793755641262
30
0
41
1
10
3.13934876895169
20
-1.72968044381696
30
0
41
1
10
3.33385064054613
20
-1.63355122537305
30
0
41
1
10
3.39943798725108
20
-1.60256632712463
30
0
41
1
10
3.48224953390951
20
-1.56501542904093
30
0
41
1
10
3.49837745790708
20
-1.5567738110542
30
0
41
1
10
3.53339717058481
20
-1.54486308006548
30
0
41
1
10
3.55247045587163
20
-1.54107302343911
30
0
41
1
10
3.60841008457939
20
-1.53511189725711
30
0
41
1
10
3.64552718514057
20
-1.53757832544102
30
0
41
1
10
3.83132477879687
20
-1.54214913380872
30
0
41
1
10
3.97991934576027
20
-1.54739663826356
30
0
41
1
10
4.42557422515074
20
-1.56782851717622
30
0
41
1
10
4.72216362036582
20
-1.58769522161472
30
0
41
1
10
5.60865924912676
20
-1.66499930005838
30
0
41
1
10
6.19602144139998
20
-1.74025929896018
30
0
41
1
10
7.3639709792331
20
-1.93137212260709
30
0
41
1
10
7.9453832642543
20
-2.04747951090275
30
0
41
1
10
9.09239187327853
20
-2.30693376328358
30
0
41
1
10
9.65915657926575
20
-2.45028681239512
30
0
41
1
10
10.782064259255
20
-2.74847139936642
30
0
41
1
10
11.3382182497942
20
-2.90322361483868
30
0
41
1
10
11.8910563397549
20
-3.05492946416339
30
0
0
SPLINE
5
E6
100
AcDbEntity
8
1
62
256
6
ByLayer
370
18
48
1
60
0
100
AcDbSpline
70
4
71
3
72
10
73
6
40
0
40
0
40
0
40
0
40
0.5
40
0.5
40
1
40
1
40
1
40
1
41
1
10
47.5702405433579
20
1.01619751870044
30
0
41
1
10
47.7998840004818
20
1.00747385704236
30
0
41
1
10
48.0295088500498
20
0.998983979117071
30
0
41
1
10
48.48878085979
20
0.981723914749836
30
0
41
1
10
48.7184219903536
20
0.973029483794846
30
0
41
1
10
48.9479992601597
20
0.965137393912443
30
0
0
SPLINE
5
E7
100
AcDbEntity
8
1
62
256
6
ByLayer
370
18
48
1
60
0
100
AcDbSpline
70
4
71
3
72
8
73
4
40
0
40
0
40
0
40
0
40
1
40
1
40
1
40
1
41
1
10
11.6721632564005
20
2.99477215190646
30
0
41
1
10
11.7451883171873
20
3.01486425684689
30
0
41
1
10
11.8181511616376
20
3.03492334995508
30
0
41
1
10
11.8910563397549
20
3.05492946416339
30
0
0
SPLINE
5
E8
100
AcDbEntity
8
1
62
256
6
ByLayer
370
18
48
1
60
0
100
AcDbSpline
70
4
71
3
72
20
73
16
40
0
40
0
40
0
40
0
40
0.169507040729734
40
0.169507040729734
40
0.339014081459468
40
0.339014081459468
40
0.508521122189202
40
0.508521122189202
40
0.678028162918936
40
0.678028162918936
40
0.84753520364867
40
0.84753520364867
40
0.932288724013537
40
0.932288724013537
40
1
40
1
40
1
40
1
41
1
10
11.8910563397549
20
-3.05492946416339
30
0
41
1
10
12.267191591939
20
-3.18328993425902
30
0
41
1
10
12.6426631962253
20
-3.30060309301658
30
0
41
1
10
13.3907697917685
20
-3.51653787660794
30
0
41
1
10
13.7629466829717
20
-3.61550296573003
30
0
41
1
10
14.5072953448248
20
-3.79130617581274
30
0
41
1
10
14.8791154640405
20
-3.86866918647516
30
0
41
1
10
15.6218981210527
20
-4.00237231289674
30
0
41
1
10
15.993506112621
20
-4.05816852205086
30
0
41
1
10
16.7381514183446
20
-4.14714372243361
30
0
41
1
10
17.1104463044846
20
-4.18060517320754
30
0
41
1
10
17.6713721725895
20
-4.21294835352734
30
0
41
1
10
17.8587769228031
20
-4.22078395714217
30
0
41
1
10
18.1964673415093
20
-4.22959172208141
30
0
41
1
10
18.3466837606312
20
-4.23162343917153
30
0
41
1
10
18.4969939438001
20
-4.23173456231564
30
0
0
SPLINE
5
E9
100
AcDbEntity
8
1
62
256
6
ByLayer
370
18
48
1
60
0
100
AcDbSpline
70
4
71
3
72
22
73
18
40
0
40
0
40
0
40
0
40
0.110320274668633
40
0.110320274668633
40
0.2374173782874
40
0.2374173782874
40
0.364514481906167
40
0.364514481906167
40
0.491611585524933
40
0.491611585524933
40
0.6187086891437
40
0.6187086891437
40
0.745805792762467
40
0.745805792762467
40
0.872902896381233
40
0.872902896381233
40
1
40
1
40
1
40
1
41
1
10
38.9058663415046
20
3.00419250388015
30
0
41
1
10
39.2319045501974
20
3.11747929926418
30
0
41
1
10
39.5566374123271
20
3.22398941461077
30
0
41
1
10
40.2544051221831
20
3.4366205748365
30
0
41
1
10
40.6264910945539
20
3.54130143222653
30
0
41
1
10
41.3694590539223
20
3.73030773940388
30
0
41
1
10
41.7410609924351
20
3.81397678991814
30
0
41
1
10
42.4831638384535
20
3.96106494074533
30
0
41
1
10
42.8540335920975
20
4.02401128197755
30
0
41
1
10
43.5980434536198
20
4.1269078222812
30
0
41
1
10
43.9704329452154
20
4.16735652302927
30
0
41
1
10
44.7173909105389
20
4.2249770940096
30
0
41
1
10
45.09306638641
20
4.24201151455713
30
0
41
1
10
45.8455144110124
20
4.25222289953373
30
0
41
1
10
46.220460226684
20
4.24520019291828
30
0
41
1
10
46.9707408141495
20
4.20758624784821
30
0
41
1
10
47.3453170983274
20
4.17690533558005
30
0
41
1
10
47.7199682971542
20
4.13442889086335
30
0
0
SPLINE
5
EA
100
AcDbEntity
8
1
62
256
6
ByLayer
370
18
48
1
60
0
100
AcDbSpline
70
4
71
3
72
18
73
14
40
0
40
0
40
0
40
0
40
0.128551028813949
40
0.128551028813949
40
0.257102057627897
40
0.257102057627897
40
0.514204115255794
40
0.514204115255794
40
0.642755144069743
40
0.642755144069743
40
0.771306172883693
40
0.771306172883693
40
1
40
1
40
1
40
1
41
1
10
4.25074129433156
20
-3.89559704196745
30
0
41
1
10
4.5473757675573
20
-3.94500542385182
30
0
41
1
10
4.85089949301928
20
-3.97600362646733
30
0
41
1
10
5.46641523875482
20
-4.01142502600166
30
0
41
1
10
5.7790665312979
20
-4.01558764485006
30
0
41
1
10
6.72259729903507
20
-3.99602102530466
30
0
41
1
10
7.35666118750305
20
-3.93898814031925
30
0
41
1
10
8.31591883307902
20
-3.79891838795012
30
0
41
1
10
8.63744860465658
20
-3.74283713731941
30
0
41
1
10
9.28262970698569
20
-3.61621266332307
30
0
41
1
10
9.60560483445096
20
-3.54542648815996
30
0
41
1
10
10.5058378782325
20
-3.32875522324912
30
0
41
1
10
11.0853179748912
20
-3.16821258984299
30
0
41
1
10
11.6720585776443
20
-2.99940001802366
30
0
0
SPLINE
5
EB
100
AcDbEntity
8
1
62
256
6
ByLayer
370
13
48
1
60
0
100
AcDbSpline
70
4
71
3
72
12
73
8
40
0
40
0
40
0
40
0
40
0.157183884546835
40
0.157183884546835
40
0.578591942273418
40
0.578591942273418
40
1
40
1
40
1
40
1
41
1
10
4.25065717145011
20
-4.01077098791325
30
0
41
1
10
4.25066162319771
20
-4.01028198322422
30
0
41
1
10
4.25066609082384
20
-4.00892904650547
30
0
41
1
10
4.25068257001388
20
-4.0007868907752
30
0
41
1
10
4.25069462742312
20
-3.98863871680103
30
0
41
1
10
4.25071843930331
20
-3.95156345494834
30
0
41
1
10
4.25073017111913
20
-3.92659882173831
30
0
41
1
10
4.25074129420545
20
-3.89559704194653
30
0
0
SPLINE
5
EC
100
AcDbEntity
8
1
62
256
6
ByLayer
370
18
48
1
60
0
100
AcDbSpline
70
4
71
3
72
10
73
6
40
0
40
0
40
0
40
0
40
0.5
40
0.5
40
1
40
1
40
1
40
1
41
1
10
47.7199682971473
20
4.13442889088279
30
0
41
1
10
47.9118892600195
20
3.5985570553191
30
0
41
1
10
48.1106997571724
20
3.06715823618583
30
0
41
1
10
48.5204135904843
20
2.01121129553073
30
0
41
1
10
48.7314000598136
20
1.48672568401656
30
0
41
1
10
48.9479992601597
20
0.965137393912443
30
0
0
SPLINE
5
ED
100
AcDbEntity
8
1
62
256
6
ByLayer
370
18
48
1
60
0
100
AcDbSpline
70
4
71
3
72
27
73
23
40
0
40
0
40
0
40
0
40
0.0761473726197837
40
0.146758884441667
40
0.199706100249912
40
0.248152760097091
40
0.313076404186108
40
0.395137056059116
40
0.460166504593982
40
0.505958019060357
40
0.555870465276385
40
0.606180175855322
40
0.65256421831881
40
0.698023540050565
40
0.749049570212991
40
0.800892722327493
40
0.852819440139687
40
0.89026314869008
40
0.903615426195493
40
0.921536970047033
40
0.948572001515912
40
1
40
1
40
1
40
1
41
1
10
20.0167501427461
20
-4.02025876670831
30
0
41
1
10
20.334358804469
20
-4.01978578553886
30
0
41
1
10
20.9466302866446
20
-4.01930154726938
30
0
41
1
10
21.7783402761754
20
-4.02188628923417
30
0
41
1
10
22.4977221937219
20
-4.02172568470283
30
0
41
1
10
23.1928102405598
20
-4.02149478691078
30
0
41
1
10
24.0101792984921
20
-4.02246336016262
30
0
41
1
10
24.8967253645368
20
-4.02288757260609
30
0
41
1
10
25.7032848469861
20
-4.02221995517607
30
0
41
1
10
26.3754214423443
20
-4.02298178225672
30
0
41
1
10
26.9860092114769
20
-4.02522709733211
30
0
41
1
10
27.5990767087804
20
-4.02445247831795
30
0
41
1
10
28.1935195878262
20
-4.02364452181271
30
0
41
1
10
28.790960501944
20
-4.0230453921267
30
0
41
1
10
29.4112271160428
20
-4.02460786536173
30
0
41
1
10
30.0585417408344
20
-4.02502308173115
30
0
41
1
10
30.6490425614986
20
-4.02676997557447
30
0
41
1
10
31.0786196245128
20
-4.02620957397366
30
0
41
1
10
31.3658711059968
20
-4.02566304981292
30
0
41
1
10
31.6096716627564
20
-4.02527002296154
30
0
41
1
10
32.0127230957984
20
-4.02473145254413
30
0
41
1
10
32.3408286190942
20
-4.02472604036058
30
0
41
1
10
32.5558894746594
20
-4.02487822641646
30
0
0
SPLINE
5
EE
100
AcDbEntity
8
1
62
256
6
ByLayer
370
18
48
1
60
0
100
AcDbSpline
70
4
71
2
72
6
73
3
40
0
40
0
40
0
40
1
40
1
40
1
41
1
10
5.80087057461549
20
4.01220405009508
30
0
41
1
10
5.02586154488949
20
4.01226554574444
30
0
41
1
10
4.2506558077113
20
4.01034828590107
30
0
0
SPLINE
5
EF
100
AcDbEntity
8
1
62
256
6
ByLayer
370
18
48
1
60
0
100
AcDbSpline
70
4
71
3
72
27
73
23
40
0
40
0
40
0
40
0
40
0.0733301069004402
40
0.130790945672407
40
0.174508727519661
40
0.206475278089027
40
0.241411032637279
40
0.283285808613705
40
0.328638924364134
40
0.381816215228876
40
0.44271517683833
40
0.496605647508781
40
0.533584850218506
40
0.571275917474904
40
0.634050177380474
40
0.694711316253654
40
0.735971093311506
40
0.774367717458337
40
0.820188765165701
40
0.88007996787712
40
0.941051050461334
40
1
40
1
40
1
40
1
41
1
10
32.6830505021376
20
4.0247693388992
30
0
41
1
10
32.4342392303144
20
4.02462045300595
30
0
41
1
10
31.9911185319511
20
4.02459343245386
30
0
41
1
10
31.4049483174813
20
4.02561378996759
30
0
41
1
10
30.953933399311
20
4.02607070404329
30
0
41
1
10
30.5805380745286
20
4.02637648443681
30
0
41
1
10
30.2129744215363
20
4.02522491586856
30
0
41
1
10
29.7993911749883
20
4.02515046638234
30
0
41
1
10
29.3241943184167
20
4.02426385417661
30
0
41
1
10
28.7845658668831
20
4.02312385426146
30
0
41
1
10
28.2160539035915
20
4.02356823692219
30
0
41
1
10
27.7023626364262
20
4.02441373707632
30
0
41
1
10
27.2672253965067
20
4.02467151616261
30
0
41
1
10
26.802015818424
20
4.02488858670367
30
0
41
1
10
26.2566623648694
20
4.02249278060319
30
0
41
1
10
25.6992156185559
20
4.02240820992975
30
0
41
1
10
25.2242884246738
20
4.02256751194628
30
0
41
1
10
24.799583926599
20
4.0227405296001
30
0
41
1
10
24.3118237061407
20
4.02300149022295
30
0
41
1
10
23.7476738533656
20
4.02178140944793
30
0
41
1
10
23.1390692371863
20
4.0215509451794
30
0
41
1
10
22.7331762239699
20
4.02172342683247
30
0
41
1
10
22.5336549897486
20
4.02174850633133
30
0
0
SPLINE
5
F0
100
AcDbEntity
8
1
62
256
6
ByLayer
370
18
48
1
60
0
100
AcDbSpline
70
4
71
2
72
6
73
3
40
0
40
0
40
0
40
1
40
1
40
1
41
1
10
47.2286887649617
20
-4.03715545452792
30
0
41
1
10
47.3710302064538
20
-4.03722750589151
30
0
41
1
10
47.5121282298311
20
-4.03635266786938
30
0
0
SPLINE
5
F1
100
AcDbEntity
8
1
62
256
6
ByLayer
370
18
48
1
60
0
100
AcDbSpline
70
4
71
2
72
6
73
3
40
0
40
0
40
0
40
1
40
1
40
1
41
1
10
4.25065580771132
20
-4.01034828590116
30
0
41
1
10
5.02425221150503
20
-4.0122628368641
30
0
41
1
10
5.79765231624492
20
-4.01220274056976
30
0
0
LINE
5
7B
100
AcDbEntity
8
SK1
62
256
6
ByLayer
370
18
48
1
60
0
100
AcDbLine
10
0
20
-5
30
0
11
0
21
5
31
0
39
0
210
0
220
0
230
1
0
LINE
5
7D
100
AcDbEntity
8
SK1
62
256
6
ByLayer
370
18
48
1
60
0
100
AcDbLine
10
-40
20
-3.66
30
0
11
-40
21
-1.537434
31
0
39
0
210
0
220
0
230
1
0
LINE
5
7E
100
AcDbEntity
8
SK1
62
256
6
ByLayer
370
13
48
1
60
0
100
AcDbLine
10
-39.35
20
-0.333173
30
0
11
-39.35
21
-1.642299
31
0
39
0
210
0
220
0
230
1
0
LINE
5
7F
100
AcDbEntity
8
SK1
62
256
6
ByLayer
370
18
48
1
60
0
100
AcDbLine
10
-38.66
20
5
30
0
11
-38.66
21
-5
31
0
39
0
210
0
220
0
230
1
0
LINE
5
80
100
AcDbEntity
8
SK1
62
256
6
ByLayer
370
18
48
1
60
0
100
AcDbLine
10
-40
20
-0.438038
30
0
11
-40
21
-1.537434
31
0
39
0
210
0
220
0
230
1
0
LINE
5
81
100
AcDbEntity
8
SK1
62
256
6
ByLayer
370
18
48
1
60
0
100
AcDbLine
10
-40
20
3.66
30
0
11
-40
21
0.438038
31
0
39
0
210
0
220
0
230
1
0
LINE
5
82
100
AcDbEntity
8
SK1
62
256
6
ByLayer
370
18
48
1
60
0
100
AcDbLine
10
-39.25
20
-1.563011
30
0
11
-39.25
21
0.214914
31
0
39
0
210
0
220
0
230
1
0
LINE
5
83
100
AcDbEntity
8
1
62
256
6
ByLayer
370
13
48
1
60
0
100
AcDbLine
10
47.570241
20
1.016198
30
0
11
48.989513
21
0.117764
31
0
39
0
210
0
220
0
230
1
0
LINE
5
84
100
AcDbEntity
8
1
62
256
6
ByLayer
370
13
48
1
60
0
100
AcDbLine
10
0.686641
20
4.610517
30
0
11
0.686641
21
-4.610517
31
0
39
0
210
0
220
0
230
1
0
LINE
5
85
100
AcDbEntity
8
1
62
256
6
ByLayer
370
13
48
1
60
0
100
AcDbLine
10
47.435716
20
0.919542
30
0
11
48.964247
21
-0.048055
31
0
39
0
210
0
220
0
230
1
0
LINE
5
86
100
AcDbEntity
8
1
62
256
6
ByLayer
370
18
48
1
60
0
100
AcDbLine
10
0
20
-5
30
0
11
0
21
5
31
0
39
0
210
0
220
0
230
1
0
LINE
5
87
100
AcDbEntity
8
1
62
256
6
ByLayer
370
13
48
1
60
0
100
AcDbLine
10
1.373782
20
4.221034
30
0
11
1.373782
21
-4.221034
31
0
39
0
210
0
220
0
230
1
0
LINE
5
88
100
AcDbEntity
8
1
62
256
6
ByLayer
370
18
48
1
60
0
100
AcDbLine
10
4.250652
20
-4.010953
30
0
11
4.250657
21
-4.010771
31
0
39
0
210
0
220
0
230
1
0
LINE
5
89
100
AcDbEntity
8
80
62
256
6
ByLayer
370
18
48
1
60
0
100
AcDbLine
10
0
20
0
30
0
11
-5
21
0
31
0
39
0
210
0
220
0
230
1
0
LINE
5
8A
100
AcDbEntity
8
SK4
62
256
6
ByLayer
370
18
48
0.05
60
0
100
AcDbLine
10
54
20
0
30
0
11
-45
21
0
31
0
39
0
210
0
220
0
230
1
0
LINE
5
8C
100
AcDbEntity
8
4
62
256
6
ByLayer
370
18
48
0.05
60
0
100
AcDbLine
10
49
20
0
30
0
11
0
21
0
31
0
39
0
210
0
220
0
230
1
0
LINE
5
8E
100
AcDbEntity
8
SK1
62
256
6
ByLayer
370
18
48
1
60
0
100
AcDbLine
10
-38.66
20
-5
30
0
11
0
21
-5
31
0
39
0
210
0
220
0
230
1
0
LINE
5
8F
100
AcDbEntity
8
SK1
62
256
6
ByLayer
370
18
48
1
60
0
100
AcDbLine
10
0
20
5
30
0
11
-38.66
21
5
31
0
39
0
210
0
220
0
230
1
0
LINE
5
90
100
AcDbEntity
8
SK1
62
256
6
ByLayer
370
18
48
1
60
0
100
AcDbLine
10
-40
20
-3.66
30
0
11
-38.66
21
-5
31
0
39
0
210
0
220
0
230
1
0
LINE
5
91
100
AcDbEntity
8
SK1
62
256
6
ByLayer
370
18
48
1
60
0
100
AcDbLine
10
-38.66
20
5
30
0
11
-40
21
3.66
31
0
39
0
210
0
220
0
230
1
0
LINE
5
92
100
AcDbEntity
8
1
62
256
6
ByLayer
370
18
48
1
60
0
100
AcDbLine
10
1.373782
20
-4.221034
30
0
11
4.002942
21
-4.222677
31
0
39
0
210
0
220
0
230
1
0
LINE
5
93
100
AcDbEntity
8
1
62
256
6
ByLayer
370
18
48
1
60
0
100
AcDbLine
10
18.49883
20
-4.231737
30
0
11
19.847294
21
-4.23258
31
0
39
0
210
0
220
0
230
1
0
LINE
5
94
100
AcDbEntity
8
1
62
256
6
ByLayer
370
18
48
1
60
0
100
AcDbLine
10
45.696972
20
-4.248736
30
0
11
47.048369
21
-4.24958
31
0
39
0
210
0
220
0
230
1
0
LINE
5
95
100
AcDbEntity
8
1
62
256
6
ByLayer
370
18
48
1
60
0
100
AcDbLine
10
47.048256
20
4.24958
30
0
11
45.696972
21
4.248736
31
0
39
0
210
0
220
0
230
1
0
LINE
5
96
100
AcDbEntity
8
1
62
256
6
ByLayer
370
18
48
1
60
0
100
AcDbLine
10
19.847235
20
4.232579
30
0
11
18.49883
21
4.231737
31
0
39
0
210
0
220
0
230
1
0
LINE
5
97
100
AcDbEntity
8
1
62
256
6
ByLayer
370
18
48
1
60
0
100
AcDbLine
10
4.002942
20
4.222677
30
0
11
1.373782
21
4.221034
31
0
39
0
210
0
220
0
230
1
0
LINE
5
98
100
AcDbEntity
8
81
62
256
6
ByLayer
370
18
48
1
60
0
100
AcDbLine
10
49
20
0
30
0
11
54
21
0
31
0
39
0
210
0
220
0
230
1
0
LINE
5
99
100
AcDbEntity
8
SK2
62
256
6
ByLayer
370
13
48
1
60
0
100
AcDbLine
10
-48.625163
20
-5
30
0
11
-48.625163
21
35.857173
31
0
39
0
210
0
220
0
230
1
0
LINE
5
9B
100
AcDbEntity
8
SK2
62
256
6
ByLayer
370
13
48
1
60
0
100
AcDbLine
10
-41.5875
20
5
30
0
11
-50.625163
21
5
31
0
39
0
210
0
220
0
230
1
0
LINE
5
9C
100
AcDbEntity
8
SK2
62
256
6
ByLayer
370
13
48
1
60
0
100
AcDbLine
10
-41.5875
20
-5
30
0
11
-50.625163
21
-5
31
0
39
0
210
0
220
0
230
1
0
LINE
5
9D
100
AcDbEntity
8
1
62
256
6
ByLayer
370
18
48
1
60
1
100
AcDbLine
10
-48.625163
20
5
30
0
11
-48.164379
21
1.500002
31
0
39
0
210
0
220
0
230
1
0
LINE
5
9E
100
AcDbEntity
8
1
62
256
6
ByLayer
370
18
48
1
60
1
100
AcDbLine
10
-48.164379
20
1.500002
30
0
11
-49.085946
21
1.499998
31
0
39
0
210
0
220
0
230
1
0
LINE
5
9F
100
AcDbEntity
8
1
62
256
6
ByLayer
370
18
48
1
60
1
100
AcDbLine
10
-49.085946
20
1.499998
30
0
11
-48.625163
21
5
31
0
39
0
210
0
220
0
230
1
0
LINE
5
A0
100
AcDbEntity
8
1
62
256
6
ByLayer
370
18
48
1
60
1
100
AcDbLine
10
-48.625163
20
-5
30
0
11
-49.085946
21
-1.500002
31
0
39
0
210
0
220
0
230
1
0
LINE
5
A1
100
AcDbEntity
8
1
62
256
6
ByLayer
370
18
48
1
60
1
100
AcDbLine
10
-49.085946
20
-1.500002
30
0
11
-48.164379
21
-1.499998
31
0
39
0
210
0
220
0
230
1
0
LINE
5
A2
100
AcDbEntity
8
1
62
256
6
ByLayer
370
18
48
1
60
1
100
AcDbLine
10
-48.164379
20
-1.499998
30
0
11
-48.625163
21
-5
31
0
39
0
210
0
220
0
230
1
0
LINE
5
A3
100
AcDbEntity
8
2
62
256
6
ByLayer
370
13
48
1
60
0
100
AcDbLine
10
61.083343
20
-4.25
30
0
11
61.083343
21
31.960193
31
0
39
0
210
0
220
0
230
1
0
LINE
5
A5
100
AcDbEntity
8
2
62
256
6
ByLayer
370
13
48
1
60
0
100
AcDbLine
10
49.3295
20
4.25
30
0
11
63.083343
21
4.25
31
0
39
0
210
0
220
0
230
1
0
LINE
5
A6
100
AcDbEntity
8
2
62
256
6
ByLayer
370
13
48
1
60
0
100
AcDbLine
10
49.3295
20
-4.25
30
0
11
63.083343
21
-4.25
31
0
39
0
210
0
220
0
230
1
0
LINE
5
A7
100
AcDbEntity
8
1
62
256
6
ByLayer
370
18
48
1
60
1
100
AcDbLine
10
61.083343
20
4.25
30
0
11
61.544126
21
0.750002
31
0
39
0
210
0
220
0
230
1
0
LINE
5
A8
100
AcDbEntity
8
1
62
256
6
ByLayer
370
18
48
1
60
1
100
AcDbLine
10
61.544126
20
0.750002
30
0
11
60.622559
21
0.749998
31
0
39
0
210
0
220
0
230
1
0
LINE
5
A9
100
AcDbEntity
8
1
62
256
6
ByLayer
370
18
48
1
60
1
100
AcDbLine
10
60.622559
20
0.749998
30
0
11
61.083343
21
4.25
31
0
39
0
210
0
220
0
230
1
0
LINE
5
AA
100
AcDbEntity
8
1
62
256
6
ByLayer
370
18
48
1
60
1
100
AcDbLine
10
61.083343
20
-4.25
30
0
11
60.622559
21
-0.750002
31
0
39
0
210
0
220
0
230
1
0
LINE
5
AB
100
AcDbEntity
8
1
62
256
6
ByLayer
370
18
48
1
60
1
100
AcDbLine
10
60.622559
20
-0.750002
30
0
11
61.544126
21
-0.749998
31
0
39
0
210
0
220
0
230
1
0
LINE
5
AC
100
AcDbEntity
8
1
62
256
6
ByLayer
370
18
48
1
60
1
100
AcDbLine
10
61.544126
20
-0.749998
30
0
11
61.083343
21
-4.25
31
0
39
0
210
0
220
0
230
1
0
LINE
5
F8
100
AcDbEntity
8
1
62
256
6
ByLayer
370
18
48
1
60
1
100
AcDbLine
10
-48.625163
20
5
30
0
11
-48.164379
21
1.500002
31
0
39
0
210
0
220
0
230
1
0
LINE
5
F9
100
AcDbEntity
8
1
62
256
6
ByLayer
370
18
48
1
60
1
100
AcDbLine
10
-48.164379
20
1.500002
30
0
11
-49.085946
21
1.499998
31
0
39
0
210
0
220
0
230
1
0
LINE
5
FA
100
AcDbEntity
8
1
62
256
6
ByLayer
370
18
48
1
60
1
100
AcDbLine
10
-49.085946
20
1.499998
30
0
11
-48.625163
21
5
31
0
39
0
210
0
220
0
230
1
0
LINE
5
FC
100
AcDbEntity
8
1
62
256
6
ByLayer
370
18
48
1
60
1
100
AcDbLine
10
-48.625163
20
-5
30
0
11
-49.085946
21
-1.500002
31
0
39
0
210
0
220
0
230
1
0
LINE
5
FD
100
AcDbEntity
8
1
62
256
6
ByLayer
370
18
48
1
60
1
100
AcDbLine
10
-49.085946
20
-1.500002
30
0
11
-48.164379
21
-1.499998
31
0
39
0
210
0
220
0
230
1
0
LINE
5
FE
100
AcDbEntity
8
1
62
256
6
ByLayer
370
18
48
1
60
1
100
AcDbLine
10
-48.164379
20
-1.499998
30
0
11
-48.625163
21
-5
31
0
39
0
210
0
220
0
230
1
0
LINE
5
102
100
AcDbEntity
8
1
62
256
6
ByLayer
370
18
48
1
60
1
100
AcDbLine
10
61.083343
20
4.25
30
0
11
61.544126
21
0.750002
31
0
39
0
210
0
220
0
230
1
0
LINE
5
103
100
AcDbEntity
8
1
62
256
6
ByLayer
370
18
48
1
60
1
100
AcDbLine
10
61.544126
20
0.750002
30
0
11
60.622559
21
0.749998
31
0
39
0
210
0
220
0
230
1
0
LINE
5
104
100
AcDbEntity
8
1
62
256
6
ByLayer
370
18
48
1
60
1
100
AcDbLine
10
60.622559
20
0.749998
30
0
11
61.083343
21
4.25
31
0
39
0
210
0
220
0
230
1
0
LINE
5
106
100
AcDbEntity
8
1
62
256
6
ByLayer
370
18
48
1
60
1
100
AcDbLine
10
61.083343
20
-4.25
30
0
11
60.622559
21
-0.750002
31
0
39
0
210
0
220
0
230
1
0
LINE
5
107
100
AcDbEntity
8
1
62
256
6
ByLayer
370
18
48
1
60
1
100
AcDbLine
10
60.622559
20
-0.750002
30
0
11
61.544126
21
-0.749998
31
0
39
0
210
0
220
0
230
1
0
LINE
5
108
100
AcDbEntity
8
1
62
256
6
ByLayer
370
18
48
1
60
1
100
AcDbLine
10
61.544126
20
-0.749998
30
0
11
61.083343
21
-4.25
31
0
39
0
210
0
220
0
230
1
0
MTEXT
5
F2
100
AcDbEntity
8
SK6
62
256
6
ByLayer
370
13
48
1
60
0
100
AcDbMText
10
-24.645193
20
36.790328
30
0
210
0
220
0
230
1
1
\W0.7670;462.1-0850-026A1-XM X2BM
40
3.5
41
0
44
1.084337
50
0
71
7
72
5
7
iso_b_vert
0
MTEXT
5
F6
100
AcDbEntity
8
SK2
62
256
6
ByLayer
370
18
48
1
60
0
100
AcDbMText
10
-50.189796
20
18.409024
30
0
210
0
220
0
230
1
1
%%c
40
3.5
41
0
44
1.084337
50
90
71
7
72
5
7
iso_b_vert
0
MTEXT
5
F7
100
AcDbEntity
8
SK2
62
256
6
ByLayer
370
18
48
1
60
0
100
AcDbMText
10
-50.189796
20
23.63168
30
0
210
0
220
0
230
1
1
\W0.6930;10,000
40
3.5
41
0
44
1.084337
50
90
71
7
72
5
7
iso_b_vert
0
MTEXT
5
100
100
AcDbEntity
8
2
62
256
6
ByLayer
370
18
48
1
60
0
100
AcDbMText
10
59.518709
20
16.25211
30
0
210
0
220
0
230
1
1
%%c
40
3.5
41
0
44
1.084337
50
90
71
7
72
5
7
iso_b_vert
0
MTEXT
5
101
100
AcDbEntity
8
2
62
256
6
ByLayer
370
18
48
1
60
0
100
AcDbMText
10
59.518709
20
21.474766
30
0
210
0
220
0
230
1
1
\W0.7317;8,500
40
3.5
41
0
44
1.084337
50
90
71
7
72
5
7
iso_b_vert
0
HATCH
5
FB
100
AcDbEntity
8
SK2
62
256
6
ByLayer
370
13
48
1
60
0
100
AcDbHatch
10
0
20
0
30
0
210
0
220
0
230
1
2
ANSI31
70
0
71
0
91
1
92
5
93
3
72
1
10
-48.6251625675374
20
5
11
-48.1643788259847
21
1.50000169255318
72
1
10
-48.1643788259847
20
1.50000169255318
11
-49.0859463090902
21
1.49999830744682
72
1
10
-49.0859463090902
20
1.49999830744682
11
-48.6251625675374
21
5
97
0
75
0
76
1
52
0
41
0.0062
77
0
78
1
53
45
43
0
44
0
45
-0.0139193969876572
46
0.0139193969876572
79
0
47
0
98
1
10
0
20
0
0
HATCH
5
FF
100
AcDbEntity
8
SK2
62
256
6
ByLayer
370
13
48
1
60
0
100
AcDbHatch
10
0
20
0
30
0
210
0
220
0
230
1
2
ANSI31
70
0
71
0
91
1
92
5
93
3
72
1
10
-48.6251625675374
20
-5
11
-49.0859463090902
21
-1.50000169255318
72
1
10
-49.0859463090902
20
-1.50000169255318
11
-48.1643788259847
21
-1.49999830744682
72
1
10
-48.1643788259847
20
-1.49999830744682
11
-48.6251625675374
21
-5
97
0
75
0
76
1
52
0
41
0.0062
77
0
78
1
53
45
43
0
44
0
45
-0.0139193969876572
46
0.0139193969876572
79
0
47
0
98
1
10
0
20
0
0
HATCH
5
105
100
AcDbEntity
8
2
62
256
6
ByLayer
370
13
48
1
60
0
100
AcDbHatch
10
0
20
0
30
0
210
0
220
0
230
1
2
ANSI31
70
0
71
0
91
1
92
5
93
3
72
1
10
61.083342615295
20
4.25
11
61.5441263568478
21
0.750001692553184
72
1
10
61.5441263568478
20
0.750001692553184
11
60.6225588737423
21
0.749998307446816
72
1
10
60.6225588737423
20
0.749998307446816
11
61.083342615295
21
4.25
97
0
75
0
76
1
52
0
41
0.0062
77
0
78
1
53
45
43
0
44
0
45
-0.0139193969876572
46
0.0139193969876572
79
0
47
0
98
1
10
0
20
0
0
HATCH
5
109
100
AcDbEntity
8
2
62
256
6
ByLayer
370
13
48
1
60
0
100
AcDbHatch
10
0
20
0
30
0
210
0
220
0
230
1
2
ANSI31
70
0
71
0
91
1
92
5
93
3
72
1
10
61.083342615295
20
-4.25
11
60.6225588737423
21
-0.750001692553184
72
1
10
60.6225588737423
20
-0.750001692553184
11
61.5441263568478
21
-0.749998307446816
72
1
10
61.5441263568478
20
-0.749998307446816
11
61.083342615295
21
-4.25
97
0
75
0
76
1
52
0
41
0.0062
77
0
78
1
53
45
43
0
44
0
45
-0.0139193969876572
46
0.0139193969876572
79
0
47
0
98
1
10
0
20
0
0
DIMENSION
5
10B
100
AcDbEntity
8
SK2
62
256
6
ByLayer
370
13
48
1
60
0
100
AcDbDimension
2
_U0
10
47.742
20
-14.463398
30
0
11
23.871
21
-14.463398
31
0
70
32
71
1
72
1
41
1
210
0
220
0
230
1
3
Standard
100
AcDbAlignedDimension
13
0
23
0
33
0
14
47.742
24
-4.25
34
0
50
0
100
AcDbRotatedDimension
1001
ACAD
1000
DSTYLE
1002
{
1070
   371
1070
    13
1070
   372
1070
    13
1070
   170
1070
     0
1070
   144
1040
1.0
1070
   277
1070
     2
1070
   278
1070
    44
1070
   146
1040
1.0
1070
   345
1005
16
1070
   347
1005
16
1070
   346
1005
16
1070
   344
1005
0
1070
   343
1005
0
1070
   172
1070
     1
1070
    76
1070
     0
1070
    75
1070
     0
1070
   282
1070
     0
1070
   281
1070
     0
1070
    71
1070
     0
1070
    74
1070
     0
1070
   279
1070
     0
1070
   173
1070
     1
1070
   340
1005
F3
1070
   271
1070
     2
1070
   272
1070
     2
1070
    77
1070
     1
1070
    73
1070
     1
1070
   171
1070
     3
1070
   274
1070
     4
1070
   177
1070
    35
1070
   176
1070
    35
1070
   178
1070
    35
1070
    48
1040
-0.1
1070
    41
1040
3.5
1070
   147
1040
1.75
1070
    42
1040
1.5875
1070
    44
1040
2.0
1070
   140
1040
3.5
1002
}
1001
ACAD_DSTYLE_DIM_LINETYPE
1070
   380
1005
16
1001
ACAD_DSTYLE_DIM_EXT1_LINETYPE
1070
   381
1005
16
1001
ACAD_DSTYLE_DIM_EXT2_LINETYPE
1070
   382
1005
16
0
DIMENSION
5
124
100
AcDbEntity
8
SK2
62
256
6
ByLayer
370
13
48
1
60
0
100
AcDbDimension
2
_U1
10
49
20
-33.692985
30
0
11
4.5
21
-33.692985
31
0
70
32
71
1
72
1
41
1
210
0
220
0
230
1
3
Standard
100
AcDbAlignedDimension
13
-40
23
-5
33
0
14
49
24
0
34
0
50
0
100
AcDbRotatedDimension
1001
ACAD
1000
DSTYLE
1002
{
1070
   371
1070
    13
1070
   372
1070
    13
1070
   170
1070
     0
1070
   144
1040
1.0
1070
   277
1070
     2
1070
   278
1070
    44
1070
   146
1040
1.0
1070
   345
1005
16
1070
   347
1005
16
1070
   346
1005
16
1070
   344
1005
0
1070
   343
1005
0
1070
   172
1070
     1
1070
    76
1070
     0
1070
    75
1070
     0
1070
   282
1070
     0
1070
   281
1070
     0
1070
    71
1070
     0
1070
    74
1070
     0
1070
   279
1070
     0
1070
   173
1070
     1
1070
   340
1005
F3
1070
   271
1070
     2
1070
   272
1070
     2
1070
    77
1070
     1
1070
    73
1070
     1
1070
   171
1070
     3
1070
   274
1070
     4
1070
   177
1070
    35
1070
   176
1070
    35
1070
   178
1070
    35
1070
    48
1040
-0.1
1070
    41
1040
3.5
1070
   147
1040
1.75
1070
    42
1040
1.5875
1070
    44
1040
2.0
1070
   140
1040
3.5
1002
}
1001
ACAD_DSTYLE_DIM_LINETYPE
1070
   380
1005
16
1001
ACAD_DSTYLE_DIM_EXT1_LINETYPE
1070
   381
1005
16
1001
ACAD_DSTYLE_DIM_EXT2_LINETYPE
1070
   382
1005
16
0
DIMENSION
5
13C
100
AcDbEntity
8
SK2
62
256
6
ByLayer
370
13
48
1
60
0
100
AcDbDimension
2
_U2
10
49
20
15.859119
30
0
11
35.62
21
15.859119
31
0
70
32
71
1
72
1
41
1
210
0
220
0
230
1
3
Standard
100
AcDbAlignedDimension
13
22.24
23
4.25
33
0
14
49
24
0
34
0
50
0
100
AcDbRotatedDimension
1001
ACAD
1000
DSTYLE
1002
{
1070
   371
1070
    13
1070
   372
1070
    13
1070
   170
1070
     0
1070
   144
1040
1.0
1070
   277
1070
     2
1070
   278
1070
    44
1070
   146
1040
1.0
1070
   345
1005
16
1070
   347
1005
16
1070
   346
1005
16
1070
   344
1005
0
1070
   343
1005
0
1070
   172
1070
     1
1070
    76
1070
     0
1070
    75
1070
     0
1070
   282
1070
     0
1070
   281
1070
     0
1070
    71
1070
     0
1070
    74
1070
     0
1070
   279
1070
     0
1070
   173
1070
     1
1070
   340
1005
F3
1070
   271
1070
     2
1070
   272
1070
     2
1070
    77
1070
     1
1070
    73
1070
     1
1070
   171
1070
     3
1070
   274
1070
     4
1070
   177
1070
    35
1070
   176
1070
    35
1070
   178
1070
    35
1070
    48
1040
-0.1
1070
    41
1040
3.5
1070
   147
1040
1.75
1070
    42
1040
1.5875
1070
    44
1040
2.0
1070
   140
1040
3.5
1002
}
1001
ACAD_DSTYLE_DIM_LINETYPE
1070
   380
1005
16
1001
ACAD_DSTYLE_DIM_EXT1_LINETYPE
1070
   381
1005
16
1001
ACAD_DSTYLE_DIM_EXT2_LINETYPE
1070
   382
1005
16
0
DIMENSION
5
154
100
AcDbEntity
8
SK2
62
256
6
ByLayer
370
13
48
1
60
0
100
AcDbDimension
2
_U3
10
47.742
20
-17.052503
30
0
11
66.333333
21
-17.052503
31
0
70
32
71
1
72
1
41
1
210
0
220
0
230
1
3
Standard
100
AcDbAlignedDimension
13
49
23
0
33
0
14
47.742
24
-4.25
34
0
50
0
100
AcDbRotatedDimension
1001
ACAD
1000
DSTYLE
1002
{
1070
   371
1070
    13
1070
   372
1070
    13
1070
   170
1070
     0
1070
   144
1040
1.0
1070
   277
1070
     2
1070
   278
1070
    44
1070
   146
1040
1.0
1070
   345
1005
16
1070
   347
1005
16
1070
   346
1005
16
1070
   344
1005
0
1070
   343
1005
0
1070
   172
1070
     1
1070
    76
1070
     0
1070
    75
1070
     0
1070
   282
1070
     0
1070
   281
1070
     0
1070
    71
1070
     0
1070
    74
1070
     0
1070
   279
1070
     0
1070
   173
1070
     1
1070
   340
1005
F3
1070
   271
1070
     2
1070
   272
1070
     2
1070
    77
1070
     1
1070
    73
1070
     1
1070
   171
1070
     3
1070
   274
1070
     4
1070
   177
1070
    35
1070
   176
1070
    35
1070
   178
1070
    35
1070
    48
1040
-0.1
1070
    41
1040
3.5
1070
   147
1040
1.75
1070
    42
1040
1.5875
1070
    44
1040
2.0
1070
   140
1040
3.5
1002
}
1001
ACAD_DSTYLE_DIM_LINETYPE
1070
   380
1005
16
1001
ACAD_DSTYLE_DIM_EXT1_LINETYPE
1070
   381
1005
16
1001
ACAD_DSTYLE_DIM_EXT2_LINETYPE
1070
   382
1005
16
0
DIMENSION
5
16E
100
AcDbEntity
8
SK2
62
256
6
ByLayer
370
13
48
1
60
0
100
AcDbDimension
2
_U4
10
47.742
20
-23.343428
30
0
11
3.871
21
-23.343428
31
0
70
32
71
1
72
1
41
1
210
0
220
0
230
1
3
Standard
100
AcDbAlignedDimension
13
-40
23
-5
33
0
14
47.742
24
-4.25
34
0
50
0
100
AcDbRotatedDimension
1001
ACAD
1000
DSTYLE
1002
{
1070
   371
1070
    13
1070
   372
1070
    13
1070
   170
1070
     0
1070
   144
1040
1.0
1070
   277
1070
     2
1070
   278
1070
    44
1070
   146
1040
1.0
1070
   345
1005
16
1070
   347
1005
16
1070
   346
1005
16
1070
   344
1005
0
1070
   343
1005
0
1070
   172
1070
     1
1070
    76
1070
     0
1070
    75
1070
     0
1070
   282
1070
     0
1070
   281
1070
     0
1070
    71
1070
     0
1070
    74
1070
     0
1070
   279
1070
     0
1070
   173
1070
     1
1070
   340
1005
F3
1070
   271
1070
     2
1070
   272
1070
     2
1070
    77
1070
     1
1070
    73
1070
     1
1070
   171
1070
     3
1070
   274
1070
     4
1070
   177
1070
    35
1070
   176
1070
    35
1070
   178
1070
    35
1070
    48
1040
-0.1
1070
    41
1040
3.5
1070
   147
1040
1.75
1070
    42
1040
1.5875
1070
    44
1040
2.0
1070
   140
1040
3.5
1002
}
1001
ACAD_DSTYLE_DIM_LINETYPE
1070
   380
1005
16
1001
ACAD_DSTYLE_DIM_EXT1_LINETYPE
1070
   381
1005
16
1001
ACAD_DSTYLE_DIM_EXT2_LINETYPE
1070
   382
1005
16
0
ENDSEC
0
SECTION
2
OBJECTS
0
DICTIONARY
5
1f6
330
0
100
AcDbDictionary
280
0
281
1
3
ACAD_GROUP
350
1f7
3
ACAD_MLINESTYLE
350
1f8
0
DICTIONARY
5
1f7
330
0
100
AcDbDictionary
280
0
281
1
0
DICTIONARY
5
1f8
330
0
100
AcDbDictionary
280
0
281
1
3
Standard
350
18
0
MLINESTYLE
5
18
330
1f8
100
AcDbMlineStyle
2
Standard
70
0
3

62
256
51
90
52
90
71
2
49
-0.5
62
256
6
ByLayer
49
0.5
62
256
6
ByLayer
0
RASTERVARIABLES
5
1e4
330

100
AcDbRasterVariables
90
0
70
1
71
1
72
1
0
ENDSEC
0
EOF
