0
SECTION
2
HEADER
9
$ACADVER
1
AC1015
9
$DWGCODEPAGE
3
ANSI_1252
9
$HANDSEED
5
201
9
$ANGBASE
50
0
9
$ANGDIR
70
0
9
$ATTMODE
70
1
9
$AUNITS
70
0
9
$AUPREC
70
0
9
$CECOLOR
62
256
9
$CELTSCALE
40
1
9
$CELTYPE
6
ByLayer
9
$CELWEIGHT
370
18
9
$CLAYER
8
0
9
$CMLJUST
70
0
9
$CMLSCALE
40
1
9
$CMLSTYLE
2
Standard
9
$DIMSTYLE
2
Standard
9
$TEXTSIZE
40
0.2
9
$TEXTSTYLE
7
Standard
9
$LUNITS
70
2
9
$LUPREC
70
4
9
$EXTNAMES
290
1
9
$INSUNITS
70
4
9
$LTSCALE
40
1
9
$LWDISPLAY
290
1
9
$PDMODE
70
0
9
$PDSIZE
40
0
9
$PLINEGEN
70
0
0
ENDSEC
0
SECTION
2
CLASSES
0
CLASS
1
RASTERVARIABLES
2
AcDbRasterVariables
3
ISM
90
0
280
0
281
0
0
ENDSEC
0
SECTION
2
TABLES
0
TABLE
2
VPORT
5
1f7
100
AcDbSymbolTable
0
VPORT
5
1
100
AcDbSymbolTableRecord
100
AcDbViewportTableRecord
2
*Active
70
0
10
0
20
0
11
1
21
1
12
-1
22
1
13
0
23
0
14
0.5
24
0.5
15
10
25
10
16
0
26
0
36
1
17
0
27
0
37
0
0
ENDTAB
0
TABLE
2
LTYPE
5
1f8
100
AcDbSymbolTable
0
LTYPE
5
14
100
AcDbSymbolTableRecord
100
AcDbLinetypeTableRecord
70
0
2
ByBlock
3

72
65
73
0
40
0
0
LTYPE
5
15
100
AcDbSymbolTableRecord
100
AcDbLinetypeTableRecord
70
0
2
ByLayer
3

72
65
73
0
40
0
0
LTYPE
5
16
100
AcDbSymbolTableRecord
100
AcDbLinetypeTableRecord
70
0
2
Continuous
3
Solid line
72
65
73
0
40
0
0
LTYPE
5
6E
100
AcDbSymbolTableRecord
100
AcDbLinetypeTableRecord
70
0
2
CENTER
3
____ _ ____ _ ____ _ ____
72
65
73
4
40
47.5
49
22
74
0
49
-8.5
74
0
49
8.5
74
0
49
-8.5
74
0
0
LTYPE
5
6F
100
AcDbSymbolTableRecord
100
AcDbLinetypeTableRecord
70
0
2
DASHED
3
__ __ __ __ __ __ __ __ __
72
65
73
2
40
25.72
49
12.86
74
0
49
-12.86
74
0
0
ENDTAB
0
TABLE
2
LAYER
5
1f9
100
AcDbSymbolTable
0
LAYER
5
10
100
AcDbSymbolTableRecord
100
AcDbLayerTableRecord
2
0
70
0
62
7
6
Continuous
290
1
370
-3
390
0
0
LAYER
5
71
100
AcDbSymbolTableRecord
100
AcDbLayerTableRecord
2
80
70
0
62
-6
6
Continuous
290
1
370
-3
390
0
0
LAYER
5
73
100
AcDbSymbolTableRecord
100
AcDbLayerTableRecord
2
81
70
0
62
-3
6
Continuous
290
1
370
-3
390
0
0
LAYER
5
75
100
AcDbSymbolTableRecord
100
AcDbLayerTableRecord
2
1
70
0
62
4
6
Continuous
290
1
370
-3
390
0
0
LAYER
5
8B
100
AcDbSymbolTableRecord
100
AcDbLayerTableRecord
2
4
70
0
62
-2
6
CENTER
290
1
370
-3
390
0
0
LAYER
5
A4
100
AcDbSymbolTableRecord
100
AcDbLayerTableRecord
2
2
70
0
62
7
6
Continuous
290
1
370
-3
390
0
0
LAYER
5
10C
100
AcDbSymbolTableRecord
100
AcDbLayerTableRecord
2
Defpoints
70
0
62
7
6
Continuous
290
0
370
-3
390
0
0
LAYER
5
1e3
100
AcDbSymbolTableRecord
100
AcDbLayerTableRecord
2
SK1
70
0
62
4
6
Continuous
290
1
370
-3
390
0
0
LAYER
5
1e4
100
AcDbSymbolTableRecord
100
AcDbLayerTableRecord
2
SK4
70
0
62
2
6
CENTER
290
1
370
-3
390
0
0
LAYER
5
1e5
100
AcDbSymbolTableRecord
100
AcDbLayerTableRecord
2
SK2
70
0
62
7
6
Continuous
290
1
370
-3
390
0
0
LAYER
5
1e6
100
AcDbSymbolTableRecord
100
AcDbLayerTableRecord
2
SK6
70
0
62
5
6
Continuous
290
1
370
-3
390
0
0
ENDTAB
0
TABLE
2
STYLE
5
1fa
100
AcDbSymbolTable
0
STYLE
5
11
100
AcDbSymbolTableRecord
100
AcDbTextStyleTableRecord
2
Standard
3
txt
70
0
71
0
40
0
41
1
42
0
50
0
0
STYLE
5
F1
100
AcDbSymbolTableRecord
100
AcDbTextStyleTableRecord
2
iso_b_vert
3
simplex.shx
70
0
71
0
40
0
41
1
42
0
50
0
0
STYLE
5
F2
100
AcDbSymbolTableRecord
100
AcDbTextStyleTableRecord
2
DWGDirectTextStyle
3
simplex
70
0
71
0
40
0
41
1
42
0
50
0
0
ENDTAB
0
TABLE
2
DIMSTYLE
5
1fb
100
AcDbSymbolTable
100
AcDbDimStyleTable
0
DIMSTYLE
105
27
100
AcDbSymbolTableRecord
100
AcDbDimStyleTableRecord
2
Standard
70
0
3
<>
41
0.18
42
0.0625
44
0.18
140
0.18
147
0.09
73
0
74
0
77
1
271
2
275
0
278
52
280
0
340
11
0
ENDTAB
0
TABLE
2
VIEW
5
1fc
100
AcDbSymbolTable
0
ENDTAB
0
TABLE
2
UCS
5
1fd
100
AcDbSymbolTable
0
ENDTAB
0
TABLE
2
APPID
5
1fe
100
AcDbSymbolTable
0
APPID
5
12
100
AcDbSymbolTableRecord
100
AcDbRegAppTableRecord
2
ACAD
70
0
0
APPID
5
108
100
AcDbSymbolTableRecord
100
AcDbRegAppTableRecord
2
ACAD_DSTYLE_DIMBREAK
70
0
0
APPID
5
1A2
100
AcDbSymbolTableRecord
100
AcDbRegAppTableRecord
2
ACAD_DSTYLE_DIM_LINETYPE
70
0
0
APPID
5
1A3
100
AcDbSymbolTableRecord
100
AcDbRegAppTableRecord
2
ACAD_DSTYLE_DIM_EXT1_LINETYPE
70
0
0
APPID
5
1A4
100
AcDbSymbolTableRecord
100
AcDbRegAppTableRecord
2
ACAD_DSTYLE_DIM_EXT2_LINETYPE
70
0
0
APPID
5
1DF
100
AcDbSymbolTableRecord
100
AcDbRegAppTableRecord
2
ACAD_MLEADERVER
70
0
0
ENDTAB
0
TABLE
2
BLOCK_RECORD
5
1ff
100
AcDbSymbolTable
0
BLOCK_RECORD
5
1F
100
AcDbSymbolTableRecord
100
AcDbBlockTableRecord
2
*Model_Space
340
0
70
0
0
BLOCK_RECORD
5
1B
100
AcDbSymbolTableRecord
100
AcDbBlockTableRecord
2
*Paper_Space
340
0
70
0
0
BLOCK_RECORD
5
23
100
AcDbSymbolTableRecord
100
AcDbBlockTableRecord
2
*Paper_Space0
340
0
70
0
0
BLOCK_RECORD
5
10D
100
AcDbSymbolTableRecord
100
AcDbBlockTableRecord
2
*D1
340
0
70
0
0
BLOCK_RECORD
5
119
100
AcDbSymbolTableRecord
100
AcDbBlockTableRecord
2
_U0
340
0
70
0
0
BLOCK_RECORD
5
125
100
AcDbSymbolTableRecord
100
AcDbBlockTableRecord
2
*D3
340
0
70
0
0
BLOCK_RECORD
5
131
100
AcDbSymbolTableRecord
100
AcDbBlockTableRecord
2
_U1
340
0
70
0
0
BLOCK_RECORD
5
13D
100
AcDbSymbolTableRecord
100
AcDbBlockTableRecord
2
*D5
340
0
70
0
0
BLOCK_RECORD
5
149
100
AcDbSymbolTableRecord
100
AcDbBlockTableRecord
2
_U2
340
0
70
0
0
BLOCK_RECORD
5
155
100
AcDbSymbolTableRecord
100
AcDbBlockTableRecord
2
*D7
340
0
70
0
0
BLOCK_RECORD
5
163
100
AcDbSymbolTableRecord
100
AcDbBlockTableRecord
2
_U3
340
0
70
0
0
BLOCK_RECORD
5
16F
100
AcDbSymbolTableRecord
100
AcDbBlockTableRecord
2
*D9
340
0
70
0
0
BLOCK_RECORD
5
17B
100
AcDbSymbolTableRecord
100
AcDbBlockTableRecord
2
_U4
340
0
70
0
0
ENDTAB
0
ENDSEC
0
SECTION
2
BLOCKS
0
BLOCK
5
20
100
AcDbEntity
8
0
100
AcDbBlockBegin
2
*Model_Space
70
0
10
0
20
0
30
0
3
*Model_Space
0
ENDBLK
5
21
100
AcDbEntity
8
0
100
AcDbBlockEnd
0
BLOCK
5
1C
100
AcDbEntity
8
0
100
AcDbBlockBegin
2
*Paper_Space
70
0
10
0
20
0
30
0
3
*Paper_Space
0
ENDBLK
5
1D
100
AcDbEntity
8
0
100
AcDbBlockEnd
0
BLOCK
5
24
100
AcDbEntity
8
0
100
AcDbBlockBegin
2
*Paper_Space0
70
0
10
0
20
0
30
0
3
*Paper_Space0
0
ENDBLK
5
25
100
AcDbEntity
8
0
100
AcDbBlockEnd
0
BLOCK
5
10E
100
AcDbEntity
8
0
100
AcDbBlockBegin
2
*D1
70
1
10
0
20
0
30
0
3
*D1
0
LINE
5
110
100
AcDbEntity
8
0
62
256
6
ByLayer
370
-2
48
1
60
0
100
AcDbLine
10
0
20
-1.5875
30
0
11
0
21
-17.663398
31
0
39
0
210
0
220
0
230
1
0
LINE
5
111
100
AcDbEntity
8
0
62
256
6
ByLayer
370
-2
48
1
60
0
100
AcDbLine
10
55.3804
20
-7.0375
30
0
11
55.3804
21
-17.663398
31
0
39
0
210
0
220
0
230
1
0
LINE
5
112
100
AcDbEntity
8
0
62
256
6
ByLayer
370
-2
48
1
60
0
100
AcDbLine
10
3.5
20
-15.663398
30
0
11
51.8804
21
-15.663398
31
0
39
0
210
0
220
0
230
1
0
SOLID
5
113
100
AcDbEntity
8
0
62
256
6
ByLayer
370
-1
48
1
60
0
100
AcDbTrace
10
3.5
20
-15.080065
30
0
11
3.5
21
-16.246732
31
0
12
0
22
-15.663398
32
0
13
0
23
-15.663398
33
0
39
0
210
0
220
0
230
1
0
SOLID
5
114
100
AcDbEntity
8
0
62
256
6
ByLayer
370
-1
48
1
60
0
100
AcDbTrace
10
51.8804
20
-16.246732
30
0
11
51.8804
21
-15.080065
31
0
12
55.3804
22
-15.663398
32
0
13
55.3804
23
-15.663398
33
0
39
0
210
0
220
0
230
1
0
MTEXT
5
115
100
AcDbEntity
8
0
62
256
6
ByLayer
370
18
48
1
60
0
100
AcDbMText
10
27.6902
20
-8.663398
30
0
210
0
220
0
230
1
1
\A1;55.38
40
3.5
41
0
44
1
50
0
71
5
72
5
7
iso_b_vert
0
POINT
5
116
100
AcDbEntity
8
Defpoints
62
0
6
ByLayer
370
-1
48
1
60
0
100
AcDbPoint
10
0
20
0
30
0
39
0
210
0
220
0
230
1
50
360
0
POINT
5
117
100
AcDbEntity
8
Defpoints
62
0
6
ByLayer
370
-1
48
1
60
0
100
AcDbPoint
10
55.3804
20
-5.45
30
0
39
0
210
0
220
0
230
1
50
360
0
POINT
5
118
100
AcDbEntity
8
Defpoints
62
0
6
ByLayer
370
-1
48
1
60
0
100
AcDbPoint
10
55.3804
20
-15.663398
30
0
39
0
210
0
220
0
230
1
50
360
0
ENDBLK
5
10F
100
AcDbEntity
8
0
100
AcDbBlockEnd
0
BLOCK
5
120
100
AcDbEntity
8
0
100
AcDbBlockBegin
2
_U0
70
0
10
0
20
0
30
0
3
_U0
0
MTEXT
5
11A
100
AcDbEntity
8
SK2
62
256
6
ByLayer
370
13
48
1
60
0
100
AcDbMText
10
22.552901
20
-14.630765
30
0
210
0
220
0
230
1
1
\W0.7317;55,38
40
3.5
41
0
44
1.084337
50
0
71
7
72
5
7
iso_b_vert
0
LINE
5
11B
100
AcDbEntity
8
SK2
62
256
6
ByLayer
370
13
48
1
60
0
100
AcDbLine
10
0
20
-1.5875
30
0
11
0
21
-17.663398
31
0
39
0
210
0
220
0
230
1
0
LINE
5
11C
100
AcDbEntity
8
SK2
62
256
6
ByLayer
370
13
48
1
60
0
100
AcDbLine
10
55.3804
20
-7.0375
30
0
11
55.3804
21
-17.663398
31
0
39
0
210
0
220
0
230
1
0
LINE
5
11D
100
AcDbEntity
8
SK2
62
256
6
ByLayer
370
13
48
1
60
0
100
AcDbLine
10
0
20
-15.663398
30
0
11
55.3804
21
-15.663398
31
0
39
0
210
0
220
0
230
1
0
SOLID
5
11E
100
AcDbEntity
8
SK2
62
256
6
ByLayer
370
18
48
1
60
0
100
AcDbTrace
10
0
20
-15.663398
30
0
11
3.499998
21
-15.202615
31
0
12
3.500002
22
-16.124182
32
0
13
3.500002
23
-16.124182
33
0
39
0
210
0
220
0
230
1
0
SOLID
5
11F
100
AcDbEntity
8
SK2
62
256
6
ByLayer
370
18
48
1
60
0
100
AcDbTrace
10
55.3804
20
-15.663398
30
0
11
51.880402
21
-16.124182
31
0
12
51.880398
22
-15.202615
32
0
13
51.880398
23
-15.202615
33
0
39
0
210
0
220
0
230
1
0
ENDBLK
5
121
100
AcDbEntity
8
0
100
AcDbBlockEnd
0
BLOCK
5
126
100
AcDbEntity
8
0
100
AcDbBlockBegin
2
*D3
70
1
10
0
20
0
30
0
3
*D3
0
LINE
5
128
100
AcDbEntity
8
0
62
256
6
ByLayer
370
-2
48
1
60
0
100
AcDbLine
10
-45
20
-7.5875
30
0
11
-45
21
-36.692985
31
0
39
0
210
0
220
0
230
1
0
LINE
5
129
100
AcDbEntity
8
0
62
256
6
ByLayer
370
-2
48
1
60
0
100
AcDbLine
10
57
20
-1.5875
30
0
11
57
21
-36.692985
31
0
39
0
210
0
220
0
230
1
0
LINE
5
12A
100
AcDbEntity
8
0
62
256
6
ByLayer
370
-2
48
1
60
0
100
AcDbLine
10
-41.5
20
-34.692985
30
0
11
53.5
21
-34.692985
31
0
39
0
210
0
220
0
230
1
0
SOLID
5
12B
100
AcDbEntity
8
0
62
256
6
ByLayer
370
-1
48
1
60
0
100
AcDbTrace
10
-41.5
20
-34.109652
30
0
11
-41.5
21
-35.276319
31
0
12
-45
22
-34.692985
32
0
13
-45
23
-34.692985
33
0
39
0
210
0
220
0
230
1
0
SOLID
5
12C
100
AcDbEntity
8
0
62
256
6
ByLayer
370
-1
48
1
60
0
100
AcDbTrace
10
53.5
20
-35.276319
30
0
11
53.5
21
-34.109652
31
0
12
57
22
-34.692985
32
0
13
57
23
-34.692985
33
0
39
0
210
0
220
0
230
1
0
MTEXT
5
12D
100
AcDbEntity
8
0
62
256
6
ByLayer
370
18
48
1
60
0
100
AcDbMText
10
6
20
-27.692985
30
0
210
0
220
0
230
1
1
\A1;102.00
40
3.5
41
0
44
1
50
0
71
5
72
5
7
iso_b_vert
0
POINT
5
12E
100
AcDbEntity
8
Defpoints
62
0
6
ByLayer
370
-1
48
1
60
0
100
AcDbPoint
10
-45
20
-6
30
0
39
0
210
0
220
0
230
1
50
360
0
POINT
5
12F
100
AcDbEntity
8
Defpoints
62
0
6
ByLayer
370
-1
48
1
60
0
100
AcDbPoint
10
57
20
0
30
0
39
0
210
0
220
0
230
1
50
360
0
POINT
5
130
100
AcDbEntity
8
Defpoints
62
0
6
ByLayer
370
-1
48
1
60
0
100
AcDbPoint
10
57
20
-34.692985
30
0
39
0
210
0
220
0
230
1
50
360
0
ENDBLK
5
127
100
AcDbEntity
8
0
100
AcDbBlockEnd
0
BLOCK
5
138
100
AcDbEntity
8
0
100
AcDbBlockBegin
2
_U1
70
0
10
0
20
0
30
0
3
_U1
0
MTEXT
5
132
100
AcDbEntity
8
SK2
62
256
6
ByLayer
370
13
48
1
60
0
100
AcDbMText
10
-0.007599
20
-33.660352
30
0
210
0
220
0
230
1
1
\W0.6930;102,00
40
3.5
41
0
44
1.084337
50
0
71
7
72
5
7
iso_b_vert
0
LINE
5
133
100
AcDbEntity
8
SK2
62
256
6
ByLayer
370
13
48
1
60
0
100
AcDbLine
10
-45
20
-7.5875
30
0
11
-45
21
-36.692985
31
0
39
0
210
0
220
0
230
1
0
LINE
5
134
100
AcDbEntity
8
SK2
62
256
6
ByLayer
370
13
48
1
60
0
100
AcDbLine
10
57
20
-1.5875
30
0
11
57
21
-36.692985
31
0
39
0
210
0
220
0
230
1
0
LINE
5
135
100
AcDbEntity
8
SK2
62
256
6
ByLayer
370
13
48
1
60
0
100
AcDbLine
10
-45
20
-34.692985
30
0
11
57
21
-34.692985
31
0
39
0
210
0
220
0
230
1
0
SOLID
5
136
100
AcDbEntity
8
SK2
62
256
6
ByLayer
370
18
48
1
60
0
100
AcDbTrace
10
-45
20
-34.692985
30
0
11
-41.500002
21
-34.232202
31
0
12
-41.499998
22
-35.153769
32
0
13
-41.499998
23
-35.153769
33
0
39
0
210
0
220
0
230
1
0
SOLID
5
137
100
AcDbEntity
8
SK2
62
256
6
ByLayer
370
18
48
1
60
0
100
AcDbTrace
10
57
20
-34.692985
30
0
11
53.500002
21
-35.153769
31
0
12
53.499998
22
-34.232202
32
0
13
53.499998
23
-34.232202
33
0
39
0
210
0
220
0
230
1
0
ENDBLK
5
139
100
AcDbEntity
8
0
100
AcDbBlockEnd
0
BLOCK
5
13E
100
AcDbEntity
8
0
100
AcDbBlockBegin
2
*D5
70
1
10
0
20
0
30
0
3
*D5
0
LINE
5
140
100
AcDbEntity
8
0
62
256
6
ByLayer
370
-2
48
1
60
0
100
AcDbLine
10
22.68
20
7.0375
30
0
11
22.68
21
19.059119
31
0
39
0
210
0
220
0
230
1
0
LINE
5
141
100
AcDbEntity
8
0
62
256
6
ByLayer
370
-2
48
1
60
0
100
AcDbLine
10
57
20
1.5875
30
0
11
57
21
19.059119
31
0
39
0
210
0
220
0
230
1
0
LINE
5
142
100
AcDbEntity
8
0
62
256
6
ByLayer
370
-2
48
1
60
0
100
AcDbLine
10
26.18
20
17.059119
30
0
11
53.5
21
17.059119
31
0
39
0
210
0
220
0
230
1
0
SOLID
5
143
100
AcDbEntity
8
0
62
256
6
ByLayer
370
-1
48
1
60
0
100
AcDbTrace
10
26.18
20
17.642453
30
0
11
26.18
21
16.475786
31
0
12
22.68
22
17.059119
32
0
13
22.68
23
17.059119
33
0
39
0
210
0
220
0
230
1
0
SOLID
5
144
100
AcDbEntity
8
0
62
256
6
ByLayer
370
-1
48
1
60
0
100
AcDbTrace
10
53.5
20
16.475786
30
0
11
53.5
21
17.642453
31
0
12
57
22
17.059119
32
0
13
57
23
17.059119
33
0
39
0
210
0
220
0
230
1
0
MTEXT
5
145
100
AcDbEntity
8
0
62
256
6
ByLayer
370
18
48
1
60
0
100
AcDbMText
10
39.84
20
24.059119
30
0
210
0
220
0
230
1
1
\A1;34.32
40
3.5
41
0
44
1
50
0
71
5
72
5
7
iso_b_vert
0
POINT
5
146
100
AcDbEntity
8
Defpoints
62
0
6
ByLayer
370
-1
48
1
60
0
100
AcDbPoint
10
22.68
20
5.45
30
0
39
0
210
0
220
0
230
1
50
360
0
POINT
5
147
100
AcDbEntity
8
Defpoints
62
0
6
ByLayer
370
-1
48
1
60
0
100
AcDbPoint
10
57
20
0
30
0
39
0
210
0
220
0
230
1
50
360
0
POINT
5
148
100
AcDbEntity
8
Defpoints
62
0
6
ByLayer
370
-1
48
1
60
0
100
AcDbPoint
10
57
20
17.059119
30
0
39
0
210
0
220
0
230
1
50
360
0
ENDBLK
5
13F
100
AcDbEntity
8
0
100
AcDbBlockEnd
0
BLOCK
5
150
100
AcDbEntity
8
0
100
AcDbBlockBegin
2
_U2
70
0
10
0
20
0
30
0
3
_U2
0
MTEXT
5
14A
100
AcDbEntity
8
SK2
62
256
6
ByLayer
370
13
48
1
60
0
100
AcDbMText
10
34.518435
20
18.091753
30
0
210
0
220
0
230
1
1
\W0.7581;34,32
40
3.5
41
0
44
1.084337
50
0
71
7
72
5
7
iso_b_vert
0
LINE
5
14B
100
AcDbEntity
8
SK2
62
256
6
ByLayer
370
13
48
1
60
0
100
AcDbLine
10
22.68
20
7.0375
30
0
11
22.68
21
19.059119
31
0
39
0
210
0
220
0
230
1
0
LINE
5
14C
100
AcDbEntity
8
SK2
62
256
6
ByLayer
370
13
48
1
60
0
100
AcDbLine
10
57
20
1.5875
30
0
11
57
21
19.059119
31
0
39
0
210
0
220
0
230
1
0
LINE
5
14D
100
AcDbEntity
8
SK2
62
256
6
ByLayer
370
13
48
1
60
0
100
AcDbLine
10
22.68
20
17.059119
30
0
11
57
21
17.059119
31
0
39
0
210
0
220
0
230
1
0
SOLID
5
14E
100
AcDbEntity
8
SK2
62
256
6
ByLayer
370
18
48
1
60
0
100
AcDbTrace
10
22.68
20
17.059119
30
0
11
26.179998
21
17.519903
31
0
12
26.180002
22
16.598335
32
0
13
26.180002
23
16.598335
33
0
39
0
210
0
220
0
230
1
0
SOLID
5
14F
100
AcDbEntity
8
SK2
62
256
6
ByLayer
370
18
48
1
60
0
100
AcDbTrace
10
57
20
17.059119
30
0
11
53.500002
21
16.598335
31
0
12
53.499998
22
17.519903
32
0
13
53.499998
23
17.519903
33
0
39
0
210
0
220
0
230
1
0
ENDBLK
5
151
100
AcDbEntity
8
0
100
AcDbBlockEnd
0
BLOCK
5
156
100
AcDbEntity
8
0
100
AcDbBlockBegin
2
*D7
70
1
10
0
20
0
30
0
3
*D7
0
LINE
5
158
100
AcDbEntity
8
0
62
256
6
ByLayer
370
-2
48
1
60
0
100
AcDbLine
10
57
20
-1.5875
30
0
11
57
21
-20.252503
31
0
39
0
210
0
220
0
230
1
0
LINE
5
159
100
AcDbEntity
8
0
62
256
6
ByLayer
370
-2
48
1
60
0
100
AcDbLine
10
55.3804
20
-7.0375
30
0
11
55.3804
21
-20.252503
31
0
39
0
210
0
220
0
230
1
0
LINE
5
15A
100
AcDbEntity
8
0
62
256
6
ByLayer
370
-2
48
1
60
0
100
AcDbLine
10
57
20
-18.252503
30
0
11
84.666667
21
-18.252503
31
0
39
0
210
0
220
0
230
1
0
LINE
5
15B
100
AcDbEntity
8
0
62
256
6
ByLayer
370
-2
48
1
60
0
100
AcDbLine
10
60.5
20
-18.252503
30
0
11
64
21
-18.252503
31
0
39
0
210
0
220
0
230
1
0
LINE
5
15C
100
AcDbEntity
8
0
62
256
6
ByLayer
370
-2
48
1
60
0
100
AcDbLine
10
51.8804
20
-18.252503
30
0
11
48.3804
21
-18.252503
31
0
39
0
210
0
220
0
230
1
0
SOLID
5
15D
100
AcDbEntity
8
0
62
256
6
ByLayer
370
-1
48
1
60
0
100
AcDbTrace
10
60.5
20
-17.66917
30
0
11
60.5
21
-18.835837
31
0
12
57
22
-18.252503
32
0
13
57
23
-18.252503
33
0
39
0
210
0
220
0
230
1
0
SOLID
5
15E
100
AcDbEntity
8
0
62
256
6
ByLayer
370
-1
48
1
60
0
100
AcDbTrace
10
51.8804
20
-18.835837
30
0
11
51.8804
21
-17.66917
31
0
12
55.3804
22
-18.252503
32
0
13
55.3804
23
-18.252503
33
0
39
0
210
0
220
0
230
1
0
MTEXT
5
15F
100
AcDbEntity
8
0
62
256
6
ByLayer
370
18
48
1
60
0
100
AcDbMText
10
74.333333
20
-11.252503
30
0
210
0
220
0
230
1
1
\A1;1.62
40
3.5
41
0
44
1
50
0
71
5
72
5
7
iso_b_vert
0
POINT
5
160
100
AcDbEntity
8
Defpoints
62
0
6
ByLayer
370
-1
48
1
60
0
100
AcDbPoint
10
57
20
0
30
0
39
0
210
0
220
0
230
1
50
360
0
POINT
5
161
100
AcDbEntity
8
Defpoints
62
0
6
ByLayer
370
-1
48
1
60
0
100
AcDbPoint
10
55.3804
20
-5.45
30
0
39
0
210
0
220
0
230
1
50
360
0
POINT
5
162
100
AcDbEntity
8
Defpoints
62
0
6
ByLayer
370
-1
48
1
60
0
100
AcDbPoint
10
55.3804
20
-18.252503
30
0
39
0
210
0
220
0
230
1
50
360
0
ENDBLK
5
157
100
AcDbEntity
8
0
100
AcDbBlockEnd
0
BLOCK
5
16A
100
AcDbEntity
8
0
100
AcDbBlockBegin
2
_U3
70
0
10
0
20
0
30
0
3
_U3
0
MTEXT
5
164
100
AcDbEntity
8
SK2
62
256
6
ByLayer
370
13
48
1
60
0
100
AcDbMText
10
63.589293
20
-17.21987
30
0
210
0
220
0
230
1
1
\W0.6367;1,62
40
3.5
41
0
44
1.084337
50
0
71
7
72
5
7
iso_b_vert
0
LINE
5
165
100
AcDbEntity
8
SK2
62
256
6
ByLayer
370
13
48
1
60
0
100
AcDbLine
10
57
20
-1.5875
30
0
11
57
21
-20.252503
31
0
39
0
210
0
220
0
230
1
0
LINE
5
166
100
AcDbEntity
8
SK2
62
256
6
ByLayer
370
13
48
1
60
0
100
AcDbLine
10
55.3804
20
-7.0375
30
0
11
55.3804
21
-20.252503
31
0
39
0
210
0
220
0
230
1
0
LINE
5
167
100
AcDbEntity
8
SK2
62
256
6
ByLayer
370
13
48
1
60
0
100
AcDbLine
10
46.6304
20
-18.252503
30
0
11
70.559058
21
-18.252503
31
0
39
0
210
0
220
0
230
1
0
SOLID
5
168
100
AcDbEntity
8
SK2
62
256
6
ByLayer
370
18
48
1
60
0
100
AcDbTrace
10
57
20
-18.252503
30
0
11
60.499998
21
-17.791719
31
0
12
60.500002
22
-18.713287
32
0
13
60.500002
23
-18.713287
33
0
39
0
210
0
220
0
230
1
0
SOLID
5
169
100
AcDbEntity
8
SK2
62
256
6
ByLayer
370
18
48
1
60
0
100
AcDbTrace
10
55.3804
20
-18.252503
30
0
11
51.880402
21
-18.713287
31
0
12
51.880398
22
-17.791719
32
0
13
51.880398
23
-17.791719
33
0
39
0
210
0
220
0
230
1
0
ENDBLK
5
16B
100
AcDbEntity
8
0
100
AcDbBlockEnd
0
BLOCK
5
170
100
AcDbEntity
8
0
100
AcDbBlockBegin
2
*D9
70
1
10
0
20
0
30
0
3
*D9
0
LINE
5
172
100
AcDbEntity
8
0
62
256
6
ByLayer
370
-2
48
1
60
0
100
AcDbLine
10
-45
20
-7.5875
30
0
11
-45
21
-26.343428
31
0
39
0
210
0
220
0
230
1
0
LINE
5
173
100
AcDbEntity
8
0
62
256
6
ByLayer
370
-2
48
1
60
0
100
AcDbLine
10
55.3804
20
-7.0375
30
0
11
55.3804
21
-26.343428
31
0
39
0
210
0
220
0
230
1
0
LINE
5
174
100
AcDbEntity
8
0
62
256
6
ByLayer
370
-2
48
1
60
0
100
AcDbLine
10
-41.5
20
-24.343428
30
0
11
51.8804
21
-24.343428
31
0
39
0
210
0
220
0
230
1
0
SOLID
5
175
100
AcDbEntity
8
0
62
256
6
ByLayer
370
-1
48
1
60
0
100
AcDbTrace
10
-41.5
20
-23.760095
30
0
11
-41.5
21
-24.926762
31
0
12
-45
22
-24.343428
32
0
13
-45
23
-24.343428
33
0
39
0
210
0
220
0
230
1
0
SOLID
5
176
100
AcDbEntity
8
0
62
256
6
ByLayer
370
-1
48
1
60
0
100
AcDbTrace
10
51.8804
20
-24.926762
30
0
11
51.8804
21
-23.760095
31
0
12
55.3804
22
-24.343428
32
0
13
55.3804
23
-24.343428
33
0
39
0
210
0
220
0
230
1
0
MTEXT
5
177
100
AcDbEntity
8
0
62
256
6
ByLayer
370
18
48
1
60
0
100
AcDbMText
10
5.1902
20
-17.343428
30
0
210
0
220
0
230
1
1
\A1;100.38
40
3.5
41
0
44
1
50
0
71
5
72
5
7
iso_b_vert
0
POINT
5
178
100
AcDbEntity
8
Defpoints
62
0
6
ByLayer
370
-1
48
1
60
0
100
AcDbPoint
10
-45
20
-6
30
0
39
0
210
0
220
0
230
1
50
360
0
POINT
5
179
100
AcDbEntity
8
Defpoints
62
0
6
ByLayer
370
-1
48
1
60
0
100
AcDbPoint
10
55.3804
20
-5.45
30
0
39
0
210
0
220
0
230
1
50
360
0
POINT
5
17A
100
AcDbEntity
8
Defpoints
62
0
6
ByLayer
370
-1
48
1
60
0
100
AcDbPoint
10
55.3804
20
-24.343428
30
0
39
0
210
0
220
0
230
1
50
360
0
ENDBLK
5
171
100
AcDbEntity
8
0
100
AcDbBlockEnd
0
BLOCK
5
182
100
AcDbEntity
8
0
100
AcDbBlockBegin
2
_U4
70
0
10
0
20
0
30
0
3
_U4
0
MTEXT
5
17C
100
AcDbEntity
8
SK2
62
256
6
ByLayer
370
13
48
1
60
0
100
AcDbMText
10
-0.817399
20
-23.310795
30
0
210
0
220
0
230
1
1
\W0.6930;100,38
40
3.5
41
0
44
1.084337
50
0
71
7
72
5
7
iso_b_vert
0
LINE
5
17D
100
AcDbEntity
8
SK2
62
256
6
ByLayer
370
13
48
1
60
0
100
AcDbLine
10
-45
20
-7.5875
30
0
11
-45
21
-26.343428
31
0
39
0
210
0
220
0
230
1
0
LINE
5
17E
100
AcDbEntity
8
SK2
62
256
6
ByLayer
370
13
48
1
60
0
100
AcDbLine
10
55.3804
20
-7.0375
30
0
11
55.3804
21
-26.343428
31
0
39
0
210
0
220
0
230
1
0
LINE
5
17F
100
AcDbEntity
8
SK2
62
256
6
ByLayer
370
13
48
1
60
0
100
AcDbLine
10
-45
20
-24.343428
30
0
11
55.3804
21
-24.343428
31
0
39
0
210
0
220
0
230
1
0
SOLID
5
180
100
AcDbEntity
8
SK2
62
256
6
ByLayer
370
18
48
1
60
0
100
AcDbTrace
10
-45
20
-24.343428
30
0
11
-41.500002
21
-23.882645
31
0
12
-41.499998
22
-24.804212
32
0
13
-41.499998
23
-24.804212
33
0
39
0
210
0
220
0
230
1
0
SOLID
5
181
100
AcDbEntity
8
SK2
62
256
6
ByLayer
370
18
48
1
60
0
100
AcDbTrace
10
55.3804
20
-24.343428
30
0
11
51.880402
21
-24.804212
31
0
12
51.880398
22
-23.882645
32
0
13
51.880398
23
-23.882645
33
0
39
0
210
0
220
0
230
1
0
ENDBLK
5
183
100
AcDbEntity
8
0
100
AcDbBlockEnd
0
ENDSEC
0
SECTION
2
ENTITIES
0
ARC
5
AD
100
AcDbEntity
8
1
62
256
6
ByLayer
370
18
48
1
60
0
100
AcDbCircle
39
0
10
1.235878
20
-6.216172
30
0
40
0.800000000000004
210
0
220
0
230
1
100
AcDbArc
50
89.96419
51
140.572036
0
ARC
5
AE
100
AcDbEntity
8
1
62
256
6
ByLayer
370
18
48
1
60
0
100
AcDbCircle
39
0
10
1.235878
20
6.216172
30
0
40
0.800000000000004
210
0
220
0
230
1
100
AcDbArc
50
219.427964
51
270.03581
0
ARC
5
AF
100
AcDbEntity
8
1
62
256
6
ByLayer
370
18
48
1
60
0
100
AcDbCircle
39
0
10
0
20
-5.2
30
0
40
0.799999999999999
210
0
220
0
230
1
100
AcDbArc
50
270
51
320.572036
0
ARC
5
B0
100
AcDbEntity
8
1
62
256
6
ByLayer
370
18
48
1
60
0
100
AcDbCircle
39
0
10
0
20
5.2
30
0
40
0.799999999999999
210
0
220
0
230
1
100
AcDbArc
50
39.427964
51
90
0
ELLIPSE
5
B1
100
AcDbEntity
8
1
62
256
6
ByLayer
370
13
48
1
60
0
100
AcDbEllipse
10
4.250149
20
0.784272
30
0
11
0.0446306121342285
21
0.0894880352925689
31
0
210
0
220
0
230
1
40
0.068178
41
3.02278473163762
42
-1.70445997412603
0
ELLIPSE
5
B2
100
AcDbEntity
8
1
62
256
6
ByLayer
370
13
48
1
60
0
100
AcDbEllipse
10
4.182273
20
0.820363
30
0
11
-0.0495378556119524
21
-0.0868677204798731
31
0
210
0
220
0
230
1
40
0.344424
41
-1.21915239697865
42
-0.634139845019428
0
ELLIPSE
5
B3
100
AcDbEntity
8
1
62
256
6
ByLayer
370
18
48
1
60
0
100
AcDbEllipse
10
4.25
20
-5.396056
30
0
11
0.25
21
0
31
0
210
0
220
0
230
1
40
0.999999
41
1.58127686914707
42
3.12851823769051
0
ELLIPSE
5
B4
100
AcDbEntity
8
1
62
256
6
ByLayer
370
18
48
1
60
0
100
AcDbEllipse
10
4.25
20
5.396056
30
0
11
0.25
21
0
31
0
210
0
220
0
230
1
40
0.999999
41
-3.12851823769041
42
-1.55577799447771
0
POINT
5
70
100
AcDbEntity
8
80
62
256
6
ByLayer
370
18
48
1
60
0
100
AcDbPoint
10
0
20
0
30
0
39
0
210
0
220
0
230
1
50
360
0
POINT
5
72
100
AcDbEntity
8
81
62
256
6
ByLayer
370
18
48
1
60
0
100
AcDbPoint
10
57
20
0
30
0
39
0
210
0
220
0
230
1
50
360
0
POINT
5
74
100
AcDbEntity
8
1
62
256
6
ByLayer
370
18
48
1
60
1
100
AcDbPoint
10
55.3804
20
-5.45
30
0
39
0
210
0
220
0
230
1
50
360
0
POINT
5
76
100
AcDbEntity
8
1
62
256
6
ByLayer
370
18
48
1
60
1
100
AcDbPoint
10
-45
20
-6
30
0
39
0
210
0
220
0
230
1
50
360
0
POINT
5
77
100
AcDbEntity
8
1
62
256
6
ByLayer
370
18
48
1
60
1
100
AcDbPoint
10
22.68
20
5.45
30
0
39
0
210
0
220
0
230
1
50
360
0
POINT
5
78
100
AcDbEntity
8
1
62
256
6
ByLayer
370
18
48
1
60
1
100
AcDbPoint
10
55.3804
20
-5.45
30
0
39
0
210
0
220
0
230
1
50
360
0
POINT
5
79
100
AcDbEntity
8
1
62
256
6
ByLayer
370
18
48
1
60
1
100
AcDbPoint
10
-45
20
-6
30
0
39
0
210
0
220
0
230
1
50
360
0
POINT
5
7A
100
AcDbEntity
8
1
62
256
6
ByLayer
370
18
48
1
60
1
100
AcDbPoint
10
55.3804
20
-5.45
30
0
39
0
210
0
220
0
230
1
50
360
0
SPLINE
5
B5
100
AcDbEntity
8
SK1
62
256
6
ByLayer
370
18
48
1
60
0
100
AcDbSpline
70
4
71
3
72
12
73
8
40
0
40
0
40
0
40
0
40
0.5
40
0.5
40
0.75
40
0.75
40
1
40
1
40
1
40
1
41
1
10
-44.25
20
-3.69321364566346
30
0
41
1
10
-44.2265754814923
20
-3.70727500497378
30
0
41
1
10
-44.2038494963526
20
-3.71547159463336
30
0
41
1
10
-44.175680621431
20
-3.71568187697227
30
0
41
1
10
-44.1670810890644
20
-3.71364621063677
30
0
41
1
10
-44.1542487488419
20
-3.70352787387046
30
0
41
1
10
-44.15
20
-3.69513528415226
30
0
41
1
10
-44.15
20
-3.68348533316348
30
0
0
SPLINE
5
B6
100
AcDbEntity
8
SK1
62
256
6
ByLayer
370
18
48
1
60
0
100
AcDbSpline
70
4
71
3
72
8
73
4
40
0
40
0
40
0
40
0
40
1
40
1
40
1
40
1
41
1
10
-45
20
-3.24133822614354
30
0
41
1
10
-44.7505567101729
20
-3.39228361512841
30
0
41
1
10
-44.5004714326119
20
-3.54285969880357
30
0
41
1
10
-44.25
20
-3.69321364566341
30
0
0
SPLINE
5
B7
100
AcDbEntity
8
SK1
62
256
6
ByLayer
370
18
48
1
60
0
100
AcDbSpline
70
4
71
3
72
8
73
4
40
0
40
0
40
0
40
0
40
1
40
1
40
1
40
1
41
1
10
-44.25
20
-2.07575368028057
30
0
41
1
10
-44.5004746867957
20
-1.92539777998687
30
0
41
1
10
-44.7505605371241
20
-1.77482133394608
30
0
41
1
10
-45
20
-1.62387826076068
30
0
0
SPLINE
5
B8
100
AcDbEntity
8
SK1
62
256
6
ByLayer
370
18
48
1
60
0
100
AcDbSpline
70
4
71
3
72
12
73
8
40
0
40
0
40
0
40
0
40
0.25
40
0.25
40
0.5
40
0.5
40
1
40
1
40
1
40
1
41
1
10
-44.15
20
-2.2277713643189
30
0
41
1
10
-44.15
20
-2.21260506303432
30
0
41
1
10
-44.1541964903379
20
-2.19591720547135
30
0
41
1
10
-44.1670510016405
20
-2.16466464046246
30
0
41
1
10
-44.1755314964661
20
-2.15014326791493
30
0
41
1
10
-44.2039103264456
20
-2.11069649819785
30
0
41
1
10
-44.2265803533263
20
-2.08981211510778
30
0
41
1
10
-44.25
20
-2.07575368028054
30
0
0
SPLINE
5
B9
100
AcDbEntity
8
1
62
256
6
ByLayer
370
18
48
1
60
0
100
AcDbSpline
70
4
71
3
72
54
73
50
40
0
40
0
40
0
40
0
40
0.0479903574022173
40
0.0479903574022173
40
0.0959807148044346
40
0.0959807148044346
40
0.143971072206652
40
0.143971072206652
40
0.191961429608869
40
0.191961429608869
40
0.239951787011086
40
0.239951787011086
40
0.263946965712195
40
0.263946965712195
40
0.287942144413304
40
0.287942144413304
40
0.383922859217741
40
0.383922859217741
40
0.43191321661996
40
0.43191321661996
40
0.479903574022179
40
0.479903574022179
40
0.527893931424397
40
0.527893931424397
40
0.575884288826616
40
0.575884288826616
40
0.599879467527726
40
0.599879467527726
40
0.623874646228836
40
0.623874646228836
40
0.671865003631056
40
0.671865003631056
40
0.719855361033275
40
0.719855361033275
40
0.743850539734385
40
0.743850539734385
40
0.767845718435495
40
0.767845718435495
40
0.815836075837715
40
0.815836075837715
40
0.863826433239934
40
0.863826433239934
40
0.911816790642154
40
0.911816790642154
40
0.935811969343264
40
0.935811969343264
40
0.959807148044374
40
0.959807148044374
40
1
40
1
40
1
40
1
41
1
10
55.080189228805
20
-5.44308615169345
30
0
41
1
10
54.5493002796931
20
-5.45661586289637
30
0
41
1
10
54.0186784689947
20
-5.44875140169481
30
0
41
1
10
52.9555283892526
20
-5.39045185887053
30
0
41
1
10
52.4251211868279
20
-5.34011133810779
30
0
41
1
10
51.365372957133
20
-5.19841959525931
30
0
41
1
10
50.8357620001098
20
-5.10708629319802
30
0
41
1
10
49.7744719904421
20
-4.88491434633934
30
0
41
1
10
49.2424209276911
20
-4.75393204595503
30
0
41
1
10
48.1819787593205
20
-4.45665467609592
30
0
41
1
10
47.652468466268
20
-4.29028052210359
30
0
41
1
10
46.8572488819626
20
-4.016504828282
30
0
41
1
10
46.5920292490658
20
-3.92119605969083
30
0
41
1
10
46.0609738767519
20
-3.72286030925488
30
0
41
1
10
45.7949627707097
20
-3.61975639898523
30
0
41
1
10
44.4675225917226
20
-3.08800049255009
30
0
41
1
10
43.4102823907633
20
-2.60975604420267
30
0
41
1
10
41.8156710984075
20
-1.83898106230353
30
0
41
1
10
41.2848636338609
20
-1.57411457117402
30
0
41
1
10
40.2248615499153
20
-1.0350136406702
30
0
41
1
10
39.6951261331488
20
-0.760709613667217
30
0
41
1
10
38.6336195029452
20
-0.207447649845449
30
0
41
1
10
38.1014025098929
20
0.0719247472570714
30
0
41
1
10
37.0404953201129
20
0.62607177501701
30
0
41
1
10
36.5107631878181
20
0.901181904904718
30
0
41
1
10
35.7154015932982
20
1.3074044221656
30
0
41
1
10
35.4501541531701
20
1.44173847181065
30
0
41
1
10
34.9190501788912
20
1.70758790814114
30
0
41
1
10
34.6529710956845
20
1.8392283165781
30
0
41
1
10
33.8561552536601
20
2.22769680269639
30
0
41
1
10
33.3261845330248
20
2.47826847054611
30
0
41
1
10
32.2660693325917
20
2.9581460441739
30
0
41
1
10
31.7358833252053
20
3.18738523707268
30
0
41
1
10
30.9384977997007
20
3.51203880119985
30
0
41
1
10
30.6725391805066
20
3.61702836090583
30
0
41
1
10
30.1416393104596
20
3.81931829815329
30
0
41
1
10
29.8764643362866
20
3.91673070071019
30
0
41
1
10
29.0811848867632
20
4.19703747529093
30
0
41
1
10
28.5513096752453
20
4.36798470914857
30
0
41
1
10
27.4896280052245
20
4.67497641962768
30
0
41
1
10
26.9573022084707
20
4.81125643994883
30
0
41
1
10
25.8960101675237
20
5.04413578739764
30
0
41
1
10
25.3661168816813
20
5.14101115433368
30
0
41
1
10
24.5704898925203
20
5.25584109184578
30
0
41
1
10
24.3051937364565
20
5.28906068401221
30
0
41
1
10
23.774091525405
20
5.34515736880499
30
0
41
1
10
23.5080068363012
20
5.36803698563773
30
0
41
1
10
22.7971715604663
20
5.41497290483676
30
0
41
1
10
22.3529646878373
20
5.42945433395846
30
0
41
1
10
21.9088787220824
20
5.4290757238058
30
0
0
SPLINE
5
BA
100
AcDbEntity
8
1
62
256
6
ByLayer
370
18
48
1
60
0
100
AcDbSpline
70
4
71
3
72
50
73
46
40
0
40
0
40
0
40
0
40
0.0625000000000045
40
0.0625000000000045
40
0.125000000000009
40
0.125000000000009
40
0.250000000000018
40
0.250000000000018
40
0.312500000000023
40
0.312500000000023
40
0.343750000000023
40
0.343750000000023
40
0.375000000000023
40
0.375000000000023
40
0.406250000000023
40
0.406250000000023
40
0.421875000000023
40
0.421875000000023
40
0.437500000000023
40
0.437500000000023
40
0.453125000000023
40
0.453125000000023
40
0.468750000000023
40
0.468750000000023
40
0.484375000000023
40
0.484375000000023
40
0.500000000000024
40
0.500000000000024
40
0.515625000000024
40
0.515625000000024
40
0.531250000000024
40
0.531250000000024
40
0.562500000000024
40
0.562500000000024
40
0.62500000000002
40
0.62500000000002
40
0.687500000000016
40
0.687500000000016
40
0.750000000000012
40
0.750000000000012
40
0.812500000000008
40
0.812500000000008
40
0.875000000000003
40
0.875000000000003
40
1
40
1
40
1
40
1
41
1
10
55.2688724048168
20
-3.031248296097
30
0
41
1
10
55.1585848026932
20
-2.99860342909452
30
0
41
1
10
55.0484580678968
20
-2.9610964787949
30
0
41
1
10
54.82852034409
20
-2.87653942026984
30
0
41
1
10
54.7184182306651
20
-2.8293507868938
30
0
41
1
10
54.3906917874974
20
-2.67337760630514
30
0
41
1
10
54.1770541686982
20
-2.55192766852218
30
0
41
1
10
53.86702006274
20
-2.33218986360086
30
0
41
1
10
53.7652816280786
20
-2.2523795375817
30
0
41
1
10
53.6196985441968
20
-2.12058401989506
30
0
41
1
10
53.5720683755057
20
-2.074335756133
30
0
41
1
10
53.4810443427825
20
-1.97746738283325
30
0
41
1
10
53.4375680032958
20
-1.92685854986186
30
0
41
1
10
53.3565421811796
20
-1.81930941863357
30
0
41
1
10
53.3187961380469
20
-1.76240606725307
30
0
41
1
10
53.2703130942739
20
-1.6688862287937
30
0
41
1
10
53.255912409198
20
-1.63699968316956
30
0
41
1
10
53.2319047969005
20
-1.5712842140197
30
0
41
1
10
53.2223673399383
20
-1.53740822797815
30
0
41
1
10
53.2107356354382
20
-1.47033064659169
30
0
41
1
10
53.2085624084505
20
-1.43615879045979
30
0
41
1
10
53.2134330294384
20
-1.37132702803015
30
0
41
1
10
53.2204857686958
20
-1.34038830684921
30
0
41
1
10
53.2427032168039
20
-1.28455391300935
30
0
41
1
10
53.2577470583576
20
-1.2596665584102
30
0
41
1
10
53.2930730805491
20
-1.21608161294392
30
0
41
1
10
53.31302174449
20
-1.19761640577573
30
0
41
1
10
53.3561546367766
20
-1.16539606018233
30
0
41
1
10
53.3794683886792
20
-1.15163821420734
30
0
41
1
10
53.4273088275688
20
-1.12832326211179
30
0
41
1
10
53.4519871270289
20
-1.1186463826393
30
0
41
1
10
53.5277136697833
20
-1.09403541626932
30
0
41
1
10
53.5807596945712
20
-1.08341941037435
30
0
41
1
10
53.741569563878
20
-1.06323979435834
30
0
41
1
10
53.8506371932476
20
-1.06471010594686
30
0
41
1
10
54.0706828137853
20
-1.08296954092731
30
0
41
1
10
54.1817174965984
20
-1.10021326335837
30
0
41
1
10
54.4052011683368
20
-1.14604174800658
30
0
41
1
10
54.5168134029737
20
-1.17453319292068
30
0
41
1
10
54.7394237533012
20
-1.24019616089592
30
0
41
1
10
54.8504985042343
20
-1.27741446756545
30
0
41
1
10
55.0722350507776
20
-1.3597129354209
30
0
41
1
10
55.1829336309534
20
-1.40483373590709
30
0
41
1
10
55.511929813422
20
-1.55086662356632
30
0
41
1
10
55.7281218781408
20
-1.66207523481438
30
0
41
1
10
55.9399854790946
20
-1.79238834312048
30
0
0
SPLINE
5
BB
100
AcDbEntity
8
1
62
256
6
ByLayer
370
18
48
1
60
0
100
AcDbSpline
70
4
71
3
72
16
73
12
40
0
40
0
40
0
40
0
40
0.279220592609159
40
0.279220592609159
40
0.393051480114783
40
0.393051480114783
40
0.506882367620408
40
0.506882367620408
40
0.73454414263166
40
0.73454414263166
40
1
40
1
40
1
40
1
41
1
10
22.1082089826992
20
-5.15676758386837
30
0
41
1
10
21.4599334635482
20
-5.15555928500294
30
0
41
1
10
20.809998435838
20
-5.1242613159138
30
0
41
1
10
19.8896107895658
20
-5.03724900764851
30
0
41
1
10
19.6218943476989
20
-5.00688733087585
30
0
41
1
10
19.0880221548533
20
-4.93651830736789
30
0
41
1
10
18.8218005458206
20
-4.89650981458499
30
0
41
1
10
18.0246739655726
20
-4.76255577817301
30
0
41
1
10
17.49529873099
20
-4.65469567650999
30
0
41
1
10
16.3506670803859
20
-4.38339740266159
30
0
41
1
10
15.7357948147197
20
-4.21365705064207
30
0
41
1
10
15.1202632869419
20
-4.02263958356855
30
0
0
SPLINE
5
BC
100
AcDbEntity
8
1
62
256
6
ByLayer
370
13
48
1
60
0
100
AcDbSpline
70
4
71
3
72
18
73
14
40
0
40
0
40
0
40
0
40
0.122035694773509
40
0.122035694773509
40
0.268363078977924
40
0.268363078977924
40
0.341526771080131
40
0.341526771080131
40
0.414690463182339
40
0.414690463182339
40
0.707345231591169
40
0.707345231591169
40
1
40
1
40
1
40
1
41
1
10
15.1202642413359
20
-4.02263987974499
30
0
41
1
10
14.680004092571
20
-3.88601427230574
30
0
41
1
10
14.2394066754503
20
-3.73850360266027
30
0
41
1
10
13.2681848152276
20
-3.3921281283128
30
0
41
1
10
12.7371774481117
20
-3.18870149627071
30
0
41
1
10
11.9367728736465
20
-2.86427363259941
30
0
41
1
10
11.6689767445154
20
-2.7528182638591
30
0
41
1
10
11.1355195494074
20
-2.52566335271095
30
0
41
1
10
10.8694331202468
20
-2.40979739477754
30
0
41
1
10
9.54146703703259
20
-1.82049328956404
30
0
41
1
10
8.4873356914033
20
-1.31651049184163
30
0
41
1
10
6.37573310346846
20
-0.283359752974718
30
0
41
1
10
5.31870202576846
20
0.246633780774118
30
0
41
1
10
4.25024760010226
20
0.769331036251174
30
0
0
SPLINE
5
BD
100
AcDbEntity
8
1
62
256
6
ByLayer
370
18
48
1
60
0
100
AcDbSpline
70
4
71
3
72
8
73
4
40
0
40
0
40
0
40
0
40
1
40
1
40
1
40
1
41
1
10
56.9999598576555
20
0.0481998465585889
30
0
41
1
10
57.0000133832728
20
0.0160651193315289
30
0
41
1
10
57.0000133773423
20
-0.0160686797409539
30
0
41
1
10
56.9999598576555
20
-0.0481998465534161
30
0
0
SPLINE
5
BE
100
AcDbEntity
8
1
62
256
6
ByLayer
370
18
48
1
60
0
100
AcDbSpline
70
4
71
3
72
14
73
10
40
0
40
0
40
0
40
0
40
0.25
40
0.25
40
0.5
40
0.5
40
0.75
40
0.75
40
1
40
1
40
1
40
1
41
1
10
55.0127100902849
20
1.19454376130108
30
0
41
1
10
55.0117732029055
20
1.20988886736689
30
0
41
1
10
55.0149622089061
20
1.22544778499608
30
0
41
1
10
55.0303261218071
20
1.25242106398463
30
0
41
1
10
55.042466239306
20
1.26365376219803
30
0
41
1
10
55.0697548891172
20
1.27951866601558
30
0
41
1
10
55.0851358662696
20
1.28460715544981
30
0
41
1
10
55.1160463752057
20
1.29051928259554
30
0
41
1
10
55.1319224339728
20
1.29144886874605
30
0
41
1
10
55.1477411965386
20
1.29087861465581
30
0
0
SPLINE
5
BF
100
AcDbEntity
8
1
62
256
6
ByLayer
370
18
48
1
60
0
100
AcDbSpline
70
4
71
3
72
30
73
26
40
0
40
0
40
0
40
0
40
0.026109167965476
40
0.026109167965476
40
0.0724849218718817
40
0.0724849218718817
40
0.165236429684694
40
0.165236429684694
40
0.257987937497506
40
0.257987937497506
40
0.350739445310318
40
0.350739445310318
40
0.44349095312313
40
0.44349095312313
40
0.536242460935942
40
0.536242460935942
40
0.628993968748753
40
0.628993968748753
40
0.721745476561565
40
0.721745476561565
40
0.814496984374377
40
0.814496984374377
40
0.907248492187188
40
0.907248492187188
40
1
40
1
40
1
40
1
41
1
10
37.7450755761013
20
5.16004366430116
30
0
41
1
10
37.85166752733
20
5.15854465050995
30
0
41
1
10
37.9582330598697
20
5.15631899773038
30
0
41
1
10
38.2541117380624
20
5.14836473791308
30
0
41
1
10
38.4434665362204
20
5.14120019449012
30
0
41
1
10
39.0114248067239
20
5.10962046840297
30
0
41
1
10
39.3899452442956
20
5.07659108219909
30
0
41
1
10
40.1475579860747
20
4.99098918271571
30
0
41
1
10
40.5274839895722
20
4.93813271342086
30
0
41
1
10
41.2864715572677
20
4.81529322114767
30
0
41
1
10
41.6652997743528
20
4.74557203061892
30
0
41
1
10
42.4221160910397
20
4.58370323312812
30
0
41
1
10
42.8007084509475
20
4.49338277295379
30
0
41
1
10
43.5582172907993
20
4.29510907019207
30
0
41
1
10
43.9369812138231
20
4.18673898547954
30
0
41
1
10
44.6964272651502
20
3.95584485924127
30
0
41
1
10
45.0757163741083
20
3.83252166592141
30
0
41
1
10
45.8328054946148
20
3.56900100754288
30
0
41
1
10
46.2107665846372
20
3.42941186247856
30
0
41
1
10
46.9678113951572
20
3.13913932893939
30
0
41
1
10
47.346606789885
20
2.98835476266473
30
0
41
1
10
48.1046990086816
20
2.6742315348657
30
0
41
1
10
48.4844693369539
20
2.51008902629263
30
0
41
1
10
49.2404228111374
20
2.17461735904453
30
0
41
1
10
49.6171208124432
20
2.00257484767249
30
0
41
1
10
49.9930881082369
20
1.82760435737273
30
0
0
SPLINE
5
C0
100
AcDbEntity
8
1
62
256
6
ByLayer
370
18
48
1
60
0
100
AcDbSpline
70
4
71
3
72
12
73
8
40
0
40
0
40
0
40
0
40
0.25
40
0.25
40
0.5
40
0.5
40
1
40
1
40
1
40
1
41
1
10
4.13443779027725
20
0.755200686220945
30
0
41
1
10
4.11411175949351
20
0.765691134584102
30
0
41
1
10
4.09568323840818
20
0.778653446832919
30
0
41
1
10
4.06252111515789
20
0.809375720639423
30
0
41
1
10
4.04802324021082
20
0.827056273129216
30
0
41
1
10
4.01282505052899
20
0.884336396065692
30
0
41
1
10
4.00000013687927
20
0.928983775162493
30
0
41
1
10
4.00000013687927
20
0.974080530766201
30
0
0
SPLINE
5
C1
100
AcDbEntity
8
1
62
256
6
ByLayer
370
18
48
1
60
0
100
AcDbSpline
70
4
71
3
72
10
73
6
40
0
40
0
40
0
40
0
40
0.5
40
0.5
40
1
40
1
40
1
40
1
41
1
10
56.9999598576632
20
0.0481998465847369
30
0
41
1
10
56.9962152835606
20
0.0329504361575061
30
0
41
1
10
56.9911225969049
20
0.0166269170275939
30
0
41
1
10
56.9788750468805
20
-0.0143474523902398
30
0
41
1
10
56.9716883730026
20
-0.0290127268795572
30
0
41
1
10
56.9644056735618
20
-0.0409262917277715
30
0
0
SPLINE
5
C2
100
AcDbEntity
8
1
62
256
6
ByLayer
370
18
48
1
60
0
100
AcDbSpline
70
4
71
3
72
32
73
28
40
0
40
0
40
0
40
0
40
0.0625000000000001
40
0.0625000000000001
40
0.125
40
0.125
40
0.1875
40
0.1875
40
0.218749999999999
40
0.218749999999999
40
0.249999999999999
40
0.249999999999999
40
0.374999999999998
40
0.374999999999998
40
0.437499999999997
40
0.437499999999997
40
0.499999999999997
40
0.499999999999997
40
0.624999999999996
40
0.624999999999996
40
0.687499999999995
40
0.687499999999995
40
0.749999999999994
40
0.749999999999994
40
0.874999999999997
40
0.874999999999997
40
1
40
1
40
1
40
1
41
1
10
49.9930881082369
20
1.82760435737248
30
0
41
1
10
49.9854115670731
20
1.66425510474389
30
0
41
1
10
49.9897348628812
20
1.49813219427813
30
0
41
1
10
50.0224433841963
20
1.16032466779657
30
0
41
1
10
50.0512614241872
20
0.98765285890039
30
0
41
1
10
50.1298420259451
20
0.64975358440293
30
0
41
1
10
50.1796201633749
20
0.482988279299832
30
0
41
1
10
50.2683693898255
20
0.235773224868751
30
0
41
1
10
50.3003069138236
20
0.153858574547854
30
0
41
1
10
50.3686915034767
20
-0.0090315107700292
30
0
41
1
10
50.4051198456801
20
-0.0899144110582597
30
0
41
1
10
50.5952307117742
20
-0.48653334014125
30
0
41
1
10
50.7742433285159
20
-0.784052046202646
30
0
41
1
10
51.0746333414572
20
-1.20691982638334
30
0
41
1
10
51.1806139651789
20
-1.34452112200321
30
0
41
1
10
51.3985695054701
20
-1.60867365692587
30
0
41
1
10
51.5107136244901
20
-1.73555245460693
30
0
41
1
10
51.8553255790397
20
-2.10276227576836
30
0
41
1
10
52.0959017925392
20
-2.32978363214082
30
0
41
1
10
52.4697886561927
20
-2.64893953965569
30
0
41
1
10
52.5966097202978
20
-2.75172655794972
30
0
41
1
10
52.8542969697722
20
-2.95066064538403
30
0
41
1
10
52.9848720251242
20
-3.0465615053578
30
0
41
1
10
53.3786013879836
20
-3.32257314770425
30
0
41
1
10
53.644847510454
20
-3.4919422492006
30
0
41
1
10
54.1837648006306
20
-3.80566528175672
30
0
41
1
10
54.4564534826533
20
-3.94995102285128
30
0
41
1
10
54.7321090085248
20
-4.08268570059766
30
0
0
SPLINE
5
C3
100
AcDbEntity
8
1
62
256
6
ByLayer
370
18
48
1
60
0
100
AcDbSpline
70
4
71
3
72
14
73
10
40
0
40
0
40
0
40
0
40
0.25
40
0.25
40
0.5
40
0.5
40
0.75
40
0.75
40
1
40
1
40
1
40
1
41
1
10
4.00000013687927
20
-5.30692159021854
30
0
41
1
10
4.00000013687929
20
-5.27504848230467
30
0
41
1
10
4.00449974460258
20
-5.24247503430379
30
0
41
1
10
4.02659512732566
20
-5.17677171381132
30
0
41
1
10
4.04441069154888
20
-5.14431899072727
30
0
41
1
10
4.0948464029629
20
-5.09083627554915
30
0
41
1
10
4.12688325061833
20
-5.07147887195916
30
0
41
1
10
4.19064661256351
20
-5.05226995450658
30
0
41
1
10
4.22171974157504
20
-5.05145635764126
30
0
41
1
10
4.25065451031736
20
-5.05579734808194
30
0
0
SPLINE
5
C4
100
AcDbEntity
8
1
62
256
6
ByLayer
370
18
48
1
60
0
100
AcDbSpline
70
4
71
3
72
10
73
6
40
0
40
0
40
0
40
0
40
0.904974982403298
40
0.904974982403298
40
1
40
1
40
1
40
1
41
1
10
55.1598937590433
20
-5.17405474744075
30
0
41
1
10
53.0282302948474
20
-5.21176733260839
30
0
41
1
10
50.9339881478672
20
-4.9189635534174
30
0
41
1
10
48.5774148241567
20
-4.27873823217138
30
0
41
1
10
48.3528035207671
20
-4.21468209042095
30
0
41
1
10
48.1286843371724
20
-4.14791666803617
30
0
0
SPLINE
5
C5
100
AcDbEntity
8
1
62
256
6
ByLayer
370
13
48
1
60
0
100
AcDbSpline
70
4
71
3
72
24
73
20
40
0
40
0
40
0
40
0
40
0.0091331408449684
40
0.0091331408449684
40
0.0662238520588925
40
0.0662238520588925
40
0.180405274486743
40
0.180405274486743
40
0.408768119342447
40
0.408768119342447
40
0.522949541770297
40
0.522949541770297
40
0.580040252984223
40
0.580040252984223
40
0.63713096419815
40
0.63713096419815
40
0.865493809053851
40
0.865493809053851
40
1
40
1
40
1
40
1
41
1
10
48.1286837996153
20
-4.14791650789715
30
0
41
1
10
48.086002035643
20
-4.1352015490572
30
0
41
1
10
48.0433381200309
20
-4.12238832935142
30
0
41
1
10
47.7341726612262
20
-4.02879347824287
30
0
41
1
10
47.4682964505798
20
-3.94430498894678
30
0
41
1
10
46.6722803419563
20
-3.67998771230924
30
0
41
1
10
46.1437348811277
20
-3.48934774739658
30
0
41
1
10
44.5608217853201
20
-2.88034080970561
30
0
41
1
10
43.508962227378
20
-2.42517392915795
30
0
41
1
10
41.9223233759121
20
-1.69320677295312
30
0
41
1
10
41.391935073191
20
-1.44104284026284
30
0
41
1
10
40.5923812545915
20
-1.05367502162238
30
0
41
1
10
40.324758617859
20
-0.922871050629766
30
0
41
1
10
39.7915221901236
20
-0.660750714875803
30
0
41
1
10
39.5255773632511
20
-0.529277507082497
30
0
41
1
10
38.1984471474432
20
0.128541142223156
30
0
41
1
10
37.1452629642944
20
0.656645017636606
30
0
41
1
10
35.4699146193038
20
1.46762518633648
30
0
41
1
10
34.8485095279074
20
1.76206333089905
30
0
41
1
10
34.2247703242727
20
2.0464642599656
30
0
0
SPLINE
5
C6
100
AcDbEntity
8
1
62
256
6
ByLayer
370
18
48
1
60
0
100
AcDbSpline
70
4
71
3
72
43
73
39
40
0
40
0
40
0
40
0
40
0.0678607546299462
40
0.0678607546299462
40
0.132680070746545
40
0.132680070746545
40
0.197499386863144
40
0.197499386863144
40
0.32713801909634
40
0.32713801909634
40
0.456776651329538
40
0.456776651329538
40
0.521595967446136
40
0.521595967446136
40
0.554005625504436
40
0.554005625504436
40
0.570210454533585
40
0.574261661790873
40
0.574261661790873
40
0.57831286904816
40
0.57831286904816
40
0.582364076305448
40
0.582364076305448
40
0.586415283562735
40
0.586415283562735
40
0.716053915795932
40
0.716053915795932
40
0.780873231912531
40
0.780873231912531
40
0.845692548029129
40
0.845692548029129
40
0.910511864145728
40
0.910511864145728
40
0.942921522204027
40
0.942921522204027
40
0.975331180262327
40
0.975331180262327
40
1
40
1
40
1
40
1
41
1
10
13.6350731702102
20
4.35547856245657
30
0
41
1
10
13.6350731702102
20
4.18655632653164
30
0
41
1
10
13.6350731702102
20
4.02245344717454
30
0
41
1
10
13.6350731702102
20
3.7107298792954
30
0
41
1
10
13.6350731702102
20
3.56272407999472
30
0
41
1
10
13.6350731702102
20
3.27528210977147
30
0
41
1
10
13.6350731702101
20
3.13571064541165
30
0
41
1
10
13.6350731702101
20
2.73748340350161
30
0
41
1
10
13.6350731702102
20
2.49634214964686
30
0
41
1
10
13.6350731702102
20
2.05932484549987
30
0
41
1
10
13.6350731702102
20
1.86347109724133
30
0
41
1
10
13.6350731702102
20
1.60368381274691
30
0
41
1
10
13.6350731702102
20
1.52325465108743
30
0
41
1
10
13.6350731702102
20
1.41213803428605
30
0
41
1
10
13.6350731702102
20
1.37666175606861
30
0
41
1
10
13.6350731702102
20
1.32579381962839
30
0
41
1
10
13.6350731702101
20
1.3050975628633
30
0
41
1
10
13.6350731702102
20
1.28502264683928
30
0
41
1
10
13.6350731702102
20
1.27704236237364
30
0
41
1
10
13.6350731702102
20
1.27390880757116
30
0
41
1
10
13.6350731702102
20
1.27131127695546
30
0
41
1
10
13.6350731702102
20
1.27152248621672
30
0
41
1
10
13.6350731702102
20
1.27507739647916
30
0
41
1
10
13.6350731702102
20
1.27880254688756
30
0
41
1
10
13.6350731702102
20
1.41740091321992
30
0
41
1
10
13.6350731702102
20
1.57946738727639
30
0
41
1
10
13.6350731702102
20
1.86352434835024
30
0
41
1
10
13.6350731702102
20
1.96497483226236
30
0
41
1
10
13.6350731702102
20
2.17975252434127
30
0
41
1
10
13.6350731702102
20
2.2933117573651
30
0
41
1
10
13.6350731702102
20
2.53302070298557
30
0
41
1
10
13.6350731702102
20
2.65916881798785
30
0
41
1
10
13.6350731702102
20
2.85824653740298
30
0
41
1
10
13.6350731702102
20
2.92625087122212
30
0
41
1
10
13.6350731702102
20
3.0656525370691
30
0
41
1
10
13.6350731702102
20
3.13718738966765
30
0
41
1
10
13.6350731702101
20
3.26512175934437
30
0
41
1
10
13.6350731702102
20
3.3211162705054
30
0
41
1
10
13.6350731702102
20
3.3778187192336
30
0
0
SPLINE
5
C7
100
AcDbEntity
8
1
62
256
6
ByLayer
370
18
48
1
60
0
100
AcDbSpline
70
4
71
3
72
18
73
14
40
0
40
0
40
0
40
0
40
0.27309812420771
40
0.27309812420771
40
0.409647186311565
40
0.409647186311565
40
0.546196248415419
40
0.546196248415419
40
0.819294372623129
40
0.819294372623129
40
0.955843434726982
40
0.955843434726982
40
1
40
1
40
1
40
1
41
1
10
54.7321090085247
20
-4.08268570059766
30
0
41
1
10
54.7316446252117
20
-4.26976668148072
30
0
41
1
10
54.7399020788305
20
-4.43384319029505
30
0
41
1
10
54.7657648310972
20
-4.64607947647323
30
0
41
1
10
54.7766490565153
20
-4.71114621701653
30
0
41
1
10
54.8032283791104
20
-4.82962943980965
30
0
41
1
10
54.8188236048976
20
-4.88248431717511
30
0
41
1
10
54.8721176685826
20
-5.02093784224209
30
0
41
1
10
54.9164345062745
20
-5.08732672059662
30
0
41
1
10
54.9971114902195
20
-5.14889542842064
30
0
41
1
10
55.0264844473729
20
-5.16306470785395
30
0
41
1
10
55.0684088435867
20
-5.17314122951046
30
0
41
1
10
55.0788838322776
20
-5.17492067085405
30
0
41
1
10
55.0895919243779
20
-5.17602142092761
30
0
0
SPLINE
5
C8
100
AcDbEntity
8
1
62
256
6
ByLayer
370
18
48
1
60
0
100
AcDbSpline
70
4
71
3
72
8
73
4
40
0
40
0
40
0
40
0
40
1
40
1
40
1
40
1
41
1
10
4.00000013687927
20
-5.33161925510484
30
0
41
1
10
4.00000013687927
20
-5.32337429772335
30
0
41
1
10
4.00000013687924
20
-5.31514174802015
30
0
41
1
10
4.00000013687924
20
-5.30692159021851
30
0
0
SPLINE
5
C9
100
AcDbEntity
8
1
62
256
6
ByLayer
370
13
48
1
60
0
100
AcDbSpline
70
4
71
3
72
8
73
4
40
0
40
0
40
0
40
0
40
1
40
1
40
1
40
1
41
1
10
4.25057350759485
20
-5.14599027865205
30
0
41
1
10
4.2506009214988
20
-5.14430312730687
30
0
41
1
10
4.25062859740206
20
-5.11403782352141
30
0
41
1
10
4.25065451031736
20
-5.05579734808981
30
0
0
SPLINE
5
CA
100
AcDbEntity
8
1
62
256
6
ByLayer
370
18
48
1
60
0
100
AcDbSpline
70
4
71
3
72
14
73
10
40
0
40
0
40
0
40
0
40
0.25
40
0.25
40
0.5
40
0.5
40
0.75
40
0.75
40
1
40
1
40
1
40
1
41
1
10
55.1598937590031
20
-5.17405474744146
30
0
41
1
10
55.1632742937883
20
-5.17355718042077
30
0
41
1
10
55.1660075863997
20
-5.17476004553191
30
0
41
1
10
55.1697728000493
20
-5.18161653760896
30
0
41
1
10
55.1707500914945
20
-5.18735600856277
30
0
41
1
10
55.1697927743896
20
-5.2043563736373
30
0
41
1
10
55.1677850255662
20
-5.21563086329581
30
0
41
1
10
55.1608847407061
20
-5.24108011929286
30
0
41
1
10
55.1560585347866
20
-5.25504791811599
30
0
41
1
10
55.1507334625599
20
-5.26828580179114
30
0
0
SPLINE
5
CB
100
AcDbEntity
8
1
62
256
6
ByLayer
370
18
48
1
60
0
100
AcDbSpline
70
4
71
3
72
8
73
4
40
0
40
0
40
0
40
0
40
1
40
1
40
1
40
1
41
1
10
56.9893472210283
20
0.125097889305948
30
0
41
1
10
56.9900059708834
20
0.103182982723609
30
0
41
1
10
56.9940422936919
20
0.0763968900041903
30
0
41
1
10
56.999959857651
20
0.048199846575244
30
0
0
SPLINE
5
CC
100
AcDbEntity
8
1
62
256
6
ByLayer
370
13
48
1
60
0
100
AcDbSpline
70
4
71
3
72
32
73
28
40
0
40
0
40
0
40
0
40
0.141037127190915
40
0.141037127190915
40
0.211555690786373
40
0.211555690786373
40
0.28207425438183
40
0.352592817977288
40
0.352592817977288
40
0.423111381572745
40
0.423111381572745
40
0.56414850876366
40
0.56414850876366
40
0.634667072359118
40
0.634667072359118
40
0.705185635954575
40
0.705185635954575
40
0.775704199550033
40
0.775704199550033
40
0.84622276314549
40
0.916741326740948
40
0.916741326740948
40
0.952000608538677
40
0.952000608538677
40
0.987259890336405
40
0.987259890336405
40
1
40
1
40
1
40
1
41
1
10
4.25024760010226
20
0.769331036251145
30
0
41
1
10
4.25027349720793
20
1.11304496539424
30
0
41
1
10
4.2502912134093
20
1.4476861951934
30
0
41
1
10
4.25031053949579
20
1.93612785637606
30
0
41
1
10
4.2503157335064
20
2.09595668416523
30
0
41
1
10
4.25032439769626
20
2.40535367017483
30
0
41
1
10
4.25033139081455
20
2.70584130707707
30
0
41
1
10
4.25033674672449
20
2.9887192856734
30
0
41
1
10
4.25034206800044
20
3.26263009265449
30
0
41
1
10
4.25034472871263
20
3.39573816861434
30
0
41
1
10
4.2503536027653
20
3.77350243409813
30
0
41
1
10
4.25036078679869
20
3.99862161112714
30
0
41
1
10
4.25037668933237
20
4.29682465606604
30
0
41
1
10
4.25038284254623
20
4.38973010498415
30
0
41
1
10
4.25039718907695
20
4.56121384587144
30
0
41
1
10
4.25040531217851
20
4.63899479244537
30
0
41
1
10
4.25042361001124
20
4.77875931095724
30
0
41
1
10
4.25043383112236
20
4.84091018490727
30
0
41
1
10
4.25045603105343
20
4.9476800174196
30
0
41
1
10
4.2504800072829
20
5.03732158832497
30
0
41
1
10
4.25050711140833
20
5.0933638838348
30
0
41
1
10
4.25052836652128
20
5.12265898812092
30
0
41
1
10
4.25053560513564
20
5.13029731615492
30
0
41
1
10
4.25055033622704
20
5.14124821895342
30
0
41
1
10
4.25055783814463
20
5.14454967886877
30
0
41
1
10
4.25056806730854
20
5.14604366941583
30
0
41
1
10
4.25057078692274
20
5.14615782387196
30
0
41
1
10
4.25057350912002
20
5.14599018475644
30
0
0
SPLINE
5
CD
100
AcDbEntity
8
1
62
256
6
ByLayer
370
18
48
1
60
0
100
AcDbSpline
70
4
71
3
72
8
73
4
40
0
40
0
40
0
40
0
40
1
40
1
40
1
40
1
41
1
10
55.3608470534957
20
-5.30007926955105
30
0
41
1
10
55.2575245983072
20
-5.37738175082922
30
0
41
1
10
55.1640522261158
20
-5.42606973921792
30
0
41
1
10
55.0801892288049
20
-5.44308615169345
30
0
0
SPLINE
5
CE
100
AcDbEntity
8
1
62
256
6
ByLayer
370
18
48
1
60
0
100
AcDbSpline
70
4
71
3
72
8
73
4
40
0
40
0
40
0
40
0
40
1
40
1
40
1
40
1
41
1
10
55.3608470534954
20
5.30007926955125
30
0
41
1
10
55.257524598307
20
5.3773817508293
30
0
41
1
10
55.1640522261157
20
5.42606973921792
30
0
41
1
10
55.080189228805
20
5.44308615169345
30
0
0
SPLINE
5
CF
100
AcDbEntity
8
1
62
256
6
ByLayer
370
18
48
1
60
0
100
AcDbSpline
70
4
71
3
72
74
73
70
40
0
40
0
40
0
40
0
40
0.0180919692632946
40
0.0180919692632946
40
0.0544589333646519
40
0.0544589333646519
40
0.0908258974660093
40
0.0908258974660093
40
0.127192861567367
40
0.127192861567367
40
0.163559825668724
40
0.163559825668724
40
0.199926789770081
40
0.199926789770081
40
0.21811027182076
40
0.21811027182076
40
0.236293753871439
40
0.236293753871439
40
0.272660717972797
40
0.272660717972797
40
0.309027682074155
40
0.309027682074155
40
0.345394646175514
40
0.345394646175514
40
0.381761610276872
40
0.381761610276872
40
0.418128574378231
40
0.418128574378231
40
0.454495538479589
40
0.454495538479589
40
0.472679020530269
40
0.472679020530269
40
0.490862502580948
40
0.490862502580948
40
0.527229466682307
40
0.527229466682307
40
0.545412948732987
40
0.545412948732987
40
0.563596430783666
40
0.563596430783666
40
0.599963394885026
40
0.599963394885026
40
0.636330358986385
40
0.636330358986385
40
0.654513841037065
40
0.654513841037065
40
0.672697323087745
40
0.672697323087745
40
0.709064287189105
40
0.709064287189105
40
0.745431251290466
40
0.745431251290466
40
0.781798215391826
40
0.781798215391826
40
0.799981697442506
40
0.799981697442506
40
0.818165179493187
40
0.818165179493187
40
0.854532143594548
40
0.854532143594548
40
0.890899107695911
40
0.890899107695911
40
0.909082589746592
40
0.909082589746592
40
0.927266071797274
40
0.927266071797274
40
0.963633035898637
40
0.963633035898637
40
1
40
1
40
1
40
1
41
1
10
44.8791438709742
20
-3.8943525181376
30
0
41
1
10
44.6908041063835
20
-3.95562146829059
30
0
41
1
10
44.5023960520681
20
-4.01485362012858
30
0
41
1
10
43.9350954679524
20
-4.18727670658109
30
0
41
1
10
43.5556770224083
20
-4.29582290724397
30
0
41
1
10
42.797085490288
20
-4.4942817274347
30
0
41
1
10
42.4182971352425
20
-4.58458440377078
30
0
41
1
10
41.6618091678886
20
-4.74625361324985
30
0
41
1
10
41.2835527986651
20
-4.81579701938969
30
0
41
1
10
40.5263058083312
20
-4.93829182022805
30
0
41
1
10
40.147637931957
20
-4.99098491172936
30
0
41
1
10
39.3893268225848
20
-5.07665619164331
30
0
41
1
10
39.0099336004504
20
-5.10973679155816
30
0
41
1
10
38.4418814131343
20
-5.14127152339174
30
0
41
1
10
38.2526167209761
20
-5.14841413268522
30
0
41
1
10
37.8743412154652
20
-5.15856503726189
30
0
41
1
10
37.6853083059819
20
-5.16162243003564
30
0
41
1
10
37.1179584314837
20
-5.16330098556719
30
0
41
1
10
36.7394493367549
20
-5.15488808100551
30
0
41
1
10
35.9818806633695
20
-5.11782671609521
30
0
41
1
10
35.6024749397683
20
-5.0890152607908
30
0
41
1
10
34.8445691341387
20
-5.008252340913
30
0
41
1
10
34.4659211196617
20
-4.95850615535778
30
0
41
1
10
33.7095475398678
20
-4.8390046256238
30
0
41
1
10
33.3314731352106
20
-4.76854199692366
30
0
41
1
10
32.5743838938565
20
-4.61203052531738
30
0
41
1
10
32.1954752759627
20
-4.5249728686675
30
0
41
1
10
31.4370306765466
20
-4.33200588129614
30
0
41
1
10
31.0584715214478
20
-4.22728218596998
30
0
41
1
10
30.4907273770448
20
-4.05584097327386
30
0
41
1
10
30.3015209642503
20
-3.996478398976
30
0
41
1
10
29.9233390317277
20
-3.87424997361464
30
0
41
1
10
29.7343775603513
20
-3.81136216481832
30
0
41
1
10
29.1672615641118
20
-3.61762311252983
30
0
41
1
10
28.7888570118957
20
-3.48178429506601
30
0
41
1
10
28.2204670211279
20
-3.26731277808923
30
0
41
1
10
28.0308008765059
20
-3.19395278829251
30
0
41
1
10
27.6517218079599
20
-3.04363331339405
30
0
41
1
10
27.4623576302198
20
-2.96666553357477
30
0
41
1
10
26.8943560086959
20
-2.73209884572284
30
0
41
1
10
26.5158676010587
20
-2.57123811596489
30
0
41
1
10
25.7595821762482
20
-2.23946390556537
30
0
41
1
10
25.3817934886535
20
-2.06840838625615
30
0
41
1
10
24.8140438342409
20
-1.80665376888149
30
0
41
1
10
24.6246669508659
20
-1.71850855477595
30
0
41
1
10
24.2453625632544
20
-1.53999112440502
30
0
41
1
10
24.0554323790305
20
-1.44967275522745
30
0
41
1
10
23.4866867375032
20
-1.17691093525309
30
0
41
1
10
23.1081350241101
20
-0.992796782683854
30
0
41
1
10
22.3509644295806
20
-0.622411746162328
30
0
41
1
10
21.9726603986984
20
-0.435592252580989
30
0
41
1
10
21.2159364044557
20
-0.0598405210834017
30
0
41
1
10
20.8370775021788
20
0.128180207994575
30
0
41
1
10
20.2676598528846
20
0.409615157932137
30
0
41
1
10
20.0778092815904
20
0.503354407493134
30
0
41
1
10
19.6987040253421
20
0.690224916849076
30
0
41
1
10
19.5093003434786
20
0.783188882155059
30
0
41
1
10
18.9410260933693
20
1.06038655985788
30
0
41
1
10
18.5622344563607
20
1.24345663324951
30
0
41
1
10
17.8046349664069
20
1.60475604026883
30
0
41
1
10
17.4260581482698
20
1.78348885827086
30
0
41
1
10
16.8566080025975
20
2.0446436062673
30
0
41
1
10
16.6668557175892
20
2.13045474403214
30
0
41
1
10
16.2875633385257
20
2.29919183679695
30
0
41
1
10
16.0980085809981
20
2.38223119819688
30
0
41
1
10
15.5298213809965
20
2.62899325829216
30
0
41
1
10
15.1514705231284
20
2.78957964427161
30
0
41
1
10
14.3939963997526
20
3.09848761114441
30
0
41
1
10
14.0148131517847
20
3.24666864553052
30
0
41
1
10
13.6350731702101
20
3.38784854668145
30
0
0
SPLINE
5
D0
100
AcDbEntity
8
1
62
256
6
ByLayer
370
18
48
1
60
0
100
AcDbSpline
70
4
71
3
72
18
73
14
40
0
40
0
40
0
40
0
40
0.176292427606025
40
0.176292427606025
40
0.486802690562756
40
0.486802690562756
40
0.56443025630194
40
0.56443025630194
40
0.642057822041124
40
0.642057822041124
40
0.797312953519492
40
0.797312953519492
40
1
40
1
40
1
40
1
41
1
10
5.58652238466962
20
0.0007900832731593
30
0
41
1
10
6.18917717825275
20
-0.303431931072765
30
0
41
1
10
6.78947687313291
20
-0.606602714501065
30
0
41
1
10
8.44591315067365
20
-1.43029403478218
30
0
41
1
10
9.50069921655358
20
-1.94139037195197
30
0
41
1
10
10.8297592610573
20
-2.53719486516604
30
0
41
1
10
11.0960786860975
20
-2.65424100795445
30
0
41
1
10
11.6300378496767
20
-2.88351407590676
30
0
41
1
10
11.8981067481904
20
-2.99590869251367
30
0
41
1
10
12.6991872920825
20
-3.32269003030629
30
0
41
1
10
13.2305400345617
20
-3.52711376784541
30
0
41
1
10
14.4522042858238
20
-3.96350260152289
30
0
41
1
10
15.1413181270743
20
-4.18517018152303
30
0
41
1
10
15.8306230683566
20
-4.37801409375464
30
0
0
SPLINE
5
D1
100
AcDbEntity
8
1
62
256
6
ByLayer
370
13
48
1
60
0
100
AcDbSpline
70
4
71
3
72
18
73
14
40
0
40
0
40
0
40
0
40
0.138982206399326
40
0.138982206399326
40
0.339103306766188
40
0.339103306766188
40
0.439163856949619
40
0.439163856949619
40
0.53922440713305
40
0.53922440713305
40
0.93946660786677
40
0.93946660786677
40
1
40
1
40
1
40
1
41
1
10
15.830623068287
20
-4.37801409373515
30
0
41
1
10
16.1973118981716
20
-4.48060106837042
30
0
41
1
10
16.5640548076396
20
-4.57503120530492
30
0
41
1
10
17.4600521522597
20
-4.78428710391825
30
0
41
1
10
17.9897958367291
20
-4.88989715723079
30
0
41
1
10
18.7875738380003
20
-5.01968791868885
30
0
41
1
10
19.0540287169208
20
-5.05817824039724
30
0
41
1
10
19.5884058489091
20
-5.12524452787699
30
0
41
1
10
19.8563619601052
20
-5.15380482655951
30
0
41
1
10
21.1901693417754
20
-5.27022398609515
30
0
41
1
10
22.2465625037202
20
-5.28044656717117
30
0
41
1
10
23.461981986876
20
-5.19921993981782
30
0
41
1
10
23.6216453641869
20
-5.18670659195089
30
0
41
1
10
23.7813315766837
20
-5.17236140634731
30
0
0
SPLINE
5
D2
100
AcDbEntity
8
1
62
256
6
ByLayer
370
18
48
1
60
0
100
AcDbSpline
70
4
71
3
72
8
73
4
40
0
40
0
40
0
40
0
40
1
40
1
40
1
40
1
41
1
10
56.9355393130014
20
1.23278654821715
30
0
41
1
10
56.9603235799111
20
0.863144899836612
30
0
41
1
10
56.9782607764133
20
0.493915273022026
30
0
41
1
10
56.9893472210282
20
0.125097889305977
30
0
0
SPLINE
5
D3
100
AcDbEntity
8
1
62
256
6
ByLayer
370
13
48
1
60
0
100
AcDbSpline
70
4
71
3
72
8
73
4
40
0
40
0
40
0
40
0
40
1
40
1
40
1
40
1
41
1
10
4.25024760010226
20
0.769331036251174
30
0
41
1
10
4.21091944370701
20
0.780872782092558
30
0
41
1
10
4.17254093849547
20
0.79340084960711
30
0
41
1
10
4.13712160244734
20
0.806459909453565
30
0
0
SPLINE
5
D4
100
AcDbEntity
8
1
62
256
6
ByLayer
370
18
48
1
60
0
100
AcDbSpline
70
4
71
3
72
35
73
31
40
0
40
0
40
0
40
0
40
0.250000000000014
40
0.250000000000014
40
0.500000000000028
40
0.500000000000028
40
0.56250000000003
40
0.56250000000003
40
0.625000000000031
40
0.625000000000031
40
0.750000000000029
40
0.750000000000029
40
0.812500000000026
40
0.812500000000026
40
0.843750000000023
40
0.843750000000023
40
0.851562500000022
40
0.851562500000022
40
0.859375000000021
40
0.859375000000021
40
0.863281250000021
40
0.863281250000021
40
0.86718750000002
40
0.86718750000002
40
0.87109375000002
40
0.87109375000002
40
0.875000000000019
40
0.93750000000001
40
0.93750000000001
40
1
40
1
40
1
40
1
41
1
10
49.993088108237
20
1.82760435737268
30
0
41
1
10
50.4323567541519
20
1.4497847137003
30
0
41
1
10
50.8945496192073
20
1.12226540517858
30
0
41
1
10
51.865945292686
20
0.574512541318342
30
0
41
1
10
52.3580827822774
20
0.36373603491765
30
0
41
1
10
52.9826835367388
20
0.192655850048453
30
0
41
1
10
53.1080803305286
20
0.163110271564392
30
0
41
1
10
53.3599070118905
20
0.114142042374112
30
0
41
1
10
53.4861152013761
20
0.0948131082242583
30
0
41
1
10
53.8613882990844
20
0.054288853203218
30
0
41
1
10
54.1090937422441
20
0.0502239687361055
30
0
41
1
10
54.4737817182819
20
0.0858041628699766
30
0
41
1
10
54.5937476339136
20
0.104602122380868
30
0
41
1
10
54.770292534451
20
0.143976379598968
30
0
41
1
10
54.8285843853926
20
0.158966558296896
30
0
41
1
10
54.9006108966948
20
0.180106157379157
30
0
41
1
10
54.914974609603
20
0.184454242572286
30
0
41
1
10
54.943613103953
20
0.193391682791543
30
0
41
1
10
54.9579552037562
20
0.197986792527217
30
0
41
1
10
54.9757215950856
20
0.211987502332931
30
0
41
1
10
54.9811482569984
20
0.217745602114064
30
0
41
1
10
54.9897875501807
20
0.231217893579867
30
0
41
1
10
54.99290492342
20
0.239298378067787
30
0
41
1
10
54.9965481172858
20
0.256528153322023
30
0
41
1
10
54.9972357522159
20
0.265741306989355
30
0
41
1
10
54.999186012606
20
0.283853597110607
30
0
41
1
10
55.0152778200905
20
0.437997545746498
30
0
41
1
10
55.0232203080147
20
0.594894307027744
30
0
41
1
10
55.0263130701824
20
0.893060733471685
30
0
41
1
10
55.0219022311784
20
1.04398737631004
30
0
41
1
10
55.0127100902849
20
1.19454376130108
30
0
0
SPLINE
5
D5
100
AcDbEntity
8
1
62
256
6
ByLayer
370
18
48
1
60
0
100
AcDbSpline
70
4
71
3
72
18
73
14
40
0
40
0
40
0
40
0
40
0.121560153263477
40
0.121560153263477
40
0.218808017880563
40
0.218808017880563
40
0.316055882497649
40
0.316055882497649
40
0.510551611731826
40
0.510551611731826
40
0.899543070200175
40
0.899543070200175
40
1
40
1
40
1
40
1
41
1
10
38.2470450172513
20
-0.0045309066246375
30
0
41
1
10
38.5776886662971
20
-0.172053155025509
30
0
41
1
10
38.9088959400116
20
-0.339854443923969
30
0
41
1
10
39.5066375279235
20
-0.641292924430672
30
0
41
1
10
39.7728394607067
20
-0.775084007012083
30
0
41
1
10
40.3066421490191
20
-1.04165314404057
30
0
41
1
10
40.5745174956974
20
-1.1745617555429
30
0
41
1
10
41.3746057380118
20
-1.56776097623563
30
0
41
1
10
41.9052751617477
20
-1.82326290943885
30
0
41
1
10
43.4927365500034
20
-2.56357337705953
30
0
41
1
10
44.5450127287225
20
-3.02217342333114
30
0
41
1
10
45.8736438729529
20
-3.53453003097886
30
0
41
1
10
46.1465952243726
20
-3.63624777362921
30
0
41
1
10
46.4199751897673
20
-3.73423766906632
30
0
0
SPLINE
5
D6
100
AcDbEntity
8
1
62
256
6
ByLayer
370
13
48
1
60
0
100
AcDbSpline
70
4
71
3
72
14
73
10
40
0
40
0
40
0
40
0
40
0.0881736109962185
40
0.0881736109962185
40
0.179356249896598
40
0.179356249896598
40
0.270538888796978
40
0.270538888796978
40
1
40
1
40
1
40
1
41
1
10
46.4199761304723
20
-3.73423800625119
30
0
41
1
10
46.6758897083479
20
-3.82596726820373
30
0
41
1
10
46.9321788812331
20
-3.91442981378913
30
0
41
1
10
47.4545551079803
20
-4.08725022223692
30
0
41
1
10
47.7206808743852
20
-4.1713569147893
30
0
41
1
10
48.2542969062218
20
-4.33168207533956
30
0
41
1
10
48.5220980953448
20
-4.40797999518429
30
0
41
1
10
50.9229322111249
20
-5.05209413894482
30
0
41
1
10
53.0175356870151
20
-5.32904027472105
30
0
41
1
10
55.1507334624807
20
-5.26828580179341
30
0
0
SPLINE
5
D7
100
AcDbEntity
8
1
62
256
6
ByLayer
370
18
48
1
60
0
100
AcDbSpline
70
4
71
3
72
8
73
4
40
0
40
0
40
0
40
0
40
1
40
1
40
1
40
1
41
1
10
56.9355393130014
20
-1.23278654821721
30
0
41
1
10
56.9603192731585
20
-0.863209132323561
30
0
41
1
10
56.978258848911
20
-0.493979396048331
30
0
41
1
10
56.9893472210282
20
-0.125097889305948
30
0
0
SPLINE
5
D8
100
AcDbEntity
8
1
62
256
6
ByLayer
370
18
48
1
60
0
100
AcDbSpline
70
4
71
3
72
28
73
24
40
0
40
0
40
0
40
0
40
0.0625
40
0.0625
40
0.125
40
0.125
40
0.1875
40
0.1875
40
0.25
40
0.25
40
0.375
40
0.375
40
0.5
40
0.5
40
0.625
40
0.625
40
0.75
40
0.75
40
0.874999999999999
40
0.874999999999999
40
0.9375
40
0.9375
40
1
40
1
40
1
40
1
41
1
10
55.9399854790945
20
-1.79238834312045
30
0
41
1
10
55.9360557289937
20
-1.82702752025082
30
0
41
1
10
55.9303380717047
20
-1.86456884881662
30
0
41
1
10
55.9158416156033
20
-1.94179022106113
30
0
41
1
10
55.9070343137586
20
-1.98185750875535
30
0
41
1
10
55.8862693454022
20
-2.06497115993369
30
0
41
1
10
55.8743064299156
20
-2.10791028144197
30
0
41
1
10
55.8483213002231
20
-2.19306932876708
30
0
41
1
10
55.8341890885847
20
-2.23574992606083
30
0
41
1
10
55.7884833445069
20
-2.36410891933687
30
0
41
1
10
55.7549957869246
20
-2.4462558349924
30
0
41
1
10
55.6846152887474
20
-2.60067660911881
30
0
41
1
10
55.6487330111155
20
-2.67079831343133
30
0
41
1
10
55.5766501866136
20
-2.79695681385906
30
0
41
1
10
55.5409910724573
20
-2.85184549093736
30
0
41
1
10
55.4737124802688
20
-2.94184459510291
30
0
41
1
10
55.4418695288804
20
-2.97746960290706
30
0
41
1
10
55.3817754895418
20
-3.02966269348872
30
0
41
1
10
55.3547505088567
20
-3.04516992482024
30
0
41
1
10
55.3186019931986
20
-3.05251165175147
30
0
41
1
10
55.3072156855421
20
-3.05222985874849
30
0
41
1
10
55.2865116953107
20
-3.04595711188122
30
0
41
1
10
55.2771803908329
20
-3.04002462622756
30
0
41
1
10
55.2688724048168
20
-3.03124829609703
30
0
0
SPLINE
5
D9
100
AcDbEntity
8
1
62
256
6
ByLayer
370
18
48
1
60
0
100
AcDbSpline
70
4
71
3
72
8
73
4
40
0
40
0
40
0
40
0
40
1
40
1
40
1
40
1
41
1
10
56.9644056735618
20
-0.0409262917278568
30
0
41
1
10
56.6130211736344
20
-0.61574639251117
30
0
41
1
10
56.2714931573232
20
-1.1995174758452
30
0
41
1
10
55.9399854790946
20
-1.79238834312045
30
0
0
SPLINE
5
DA
100
AcDbEntity
8
1
62
256
6
ByLayer
370
18
48
1
60
0
100
AcDbSpline
70
4
71
3
72
98
73
94
40
0
40
0
40
0
40
0
40
0.0331944695061397
40
0.0331944695061397
40
0.0663889390122795
40
0.0663889390122795
40
0.0995834085184192
40
0.0995834085184192
40
0.116180643271489
40
0.116180643271489
40
0.132777878024559
40
0.132777878024559
40
0.149375112777629
40
0.149375112777629
40
0.1659723475307
40
0.1659723475307
40
0.18256958228377
40
0.18256958228377
40
0.19916681703684
40
0.19916681703684
40
0.21576405178991
40
0.21576405178991
40
0.23236128654298
40
0.23236128654298
40
0.24895852129605
40
0.24895852129605
40
0.26555575604912
40
0.26555575604912
40
0.298750225555259
40
0.298750225555259
40
0.315347460308329
40
0.315347460308329
40
0.331944695061399
40
0.331944695061399
40
0.348541929814469
40
0.348541929814469
40
0.365139164567539
40
0.365139164567539
40
0.381736399320609
40
0.381736399320609
40
0.39833363407368
40
0.39833363407368
40
0.431528103579821
40
0.431528103579821
40
0.464722573085961
40
0.464722573085961
40
0.497917042592103
40
0.497917042592103
40
0.531111512098243
40
0.531111512098243
40
0.564305981604384
40
0.564305981604384
40
0.580903216357455
40
0.580903216357455
40
0.597500451110525
40
0.597500451110525
40
0.614097685863595
40
0.614097685863595
40
0.630694920616665
40
0.630694920616665
40
0.663889390122805
40
0.663889390122805
40
0.680486624875875
40
0.680486624875875
40
0.697083859628946
40
0.697083859628946
40
0.713681094382016
40
0.713681094382016
40
0.730278329135087
40
0.730278329135087
40
0.763472798641228
40
0.763472798641228
40
0.780070033394298
40
0.780070033394298
40
0.796667268147369
40
0.796667268147369
40
0.813264502900441
40
0.813264502900441
40
0.829861737653511
40
0.829861737653511
40
0.863056207159654
40
0.863056207159654
40
0.896250676665797
40
0.896250676665797
40
0.929445146171939
40
0.929445146171939
40
0.962639615678082
40
0.962639615678082
40
0.979236850431153
40
0.979236850431153
40
0.995834085184224
40
0.995834085184224
40
1
40
1
40
1
40
1
41
1
10
13.6350731702102
20
4.35547856246174
30
0
41
1
10
14.0730830390968
20
4.49321809959358
30
0
41
1
10
14.510300661827
20
4.61691825515285
30
0
41
1
10
15.3816147457609
20
4.83954185427157
30
0
41
1
10
15.8148119583956
20
4.93905876009995
30
0
41
1
10
16.6815824563099
20
5.11012698455886
30
0
41
1
10
17.1148935048385
20
5.18215522924891
30
0
41
1
10
17.7634058281782
20
5.27061556413793
30
0
41
1
10
17.9795329254084
20
5.29669497480253
30
0
41
1
10
18.4124862579135
20
5.34174102248286
30
0
41
1
10
18.6292162078469
20
5.36076369289205
30
0
41
1
10
19.0630242733546
20
5.39187842642389
30
0
41
1
10
19.2801166352994
20
5.4039708696711
30
0
41
1
10
19.714328132081
20
5.42115266752063
30
0
41
1
10
19.9315592464711
20
5.42619671366825
30
0
41
1
10
20.3673050074923
20
5.42907714006176
30
0
41
1
10
20.5857152321988
20
5.42694068396972
30
0
41
1
10
21.0234669510832
20
5.41548733616625
30
0
41
1
10
21.2431731054156
20
5.40615070439128
30
0
41
1
10
21.6810184624605
20
5.38020929085187
30
0
41
1
10
21.8991995071004
20
5.36358435183902
30
0
41
1
10
22.3352974637175
20
5.32348636034217
30
0
41
1
10
22.553117879385
20
5.30000563097366
30
0
41
1
10
22.9881742698324
20
5.2462590285262
30
0
41
1
10
23.2054170756029
20
5.21599878758215
30
0
41
1
10
23.6390559710231
20
5.14854282212522
30
0
41
1
10
23.855346148441
20
5.11125507373276
30
0
41
1
10
24.504570774401
20
4.98998723213688
30
0
41
1
10
24.9376726698393
20
4.89665618165282
30
0
41
1
10
25.5866973748817
20
4.73721188933143
30
0
41
1
10
25.8027596799301
20
4.68061772621272
30
0
41
1
10
26.2355024360189
20
4.56162038991366
30
0
41
1
10
26.4522151497663
20
4.49927433089044
30
0
41
1
10
26.886206058644
20
4.36881488620492
30
0
41
1
10
27.1034825726332
20
4.30070131842243
30
0
41
1
10
27.5384016090781
20
4.15839566929915
30
0
41
1
10
27.7558815183907
20
4.08397723348426
30
0
41
1
10
28.1918132274491
20
3.9296906269318
30
0
41
1
10
28.4103848251562
20
3.8500064665516
30
0
41
1
10
28.8486914730532
20
3.68550306700809
30
0
41
1
10
29.0683037177568
20
3.60070351498811
30
0
41
1
10
29.7243593202443
20
3.33972873279805
30
0
41
1
10
30.1589623322216
20
3.15569262355345
30
0
41
1
10
31.0277793538101
20
2.77610410541641
30
0
41
1
10
31.4612381630761
20
2.57937863753017
30
0
41
1
10
32.3257237021482
20
2.17109164736107
30
0
41
1
10
32.75831225158
20
1.96228222598702
30
0
41
1
10
33.6238167955591
20
1.53485230004301
30
0
41
1
10
34.0558899710285
20
1.31458672919598
30
0
41
1
10
34.9237266000599
20
0.870412603915327
30
0
41
1
10
35.3591754120927
20
0.645996415982495
30
0
41
1
10
36.0134612560854
20
0.303257122632203
30
0
41
1
10
36.2319772348835
20
0.188455529692106
30
0
41
1
10
36.6705202613354
20
-0.0408786150686637
30
0
41
1
10
36.8895721540933
20
-0.155128514910842
30
0
41
1
10
37.3265491922631
20
-0.382860282283303
30
0
41
1
10
37.5445678774708
20
-0.496378957658806
30
0
41
1
10
37.9793507318101
20
-0.723346167648771
30
0
41
1
10
38.1962894063594
20
-0.836436524294442
30
0
41
1
10
38.8470818446829
20
-1.17195139484446
30
0
41
1
10
39.2806021347841
20
-1.39129338182281
30
0
41
1
10
39.9289908460005
20
-1.7164695971378
30
0
41
1
10
40.1448328563132
20
-1.82415206027233
30
0
41
1
10
40.5770772502801
20
-2.03601044879664
30
0
41
1
10
40.793376966611
20
-2.14038301824235
30
0
41
1
10
41.2261872141758
20
-2.34629490718916
30
0
41
1
10
41.4427060800968
20
-2.44782042534121
30
0
41
1
10
41.8756847098554
20
-2.64848094576161
30
0
41
1
10
42.092063040108
20
-2.74774626891846
30
0
41
1
10
42.7428068653577
20
-3.03897715819932
30
0
41
1
10
43.1785255914114
20
-3.22488635681748
30
0
41
1
10
43.8338910469132
20
-3.49298646712808
30
0
41
1
10
44.052787322589
20
-3.58090683125684
30
0
41
1
10
44.490648277901
20
-3.75104775275261
30
0
41
1
10
44.7092553565337
20
-3.83317394848899
30
0
41
1
10
45.1457209667838
20
-3.9918622790112
30
0
41
1
10
45.3635794001692
20
-4.06842596066994
30
0
41
1
10
45.7983404791629
20
-4.21630516217823
30
0
41
1
10
46.0150743654864
20
-4.28781566702679
30
0
41
1
10
46.6649411942522
20
-4.49304515943786
30
0
41
1
10
47.0981034947112
20
-4.6171929754467
30
0
41
1
10
47.9630644303494
20
-4.84192424721871
30
0
41
1
10
48.394418688521
20
-4.94270891550698
30
0
41
1
10
49.2599829512367
20
-5.11672722207095
30
0
41
1
10
49.6933700205066
20
-5.1907783703947
30
0
41
1
10
50.5610162402814
20
-5.31246800511892
30
0
41
1
10
50.9968182224814
20
-5.35929396892419
30
0
41
1
10
51.6531534876969
20
-5.40853531209379
30
0
41
1
10
51.872521983537
20
-5.42146761991256
30
0
41
1
10
52.3098622965237
20
-5.44003102723116
30
0
41
1
10
52.5282876511146
20
-5.44564088821892
30
0
41
1
10
52.8014621751327
20
-5.44814388218546
30
0
41
1
10
52.8562639891992
20
-5.44842090771948
30
0
41
1
10
52.9110564563033
20
-5.44847245474153
30
0
0
SPLINE
5
DB
100
AcDbEntity
8
1
62
256
6
ByLayer
370
18
48
1
60
0
100
AcDbSpline
70
4
71
3
72
10
73
6
40
0
40
0
40
0
40
0
40
0.5
40
0.5
40
1
40
1
40
1
40
1
41
1
10
55.1477411965385
20
1.29087861465581
30
0
41
1
10
55.4458012919644
20
1.28013377997965
30
0
41
1
10
55.7438680985779
20
1.26931285607228
30
0
41
1
10
56.3397710467511
20
1.25028621253875
30
0
41
1
10
56.637668848983
20
1.24138140455392
30
0
41
1
10
56.9355393130012
20
1.23278654821718
30
0
0
SPLINE
5
DC
100
AcDbEntity
8
1
62
256
6
ByLayer
370
18
48
1
60
0
100
AcDbSpline
70
4
71
3
72
20
73
16
40
0
40
0
40
0
40
0
40
0.1434745946474
40
0.1434745946474
40
0.286949189294799
40
0.286949189294799
40
0.430423783942198
40
0.430423783942198
40
0.573898378589598
40
0.573898378589598
40
0.717372973236997
40
0.717372973236997
40
0.860847567884397
40
0.860847567884397
40
1
40
1
40
1
40
1
41
1
10
13.6350731702102
20
3.38784854668168
30
0
41
1
10
13.2246237883267
20
3.53233991539358
30
0
41
1
10
12.8175376299824
20
3.67352443013908
30
0
41
1
10
12.0077288160537
20
3.94604983527611
30
0
41
1
10
11.6047774468777
20
4.07682902192084
30
0
41
1
10
10.8014276379478
20
4.32034459285285
30
0
41
1
10
10.4033014801212
20
4.43209250307726
30
0
41
1
10
9.61209759778424
20
4.63350631357685
30
0
41
1
10
9.21893279264367
20
4.72406234268323
30
0
41
1
10
8.43647198490874
20
4.88080299395077
30
0
41
1
10
8.04714509570604
20
4.94723450358535
30
0
41
1
10
7.27201328942704
20
5.05348712353296
30
0
41
1
10
6.88626397039744
20
5.09254596391528
30
0
41
1
10
6.13051063376307
20
5.14193607452526
30
0
41
1
10
5.76041380912727
20
5.15233050339242
30
0
41
1
10
5.39364136717421
20
5.14535126863234
30
0
0
SPLINE
5
DD
100
AcDbEntity
8
1
62
256
6
ByLayer
370
18
48
1
60
0
100
AcDbSpline
70
4
71
3
72
22
73
18
40
0
40
0
40
0
40
0
40
0.150173329502599
40
0.150173329502599
40
0.225259994253899
40
0.225259994253899
40
0.300346659005199
40
0.300346659005199
40
0.450519988507798
40
0.450519988507798
40
0.600693318010397
40
0.600693318010397
40
0.750866647512997
40
0.750866647512997
40
0.901039977015596
40
0.901039977015596
40
1
40
1
40
1
40
1
41
1
10
4.25065451063762
20
-5.05579734812997
30
0
41
1
10
4.6069087985226
20
-5.1092450349399
30
0
41
1
10
4.97608848407049
20
-5.13598122958493
30
0
41
1
10
5.54065876893858
20
-5.14875079760827
30
0
41
1
10
5.73073656586433
20
-5.14833502945916
30
0
41
1
10
6.11399303011888
20
-5.13915985520012
30
0
41
1
10
6.3075233661952
20
-5.13035014556564
30
0
41
1
10
6.8887045283368
20
-5.0924218122542
30
0
41
1
10
7.27735816651983
20
-5.05292336076749
30
0
41
1
10
8.05649693952171
20
-4.94578046919787
30
0
41
1
10
8.44697408799604
20
-4.87891450000458
30
0
41
1
10
9.23014983907856
20
-4.72159405496132
30
0
41
1
10
9.62286357500091
20
-4.63092381415905
30
0
41
1
10
10.4116813190223
20
-4.42979723802233
30
0
41
1
10
10.8078179993285
20
-4.31845736098128
30
0
41
1
10
11.4694785101268
20
-4.11780832077363
30
0
41
1
10
11.7335057068871
20
-4.03404431329344
30
0
41
1
10
11.9989898343771
20
-3.9471552634113
30
0
0
SPLINE
5
DE
100
AcDbEntity
8
1
62
256
6
ByLayer
370
18
48
1
60
0
100
AcDbSpline
70
4
71
3
72
12
73
8
40
0
40
0
40
0
40
0
40
0.250000000000001
40
0.250000000000001
40
0.500000000000002
40
0.500000000000002
40
1
40
1
40
1
40
1
41
1
10
55.3608470534922
20
-5.30007926956253
30
0
41
1
10
55.4834600720562
20
-4.95604488020646
30
0
41
1
10
55.6085217255959
20
-4.61357545089513
30
0
41
1
10
55.8630295614337
20
-3.93125137378792
30
0
41
1
10
55.9925166348488
20
-3.59142156301243
30
0
41
1
10
56.386970787832
20
-2.57529847091672
30
0
41
1
10
56.6578567120526
20
-1.90231650734151
30
0
41
1
10
56.9355393130014
20
-1.23278654821721
30
0
0
SPLINE
5
DF
100
AcDbEntity
8
1
62
256
6
ByLayer
370
13
48
1
60
0
100
AcDbSpline
70
4
71
3
72
10
73
6
40
0
40
0
40
0
40
0
40
0.5
40
0.5
40
1
40
1
40
1
40
1
41
1
10
4.00000013687924
20
0.970982637916279
30
0
41
1
10
4.00000013687924
20
0.938297280020322
30
0
41
1
10
4.01200876751236
20
0.904903624414061
30
0
41
1
10
4.05812882315689
20
0.84774155381831
30
0
41
1
10
4.092778375493
20
0.822809195442517
30
0
41
1
10
4.13712160244734
20
0.806459909453565
30
0
0
SPLINE
5
E0
100
AcDbEntity
8
1
62
256
6
ByLayer
370
18
48
1
60
0
100
AcDbSpline
70
4
71
3
72
22
73
18
40
0
40
0
40
0
40
0
40
0.196579518042954
40
0.196579518042954
40
0.393159036085909
40
0.393159036085909
40
0.589738554128863
40
0.589738554128863
40
0.688028313150342
40
0.688028313150342
40
0.78631807217182
40
0.78631807217182
40
0.884607831193299
40
0.884607831193299
40
0.982897590214777
40
0.982897590214777
40
1
40
1
40
1
40
1
41
1
10
13.6350731702102
20
-4.35547856246174
30
0
41
1
10
14.0730830390969
20
-4.49321809959358
30
0
41
1
10
14.510300661827
20
-4.61691825515285
30
0
41
1
10
15.3816147457609
20
-4.8395418542716
30
0
41
1
10
15.8148119583956
20
-4.93905876009995
30
0
41
1
10
16.6815824563099
20
-5.11012698455886
30
0
41
1
10
17.1148935048385
20
-5.18215522924891
30
0
41
1
10
17.7634058281782
20
-5.27061556413793
30
0
41
1
10
17.9795329254084
20
-5.29669497480253
30
0
41
1
10
18.4124862579135
20
-5.34174102248286
30
0
41
1
10
18.6292162078469
20
-5.36076369289205
30
0
41
1
10
19.0630242733545
20
-5.39187842642389
30
0
41
1
10
19.2801166352994
20
-5.4039708696711
30
0
41
1
10
19.714328132081
20
-5.42115266752063
30
0
41
1
10
19.9315592464711
20
-5.42619671366825
30
0
41
1
10
20.1873419898268
20
-5.42788752383984
30
0
41
1
10
20.2252681212889
20
-5.4280298336802
30
0
41
1
10
20.2632101436016
20
-5.42806378501226
30
0
0
SPLINE
5
E1
100
AcDbEntity
8
1
62
256
6
ByLayer
370
18
48
1
60
0
100
AcDbSpline
70
4
71
3
72
28
73
24
40
0
40
0
40
0
40
0
40
0.0050988695969149
40
0.0050988695969149
40
0.0672801902471098
40
0.0672801902471098
40
0.129461510897304
40
0.129461510897304
40
0.253824152197691
40
0.253824152197691
40
0.378186793498077
40
0.378186793498077
40
0.502549434798464
40
0.502549434798464
40
0.62691207609885
40
0.62691207609885
40
0.689093396749042
40
0.689093396749042
40
0.751274717399233
40
0.751274717399233
40
0.875637358699617
40
0.875637358699617
40
1
40
1
40
1
40
1
41
1
10
44.873795356074
20
3.89294323550715
30
0
41
1
10
44.8916954558515
20
3.89948696093794
30
0
41
1
10
44.9095930670633
20
3.90601189053524
30
0
41
1
10
45.1457209667837
20
3.99186227901117
30
0
41
1
10
45.3635794001691
20
4.06842596066991
30
0
41
1
10
45.7983404791629
20
4.2163051621782
30
0
41
1
10
46.0150743654863
20
4.28781566702676
30
0
41
1
10
46.6649411942521
20
4.4930451594378
30
0
41
1
10
47.0981034947111
20
4.6171929754467
30
0
41
1
10
47.9630644303493
20
4.84192424721871
30
0
41
1
10
48.3944186885209
20
4.94270891550698
30
0
41
1
10
49.2599829512366
20
5.11672722207095
30
0
41
1
10
49.6933700205065
20
5.1907783703947
30
0
41
1
10
50.5610162402813
20
5.31246800511889
30
0
41
1
10
50.9968182224813
20
5.35929396892419
30
0
41
1
10
51.6531534876969
20
5.40853531209379
30
0
41
1
10
51.8725219835369
20
5.42146761991256
30
0
41
1
10
52.3098622965236
20
5.44003102723116
30
0
41
1
10
52.5282876511145
20
5.44564088821892
30
0
41
1
10
53.1833821523587
20
5.45164326926098
30
0
41
1
10
53.6196117535084
20
5.44134833494752
30
0
41
1
10
54.4895827047612
20
5.39185807749655
30
0
41
1
10
54.9249037402731
20
5.35291388073802
30
0
41
1
10
55.3608470534964
20
5.30007926955045
30
0
0
SPLINE
5
E2
100
AcDbEntity
8
1
62
256
6
ByLayer
370
18
48
1
60
0
100
AcDbSpline
70
4
71
3
72
8
73
4
40
0
40
0
40
0
40
0
40
1
40
1
40
1
40
1
41
1
10
55.080189228805
20
5.44308615169345
30
0
41
1
10
54.9076973230872
20
5.44748210996892
30
0
41
1
10
54.7351750541965
20
5.44961763440085
30
0
41
1
10
54.5626217154352
20
5.44949744236769
30
0
0
SPLINE
5
E3
100
AcDbEntity
8
1
62
256
6
ByLayer
370
18
48
1
60
0
100
AcDbSpline
70
4
71
3
72
32
73
28
40
0
40
0
40
0
40
0
40
0.0132827517559188
40
0.0132827517559188
40
0.0512334151499221
40
0.0512334151499221
40
0.0891840785439255
40
0.0891840785439255
40
0.240986732119938
40
0.240986732119938
40
0.392789385695951
40
0.392789385695951
40
0.468690712483957
40
0.468690712483957
40
0.544592039271963
40
0.544592039271963
40
0.582542702665967
40
0.582542702665967
40
0.62049336605997
40
0.62049336605997
40
0.696394692847976
40
0.696394692847976
40
0.772296019635982
40
0.772296019635982
40
0.848197346423988
40
0.848197346423988
40
1
40
1
40
1
40
1
41
1
10
25.1129937376996
20
-5.17568966128493
30
0
41
1
10
25.0201758161933
20
-5.19032526437874
30
0
41
1
10
24.9273434041895
20
-5.20434311138425
30
0
41
1
10
24.5691936356736
20
-5.25601265819483
30
0
41
1
10
24.3037676274077
20
-5.28923218332375
30
0
41
1
10
23.7723179653835
20
-5.34532370257278
30
0
41
1
10
23.5062204260708
20
-5.36817665131534
30
0
41
1
10
22.178301906836
20
-5.45574922525844
30
0
41
1
10
21.1204074248987
20
-5.44092701268505
30
0
41
1
10
18.9922836490773
20
-5.24219108232398
30
0
41
1
10
17.9339818431389
20
-5.05921122446807
30
0
41
1
10
16.3405252282744
20
-4.67048050205011
30
0
41
1
10
15.8081366357824
20
-4.52160665130239
30
0
41
1
10
14.7467073948438
20
-4.1908523806863
30
0
41
1
10
14.2166974296316
20
-4.00869828334203
30
0
41
1
10
13.4207269443129
20
-3.7128915349904
30
0
41
1
10
13.155246837892
20
-3.61052591822479
30
0
41
1
10
12.6237310794811
20
-3.39856181209271
30
0
41
1
10
12.3575463161508
20
-3.28889788969991
30
0
41
1
10
11.5604978616129
20
-2.95133780770104
30
0
41
1
10
11.0302169262657
20
-2.7145216101884
30
0
41
1
10
9.96930095958166
20
-2.22166864036745
30
0
41
1
10
9.43876483673921
20
-1.96545630177883
30
0
41
1
10
8.37475337720181
20
-1.43822267964833
30
0
41
1
10
7.84386169761649
20
-1.16860530393239
30
0
41
1
10
6.25469818183598
20
-0.351300001614618
30
0
41
1
10
5.19838586617442
20
0.206087459441221
30
0
41
1
10
4.13443779027727
20
0.755200686220917
30
0
0
SPLINE
5
E4
100
AcDbEntity
8
1
62
256
6
ByLayer
370
18
48
1
60
0
100
AcDbSpline
70
4
71
3
72
8
73
4
40
0
40
0
40
0
40
0
40
1
40
1
40
1
40
1
41
1
10
55.2688724048168
20
-3.03124829609709
30
0
41
1
10
55.0866088882476
20
-3.37869210654421
30
0
41
1
10
54.9076789017833
20
-3.72916320044877
30
0
41
1
10
54.7321090085247
20
-4.08268570059766
30
0
0
SPLINE
5
E5
100
AcDbEntity
8
1
62
256
6
ByLayer
370
18
48
1
60
0
100
AcDbSpline
70
4
71
3
72
8
73
4
40
0
40
0
40
0
40
0
40
1
40
1
40
1
40
1
41
1
10
56.9893472210283
20
-0.125097889305806
30
0
41
1
10
56.9900059708835
20
-0.103182982717925
30
0
41
1
10
56.994042293694
20
-0.0763968899906615
30
0
41
1
10
56.9999598576556
20
-0.0481998465537856
30
0
0
SPLINE
5
E6
100
AcDbEntity
8
1
62
256
6
ByLayer
370
18
48
1
60
0
100
AcDbSpline
70
4
71
3
72
62
73
58
40
0
40
0
40
0
40
0
40
0.0624999999999849
40
0.0624999999999849
40
0.0937499999999773
40
0.0937499999999773
40
0.12499999999997
40
0.12499999999997
40
0.156249999999962
40
0.156249999999962
40
0.171874999999958
40
0.171874999999958
40
0.187499999999955
40
0.187499999999955
40
0.203124999999951
40
0.203124999999951
40
0.218749999999947
40
0.218749999999947
40
0.234374999999943
40
0.234374999999943
40
0.249999999999939
40
0.249999999999939
40
0.281249999999932
40
0.281249999999932
40
0.312499999999924
40
0.312499999999924
40
0.32812499999992
40
0.32812499999992
40
0.343749999999917
40
0.343749999999917
40
0.359374999999914
40
0.359374999999914
40
0.367187499999913
40
0.367187499999913
40
0.371093749999912
40
0.371093749999912
40
0.374999999999912
40
0.374999999999912
40
0.378906249999911
40
0.378906249999911
40
0.382812499999911
40
0.390624999999911
40
0.406249999999912
40
0.406249999999912
40
0.437499999999917
40
0.437499999999917
40
0.499999999999926
40
0.499999999999926
40
0.562499999999935
40
0.562499999999935
40
0.624999999999944
40
0.624999999999944
40
0.749999999999963
40
0.749999999999963
40
0.874999999999981
40
0.874999999999981
40
1
40
1
40
1
40
1
41
1
10
4.00000013687909
20
-5.33161925510487
30
0
41
1
10
3.7234620405651
20
-5.29410007048836
30
0
41
1
10
3.45433899369388
20
-5.2432811355165
30
0
41
1
10
3.06985657506328
20
-5.13725823274808
30
0
41
1
10
2.94542833166187
20
-5.09695988002716
30
0
41
1
10
2.70896514603649
20
-5.00435648065533
30
0
41
1
10
2.59658617326221
20
-4.95203149052224
30
0
41
1
10
2.38898739797165
20
-4.83067151545663
30
0
41
1
10
2.29527711837619
20
-4.76250458141266
30
0
41
1
10
2.17792118638081
20
-4.64563301620305
30
0
41
1
10
2.14264950180757
20
-4.60418678249715
30
0
41
1
10
2.08182741444585
20
-4.51518107822028
30
0
41
1
10
2.05671455540946
20
-4.4681336737294
30
0
41
1
10
2.01948768825292
20
-4.36974488495022
30
0
41
1
10
2.00722862196568
20
-4.31821732807427
30
0
41
1
10
1.99748698490797
20
-4.20993710635059
30
0
41
1
10
2.00022028894398
20
-4.15398352687293
30
0
41
1
10
2.02080757069592
20
-4.04123041090966
30
0
41
1
10
2.03861041338638
20
-3.98404020977876
30
0
41
1
10
2.08903926266251
20
-3.86824155824306
30
0
41
1
10
2.12150093090074
20
-3.81024352744549
30
0
41
1
10
2.23555244384354
20
-3.64032729895931
30
0
41
1
10
2.33569272261627
20
-3.5297748339986
30
0
41
1
10
2.55992658565162
20
-3.32395692492077
30
0
41
1
10
2.68471716884528
20
-3.22740190005888
30
0
41
1
10
2.88524669465184
20
-3.08973831800273
30
0
41
1
10
2.95431547030887
20
-3.0451069586442
30
0
41
1
10
3.09486367728491
20
-2.95890134353897
30
0
41
1
10
3.16653778799252
20
-2.91719283675099
30
0
41
1
10
3.31227635440632
20
-2.8362127130398
30
0
41
1
10
3.38634221296994
20
-2.7969423080248
30
0
41
1
10
3.49900682286787
20
-2.73967074128132
30
0
41
1
10
3.53682334382148
20
-2.72085315522239
30
0
41
1
10
3.59391722551231
20
-2.6930163597593
30
0
41
1
10
3.61257901147383
20
-2.6832249274531
30
0
41
1
10
3.65412350338784
20
-2.66925410894206
30
0
41
1
10
3.67613649782464
20
-2.66514020643336
30
0
41
1
10
3.71907101833509
20
-2.66019369259524
30
0
41
1
10
3.74052638675903
20
-2.65977204508087
30
0
41
1
10
3.78343053379084
20
-2.66006672681132
30
0
41
1
10
3.84778624924203
20
-2.66059592071079
30
0
41
1
10
3.99794605665733
20
-2.66243960388221
30
0
41
1
10
4.12664843655639
20
-2.66505943202893
30
0
41
1
10
4.38404521677916
20
-2.67167351745655
30
0
41
1
10
4.55570577499276
20
-2.67791990449834
30
0
41
1
10
5.06986607446621
20
-2.70202244594296
30
0
41
1
10
5.41167191507137
20
-2.72524402538232
30
0
41
1
10
6.09341085709877
20
-2.78515732126223
30
0
41
1
10
6.43334341284816
20
-2.82185263076406
30
0
41
1
10
7.11138049762974
20
-2.90780447999793
30
0
41
1
10
7.44978942430106
20
-2.95711219793358
30
0
41
1
10
8.4603413848514
20
-3.12148880175801
30
0
41
1
10
9.12476452548833
20
-3.25273845940117
30
0
41
1
10
10.4372681145001
20
-3.5429026500303
30
0
41
1
10
11.0853470449152
20
-3.70174482229345
30
0
41
1
10
12.3686362996914
20
-4.02772672585843
30
0
41
1
10
13.0038781810198
20
-4.19472993612905
30
0
41
1
10
13.6350731702102
20
-4.35547856246174
30
0
0
SPLINE
5
E7
100
AcDbEntity
8
1
62
256
6
ByLayer
370
18
48
1
60
0
100
AcDbSpline
70
4
71
3
72
12
73
8
40
0
40
0
40
0
40
0
40
0.5
40
0.5
40
0.75
40
0.75
40
1
40
1
40
1
40
1
41
1
10
55.3608470534906
20
5.30007926956714
30
0
41
1
10
55.6044000393306
20
4.6167048306971
30
0
41
1
10
55.858876364109
20
3.9357951150337
30
0
41
1
10
56.2539044150017
20
2.91802456809447
30
0
41
1
10
56.3879014125412
20
2.57912216254104
30
0
41
1
10
56.6592076907308
20
1.90410305068946
30
0
41
1
10
56.7965617991033
20
1.56787995659587
30
0
41
1
10
56.9355393130014
20
1.23278654821723
30
0
0
SPLINE
5
E8
100
AcDbEntity
8
1
62
256
6
ByLayer
370
18
48
1
60
0
100
AcDbSpline
70
4
71
3
72
8
73
4
40
0
40
0
40
0
40
0
40
1
40
1
40
1
40
1
41
1
10
12.0258648504132
20
3.94102390195386
30
0
41
1
10
12.5660997025299
20
4.07951375700583
30
0
41
1
10
13.1020295153629
20
4.21972647830472
30
0
41
1
10
13.6350731702102
20
4.35547856246174
30
0
0
SPLINE
5
E9
100
AcDbEntity
8
1
62
256
6
ByLayer
370
18
48
1
60
0
100
AcDbSpline
70
4
71
3
72
8
73
4
40
0
40
0
40
0
40
0
40
1
40
1
40
1
40
1
41
1
10
55.1507334625462
20
-5.26828580182536
30
0
41
1
10
55.1272613416196
20
-5.32663641064457
30
0
41
1
10
55.1037456208727
20
-5.38490271841769
30
0
41
1
10
55.080189228805
20
-5.44308615169342
30
0
0
SPLINE
5
EA
100
AcDbEntity
8
1
62
256
6
ByLayer
370
18
48
1
60
0
100
AcDbSpline
70
4
71
3
72
33
73
29
40
0
40
0
40
0
40
0
40
0.0454249464050359
40
0.0894402093596067
40
0.132149921301915
40
0.167753659939745
40
0.195787114282641
40
0.230711362712128
40
0.27793605799677
40
0.317513939123019
40
0.34627773730754
40
0.374047298648161
40
0.403750549644382
40
0.438291313072648
40
0.483215641237244
40
0.537816704496242
40
0.582692817667248
40
0.61432570287749
40
0.652834919483992
40
0.700523560107753
40
0.745068441674111
40
0.784829106528909
40
0.819222992185611
40
0.851546949325577
40
0.879006971395892
40
0.915138530256374
40
0.961982760788132
40
1
40
1
40
1
40
1
41
1
10
22.0545996106569
20
-5.15670914069472
30
0
41
1
10
22.2845363053129
20
-5.15626413446435
30
0
41
1
10
22.7389151009769
20
-5.15580784513057
30
0
41
1
10
23.4250077793512
20
-5.15566047117915
30
0
41
1
10
24.0462236481348
20
-5.15788779800241
30
0
41
1
10
24.5923080814341
20
-5.15830190599559
30
0
41
1
10
25.1007530142605
20
-5.1584863794067
30
0
41
1
10
25.6682914644521
20
-5.15840490276705
30
0
41
1
10
26.2958620334931
20
-5.15817702392363
30
0
41
1
10
26.891509947971
20
-5.15819036575076
30
0
41
1
10
27.3868886726257
20
-5.15932346281053
30
0
41
1
10
27.8313887281418
20
-5.16024867036808
30
0
41
1
10
28.3056641939951
20
-5.15995914008846
30
0
41
1
10
28.8683570020595
20
-5.15955985789299
30
0
41
1
10
29.5593933289323
20
-5.15888701803729
30
0
41
1
10
30.3036929281181
20
-5.15995768686497
30
0
41
1
10
30.9794780971615
20
-5.16253997697754
30
0
41
1
10
31.5723314765879
20
-5.16129866933755
30
0
41
1
10
32.179679896195
20
-5.1606931194126
30
0
41
1
10
32.8535787826038
20
-5.15984929190574
30
0
41
1
10
33.5339376511166
20
-5.16097870997413
30
0
41
1
10
34.1457388416344
20
-5.16250696807967
30
0
41
1
10
34.694646150247
20
-5.1623899144391
30
0
41
1
10
35.1796962955919
20
-5.16389738741287
30
0
41
1
10
35.6731241677655
20
-5.16403724546205
30
0
41
1
10
36.2423756998494
20
-5.16349714681408
30
0
41
1
10
36.8628399140701
20
-5.16207525747572
30
0
41
1
10
37.3004954235071
20
-5.16226744226091
30
0
41
1
10
37.4967177301679
20
-5.16246484655585
30
0
0
SPLINE
5
EB
100
AcDbEntity
8
1
62
256
6
ByLayer
370
18
48
1
60
0
100
AcDbSpline
70
4
71
2
72
6
73
3
40
0
40
0
40
0
40
1
40
1
40
1
41
1
10
5.62133393560819
20
5.14740653672803
30
0
41
1
10
4.93599296869232
20
5.14741722153474
30
0
41
1
10
4.2505484428076
20
5.14574820279398
30
0
0
SPLINE
5
EC
100
AcDbEntity
8
1
62
256
6
ByLayer
370
18
48
1
60
0
100
AcDbSpline
70
4
71
3
72
29
73
25
40
0
40
0
40
0
40
0
40
0.0179887162050508
40
0.0724705256739196
40
0.115008749986831
40
0.150111219289023
40
0.202100070779907
40
0.27122962279187
40
0.338731912265002
40
0.39384900928869
40
0.453066862729162
40
0.515104616487312
40
0.569055462205398
40
0.609317819069217
40
0.648152360511449
40
0.690270362644188
40
0.738683888719004
40
0.793057845913042
40
0.842228011760673
40
0.880793030549641
40
0.907653367724293
40
0.942484297138753
40
0.987380299021789
40
1
40
1
40
1
40
1
41
1
10
37.746482939703
20
5.16037662435255
30
0
41
1
10
37.6706244796104
20
5.16011255951207
30
0
41
1
10
37.365684338965
20
5.15930828661195
30
0
41
1
10
36.8964696675135
20
5.16296079004235
30
0
41
1
10
36.3426373123535
20
5.16302049171921
30
0
41
1
10
35.7979421907395
20
5.16431627558603
30
0
41
1
10
35.1418720127033
20
5.16386387321637
30
0
41
1
10
34.3494961794097
20
5.16245392432569
30
0
41
1
10
33.5440518321448
20
5.16096237359932
30
0
41
1
10
32.7802174721895
20
5.15991133567988
30
0
41
1
10
32.0393453410642
20
5.16074407279299
30
0
41
1
10
31.3033695349727
20
5.16204970861207
30
0
41
1
10
30.6470170456337
20
5.16173245817865
30
0
41
1
10
30.0881368187312
20
5.15932259083445
30
0
41
1
10
29.5789616530452
20
5.15911500683526
30
0
41
1
10
29.0355585720601
20
5.159372685721
30
0
41
1
10
28.4268773455735
20
5.15986516590149
30
0
41
1
10
27.7885574305741
20
5.16041908421837
30
0
41
1
10
27.1916115363484
20
5.1586941951457
30
0
41
1
10
26.7102554530519
20
5.15819230077787
30
0
41
1
10
26.2891249460591
20
5.15821427301663
30
0
41
1
10
25.8413925860068
20
5.15832709583268
30
0
41
1
10
25.4534921757913
20
5.15844339847195
30
0
41
1
10
25.2118857784282
20
5.15848397221319
30
0
41
1
10
25.1588743961866
20
5.15848945676942
30
0
0
SPLINE
5
ED
100
AcDbEntity
8
1
62
256
6
ByLayer
370
18
48
1
60
0
100
AcDbSpline
70
4
71
2
72
6
73
3
40
0
40
0
40
0
40
1
40
1
40
1
41
1
10
4.2505484428076
20
-5.14574820279404
30
0
41
1
10
4.93026688268833
20
-5.14740789509074
30
0
41
1
10
5.60988262875713
20
-5.14740191649284
30
0
0
SPLINE
5
EE
100
AcDbEntity
8
1
62
256
6
ByLayer
370
18
48
1
60
0
100
AcDbSpline
70
4
71
2
72
6
73
3
40
0
40
0
40
0
40
1
40
1
40
1
41
1
10
54.741656702544
20
-5.17711475991209
30
0
41
1
10
54.9181062234738
20
-5.17736830158225
30
0
41
1
10
55.09258453297
20
-5.1760397797689
30
0
0
SPLINE
5
EF
100
AcDbEntity
8
1
62
256
6
ByLayer
370
18
48
1
60
0
100
AcDbSpline
70
4
71
1
72
4
73
2
40
0
40
0
40
1
40
1
41
1
10
38.2418122612703
20
-0.0019377595436083
30
0
41
1
10
38.2417954523084
20
-0.0019303120678273
30
0
0
LINE
5
7B
100
AcDbEntity
8
SK1
62
256
6
ByLayer
370
18
48
1
60
0
100
AcDbLine
10
-45
20
-4.255
30
0
11
-45
21
-3.241338
31
0
39
0
210
0
220
0
230
1
0
LINE
5
7D
100
AcDbEntity
8
SK1
62
256
6
ByLayer
370
18
48
1
60
0
100
AcDbLine
10
-45
20
4.255
30
0
11
-45
21
-1.623878
31
0
39
0
210
0
220
0
230
1
0
LINE
5
7E
100
AcDbEntity
8
SK1
62
256
6
ByLayer
370
18
48
1
60
0
100
AcDbLine
10
0
20
-6
30
0
11
0
21
6
31
0
39
0
210
0
220
0
230
1
0
LINE
5
7F
100
AcDbEntity
8
SK1
62
256
6
ByLayer
370
13
48
1
60
0
100
AcDbLine
10
-44.25
20
-2.075739
30
0
11
-44.25
21
-3.693214
31
0
39
0
210
0
220
0
230
1
0
LINE
5
80
100
AcDbEntity
8
SK1
62
256
6
ByLayer
370
18
48
1
60
0
100
AcDbLine
10
-45
20
-1.623817
30
0
11
-45
21
-3.241338
31
0
39
0
210
0
220
0
230
1
0
LINE
5
81
100
AcDbEntity
8
SK1
62
256
6
ByLayer
370
18
48
1
60
0
100
AcDbLine
10
-43.255
20
6
30
0
11
-43.255
21
-6
31
0
39
0
210
0
220
0
230
1
0
LINE
5
82
100
AcDbEntity
8
SK1
62
256
6
ByLayer
370
18
48
1
60
0
100
AcDbLine
10
-44.15
20
-3.683485
30
0
11
-44.15
21
-2.227771
31
0
39
0
210
0
220
0
230
1
0
LINE
5
83
100
AcDbEntity
8
1
62
256
6
ByLayer
370
18
48
1
60
0
100
AcDbLine
10
4
20
0.974081
30
0
11
4
21
5.4179
31
0
39
0
210
0
220
0
230
1
0
LINE
5
84
100
AcDbEntity
8
1
62
256
6
ByLayer
370
13
48
1
60
0
100
AcDbLine
10
55.147741
20
1.290879
30
0
11
56.989347
21
0.125098
31
0
39
0
210
0
220
0
230
1
0
LINE
5
85
100
AcDbEntity
8
1
62
256
6
ByLayer
370
13
48
1
60
0
100
AcDbLine
10
0.617939
20
5.708086
30
0
11
0.617939
21
-5.708086
31
0
39
0
210
0
220
0
230
1
0
LINE
5
86
100
AcDbEntity
8
1
62
256
6
ByLayer
370
13
48
1
60
0
100
AcDbLine
10
55.01271
20
1.194544
30
0
11
56.964406
21
-0.040926
31
0
39
0
210
0
220
0
230
1
0
LINE
5
87
100
AcDbEntity
8
1
62
256
6
ByLayer
370
18
48
1
60
0
100
AcDbLine
10
0
20
-6
30
0
11
0
21
6
31
0
39
0
210
0
220
0
230
1
0
LINE
5
88
100
AcDbEntity
8
1
62
256
6
ByLayer
370
13
48
1
60
0
100
AcDbLine
10
1.236378
20
5.416172
30
0
11
1.236378
21
-5.416172
31
0
39
0
210
0
220
0
230
1
0
LINE
5
89
100
AcDbEntity
8
80
62
256
6
ByLayer
370
18
48
1
60
0
100
AcDbLine
10
0
20
0
30
0
11
-5
21
0
31
0
39
0
210
0
220
0
230
1
0
LINE
5
8A
100
AcDbEntity
8
4
62
256
6
ByLayer
370
18
48
0.05
60
0
100
AcDbLine
10
57
20
0
30
0
11
0
21
0
31
0
39
0
210
0
220
0
230
1
0
LINE
5
8C
100
AcDbEntity
8
SK4
62
256
6
ByLayer
370
18
48
0.05
60
0
100
AcDbLine
10
62
20
0
30
0
11
-50
21
0
31
0
39
0
210
0
220
0
230
1
0
LINE
5
8E
100
AcDbEntity
8
SK1
62
256
6
ByLayer
370
18
48
1
60
0
100
AcDbLine
10
-43.255
20
-6
30
0
11
0
21
-6
31
0
39
0
210
0
220
0
230
1
0
LINE
5
8F
100
AcDbEntity
8
SK1
62
256
6
ByLayer
370
18
48
1
60
0
100
AcDbLine
10
0
20
6
30
0
11
-43.255
21
6
31
0
39
0
210
0
220
0
230
1
0
LINE
5
90
100
AcDbEntity
8
SK1
62
256
6
ByLayer
370
18
48
1
60
0
100
AcDbLine
10
-45
20
-4.255
30
0
11
-43.255
21
-6
31
0
39
0
210
0
220
0
230
1
0
LINE
5
91
100
AcDbEntity
8
SK1
62
256
6
ByLayer
370
18
48
1
60
0
100
AcDbLine
10
-43.255
20
6
30
0
11
-45
21
4.255
31
0
39
0
210
0
220
0
230
1
0
LINE
5
92
100
AcDbEntity
8
1
62
256
6
ByLayer
370
18
48
1
60
0
100
AcDbLine
10
1.236378
20
-5.416172
30
0
11
4
21
-5.4179
31
0
39
0
210
0
220
0
230
1
0
LINE
5
93
100
AcDbEntity
8
1
62
256
6
ByLayer
370
18
48
1
60
0
100
AcDbLine
10
20.270715
20
-5.428069
30
0
11
21.913031
21
-5.429095
31
0
39
0
210
0
220
0
230
1
0
LINE
5
94
100
AcDbEntity
8
1
62
256
6
ByLayer
370
18
48
1
60
0
100
AcDbLine
10
52.918497
20
-5.448474
30
0
11
54.563741
21
-5.449502
31
0
39
0
210
0
220
0
230
1
0
LINE
5
95
100
AcDbEntity
8
1
62
256
6
ByLayer
370
18
48
1
60
0
100
AcDbLine
10
54.563676
20
5.449502
30
0
11
52.918497
21
5.448474
31
0
39
0
210
0
220
0
230
1
0
LINE
5
96
100
AcDbEntity
8
1
62
256
6
ByLayer
370
18
48
1
60
0
100
AcDbLine
10
21.912631
20
5.429095
30
0
11
20.270715
21
5.428069
31
0
39
0
210
0
220
0
230
1
0
LINE
5
97
100
AcDbEntity
8
1
62
256
6
ByLayer
370
18
48
1
60
0
100
AcDbLine
10
4
20
5.4179
30
0
11
1.236378
21
5.416172
31
0
39
0
210
0
220
0
230
1
0
LINE
5
98
100
AcDbEntity
8
81
62
256
6
ByLayer
370
18
48
1
60
0
100
AcDbLine
10
57
20
0
30
0
11
62
21
0
31
0
39
0
210
0
220
0
230
1
0
LINE
5
99
100
AcDbEntity
8
SK2
62
256
6
ByLayer
370
13
48
1
60
0
100
AcDbLine
10
-53.625163
20
-6
30
0
11
-53.625163
21
36.857173
31
0
39
0
210
0
220
0
230
1
0
LINE
5
9B
100
AcDbEntity
8
SK2
62
256
6
ByLayer
370
13
48
1
60
0
100
AcDbLine
10
-46.5875
20
6
30
0
11
-55.625163
21
6
31
0
39
0
210
0
220
0
230
1
0
LINE
5
9C
100
AcDbEntity
8
SK2
62
256
6
ByLayer
370
13
48
1
60
0
100
AcDbLine
10
-46.5875
20
-6
30
0
11
-55.625163
21
-6
31
0
39
0
210
0
220
0
230
1
0
LINE
5
9D
100
AcDbEntity
8
1
62
256
6
ByLayer
370
18
48
1
60
1
100
AcDbLine
10
-53.625163
20
6
30
0
11
-53.164379
21
2.500002
31
0
39
0
210
0
220
0
230
1
0
LINE
5
9E
100
AcDbEntity
8
1
62
256
6
ByLayer
370
18
48
1
60
1
100
AcDbLine
10
-53.164379
20
2.500002
30
0
11
-54.085946
21
2.499998
31
0
39
0
210
0
220
0
230
1
0
LINE
5
9F
100
AcDbEntity
8
1
62
256
6
ByLayer
370
18
48
1
60
1
100
AcDbLine
10
-54.085946
20
2.499998
30
0
11
-53.625163
21
6
31
0
39
0
210
0
220
0
230
1
0
LINE
5
A0
100
AcDbEntity
8
1
62
256
6
ByLayer
370
18
48
1
60
1
100
AcDbLine
10
-53.625163
20
-6
30
0
11
-54.085946
21
-2.500002
31
0
39
0
210
0
220
0
230
1
0
LINE
5
A1
100
AcDbEntity
8
1
62
256
6
ByLayer
370
18
48
1
60
1
100
AcDbLine
10
-54.085946
20
-2.500002
30
0
11
-53.164379
21
-2.499998
31
0
39
0
210
0
220
0
230
1
0
LINE
5
A2
100
AcDbEntity
8
1
62
256
6
ByLayer
370
18
48
1
60
1
100
AcDbLine
10
-53.164379
20
-2.499998
30
0
11
-53.625163
21
-6
31
0
39
0
210
0
220
0
230
1
0
LINE
5
A3
100
AcDbEntity
8
2
62
256
6
ByLayer
370
13
48
1
60
0
100
AcDbLine
10
69.083343
20
-5.45
30
0
11
69.083343
21
34.900259
31
0
39
0
210
0
220
0
230
1
0
LINE
5
A5
100
AcDbEntity
8
2
62
256
6
ByLayer
370
13
48
1
60
0
100
AcDbLine
10
56.9679
20
5.45
30
0
11
71.083343
21
5.45
31
0
39
0
210
0
220
0
230
1
0
LINE
5
A6
100
AcDbEntity
8
2
62
256
6
ByLayer
370
13
48
1
60
0
100
AcDbLine
10
56.9679
20
-5.45
30
0
11
71.083343
21
-5.45
31
0
39
0
210
0
220
0
230
1
0
LINE
5
A7
100
AcDbEntity
8
1
62
256
6
ByLayer
370
18
48
1
60
1
100
AcDbLine
10
69.083343
20
5.45
30
0
11
69.544126
21
1.950002
31
0
39
0
210
0
220
0
230
1
0
LINE
5
A8
100
AcDbEntity
8
1
62
256
6
ByLayer
370
18
48
1
60
1
100
AcDbLine
10
69.544126
20
1.950002
30
0
11
68.622559
21
1.949998
31
0
39
0
210
0
220
0
230
1
0
LINE
5
A9
100
AcDbEntity
8
1
62
256
6
ByLayer
370
18
48
1
60
1
100
AcDbLine
10
68.622559
20
1.949998
30
0
11
69.083343
21
5.45
31
0
39
0
210
0
220
0
230
1
0
LINE
5
AA
100
AcDbEntity
8
1
62
256
6
ByLayer
370
18
48
1
60
1
100
AcDbLine
10
69.083343
20
-5.45
30
0
11
68.622559
21
-1.950002
31
0
39
0
210
0
220
0
230
1
0
LINE
5
AB
100
AcDbEntity
8
1
62
256
6
ByLayer
370
18
48
1
60
1
100
AcDbLine
10
68.622559
20
-1.950002
30
0
11
69.544126
21
-1.949998
31
0
39
0
210
0
220
0
230
1
0
LINE
5
AC
100
AcDbEntity
8
1
62
256
6
ByLayer
370
18
48
1
60
1
100
AcDbLine
10
69.544126
20
-1.949998
30
0
11
69.083343
21
-5.45
31
0
39
0
210
0
220
0
230
1
0
LINE
5
F6
100
AcDbEntity
8
1
62
256
6
ByLayer
370
18
48
1
60
1
100
AcDbLine
10
-53.625163
20
6
30
0
11
-53.164379
21
2.500002
31
0
39
0
210
0
220
0
230
1
0
LINE
5
F7
100
AcDbEntity
8
1
62
256
6
ByLayer
370
18
48
1
60
1
100
AcDbLine
10
-53.164379
20
2.500002
30
0
11
-54.085946
21
2.499998
31
0
39
0
210
0
220
0
230
1
0
LINE
5
F8
100
AcDbEntity
8
1
62
256
6
ByLayer
370
18
48
1
60
1
100
AcDbLine
10
-54.085946
20
2.499998
30
0
11
-53.625163
21
6
31
0
39
0
210
0
220
0
230
1
0
LINE
5
FA
100
AcDbEntity
8
1
62
256
6
ByLayer
370
18
48
1
60
1
100
AcDbLine
10
-53.625163
20
-6
30
0
11
-54.085946
21
-2.500002
31
0
39
0
210
0
220
0
230
1
0
LINE
5
FB
100
AcDbEntity
8
1
62
256
6
ByLayer
370
18
48
1
60
1
100
AcDbLine
10
-54.085946
20
-2.500002
30
0
11
-53.164379
21
-2.499998
31
0
39
0
210
0
220
0
230
1
0
LINE
5
FC
100
AcDbEntity
8
1
62
256
6
ByLayer
370
18
48
1
60
1
100
AcDbLine
10
-53.164379
20
-2.499998
30
0
11
-53.625163
21
-6
31
0
39
0
210
0
220
0
230
1
0
LINE
5
100
100
AcDbEntity
8
1
62
256
6
ByLayer
370
18
48
1
60
1
100
AcDbLine
10
69.083343
20
5.45
30
0
11
69.544126
21
1.950002
31
0
39
0
210
0
220
0
230
1
0
LINE
5
101
100
AcDbEntity
8
1
62
256
6
ByLayer
370
18
48
1
60
1
100
AcDbLine
10
69.544126
20
1.950002
30
0
11
68.622559
21
1.949998
31
0
39
0
210
0
220
0
230
1
0
LINE
5
102
100
AcDbEntity
8
1
62
256
6
ByLayer
370
18
48
1
60
1
100
AcDbLine
10
68.622559
20
1.949998
30
0
11
69.083343
21
5.45
31
0
39
0
210
0
220
0
230
1
0
LINE
5
104
100
AcDbEntity
8
1
62
256
6
ByLayer
370
18
48
1
60
1
100
AcDbLine
10
69.083343
20
-5.45
30
0
11
68.622559
21
-1.950002
31
0
39
0
210
0
220
0
230
1
0
LINE
5
105
100
AcDbEntity
8
1
62
256
6
ByLayer
370
18
48
1
60
1
100
AcDbLine
10
68.622559
20
-1.950002
30
0
11
69.544126
21
-1.949998
31
0
39
0
210
0
220
0
230
1
0
LINE
5
106
100
AcDbEntity
8
1
62
256
6
ByLayer
370
18
48
1
60
1
100
AcDbLine
10
69.544126
20
-1.949998
30
0
11
69.083343
21
-5.45
31
0
39
0
210
0
220
0
230
1
0
MTEXT
5
F0
100
AcDbEntity
8
SK6
62
256
6
ByLayer
370
13
48
1
60
0
100
AcDbMText
10
-22.70776
20
37.990328
30
0
210
0
220
0
230
1
1
\W0.7563;462.1-1090-032A1-XM X2BM
40
3.5
41
0
44
1.084337
50
0
71
7
72
5
7
iso_b_vert
0
MTEXT
5
F4
100
AcDbEntity
8
SK2
62
256
6
ByLayer
370
18
48
1
60
0
100
AcDbMText
10
-55.189796
20
19.409024
30
0
210
0
220
0
230
1
1
%%c
40
3.5
41
0
44
1.084337
50
90
71
7
72
5
7
iso_b_vert
0
MTEXT
5
F5
100
AcDbEntity
8
SK2
62
256
6
ByLayer
370
18
48
1
60
0
100
AcDbMText
10
-55.189796
20
24.63168
30
0
210
0
220
0
230
1
1
\W0.6930;12,000
40
3.5
41
0
44
1.084337
50
90
71
7
72
5
7
iso_b_vert
0
MTEXT
5
FE
100
AcDbEntity
8
2
62
256
6
ByLayer
370
18
48
1
60
0
100
AcDbMText
10
67.518709
20
17.45211
30
0
210
0
220
0
230
1
1
%%c
40
3.5
41
0
44
1.084337
50
90
71
7
72
5
7
iso_b_vert
0
MTEXT
5
FF
100
AcDbEntity
8
2
62
256
6
ByLayer
370
18
48
1
60
0
100
AcDbMText
10
67.518709
20
22.674766
30
0
210
0
220
0
230
1
1
\W0.6930;10,900
40
3.5
41
0
44
1.084337
50
90
71
7
72
5
7
iso_b_vert
0
HATCH
5
F9
100
AcDbEntity
8
SK2
62
256
6
ByLayer
370
13
48
1
60
0
100
AcDbHatch
10
0
20
0
30
0
210
0
220
0
230
1
2
ANSI31
70
0
71
0
91
1
92
5
93
3
72
1
10
-53.6251625675374
20
6
11
-53.1643788259847
21
2.50000169255318
72
1
10
-53.1643788259847
20
2.50000169255318
11
-54.0859463090902
21
2.49999830744682
72
1
10
-54.0859463090902
20
2.49999830744682
11
-53.6251625675374
21
6
97
0
75
0
76
1
52
0
41
0.0062
77
0
78
1
53
45
43
0
44
0
45
-0.0139193969876572
46
0.0139193969876572
79
0
47
0
98
1
10
0
20
0
0
HATCH
5
FD
100
AcDbEntity
8
SK2
62
256
6
ByLayer
370
13
48
1
60
0
100
AcDbHatch
10
0
20
0
30
0
210
0
220
0
230
1
2
ANSI31
70
0
71
0
91
1
92
5
93
3
72
1
10
-53.6251625675374
20
-6
11
-54.0859463090902
21
-2.50000169255318
72
1
10
-54.0859463090902
20
-2.50000169255318
11
-53.1643788259847
21
-2.49999830744682
72
1
10
-53.1643788259847
20
-2.49999830744682
11
-53.6251625675374
21
-6
97
0
75
0
76
1
52
0
41
0.0062
77
0
78
1
53
45
43
0
44
0
45
-0.0139193969876572
46
0.0139193969876572
79
0
47
0
98
1
10
0
20
0
0
HATCH
5
103
100
AcDbEntity
8
2
62
256
6
ByLayer
370
13
48
1
60
0
100
AcDbHatch
10
0
20
0
30
0
210
0
220
0
230
1
2
ANSI31
70
0
71
0
91
1
92
5
93
3
72
1
10
69.083342615295
20
5.45000000000002
11
69.5441263568477
21
1.9500016925532
72
1
10
69.5441263568477
20
1.9500016925532
11
68.6225588737422
21
1.94999830744683
72
1
10
68.6225588737422
20
1.94999830744683
11
69.083342615295
21
5.45000000000002
97
0
75
0
76
1
52
0
41
0.0062
77
0
78
1
53
45
43
0
44
0
45
-0.0139193969876572
46
0.0139193969876572
79
0
47
0
98
1
10
0
20
0
0
HATCH
5
107
100
AcDbEntity
8
2
62
256
6
ByLayer
370
13
48
1
60
0
100
AcDbHatch
10
0
20
0
30
0
210
0
220
0
230
1
2
ANSI31
70
0
71
0
91
1
92
5
93
3
72
1
10
69.083342615295
20
-5.44999999999999
11
68.6225588737422
21
-1.95000169255317
72
1
10
68.6225588737422
20
-1.95000169255317
11
69.5441263568477
21
-1.94999830744681
72
1
10
69.5441263568477
20
-1.94999830744681
11
69.083342615295
21
-5.44999999999999
97
0
75
0
76
1
52
0
41
0.0062
77
0
78
1
53
45
43
0
44
0
45
-0.0139193969876572
46
0.0139193969876572
79
0
47
0
98
1
10
0
20
0
0
DIMENSION
5
109
100
AcDbEntity
8
SK2
62
256
6
ByLayer
370
13
48
1
60
0
100
AcDbDimension
2
_U0
10
55.3804
20
-15.663398
30
0
11
27.6902
21
-15.663398
31
0
70
32
71
1
72
1
41
1
210
0
220
0
230
1
3
Standard
100
AcDbAlignedDimension
13
0
23
0
33
0
14
55.3804
24
-5.45
34
0
50
0
100
AcDbRotatedDimension
1001
ACAD
1000
DSTYLE
1002
{
1070
   371
1070
    13
1070
   372
1070
    13
1070
   170
1070
     0
1070
   144
1040
1.0
1070
   277
1070
     2
1070
   278
1070
    44
1070
   146
1040
1.0
1070
   345
1005
16
1070
   347
1005
16
1070
   346
1005
16
1070
   344
1005
0
1070
   343
1005
0
1070
   172
1070
     1
1070
    76
1070
     0
1070
    75
1070
     0
1070
   282
1070
     0
1070
   281
1070
     0
1070
    71
1070
     0
1070
    74
1070
     0
1070
   279
1070
     0
1070
   173
1070
     1
1070
   340
1005
F1
1070
   271
1070
     2
1070
   272
1070
     2
1070
    77
1070
     1
1070
    73
1070
     1
1070
   171
1070
     3
1070
   274
1070
     4
1070
   177
1070
    35
1070
   176
1070
    35
1070
   178
1070
    35
1070
    48
1040
-0.1
1070
    41
1040
3.5
1070
   147
1040
1.75
1070
    42
1040
1.5875
1070
    44
1040
2.0
1070
   140
1040
3.5
1002
}
1001
ACAD_DSTYLE_DIM_LINETYPE
1070
   380
1005
16
1001
ACAD_DSTYLE_DIM_EXT1_LINETYPE
1070
   381
1005
16
1001
ACAD_DSTYLE_DIM_EXT2_LINETYPE
1070
   382
1005
16
0
DIMENSION
5
122
100
AcDbEntity
8
SK2
62
256
6
ByLayer
370
13
48
1
60
0
100
AcDbDimension
2
_U1
10
57
20
-34.692985
30
0
11
6
21
-34.692985
31
0
70
32
71
1
72
1
41
1
210
0
220
0
230
1
3
Standard
100
AcDbAlignedDimension
13
-45
23
-6
33
0
14
57
24
0
34
0
50
0
100
AcDbRotatedDimension
1001
ACAD
1000
DSTYLE
1002
{
1070
   371
1070
    13
1070
   372
1070
    13
1070
   170
1070
     0
1070
   144
1040
1.0
1070
   277
1070
     2
1070
   278
1070
    44
1070
   146
1040
1.0
1070
   345
1005
16
1070
   347
1005
16
1070
   346
1005
16
1070
   344
1005
0
1070
   343
1005
0
1070
   172
1070
     1
1070
    76
1070
     0
1070
    75
1070
     0
1070
   282
1070
     0
1070
   281
1070
     0
1070
    71
1070
     0
1070
    74
1070
     0
1070
   279
1070
     0
1070
   173
1070
     1
1070
   340
1005
F1
1070
   271
1070
     2
1070
   272
1070
     2
1070
    77
1070
     1
1070
    73
1070
     1
1070
   171
1070
     3
1070
   274
1070
     4
1070
   177
1070
    35
1070
   176
1070
    35
1070
   178
1070
    35
1070
    48
1040
-0.1
1070
    41
1040
3.5
1070
   147
1040
1.75
1070
    42
1040
1.5875
1070
    44
1040
2.0
1070
   140
1040
3.5
1002
}
1001
ACAD_DSTYLE_DIM_LINETYPE
1070
   380
1005
16
1001
ACAD_DSTYLE_DIM_EXT1_LINETYPE
1070
   381
1005
16
1001
ACAD_DSTYLE_DIM_EXT2_LINETYPE
1070
   382
1005
16
0
DIMENSION
5
13A
100
AcDbEntity
8
SK2
62
256
6
ByLayer
370
13
48
1
60
0
100
AcDbDimension
2
_U2
10
57
20
17.059119
30
0
11
39.84
21
17.059119
31
0
70
32
71
1
72
1
41
1
210
0
220
0
230
1
3
Standard
100
AcDbAlignedDimension
13
22.68
23
5.45
33
0
14
57
24
0
34
0
50
0
100
AcDbRotatedDimension
1001
ACAD
1000
DSTYLE
1002
{
1070
   371
1070
    13
1070
   372
1070
    13
1070
   170
1070
     0
1070
   144
1040
1.0
1070
   277
1070
     2
1070
   278
1070
    44
1070
   146
1040
1.0
1070
   345
1005
16
1070
   347
1005
16
1070
   346
1005
16
1070
   344
1005
0
1070
   343
1005
0
1070
   172
1070
     1
1070
    76
1070
     0
1070
    75
1070
     0
1070
   282
1070
     0
1070
   281
1070
     0
1070
    71
1070
     0
1070
    74
1070
     0
1070
   279
1070
     0
1070
   173
1070
     1
1070
   340
1005
F1
1070
   271
1070
     2
1070
   272
1070
     2
1070
    77
1070
     1
1070
    73
1070
     1
1070
   171
1070
     3
1070
   274
1070
     4
1070
   177
1070
    35
1070
   176
1070
    35
1070
   178
1070
    35
1070
    48
1040
-0.1
1070
    41
1040
3.5
1070
   147
1040
1.75
1070
    42
1040
1.5875
1070
    44
1040
2.0
1070
   140
1040
3.5
1002
}
1001
ACAD_DSTYLE_DIM_LINETYPE
1070
   380
1005
16
1001
ACAD_DSTYLE_DIM_EXT1_LINETYPE
1070
   381
1005
16
1001
ACAD_DSTYLE_DIM_EXT2_LINETYPE
1070
   382
1005
16
0
DIMENSION
5
152
100
AcDbEntity
8
SK2
62
256
6
ByLayer
370
13
48
1
60
0
100
AcDbDimension
2
_U3
10
55.3804
20
-18.252503
30
0
11
74.333333
21
-18.252503
31
0
70
32
71
1
72
1
41
1
210
0
220
0
230
1
3
Standard
100
AcDbAlignedDimension
13
57
23
0
33
0
14
55.3804
24
-5.45
34
0
50
0
100
AcDbRotatedDimension
1001
ACAD
1000
DSTYLE
1002
{
1070
   371
1070
    13
1070
   372
1070
    13
1070
   170
1070
     0
1070
   144
1040
1.0
1070
   277
1070
     2
1070
   278
1070
    44
1070
   146
1040
1.0
1070
   345
1005
16
1070
   347
1005
16
1070
   346
1005
16
1070
   344
1005
0
1070
   343
1005
0
1070
   172
1070
     1
1070
    76
1070
     0
1070
    75
1070
     0
1070
   282
1070
     0
1070
   281
1070
     0
1070
    71
1070
     0
1070
    74
1070
     0
1070
   279
1070
     0
1070
   173
1070
     1
1070
   340
1005
F1
1070
   271
1070
     2
1070
   272
1070
     2
1070
    77
1070
     1
1070
    73
1070
     1
1070
   171
1070
     3
1070
   274
1070
     4
1070
   177
1070
    35
1070
   176
1070
    35
1070
   178
1070
    35
1070
    48
1040
-0.1
1070
    41
1040
3.5
1070
   147
1040
1.75
1070
    42
1040
1.5875
1070
    44
1040
2.0
1070
   140
1040
3.5
1002
}
1001
ACAD_DSTYLE_DIM_LINETYPE
1070
   380
1005
16
1001
ACAD_DSTYLE_DIM_EXT1_LINETYPE
1070
   381
1005
16
1001
ACAD_DSTYLE_DIM_EXT2_LINETYPE
1070
   382
1005
16
0
DIMENSION
5
16C
100
AcDbEntity
8
SK2
62
256
6
ByLayer
370
13
48
1
60
0
100
AcDbDimension
2
_U4
10
55.3804
20
-24.343428
30
0
11
5.1902
21
-24.343428
31
0
70
32
71
1
72
1
41
1
210
0
220
0
230
1
3
Standard
100
AcDbAlignedDimension
13
-45
23
-6
33
0
14
55.3804
24
-5.45
34
0
50
0
100
AcDbRotatedDimension
1001
ACAD
1000
DSTYLE
1002
{
1070
   371
1070
    13
1070
   372
1070
    13
1070
   170
1070
     0
1070
   144
1040
1.0
1070
   277
1070
     2
1070
   278
1070
    44
1070
   146
1040
1.0
1070
   345
1005
16
1070
   347
1005
16
1070
   346
1005
16
1070
   344
1005
0
1070
   343
1005
0
1070
   172
1070
     1
1070
    76
1070
     0
1070
    75
1070
     0
1070
   282
1070
     0
1070
   281
1070
     0
1070
    71
1070
     0
1070
    74
1070
     0
1070
   279
1070
     0
1070
   173
1070
     1
1070
   340
1005
F1
1070
   271
1070
     2
1070
   272
1070
     2
1070
    77
1070
     1
1070
    73
1070
     1
1070
   171
1070
     3
1070
   274
1070
     4
1070
   177
1070
    35
1070
   176
1070
    35
1070
   178
1070
    35
1070
    48
1040
-0.1
1070
    41
1040
3.5
1070
   147
1040
1.75
1070
    42
1040
1.5875
1070
    44
1040
2.0
1070
   140
1040
3.5
1002
}
1001
ACAD_DSTYLE_DIM_LINETYPE
1070
   380
1005
16
1001
ACAD_DSTYLE_DIM_EXT1_LINETYPE
1070
   381
1005
16
1001
ACAD_DSTYLE_DIM_EXT2_LINETYPE
1070
   382
1005
16
0
ENDSEC
0
SECTION
2
OBJECTS
0
DICTIONARY
5
1f4
330
0
100
AcDbDictionary
280
0
281
1
3
ACAD_GROUP
350
1f5
3
ACAD_MLINESTYLE
350
1f6
0
DICTIONARY
5
1f5
330
0
100
AcDbDictionary
280
0
281
1
0
DICTIONARY
5
1f6
330
0
100
AcDbDictionary
280
0
281
1
3
Standard
350
18
0
MLINESTYLE
5
18
330
1f6
100
AcDbMlineStyle
2
Standard
70
0
3

62
256
51
90
52
90
71
2
49
-0.5
62
256
6
ByLayer
49
0.5
62
256
6
ByLayer
0
RASTERVARIABLES
5
1e2
330

100
AcDbRasterVariables
90
0
70
1
71
1
72
1
0
ENDSEC
0
EOF
