0
SECTION
2
HEADER
9
$ACADVER
1
AC1015
9
$DWGCODEPAGE
3
ANSI_1252
9
$HANDSEED
5
1ff
9
$ANGBASE
50
0
9
$ANGDIR
70
0
9
$ATTMODE
70
1
9
$AUNITS
70
0
9
$AUPREC
70
0
9
$CECOLOR
62
256
9
$CELTSCALE
40
1
9
$CELTYPE
6
ByLayer
9
$CELWEIGHT
370
18
9
$CLAYER
8
0
9
$CMLJUST
70
0
9
$CMLSCALE
40
1
9
$CMLSTYLE
2
Standard
9
$DIMSTYLE
2
Standard
9
$TEXTSIZE
40
0.2
9
$TEXTSTYLE
7
Standard
9
$LUNITS
70
2
9
$LUPREC
70
4
9
$EXTNAMES
290
1
9
$INSUNITS
70
4
9
$LTSCALE
40
1
9
$LWDISPLAY
290
1
9
$PDMODE
70
0
9
$PDSIZE
40
0
9
$PLINEGEN
70
0
0
ENDSEC
0
SECTION
2
CLASSES
0
CLASS
1
RASTERVARIABLES
2
AcDbRasterVariables
3
ISM
90
0
280
0
281
0
0
ENDSEC
0
SECTION
2
TABLES
0
TABLE
2
VPORT
5
1f5
100
AcDbSymbolTable
0
VPORT
5
1
100
AcDbSymbolTableRecord
100
AcDbViewportTableRecord
2
*Active
70
0
10
0
20
0
11
1
21
1
12
-1
22
1
13
0
23
0
14
0.5
24
0.5
15
10
25
10
16
0
26
0
36
1
17
0
27
0
37
0
0
ENDTAB
0
TABLE
2
LTYPE
5
1f6
100
AcDbSymbolTable
0
LTYPE
5
14
100
AcDbSymbolTableRecord
100
AcDbLinetypeTableRecord
70
0
2
ByBlock
3

72
65
73
0
40
0
0
LTYPE
5
15
100
AcDbSymbolTableRecord
100
AcDbLinetypeTableRecord
70
0
2
ByLayer
3

72
65
73
0
40
0
0
LTYPE
5
16
100
AcDbSymbolTableRecord
100
AcDbLinetypeTableRecord
70
0
2
Continuous
3
Solid line
72
65
73
0
40
0
0
LTYPE
5
6E
100
AcDbSymbolTableRecord
100
AcDbLinetypeTableRecord
70
0
2
CENTER
3
____ _ ____ _ ____ _ ____
72
65
73
4
40
47.5
49
22
74
0
49
-8.5
74
0
49
8.5
74
0
49
-8.5
74
0
0
LTYPE
5
6F
100
AcDbSymbolTableRecord
100
AcDbLinetypeTableRecord
70
0
2
DASHED
3
__ __ __ __ __ __ __ __ __
72
65
73
2
40
25.72
49
12.86
74
0
49
-12.86
74
0
0
ENDTAB
0
TABLE
2
LAYER
5
1f7
100
AcDbSymbolTable
0
LAYER
5
10
100
AcDbSymbolTableRecord
100
AcDbLayerTableRecord
2
0
70
0
62
7
6
Continuous
290
1
370
-3
390
0
0
LAYER
5
71
100
AcDbSymbolTableRecord
100
AcDbLayerTableRecord
2
80
70
0
62
-6
6
Continuous
290
1
370
-3
390
0
0
LAYER
5
73
100
AcDbSymbolTableRecord
100
AcDbLayerTableRecord
2
81
70
0
62
-3
6
Continuous
290
1
370
-3
390
0
0
LAYER
5
75
100
AcDbSymbolTableRecord
100
AcDbLayerTableRecord
2
1
70
0
62
4
6
Continuous
290
1
370
-3
390
0
0
LAYER
5
8A
100
AcDbSymbolTableRecord
100
AcDbLayerTableRecord
2
4
70
0
62
-2
6
CENTER
290
1
370
-3
390
0
0
LAYER
5
A3
100
AcDbSymbolTableRecord
100
AcDbLayerTableRecord
2
2
70
0
62
7
6
Continuous
290
1
370
-3
390
0
0
LAYER
5
10A
100
AcDbSymbolTableRecord
100
AcDbLayerTableRecord
2
Defpoints
70
0
62
7
6
Continuous
290
0
370
-3
390
0
0
LAYER
5
1e1
100
AcDbSymbolTableRecord
100
AcDbLayerTableRecord
2
SK1
70
0
62
4
6
Continuous
290
1
370
-3
390
0
0
LAYER
5
1e2
100
AcDbSymbolTableRecord
100
AcDbLayerTableRecord
2
SK4
70
0
62
2
6
CENTER
290
1
370
-3
390
0
0
LAYER
5
1e3
100
AcDbSymbolTableRecord
100
AcDbLayerTableRecord
2
SK2
70
0
62
7
6
Continuous
290
1
370
-3
390
0
0
LAYER
5
1e4
100
AcDbSymbolTableRecord
100
AcDbLayerTableRecord
2
SK6
70
0
62
5
6
Continuous
290
1
370
-3
390
0
0
ENDTAB
0
TABLE
2
STYLE
5
1f8
100
AcDbSymbolTable
0
STYLE
5
11
100
AcDbSymbolTableRecord
100
AcDbTextStyleTableRecord
2
Standard
3
txt
70
0
71
0
40
0
41
1
42
0
50
0
0
STYLE
5
EF
100
AcDbSymbolTableRecord
100
AcDbTextStyleTableRecord
2
iso_b_vert
3
simplex.shx
70
0
71
0
40
0
41
1
42
0
50
0
0
STYLE
5
F0
100
AcDbSymbolTableRecord
100
AcDbTextStyleTableRecord
2
DWGDirectTextStyle
3
simplex
70
0
71
0
40
0
41
1
42
0
50
0
0
ENDTAB
0
TABLE
2
DIMSTYLE
5
1f9
100
AcDbSymbolTable
100
AcDbDimStyleTable
0
DIMSTYLE
105
27
100
AcDbSymbolTableRecord
100
AcDbDimStyleTableRecord
2
Standard
70
0
3
<>
41
0.18
42
0.0625
44
0.18
140
0.18
147
0.09
73
0
74
0
77
1
271
2
275
0
278
52
280
0
340
11
0
ENDTAB
0
TABLE
2
VIEW
5
1fa
100
AcDbSymbolTable
0
ENDTAB
0
TABLE
2
UCS
5
1fb
100
AcDbSymbolTable
0
ENDTAB
0
TABLE
2
APPID
5
1fc
100
AcDbSymbolTable
0
APPID
5
12
100
AcDbSymbolTableRecord
100
AcDbRegAppTableRecord
2
ACAD
70
0
0
APPID
5
106
100
AcDbSymbolTableRecord
100
AcDbRegAppTableRecord
2
ACAD_DSTYLE_DIMBREAK
70
0
0
APPID
5
1A0
100
AcDbSymbolTableRecord
100
AcDbRegAppTableRecord
2
ACAD_DSTYLE_DIM_LINETYPE
70
0
0
APPID
5
1A1
100
AcDbSymbolTableRecord
100
AcDbRegAppTableRecord
2
ACAD_DSTYLE_DIM_EXT1_LINETYPE
70
0
0
APPID
5
1A2
100
AcDbSymbolTableRecord
100
AcDbRegAppTableRecord
2
ACAD_DSTYLE_DIM_EXT2_LINETYPE
70
0
0
APPID
5
1DD
100
AcDbSymbolTableRecord
100
AcDbRegAppTableRecord
2
ACAD_MLEADERVER
70
0
0
ENDTAB
0
TABLE
2
BLOCK_RECORD
5
1fd
100
AcDbSymbolTable
0
BLOCK_RECORD
5
1F
100
AcDbSymbolTableRecord
100
AcDbBlockTableRecord
2
*Model_Space
340
0
70
0
0
BLOCK_RECORD
5
1B
100
AcDbSymbolTableRecord
100
AcDbBlockTableRecord
2
*Paper_Space
340
0
70
0
0
BLOCK_RECORD
5
23
100
AcDbSymbolTableRecord
100
AcDbBlockTableRecord
2
*Paper_Space0
340
0
70
0
0
BLOCK_RECORD
5
10B
100
AcDbSymbolTableRecord
100
AcDbBlockTableRecord
2
*D1
340
0
70
0
0
BLOCK_RECORD
5
117
100
AcDbSymbolTableRecord
100
AcDbBlockTableRecord
2
_U0
340
0
70
0
0
BLOCK_RECORD
5
123
100
AcDbSymbolTableRecord
100
AcDbBlockTableRecord
2
*D3
340
0
70
0
0
BLOCK_RECORD
5
12F
100
AcDbSymbolTableRecord
100
AcDbBlockTableRecord
2
_U1
340
0
70
0
0
BLOCK_RECORD
5
13B
100
AcDbSymbolTableRecord
100
AcDbBlockTableRecord
2
*D5
340
0
70
0
0
BLOCK_RECORD
5
147
100
AcDbSymbolTableRecord
100
AcDbBlockTableRecord
2
_U2
340
0
70
0
0
BLOCK_RECORD
5
153
100
AcDbSymbolTableRecord
100
AcDbBlockTableRecord
2
*D7
340
0
70
0
0
BLOCK_RECORD
5
161
100
AcDbSymbolTableRecord
100
AcDbBlockTableRecord
2
_U3
340
0
70
0
0
BLOCK_RECORD
5
16D
100
AcDbSymbolTableRecord
100
AcDbBlockTableRecord
2
*D9
340
0
70
0
0
BLOCK_RECORD
5
179
100
AcDbSymbolTableRecord
100
AcDbBlockTableRecord
2
_U4
340
0
70
0
0
ENDTAB
0
ENDSEC
0
SECTION
2
BLOCKS
0
BLOCK
5
20
100
AcDbEntity
8
0
100
AcDbBlockBegin
2
*Model_Space
70
0
10
0
20
0
30
0
3
*Model_Space
0
ENDBLK
5
21
100
AcDbEntity
8
0
100
AcDbBlockEnd
0
BLOCK
5
1C
100
AcDbEntity
8
0
100
AcDbBlockBegin
2
*Paper_Space
70
0
10
0
20
0
30
0
3
*Paper_Space
0
ENDBLK
5
1D
100
AcDbEntity
8
0
100
AcDbBlockEnd
0
BLOCK
5
24
100
AcDbEntity
8
0
100
AcDbBlockBegin
2
*Paper_Space0
70
0
10
0
20
0
30
0
3
*Paper_Space0
0
ENDBLK
5
25
100
AcDbEntity
8
0
100
AcDbBlockEnd
0
BLOCK
5
10C
100
AcDbEntity
8
0
100
AcDbBlockBegin
2
*D1
70
1
10
0
20
0
30
0
3
*D1
0
LINE
5
10E
100
AcDbEntity
8
0
62
256
6
ByLayer
370
-2
48
1
60
0
100
AcDbLine
10
0
20
-1.5875
30
0
11
0
21
-15.938398
31
0
39
0
210
0
220
0
230
1
0
LINE
5
10F
100
AcDbEntity
8
0
62
256
6
ByLayer
370
-2
48
1
60
0
100
AcDbLine
10
41.9003
20
-5.3125
30
0
11
41.9003
21
-15.938398
31
0
39
0
210
0
220
0
230
1
0
LINE
5
110
100
AcDbEntity
8
0
62
256
6
ByLayer
370
-2
48
1
60
0
100
AcDbLine
10
3.5
20
-13.938398
30
0
11
38.4003
21
-13.938398
31
0
39
0
210
0
220
0
230
1
0
SOLID
5
111
100
AcDbEntity
8
0
62
256
6
ByLayer
370
-1
48
1
60
0
100
AcDbTrace
10
3.5
20
-13.355065
30
0
11
3.5
21
-14.521732
31
0
12
0
22
-13.938398
32
0
13
0
23
-13.938398
33
0
39
0
210
0
220
0
230
1
0
SOLID
5
112
100
AcDbEntity
8
0
62
256
6
ByLayer
370
-1
48
1
60
0
100
AcDbTrace
10
38.4003
20
-14.521732
30
0
11
38.4003
21
-13.355065
31
0
12
41.9003
22
-13.938398
32
0
13
41.9003
23
-13.938398
33
0
39
0
210
0
220
0
230
1
0
MTEXT
5
113
100
AcDbEntity
8
0
62
256
6
ByLayer
370
18
48
1
60
0
100
AcDbMText
10
20.95015
20
-6.938398
30
0
210
0
220
0
230
1
1
\A1;41.90
40
3.5
41
0
44
1
50
0
71
5
72
5
7
iso_b_vert
0
POINT
5
114
100
AcDbEntity
8
Defpoints
62
0
6
ByLayer
370
-1
48
1
60
0
100
AcDbPoint
10
0
20
0
30
0
39
0
210
0
220
0
230
1
50
360
0
POINT
5
115
100
AcDbEntity
8
Defpoints
62
0
6
ByLayer
370
-1
48
1
60
0
100
AcDbPoint
10
41.9003
20
-3.725
30
0
39
0
210
0
220
0
230
1
50
360
0
POINT
5
116
100
AcDbEntity
8
Defpoints
62
0
6
ByLayer
370
-1
48
1
60
0
100
AcDbPoint
10
41.9003
20
-13.938398
30
0
39
0
210
0
220
0
230
1
50
360
0
ENDBLK
5
10D
100
AcDbEntity
8
0
100
AcDbBlockEnd
0
BLOCK
5
11E
100
AcDbEntity
8
0
100
AcDbBlockBegin
2
_U0
70
0
10
0
20
0
30
0
3
_U0
0
MTEXT
5
118
100
AcDbEntity
8
SK2
62
256
6
ByLayer
370
13
48
1
60
0
100
AcDbMText
10
16.066018
20
-12.905765
30
0
210
0
220
0
230
1
1
\W0.6977;41,90
40
3.5
41
0
44
1.084337
50
0
71
7
72
5
7
iso_b_vert
0
LINE
5
119
100
AcDbEntity
8
SK2
62
256
6
ByLayer
370
13
48
1
60
0
100
AcDbLine
10
0
20
-1.5875
30
0
11
0
21
-15.938398
31
0
39
0
210
0
220
0
230
1
0
LINE
5
11A
100
AcDbEntity
8
SK2
62
256
6
ByLayer
370
13
48
1
60
0
100
AcDbLine
10
41.9003
20
-5.3125
30
0
11
41.9003
21
-15.938398
31
0
39
0
210
0
220
0
230
1
0
LINE
5
11B
100
AcDbEntity
8
SK2
62
256
6
ByLayer
370
13
48
1
60
0
100
AcDbLine
10
0
20
-13.938398
30
0
11
41.9003
21
-13.938398
31
0
39
0
210
0
220
0
230
1
0
SOLID
5
11C
100
AcDbEntity
8
SK2
62
256
6
ByLayer
370
18
48
1
60
0
100
AcDbTrace
10
0
20
-13.938398
30
0
11
3.499998
21
-13.477615
31
0
12
3.500002
22
-14.399182
32
0
13
3.500002
23
-14.399182
33
0
39
0
210
0
220
0
230
1
0
SOLID
5
11D
100
AcDbEntity
8
SK2
62
256
6
ByLayer
370
18
48
1
60
0
100
AcDbTrace
10
41.9003
20
-13.938398
30
0
11
38.400302
21
-14.399182
31
0
12
38.400298
22
-13.477615
32
0
13
38.400298
23
-13.477615
33
0
39
0
210
0
220
0
230
1
0
ENDBLK
5
11F
100
AcDbEntity
8
0
100
AcDbBlockEnd
0
BLOCK
5
124
100
AcDbEntity
8
0
100
AcDbBlockBegin
2
*D3
70
1
10
0
20
0
30
0
3
*D3
0
LINE
5
126
100
AcDbEntity
8
0
62
256
6
ByLayer
370
-2
48
1
60
0
100
AcDbLine
10
-36
20
-5.5875
30
0
11
-36
21
-34.692985
31
0
39
0
210
0
220
0
230
1
0
LINE
5
127
100
AcDbEntity
8
0
62
256
6
ByLayer
370
-2
48
1
60
0
100
AcDbLine
10
43
20
-1.5875
30
0
11
43
21
-34.692985
31
0
39
0
210
0
220
0
230
1
0
LINE
5
128
100
AcDbEntity
8
0
62
256
6
ByLayer
370
-2
48
1
60
0
100
AcDbLine
10
-32.5
20
-32.692985
30
0
11
39.5
21
-32.692985
31
0
39
0
210
0
220
0
230
1
0
SOLID
5
129
100
AcDbEntity
8
0
62
256
6
ByLayer
370
-1
48
1
60
0
100
AcDbTrace
10
-32.5
20
-32.109652
30
0
11
-32.5
21
-33.276319
31
0
12
-36
22
-32.692985
32
0
13
-36
23
-32.692985
33
0
39
0
210
0
220
0
230
1
0
SOLID
5
12A
100
AcDbEntity
8
0
62
256
6
ByLayer
370
-1
48
1
60
0
100
AcDbTrace
10
39.5
20
-33.276319
30
0
11
39.5
21
-32.109652
31
0
12
43
22
-32.692985
32
0
13
43
23
-32.692985
33
0
39
0
210
0
220
0
230
1
0
MTEXT
5
12B
100
AcDbEntity
8
0
62
256
6
ByLayer
370
18
48
1
60
0
100
AcDbMText
10
3.5
20
-25.692985
30
0
210
0
220
0
230
1
1
\A1;79.00
40
3.5
41
0
44
1
50
0
71
5
72
5
7
iso_b_vert
0
POINT
5
12C
100
AcDbEntity
8
Defpoints
62
0
6
ByLayer
370
-1
48
1
60
0
100
AcDbPoint
10
-36
20
-4
30
0
39
0
210
0
220
0
230
1
50
360
0
POINT
5
12D
100
AcDbEntity
8
Defpoints
62
0
6
ByLayer
370
-1
48
1
60
0
100
AcDbPoint
10
43
20
0
30
0
39
0
210
0
220
0
230
1
50
360
0
POINT
5
12E
100
AcDbEntity
8
Defpoints
62
0
6
ByLayer
370
-1
48
1
60
0
100
AcDbPoint
10
43
20
-32.692985
30
0
39
0
210
0
220
0
230
1
50
360
0
ENDBLK
5
125
100
AcDbEntity
8
0
100
AcDbBlockEnd
0
BLOCK
5
136
100
AcDbEntity
8
0
100
AcDbBlockBegin
2
_U1
70
0
10
0
20
0
30
0
3
_U1
0
MTEXT
5
130
100
AcDbEntity
8
SK2
62
256
6
ByLayer
370
13
48
1
60
0
100
AcDbMText
10
-1.637299
20
-31.660352
30
0
210
0
220
0
230
1
1
\W0.7317;79,00
40
3.5
41
0
44
1.084337
50
0
71
7
72
5
7
iso_b_vert
0
LINE
5
131
100
AcDbEntity
8
SK2
62
256
6
ByLayer
370
13
48
1
60
0
100
AcDbLine
10
-36
20
-5.5875
30
0
11
-36
21
-34.692985
31
0
39
0
210
0
220
0
230
1
0
LINE
5
132
100
AcDbEntity
8
SK2
62
256
6
ByLayer
370
13
48
1
60
0
100
AcDbLine
10
43
20
-1.5875
30
0
11
43
21
-34.692985
31
0
39
0
210
0
220
0
230
1
0
LINE
5
133
100
AcDbEntity
8
SK2
62
256
6
ByLayer
370
13
48
1
60
0
100
AcDbLine
10
-36
20
-32.692985
30
0
11
43
21
-32.692985
31
0
39
0
210
0
220
0
230
1
0
SOLID
5
134
100
AcDbEntity
8
SK2
62
256
6
ByLayer
370
18
48
1
60
0
100
AcDbTrace
10
-36
20
-32.692985
30
0
11
-32.500002
21
-32.232202
31
0
12
-32.499998
22
-33.153769
32
0
13
-32.499998
23
-33.153769
33
0
39
0
210
0
220
0
230
1
0
SOLID
5
135
100
AcDbEntity
8
SK2
62
256
6
ByLayer
370
18
48
1
60
0
100
AcDbTrace
10
43
20
-32.692985
30
0
11
39.500002
21
-33.153769
31
0
12
39.499998
22
-32.232202
32
0
13
39.499998
23
-32.232202
33
0
39
0
210
0
220
0
230
1
0
ENDBLK
5
137
100
AcDbEntity
8
0
100
AcDbBlockEnd
0
BLOCK
5
13C
100
AcDbEntity
8
0
100
AcDbBlockBegin
2
*D5
70
1
10
0
20
0
30
0
3
*D5
0
LINE
5
13E
100
AcDbEntity
8
0
62
256
6
ByLayer
370
-2
48
1
60
0
100
AcDbLine
10
19.55
20
5.3125
30
0
11
19.55
21
17.334119
31
0
39
0
210
0
220
0
230
1
0
LINE
5
13F
100
AcDbEntity
8
0
62
256
6
ByLayer
370
-2
48
1
60
0
100
AcDbLine
10
43
20
1.5875
30
0
11
43
21
17.334119
31
0
39
0
210
0
220
0
230
1
0
LINE
5
140
100
AcDbEntity
8
0
62
256
6
ByLayer
370
-2
48
1
60
0
100
AcDbLine
10
23.05
20
15.334119
30
0
11
39.5
21
15.334119
31
0
39
0
210
0
220
0
230
1
0
SOLID
5
141
100
AcDbEntity
8
0
62
256
6
ByLayer
370
-1
48
1
60
0
100
AcDbTrace
10
23.05
20
15.917453
30
0
11
23.05
21
14.750786
31
0
12
19.55
22
15.334119
32
0
13
19.55
23
15.334119
33
0
39
0
210
0
220
0
230
1
0
SOLID
5
142
100
AcDbEntity
8
0
62
256
6
ByLayer
370
-1
48
1
60
0
100
AcDbTrace
10
39.5
20
14.750786
30
0
11
39.5
21
15.917453
31
0
12
43
22
15.334119
32
0
13
43
23
15.334119
33
0
39
0
210
0
220
0
230
1
0
MTEXT
5
143
100
AcDbEntity
8
0
62
256
6
ByLayer
370
18
48
1
60
0
100
AcDbMText
10
31.275
20
22.334119
30
0
210
0
220
0
230
1
1
\A1;23.45
40
3.5
41
0
44
1
50
0
71
5
72
5
7
iso_b_vert
0
POINT
5
144
100
AcDbEntity
8
Defpoints
62
0
6
ByLayer
370
-1
48
1
60
0
100
AcDbPoint
10
19.55
20
3.725
30
0
39
0
210
0
220
0
230
1
50
360
0
POINT
5
145
100
AcDbEntity
8
Defpoints
62
0
6
ByLayer
370
-1
48
1
60
0
100
AcDbPoint
10
43
20
0
30
0
39
0
210
0
220
0
230
1
50
360
0
POINT
5
146
100
AcDbEntity
8
Defpoints
62
0
6
ByLayer
370
-1
48
1
60
0
100
AcDbPoint
10
43
20
15.334119
30
0
39
0
210
0
220
0
230
1
50
360
0
ENDBLK
5
13D
100
AcDbEntity
8
0
100
AcDbBlockEnd
0
BLOCK
5
14E
100
AcDbEntity
8
0
100
AcDbBlockBegin
2
_U2
70
0
10
0
20
0
30
0
3
_U2
0
MTEXT
5
148
100
AcDbEntity
8
SK2
62
256
6
ByLayer
370
13
48
1
60
0
100
AcDbMText
10
25.953435
20
16.366753
30
0
210
0
220
0
230
1
1
\W0.7581;23,45
40
3.5
41
0
44
1.084337
50
0
71
7
72
5
7
iso_b_vert
0
LINE
5
149
100
AcDbEntity
8
SK2
62
256
6
ByLayer
370
13
48
1
60
0
100
AcDbLine
10
19.55
20
5.3125
30
0
11
19.55
21
17.334119
31
0
39
0
210
0
220
0
230
1
0
LINE
5
14A
100
AcDbEntity
8
SK2
62
256
6
ByLayer
370
13
48
1
60
0
100
AcDbLine
10
43
20
1.5875
30
0
11
43
21
17.334119
31
0
39
0
210
0
220
0
230
1
0
LINE
5
14B
100
AcDbEntity
8
SK2
62
256
6
ByLayer
370
13
48
1
60
0
100
AcDbLine
10
19.55
20
15.334119
30
0
11
43
21
15.334119
31
0
39
0
210
0
220
0
230
1
0
SOLID
5
14C
100
AcDbEntity
8
SK2
62
256
6
ByLayer
370
18
48
1
60
0
100
AcDbTrace
10
19.55
20
15.334119
30
0
11
23.049998
21
15.794903
31
0
12
23.050002
22
14.873335
32
0
13
23.050002
23
14.873335
33
0
39
0
210
0
220
0
230
1
0
SOLID
5
14D
100
AcDbEntity
8
SK2
62
256
6
ByLayer
370
18
48
1
60
0
100
AcDbTrace
10
43
20
15.334119
30
0
11
39.500002
21
14.873335
31
0
12
39.499998
22
15.794903
32
0
13
39.499998
23
15.794903
33
0
39
0
210
0
220
0
230
1
0
ENDBLK
5
14F
100
AcDbEntity
8
0
100
AcDbBlockEnd
0
BLOCK
5
154
100
AcDbEntity
8
0
100
AcDbBlockBegin
2
*D7
70
1
10
0
20
0
30
0
3
*D7
0
LINE
5
156
100
AcDbEntity
8
0
62
256
6
ByLayer
370
-2
48
1
60
0
100
AcDbLine
10
43
20
-1.5875
30
0
11
43
21
-18.527503
31
0
39
0
210
0
220
0
230
1
0
LINE
5
157
100
AcDbEntity
8
0
62
256
6
ByLayer
370
-2
48
1
60
0
100
AcDbLine
10
41.9003
20
-5.3125
30
0
11
41.9003
21
-18.527503
31
0
39
0
210
0
220
0
230
1
0
LINE
5
158
100
AcDbEntity
8
0
62
256
6
ByLayer
370
-2
48
1
60
0
100
AcDbLine
10
43
20
-16.527503
30
0
11
70.666667
21
-16.527503
31
0
39
0
210
0
220
0
230
1
0
LINE
5
159
100
AcDbEntity
8
0
62
256
6
ByLayer
370
-2
48
1
60
0
100
AcDbLine
10
46.5
20
-16.527503
30
0
11
50
21
-16.527503
31
0
39
0
210
0
220
0
230
1
0
LINE
5
15A
100
AcDbEntity
8
0
62
256
6
ByLayer
370
-2
48
1
60
0
100
AcDbLine
10
38.4003
20
-16.527503
30
0
11
34.9003
21
-16.527503
31
0
39
0
210
0
220
0
230
1
0
SOLID
5
15B
100
AcDbEntity
8
0
62
256
6
ByLayer
370
-1
48
1
60
0
100
AcDbTrace
10
46.5
20
-15.94417
30
0
11
46.5
21
-17.110837
31
0
12
43
22
-16.527503
32
0
13
43
23
-16.527503
33
0
39
0
210
0
220
0
230
1
0
SOLID
5
15C
100
AcDbEntity
8
0
62
256
6
ByLayer
370
-1
48
1
60
0
100
AcDbTrace
10
38.4003
20
-17.110837
30
0
11
38.4003
21
-15.94417
31
0
12
41.9003
22
-16.527503
32
0
13
41.9003
23
-16.527503
33
0
39
0
210
0
220
0
230
1
0
MTEXT
5
15D
100
AcDbEntity
8
0
62
256
6
ByLayer
370
18
48
1
60
0
100
AcDbMText
10
60.333333
20
-9.527503
30
0
210
0
220
0
230
1
1
\A1;1.10
40
3.5
41
0
44
1
50
0
71
5
72
5
7
iso_b_vert
0
POINT
5
15E
100
AcDbEntity
8
Defpoints
62
0
6
ByLayer
370
-1
48
1
60
0
100
AcDbPoint
10
43
20
0
30
0
39
0
210
0
220
0
230
1
50
360
0
POINT
5
15F
100
AcDbEntity
8
Defpoints
62
0
6
ByLayer
370
-1
48
1
60
0
100
AcDbPoint
10
41.9003
20
-3.725
30
0
39
0
210
0
220
0
230
1
50
360
0
POINT
5
160
100
AcDbEntity
8
Defpoints
62
0
6
ByLayer
370
-1
48
1
60
0
100
AcDbPoint
10
41.9003
20
-16.527503
30
0
39
0
210
0
220
0
230
1
50
360
0
ENDBLK
5
155
100
AcDbEntity
8
0
100
AcDbBlockEnd
0
BLOCK
5
168
100
AcDbEntity
8
0
100
AcDbBlockBegin
2
_U3
70
0
10
0
20
0
30
0
3
_U3
0
MTEXT
5
162
100
AcDbEntity
8
SK2
62
256
6
ByLayer
370
13
48
1
60
0
100
AcDbMText
10
50.026726
20
-15.49487
30
0
210
0
220
0
230
1
1
\W0.5583;1,10
40
3.5
41
0
44
1.084337
50
0
71
7
72
5
7
iso_b_vert
0
LINE
5
163
100
AcDbEntity
8
SK2
62
256
6
ByLayer
370
13
48
1
60
0
100
AcDbLine
10
43
20
-1.5875
30
0
11
43
21
-18.527503
31
0
39
0
210
0
220
0
230
1
0
LINE
5
164
100
AcDbEntity
8
SK2
62
256
6
ByLayer
370
13
48
1
60
0
100
AcDbLine
10
41.9003
20
-5.3125
30
0
11
41.9003
21
-18.527503
31
0
39
0
210
0
220
0
230
1
0
LINE
5
165
100
AcDbEntity
8
SK2
62
256
6
ByLayer
370
13
48
1
60
0
100
AcDbLine
10
33.1503
20
-16.527503
30
0
11
56.121624
21
-16.527503
31
0
39
0
210
0
220
0
230
1
0
SOLID
5
166
100
AcDbEntity
8
SK2
62
256
6
ByLayer
370
18
48
1
60
0
100
AcDbTrace
10
43
20
-16.527503
30
0
11
46.499998
21
-16.066719
31
0
12
46.500002
22
-16.988287
32
0
13
46.500002
23
-16.988287
33
0
39
0
210
0
220
0
230
1
0
SOLID
5
167
100
AcDbEntity
8
SK2
62
256
6
ByLayer
370
18
48
1
60
0
100
AcDbTrace
10
41.9003
20
-16.527503
30
0
11
38.400302
21
-16.988287
31
0
12
38.400298
22
-16.066719
32
0
13
38.400298
23
-16.066719
33
0
39
0
210
0
220
0
230
1
0
ENDBLK
5
169
100
AcDbEntity
8
0
100
AcDbBlockEnd
0
BLOCK
5
16E
100
AcDbEntity
8
0
100
AcDbBlockBegin
2
*D9
70
1
10
0
20
0
30
0
3
*D9
0
LINE
5
170
100
AcDbEntity
8
0
62
256
6
ByLayer
370
-2
48
1
60
0
100
AcDbLine
10
-36
20
-5.5875
30
0
11
-36
21
-24.343428
31
0
39
0
210
0
220
0
230
1
0
LINE
5
171
100
AcDbEntity
8
0
62
256
6
ByLayer
370
-2
48
1
60
0
100
AcDbLine
10
41.9003
20
-5.3125
30
0
11
41.9003
21
-24.343428
31
0
39
0
210
0
220
0
230
1
0
LINE
5
172
100
AcDbEntity
8
0
62
256
6
ByLayer
370
-2
48
1
60
0
100
AcDbLine
10
-32.5
20
-22.343428
30
0
11
38.4003
21
-22.343428
31
0
39
0
210
0
220
0
230
1
0
SOLID
5
173
100
AcDbEntity
8
0
62
256
6
ByLayer
370
-1
48
1
60
0
100
AcDbTrace
10
-32.5
20
-21.760095
30
0
11
-32.5
21
-22.926762
31
0
12
-36
22
-22.343428
32
0
13
-36
23
-22.343428
33
0
39
0
210
0
220
0
230
1
0
SOLID
5
174
100
AcDbEntity
8
0
62
256
6
ByLayer
370
-1
48
1
60
0
100
AcDbTrace
10
38.4003
20
-22.926762
30
0
11
38.4003
21
-21.760095
31
0
12
41.9003
22
-22.343428
32
0
13
41.9003
23
-22.343428
33
0
39
0
210
0
220
0
230
1
0
MTEXT
5
175
100
AcDbEntity
8
0
62
256
6
ByLayer
370
18
48
1
60
0
100
AcDbMText
10
2.95015
20
-15.343428
30
0
210
0
220
0
230
1
1
\A1;77.90
40
3.5
41
0
44
1
50
0
71
5
72
5
7
iso_b_vert
0
POINT
5
176
100
AcDbEntity
8
Defpoints
62
0
6
ByLayer
370
-1
48
1
60
0
100
AcDbPoint
10
-36
20
-4
30
0
39
0
210
0
220
0
230
1
50
360
0
POINT
5
177
100
AcDbEntity
8
Defpoints
62
0
6
ByLayer
370
-1
48
1
60
0
100
AcDbPoint
10
41.9003
20
-3.725
30
0
39
0
210
0
220
0
230
1
50
360
0
POINT
5
178
100
AcDbEntity
8
Defpoints
62
0
6
ByLayer
370
-1
48
1
60
0
100
AcDbPoint
10
41.9003
20
-22.343428
30
0
39
0
210
0
220
0
230
1
50
360
0
ENDBLK
5
16F
100
AcDbEntity
8
0
100
AcDbBlockEnd
0
BLOCK
5
180
100
AcDbEntity
8
0
100
AcDbBlockBegin
2
_U4
70
0
10
0
20
0
30
0
3
_U4
0
MTEXT
5
17A
100
AcDbEntity
8
SK2
62
256
6
ByLayer
370
13
48
1
60
0
100
AcDbMText
10
-2.187149
20
-21.310795
30
0
210
0
220
0
230
1
1
\W0.7317;77,90
40
3.5
41
0
44
1.084337
50
0
71
7
72
5
7
iso_b_vert
0
LINE
5
17B
100
AcDbEntity
8
SK2
62
256
6
ByLayer
370
13
48
1
60
0
100
AcDbLine
10
-36
20
-5.5875
30
0
11
-36
21
-24.343428
31
0
39
0
210
0
220
0
230
1
0
LINE
5
17C
100
AcDbEntity
8
SK2
62
256
6
ByLayer
370
13
48
1
60
0
100
AcDbLine
10
41.9003
20
-5.3125
30
0
11
41.9003
21
-24.343428
31
0
39
0
210
0
220
0
230
1
0
LINE
5
17D
100
AcDbEntity
8
SK2
62
256
6
ByLayer
370
13
48
1
60
0
100
AcDbLine
10
-36
20
-22.343428
30
0
11
41.9003
21
-22.343428
31
0
39
0
210
0
220
0
230
1
0
SOLID
5
17E
100
AcDbEntity
8
SK2
62
256
6
ByLayer
370
18
48
1
60
0
100
AcDbTrace
10
-36
20
-22.343428
30
0
11
-32.500002
21
-21.882645
31
0
12
-32.499998
22
-22.804212
32
0
13
-32.499998
23
-22.804212
33
0
39
0
210
0
220
0
230
1
0
SOLID
5
17F
100
AcDbEntity
8
SK2
62
256
6
ByLayer
370
18
48
1
60
0
100
AcDbTrace
10
41.9003
20
-22.343428
30
0
11
38.400302
21
-22.804212
31
0
12
38.400298
22
-21.882645
32
0
13
38.400298
23
-21.882645
33
0
39
0
210
0
220
0
230
1
0
ENDBLK
5
181
100
AcDbEntity
8
0
100
AcDbBlockEnd
0
ENDSEC
0
SECTION
2
ENTITIES
0
ARC
5
AC
100
AcDbEntity
8
1
62
256
6
ByLayer
370
18
48
1
60
0
100
AcDbCircle
39
0
10
0.933558
20
-4.499411
30
0
40
0.800000000000001
210
0
220
0
230
1
100
AcDbArc
50
89.96419
51
125.695259
0
ARC
5
AD
100
AcDbEntity
8
1
62
256
6
ByLayer
370
18
48
1
60
0
100
AcDbCircle
39
0
10
0.933558
20
4.499411
30
0
40
0.800000000000001
210
0
220
0
230
1
100
AcDbArc
50
234.304741
51
270.03581
0
ARC
5
AE
100
AcDbEntity
8
1
62
256
6
ByLayer
370
18
48
1
60
0
100
AcDbCircle
39
0
10
0
20
-3.2
30
0
40
0.8
210
0
220
0
230
1
100
AcDbArc
50
270
51
305.695259
0
ARC
5
AF
100
AcDbEntity
8
1
62
256
6
ByLayer
370
18
48
1
60
0
100
AcDbCircle
39
0
10
0
20
3.2
30
0
40
0.8
210
0
220
0
230
1
100
AcDbArc
50
54.304741
51
90
0
ELLIPSE
5
B0
100
AcDbEntity
8
1
62
256
6
ByLayer
370
18
48
1
60
0
100
AcDbEllipse
10
4.25
20
3.765675
30
0
11
0.25
21
0
31
0
210
0
220
0
230
1
40
1
41
-2.83113743470589
42
-1.56645595180083
0
ELLIPSE
5
B1
100
AcDbEntity
8
1
62
256
6
ByLayer
370
18
48
1
60
0
100
AcDbEllipse
10
4.25
20
-3.765675
30
0
11
0.25
21
0
31
0
210
0
220
0
230
1
40
1
41
1.57127611417931
42
2.83098849451615
0
POINT
5
70
100
AcDbEntity
8
80
62
256
6
ByLayer
370
18
48
1
60
0
100
AcDbPoint
10
0
20
0
30
0
39
0
210
0
220
0
230
1
50
360
0
POINT
5
72
100
AcDbEntity
8
81
62
256
6
ByLayer
370
18
48
1
60
0
100
AcDbPoint
10
43
20
0
30
0
39
0
210
0
220
0
230
1
50
360
0
POINT
5
74
100
AcDbEntity
8
1
62
256
6
ByLayer
370
18
48
1
60
1
100
AcDbPoint
10
41.9003
20
-3.725
30
0
39
0
210
0
220
0
230
1
50
360
0
POINT
5
76
100
AcDbEntity
8
1
62
256
6
ByLayer
370
18
48
1
60
1
100
AcDbPoint
10
-36
20
-4
30
0
39
0
210
0
220
0
230
1
50
360
0
POINT
5
77
100
AcDbEntity
8
1
62
256
6
ByLayer
370
18
48
1
60
1
100
AcDbPoint
10
19.55
20
3.725
30
0
39
0
210
0
220
0
230
1
50
360
0
POINT
5
78
100
AcDbEntity
8
1
62
256
6
ByLayer
370
18
48
1
60
1
100
AcDbPoint
10
41.9003
20
-3.725
30
0
39
0
210
0
220
0
230
1
50
360
0
POINT
5
79
100
AcDbEntity
8
1
62
256
6
ByLayer
370
18
48
1
60
1
100
AcDbPoint
10
-36
20
-4
30
0
39
0
210
0
220
0
230
1
50
360
0
POINT
5
7A
100
AcDbEntity
8
1
62
256
6
ByLayer
370
18
48
1
60
1
100
AcDbPoint
10
41.9003
20
-3.725
30
0
39
0
210
0
220
0
230
1
50
360
0
SPLINE
5
B2
100
AcDbEntity
8
SK1
62
256
6
ByLayer
370
18
48
1
60
0
100
AcDbSpline
70
4
71
3
72
12
73
8
40
0
40
0
40
0
40
0
40
0.499999999999999
40
0.499999999999999
40
0.75
40
0.75
40
1
40
1
40
1
40
1
41
1
10
-35.5
20
2.25418187100894
30
0
41
1
10
-35.4764535706457
20
2.27448468548235
30
0
41
1
10
-35.453758325367
20
2.29997951316403
30
0
41
1
10
-35.4256589034923
20
2.3417154872439
30
0
41
1
10
-35.4170915256394
20
2.35658617233122
30
0
41
1
10
-35.4042768359918
20
2.38595113847396
30
0
41
1
10
-35.4
20
2.40079486282048
30
0
41
1
10
-35.4
20
2.41260590507133
30
0
0
SPLINE
5
B3
100
AcDbEntity
8
SK1
62
256
6
ByLayer
370
18
48
1
60
0
100
AcDbSpline
70
4
71
3
72
8
73
4
40
0
40
0
40
0
40
0
40
1
40
1
40
1
40
1
41
1
10
-36
20
1.82085304921566
30
0
41
1
10
-35.833864901996
20
1.96571072786131
30
0
41
1
10
-35.6671143327762
20
2.11008820639645
30
0
41
1
10
-35.5
20
2.254181871009
30
0
0
SPLINE
5
B4
100
AcDbEntity
8
SK1
62
256
6
ByLayer
370
18
48
1
60
0
100
AcDbSpline
70
4
71
3
72
8
73
4
40
0
40
0
40
0
40
0
40
1
40
1
40
1
40
1
41
1
10
-35.5
20
3.07010781766164
30
0
41
1
10
-35.6671090525636
20
2.92601870589124
30
0
41
1
10
-35.8338586684629
20
2.78164210969979
30
0
41
1
10
-36
20
2.6367789958683
30
0
0
SPLINE
5
B5
100
AcDbEntity
8
SK1
62
256
6
ByLayer
370
18
48
1
60
0
100
AcDbSpline
70
4
71
3
72
12
73
8
40
0
40
0
40
0
40
0
40
0.25
40
0.25
40
0.500000000000001
40
0.500000000000001
40
1
40
1
40
1
40
1
41
1
10
-35.4
20
3.11974172550364
30
0
41
1
10
-35.4
20
3.12605176128659
30
0
41
1
10
-35.4042405317345
20
3.1281675445376
30
0
41
1
10
-35.4170629445097
20
3.12650498169714
30
0
41
1
10
-35.4255309618335
20
3.12290408688338
30
0
41
1
10
-35.4538111153162
20
3.10721334996617
30
0
41
1
10
-35.4764597265187
20
3.09040532425829
30
0
41
1
10
-35.5
20
3.07010781766172
30
0
0
SPLINE
5
B6
100
AcDbEntity
8
1
62
256
6
ByLayer
370
13
48
1
60
0
100
AcDbSpline
70
4
71
3
72
18
73
14
40
0
40
0
40
0
40
0
40
0.135738182088322
40
0.135738182088322
40
0.279781818406935
40
0.279781818406935
40
0.423825454725548
40
0.423825454725548
40
0.711912727362774
40
0.711912727362774
40
0.855956363681387
40
0.855956363681387
40
1
40
1
40
1
40
1
41
1
10
4.25048638785887
20
-3.51567483733908
30
0
41
1
10
4.25049384246446
20
-3.51514311656462
30
0
41
1
10
4.25050206858072
20
-3.50958005866101
30
0
41
1
10
4.25052086006011
20
-3.48778524210189
30
0
41
1
10
4.25053156889575
20
-3.47078982851829
30
0
41
1
10
4.2505548701472
20
-3.42538735722135
30
0
41
1
10
4.25056735472998
20
-3.39722183536688
30
0
41
1
10
4.25060701310633
20
-3.29687485127863
30
0
41
1
10
4.25063645764223
20
-3.2089929884113
30
0
41
1
10
4.25068283980028
20
-3.04504718770036
30
0
41
1
10
4.25069870435274
20
-2.98474352898773
30
0
41
1
10
4.25072982121557
20
-2.8558940312133
30
0
41
1
10
4.25074515295807
20
-2.78709765920678
30
0
41
1
10
4.25075990100302
20
-2.71401190951971
30
0
0
SPLINE
5
B7
100
AcDbEntity
8
1
62
256
6
ByLayer
370
18
48
1
60
0
100
AcDbSpline
70
4
71
3
72
19
73
15
40
0
40
0
40
0
40
0
40
0.22904544486847
40
0.22904544486847
40
0.458090889736939
40
0.458090889736939
40
0.572613612171174
40
0.572613612171174
40
0.687136334605409
40
0.801659057039644
40
0.801659057039644
40
0.916181779473879
40
0.916181779473879
40
1
40
1
40
1
40
1
41
1
10
4.008348468718
20
2.42715157558143
30
0
41
1
10
4.00835964593304
20
2.60990132088401
30
0
41
1
10
4.00836825220719
20
2.77728468523188
30
0
41
1
10
4.00838185171406
20
3.07103381363473
30
0
41
1
10
4.0083869349956
20
3.19883945731377
30
0
41
1
10
4.00839352130575
20
3.3613389165447
30
0
41
1
10
4.00839554270263
20
3.41057555288944
30
0
41
1
10
4.00839939812636
20
3.4970420434299
30
0
41
1
10
4.00840309168217
20
3.57215043226424
30
0
41
1
10
4.00840691181941
20
3.62492294325455
30
0
41
1
10
4.00841099093503
20
3.66639943041272
30
0
41
1
10
4.00841317005825
20
3.68152435377354
30
0
41
1
10
4.00841727696266
20
3.69739840693751
30
0
41
1
10
4.00841910899302
20
3.70093368963447
30
0
41
1
10
4.00842105352407
20
3.70133257111473
30
0
0
SPLINE
5
B8
100
AcDbEntity
8
1
62
256
6
ByLayer
370
18
48
1
60
0
100
AcDbSpline
70
4
71
3
72
39
73
35
40
0
40
0
40
0
40
0
40
0.125
40
0.125
40
0.25
40
0.25
40
0.375000000000001
40
0.375000000000001
40
0.500000000000001
40
0.500000000000001
40
0.625000000000001
40
0.625000000000001
40
0.750000000000001
40
0.750000000000001
40
0.812500000000001
40
0.812500000000001
40
0.843750000000001
40
0.843750000000001
40
0.859375000000001
40
0.859375000000001
40
0.867187500000001
40
0.867187500000001
40
0.875000000000001
40
0.875000000000001
40
0.878906250000001
40
0.878906250000001
40
0.882812500000001
40
0.882812500000001
40
0.890625000000001
40
0.906250000000001
40
0.906250000000001
40
0.937500000000001
40
0.937500000000001
40
1
40
1
40
1
40
1
41
1
10
38.2173338275707
20
1.38126338071055
30
0
41
1
10
38.3630268043245
20
1.24855282490489
30
0
41
1
10
38.5130931994237
20
1.12475440868741
30
0
41
1
10
38.8213602579187
20
0.893733565280172
30
0
41
1
10
38.9798408741307
20
0.786864056452686
30
0
41
1
10
39.3054514178049
20
0.591629234147177
30
0
41
1
10
39.469379076688
20
0.505058967457245
30
0
41
1
10
39.7995227843207
20
0.354442013201407
30
0
41
1
10
39.9657433248118
20
0.290439535802051
30
0
41
1
10
40.3007622058417
20
0.187806692720727
30
0
41
1
10
40.4695201649508
20
0.148778871018209
30
0
41
1
10
40.810025625098
20
0.10014792712704
30
0
41
1
10
40.9787070993415
20
0.09067903656981
30
0
41
1
10
41.2265170889783
20
0.104885558607606
30
0
41
1
10
41.3085447345574
20
0.11437950643122
30
0
41
1
10
41.4295835257258
20
0.135970272155646
30
0
41
1
10
41.4695950273218
20
0.144388913136908
30
0
41
1
10
41.529010738367
20
0.158933837554571
30
0
41
1
10
41.548713885
20
0.164102821259235
30
0
41
1
10
41.5780973437439
20
0.172349822023847
30
0
41
1
10
41.5880870294624
20
0.174679354204869
30
0
41
1
10
41.6068908273973
20
0.182010696795487
30
0
41
1
10
41.615695863227
20
0.187515489490494
30
0
41
1
10
41.6254753184016
20
0.200151126297214
30
0
41
1
10
41.6280806716609
20
0.205093335387659
30
0
41
1
10
41.6312613705997
20
0.216326156350306
30
0
41
1
10
41.6319247094873
20
0.222485171428502
30
0
41
1
10
41.63361197258
20
0.240813421212806
30
0
41
1
10
41.6367713700921
20
0.277549248327148
30
0
41
1
10
41.6392997713456
20
0.314509285649564
30
0
41
1
10
41.6435513159332
20
0.388632192001921
30
0
41
1
10
41.6453157351571
20
0.438347120653958
30
0
41
1
10
41.6477022658868
20
0.588305989768912
30
0
41
1
10
41.6454046196936
20
0.689297441636285
30
0
41
1
10
41.639986114355
20
0.790234123652027
30
0
0
SPLINE
5
B9
100
AcDbEntity
8
1
62
256
6
ByLayer
370
18
48
1
60
0
100
AcDbSpline
70
4
71
3
72
10
73
6
40
0
40
0
40
0
40
0
40
0.915513030800655
40
0.915513030800655
40
1
40
1
40
1
40
1
41
1
10
10.0496257921625
20
3.4151713433391
30
0
41
1
10
9.5496713237635
20
3.47436190794116
30
0
41
1
10
9.05687319014794
20
3.51148944081314
30
0
41
1
10
8.52044754351695
20
3.51774004221031
30
0
41
1
10
8.47516342080527
20
3.51803191033503
30
0
41
1
10
8.42991407072748
20
3.51808381873678
30
0
0
SPLINE
5
BA
100
AcDbEntity
8
1
62
256
6
ByLayer
370
18
48
1
60
0
100
AcDbSpline
70
4
71
3
72
16
73
12
40
0
40
0
40
0
40
0
40
0.269216375745926
40
0.269216375745926
40
0.403824563618889
40
0.403824563618889
40
0.538432751491851
40
0.538432751491851
40
0.807649127237777
40
0.807649127237777
40
1
40
1
40
1
40
1
41
1
10
41.4498216894578
20
-2.79198393452586
30
0
41
1
10
41.4495562125903
20
-2.91677730290883
30
0
41
1
10
41.4549816800452
20
-3.02655541826368
30
0
41
1
10
41.4718957490419
20
-3.16912366248008
30
0
41
1
10
41.4790071495413
20
-3.21294310470827
30
0
41
1
10
41.4963521456012
20
-3.29299908674739
30
0
41
1
10
41.5065571926484
20
-3.32899376337031
30
0
41
1
10
41.5413862467817
20
-3.42365914841969
30
0
41
1
10
41.5703326417105
20
-3.46980739321401
30
0
41
1
10
41.6304630984209
20
-3.52061967502155
30
0
41
1
10
41.6587868463014
20
-3.53326352433075
30
0
41
1
10
41.6901493922408
20
-3.53727655087187
30
0
0
SPLINE
5
BB
100
AcDbEntity
8
1
62
256
6
ByLayer
370
18
48
1
60
0
100
AcDbSpline
70
4
71
3
72
8
73
4
40
0
40
0
40
0
40
0
40
1
40
1
40
1
40
1
41
1
10
42.0342470797987
20
-1.66501811018927
30
0
41
1
10
41.833781984597
20
-2.03553715231533
30
0
41
1
10
41.6389493833417
20
-2.4111705099173
30
0
41
1
10
41.4498216894578
20
-2.79198393452586
30
0
0
SPLINE
5
BC
100
AcDbEntity
8
1
62
256
6
ByLayer
370
13
48
1
60
0
100
AcDbSpline
70
4
71
3
72
21
73
17
40
0
40
0
40
0
40
0
40
0.220810383662918
40
0.220810383662918
40
0.331215575494378
40
0.331215575494378
40
0.441620767325837
40
0.552025959157296
40
0.552025959157296
40
0.662431150988755
40
0.662431150988755
40
0.772836342820215
40
0.772836342820215
40
0.883241534651674
40
0.883241534651674
40
1
40
1
40
1
40
1
41
1
10
4.25029063535794
20
2.21178505125906
30
0
41
1
10
4.25032365785398
20
2.39311063494677
30
0
41
1
10
4.25034756614346
20
2.55788901025912
30
0
41
1
10
4.25037505859225
20
2.78048770362253
30
0
41
1
10
4.25038280809213
20
2.85051452129267
30
0
41
1
10
4.25039613838572
20
2.97973887789246
30
0
41
1
10
4.25040739356902
20
3.09887294621291
30
0
41
1
10
4.25041632265871
20
3.19814769993798
30
0
41
1
10
4.25042491728379
20
3.28736288543874
30
0
41
1
10
4.25042906406406
20
3.32706709871434
30
0
41
1
10
4.2504377244307
20
3.39533073635676
30
0
41
1
10
4.25044222774051
20
3.42384624686753
30
0
41
1
10
4.25045225723358
20
3.46967799047024
30
0
41
1
10
4.25045780216391
20
3.48697367887556
30
0
41
1
10
4.25047062531795
20
3.51052900926396
30
0
41
1
10
4.25047801940141
20
3.51627038698115
30
0
41
1
10
4.25048638514792
20
3.51567503048713
30
0
0
SPLINE
5
BD
100
AcDbEntity
8
1
62
256
6
ByLayer
370
18
48
1
60
0
100
AcDbSpline
70
4
71
3
72
14
73
10
40
0
40
0
40
0
40
0
40
0.25
40
0.25
40
0.5
40
0.5
40
0.75
40
0.75
40
1
40
1
40
1
40
1
41
1
10
4.00851014526054
20
-2.82337806775959
30
0
41
1
10
4.0155022861149
20
-2.79657602374831
30
0
41
1
10
4.02685417992328
20
-2.77197744230972
30
0
41
1
10
4.05921826824016
20
-2.73063192919071
30
0
41
1
10
4.079775118681
20
-2.71484140417067
30
0
41
1
10
4.12617750929851
20
-2.69574136054192
30
0
41
1
10
4.15154066647776
20
-2.69259466778507
30
0
41
1
10
4.20155991454357
20
-2.69654208593067
30
0
41
1
10
4.22663511798425
20
-2.70351091286395
30
0
41
1
10
4.25075990100302
20
-2.71401190951002
30
0
0
SPLINE
5
BE
100
AcDbEntity
8
1
62
256
6
ByLayer
370
18
48
1
60
0
100
AcDbSpline
70
4
71
3
72
10
73
6
40
0
40
0
40
0
40
0
40
0.5
40
0.5
40
1
40
1
40
1
40
1
41
1
10
41.8767440905383
20
3.62470705588296
30
0
41
1
10
42.0440978835253
20
3.15849647682774
30
0
41
1
10
42.2184227316281
20
2.69445828824337
30
0
41
1
10
42.5780307443946
20
1.77002123329998
30
0
41
1
10
42.7639416204065
20
1.30957574091812
30
0
41
1
10
42.9531639605869
20
0.852302184568202
30
0
0
SPLINE
5
BF
100
AcDbEntity
8
1
62
256
6
ByLayer
370
18
48
1
60
0
100
AcDbSpline
70
4
71
3
72
18
73
14
40
0
40
0
40
0
40
0
40
0.0289016492807756
40
0.0289016492807756
40
0.465154182474251
40
0.465154182474251
40
0.574217315772621
40
0.574217315772621
40
0.683280449070992
40
0.683280449070992
40
0.901406715667729
40
0.901406715667729
40
1
40
1
40
1
40
1
41
1
10
8.74575934974231
20
-5.03786456818E-05
30
0
41
1
10
8.79720419041092
20
-0.0269105193183918
30
0
41
1
10
8.8486481466424
20
-0.0537684834023082
30
0
41
1
10
9.67663808163437
20
-0.485906672776679
30
0
41
1
10
10.4528410596788
20
-0.890969114580173
30
0
41
1
10
11.4356822513856
20
-1.371555909373
30
0
41
1
10
11.6326360483557
20
-1.4663466712513
30
0
41
1
10
12.0246339154466
20
-1.65134542898997
30
0
41
1
10
12.2200905555998
20
-1.74175547747475
30
0
41
1
10
12.8053155174375
20
-2.00598718983051
30
0
41
1
10
13.193900690963
20
-2.17281304153516
30
0
41
1
10
13.7577200858657
20
-2.39867475123691
30
0
41
1
10
13.9331558955698
20
-2.46673037943529
30
0
41
1
10
14.1086227539248
20
-2.53237467759939
30
0
0
SPLINE
5
C0
100
AcDbEntity
8
1
62
256
6
ByLayer
370
13
48
1
60
0
100
AcDbSpline
70
4
71
3
72
16
73
12
40
0
40
0
40
0
40
0
40
0.257549022743636
40
0.257549022743636
40
0.423924464806001
40
0.423924464806001
40
0.590299906868367
40
0.590299906868367
40
0.923050790993097
40
0.923050790993097
40
1
40
1
40
1
40
1
41
1
10
14.1086227538934
20
-2.53237467758765
30
0
41
1
10
14.7095562555461
20
-2.75719125166483
30
0
41
1
10
15.3108539282064
20
-2.95372522859736
30
0
41
1
10
16.3084280893588
20
-3.22026668459841
30
0
41
1
10
16.7029925860206
20
-3.31052252413772
30
0
41
1
10
17.4863642880835
20
-3.45716919601912
30
0
41
1
10
17.8764812447866
20
-3.51402520551866
30
0
41
1
10
19.0454286675515
20
-3.63365680333283
30
0
41
1
10
19.8235129757308
20
-3.64573162274942
30
0
41
1
10
20.7908797725117
20
-3.57407662738862
30
0
41
1
10
20.9729978503294
20
-3.55687539336446
30
0
41
1
10
21.1548090615723
20
-3.53607271710291
30
0
0
SPLINE
5
C1
100
AcDbEntity
8
1
62
256
6
ByLayer
370
18
48
1
60
0
100
AcDbSpline
70
4
71
3
72
10
73
6
40
0
40
0
40
0
40
0
40
0.5
40
0.5
40
1
40
1
40
1
40
1
41
1
10
41.8767440905347
20
-3.62470705589314
30
0
41
1
10
42.0442105949322
20
-3.15818248782625
30
0
41
1
10
42.2185481670266
20
-2.69413162677523
30
0
41
1
10
42.5780422049819
20
-1.76999598062483
30
0
41
1
10
42.7638820235017
20
-1.30971976243603
30
0
41
1
10
42.9531639605855
20
-0.852302184571698
30
0
0
SPLINE
5
C2
100
AcDbEntity
8
1
62
256
6
ByLayer
370
18
48
1
60
0
100
AcDbSpline
70
4
71
3
72
18
73
14
40
0
40
0
40
0
40
0
40
0.124999999999999
40
0.124999999999999
40
0.249999999999999
40
0.249999999999999
40
0.374999999999998
40
0.374999999999998
40
0.499999999999997
40
0.499999999999997
40
0.749999999999999
40
0.749999999999999
40
1
40
1
40
1
40
1
41
1
10
4.25075990278336
20
-2.71401191028494
30
0
41
1
10
4.4805528634827
20
-2.81403581956167
30
0
41
1
10
4.71374566056235
20
-2.90171057672771
30
0
41
1
10
5.18476050258647
20
-3.05780213235042
30
0
41
1
10
5.4228932118954
20
-3.12616807729501
30
0
41
1
10
5.90168295416649
20
-3.24617457822129
30
0
41
1
10
6.14166109749732
20
-3.2979262347547
30
0
41
1
10
6.62288767530052
20
-3.38479518035186
30
0
41
1
10
6.86415037201428
20
-3.41967700899389
30
0
41
1
10
7.59049364449083
20
-3.50105964558378
30
0
41
1
10
8.07887606632841
20
-3.52298838925031
30
0
41
1
10
9.05792313002692
20
-3.51137363498967
30
0
41
1
10
9.54988358352824
20
-3.4743367781021
30
0
41
1
10
10.0496257921625
20
-3.41517134333907
30
0
0
SPLINE
5
C3
100
AcDbEntity
8
1
62
256
6
ByLayer
370
18
48
1
60
0
100
AcDbSpline
70
4
71
3
72
8
73
4
40
0
40
0
40
0
40
0
40
1
40
1
40
1
40
1
41
1
10
42.9531639605855
20
-0.852302184571698
30
0
41
1
10
42.9696710071327
20
-0.607239534486382
30
0
41
1
10
42.981777859859
20
-0.36240080675222
30
0
41
1
10
42.9894777949992
20
-0.117786343536295
30
0
0
SPLINE
5
C4
100
AcDbEntity
8
1
62
256
6
ByLayer
370
18
48
1
60
0
100
AcDbSpline
70
4
71
3
72
8
73
4
40
0
40
0
40
0
40
0
40
1
40
1
40
1
40
1
41
1
10
4.1321580341845
20
2.28780876195833
30
0
41
1
10
4.0838965320321
20
2.30806707683959
30
0
41
1
10
4.04544042346927
20
2.34010459141715
30
0
41
1
10
4.02273527320372
20
2.3780741248905
30
0
0
SPLINE
5
C5
100
AcDbEntity
8
1
62
256
6
ByLayer
370
18
48
1
60
0
100
AcDbSpline
70
4
71
3
72
10
73
6
40
0
40
0
40
0
40
0
40
0.5
40
0.5
40
1
40
1
40
1
40
1
41
1
10
42.9999558788467
20
0.0417765557872656
30
0
41
1
10
42.9962251017846
20
0.0264341564928827
30
0
41
1
10
42.991124538855
20
0.0099858085594349
30
0
41
1
10
42.9788237581494
20
-0.0212431523313228
30
0
41
1
10
42.9715862703973
20
-0.0360489702315192
30
0
41
1
10
42.9642543417479
20
-0.048059384383123
30
0
0
SPLINE
5
C6
100
AcDbEntity
8
1
62
256
6
ByLayer
370
18
48
1
60
0
100
AcDbSpline
70
4
71
3
72
34
73
30
40
0
40
0
40
0
40
0
40
0.117487755799766
40
0.117487755799766
40
0.17623163369965
40
0.17623163369965
40
0.234975511599533
40
0.234975511599533
40
0.293719389499417
40
0.293719389499417
40
0.352463267399301
40
0.352463267399301
40
0.469951023199069
40
0.469951023199069
40
0.528694901098952
40
0.528694901098952
40
0.587438778998834
40
0.587438778998834
40
0.7049265347986
40
0.7049265347986
40
0.763670412698483
40
0.763670412698483
40
0.822414290598366
40
0.822414290598366
40
0.881158168498249
40
0.881158168498249
40
0.939902046398132
40
0.939902046398132
40
1
40
1
40
1
40
1
41
1
10
10.0496257921624
20
-1.26138654287268
30
0
41
1
10
10.3836171576392
20
-1.4313292071769
30
0
41
1
10
10.7169629204061
20
-1.59347573836615
30
0
41
1
10
11.2150608873826
20
-1.8275513689311
30
0
41
1
10
11.380472184862
20
-1.90453973590897
30
0
41
1
10
11.7107405549627
20
-2.05520570076851
30
0
41
1
10
11.8761659602186
20
-2.12798478969489
30
0
41
1
10
12.2065148392218
20
-2.27025772467343
30
0
41
1
10
12.3717268315151
20
-2.3392976456922
30
0
41
1
10
12.70179202203
20
-2.47382562487303
30
0
41
1
10
12.866691056772
20
-2.53923324120476
30
0
41
1
10
13.3617609286093
20
-2.72874636294412
30
0
41
1
10
13.6927324292091
20
-2.84561966110337
30
0
41
1
10
14.1906222754447
20
-3.00665549602559
30
0
41
1
10
14.3561674704357
20
-3.0586802012939
30
0
41
1
10
14.6891842740693
20
-3.15620505313211
30
0
41
1
10
14.8562374889329
20
-3.20227068146787
30
0
41
1
10
15.3584622014533
20
-3.3323298037611
30
0
41
1
10
15.691972604782
20
-3.4077711571837
30
0
41
1
10
16.1920411278412
20
-3.50263075310588
30
0
41
1
10
16.3588725343272
20
-3.53110101049504
30
0
41
1
10
16.6926784088513
20
-3.58190057957205
30
0
41
1
10
16.8598318987481
20
-3.60416001240142
30
0
41
1
10
17.1933197892808
20
-3.64285101213596
30
0
41
1
10
17.3603331436054
20
-3.65902850791818
30
0
41
1
10
17.6948837198446
20
-3.68474295225653
30
0
41
1
10
17.8616775745442
20
-3.6943656695465
30
0
41
1
10
18.1984867093183
20
-3.70732615110208
30
0
41
1
10
18.3682409940701
20
-3.71051931167537
30
0
41
1
10
18.5377018489935
20
-3.71037605587668
30
0
0
SPLINE
5
C7
100
AcDbEntity
8
1
62
256
6
ByLayer
370
18
48
1
60
0
100
AcDbSpline
70
4
71
3
72
24
73
20
40
0
40
0
40
0
40
0
40
0.134323535104781
40
0.134323535104781
40
0.206463240512718
40
0.206463240512718
40
0.278602945920654
40
0.278602945920654
40
0.350742651328591
40
0.350742651328591
40
0.422882356736527
40
0.422882356736527
40
0.567161767552395
40
0.567161767552395
40
0.711441178368263
40
0.711441178368263
40
0.855720589184132
40
0.855720589184132
40
1
40
1
40
1
40
1
41
1
10
34.9929681017255
20
2.69206944419926
30
0
41
1
10
35.3000458533041
20
2.80589937716511
30
0
41
1
10
35.6068142930117
20
2.91229586548198
30
0
41
1
10
36.0795084499654
20
3.06218648983386
30
0
41
1
10
36.24503575598
20
3.11185052654153
30
0
41
1
10
36.5766654798884
20
3.20594307962347
30
0
41
1
10
36.7429345791791
20
3.25021964404385
30
0
41
1
10
37.0751307575316
20
3.33428061545479
30
0
41
1
10
37.2416564913382
20
3.37347748668572
30
0
41
1
10
37.5761886796516
20
3.44568499947175
30
0
41
1
10
37.7429698173036
20
3.47871880179557
30
0
41
1
10
38.242297027486
20
3.5684590074857
30
0
41
1
10
38.5729303265942
20
3.61627721756963
30
0
41
1
10
39.2338900254577
20
3.6861455024862
30
0
41
1
10
39.5641900020215
20
3.70849780580443
30
0
41
1
10
40.2222593984671
20
3.72816950835153
30
0
41
1
10
40.5525856765605
20
3.7252386296023
30
0
41
1
10
41.2134207314485
20
3.69412982342075
30
0
41
1
10
41.5439881128425
20
3.66566481493882
30
0
41
1
10
41.8767440905444
20
3.62470705586583
30
0
0
SPLINE
5
C8
100
AcDbEntity
8
1
62
256
6
ByLayer
370
18
48
1
60
0
100
AcDbSpline
70
4
71
3
72
8
73
4
40
0
40
0
40
0
40
0
40
1
40
1
40
1
40
1
41
1
10
42.9642543417479
20
-0.048059384383123
30
0
41
1
10
42.7863783679421
20
-0.339437576281853
30
0
41
1
10
42.6122051070437
20
-0.634177838713583
30
0
41
1
10
42.4417806223572
20
-0.932321997248522
30
0
0
SPLINE
5
C9
100
AcDbEntity
8
1
62
256
6
ByLayer
370
18
48
1
60
0
100
AcDbSpline
70
4
71
3
72
37
73
33
40
0
40
0
40
0
40
0
40
0.0448304979891937
40
0.0448304979891937
40
0.112081993242811
40
0.112081993242811
40
0.179333488496428
40
0.179333488496428
40
0.313836479003663
40
0.313836479003663
40
0.448339469510897
40
0.448339469510897
40
0.515590964764514
40
0.515590964764514
40
0.549216712391323
40
0.549216712391323
40
0.566029586204727
40
0.570232804658078
40
0.570232804658078
40
0.574436023111429
40
0.574436023111429
40
0.582842460018132
40
0.582842460018132
40
0.717345450525366
40
0.717345450525366
40
0.851848441032601
40
0.851848441032601
40
0.919099936286218
40
0.919099936286218
40
0.986351431539835
40
0.986351431539835
40
1
40
1
40
1
40
1
41
1
10
10.0496257921624
20
-1.26138654287192
30
0
41
1
10
10.0496257921624
20
-1.22563207663728
30
0
41
1
10
10.0496257921624
20
-1.19229169206943
30
0
41
1
10
10.0496257921624
20
-1.11477798148459
30
0
41
1
10
10.0496257921624
20
-1.07356122732634
30
0
41
1
10
10.0496257921624
20
-1.00155750231789
30
0
41
1
10
10.0496257921624
20
-0.970679882584307
30
0
41
1
10
10.0496257921624
20
-0.894798818546917
30
0
41
1
10
10.0496257921624
20
-0.865994203691741
30
0
41
1
10
10.0496257921624
20
-0.848209661309625
30
0
41
1
10
10.0496257921624
20
-0.859257730794383
30
0
41
1
10
10.0496257921624
20
-0.905351922826242
30
0
41
1
10
10.0496257921624
20
-0.925670472816137
30
0
41
1
10
10.0496257921624
20
-0.963211761146852
30
0
41
1
10
10.0496257921624
20
-0.976912357587281
30
0
41
1
10
10.0496257921624
20
-0.999232980414462
30
0
41
1
10
10.0496257921624
20
-1.00889973539654
30
0
41
1
10
10.0496257921624
20
-1.01901800157034
30
0
41
1
10
10.0496257921624
20
-1.02310159824159
30
0
41
1
10
10.0496257921624
20
-1.02548904314074
30
0
41
1
10
10.0496257921624
20
-1.03659038656386
30
0
41
1
10
10.0496257921624
20
-1.04823926904842
30
0
41
1
10
10.0496257921624
20
-1.28599967631024
30
0
41
1
10
10.0496257921624
20
-1.52338440492284
30
0
41
1
10
10.0496257921624
20
-2.01393312901504
30
0
41
1
10
10.0496257921624
20
-2.26750289999916
30
0
41
1
10
10.0496257921624
20
-2.6612441739575
30
0
41
1
10
10.0496257921624
20
-2.79544385790342
30
0
41
1
10
10.0496257921624
20
-3.06393980605998
30
0
41
1
10
10.0496257921624
20
-3.19841719961175
30
0
41
1
10
10.0496257921624
20
-3.36046502211269
30
0
41
1
10
10.0496257921624
20
-3.38781340371691
30
0
41
1
10
10.0496257921624
20
-3.41517134333739
30
0
0
SPLINE
5
CA
100
AcDbEntity
8
1
62
256
6
ByLayer
370
18
48
1
60
0
100
AcDbSpline
70
4
71
3
72
8
73
4
40
0
40
0
40
0
40
0
40
1
40
1
40
1
40
1
41
1
10
41.6837454172436
20
3.72107124508017
30
0
41
1
10
41.5791575477578
20
3.72355543550671
30
0
41
1
10
41.474593285291
20
3.72475857593625
30
0
41
1
10
41.3700300412074
20
3.72468393246822
30
0
0
SPLINE
5
CB
100
AcDbEntity
8
1
62
256
6
ByLayer
370
18
48
1
60
0
100
AcDbSpline
70
4
71
3
72
34
73
30
40
0
40
0
40
0
40
0
40
0.0333011232521572
40
0.0333011232521572
40
0.0666355672779456
40
0.0666355672779456
40
0.199973343381098
40
0.199973343381098
40
0.266642231432674
40
0.266642231432674
40
0.299976675458462
40
0.299976675458462
40
0.33331111948425
40
0.33331111948425
40
0.399980007535826
40
0.399980007535826
40
0.466648895587401
40
0.466648895587401
40
0.599986671690551
40
0.599986671690551
40
0.733324447793701
40
0.733324447793701
40
0.866662223896851
40
0.866662223896851
40
0.899996667922638
40
0.899996667922638
40
0.933331111948426
40
0.933331111948426
40
1
40
1
40
1
40
1
41
1
10
21.7466996485185
20
-3.53869748693282
30
0
41
1
10
21.5505406563355
20
-3.57035462255064
30
0
41
1
10
21.3542662301519
20
-3.59779055407407
30
0
41
1
10
20.9609785729354
20
-3.6440128688171
30
0
41
1
10
20.7642795522696
20
-3.66273743370652
30
0
41
1
10
19.7847177584673
20
-3.73384685693833
30
0
41
1
10
19.009056479383
20
-3.71931735403871
30
0
41
1
10
17.84390741153
20
-3.59416358424045
30
0
41
1
10
17.4550881921294
20
-3.53527003641986
30
0
41
1
10
16.869517479264
20
-3.42176245920086
30
0
41
1
10
16.6739381479305
20
-3.37972966969312
30
0
41
1
10
16.281692633085
20
-3.28738037627642
30
0
41
1
10
16.0846977279481
20
-3.23696843634929
30
0
41
1
10
15.4945652969644
20
-3.0743437652763
30
0
41
1
10
15.1022805915226
20
-2.9507877361869
30
0
41
1
10
14.3172728922957
20
-2.67660522028265
30
0
41
1
10
13.9242073273492
20
-2.52582194563249
30
0
41
1
10
12.743122049556
20
-2.03814774434926
30
0
41
1
10
11.9607156691967
20
-1.66893655874443
30
0
41
1
10
10.3848602712922
20
-0.877020737853854
30
0
41
1
10
9.60777607340489
20
-0.460947022076397
30
0
41
1
10
8.05355186277902
20
0.369898476817298
30
0
41
1
10
7.27727261582498
20
0.786315283823399
30
0
41
1
10
6.29520135062745
20
1.28371282852294
30
0
41
1
10
6.09797771928208
20
1.38211060006853
30
0
41
1
10
5.70452569770018
20
1.57491684688301
30
0
41
1
10
5.50804466036951
20
1.66947378465929
30
0
41
1
10
4.91871679511402
20
1.94657881603931
30
0
41
1
10
4.52594864389619
20
2.12251067107755
30
0
41
1
10
4.13215803418478
20
2.28780876195819
30
0
0
SPLINE
5
CC
100
AcDbEntity
8
1
62
256
6
ByLayer
370
18
48
1
60
0
100
AcDbSpline
70
4
71
3
72
86
73
82
40
0
40
0
40
0
40
0
40
0.0284322075725018
40
0.0284322075725018
40
0.0468462867249233
40
0.0468462867249233
40
0.0652603658773449
40
0.0652603658773449
40
0.102088524182188
40
0.102088524182188
40
0.12050260333461
40
0.12050260333461
40
0.138916682487032
40
0.138916682487032
40
0.157330761639454
40
0.157330761639454
40
0.175744840791875
40
0.175744840791875
40
0.21257299909672
40
0.21257299909672
40
0.249401157401564
40
0.249401157401564
40
0.286229315706409
40
0.286229315706409
40
0.323057474011253
40
0.323057474011253
40
0.341471553163675
40
0.341471553163675
40
0.359885632316097
40
0.359885632316097
40
0.396713790620941
40
0.396713790620941
40
0.433541948925786
40
0.433541948925786
40
0.451956028078208
40
0.451956028078208
40
0.470370107230631
40
0.470370107230631
40
0.507198265535476
40
0.507198265535476
40
0.525612344687899
40
0.525612344687899
40
0.544026423840321
40
0.544026423840321
40
0.562440502992745
40
0.562440502992745
40
0.580854582145168
40
0.580854582145168
40
0.617682740450014
40
0.617682740450014
40
0.65451089875486
40
0.65451089875486
40
0.672924977907283
40
0.672924977907283
40
0.691339057059706
40
0.691339057059706
40
0.709753136212129
40
0.709753136212129
40
0.728167215364552
40
0.728167215364552
40
0.764995373669399
40
0.764995373669399
40
0.783409452821823
40
0.783409452821823
40
0.801823531974247
40
0.801823531974247
40
0.838651690279096
40
0.838651690279096
40
0.85706576943152
40
0.85706576943152
40
0.875479848583945
40
0.875479848583945
40
0.893893927736369
40
0.893893927736369
40
0.912308006888793
40
0.912308006888793
40
0.949136165193641
40
0.949136165193641
40
0.985964323498488
40
0.985964323498488
40
1
40
1
40
1
40
1
41
1
10
13.2575874061483
20
2.68733638781464
30
0
41
1
10
13.5127179448783
20
2.78154048790211
30
0
41
1
10
13.7684038504175
20
2.87009457374961
30
0
41
1
10
14.1906222754447
20
3.00665549602556
30
0
41
1
10
14.3561674704357
20
3.0586802012939
30
0
41
1
10
14.6891842740693
20
3.15620505313211
30
0
41
1
10
14.8562374889329
20
3.20227068146787
30
0
41
1
10
15.3584622014533
20
3.33232980376107
30
0
41
1
10
15.6919726047819
20
3.40777115718367
30
0
41
1
10
16.1920411278412
20
3.50263075310588
30
0
41
1
10
16.3588725343272
20
3.53110101049504
30
0
41
1
10
16.6926784088513
20
3.58190057957205
30
0
41
1
10
16.859831898748
20
3.60416001240142
30
0
41
1
10
17.1933197892808
20
3.64285101213594
30
0
41
1
10
17.3603331436054
20
3.65902850791818
30
0
41
1
10
17.6948837198445
20
3.68474295225653
30
0
41
1
10
17.8616775745442
20
3.6943656695465
30
0
41
1
10
18.3611349063284
20
3.7135848856189
30
0
41
1
10
18.6919315891293
20
3.71355301134193
30
0
41
1
10
19.3532940580011
20
3.68816597752871
30
0
41
1
10
19.6839273523099
20
3.66311608922339
30
0
41
1
10
20.3426562501811
20
3.58722169742512
30
0
41
1
10
20.6733641320131
20
3.53743928546143
30
0
41
1
10
21.3351704935315
20
3.41331652252171
30
0
41
1
10
21.6662608785451
20
3.33867932359158
30
0
41
1
10
22.1662805664911
20
3.21004152321143
30
0
41
1
10
22.333652567229
20
3.16424152671567
30
0
41
1
10
22.6681611696585
20
3.06719771958524
30
0
41
1
10
22.8343143081187
20
3.01535757289193
30
0
41
1
10
23.3329423256764
20
2.85387186073873
30
0
41
1
10
23.6647164157257
20
2.7374425606717
30
0
41
1
10
24.3253664935058
20
2.48530541311865
30
0
41
1
10
24.6548414434312
20
2.35029067974301
30
0
41
1
10
25.149903114695
20
2.13762750701014
30
0
41
1
10
25.3151089651022
20
2.06514147768777
30
0
41
1
10
25.6449522290809
20
1.91543450560434
30
0
41
1
10
25.8095660751639
20
1.83813222996275
30
0
41
1
10
26.3057623306222
20
1.60433869501151
30
0
41
1
10
26.6374186208862
20
1.44222754381303
30
0
41
1
10
27.1366274082004
20
1.19008113959035
30
0
41
1
10
27.3035144902439
20
1.10449912123906
30
0
41
1
10
27.6378263461199
20
0.931931856613147
30
0
41
1
10
27.8046616196059
20
0.845281197399061
30
0
41
1
10
28.1375826000641
20
0.671022930059564
30
0
41
1
10
28.3037168385352
20
0.583508115681639
30
0
41
1
10
28.6344529960347
20
0.406014547707486
30
0
41
1
10
28.7998906505934
20
0.317648232856385
30
0
41
1
10
29.295731329668
20
0.0523576104963013
30
0
41
1
10
29.6256543412129
20
-0.124771603738907
30
0
41
1
10
30.2847827982814
20
-0.478497359514876
30
0
41
1
10
30.6146817448399
20
-0.653775917073659
30
0
41
1
10
31.1109026049637
20
-0.912685341172761
30
0
41
1
10
31.2760986491445
20
-0.999143903671069
30
0
41
1
10
31.6071336161681
20
-1.1703630135568
30
0
41
1
10
31.7733872488249
20
-1.25435328375369
30
0
41
1
10
32.1063253359648
20
-1.42103658070246
30
0
41
1
10
32.2733865296898
20
-1.50321999793917
30
0
41
1
10
32.6077142161639
20
-1.66590325390661
30
0
41
1
10
32.7743077300677
20
-1.74580280544004
30
0
41
1
10
33.2730264001634
20
-1.98009582833205
30
0
41
1
10
33.6047092684911
20
-2.12811098534661
30
0
41
1
10
34.1004726788136
20
-2.33918360376126
30
0
41
1
10
34.264876292596
20
-2.40850108268492
30
0
41
1
10
34.5948323609298
20
-2.54088387961693
30
0
41
1
10
34.7597352703401
20
-2.60491581557082
30
0
41
1
10
35.2545755354173
20
-2.79007867858678
30
0
41
1
10
35.5840204810755
20
-2.90506798112543
30
0
41
1
10
36.0795084499654
20
-3.06218648983386
30
0
41
1
10
36.24503575598
20
-3.11185052654153
30
0
41
1
10
36.5766654798884
20
-3.20594307962347
30
0
41
1
10
36.7429345791791
20
-3.25021964404385
30
0
41
1
10
37.0751307575316
20
-3.33428061545479
30
0
41
1
10
37.2416564913382
20
-3.37347748668572
30
0
41
1
10
37.5761886796516
20
-3.44568499947175
30
0
41
1
10
37.7429698173037
20
-3.47871880179554
30
0
41
1
10
38.242297027486
20
-3.5684590074857
30
0
41
1
10
38.5729303265943
20
-3.61627721756963
30
0
41
1
10
39.2338900254577
20
-3.6861455024862
30
0
41
1
10
39.5641900020215
20
-3.70849780580443
30
0
41
1
10
40.0186239815171
20
-3.72208222428705
30
0
41
1
10
40.1442108606868
20
-3.72397646428345
30
0
41
1
10
40.269918892969
20
-3.72402430427593
30
0
0
SPLINE
5
CD
100
AcDbEntity
8
1
62
256
6
ByLayer
370
18
48
1
60
0
100
AcDbSpline
70
4
71
3
72
8
73
4
40
0
40
0
40
0
40
0
40
1
40
1
40
1
40
1
41
1
10
42.9894777949993
20
-0.117786343536181
30
0
41
1
10
42.9901605028448
20
-0.0960978214765191
30
0
41
1
10
42.9941359801406
20
-0.0696426444943654
30
0
41
1
10
42.999955878844
20
-0.0417765557516816
30
0
0
SPLINE
5
CE
100
AcDbEntity
8
1
62
256
6
ByLayer
370
18
48
1
60
0
100
AcDbSpline
70
4
71
3
72
26
73
22
40
0
40
0
40
0
40
0
40
0.0625000000000002
40
0.0625000000000002
40
0.125
40
0.125
40
0.1875
40
0.1875
40
0.25
40
0.25
40
0.375
40
0.375
40
0.5
40
0.5
40
0.625
40
0.625
40
0.75
40
0.75
40
0.875
40
0.875
40
1
40
1
40
1
40
1
41
1
10
42.4417806223552
20
-0.93232199725162
30
0
41
1
10
42.4393076105011
20
-0.953162309694847
30
0
41
1
10
42.4357438713959
20
-0.975789825404689
30
0
41
1
10
42.4267365362555
20
-1.02242738214045
30
0
41
1
10
42.4213042108733
20
-1.04651752044555
30
0
41
1
10
42.4086127965478
20
-1.09623202492671
30
0
41
1
10
42.4012938832092
20
-1.12200466071181
30
0
41
1
10
42.3854479394154
20
-1.17301292417252
30
0
41
1
10
42.3768660923812
20
-1.19849270114051
30
0
41
1
10
42.3492349707294
20
-1.2748709540098
30
0
41
1
10
42.3289204323125
20
-1.32400825384698
30
0
41
1
10
42.2861695208668
20
-1.41637683562317
30
0
41
1
10
42.2643850803408
20
-1.45826251612601
30
0
41
1
10
42.220558494563
20
-1.53355978424435
30
0
41
1
10
42.1987360106874
20
-1.5664372033163
30
0
41
1
10
42.1577227469853
20
-1.6198072518759
30
0
41
1
10
42.1381399084599
20
-1.64091297230098
30
0
41
1
10
42.1016953005076
20
-1.67077770497514
30
0
41
1
10
42.0853157598743
20
-1.67921867793154
30
0
41
1
10
42.0562573374814
20
-1.68265830142659
30
0
41
1
10
42.0438494956842
20
-1.67741872918245
30
0
41
1
10
42.0342470797987
20
-1.66501811018929
30
0
0
SPLINE
5
CF
100
AcDbEntity
8
1
62
256
6
ByLayer
370
18
48
1
60
0
100
AcDbSpline
70
4
71
3
72
42
73
38
40
0
40
0
40
0
40
0
40
0.0531730192876154
40
0.0531730192876154
40
0.106346038575231
40
0.106346038575231
40
0.212692077150463
40
0.212692077150463
40
0.265865096438079
40
0.265865096438079
40
0.319038115725696
40
0.319038115725696
40
0.425384154300928
40
0.425384154300928
40
0.478557173588544
40
0.478557173588544
40
0.505143683232353
40
0.505143683232353
40
0.531730192876162
40
0.531730192876162
40
0.6380762314514
40
0.6380762314514
40
0.691249250739019
40
0.691249250739019
40
0.744422270026638
40
0.744422270026638
40
0.797595289314257
40
0.797595289314257
40
0.850768308601877
40
0.850768308601877
40
0.903941327889496
40
0.903941327889496
40
0.930527837533305
40
0.930527837533305
40
0.957114347177115
40
0.957114347177115
40
1
40
1
40
1
40
1
41
1
10
41.6837454172436
20
-3.72107124508017
30
0
41
1
10
41.2908819096877
20
-3.73040261179796
30
0
41
1
10
40.8985151530562
20
-3.72165484332732
30
0
41
1
10
40.1123827446425
20
-3.66843656124243
30
0
41
1
10
39.7181525715748
20
-3.62378853940683
30
0
41
1
10
38.5435354280352
20
-3.4392485827216
30
0
41
1
10
37.7664637911328
20
-3.24885621331666
30
0
41
1
10
36.5952172117685
20
-2.87546561315654
30
0
41
1
10
36.2038377603607
20
-2.73640129991338
30
0
41
1
10
35.4165937729769
20
-2.43158905242595
30
0
41
1
10
35.0248129907415
20
-2.26736511288078
30
0
41
1
10
33.8548202308805
20
-1.74748886709361
30
0
41
1
10
33.080612225445
20
-1.36349022140968
30
0
41
1
10
31.9130190680649
20
-0.757541993028724
30
0
41
1
10
31.52285211853
20
-0.550434721282301
30
0
41
1
10
30.9342677558325
20
-0.235410818757089
30
0
41
1
10
30.7370717464998
20
-0.129509925339505
30
0
41
1
10
30.3442033904541
20
0.0814477951355741
30
0
41
1
10
30.1483484479113
20
0.186599924684287
30
0
41
1
10
29.1712015183895
20
0.70932939118839
30
0
41
1
10
28.3966705908329
20
1.11849229789044
30
0
41
1
10
27.2302531385905
20
1.69074524733424
30
0
41
1
10
26.8407479913286
20
1.87472130141549
30
0
41
1
10
26.0580003078586
20
2.22490849025115
30
0
41
1
10
25.6634756819033
20
2.39138082957007
30
0
41
1
10
24.8773700356068
20
2.69827616213874
30
0
41
1
10
24.4850352849172
20
2.83904778094413
30
0
41
1
10
23.6993842406725
20
3.09228926963229
30
0
41
1
10
23.3052531632408
20
3.20500897550582
30
0
41
1
10
22.5188781258324
20
3.39771680469838
30
0
41
1
10
22.1264650956368
20
3.47778256485176
30
0
41
1
10
21.5371700487907
20
3.57231615975266
30
0
41
1
10
21.3406630771937
20
3.59958728053317
30
0
41
1
10
20.9471745884406
20
3.64542285646027
30
0
41
1
10
20.7500302783176
20
3.66398478236548
30
0
41
1
10
20.2370888358931
20
3.70064279208137
30
0
41
1
10
19.9218449039473
20
3.71160454616199
30
0
41
1
10
19.6073979556054
20
3.71108677912227
30
0
0
SPLINE
5
D0
100
AcDbEntity
8
1
62
256
6
ByLayer
370
18
48
1
60
0
100
AcDbSpline
70
4
71
3
72
26
73
22
40
0
40
0
40
0
40
0
40
0.0625000000000001
40
0.0625000000000001
40
0.0937500000000001
40
0.0937500000000001
40
0.125
40
0.125
40
0.1875
40
0.1875
40
0.25
40
0.25
40
0.375
40
0.375
40
0.5
40
0.5
40
0.625
40
0.625
40
0.75
40
0.75
40
1
40
1
40
1
40
1
41
1
10
38.2173338275705
20
1.38126338071018
30
0
41
1
10
38.2053537629792
20
1.26876745612463
30
0
41
1
10
38.2018669518637
20
1.15354650511801
30
0
41
1
10
38.209775174046
20
0.976499663029216
30
0
41
1
10
38.2146496058814
20
0.916464366428443
30
0
41
1
10
38.2286566172864
20
0.79683470877157
30
0
41
1
10
38.2377581109882
20
0.737243945274599
30
0
41
1
10
38.2710045902473
20
0.559106260790429
30
0
41
1
10
38.3010689992511
20
0.441191534828818
30
0
41
1
10
38.3757308873641
20
0.206914216269524
30
0
41
1
10
38.4206146308449
20
0.0901687820752102
30
0
41
1
10
38.5708981112975
20
-0.247356913668511
30
0
41
1
10
38.6928615024578
20
-0.459276386258836
30
0
41
1
10
38.9700128456415
20
-0.863130218257595
30
0
41
1
10
39.1212352192971
20
-1.04933832618619
30
0
41
1
10
39.4404875367069
20
-1.39692003001449
30
0
41
1
10
39.6089000326621
20
-1.55860042246138
30
0
41
1
10
39.9600242554309
20
-1.86225216924404
30
0
41
1
10
40.1398967177357
20
-2.0017103225513
30
0
41
1
10
40.6874311155051
20
-2.38868059020334
30
0
41
1
10
41.0639959247564
20
-2.60646027164267
30
0
41
1
10
41.4498216894578
20
-2.79198393452577
30
0
0
SPLINE
5
D1
100
AcDbEntity
8
1
62
256
6
ByLayer
370
18
48
1
60
0
100
AcDbSpline
70
4
71
3
72
28
73
24
40
0
40
0
40
0
40
0
40
0.0355079559569377
40
0.0355079559569377
40
0.137835814032614
40
0.137835814032614
40
0.24016367210829
40
0.24016367210829
40
0.291327601146126
40
0.291327601146126
40
0.342491530183962
40
0.342491530183962
40
0.444819388259632
40
0.444819388259632
40
0.649475104410971
40
0.649475104410971
40
0.751802962486641
40
0.751802962486641
40
0.802966891524475
40
0.802966891524475
40
0.854130820562308
40
0.854130820562308
40
1
40
1
40
1
40
1
41
1
10
24.9120599092687
20
2.61824802588077
30
0
41
1
10
25.0481096176752
20
2.56899493999831
30
0
41
1
10
25.1842245784407
20
2.51819688086408
30
0
41
1
10
25.7130431817968
20
2.31523893189927
30
0
41
1
10
26.1069221487304
20
2.15211856780942
30
0
41
1
10
26.8913960450456
20
1.8077924883994
30
0
41
1
10
27.2830259571369
20
1.62647282230563
30
0
41
1
10
27.8712284596762
20
1.34363520253018
30
0
41
1
10
28.0674191474453
20
1.24753739222385
30
0
41
1
10
28.4603460696546
20
1.05222658490965
30
0
41
1
10
28.6572633962351
20
0.952916540117371
30
0
41
1
10
29.2453246901435
20
0.65313573367547
30
0
41
1
10
29.635146304139
20
0.450520179030917
30
0
41
1
10
30.8012444916378
20
-0.159208443830977
30
0
41
1
10
31.5739226998417
20
-0.568679981377471
30
0
41
1
10
32.7405215115686
20
-1.1587881913776
30
0
41
1
10
33.1305618256431
20
-1.35165681628197
30
0
41
1
10
33.7192056250898
20
-1.63167938824509
30
0
41
1
10
33.9161496577109
20
-1.72349762503859
30
0
41
1
10
34.3080528374321
20
-1.90179309502596
30
0
41
1
10
34.5034463229817
20
-1.98848281087288
30
0
41
1
10
35.2542541174184
20
-2.31225498767822
30
0
41
1
10
35.8066619317352
20
-2.53050420145166
30
0
41
1
10
36.3590264837217
20
-2.72285510311377
30
0
0
SPLINE
5
D2
100
AcDbEntity
8
1
62
256
6
ByLayer
370
13
48
1
60
0
100
AcDbSpline
70
4
71
3
72
16
73
12
40
0
40
0
40
0
40
0
40
0.12558596837537
40
0.12558596837537
40
0.344189476281522
40
0.344189476281522
40
0.453491230234599
40
0.453491230234599
40
0.562792984187678
40
0.562792984187678
40
1
40
1
40
1
40
1
41
1
10
36.3590264834642
20
-2.72285510302413
30
0
41
1
10
36.5816341594131
20
-2.80037417450231
30
0
41
1
10
36.8042348088695
20
-2.87368694706842
30
0
41
1
10
37.4148987840864
20
-3.06228660772106
30
0
41
1
10
37.8034246105358
20
-3.16844721055867
30
0
41
1
10
38.3889431997351
20
-3.30493798227744
30
0
41
1
10
38.584586323321
20
-3.34664442376035
30
0
41
1
10
38.9771269549775
20
-3.42214871370948
30
0
41
1
10
39.1739604626971
20
-3.45595138047037
30
0
41
1
10
40.1549047531012
20
-3.60340756723974
30
0
41
1
10
40.9350975832136
20
-3.65365029875505
30
0
41
1
10
41.7194951276782
20
-3.63303507149161
30
0
0
SPLINE
5
D3
100
AcDbEntity
8
1
62
256
6
ByLayer
370
18
48
1
60
0
100
AcDbSpline
70
4
71
3
72
8
73
4
40
0
40
0
40
0
40
0
40
1
40
1
40
1
40
1
41
1
10
41.8767440905441
20
3.62470705586608
30
0
41
1
10
41.8045799700448
20
3.67828308352304
30
0
41
1
10
41.7404944033711
20
3.71053209544613
30
0
41
1
10
41.6837454172436
20
3.72107124508017
30
0
0
SPLINE
5
D4
100
AcDbEntity
8
1
62
256
6
ByLayer
370
18
48
1
60
0
100
AcDbSpline
70
4
71
3
72
8
73
4
40
0
40
0
40
0
40
0
40
1
40
1
40
1
40
1
41
1
10
4.02273527320372
20
2.37807412489048
30
0
41
1
10
4.01341462692878
20
2.39366092288964
30
0
41
1
10
4.00834743433882
20
2.4102392552029
30
0
41
1
10
4.008348468718
20
2.42715157557402
30
0
0
SPLINE
5
D5
100
AcDbEntity
8
1
62
256
6
ByLayer
370
18
48
1
60
0
100
AcDbSpline
70
4
71
3
72
12
73
8
40
0
40
0
40
0
40
0
40
0.398259190740636
40
0.398259190740636
40
0.704021399688299
40
0.704021399688299
40
1
40
1
40
1
40
1
41
1
10
19.8210418910261
20
-3.52504035446631
30
0
41
1
10
19.31264800351
20
-3.52416404995486
30
0
41
1
10
18.806062424421
20
-3.49473709221849
30
0
41
1
10
17.9096325715805
20
-3.39369259731296
30
0
41
1
10
17.5198463816489
20
-3.33341876584842
30
0
41
1
10
16.7497851877226
20
-3.18363037993024
30
0
41
1
10
16.3684572032387
20
-3.09471297228683
30
0
41
1
10
15.9897336782013
20
-2.99286672306275
30
0
0
SPLINE
5
D6
100
AcDbEntity
8
1
62
256
6
ByLayer
370
13
48
1
60
0
100
AcDbSpline
70
4
71
3
72
26
73
22
40
0
40
0
40
0
40
0
40
0.0034548887134165
40
0.0034548887134165
40
0.219402694075305
40
0.219402694075305
40
0.32737659675625
40
0.32737659675625
40
0.381363548096724
40
0.381363548096724
40
0.435350499437197
40
0.435350499437197
40
0.651298304799088
40
0.651298304799088
40
0.86724611016098
40
0.86724611016098
40
0.921233061501453
40
0.921233061501453
40
0.975220012841927
40
0.975220012841927
40
1
40
1
40
1
40
1
41
1
10
15.9897336781286
20
-2.99286672304319
30
0
41
1
10
15.977214925965
20
-2.98950018289307
30
0
41
1
10
15.9646990195408
20
-2.9861195161597
30
0
41
1
10
15.1700689899951
20
-2.77053848305812
30
0
41
1
10
14.3954766517951
20
-2.50331892369775
30
0
41
1
10
13.2313713282527
20
-2.03997240965299
30
0
41
1
10
12.8430167858616
20
-1.8749528972225
30
0
41
1
10
12.2582913311606
20
-1.61438207203628
30
0
41
1
10
12.0630203603109
20
-1.52535349987014
30
0
41
1
10
11.6714396191773
20
-1.34344357632335
30
0
41
1
10
11.4747290514322
20
-1.25036964113917
30
0
41
1
10
10.493171693013
20
-0.779161123400229
30
0
41
1
10
9.71748147922526
20
-0.383711444387075
30
0
41
1
10
8.16547124189202
20
0.404383155540387
30
0
41
1
10
7.38985593380869
20
0.798449715459554
30
0
41
1
10
6.40925506429105
20
1.2677839899211
30
0
41
1
10
6.21238371954718
20
1.36051997542867
30
0
41
1
10
5.81961638892082
20
1.54209404041754
30
0
41
1
10
5.62347430795404
20
1.63110292014133
30
0
41
1
10
5.33739079787571
20
1.75789900654772
30
0
41
1
10
5.24739817293047
20
1.79733757408644
30
0
41
1
10
5.1574009527327
20
1.83630118859816
30
0
0
SPLINE
5
D7
100
AcDbEntity
8
1
62
256
6
ByLayer
370
18
48
1
60
0
100
AcDbSpline
70
4
71
3
72
80
73
76
40
0
40
0
40
0
40
0
40
0.0115100336158316
40
0.0115100336158316
40
0.0468132467009806
40
0.0468132467009806
40
0.0821164597861296
40
0.0821164597861296
40
0.117419672871279
40
0.117419672871279
40
0.152722885956428
40
0.152722885956428
40
0.188026099041577
40
0.188026099041577
40
0.223329312126725
40
0.223329312126725
40
0.2409809186693
40
0.2409809186693
40
0.258632525211875
40
0.258632525211875
40
0.293935738297024
40
0.293935738297024
40
0.311587344839599
40
0.311587344839599
40
0.329238951382174
40
0.329238951382174
40
0.364542164467322
40
0.364542164467322
40
0.39984537755247
40
0.39984537755247
40
0.435148590637619
40
0.435148590637619
40
0.452800197180193
40
0.452800197180193
40
0.470451803722767
40
0.470451803722767
40
0.505755016807915
40
0.505755016807915
40
0.52340662335049
40
0.52340662335049
40
0.541058229893064
40
0.541058229893064
40
0.576361442978214
40
0.576361442978214
40
0.611664656063364
40
0.611664656063364
40
0.629316262605938
40
0.629316262605938
40
0.646967869148513
40
0.646967869148513
40
0.664619475691087
40
0.664619475691087
40
0.682271082233662
40
0.682271082233662
40
0.71757429531881
40
0.71757429531881
40
0.752877508403959
40
0.752877508403959
40
0.770529114946534
40
0.770529114946534
40
0.788180721489108
40
0.788180721489108
40
0.823483934574256
40
0.823483934574256
40
0.858787147659404
40
0.858787147659404
40
0.876438754201979
40
0.876438754201979
40
0.894090360744553
40
0.894090360744553
40
0.929393573829702
40
0.929393573829702
40
0.964696786914851
40
0.964696786914851
40
1
40
1
40
1
40
1
41
1
10
34.9879193481837
20
-2.69489820724368
30
0
41
1
10
34.8924616766342
20
-2.72649496548883
30
0
41
1
10
34.7969707454632
20
-2.75733286677715
30
0
41
1
10
34.4083004174734
20
-2.87937511935854
30
0
41
1
10
34.1145508023155
20
-2.96397636927261
30
0
41
1
10
33.5280842098791
20
-3.11483511530352
30
0
41
1
10
33.2352072599986
20
-3.18276937572824
30
0
41
1
10
32.6497941074734
20
-3.30168302113387
30
0
41
1
10
32.3571430004236
20
-3.35245175182953
30
0
41
1
10
31.7704780753078
20
-3.43499466588014
30
0
41
1
10
31.4762881678067
20
-3.46510767244814
30
0
41
1
10
30.8900085804994
20
-3.51012432953021
30
0
41
1
10
30.5969235052417
20
-3.52417494451745
30
0
41
1
10
30.0111641585915
20
-3.53334949606807
30
0
41
1
10
29.7183757436661
20
-3.5288398706407
30
0
41
1
10
29.2776970977988
20
-3.50422753105104
30
0
41
1
10
29.1304664247714
20
-3.49308712215199
30
0
41
1
10
28.8365549366177
20
-3.46776196170407
30
0
41
1
10
28.6896905172509
20
-3.45314178661263
30
0
41
1
10
28.2497799714996
20
-3.40244375128711
30
0
41
1
10
27.9566980949477
20
-3.35998221873189
30
0
41
1
10
27.5167372501736
20
-3.28304298600722
30
0
41
1
10
27.3701643626998
20
-3.25510502600483
30
0
41
1
10
27.0765789534543
20
-3.19433373979734
30
0
41
1
10
26.9295277990279
20
-3.16132152000358
30
0
41
1
10
26.4884382048524
20
-3.05578006949446
30
0
41
1
10
26.1945558925269
20
-2.97804069842394
30
0
41
1
10
25.607528343936
20
-2.80612951372098
30
0
41
1
10
25.3145282853942
20
-2.71222441614742
30
0
41
1
10
24.7274935490783
20
-2.5120989036306
30
0
41
1
10
24.4335175729227
20
-2.40486944545003
30
0
41
1
10
23.992423983503
20
-2.2343102350986
30
0
41
1
10
23.8457464937137
20
-2.17555780542659
30
0
41
1
10
23.5521632467958
20
-2.05534727289734
30
0
41
1
10
23.4053999605861
20
-1.99378678124279
30
0
41
1
10
22.9652311002017
20
-1.80586293030822
30
0
41
1
10
22.6722629868494
20
-1.6756604612284
30
0
41
1
10
22.2320115566254
20
-1.4743433974192
30
0
41
1
10
22.0851409644178
20
-1.40623235383001
30
0
41
1
10
21.7911209969898
20
-1.26794313085421
30
0
41
1
10
21.6440754025706
20
-1.19755946400633
30
0
41
1
10
21.2032958672177
20
-0.984929631813145
30
0
41
1
10
20.9100802102244
20
-0.839904409445353
30
0
41
1
10
20.3234631717548
20
-0.547475546508281
30
0
41
1
10
20.0303899256714
20
-0.399172080897046
30
0
41
1
10
19.590132207494
20
-0.175314857159066
30
0
41
1
10
19.4432336190874
20
-0.100543590052553
30
0
41
1
10
19.1490188228225
20
0.0491081394014259
30
0
41
1
10
19.0020578390231
20
0.123646671134622
30
0
41
1
10
18.7085161079632
20
0.272675562519794
30
0
41
1
10
18.5617188591429
20
0.346815061170787
30
0
41
1
10
18.2684508977864
20
0.494949272173074
30
0
41
1
10
18.122000429464
20
0.568963194375357
30
0
41
1
10
17.6821166925473
20
0.788732989566938
30
0
41
1
10
17.3887434748388
20
0.933520289516224
30
0
41
1
10
16.8016486015707
20
1.2190191875527
30
0
41
1
10
16.5072338839676
20
1.35826891714055
30
0
41
1
10
16.0670039686486
20
1.56103768763174
30
0
41
1
10
15.9204722804415
20
1.62780074597626
30
0
41
1
10
15.6271678606402
20
1.75828379430746
30
0
41
1
10
15.4806057531353
20
1.82216421461553
30
0
41
1
10
15.0407633070546
20
2.01007454940364
30
0
41
1
10
14.7471580594508
20
2.13093100971383
30
0
41
1
10
14.1595120585801
20
2.36223087189657
30
0
41
1
10
13.8658490914051
20
2.47211482888593
30
0
41
1
10
13.4256149844154
20
2.62463514750925
30
0
41
1
10
13.27891761807
20
2.67353460614612
30
0
41
1
10
12.9855208644906
20
2.76709840717166
30
0
41
1
10
12.8386082094423
20
2.81186339210291
30
0
41
1
10
12.3983503342221
20
2.94238651800035
30
0
41
1
10
12.1042000188754
20
3.02270068367125
30
0
41
1
10
11.5169305071218
20
3.16581820177765
30
0
41
1
10
11.2240269833862
20
3.22885868917786
30
0
41
1
10
10.637340044395
20
3.33483828287461
30
0
41
1
10
10.3436031445065
20
3.37910850828612
30
0
41
1
10
10.0496257921621
20
3.41517134333898
30
0
0
SPLINE
5
D8
100
AcDbEntity
8
1
62
256
6
ByLayer
370
18
48
1
60
0
100
AcDbSpline
70
4
71
3
72
16
73
12
40
0
40
0
40
0
40
0
40
0.275596725322767
40
0.275596725322767
40
0.551193450645535
40
0.551193450645535
40
0.826790175968302
40
0.826790175968302
40
0.964588538629686
40
0.964588538629686
40
1
40
1
40
1
40
1
41
1
10
10.0496257921624
20
-3.4151713433391
30
0
41
1
10
10.3437040098691
20
-3.37909613491496
30
0
41
1
10
10.6374268826874
20
-3.33482161216853
30
0
41
1
10
11.2238472522479
20
-3.22889213996507
30
0
41
1
10
11.5164796959151
20
-3.16591155385055
30
0
41
1
10
12.1029435841615
20
-3.02302333925292
30
0
41
1
10
12.3964624432155
20
-2.94292807751421
30
0
41
1
10
12.8373982323908
20
-2.81223111888198
30
0
41
1
10
12.9844607094134
20
-2.76742698124008
30
0
41
1
10
13.16893240299
20
-2.70861113512905
30
0
41
1
10
13.2066388150064
20
-2.69644907148557
30
0
41
1
10
13.2443387238012
20
-2.68415251201279
30
0
0
SPLINE
5
D9
100
AcDbEntity
8
1
62
256
6
ByLayer
370
18
48
1
60
0
100
AcDbSpline
70
4
71
3
72
30
73
26
40
0
40
0
40
0
40
0
40
0.0153697102513777
40
0.0153697102513777
40
0.124773075779001
40
0.124773075779001
40
0.234176441306625
40
0.234176441306625
40
0.288878124070437
40
0.288878124070437
40
0.343579806834249
40
0.343579806834249
40
0.452983172361877
40
0.452983172361877
40
0.562386537889505
40
0.562386537889505
40
0.617088220653316
40
0.617088220653316
40
0.671789903417128
40
0.671789903417128
40
0.781193268944752
40
0.781193268944752
40
0.890596634472376
40
0.890596634472376
40
1
40
1
40
1
40
1
41
1
10
30.1667134878756
20
3.5302317173624
30
0
41
1
10
30.2079925164274
20
3.52999661543305
30
0
41
1
10
30.2492856120216
20
3.5295723199113
30
0
41
1
10
30.584641273148
20
3.52465181889795
30
0
41
1
10
30.8783820237438
20
3.51079021439705
30
0
41
1
10
31.4648356181371
20
3.46620513530817
30
0
41
1
10
31.7580993330789
20
3.43644826663976
30
0
41
1
10
32.1982030486576
20
3.37494953790107
30
0
41
1
10
32.3449287590975
20
3.35192803748174
30
0
41
1
10
32.6384798752845
20
3.30137416709144
30
0
41
1
10
32.7857197817903
20
3.27396249320773
30
0
41
1
10
33.226694656099
20
3.18470838450696
30
0
41
1
10
33.5202046137571
20
3.11671537478878
30
0
41
1
10
34.1068829432598
20
2.96609159621605
30
0
41
1
10
34.3998232962591
20
2.88189470236142
30
0
41
1
10
34.8400903184942
20
2.74386156737282
30
0
41
1
10
34.9869572814479
20
2.69595026184842
30
0
41
1
10
35.2808495370148
20
2.5963672852364
30
0
41
1
10
35.4278827531711
20
2.54460315365961
30
0
41
1
10
35.868893991014
20
2.38570867361935
30
0
41
1
10
36.1623389478585
20
2.27409188268081
30
0
41
1
10
36.7489664426921
20
2.03775995864524
30
0
41
1
10
37.0417701325425
20
1.91218220264906
30
0
41
1
10
37.6291249648636
20
1.65316879050164
30
0
41
1
10
37.9235582156441
20
1.51872731220462
30
0
41
1
10
38.2173338275564
20
1.3812633807172
30
0
0
SPLINE
5
DA
100
AcDbEntity
8
1
62
256
6
ByLayer
370
18
48
1
60
0
100
AcDbSpline
70
4
71
3
72
14
73
10
40
0
40
0
40
0
40
0
40
0.514072703408178
40
0.514072703408178
40
0.64259087926022
40
0.64259087926022
40
0.771109055112263
40
0.771109055112263
40
1
40
1
40
1
40
1
41
1
10
41.7291891676466
20
-3.53794641282912
30
0
41
1
10
40.9455782037708
20
-3.54601265678082
30
0
41
1
10
40.1660082762517
20
-3.48546093366846
30
0
41
1
10
39.1860629130942
20
-3.32810526213214
30
0
41
1
10
38.9894570600461
20
-3.29248000879105
30
0
41
1
10
38.5975172279343
20
-3.21370239923073
30
0
41
1
10
38.4021262999506
20
-3.17054588519304
30
0
41
1
10
37.8599750603504
20
-3.04045126369672
30
0
41
1
10
37.514148498537
20
-2.94563386175148
30
0
41
1
10
37.168910145907
20
-2.84039325600077
30
0
0
SPLINE
5
DB
100
AcDbEntity
8
1
62
256
6
ByLayer
370
13
48
1
60
0
100
AcDbSpline
70
4
71
3
72
26
73
22
40
0
40
0
40
0
40
0
40
0.0125085945758242
40
0.0125085945758242
40
0.240975647305091
40
0.240975647305091
40
0.298092410487407
40
0.298092410487407
40
0.355209173669724
40
0.355209173669724
40
0.469442700034357
40
0.469442700034357
40
0.697909752763624
40
0.697909752763624
40
0.812143279128257
40
0.812143279128257
40
0.869260042310572
40
0.869260042310572
40
0.926376805492887
40
0.926376805492887
40
1
40
1
40
1
40
1
41
1
10
37.1689107180163
20
-2.84039343039947
30
0
41
1
10
37.1264585469326
20
-2.82745253994222
30
0
41
1
10
37.0840152697821
20
-2.81435404702455
30
0
41
1
10
36.2664968789457
20
-2.55901660307552
30
0
41
1
10
35.4937149775361
20
-2.26516284861313
30
0
41
1
10
34.5195789505743
20
-1.8485019529376
30
0
41
1
10
34.3243343925143
20
-1.7627252108384
30
0
41
1
10
33.9327543360714
20
-1.58662418547493
30
0
41
1
10
33.7360301683008
20
-1.49612312315239
30
0
41
1
10
33.1482341366394
20
-1.22060838317449
30
0
41
1
10
32.7586307542206
20
-1.03131086755226
30
0
41
1
10
31.5931039624606
20
-0.453522139504202
30
0
41
1
10
30.8207686732625
20
-0.0545069501506532
30
0
41
1
10
29.65542750397
20
0.536936417755271
30
0
41
1
10
29.265845613945
20
0.732923225285958
30
0
41
1
10
28.6782758220396
20
1.02215076428087
30
0
41
1
10
28.4815957711619
20
1.11782345408721
30
0
41
1
10
28.0891972025753
20
1.30572676770629
30
0
41
1
10
27.8932550803783
20
1.39807147167576
30
0
41
1
10
27.4450060543674
20
1.6051703014671
30
0
41
1
10
27.1927662949044
20
1.71868244639373
30
0
41
1
10
26.9404317207936
20
1.82860680361114
30
0
0
SPLINE
5
DC
100
AcDbEntity
8
1
62
256
6
ByLayer
370
18
48
1
60
0
100
AcDbSpline
70
4
71
3
72
59
73
55
40
0
40
0
40
0
40
0
40
0.0624999999999976
40
0.0624999999999976
40
0.124999999999995
40
0.124999999999995
40
0.156249999999994
40
0.156249999999994
40
0.187499999999993
40
0.187499999999993
40
0.203124999999992
40
0.203124999999992
40
0.218749999999992
40
0.218749999999992
40
0.234374999999991
40
0.234374999999991
40
0.249999999999991
40
0.249999999999991
40
0.26562499999999
40
0.26562499999999
40
0.281249999999989
40
0.281249999999989
40
0.296874999999989
40
0.296874999999989
40
0.312499999999988
40
0.312499999999988
40
0.328124999999988
40
0.328124999999988
40
0.343749999999987
40
0.343749999999987
40
0.374999999999984
40
0.374999999999984
40
0.406249999999982
40
0.406249999999982
40
0.414062499999981
40
0.414062499999981
40
0.421874999999979
40
0.421874999999979
40
0.429687499999978
40
0.429687499999978
40
0.433593749999977
40
0.433593749999977
40
0.437499999999977
40
0.499999999999979
40
0.499999999999979
40
0.562499999999982
40
0.562499999999982
40
0.624999999999984
40
0.624999999999984
40
0.749999999999989
40
0.749999999999989
40
0.874999999999995
40
0.874999999999995
40
1
40
1
40
1
40
1
41
1
10
4.0085101452606
20
-2.82337806775956
30
0
41
1
10
3.79756314504826
20
-2.73114566950238
30
0
41
1
10
3.59035230486339
20
-2.63026847837458
30
0
41
1
10
3.18705682905804
20
-2.40533148370258
30
0
41
1
10
2.99077617784229
20
-2.28159154382683
30
0
41
1
10
2.71096535966666
20
-2.06832669802793
30
0
41
1
10
2.62021739673193
20
-1.99246514255361
30
0
41
1
10
2.449640561075
20
-1.83101503175618
30
0
41
1
10
2.36934004817044
20
-1.74519220070096
30
0
41
1
10
2.26011390050189
20
-1.60534439951604
30
0
41
1
10
2.22559693946687
20
-1.55685665968051
30
0
41
1
10
2.16143877737949
20
-1.45512429269712
30
0
41
1
10
2.13193432754161
20
-1.4019962625477
30
0
41
1
10
2.08069105731192
20
-1.29256989912526
30
0
41
1
10
2.05875947236564
20
-1.23600429263826
30
0
41
1
10
2.0241802506614
20
-1.11828606857657
30
0
41
1
10
2.01177495273441
20
-1.05754937445681
30
0
41
1
10
1.99885171388405
20
-0.935502944314379
30
0
41
1
10
1.99816171636292
20
-0.873723339369491
30
0
41
1
10
2.00961539851869
20
-0.748544188787918
30
0
41
1
10
2.02187743578406
20
-0.685909805289441
30
0
41
1
10
2.05786451679961
20
-0.565036446104813
30
0
41
1
10
2.08168286843093
20
-0.505990200603549
30
0
41
1
10
2.13970085695181
20
-0.391153767945866
30
0
41
1
10
2.17311514817601
20
-0.336800940468038
30
0
41
1
10
2.24693586164185
20
-0.232974761674541
30
0
41
1
10
2.28735286105115
20
-0.183508670346441
30
0
41
1
10
2.37396379930377
20
-0.0886192212208528
30
0
41
1
10
2.42005346050306
20
-0.0433551625095276
30
0
41
1
10
2.56260512692535
20
0.0848532652610174
30
0
41
1
10
2.66425649298011
20
0.161376793396187
30
0
41
1
10
2.87646188676121
20
0.302409160515964
30
0
41
1
10
2.98737547668225
20
0.366970374027204
30
0
41
1
10
3.12912700789525
20
0.441321886177462
30
0
41
1
10
3.15763974013123
20
0.455875392783867
30
0
41
1
10
3.21496967189768
20
0.484389679064236
30
0
41
1
10
3.24367254399618
20
0.498704887274897
30
0
41
1
10
3.30179062226574
20
0.525321584999006
30
0
41
1
10
3.33482124968717
20
0.529720092300067
30
0
41
1
10
3.38277074301738
20
0.528457745785801
30
0
41
1
10
3.39869427714672
20
0.527102980373485
30
0
41
1
10
3.43057143847938
20
0.524864585735287
30
0
41
1
10
3.70150280228344
20
0.505425053385039
30
0
41
1
10
3.97195519314059
20
0.478961050514243
30
0
41
1
10
4.47910654246539
20
0.417023512381121
30
0
41
1
10
4.73186268906449
20
0.379989272539973
30
0
41
1
10
5.23578665168986
20
0.294039232359267
30
0
41
1
10
5.48660525517948
20
0.245148276021496
30
0
41
1
10
6.23279636123192
20
0.082174002919885
30
0
41
1
10
6.72309143172882
20
-0.0484089679515591
30
0
41
1
10
7.69113964496014
20
-0.346194450027127
30
0
41
1
10
8.16891591126719
20
-0.51331088790073
30
0
41
1
10
9.11515052064379
20
-0.872449306220147
30
0
41
1
10
9.58362706697523
20
-1.06440477290644
30
0
41
1
10
10.0496257921625
20
-1.26138654287274
30
0
0
SPLINE
5
DD
100
AcDbEntity
8
1
62
256
6
ByLayer
370
18
48
1
60
0
100
AcDbSpline
70
4
71
3
72
36
73
32
40
0
40
0
40
0
40
0
40
0.0625000000000056
40
0.0625000000000056
40
0.125000000000011
40
0.125000000000011
40
0.250000000000022
40
0.250000000000022
40
0.312500000000028
40
0.312500000000028
40
0.375000000000034
40
0.375000000000034
40
0.406250000000033
40
0.406250000000033
40
0.437500000000033
40
0.437500000000033
40
0.468750000000033
40
0.468750000000033
40
0.500000000000032
40
0.500000000000032
40
0.531250000000032
40
0.531250000000032
40
0.562500000000032
40
0.562500000000032
40
0.625000000000031
40
0.625000000000031
40
0.750000000000021
40
0.750000000000021
40
0.87500000000001
40
0.87500000000001
40
1
40
1
40
1
40
1
41
1
10
42.0342470797987
20
-1.66501811018927
30
0
41
1
10
41.9749851297893
20
-1.64799304000152
30
0
41
1
10
41.9157888173829
20
-1.62815830286414
30
0
41
1
10
41.7975269770436
20
-1.58289050088686
30
0
41
1
10
41.7382356091134
20
-1.55734544350477
30
0
41
1
10
41.5625329056465
20
-1.47246755096569
30
0
41
1
10
41.4482303989354
20
-1.40566351665461
30
0
41
1
10
41.2832652355478
20
-1.28204970665894
30
0
41
1
10
41.229669668288
20
-1.23705345092864
30
0
41
1
10
41.1286281903663
20
-1.13669260770339
30
0
41
1
10
41.08125393192
20
-1.08195116586086
30
0
41
1
10
41.0225156811915
20
-0.987740901963974
30
0
41
1
10
41.0051066893558
20
-0.95422271223228
30
0
41
1
10
40.9796198279817
20
-0.883703882203548
30
0
41
1
10
40.9718741005704
20
-0.847152757706652
30
0
41
1
10
40.9724260638038
20
-0.776147462250719
30
0
41
1
10
40.9811392215339
20
-0.743204085202677
30
0
41
1
10
41.0110785856447
20
-0.688769945125642
30
0
41
1
10
41.0317095571395
20
-0.667147439221452
30
0
41
1
10
41.077878747876
20
-0.632591032506383
30
0
41
1
10
41.1034646837186
20
-0.619549153086979
30
0
41
1
10
41.156323040473
20
-0.599232794541507
30
0
41
1
10
41.183930793242
20
-0.591844271284231
30
0
41
1
10
41.2688095397383
20
-0.575567167315256
30
0
41
1
10
41.3266822084233
20
-0.572586412221341
30
0
41
1
10
41.5024648031306
20
-0.576883356933024
30
0
41
1
10
41.6230452322972
20
-0.597717606183409
30
0
41
1
10
41.8601421741962
20
-0.658944381909123
30
0
41
1
10
41.9778789109432
20
-0.699824807360528
30
0
41
1
10
42.2118594070004
20
-0.80046924776633
30
0
41
1
10
42.3289861525511
20
-0.860651339495149
30
0
41
1
10
42.441780622356
20
-0.932321997252785
30
0
0
SPLINE
5
DE
100
AcDbEntity
8
1
62
256
6
ByLayer
370
18
48
1
60
0
100
AcDbSpline
70
4
71
3
72
18
73
14
40
0
40
0
40
0
40
0
40
0.174501004735226
40
0.174501004735226
40
0.312084170612688
40
0.312084170612688
40
0.449667336490151
40
0.449667336490151
40
0.724833668245075
40
0.724833668245075
40
0.862416834122538
40
0.862416834122538
40
1
40
1
40
1
40
1
41
1
10
4.00842105174911
20
-3.70133220614073
30
0
41
1
10
4.00842442140424
20
-3.70202675508418
30
0
41
1
10
4.00842812889715
20
-3.69330230227089
30
0
41
1
10
4.00843551295924
20
-3.66119487126144
30
0
41
1
10
4.00843902533563
20
-3.64126248605271
30
0
41
1
10
4.00844659170048
20
-3.58952939353139
30
0
41
1
10
4.008450643797
20
-3.55768464546441
30
0
41
1
10
4.00846328940196
20
-3.44641826484767
30
0
41
1
10
4.0084724728257
20
-3.35090393721313
30
0
41
1
10
4.00848669831842
20
-3.17567611572448
30
0
41
1
10
4.00849153508619
20
-3.11153896985823
30
0
41
1
10
4.00850104255068
20
-2.97393918794697
30
0
41
1
10
4.00850569604432
20
-2.90077833274461
30
0
41
1
10
4.0085101452606
20
-2.82337806775956
30
0
0
SPLINE
5
DF
100
AcDbEntity
8
1
62
256
6
ByLayer
370
18
48
1
60
0
100
AcDbSpline
70
4
71
3
72
14
73
10
40
0
40
0
40
0
40
0
40
0.25
40
0.25
40
0.5
40
0.5
40
0.75
40
0.75
40
1
40
1
40
1
40
1
41
1
10
41.6399861143547
20
0.79023412365197
30
0
41
1
10
41.6391657107594
20
0.805516717586954
30
0
41
1
10
41.6424583455911
20
0.820983121765209
30
0
41
1
10
41.6578161723131
20
0.847829766748561
30
0
41
1
10
41.6698633226945
20
0.859071569285391
30
0
41
1
10
41.6969913052582
20
0.875063301412553
30
0
41
1
10
41.7122842969125
20
0.880245252747216
30
0
41
1
10
41.7430681670573
20
0.886324104553267
30
0
41
1
10
41.758865670787
20
0.887325636052765
30
0
41
1
10
41.7746334995509
20
0.886811881627295
30
0
0
SPLINE
5
E0
100
AcDbEntity
8
1
62
256
6
ByLayer
370
18
48
1
60
0
100
AcDbSpline
70
4
71
3
72
8
73
4
40
0
40
0
40
0
40
0
40
1
40
1
40
1
40
1
41
1
10
41.7194951276799
20
-3.63303507149249
30
0
41
1
10
41.7075938646163
20
-3.66241335908075
30
0
41
1
10
41.695676707917
20
-3.6917593891022
30
0
41
1
10
41.6837454172436
20
-3.72107124508017
30
0
0
SPLINE
5
E1
100
AcDbEntity
8
1
62
256
6
ByLayer
370
18
48
1
60
0
100
AcDbSpline
70
4
71
3
72
8
73
4
40
0
40
0
40
0
40
0
40
1
40
1
40
1
40
1
41
1
10
42.9894777949993
20
0.117786343536324
30
0
41
1
10
42.9901605028444
20
0.0960978214841646
30
0
41
1
10
42.9941359801379
20
0.0696426445127258
30
0
41
1
10
42.9999558788379
20
0.0417765557808139
30
0
0
SPLINE
5
E2
100
AcDbEntity
8
1
62
256
6
ByLayer
370
18
48
1
60
0
100
AcDbSpline
70
4
71
3
72
8
73
4
40
0
40
0
40
0
40
0
40
1
40
1
40
1
40
1
41
1
10
41.8767440905439
20
-3.62470705586622
30
0
41
1
10
41.8045799700448
20
-3.6782830835231
30
0
41
1
10
41.7404944033711
20
-3.71053209544613
30
0
41
1
10
41.6837454172436
20
-3.72107124508017
30
0
0
SPLINE
5
E3
100
AcDbEntity
8
1
62
256
6
ByLayer
370
18
48
1
60
0
100
AcDbSpline
70
4
71
3
72
14
73
10
40
0
40
0
40
0
40
0
40
0.25
40
0.25
40
0.5
40
0.5
40
0.75
40
0.75
40
1
40
1
40
1
40
1
41
1
10
41.7291891676418
20
-3.53794641282914
30
0
41
1
10
41.7324891240598
20
-3.5376628255043
30
0
41
1
10
41.7351528720351
20
-3.53904149099097
30
0
41
1
10
41.7387962388349
20
-3.54617215508193
30
0
41
1
10
41.7397249203928
20
-3.55200303049537
30
0
41
1
10
41.7386906412231
20
-3.56912720081314
30
0
41
1
10
41.7366515063939
20
-3.58043666038529
30
0
41
1
10
41.7296882680335
20
-3.60591012070123
30
0
41
1
10
41.7248314402818
20
-3.61986237499451
30
0
41
1
10
41.7194951276803
20
-3.63303507149155
30
0
0
SPLINE
5
E4
100
AcDbEntity
8
1
62
256
6
ByLayer
370
18
48
1
60
0
100
AcDbSpline
70
4
71
3
72
10
73
6
40
0
40
0
40
0
40
0
40
0.5
40
0.5
40
1
40
1
40
1
40
1
41
1
10
41.7746334995509
20
0.886811881627295
30
0
41
1
10
41.9711232009309
20
0.880409766589736
30
0
41
1
10
42.1676214576187
20
0.873925759378523
30
0
41
1
10
42.5605659760198
20
0.861455445520335
30
0
41
1
10
42.7568351306876
20
0.857164423420215
30
0
41
1
10
42.9531639605946
20
0.852302184571442
30
0
0
SPLINE
5
E5
100
AcDbEntity
8
1
62
256
6
ByLayer
370
18
48
1
60
0
100
AcDbSpline
70
4
71
3
72
8
73
4
40
0
40
0
40
0
40
0
40
1
40
1
40
1
40
1
41
1
10
42.9999558788412
20
0.0417765557693031
30
0
41
1
10
43.0000147105264
20
0.0139238737837104
30
0
41
1
10
43.0000147019432
20
-0.013927937320716
30
0
41
1
10
42.9999558788412
20
-0.0417765557556038
30
0
0
SPLINE
5
E6
100
AcDbEntity
8
1
62
256
6
ByLayer
370
18
48
1
60
0
100
AcDbSpline
70
4
71
3
72
8
73
4
40
0
40
0
40
0
40
0
40
1
40
1
40
1
40
1
41
1
10
42.9531639605854
20
0.852302184572039
30
0
41
1
10
42.9696751706043
20
0.607177723828983
30
0
41
1
10
42.9817798019754
20
0.362339108859544
30
0
41
1
10
42.9894777949992
20
0.117786343536324
30
0
0
SPLINE
5
E7
100
AcDbEntity
8
1
62
256
6
ByLayer
370
13
48
1
60
0
100
AcDbSpline
70
4
71
3
72
8
73
4
40
0
40
0
40
0
40
0
40
1
40
1
40
1
40
1
41
1
10
4.00834846871487
20
2.42715157558746
30
0
41
1
10
4.01474907550849
20
2.40097987799163
30
0
41
1
10
4.02474771686042
20
2.37584590041885
30
0
41
1
10
4.03828790787111
20
2.35255353198525
30
0
0
SPLINE
5
E8
100
AcDbEntity
8
1
62
256
6
ByLayer
370
18
48
1
60
0
100
AcDbSpline
70
4
71
1
72
4
73
2
40
0
40
0
40
1
40
1
41
1
10
41.4585300270852
20
-3.53841976859087
30
0
41
1
10
41.6916693050452
20
-3.53729922366352
30
0
0
SPLINE
5
E9
100
AcDbEntity
8
1
62
256
6
ByLayer
370
18
48
1
60
0
100
AcDbSpline
70
4
71
3
72
26
73
22
40
0
40
0
40
0
40
0
40
0.0628232709592605
40
0.111594987734473
40
0.141292563602257
40
0.167276901570839
40
0.25128021632784
40
0.317460021214044
40
0.392830630799189
40
0.466020617680249
40
0.523965469757234
40
0.57367255780373
40
0.641777129849827
40
0.711301659870776
40
0.767853993603054
40
0.802010007187938
40
0.834895147793491
40
0.872696272147085
40
0.917723285049968
40
0.979895902567269
40
1
40
1
40
1
40
1
41
1
10
19.8364319864073
20
-3.52509610394168
30
0
41
1
10
20.0528879403751
20
-3.52514260280807
30
0
41
1
10
20.4373926215982
20
-3.52529731039687
30
0
41
1
10
20.9242287913136
20
-3.52523250092159
30
0
41
1
10
21.2841513972455
20
-3.52577186155384
30
0
41
1
10
21.7654095257135
20
-3.52652610306384
30
0
41
1
10
22.3724586209818
20
-3.5263308707342
30
0
41
1
10
23.1496125414203
20
-3.52546832654463
30
0
41
1
10
23.8895399446551
20
-3.52849801446573
30
0
41
1
10
24.6010847020534
20
-3.52747747997554
30
0
41
1
10
25.2242027531949
20
-3.52654651748804
30
0
41
1
10
25.8298006088242
20
-3.52734557739683
30
0
41
1
10
26.4752968801052
20
-3.52806390944306
30
0
41
1
10
27.1443776641778
20
-3.53010936880199
30
0
41
1
10
27.6964857938632
20
-3.52845259161316
30
0
41
1
10
28.1223459910564
20
-3.52770187582104
30
0
41
1
10
28.4835935502419
20
-3.52742340212629
30
0
41
1
10
28.8823177693496
20
-3.52724797325339
30
0
41
1
10
29.3807588595702
20
-3.5302839711068
30
0
41
1
10
29.8199623944848
20
-3.53077645349447
30
0
41
1
10
30.1031799077557
20
-3.53033109709369
30
0
41
1
10
30.1723819103048
20
-3.53016860590634
30
0
0
SPLINE
5
EA
100
AcDbEntity
8
1
62
256
6
ByLayer
370
18
48
1
60
0
100
AcDbSpline
70
4
71
3
72
25
73
21
40
0
40
0
40
0
40
0
40
0.0117160440658779
40
0.0821797407076999
40
0.133932265674751
40
0.177363712336094
40
0.21451753732985
40
0.249046550443591
40
0.28510447033176
40
0.354509059613464
40
0.439833946000242
40
0.523416170443212
40
0.584419842674258
40
0.643142335263249
40
0.712308981830368
40
0.796243702239676
40
0.860856928755577
40
0.907914151936174
40
0.968250966089825
40
1
40
1
40
1
40
1
41
1
10
30.1740699915845
20
3.53017194190301
30
0
41
1
10
30.1412085697422
20
3.53023257308888
30
0
41
1
10
29.9107011602972
20
3.53056804324123
30
0
41
1
10
29.5343111007819
20
3.53139222980795
30
0
41
1
10
29.0699809798482
20
3.52772540745167
30
0
41
1
10
28.6987767455249
20
3.52743695678581
30
0
41
1
10
28.3755563974396
20
3.52743897138603
30
0
41
1
10
28.0730720470661
20
3.52780295376462
30
0
41
1
10
27.6800312121073
20
3.52849103578024
30
0
41
1
10
27.1443779446598
20
3.53011414926621
30
0
41
1
10
26.4752968177455
20
3.52806175691845
30
0
41
1
10
25.8298005621583
20
3.5273484883482
30
0
41
1
10
25.2589921163221
20
3.52658546784593
30
0
41
1
10
24.7286577406557
20
3.52727162426973
30
0
41
1
10
24.1339460339098
20
3.52826579128626
30
0
41
1
10
23.5226922270562
20
3.52677920125518
30
0
41
1
10
22.9735057192085
20
3.52582400287881
30
0
41
1
10
22.4905959786396
20
3.52617430861312
30
0
41
1
10
22.0999401034526
20
3.52636242241482
30
0
41
1
10
21.8413978901329
20
3.52634945486275
30
0
41
1
10
21.7522607282843
20
3.52631062606324
30
0
0
SPLINE
5
EB
100
AcDbEntity
8
1
62
256
6
ByLayer
370
18
48
1
60
0
100
AcDbSpline
70
4
71
3
72
18
73
14
40
0
40
0
40
0
40
0
40
0.0793488682370654
40
0.179272898297349
40
0.244398985832557
40
0.305731211176089
40
0.383377080046502
40
0.475936353246544
40
0.565008258147277
40
0.697987929234811
40
0.808071513716442
40
0.954998770991605
40
1
40
1
40
1
40
1
41
1
10
4.25047973560157
20
-3.51554526608703
30
0
41
1
10
4.36123941738273
20
-3.51581136653459
30
0
41
1
10
4.61147848357359
20
-3.51628089930853
30
0
41
1
10
4.95262153264986
20
-3.51635472586827
30
0
41
1
10
5.26861808431204
20
-3.51632318370278
30
0
41
1
10
5.55351852027121
20
-3.51625242585564
30
0
41
1
10
5.87671003813483
20
-3.51634743481753
30
0
41
1
10
6.23862561845959
20
-3.51712390107559
30
0
41
1
10
6.67776401400349
20
-3.51773013486579
30
0
41
1
10
7.14139978936058
20
-3.5176872814408
30
0
41
1
10
7.68508054197798
20
-3.51770247337379
30
0
41
1
10
8.10692672955005
20
-3.51737995728132
30
0
41
1
10
8.37467073761636
20
-3.51791443337737
30
0
41
1
10
8.43744700079253
20
-3.51805899446313
30
0
0
SPLINE
5
EC
100
AcDbEntity
8
1
62
256
6
ByLayer
370
18
48
1
60
0
100
AcDbSpline
70
4
71
3
72
17
73
13
40
0
40
0
40
0
40
0
40
0.043931586187019
40
0.191023449196477
40
0.301230362688391
40
0.43435901373741
40
0.539329008418992
40
0.643907941053895
40
0.726678572228864
40
0.795011505547981
40
0.901431994462203
40
1
40
1
40
1
40
1
41
1
10
8.43276430468353
20
3.51805017985882
30
0
41
1
10
8.37154863101131
20
3.51790970524632
30
0
41
1
10
8.10536493998046
20
3.51737862757346
30
0
41
1
10
7.68508038312876
20
3.51770445995615
30
0
41
1
10
7.14139956656663
20
3.51768332643709
30
0
41
1
10
6.65573669770714
20
3.51774808028122
30
0
41
1
10
6.17795546250937
20
3.51697739941361
30
0
41
1
10
5.77037447676719
20
3.51622559861781
30
0
41
1
10
5.41387892190963
20
3.51628782171827
30
0
41
1
10
5.05481389101107
20
3.51635714755574
30
0
41
1
10
4.6737273655996
20
3.51634639546305
30
0
41
1
10
4.38791298769405
20
3.51584130027456
30
0
41
1
10
4.25047999803672
20
3.515516917355
30
0
0
SPLINE
5
ED
100
AcDbEntity
8
1
62
256
6
ByLayer
370
18
48
1
60
0
100
AcDbSpline
70
4
71
2
72
6
73
3
40
0
40
0
40
0
40
1
40
1
40
1
41
1
10
30.4964191104444
20
-0.0002854302360618
30
0
41
1
10
30.4964071415717
20
-0.0002801678430728
30
0
41
1
10
30.4963951726829
20
-0.0002747280996402
30
0
0
LINE
5
7B
100
AcDbEntity
8
SK1
62
256
6
ByLayer
370
18
48
1
60
0
100
AcDbLine
10
0
20
-4
30
0
11
0
21
4
31
0
39
0
210
0
220
0
230
1
0
LINE
5
7D
100
AcDbEntity
8
SK1
62
256
6
ByLayer
370
18
48
1
60
0
100
AcDbLine
10
-36
20
1.820853
30
0
11
-36
21
-2.76
31
0
39
0
210
0
220
0
230
1
0
LINE
5
7E
100
AcDbEntity
8
SK1
62
256
6
ByLayer
370
18
48
1
60
0
100
AcDbLine
10
-34.76
20
4
30
0
11
-34.76
21
-4
31
0
39
0
210
0
220
0
230
1
0
LINE
5
7F
100
AcDbEntity
8
SK1
62
256
6
ByLayer
370
18
48
1
60
0
100
AcDbLine
10
-36
20
2.76
30
0
11
-36
21
2.636779
31
0
39
0
210
0
220
0
230
1
0
LINE
5
80
100
AcDbEntity
8
SK1
62
256
6
ByLayer
370
18
48
1
60
0
100
AcDbLine
10
-36
20
2.636779
30
0
11
-36
21
1.820823
31
0
39
0
210
0
220
0
230
1
0
LINE
5
81
100
AcDbEntity
8
SK1
62
256
6
ByLayer
370
18
48
1
60
0
100
AcDbLine
10
-35.4
20
2.412606
30
0
11
-35.4
21
3.119742
31
0
39
0
210
0
220
0
230
1
0
LINE
5
82
100
AcDbEntity
8
SK1
62
256
6
ByLayer
370
13
48
1
60
0
100
AcDbLine
10
-35.5
20
3.070108
30
0
11
-35.5
21
2.25416
31
0
39
0
210
0
220
0
230
1
0
LINE
5
83
100
AcDbEntity
8
1
62
256
6
ByLayer
370
13
48
1
60
0
100
AcDbLine
10
0.466779
20
3.849705
30
0
11
0.466779
21
-3.849705
31
0
39
0
210
0
220
0
230
1
0
LINE
5
84
100
AcDbEntity
8
1
62
256
6
ByLayer
370
13
48
1
60
0
100
AcDbLine
10
41.774633
20
0.886812
30
0
11
42.989478
21
0.117786
31
0
39
0
210
0
220
0
230
1
0
LINE
5
85
100
AcDbEntity
8
1
62
256
6
ByLayer
370
18
48
1
60
0
100
AcDbLine
10
0
20
-4
30
0
11
0
21
4
31
0
39
0
210
0
220
0
230
1
0
LINE
5
86
100
AcDbEntity
8
1
62
256
6
ByLayer
370
13
48
1
60
0
100
AcDbLine
10
0.934058
20
3.699411
30
0
11
0.934058
21
-3.699411
31
0
39
0
210
0
220
0
230
1
0
LINE
5
87
100
AcDbEntity
8
1
62
256
6
ByLayer
370
13
48
1
60
0
100
AcDbLine
10
41.639986
20
0.790234
30
0
11
42.964254
21
-0.048059
31
0
39
0
210
0
220
0
230
1
0
LINE
5
88
100
AcDbEntity
8
80
62
256
6
ByLayer
370
18
48
1
60
0
100
AcDbLine
10
0
20
0
30
0
11
-5
21
0
31
0
39
0
210
0
220
0
230
1
0
LINE
5
89
100
AcDbEntity
8
4
62
256
6
ByLayer
370
18
48
0.05
60
0
100
AcDbLine
10
43
20
0
30
0
11
0
21
0
31
0
39
0
210
0
220
0
230
1
0
LINE
5
8B
100
AcDbEntity
8
SK4
62
256
6
ByLayer
370
18
48
0.05
60
0
100
AcDbLine
10
48
20
0
30
0
11
-41
21
0
31
0
39
0
210
0
220
0
230
1
0
LINE
5
8D
100
AcDbEntity
8
SK1
62
256
6
ByLayer
370
18
48
1
60
0
100
AcDbLine
10
-34.76
20
-4
30
0
11
0
21
-4
31
0
39
0
210
0
220
0
230
1
0
LINE
5
8E
100
AcDbEntity
8
SK1
62
256
6
ByLayer
370
18
48
1
60
0
100
AcDbLine
10
0
20
4
30
0
11
-34.76
21
4
31
0
39
0
210
0
220
0
230
1
0
LINE
5
8F
100
AcDbEntity
8
SK1
62
256
6
ByLayer
370
18
48
1
60
0
100
AcDbLine
10
-36
20
-2.76
30
0
11
-34.76
21
-4
31
0
39
0
210
0
220
0
230
1
0
LINE
5
90
100
AcDbEntity
8
SK1
62
256
6
ByLayer
370
18
48
1
60
0
100
AcDbLine
10
-34.76
20
4
30
0
11
-36
21
2.76
31
0
39
0
210
0
220
0
230
1
0
LINE
5
91
100
AcDbEntity
8
1
62
256
6
ByLayer
370
18
48
1
60
0
100
AcDbLine
10
0.934058
20
-3.699411
30
0
11
4.008414
21
-3.701333
31
0
39
0
210
0
220
0
230
1
0
LINE
5
92
100
AcDbEntity
8
1
62
256
6
ByLayer
370
18
48
1
60
0
100
AcDbLine
10
18.518594
20
-3.710401
30
0
11
19.620847
21
-3.71109
31
0
39
0
210
0
220
0
230
1
0
LINE
5
93
100
AcDbEntity
8
1
62
256
6
ByLayer
370
18
48
1
60
0
100
AcDbLine
10
40.268044
20
-3.723995
30
0
11
41.371426
21
-3.724684
31
0
39
0
210
0
220
0
230
1
0
LINE
5
94
100
AcDbEntity
8
1
62
256
6
ByLayer
370
18
48
1
60
0
100
AcDbLine
10
41.371282
20
3.724684
30
0
11
40.268044
21
3.723995
31
0
39
0
210
0
220
0
230
1
0
LINE
5
95
100
AcDbEntity
8
1
62
256
6
ByLayer
370
18
48
1
60
0
100
AcDbLine
10
19.620651
20
3.71109
30
0
11
18.518594
21
3.710401
31
0
39
0
210
0
220
0
230
1
0
LINE
5
96
100
AcDbEntity
8
1
62
256
6
ByLayer
370
18
48
1
60
0
100
AcDbLine
10
4.008414
20
3.701333
30
0
11
0.934058
21
3.699411
31
0
39
0
210
0
220
0
230
1
0
LINE
5
97
100
AcDbEntity
8
81
62
256
6
ByLayer
370
18
48
1
60
0
100
AcDbLine
10
43
20
0
30
0
11
48
21
0
31
0
39
0
210
0
220
0
230
1
0
LINE
5
98
100
AcDbEntity
8
SK2
62
256
6
ByLayer
370
13
48
1
60
0
100
AcDbLine
10
-44.625163
20
-4
30
0
11
-44.625163
21
33.117107
31
0
39
0
210
0
220
0
230
1
0
LINE
5
9A
100
AcDbEntity
8
SK2
62
256
6
ByLayer
370
13
48
1
60
0
100
AcDbLine
10
-37.5875
20
4
30
0
11
-46.625163
21
4
31
0
39
0
210
0
220
0
230
1
0
LINE
5
9B
100
AcDbEntity
8
SK2
62
256
6
ByLayer
370
13
48
1
60
0
100
AcDbLine
10
-37.5875
20
-4
30
0
11
-46.625163
21
-4
31
0
39
0
210
0
220
0
230
1
0
LINE
5
9C
100
AcDbEntity
8
1
62
256
6
ByLayer
370
18
48
1
60
1
100
AcDbLine
10
-44.625163
20
4
30
0
11
-44.164379
21
0.500002
31
0
39
0
210
0
220
0
230
1
0
LINE
5
9D
100
AcDbEntity
8
1
62
256
6
ByLayer
370
18
48
1
60
1
100
AcDbLine
10
-44.164379
20
0.500002
30
0
11
-45.085946
21
0.499998
31
0
39
0
210
0
220
0
230
1
0
LINE
5
9E
100
AcDbEntity
8
1
62
256
6
ByLayer
370
18
48
1
60
1
100
AcDbLine
10
-45.085946
20
0.499998
30
0
11
-44.625163
21
4
31
0
39
0
210
0
220
0
230
1
0
LINE
5
9F
100
AcDbEntity
8
1
62
256
6
ByLayer
370
18
48
1
60
1
100
AcDbLine
10
-44.625163
20
-4
30
0
11
-45.085946
21
-0.500002
31
0
39
0
210
0
220
0
230
1
0
LINE
5
A0
100
AcDbEntity
8
1
62
256
6
ByLayer
370
18
48
1
60
1
100
AcDbLine
10
-45.085946
20
-0.500002
30
0
11
-44.164379
21
-0.499998
31
0
39
0
210
0
220
0
230
1
0
LINE
5
A1
100
AcDbEntity
8
1
62
256
6
ByLayer
370
18
48
1
60
1
100
AcDbLine
10
-44.164379
20
-0.499998
30
0
11
-44.625163
21
-4
31
0
39
0
210
0
220
0
230
1
0
LINE
5
A2
100
AcDbEntity
8
2
62
256
6
ByLayer
370
13
48
1
60
0
100
AcDbLine
10
55.083343
20
-3.725
30
0
11
55.083343
21
31.803727
31
0
39
0
210
0
220
0
230
1
0
LINE
5
A4
100
AcDbEntity
8
2
62
256
6
ByLayer
370
13
48
1
60
0
100
AcDbLine
10
43.4878
20
3.725
30
0
11
57.083343
21
3.725
31
0
39
0
210
0
220
0
230
1
0
LINE
5
A5
100
AcDbEntity
8
2
62
256
6
ByLayer
370
13
48
1
60
0
100
AcDbLine
10
43.4878
20
-3.725
30
0
11
57.083343
21
-3.725
31
0
39
0
210
0
220
0
230
1
0
LINE
5
A6
100
AcDbEntity
8
1
62
256
6
ByLayer
370
18
48
1
60
1
100
AcDbLine
10
55.083343
20
3.725
30
0
11
55.544126
21
0.225002
31
0
39
0
210
0
220
0
230
1
0
LINE
5
A7
100
AcDbEntity
8
1
62
256
6
ByLayer
370
18
48
1
60
1
100
AcDbLine
10
55.544126
20
0.225002
30
0
11
54.622559
21
0.224998
31
0
39
0
210
0
220
0
230
1
0
LINE
5
A8
100
AcDbEntity
8
1
62
256
6
ByLayer
370
18
48
1
60
1
100
AcDbLine
10
54.622559
20
0.224998
30
0
11
55.083343
21
3.725
31
0
39
0
210
0
220
0
230
1
0
LINE
5
A9
100
AcDbEntity
8
1
62
256
6
ByLayer
370
18
48
1
60
1
100
AcDbLine
10
55.083343
20
-3.725
30
0
11
54.622559
21
-0.225002
31
0
39
0
210
0
220
0
230
1
0
LINE
5
AA
100
AcDbEntity
8
1
62
256
6
ByLayer
370
18
48
1
60
1
100
AcDbLine
10
54.622559
20
-0.225002
30
0
11
55.544126
21
-0.224998
31
0
39
0
210
0
220
0
230
1
0
LINE
5
AB
100
AcDbEntity
8
1
62
256
6
ByLayer
370
18
48
1
60
1
100
AcDbLine
10
55.544126
20
-0.224998
30
0
11
55.083343
21
-3.725
31
0
39
0
210
0
220
0
230
1
0
LINE
5
F4
100
AcDbEntity
8
1
62
256
6
ByLayer
370
18
48
1
60
1
100
AcDbLine
10
-44.625163
20
4
30
0
11
-44.164379
21
0.500002
31
0
39
0
210
0
220
0
230
1
0
LINE
5
F5
100
AcDbEntity
8
1
62
256
6
ByLayer
370
18
48
1
60
1
100
AcDbLine
10
-44.164379
20
0.500002
30
0
11
-45.085946
21
0.499998
31
0
39
0
210
0
220
0
230
1
0
LINE
5
F6
100
AcDbEntity
8
1
62
256
6
ByLayer
370
18
48
1
60
1
100
AcDbLine
10
-45.085946
20
0.499998
30
0
11
-44.625163
21
4
31
0
39
0
210
0
220
0
230
1
0
LINE
5
F8
100
AcDbEntity
8
1
62
256
6
ByLayer
370
18
48
1
60
1
100
AcDbLine
10
-44.625163
20
-4
30
0
11
-45.085946
21
-0.500002
31
0
39
0
210
0
220
0
230
1
0
LINE
5
F9
100
AcDbEntity
8
1
62
256
6
ByLayer
370
18
48
1
60
1
100
AcDbLine
10
-45.085946
20
-0.500002
30
0
11
-44.164379
21
-0.499998
31
0
39
0
210
0
220
0
230
1
0
LINE
5
FA
100
AcDbEntity
8
1
62
256
6
ByLayer
370
18
48
1
60
1
100
AcDbLine
10
-44.164379
20
-0.499998
30
0
11
-44.625163
21
-4
31
0
39
0
210
0
220
0
230
1
0
LINE
5
FE
100
AcDbEntity
8
1
62
256
6
ByLayer
370
18
48
1
60
1
100
AcDbLine
10
55.083343
20
3.725
30
0
11
55.544126
21
0.225002
31
0
39
0
210
0
220
0
230
1
0
LINE
5
FF
100
AcDbEntity
8
1
62
256
6
ByLayer
370
18
48
1
60
1
100
AcDbLine
10
55.544126
20
0.225002
30
0
11
54.622559
21
0.224998
31
0
39
0
210
0
220
0
230
1
0
LINE
5
100
100
AcDbEntity
8
1
62
256
6
ByLayer
370
18
48
1
60
1
100
AcDbLine
10
54.622559
20
0.224998
30
0
11
55.083343
21
3.725
31
0
39
0
210
0
220
0
230
1
0
LINE
5
102
100
AcDbEntity
8
1
62
256
6
ByLayer
370
18
48
1
60
1
100
AcDbLine
10
55.083343
20
-3.725
30
0
11
54.622559
21
-0.225002
31
0
39
0
210
0
220
0
230
1
0
LINE
5
103
100
AcDbEntity
8
1
62
256
6
ByLayer
370
18
48
1
60
1
100
AcDbLine
10
54.622559
20
-0.225002
30
0
11
55.544126
21
-0.224998
31
0
39
0
210
0
220
0
230
1
0
LINE
5
104
100
AcDbEntity
8
1
62
256
6
ByLayer
370
18
48
1
60
1
100
AcDbLine
10
55.544126
20
-0.224998
30
0
11
55.083343
21
-3.725
31
0
39
0
210
0
220
0
230
1
0
MTEXT
5
EE
100
AcDbEntity
8
SK6
62
256
6
ByLayer
370
13
48
1
60
0
100
AcDbMText
10
-25.82946
20
36.265328
30
0
210
0
220
0
230
1
1
\W0.7716;462.1-0745-022A1-XM X2BM
40
3.5
41
0
44
1.084337
50
0
71
7
72
5
7
iso_b_vert
0
MTEXT
5
F2
100
AcDbEntity
8
SK2
62
256
6
ByLayer
370
18
48
1
60
0
100
AcDbMText
10
-46.189796
20
17.409024
30
0
210
0
220
0
230
1
1
%%c
40
3.5
41
0
44
1.084337
50
90
71
7
72
5
7
iso_b_vert
0
MTEXT
5
F3
100
AcDbEntity
8
SK2
62
256
6
ByLayer
370
18
48
1
60
0
100
AcDbMText
10
-46.189796
20
22.63168
30
0
210
0
220
0
230
1
1
\W0.7317;8,000
40
3.5
41
0
44
1.084337
50
90
71
7
72
5
7
iso_b_vert
0
MTEXT
5
FC
100
AcDbEntity
8
2
62
256
6
ByLayer
370
18
48
1
60
0
100
AcDbMText
10
53.518709
20
15.72711
30
0
210
0
220
0
230
1
1
%%c
40
3.5
41
0
44
1.084337
50
90
71
7
72
5
7
iso_b_vert
0
MTEXT
5
FD
100
AcDbEntity
8
2
62
256
6
ByLayer
370
18
48
1
60
0
100
AcDbMText
10
53.518709
20
20.949766
30
0
210
0
220
0
230
1
1
\W0.7581;7,450
40
3.5
41
0
44
1.084337
50
90
71
7
72
5
7
iso_b_vert
0
HATCH
5
F7
100
AcDbEntity
8
SK2
62
256
6
ByLayer
370
13
48
1
60
0
100
AcDbHatch
10
0
20
0
30
0
210
0
220
0
230
1
2
ANSI31
70
0
71
0
91
1
92
5
93
3
72
1
10
-44.6251625675374
20
4
11
-44.1643788259847
21
0.500001692553184
72
1
10
-44.1643788259847
20
0.500001692553184
11
-45.0859463090902
21
0.499998307446816
72
1
10
-45.0859463090902
20
0.499998307446816
11
-44.6251625675374
21
4
97
0
75
0
76
1
52
0
41
0.0062
77
0
78
1
53
45
43
0
44
0
45
-0.0139193969876572
46
0.0139193969876572
79
0
47
0
98
1
10
0
20
0
0
HATCH
5
FB
100
AcDbEntity
8
SK2
62
256
6
ByLayer
370
13
48
1
60
0
100
AcDbHatch
10
0
20
0
30
0
210
0
220
0
230
1
2
ANSI31
70
0
71
0
91
1
92
5
93
3
72
1
10
-44.6251625675374
20
-4
11
-45.0859463090902
21
-0.500001692553184
72
1
10
-45.0859463090902
20
-0.500001692553184
11
-44.1643788259847
21
-0.499998307446816
72
1
10
-44.1643788259847
20
-0.499998307446816
11
-44.6251625675374
21
-4
97
0
75
0
76
1
52
0
41
0.0062
77
0
78
1
53
45
43
0
44
0
45
-0.0139193969876572
46
0.0139193969876572
79
0
47
0
98
1
10
0
20
0
0
HATCH
5
101
100
AcDbEntity
8
2
62
256
6
ByLayer
370
13
48
1
60
0
100
AcDbHatch
10
0
20
0
30
0
210
0
220
0
230
1
2
ANSI31
70
0
71
0
91
1
92
5
93
3
72
1
10
55.083342615295
20
3.72500000000002
11
55.5441263568478
21
0.225001692553207
72
1
10
55.5441263568478
20
0.225001692553207
11
54.6225588737423
21
0.224998307446839
72
1
10
54.6225588737423
20
0.224998307446839
11
55.083342615295
21
3.72500000000002
97
0
75
0
76
1
52
0
41
0.0062
77
0
78
1
53
45
43
0
44
0
45
-0.0139193969876572
46
0.0139193969876572
79
0
47
0
98
1
10
0
20
0
0
HATCH
5
105
100
AcDbEntity
8
2
62
256
6
ByLayer
370
13
48
1
60
0
100
AcDbHatch
10
0
20
0
30
0
210
0
220
0
230
1
2
ANSI31
70
0
71
0
91
1
92
5
93
3
72
1
10
55.083342615295
20
-3.72499999999999
11
54.6225588737423
21
-0.225001692553178
72
1
10
54.6225588737423
20
-0.225001692553178
11
55.5441263568478
21
-0.224998307446811
72
1
10
55.5441263568478
20
-0.224998307446811
11
55.083342615295
21
-3.72499999999999
97
0
75
0
76
1
52
0
41
0.0062
77
0
78
1
53
45
43
0
44
0
45
-0.0139193969876572
46
0.0139193969876572
79
0
47
0
98
1
10
0
20
0
0
DIMENSION
5
107
100
AcDbEntity
8
SK2
62
256
6
ByLayer
370
13
48
1
60
0
100
AcDbDimension
2
_U0
10
41.9003
20
-13.938398
30
0
11
20.95015
21
-13.938398
31
0
70
32
71
1
72
1
41
1
210
0
220
0
230
1
3
Standard
100
AcDbAlignedDimension
13
0
23
0
33
0
14
41.9003
24
-3.725
34
0
50
0
100
AcDbRotatedDimension
1001
ACAD
1000
DSTYLE
1002
{
1070
   371
1070
    13
1070
   372
1070
    13
1070
   170
1070
     0
1070
   144
1040
1.0
1070
   277
1070
     2
1070
   278
1070
    44
1070
   146
1040
1.0
1070
   345
1005
16
1070
   347
1005
16
1070
   346
1005
16
1070
   344
1005
0
1070
   343
1005
0
1070
   172
1070
     1
1070
    76
1070
     0
1070
    75
1070
     0
1070
   282
1070
     0
1070
   281
1070
     0
1070
    71
1070
     0
1070
    74
1070
     0
1070
   279
1070
     0
1070
   173
1070
     1
1070
   340
1005
EF
1070
   271
1070
     2
1070
   272
1070
     2
1070
    77
1070
     1
1070
    73
1070
     1
1070
   171
1070
     3
1070
   274
1070
     4
1070
   177
1070
    35
1070
   176
1070
    35
1070
   178
1070
    35
1070
    48
1040
-0.1
1070
    41
1040
3.5
1070
   147
1040
1.75
1070
    42
1040
1.5875
1070
    44
1040
2.0
1070
   140
1040
3.5
1002
}
1001
ACAD_DSTYLE_DIM_LINETYPE
1070
   380
1005
16
1001
ACAD_DSTYLE_DIM_EXT1_LINETYPE
1070
   381
1005
16
1001
ACAD_DSTYLE_DIM_EXT2_LINETYPE
1070
   382
1005
16
0
DIMENSION
5
120
100
AcDbEntity
8
SK2
62
256
6
ByLayer
370
13
48
1
60
0
100
AcDbDimension
2
_U1
10
43
20
-32.692985
30
0
11
3.5
21
-32.692985
31
0
70
32
71
1
72
1
41
1
210
0
220
0
230
1
3
Standard
100
AcDbAlignedDimension
13
-36
23
-4
33
0
14
43
24
0
34
0
50
0
100
AcDbRotatedDimension
1001
ACAD
1000
DSTYLE
1002
{
1070
   371
1070
    13
1070
   372
1070
    13
1070
   170
1070
     0
1070
   144
1040
1.0
1070
   277
1070
     2
1070
   278
1070
    44
1070
   146
1040
1.0
1070
   345
1005
16
1070
   347
1005
16
1070
   346
1005
16
1070
   344
1005
0
1070
   343
1005
0
1070
   172
1070
     1
1070
    76
1070
     0
1070
    75
1070
     0
1070
   282
1070
     0
1070
   281
1070
     0
1070
    71
1070
     0
1070
    74
1070
     0
1070
   279
1070
     0
1070
   173
1070
     1
1070
   340
1005
EF
1070
   271
1070
     2
1070
   272
1070
     2
1070
    77
1070
     1
1070
    73
1070
     1
1070
   171
1070
     3
1070
   274
1070
     4
1070
   177
1070
    35
1070
   176
1070
    35
1070
   178
1070
    35
1070
    48
1040
-0.1
1070
    41
1040
3.5
1070
   147
1040
1.75
1070
    42
1040
1.5875
1070
    44
1040
2.0
1070
   140
1040
3.5
1002
}
1001
ACAD_DSTYLE_DIM_LINETYPE
1070
   380
1005
16
1001
ACAD_DSTYLE_DIM_EXT1_LINETYPE
1070
   381
1005
16
1001
ACAD_DSTYLE_DIM_EXT2_LINETYPE
1070
   382
1005
16
0
DIMENSION
5
138
100
AcDbEntity
8
SK2
62
256
6
ByLayer
370
13
48
1
60
0
100
AcDbDimension
2
_U2
10
43
20
15.334119
30
0
11
31.275
21
15.334119
31
0
70
32
71
1
72
1
41
1
210
0
220
0
230
1
3
Standard
100
AcDbAlignedDimension
13
19.55
23
3.725
33
0
14
43
24
0
34
0
50
0
100
AcDbRotatedDimension
1001
ACAD
1000
DSTYLE
1002
{
1070
   371
1070
    13
1070
   372
1070
    13
1070
   170
1070
     0
1070
   144
1040
1.0
1070
   277
1070
     2
1070
   278
1070
    44
1070
   146
1040
1.0
1070
   345
1005
16
1070
   347
1005
16
1070
   346
1005
16
1070
   344
1005
0
1070
   343
1005
0
1070
   172
1070
     1
1070
    76
1070
     0
1070
    75
1070
     0
1070
   282
1070
     0
1070
   281
1070
     0
1070
    71
1070
     0
1070
    74
1070
     0
1070
   279
1070
     0
1070
   173
1070
     1
1070
   340
1005
EF
1070
   271
1070
     2
1070
   272
1070
     2
1070
    77
1070
     1
1070
    73
1070
     1
1070
   171
1070
     3
1070
   274
1070
     4
1070
   177
1070
    35
1070
   176
1070
    35
1070
   178
1070
    35
1070
    48
1040
-0.1
1070
    41
1040
3.5
1070
   147
1040
1.75
1070
    42
1040
1.5875
1070
    44
1040
2.0
1070
   140
1040
3.5
1002
}
1001
ACAD_DSTYLE_DIM_LINETYPE
1070
   380
1005
16
1001
ACAD_DSTYLE_DIM_EXT1_LINETYPE
1070
   381
1005
16
1001
ACAD_DSTYLE_DIM_EXT2_LINETYPE
1070
   382
1005
16
0
DIMENSION
5
150
100
AcDbEntity
8
SK2
62
256
6
ByLayer
370
13
48
1
60
0
100
AcDbDimension
2
_U3
10
41.9003
20
-16.527503
30
0
11
60.333333
21
-16.527503
31
0
70
32
71
1
72
1
41
1
210
0
220
0
230
1
3
Standard
100
AcDbAlignedDimension
13
43
23
0
33
0
14
41.9003
24
-3.725
34
0
50
0
100
AcDbRotatedDimension
1001
ACAD
1000
DSTYLE
1002
{
1070
   371
1070
    13
1070
   372
1070
    13
1070
   170
1070
     0
1070
   144
1040
1.0
1070
   277
1070
     2
1070
   278
1070
    44
1070
   146
1040
1.0
1070
   345
1005
16
1070
   347
1005
16
1070
   346
1005
16
1070
   344
1005
0
1070
   343
1005
0
1070
   172
1070
     1
1070
    76
1070
     0
1070
    75
1070
     0
1070
   282
1070
     0
1070
   281
1070
     0
1070
    71
1070
     0
1070
    74
1070
     0
1070
   279
1070
     0
1070
   173
1070
     1
1070
   340
1005
EF
1070
   271
1070
     2
1070
   272
1070
     2
1070
    77
1070
     1
1070
    73
1070
     1
1070
   171
1070
     3
1070
   274
1070
     4
1070
   177
1070
    35
1070
   176
1070
    35
1070
   178
1070
    35
1070
    48
1040
-0.1
1070
    41
1040
3.5
1070
   147
1040
1.75
1070
    42
1040
1.5875
1070
    44
1040
2.0
1070
   140
1040
3.5
1002
}
1001
ACAD_DSTYLE_DIM_LINETYPE
1070
   380
1005
16
1001
ACAD_DSTYLE_DIM_EXT1_LINETYPE
1070
   381
1005
16
1001
ACAD_DSTYLE_DIM_EXT2_LINETYPE
1070
   382
1005
16
0
DIMENSION
5
16A
100
AcDbEntity
8
SK2
62
256
6
ByLayer
370
13
48
1
60
0
100
AcDbDimension
2
_U4
10
41.9003
20
-22.343428
30
0
11
2.95015
21
-22.343428
31
0
70
32
71
1
72
1
41
1
210
0
220
0
230
1
3
Standard
100
AcDbAlignedDimension
13
-36
23
-4
33
0
14
41.9003
24
-3.725
34
0
50
0
100
AcDbRotatedDimension
1001
ACAD
1000
DSTYLE
1002
{
1070
   371
1070
    13
1070
   372
1070
    13
1070
   170
1070
     0
1070
   144
1040
1.0
1070
   277
1070
     2
1070
   278
1070
    44
1070
   146
1040
1.0
1070
   345
1005
16
1070
   347
1005
16
1070
   346
1005
16
1070
   344
1005
0
1070
   343
1005
0
1070
   172
1070
     1
1070
    76
1070
     0
1070
    75
1070
     0
1070
   282
1070
     0
1070
   281
1070
     0
1070
    71
1070
     0
1070
    74
1070
     0
1070
   279
1070
     0
1070
   173
1070
     1
1070
   340
1005
EF
1070
   271
1070
     2
1070
   272
1070
     2
1070
    77
1070
     1
1070
    73
1070
     1
1070
   171
1070
     3
1070
   274
1070
     4
1070
   177
1070
    35
1070
   176
1070
    35
1070
   178
1070
    35
1070
    48
1040
-0.1
1070
    41
1040
3.5
1070
   147
1040
1.75
1070
    42
1040
1.5875
1070
    44
1040
2.0
1070
   140
1040
3.5
1002
}
1001
ACAD_DSTYLE_DIM_LINETYPE
1070
   380
1005
16
1001
ACAD_DSTYLE_DIM_EXT1_LINETYPE
1070
   381
1005
16
1001
ACAD_DSTYLE_DIM_EXT2_LINETYPE
1070
   382
1005
16
0
ENDSEC
0
SECTION
2
OBJECTS
0
DICTIONARY
5
1f2
330
0
100
AcDbDictionary
280
0
281
1
3
ACAD_GROUP
350
1f3
3
ACAD_MLINESTYLE
350
1f4
0
DICTIONARY
5
1f3
330
0
100
AcDbDictionary
280
0
281
1
0
DICTIONARY
5
1f4
330
0
100
AcDbDictionary
280
0
281
1
3
Standard
350
18
0
MLINESTYLE
5
18
330
1f4
100
AcDbMlineStyle
2
Standard
70
0
3

62
256
51
90
52
90
71
2
49
-0.5
62
256
6
ByLayer
49
0.5
62
256
6
ByLayer
0
RASTERVARIABLES
5
1e0
330

100
AcDbRasterVariables
90
0
70
1
71
1
72
1
0
ENDSEC
0
EOF
