0
SECTION
2
HEADER
9
$ACADVER
1
AC1015
9
$DWGCODEPAGE
3
ANSI_1252
9
$HANDSEED
5
204
9
$ANGBASE
50
0
9
$ANGDIR
70
0
9
$ATTMODE
70
1
9
$AUNITS
70
0
9
$AUPREC
70
0
9
$CECOLOR
62
256
9
$CELTSCALE
40
1
9
$CELTYPE
6
ByLayer
9
$CELWEIGHT
370
18
9
$CLAYER
8
0
9
$CMLJUST
70
0
9
$CMLSCALE
40
1
9
$CMLSTYLE
2
Standard
9
$DIMSTYLE
2
Standard
9
$TEXTSIZE
40
0.2
9
$TEXTSTYLE
7
Standard
9
$LUNITS
70
2
9
$LUPREC
70
4
9
$EXTNAMES
290
1
9
$INSUNITS
70
4
9
$LTSCALE
40
1
9
$LWDISPLAY
290
1
9
$PDMODE
70
0
9
$PDSIZE
40
0
9
$PLINEGEN
70
0
0
ENDSEC
0
SECTION
2
CLASSES
0
CLASS
1
RASTERVARIABLES
2
AcDbRasterVariables
3
ISM
90
0
280
0
281
0
0
ENDSEC
0
SECTION
2
TABLES
0
TABLE
2
VPORT
5
1fa
100
AcDbSymbolTable
0
VPORT
5
1
100
AcDbSymbolTableRecord
100
AcDbViewportTableRecord
2
*Active
70
0
10
0
20
0
11
1
21
1
12
-1
22
1
13
0
23
0
14
0.5
24
0.5
15
10
25
10
16
0
26
0
36
1
17
0
27
0
37
0
0
ENDTAB
0
TABLE
2
LTYPE
5
1fb
100
AcDbSymbolTable
0
LTYPE
5
14
100
AcDbSymbolTableRecord
100
AcDbLinetypeTableRecord
70
0
2
ByBlock
3

72
65
73
0
40
0
0
LTYPE
5
15
100
AcDbSymbolTableRecord
100
AcDbLinetypeTableRecord
70
0
2
ByLayer
3

72
65
73
0
40
0
0
LTYPE
5
16
100
AcDbSymbolTableRecord
100
AcDbLinetypeTableRecord
70
0
2
Continuous
3
Solid line
72
65
73
0
40
0
0
LTYPE
5
6E
100
AcDbSymbolTableRecord
100
AcDbLinetypeTableRecord
70
0
2
CENTER
3
____ _ ____ _ ____ _ ____
72
65
73
4
40
47.5
49
22
74
0
49
-8.5
74
0
49
8.5
74
0
49
-8.5
74
0
0
LTYPE
5
6F
100
AcDbSymbolTableRecord
100
AcDbLinetypeTableRecord
70
0
2
DASHED
3
__ __ __ __ __ __ __ __ __
72
65
73
2
40
25.72
49
12.86
74
0
49
-12.86
74
0
0
ENDTAB
0
TABLE
2
LAYER
5
1fc
100
AcDbSymbolTable
0
LAYER
5
10
100
AcDbSymbolTableRecord
100
AcDbLayerTableRecord
2
0
70
0
62
7
6
Continuous
290
1
370
-3
390
0
0
LAYER
5
71
100
AcDbSymbolTableRecord
100
AcDbLayerTableRecord
2
80
70
0
62
-6
6
Continuous
290
1
370
-3
390
0
0
LAYER
5
73
100
AcDbSymbolTableRecord
100
AcDbLayerTableRecord
2
81
70
0
62
-3
6
Continuous
290
1
370
-3
390
0
0
LAYER
5
75
100
AcDbSymbolTableRecord
100
AcDbLayerTableRecord
2
1
70
0
62
4
6
Continuous
290
1
370
-3
390
0
0
LAYER
5
8E
100
AcDbSymbolTableRecord
100
AcDbLayerTableRecord
2
4
70
0
62
-2
6
CENTER
290
1
370
-3
390
0
0
LAYER
5
A5
100
AcDbSymbolTableRecord
100
AcDbLayerTableRecord
2
2
70
0
62
7
6
Continuous
290
1
370
-3
390
0
0
LAYER
5
10F
100
AcDbSymbolTableRecord
100
AcDbLayerTableRecord
2
Defpoints
70
0
62
7
6
Continuous
290
0
370
-3
390
0
0
LAYER
5
1e6
100
AcDbSymbolTableRecord
100
AcDbLayerTableRecord
2
SK1
70
0
62
4
6
Continuous
290
1
370
-3
390
0
0
LAYER
5
1e7
100
AcDbSymbolTableRecord
100
AcDbLayerTableRecord
2
SK4
70
0
62
2
6
CENTER
290
1
370
-3
390
0
0
LAYER
5
1e8
100
AcDbSymbolTableRecord
100
AcDbLayerTableRecord
2
SK2
70
0
62
7
6
Continuous
290
1
370
-3
390
0
0
LAYER
5
1e9
100
AcDbSymbolTableRecord
100
AcDbLayerTableRecord
2
SK6
70
0
62
5
6
Continuous
290
1
370
-3
390
0
0
ENDTAB
0
TABLE
2
STYLE
5
1fd
100
AcDbSymbolTable
0
STYLE
5
11
100
AcDbSymbolTableRecord
100
AcDbTextStyleTableRecord
2
Standard
3
txt
70
0
71
0
40
0
41
1
42
0
50
0
0
STYLE
5
F4
100
AcDbSymbolTableRecord
100
AcDbTextStyleTableRecord
2
iso_b_vert
3
simplex.shx
70
0
71
0
40
0
41
1
42
0
50
0
0
STYLE
5
F5
100
AcDbSymbolTableRecord
100
AcDbTextStyleTableRecord
2
DWGDirectTextStyle
3
simplex
70
0
71
0
40
0
41
1
42
0
50
0
0
ENDTAB
0
TABLE
2
DIMSTYLE
5
1fe
100
AcDbSymbolTable
100
AcDbDimStyleTable
0
DIMSTYLE
105
27
100
AcDbSymbolTableRecord
100
AcDbDimStyleTableRecord
2
Standard
70
0
3
<>
41
0.18
42
0.0625
44
0.18
140
0.18
147
0.09
73
0
74
0
77
1
271
2
275
0
278
52
280
0
340
11
0
ENDTAB
0
TABLE
2
VIEW
5
1ff
100
AcDbSymbolTable
0
ENDTAB
0
TABLE
2
UCS
5
200
100
AcDbSymbolTable
0
ENDTAB
0
TABLE
2
APPID
5
201
100
AcDbSymbolTable
0
APPID
5
12
100
AcDbSymbolTableRecord
100
AcDbRegAppTableRecord
2
ACAD
70
0
0
APPID
5
10B
100
AcDbSymbolTableRecord
100
AcDbRegAppTableRecord
2
ACAD_DSTYLE_DIMBREAK
70
0
0
APPID
5
1A5
100
AcDbSymbolTableRecord
100
AcDbRegAppTableRecord
2
ACAD_DSTYLE_DIM_LINETYPE
70
0
0
APPID
5
1A6
100
AcDbSymbolTableRecord
100
AcDbRegAppTableRecord
2
ACAD_DSTYLE_DIM_EXT1_LINETYPE
70
0
0
APPID
5
1A7
100
AcDbSymbolTableRecord
100
AcDbRegAppTableRecord
2
ACAD_DSTYLE_DIM_EXT2_LINETYPE
70
0
0
APPID
5
1E2
100
AcDbSymbolTableRecord
100
AcDbRegAppTableRecord
2
ACAD_MLEADERVER
70
0
0
ENDTAB
0
TABLE
2
BLOCK_RECORD
5
202
100
AcDbSymbolTable
0
BLOCK_RECORD
5
1F
100
AcDbSymbolTableRecord
100
AcDbBlockTableRecord
2
*Model_Space
340
0
70
0
0
BLOCK_RECORD
5
1B
100
AcDbSymbolTableRecord
100
AcDbBlockTableRecord
2
*Paper_Space
340
0
70
0
0
BLOCK_RECORD
5
23
100
AcDbSymbolTableRecord
100
AcDbBlockTableRecord
2
*Paper_Space0
340
0
70
0
0
BLOCK_RECORD
5
110
100
AcDbSymbolTableRecord
100
AcDbBlockTableRecord
2
*D1
340
0
70
0
0
BLOCK_RECORD
5
11C
100
AcDbSymbolTableRecord
100
AcDbBlockTableRecord
2
_U0
340
0
70
0
0
BLOCK_RECORD
5
128
100
AcDbSymbolTableRecord
100
AcDbBlockTableRecord
2
*D3
340
0
70
0
0
BLOCK_RECORD
5
134
100
AcDbSymbolTableRecord
100
AcDbBlockTableRecord
2
_U1
340
0
70
0
0
BLOCK_RECORD
5
140
100
AcDbSymbolTableRecord
100
AcDbBlockTableRecord
2
*D5
340
0
70
0
0
BLOCK_RECORD
5
14C
100
AcDbSymbolTableRecord
100
AcDbBlockTableRecord
2
_U2
340
0
70
0
0
BLOCK_RECORD
5
158
100
AcDbSymbolTableRecord
100
AcDbBlockTableRecord
2
*D7
340
0
70
0
0
BLOCK_RECORD
5
166
100
AcDbSymbolTableRecord
100
AcDbBlockTableRecord
2
_U3
340
0
70
0
0
BLOCK_RECORD
5
172
100
AcDbSymbolTableRecord
100
AcDbBlockTableRecord
2
*D9
340
0
70
0
0
BLOCK_RECORD
5
17E
100
AcDbSymbolTableRecord
100
AcDbBlockTableRecord
2
_U4
340
0
70
0
0
ENDTAB
0
ENDSEC
0
SECTION
2
BLOCKS
0
BLOCK
5
20
100
AcDbEntity
8
0
100
AcDbBlockBegin
2
*Model_Space
70
0
10
0
20
0
30
0
3
*Model_Space
0
ENDBLK
5
21
100
AcDbEntity
8
0
100
AcDbBlockEnd
0
BLOCK
5
1C
100
AcDbEntity
8
0
100
AcDbBlockBegin
2
*Paper_Space
70
0
10
0
20
0
30
0
3
*Paper_Space
0
ENDBLK
5
1D
100
AcDbEntity
8
0
100
AcDbBlockEnd
0
BLOCK
5
24
100
AcDbEntity
8
0
100
AcDbBlockBegin
2
*Paper_Space0
70
0
10
0
20
0
30
0
3
*Paper_Space0
0
ENDBLK
5
25
100
AcDbEntity
8
0
100
AcDbBlockEnd
0
BLOCK
5
111
100
AcDbEntity
8
0
100
AcDbBlockBegin
2
*D1
70
1
10
0
20
0
30
0
3
*D1
0
LINE
5
113
100
AcDbEntity
8
0
62
256
6
ByLayer
370
-2
48
1
60
0
100
AcDbLine
10
0
20
-1.5875
30
0
11
0
21
-16.429898
31
0
39
0
210
0
220
0
230
1
0
LINE
5
114
100
AcDbEntity
8
0
62
256
6
ByLayer
370
-2
48
1
60
0
100
AcDbLine
10
47.7526
20
-5.804
30
0
11
47.7526
21
-16.429898
31
0
39
0
210
0
220
0
230
1
0
LINE
5
115
100
AcDbEntity
8
0
62
256
6
ByLayer
370
-2
48
1
60
0
100
AcDbLine
10
3.5
20
-14.429898
30
0
11
44.2526
21
-14.429898
31
0
39
0
210
0
220
0
230
1
0
SOLID
5
116
100
AcDbEntity
8
0
62
256
6
ByLayer
370
-1
48
1
60
0
100
AcDbTrace
10
3.5
20
-13.846565
30
0
11
3.5
21
-15.013232
31
0
12
0
22
-14.429898
32
0
13
0
23
-14.429898
33
0
39
0
210
0
220
0
230
1
0
SOLID
5
117
100
AcDbEntity
8
0
62
256
6
ByLayer
370
-1
48
1
60
0
100
AcDbTrace
10
44.2526
20
-15.013232
30
0
11
44.2526
21
-13.846565
31
0
12
47.7526
22
-14.429898
32
0
13
47.7526
23
-14.429898
33
0
39
0
210
0
220
0
230
1
0
MTEXT
5
118
100
AcDbEntity
8
0
62
256
6
ByLayer
370
18
48
1
60
0
100
AcDbMText
10
23.8763
20
-7.429898
30
0
210
0
220
0
230
1
1
\A1;47.75
40
3.5
41
0
44
1
50
0
71
5
72
5
7
iso_b_vert
0
POINT
5
119
100
AcDbEntity
8
Defpoints
62
0
6
ByLayer
370
-1
48
1
60
0
100
AcDbPoint
10
0
20
0
30
0
39
0
210
0
220
0
230
1
50
360
0
POINT
5
11A
100
AcDbEntity
8
Defpoints
62
0
6
ByLayer
370
-1
48
1
60
0
100
AcDbPoint
10
47.7526
20
-4.2165
30
0
39
0
210
0
220
0
230
1
50
360
0
POINT
5
11B
100
AcDbEntity
8
Defpoints
62
0
6
ByLayer
370
-1
48
1
60
0
100
AcDbPoint
10
47.7526
20
-14.429898
30
0
39
0
210
0
220
0
230
1
50
360
0
ENDBLK
5
112
100
AcDbEntity
8
0
100
AcDbBlockEnd
0
BLOCK
5
123
100
AcDbEntity
8
0
100
AcDbBlockBegin
2
_U0
70
0
10
0
20
0
30
0
3
_U0
0
MTEXT
5
11D
100
AcDbEntity
8
SK2
62
256
6
ByLayer
370
13
48
1
60
0
100
AcDbMText
10
18.554735
20
-13.397265
30
0
210
0
220
0
230
1
1
\W0.7581;47,75
40
3.5
41
0
44
1.084337
50
0
71
7
72
5
7
iso_b_vert
0
LINE
5
11E
100
AcDbEntity
8
SK2
62
256
6
ByLayer
370
13
48
1
60
0
100
AcDbLine
10
0
20
-1.5875
30
0
11
0
21
-16.429898
31
0
39
0
210
0
220
0
230
1
0
LINE
5
11F
100
AcDbEntity
8
SK2
62
256
6
ByLayer
370
13
48
1
60
0
100
AcDbLine
10
47.7526
20
-5.804
30
0
11
47.7526
21
-16.429898
31
0
39
0
210
0
220
0
230
1
0
LINE
5
120
100
AcDbEntity
8
SK2
62
256
6
ByLayer
370
13
48
1
60
0
100
AcDbLine
10
0
20
-14.429898
30
0
11
47.7526
21
-14.429898
31
0
39
0
210
0
220
0
230
1
0
SOLID
5
121
100
AcDbEntity
8
SK2
62
256
6
ByLayer
370
18
48
1
60
0
100
AcDbTrace
10
0
20
-14.429898
30
0
11
3.499998
21
-13.969115
31
0
12
3.500002
22
-14.890682
32
0
13
3.500002
23
-14.890682
33
0
39
0
210
0
220
0
230
1
0
SOLID
5
122
100
AcDbEntity
8
SK2
62
256
6
ByLayer
370
18
48
1
60
0
100
AcDbTrace
10
47.7526
20
-14.429898
30
0
11
44.252602
21
-14.890682
31
0
12
44.252598
22
-13.969115
32
0
13
44.252598
23
-13.969115
33
0
39
0
210
0
220
0
230
1
0
ENDBLK
5
124
100
AcDbEntity
8
0
100
AcDbBlockEnd
0
BLOCK
5
129
100
AcDbEntity
8
0
100
AcDbBlockBegin
2
*D3
70
1
10
0
20
0
30
0
3
*D3
0
LINE
5
12B
100
AcDbEntity
8
0
62
256
6
ByLayer
370
-2
48
1
60
0
100
AcDbLine
10
-40
20
-6.5875
30
0
11
-40
21
-35.692985
31
0
39
0
210
0
220
0
230
1
0
LINE
5
12C
100
AcDbEntity
8
0
62
256
6
ByLayer
370
-2
48
1
60
0
100
AcDbLine
10
49
20
-1.5875
30
0
11
49
21
-35.692985
31
0
39
0
210
0
220
0
230
1
0
LINE
5
12D
100
AcDbEntity
8
0
62
256
6
ByLayer
370
-2
48
1
60
0
100
AcDbLine
10
-36.5
20
-33.692985
30
0
11
45.5
21
-33.692985
31
0
39
0
210
0
220
0
230
1
0
SOLID
5
12E
100
AcDbEntity
8
0
62
256
6
ByLayer
370
-1
48
1
60
0
100
AcDbTrace
10
-36.5
20
-33.109652
30
0
11
-36.5
21
-34.276319
31
0
12
-40
22
-33.692985
32
0
13
-40
23
-33.692985
33
0
39
0
210
0
220
0
230
1
0
SOLID
5
12F
100
AcDbEntity
8
0
62
256
6
ByLayer
370
-1
48
1
60
0
100
AcDbTrace
10
45.5
20
-34.276319
30
0
11
45.5
21
-33.109652
31
0
12
49
22
-33.692985
32
0
13
49
23
-33.692985
33
0
39
0
210
0
220
0
230
1
0
MTEXT
5
130
100
AcDbEntity
8
0
62
256
6
ByLayer
370
18
48
1
60
0
100
AcDbMText
10
4.5
20
-26.692985
30
0
210
0
220
0
230
1
1
\A1;89.00
40
3.5
41
0
44
1
50
0
71
5
72
5
7
iso_b_vert
0
POINT
5
131
100
AcDbEntity
8
Defpoints
62
0
6
ByLayer
370
-1
48
1
60
0
100
AcDbPoint
10
-40
20
-5
30
0
39
0
210
0
220
0
230
1
50
360
0
POINT
5
132
100
AcDbEntity
8
Defpoints
62
0
6
ByLayer
370
-1
48
1
60
0
100
AcDbPoint
10
49
20
0
30
0
39
0
210
0
220
0
230
1
50
360
0
POINT
5
133
100
AcDbEntity
8
Defpoints
62
0
6
ByLayer
370
-1
48
1
60
0
100
AcDbPoint
10
49
20
-33.692985
30
0
39
0
210
0
220
0
230
1
50
360
0
ENDBLK
5
12A
100
AcDbEntity
8
0
100
AcDbBlockEnd
0
BLOCK
5
13B
100
AcDbEntity
8
0
100
AcDbBlockBegin
2
_U1
70
0
10
0
20
0
30
0
3
_U1
0
MTEXT
5
135
100
AcDbEntity
8
SK2
62
256
6
ByLayer
370
13
48
1
60
0
100
AcDbMText
10
-0.637299
20
-32.660352
30
0
210
0
220
0
230
1
1
\W0.7317;89,00
40
3.5
41
0
44
1.084337
50
0
71
7
72
5
7
iso_b_vert
0
LINE
5
136
100
AcDbEntity
8
SK2
62
256
6
ByLayer
370
13
48
1
60
0
100
AcDbLine
10
-40
20
-6.5875
30
0
11
-40
21
-35.692985
31
0
39
0
210
0
220
0
230
1
0
LINE
5
137
100
AcDbEntity
8
SK2
62
256
6
ByLayer
370
13
48
1
60
0
100
AcDbLine
10
49
20
-1.5875
30
0
11
49
21
-35.692985
31
0
39
0
210
0
220
0
230
1
0
LINE
5
138
100
AcDbEntity
8
SK2
62
256
6
ByLayer
370
13
48
1
60
0
100
AcDbLine
10
-40
20
-33.692985
30
0
11
49
21
-33.692985
31
0
39
0
210
0
220
0
230
1
0
SOLID
5
139
100
AcDbEntity
8
SK2
62
256
6
ByLayer
370
18
48
1
60
0
100
AcDbTrace
10
-40
20
-33.692985
30
0
11
-36.500002
21
-33.232202
31
0
12
-36.499998
22
-34.153769
32
0
13
-36.499998
23
-34.153769
33
0
39
0
210
0
220
0
230
1
0
SOLID
5
13A
100
AcDbEntity
8
SK2
62
256
6
ByLayer
370
18
48
1
60
0
100
AcDbTrace
10
49
20
-33.692985
30
0
11
45.500002
21
-34.153769
31
0
12
45.499998
22
-33.232202
32
0
13
45.499998
23
-33.232202
33
0
39
0
210
0
220
0
230
1
0
ENDBLK
5
13C
100
AcDbEntity
8
0
100
AcDbBlockEnd
0
BLOCK
5
141
100
AcDbEntity
8
0
100
AcDbBlockBegin
2
*D5
70
1
10
0
20
0
30
0
3
*D5
0
LINE
5
143
100
AcDbEntity
8
0
62
256
6
ByLayer
370
-2
48
1
60
0
100
AcDbLine
10
22.46
20
5.804
30
0
11
22.46
21
17.825619
31
0
39
0
210
0
220
0
230
1
0
LINE
5
144
100
AcDbEntity
8
0
62
256
6
ByLayer
370
-2
48
1
60
0
100
AcDbLine
10
49
20
1.5875
30
0
11
49
21
17.825619
31
0
39
0
210
0
220
0
230
1
0
LINE
5
145
100
AcDbEntity
8
0
62
256
6
ByLayer
370
-2
48
1
60
0
100
AcDbLine
10
25.96
20
15.825619
30
0
11
45.5
21
15.825619
31
0
39
0
210
0
220
0
230
1
0
SOLID
5
146
100
AcDbEntity
8
0
62
256
6
ByLayer
370
-1
48
1
60
0
100
AcDbTrace
10
25.96
20
16.408953
30
0
11
25.96
21
15.242286
31
0
12
22.46
22
15.825619
32
0
13
22.46
23
15.825619
33
0
39
0
210
0
220
0
230
1
0
SOLID
5
147
100
AcDbEntity
8
0
62
256
6
ByLayer
370
-1
48
1
60
0
100
AcDbTrace
10
45.5
20
15.242286
30
0
11
45.5
21
16.408953
31
0
12
49
22
15.825619
32
0
13
49
23
15.825619
33
0
39
0
210
0
220
0
230
1
0
MTEXT
5
148
100
AcDbEntity
8
0
62
256
6
ByLayer
370
18
48
1
60
0
100
AcDbMText
10
35.73
20
22.825619
30
0
210
0
220
0
230
1
1
\A1;26.54
40
3.5
41
0
44
1
50
0
71
5
72
5
7
iso_b_vert
0
POINT
5
149
100
AcDbEntity
8
Defpoints
62
0
6
ByLayer
370
-1
48
1
60
0
100
AcDbPoint
10
22.46
20
4.2165
30
0
39
0
210
0
220
0
230
1
50
360
0
POINT
5
14A
100
AcDbEntity
8
Defpoints
62
0
6
ByLayer
370
-1
48
1
60
0
100
AcDbPoint
10
49
20
0
30
0
39
0
210
0
220
0
230
1
50
360
0
POINT
5
14B
100
AcDbEntity
8
Defpoints
62
0
6
ByLayer
370
-1
48
1
60
0
100
AcDbPoint
10
49
20
15.825619
30
0
39
0
210
0
220
0
230
1
50
360
0
ENDBLK
5
142
100
AcDbEntity
8
0
100
AcDbBlockEnd
0
BLOCK
5
153
100
AcDbEntity
8
0
100
AcDbBlockBegin
2
_U2
70
0
10
0
20
0
30
0
3
_U2
0
MTEXT
5
14D
100
AcDbEntity
8
SK2
62
256
6
ByLayer
370
13
48
1
60
0
100
AcDbMText
10
30.408435
20
16.858253
30
0
210
0
220
0
230
1
1
\W0.7495;26,54
40
3.5
41
0
44
1.084337
50
0
71
7
72
5
7
iso_b_vert
0
LINE
5
14E
100
AcDbEntity
8
SK2
62
256
6
ByLayer
370
13
48
1
60
0
100
AcDbLine
10
22.46
20
5.804
30
0
11
22.46
21
17.825619
31
0
39
0
210
0
220
0
230
1
0
LINE
5
14F
100
AcDbEntity
8
SK2
62
256
6
ByLayer
370
13
48
1
60
0
100
AcDbLine
10
49
20
1.5875
30
0
11
49
21
17.825619
31
0
39
0
210
0
220
0
230
1
0
LINE
5
150
100
AcDbEntity
8
SK2
62
256
6
ByLayer
370
13
48
1
60
0
100
AcDbLine
10
22.46
20
15.825619
30
0
11
49
21
15.825619
31
0
39
0
210
0
220
0
230
1
0
SOLID
5
151
100
AcDbEntity
8
SK2
62
256
6
ByLayer
370
18
48
1
60
0
100
AcDbTrace
10
22.46
20
15.825619
30
0
11
25.959998
21
16.286403
31
0
12
25.960002
22
15.364835
32
0
13
25.960002
23
15.364835
33
0
39
0
210
0
220
0
230
1
0
SOLID
5
152
100
AcDbEntity
8
SK2
62
256
6
ByLayer
370
18
48
1
60
0
100
AcDbTrace
10
49
20
15.825619
30
0
11
45.500002
21
15.364835
31
0
12
45.499998
22
16.286403
32
0
13
45.499998
23
16.286403
33
0
39
0
210
0
220
0
230
1
0
ENDBLK
5
154
100
AcDbEntity
8
0
100
AcDbBlockEnd
0
BLOCK
5
159
100
AcDbEntity
8
0
100
AcDbBlockBegin
2
*D7
70
1
10
0
20
0
30
0
3
*D7
0
LINE
5
15B
100
AcDbEntity
8
0
62
256
6
ByLayer
370
-2
48
1
60
0
100
AcDbLine
10
49
20
-1.5875
30
0
11
49
21
-19.019003
31
0
39
0
210
0
220
0
230
1
0
LINE
5
15C
100
AcDbEntity
8
0
62
256
6
ByLayer
370
-2
48
1
60
0
100
AcDbLine
10
47.7526
20
-5.804
30
0
11
47.7526
21
-19.019003
31
0
39
0
210
0
220
0
230
1
0
LINE
5
15D
100
AcDbEntity
8
0
62
256
6
ByLayer
370
-2
48
1
60
0
100
AcDbLine
10
49
20
-17.019003
30
0
11
76.666667
21
-17.019003
31
0
39
0
210
0
220
0
230
1
0
LINE
5
15E
100
AcDbEntity
8
0
62
256
6
ByLayer
370
-2
48
1
60
0
100
AcDbLine
10
52.5
20
-17.019003
30
0
11
56
21
-17.019003
31
0
39
0
210
0
220
0
230
1
0
LINE
5
15F
100
AcDbEntity
8
0
62
256
6
ByLayer
370
-2
48
1
60
0
100
AcDbLine
10
44.2526
20
-17.019003
30
0
11
40.7526
21
-17.019003
31
0
39
0
210
0
220
0
230
1
0
SOLID
5
160
100
AcDbEntity
8
0
62
256
6
ByLayer
370
-1
48
1
60
0
100
AcDbTrace
10
52.5
20
-16.43567
30
0
11
52.5
21
-17.602337
31
0
12
49
22
-17.019003
32
0
13
49
23
-17.019003
33
0
39
0
210
0
220
0
230
1
0
SOLID
5
161
100
AcDbEntity
8
0
62
256
6
ByLayer
370
-1
48
1
60
0
100
AcDbTrace
10
44.2526
20
-17.602337
30
0
11
44.2526
21
-16.43567
31
0
12
47.7526
22
-17.019003
32
0
13
47.7526
23
-17.019003
33
0
39
0
210
0
220
0
230
1
0
MTEXT
5
162
100
AcDbEntity
8
0
62
256
6
ByLayer
370
18
48
1
60
0
100
AcDbMText
10
66.333333
20
-10.019003
30
0
210
0
220
0
230
1
1
\A1;1.25
40
3.5
41
0
44
1
50
0
71
5
72
5
7
iso_b_vert
0
POINT
5
163
100
AcDbEntity
8
Defpoints
62
0
6
ByLayer
370
-1
48
1
60
0
100
AcDbPoint
10
49
20
0
30
0
39
0
210
0
220
0
230
1
50
360
0
POINT
5
164
100
AcDbEntity
8
Defpoints
62
0
6
ByLayer
370
-1
48
1
60
0
100
AcDbPoint
10
47.7526
20
-4.2165
30
0
39
0
210
0
220
0
230
1
50
360
0
POINT
5
165
100
AcDbEntity
8
Defpoints
62
0
6
ByLayer
370
-1
48
1
60
0
100
AcDbPoint
10
47.7526
20
-17.019003
30
0
39
0
210
0
220
0
230
1
50
360
0
ENDBLK
5
15A
100
AcDbEntity
8
0
100
AcDbBlockEnd
0
BLOCK
5
16D
100
AcDbEntity
8
0
100
AcDbBlockBegin
2
_U3
70
0
10
0
20
0
30
0
3
_U3
0
MTEXT
5
167
100
AcDbEntity
8
SK2
62
256
6
ByLayer
370
13
48
1
60
0
100
AcDbMText
10
55.589293
20
-15.98637
30
0
210
0
220
0
230
1
1
\W0.6367;1,25
40
3.5
41
0
44
1.084337
50
0
71
7
72
5
7
iso_b_vert
0
LINE
5
168
100
AcDbEntity
8
SK2
62
256
6
ByLayer
370
13
48
1
60
0
100
AcDbLine
10
49
20
-1.5875
30
0
11
49
21
-19.019003
31
0
39
0
210
0
220
0
230
1
0
LINE
5
169
100
AcDbEntity
8
SK2
62
256
6
ByLayer
370
13
48
1
60
0
100
AcDbLine
10
47.7526
20
-5.804
30
0
11
47.7526
21
-19.019003
31
0
39
0
210
0
220
0
230
1
0
LINE
5
16A
100
AcDbEntity
8
SK2
62
256
6
ByLayer
370
13
48
1
60
0
100
AcDbLine
10
39.0026
20
-17.019003
30
0
11
62.559058
21
-17.019003
31
0
39
0
210
0
220
0
230
1
0
SOLID
5
16B
100
AcDbEntity
8
SK2
62
256
6
ByLayer
370
18
48
1
60
0
100
AcDbTrace
10
49
20
-17.019003
30
0
11
52.499998
21
-16.558219
31
0
12
52.500002
22
-17.479787
32
0
13
52.500002
23
-17.479787
33
0
39
0
210
0
220
0
230
1
0
SOLID
5
16C
100
AcDbEntity
8
SK2
62
256
6
ByLayer
370
18
48
1
60
0
100
AcDbTrace
10
47.7526
20
-17.019003
30
0
11
44.252602
21
-17.479787
31
0
12
44.252598
22
-16.558219
32
0
13
44.252598
23
-16.558219
33
0
39
0
210
0
220
0
230
1
0
ENDBLK
5
16E
100
AcDbEntity
8
0
100
AcDbBlockEnd
0
BLOCK
5
173
100
AcDbEntity
8
0
100
AcDbBlockBegin
2
*D9
70
1
10
0
20
0
30
0
3
*D9
0
LINE
5
175
100
AcDbEntity
8
0
62
256
6
ByLayer
370
-2
48
1
60
0
100
AcDbLine
10
-40
20
-6.5875
30
0
11
-40
21
-25.343428
31
0
39
0
210
0
220
0
230
1
0
LINE
5
176
100
AcDbEntity
8
0
62
256
6
ByLayer
370
-2
48
1
60
0
100
AcDbLine
10
47.7526
20
-5.804
30
0
11
47.7526
21
-25.343428
31
0
39
0
210
0
220
0
230
1
0
LINE
5
177
100
AcDbEntity
8
0
62
256
6
ByLayer
370
-2
48
1
60
0
100
AcDbLine
10
-36.5
20
-23.343428
30
0
11
44.2526
21
-23.343428
31
0
39
0
210
0
220
0
230
1
0
SOLID
5
178
100
AcDbEntity
8
0
62
256
6
ByLayer
370
-1
48
1
60
0
100
AcDbTrace
10
-36.5
20
-22.760095
30
0
11
-36.5
21
-23.926762
31
0
12
-40
22
-23.343428
32
0
13
-40
23
-23.343428
33
0
39
0
210
0
220
0
230
1
0
SOLID
5
179
100
AcDbEntity
8
0
62
256
6
ByLayer
370
-1
48
1
60
0
100
AcDbTrace
10
44.2526
20
-23.926762
30
0
11
44.2526
21
-22.760095
31
0
12
47.7526
22
-23.343428
32
0
13
47.7526
23
-23.343428
33
0
39
0
210
0
220
0
230
1
0
MTEXT
5
17A
100
AcDbEntity
8
0
62
256
6
ByLayer
370
18
48
1
60
0
100
AcDbMText
10
3.8763
20
-16.343428
30
0
210
0
220
0
230
1
1
\A1;87.75
40
3.5
41
0
44
1
50
0
71
5
72
5
7
iso_b_vert
0
POINT
5
17B
100
AcDbEntity
8
Defpoints
62
0
6
ByLayer
370
-1
48
1
60
0
100
AcDbPoint
10
-40
20
-5
30
0
39
0
210
0
220
0
230
1
50
360
0
POINT
5
17C
100
AcDbEntity
8
Defpoints
62
0
6
ByLayer
370
-1
48
1
60
0
100
AcDbPoint
10
47.7526
20
-4.2165
30
0
39
0
210
0
220
0
230
1
50
360
0
POINT
5
17D
100
AcDbEntity
8
Defpoints
62
0
6
ByLayer
370
-1
48
1
60
0
100
AcDbPoint
10
47.7526
20
-23.343428
30
0
39
0
210
0
220
0
230
1
50
360
0
ENDBLK
5
174
100
AcDbEntity
8
0
100
AcDbBlockEnd
0
BLOCK
5
185
100
AcDbEntity
8
0
100
AcDbBlockBegin
2
_U4
70
0
10
0
20
0
30
0
3
_U4
0
MTEXT
5
17F
100
AcDbEntity
8
SK2
62
256
6
ByLayer
370
13
48
1
60
0
100
AcDbMText
10
-1.260999
20
-22.310795
30
0
210
0
220
0
230
1
1
\W0.7317;87,75
40
3.5
41
0
44
1.084337
50
0
71
7
72
5
7
iso_b_vert
0
LINE
5
180
100
AcDbEntity
8
SK2
62
256
6
ByLayer
370
13
48
1
60
0
100
AcDbLine
10
-40
20
-6.5875
30
0
11
-40
21
-25.343428
31
0
39
0
210
0
220
0
230
1
0
LINE
5
181
100
AcDbEntity
8
SK2
62
256
6
ByLayer
370
13
48
1
60
0
100
AcDbLine
10
47.7526
20
-5.804
30
0
11
47.7526
21
-25.343428
31
0
39
0
210
0
220
0
230
1
0
LINE
5
182
100
AcDbEntity
8
SK2
62
256
6
ByLayer
370
13
48
1
60
0
100
AcDbLine
10
-40
20
-23.343428
30
0
11
47.7526
21
-23.343428
31
0
39
0
210
0
220
0
230
1
0
SOLID
5
183
100
AcDbEntity
8
SK2
62
256
6
ByLayer
370
18
48
1
60
0
100
AcDbTrace
10
-40
20
-23.343428
30
0
11
-36.500002
21
-22.882645
31
0
12
-36.499998
22
-23.804212
32
0
13
-36.499998
23
-23.804212
33
0
39
0
210
0
220
0
230
1
0
SOLID
5
184
100
AcDbEntity
8
SK2
62
256
6
ByLayer
370
18
48
1
60
0
100
AcDbTrace
10
47.7526
20
-23.343428
30
0
11
44.252602
21
-23.804212
31
0
12
44.252598
22
-22.882645
32
0
13
44.252598
23
-22.882645
33
0
39
0
210
0
220
0
230
1
0
ENDBLK
5
186
100
AcDbEntity
8
0
100
AcDbBlockEnd
0
ENDSEC
0
SECTION
2
ENTITIES
0
ARC
5
AE
100
AcDbEntity
8
1
62
256
6
ByLayer
370
18
48
1
60
0
100
AcDbCircle
39
0
10
1.392761
20
-4.987539
30
0
40
0.8
210
0
220
0
230
1
100
AcDbArc
50
89.96419
51
150.513923
0
ARC
5
AF
100
AcDbEntity
8
1
62
256
6
ByLayer
370
18
48
1
60
0
100
AcDbCircle
39
0
10
1.392761
20
4.987539
30
0
40
0.8
210
0
220
0
230
1
100
AcDbArc
50
209.486077
51
270.03581
0
ARC
5
B0
100
AcDbEntity
8
1
62
256
6
ByLayer
370
18
48
1
60
0
100
AcDbCircle
39
0
10
0
20
-4.2
30
0
40
0.8
210
0
220
0
230
1
100
AcDbArc
50
270
51
330.513923
0
ARC
5
B1
100
AcDbEntity
8
1
62
256
6
ByLayer
370
18
48
1
60
0
100
AcDbCircle
39
0
10
0
20
4.2
30
0
40
0.8
210
0
220
0
230
1
100
AcDbArc
50
29.486077
51
90
0
ELLIPSE
5
B2
100
AcDbEntity
8
1
62
256
6
ByLayer
370
13
48
1
60
0
100
AcDbEllipse
10
4.185923
20
1.076115
30
0
11
-0.0495213237905049
21
-0.0868771459593141
31
0
210
0
220
0
230
1
40
0.279005
41
-1.13961525991122
42
-0.692275330666055
0
ELLIPSE
5
B3
100
AcDbEntity
8
1
62
256
6
ByLayer
370
18
48
1
60
0
100
AcDbEllipse
10
4.25
20
4.229097
30
0
11
0.25
21
0
31
0
210
0
220
0
230
1
40
0.999993
41
-2.95342211768933
42
-1.5667715082297
0
ELLIPSE
5
B4
100
AcDbEntity
8
1
62
256
6
ByLayer
370
18
48
1
60
0
100
AcDbEllipse
10
4.25
20
-4.229097
30
0
11
0.25
21
0
31
0
210
0
220
0
230
1
40
0.999993
41
1.56960458576497
42
2.95298999921737
0
POINT
5
70
100
AcDbEntity
8
80
62
256
6
ByLayer
370
18
48
1
60
0
100
AcDbPoint
10
0
20
0
30
0
39
0
210
0
220
0
230
1
50
360
0
POINT
5
72
100
AcDbEntity
8
81
62
256
6
ByLayer
370
18
48
1
60
0
100
AcDbPoint
10
49
20
0
30
0
39
0
210
0
220
0
230
1
50
360
0
POINT
5
74
100
AcDbEntity
8
1
62
256
6
ByLayer
370
18
48
1
60
1
100
AcDbPoint
10
47.7526
20
-4.2165
30
0
39
0
210
0
220
0
230
1
50
360
0
POINT
5
76
100
AcDbEntity
8
1
62
256
6
ByLayer
370
18
48
1
60
1
100
AcDbPoint
10
-40
20
-5
30
0
39
0
210
0
220
0
230
1
50
360
0
POINT
5
77
100
AcDbEntity
8
1
62
256
6
ByLayer
370
18
48
1
60
1
100
AcDbPoint
10
22.46
20
4.2165
30
0
39
0
210
0
220
0
230
1
50
360
0
POINT
5
78
100
AcDbEntity
8
1
62
256
6
ByLayer
370
18
48
1
60
1
100
AcDbPoint
10
47.7526
20
-4.2165
30
0
39
0
210
0
220
0
230
1
50
360
0
POINT
5
79
100
AcDbEntity
8
1
62
256
6
ByLayer
370
18
48
1
60
1
100
AcDbPoint
10
-40
20
-5
30
0
39
0
210
0
220
0
230
1
50
360
0
POINT
5
7A
100
AcDbEntity
8
1
62
256
6
ByLayer
370
18
48
1
60
1
100
AcDbPoint
10
47.7526
20
-4.2165
30
0
39
0
210
0
220
0
230
1
50
360
0
SPLINE
5
B5
100
AcDbEntity
8
SK1
62
256
6
ByLayer
370
18
48
1
60
0
100
AcDbSpline
70
4
71
3
72
12
73
8
40
0
40
0
40
0
40
0
40
0.500000000000001
40
0.500000000000001
40
0.75
40
0.75
40
1
40
1
40
1
40
1
41
1
10
-39.35
20
-1.64210389778111
30
0
41
1
10
-39.3264103729719
20
-1.64588913008305
30
0
41
1
10
-39.3036886178189
20
-1.64192687974818
30
0
41
1
10
-39.275599229617
20
-1.62352826390406
30
0
41
1
10
-39.2670477807071
20
-1.6150727470297
30
0
41
1
10
-39.2542670006876
20
-1.59287989963664
30
0
41
1
10
-39.25
20
-1.57870915968826
30
0
41
1
10
-39.25
20
-1.5628087521975
30
0
0
SPLINE
5
B6
100
AcDbEntity
8
SK1
62
256
6
ByLayer
370
18
48
1
60
0
100
AcDbSpline
70
4
71
3
72
8
73
4
40
0
40
0
40
0
40
0
40
1
40
1
40
1
40
1
41
1
10
-39.35
20
-0.333384005821358
30
0
41
1
10
-39.5672428967222
20
-0.368243176297483
30
0
41
1
10
-39.7840155154917
20
-0.403171769997101
30
0
41
1
10
-40
20
-0.438216709403917
30
0
0
SPLINE
5
B7
100
AcDbEntity
8
SK1
62
256
6
ByLayer
370
18
48
1
60
0
100
AcDbSpline
70
4
71
3
72
8
73
4
40
0
40
0
40
0
40
0
40
1
40
1
40
1
40
1
41
1
10
-39.35
20
0.33338400582133
30
0
41
1
10
-39.5672428967222
20
0.368243176297455
30
0
41
1
10
-39.7840155154917
20
0.403171769997101
30
0
41
1
10
-40
20
0.438216709403889
30
0
0
SPLINE
5
B8
100
AcDbEntity
8
SK1
62
256
6
ByLayer
370
18
48
1
60
0
100
AcDbSpline
70
4
71
3
72
8
73
4
40
0
40
0
40
0
40
0
40
1
40
1
40
1
40
1
41
1
10
-40
20
-1.5372711941985
30
0
41
1
10
-39.7840042060961
20
-1.57231796863104
30
0
41
1
10
-39.5672332890974
20
-1.60724626896101
30
0
41
1
10
-39.35
20
-1.64210389778105
30
0
0
SPLINE
5
B9
100
AcDbEntity
8
SK1
62
256
6
ByLayer
370
18
48
1
60
0
100
AcDbSpline
70
4
71
3
72
12
73
8
40
0
40
0
40
0
40
0
40
0.25
40
0.25
40
0.5
40
0.5
40
1
40
1
40
1
40
1
41
1
10
-39.25
20
0.215130361044657
30
0
41
1
10
-39.25
20
0.232132003484594
30
0
41
1
10
-39.2542356242269
20
0.248602104138996
30
0
41
1
10
-39.2670201311554
20
0.276675826496643
30
0
41
1
10
-39.2754786511825
20
0.288495461537821
30
0
41
1
10
-39.3037388067419
20
0.317826295838785
30
0
41
1
10
-39.3264172660865
20
0.329599879600522
30
0
41
1
10
-39.35
20
0.333384005821387
30
0
0
SPLINE
5
BA
100
AcDbEntity
8
SK1
62
256
6
ByLayer
370
18
48
1
60
0
100
AcDbSpline
70
4
71
3
72
12
73
8
40
0
40
0
40
0
40
0
40
0.25
40
0.25
40
0.5
40
0.5
40
1
40
1
40
1
40
1
41
1
10
-39.25
20
-0.215130361044686
30
0
41
1
10
-39.25
20
-0.232132003484622
30
0
41
1
10
-39.2542356242269
20
-0.248602104139025
30
0
41
1
10
-39.2670201311554
20
-0.276675826496671
30
0
41
1
10
-39.2754786511825
20
-0.288495461537849
30
0
41
1
10
-39.3037388067419
20
-0.317826295838785
30
0
41
1
10
-39.3264172660865
20
-0.329599879600522
30
0
41
1
10
-39.35
20
-0.333384005821387
30
0
0
SPLINE
5
BB
100
AcDbEntity
8
1
62
256
6
ByLayer
370
18
48
1
60
0
100
AcDbSpline
70
4
71
3
72
14
73
10
40
0
40
0
40
0
40
0
40
0.249999999999998
40
0.249999999999998
40
0.499999999999996
40
0.499999999999996
40
0.749999999999998
40
0.749999999999998
40
1
40
1
40
1
40
1
41
1
10
4.00322925517133
20
-4.07057865705292
30
0
41
1
10
4.00747087981458
20
-4.04117863135247
30
0
41
1
10
4.01618760393941
20
-4.01116760666284
30
0
41
1
10
4.04424225363431
20
-3.95542465952454
30
0
41
1
10
4.06406172161189
20
-3.92929859845663
30
0
41
1
10
4.11254300779567
20
-3.88919223796796
30
0
41
1
10
4.14057485844813
20
-3.87572945301551
30
0
41
1
10
4.19668205177777
20
-3.86250698954268
30
0
41
1
10
4.2244259956488
20
-3.86240955851775
30
0
41
1
10
4.25074231817109
20
-3.86672564880229
30
0
0
SPLINE
5
BC
100
AcDbEntity
8
1
62
256
6
ByLayer
370
18
48
1
60
0
100
AcDbSpline
70
4
71
3
72
10
73
6
40
0
40
0
40
0
40
0
40
0.5
40
0.5
40
1
40
1
40
1
40
1
41
1
10
47.7301365535963
20
-4.10178128869225
30
0
41
1
10
47.6913121466932
20
-4.1307137802535
30
0
41
1
10
47.6539992536862
20
-4.15457114701937
30
0
41
1
10
47.5830100590455
20
-4.19109576197763
30
0
41
1
10
47.5497363881604
20
-4.2035786542715
30
0
41
1
10
47.5185450267694
20
-4.21034477240622
30
0
0
SPLINE
5
BD
100
AcDbEntity
8
1
62
256
6
ByLayer
370
13
48
1
60
0
100
AcDbSpline
70
4
71
3
72
12
73
8
40
0
40
0
40
0
40
0
40
0.150085251273795
40
0.150085251273795
40
0.575042625636898
40
0.575042625636898
40
1
40
1
40
1
40
1
41
1
10
4.25066061642693
20
-3.97893359632823
30
0
41
1
10
4.25066475787713
20
-3.97846325181786
30
0
41
1
10
4.2506689108105
20
-3.97722801311321
30
0
41
1
10
4.25068484571955
20
-3.96958161401636
30
0
41
1
10
4.25069665919034
20
-3.95779112910807
30
0
41
1
10
4.25071996211528
20
-3.92160842077564
30
0
41
1
10
4.25073144436408
20
-3.89714941318528
30
0
41
1
10
4.25074231817109
20
-3.86672564880234
30
0
0
SPLINE
5
BE
100
AcDbEntity
8
1
62
256
6
ByLayer
370
18
48
1
60
0
100
AcDbSpline
70
4
71
3
72
28
73
24
40
0
40
0
40
0
40
0
40
0.0624999999999982
40
0.0624999999999982
40
0.0937499999999977
40
0.0937499999999977
40
0.124999999999997
40
0.124999999999997
40
0.249999999999997
40
0.249999999999997
40
0.374999999999997
40
0.374999999999997
40
0.437499999999999
40
0.437499999999999
40
0.500000000000001
40
0.500000000000001
40
0.625000000000001
40
0.625000000000001
40
0.750000000000001
40
0.750000000000001
40
0.875
40
0.875
40
1
40
1
40
1
40
1
41
1
10
43.5709971940874
20
1.19014405553284
30
0
41
1
10
43.5757412256299
20
1.06565786001062
30
0
41
1
10
43.5890423589363
20
0.940380866874676
30
0
41
1
10
43.6213361439472
20
0.751324793398879
30
0
41
1
10
43.6341617055025
20
0.688115639689272
30
0
41
1
10
43.6639004097033
20
0.561319581781532
30
0
41
1
10
43.680845455969
20
0.497697243310597
30
0
41
1
10
43.7739207799228
20
0.184205352050867
30
0
41
1
10
43.8756718740682
20
-0.0565734729772487
30
0
41
1
10
44.123429831198
20
-0.521890956086935
30
0
41
1
10
44.2651030498588
20
-0.738531000923075
30
0
41
1
10
44.4960400870917
20
-1.04486820920232
30
0
41
1
10
44.5762107056642
20
-1.1439016808516
30
0
41
1
10
44.7422622320581
20
-1.33645992842523
30
0
41
1
10
44.8284156625991
20
-1.4302333483767
30
0
41
1
10
45.0910277432172
20
-1.70034988451562
30
0
41
1
10
45.2724841238801
20
-1.86677390559194
30
0
41
1
10
45.6454601681925
20
-2.17809138415626
30
0
41
1
10
45.8370069558059
20
-2.32292680946625
30
0
41
1
10
46.2287274752576
20
-2.59414016749173
30
0
41
1
10
46.4295260683811
20
-2.72083149561226
30
0
41
1
10
46.8345125047116
20
-2.95493135623471
30
0
41
1
10
47.0389908934845
20
-3.06258312659091
30
0
41
1
10
47.2452800884384
20
-3.16166221000944
30
0
0
SPLINE
5
BF
100
AcDbEntity
8
1
62
256
6
ByLayer
370
18
48
1
60
0
100
AcDbSpline
70
4
71
3
72
38
73
34
40
0
40
0
40
0
40
0
40
0.125000000000015
40
0.125000000000015
40
0.25000000000003
40
0.25000000000003
40
0.312500000000035
40
0.312500000000035
40
0.375000000000039
40
0.375000000000039
40
0.406250000000041
40
0.406250000000041
40
0.437500000000044
40
0.437500000000044
40
0.453125000000045
40
0.453125000000045
40
0.468750000000046
40
0.468750000000046
40
0.484375000000047
40
0.484375000000047
40
0.500000000000048
40
0.500000000000048
40
0.531250000000045
40
0.531250000000045
40
0.562500000000042
40
0.562500000000042
40
0.625000000000036
40
0.625000000000036
40
0.750000000000024
40
0.750000000000024
40
0.875000000000012
40
0.875000000000012
40
1
40
1
40
1
40
1
41
1
10
47.6781536002953
20
-2.31473651589738
30
0
41
1
10
47.5145536070893
20
-2.26844707906972
30
0
41
1
10
47.3510562861073
20
-2.20728103021443
30
0
41
1
10
47.0265220393531
20
-2.05462812295608
30
0
41
1
10
46.8680013228332
20
-1.96479921950277
30
0
41
1
10
46.6383917239919
20
-1.80060499364478
30
0
41
1
10
46.5632323221149
20
-1.74080548733656
30
0
41
1
10
46.4205086136724
20
-1.6085221448059
30
0
41
1
10
46.3522500582281
20
-1.53586907365235
30
0
41
1
10
46.2648121109987
20
-1.41292930020796
30
0
41
1
10
46.2376929251418
20
-1.36877361146122
30
0
41
1
10
46.1942362002626
20
-1.27499382340247
30
0
41
1
10
46.1778865443991
20
-1.2248990581061
30
0
41
1
10
46.1699659241241
20
-1.15044536751086
30
0
41
1
10
46.1701700165468
20
-1.12548162783705
30
0
41
1
10
46.1768507135644
20
-1.07890451072115
30
0
41
1
10
46.1834176328337
20
-1.05664790130965
30
0
41
1
10
46.2015506467954
20
-1.01691488563816
30
0
41
1
10
46.2132611840892
20
-0.998942169534701
30
0
41
1
10
46.239782117312
20
-0.967499937336441
30
0
41
1
10
46.2545601453445
20
-0.953920986177167
30
0
41
1
10
46.3022515430192
20
-0.917923261761757
30
0
41
1
10
46.3380192813322
20
-0.900561451169978
30
0
41
1
10
46.4118594937019
20
-0.874364585548363
30
0
41
1
10
46.4506332122724
20
-0.865351125487678
30
0
41
1
10
46.5686666287899
20
-0.846837092161024
30
0
41
1
10
46.6488729496348
20
-0.845504013419287
30
0
41
1
10
46.8919136630848
20
-0.85907624573494
30
0
41
1
10
47.0580058483171
20
-0.892028388189942
30
0
41
1
10
47.3872078604675
20
-0.983779276829665
30
0
41
1
10
47.5518907129796
20
-1.04354124486511
30
0
41
1
10
47.8762534109055
20
-1.1863706831854
30
0
41
1
10
48.0359570904907
20
-1.26906453437274
30
0
41
1
10
48.1921628570547
20
-1.36768198826104
30
0
0
SPLINE
5
C0
100
AcDbEntity
8
1
62
256
6
ByLayer
370
18
48
1
60
0
100
AcDbSpline
70
4
71
3
72
8
73
4
40
0
40
0
40
0
40
0
40
1
40
1
40
1
40
1
41
1
10
48.989510963906
20
0.117765346818374
30
0
41
1
10
48.9901801582254
20
0.0960835802208067
30
0
41
1
10
48.9941471176264
20
0.0696340828762914
30
0
41
1
10
48.9999610253823
20
0.041774668077835
30
0
0
SPLINE
5
C1
100
AcDbEntity
8
1
62
256
6
ByLayer
370
18
48
1
60
0
100
AcDbSpline
70
4
71
3
72
18
73
14
40
0
40
0
40
0
40
0
40
0.31593126502146
40
0.31593126502146
40
0.47389689753219
40
0.47389689753219
40
0.63186253004292
40
0.63186253004292
40
0.78982816255365
40
0.78982816255365
40
0.94779379506438
40
0.94779379506438
40
1
40
1
40
1
40
1
41
1
10
11.8944061007555
20
2.90829864207078
30
0
41
1
10
11.2315095224138
20
3.09875770077622
30
0
41
1
10
10.5775729834481
20
3.28142837089749
30
0
41
1
10
9.60127429633084
20
3.51468305358705
30
0
41
1
10
9.27727080544167
20
3.58517586578842
30
0
41
1
10
8.63163525940348
20
3.71111606387595
30
0
41
1
10
8.30987903360685
20
3.76697370173369
30
0
41
1
10
7.66763451451905
20
3.86033601085669
30
0
41
1
10
7.34794803724103
20
3.89802882623525
30
0
41
1
10
6.71401707029548
20
3.95319916712381
30
0
41
1
10
6.3994056197991
20
3.97035212877066
30
0
41
1
10
5.98398137404277
20
3.9792413767978
30
0
41
1
10
5.88104779697665
20
3.98031247660469
30
0
41
1
10
5.778405858192
20
3.98013961435737
30
0
0
SPLINE
5
C2
100
AcDbEntity
8
1
62
256
6
ByLayer
370
18
48
1
60
0
100
AcDbSpline
70
4
71
3
72
27
73
23
40
0
40
0
40
0
40
0
40
0.0741316637042438
40
0.0741316637042438
40
0.148263327408488
40
0.148263327408488
40
0.296526654816975
40
0.296526654816975
40
0.370658318521219
40
0.370658318521219
40
0.444789982225463
40
0.518921645929706
40
0.518921645929706
40
0.59305330963395
40
0.59305330963395
40
0.741316637042437
40
0.741316637042437
40
0.815448300746681
40
0.815448300746681
40
0.889579964450925
40
0.889579964450925
40
1
40
1
40
1
40
1
41
1
10
4.00313326234519
20
1.2063093101186
30
0
41
1
10
4.00313655542166
20
1.33403933243966
30
0
41
1
10
4.00313959320351
20
1.46025890320158
30
0
41
1
10
4.0031451861812
20
1.70678849490702
30
0
41
1
10
4.00314773615145
20
1.82679201271057
30
0
41
1
10
4.00315481700153
20
2.17729289520204
30
0
41
1
10
4.00315878097274
20
2.39836490976785
30
0
41
1
10
4.00316419688733
20
2.71061776926169
30
0
41
1
10
4.00316591226513
20
2.81139314346629
30
0
41
1
10
4.00316919247888
20
3.00213131659481
30
0
41
1
10
4.00317234224062
20
3.18322173673286
30
0
41
1
10
4.00317541603823
20
3.34533079542553
30
0
41
1
10
4.00317853123315
20
3.49784966202728
30
0
41
1
10
4.0031801143447
20
3.5695091144826
30
0
41
1
10
4.00318499885316
20
3.76827376895983
30
0
41
1
10
4.00318838079625
20
3.87686897586857
30
0
41
1
10
4.00319387211255
20
4.00516976217401
30
0
41
1
10
4.00319577016924
20
4.0421317363201
30
0
41
1
10
4.00319971569363
20
4.10418404338603
30
0
41
1
10
4.00320177046427
20
4.12927429278443
30
0
41
1
10
4.00320695638055
20
4.17552589694705
30
0
41
1
10
4.0032101468841
20
4.18926363346947
30
0
41
1
10
4.00321336073296
20
4.1891947859977
30
0
0
SPLINE
5
C3
100
AcDbEntity
8
1
62
256
6
ByLayer
370
18
48
1
60
0
100
AcDbSpline
70
4
71
3
72
8
73
4
40
0
40
0
40
0
40
0
40
1
40
1
40
1
40
1
41
1
10
11.8944061007555
20
3.02862132548685
30
0
41
1
10
11.8944061007555
20
2.98436633776123
30
0
41
1
10
11.8944061007555
20
2.94077945505745
30
0
41
1
10
11.8944061007555
20
2.89784732548685
30
0
0
SPLINE
5
C4
100
AcDbEntity
8
1
62
256
6
ByLayer
370
13
48
1
60
0
100
AcDbSpline
70
4
71
3
72
8
73
4
40
0
40
0
40
0
40
0
40
1
40
1
40
1
40
1
41
1
10
4.25026001556336
20
1.01786613600081
30
0
41
1
10
4.21316881836947
20
1.0277394036566
30
0
41
1
10
4.17699786071299
20
1.03932189448031
30
0
41
1
10
4.14320514016489
20
1.05235758033621
30
0
0
SPLINE
5
C5
100
AcDbEntity
8
1
62
256
6
ByLayer
370
18
48
1
60
0
100
AcDbSpline
70
4
71
3
72
8
73
4
40
0
40
0
40
0
40
0
40
1
40
1
40
1
40
1
41
1
10
47.5185450267693
20
4.21034477240622
30
0
41
1
10
47.3642407695338
20
4.2142703226755
30
0
41
1
10
47.2099590796433
20
4.21618039941916
30
0
41
1
10
47.0556616755992
20
4.21607880517666
30
0
0
SPLINE
5
C6
100
AcDbEntity
8
1
62
256
6
ByLayer
370
18
48
1
60
0
100
AcDbSpline
70
4
71
3
72
34
73
30
40
0
40
0
40
0
40
0
40
0.042674619876218
40
0.042674619876218
40
0.079494826804055
40
0.079494826804055
40
0.116315033731892
40
0.116315033731892
40
0.263595861443242
40
0.263595861443242
40
0.300416068371079
40
0.300416068371079
40
0.337236275298917
40
0.337236275298917
40
0.410876689154593
40
0.410876689154593
40
0.484517103010269
40
0.484517103010269
40
0.558157516865945
40
0.558157516865945
40
0.631797930721621
40
0.631797930721621
40
0.705438344577296
40
0.705438344577296
40
0.779078758432973
40
0.779078758432973
40
0.852719172288648
40
0.852719172288648
40
1
40
1
40
1
40
1
41
1
10
22.5525576821935
20
-3.99859721833448
30
0
41
1
10
22.2909873016691
20
-4.03733376308361
30
0
41
1
10
22.0294643151609
20
-4.07057918853286
30
0
41
1
10
21.5420109697142
20
-4.12207139693859
30
0
41
1
10
21.3161309610448
20
-4.14175787461079
30
0
41
1
10
20.8639614926478
20
-4.17267049887636
30
0
41
1
10
20.6374539570811
20
-4.18389231292841
30
0
41
1
10
19.5064052497002
20
-4.21837379369856
30
0
41
1
10
18.6055626530192
20
-4.17700875497562
30
0
41
1
10
17.4746040712921
20
-4.04126465286274
30
0
41
1
10
17.2479822775067
20
-4.00990249479509
30
0
41
1
10
16.7956199160292
20
-3.93912056990217
30
0
41
1
10
16.5696993196527
20
-3.89969371306759
30
0
41
1
10
15.8922363225931
20
-3.76973344004693
30
0
41
1
10
15.4409955254748
20
-3.66753348161601
30
0
41
1
10
14.5375452803164
20
-3.43371759659172
30
0
41
1
10
14.0844579058163
20
-3.30181705700645
30
0
41
1
10
13.1798680651082
20
-3.01274532591574
30
0
41
1
10
12.7284991727128
20
-2.85562102316436
30
0
41
1
10
11.8254721347828
20
-2.51954644618064
30
0
41
1
10
11.3739213381375
20
-2.34042368005999
30
0
41
1
10
10.4685581418247
20
-1.96348653518493
30
0
41
1
10
10.0160602588259
20
-1.76647457729427
30
0
41
1
10
9.1127360978183
20
-1.36064932046381
30
0
41
1
10
8.66148315921481
20
-1.15145713819243
30
0
41
1
10
7.75764911214611
20
-0.724729145959969
30
0
41
1
10
7.30420424938208
20
-0.506912529390235
30
0
41
1
10
5.94768723705496
20
0.148127732109373
30
0
41
1
10
5.04686047995312
20
0.587756310719328
30
0
41
1
10
4.14111976535582
20
1.01282957744175
30
0
0
SPLINE
5
C7
100
AcDbEntity
8
1
62
256
6
ByLayer
370
18
48
1
60
0
100
AcDbSpline
70
4
71
3
72
8
73
4
40
0
40
0
40
0
40
0
40
1
40
1
40
1
40
1
41
1
10
11.6708739136763
20
2.96778081049601
30
0
41
1
10
11.7454419926449
20
2.98809879998203
30
0
41
1
10
11.819951216132
20
3.00838597956187
30
0
41
1
10
11.8944061007556
20
3.02862132546258
30
0
0
SPLINE
5
C8
100
AcDbEntity
8
1
62
256
6
ByLayer
370
18
48
1
60
0
100
AcDbSpline
70
4
71
3
72
8
73
4
40
0
40
0
40
0
40
0
40
1
40
1
40
1
40
1
41
1
10
48.9999610253849
20
0.0417746680672906
30
0
41
1
10
49.0000129944916
20
0.0139233063026722
30
0
41
1
10
49.0000129876224
20
-0.0139269876368928
30
0
41
1
10
48.999961025385
20
-0.0417746680564619
30
0
0
SPLINE
5
C9
100
AcDbEntity
8
1
62
256
6
ByLayer
370
18
48
1
60
0
100
AcDbSpline
70
4
71
3
72
8
73
4
40
0
40
0
40
0
40
0
40
1
40
1
40
1
40
1
41
1
10
47.56357794914
20
-4.09759162265254
30
0
41
1
10
47.5485901115582
20
-4.13521314649736
30
0
41
1
10
47.5335783299673
20
-4.17279837523975
30
0
41
1
10
47.5185450267693
20
-4.21034477240622
30
0
0
SPLINE
5
CA
100
AcDbEntity
8
1
62
256
6
ByLayer
370
18
48
1
60
0
100
AcDbSpline
70
4
71
3
72
61
73
57
40
0
40
0
40
0
40
0
40
0.0624999999999855
40
0.0624999999999855
40
0.0937499999999776
40
0.0937499999999776
40
0.12499999999997
40
0.12499999999997
40
0.156249999999962
40
0.156249999999962
40
0.187499999999954
40
0.187499999999954
40
0.20312499999995
40
0.20312499999995
40
0.218749999999945
40
0.218749999999945
40
0.226562499999943
40
0.226562499999943
40
0.234374999999941
40
0.234374999999941
40
0.249999999999937
40
0.249999999999937
40
0.265624999999933
40
0.265624999999933
40
0.281249999999929
40
0.281249999999929
40
0.296874999999925
40
0.296874999999925
40
0.312499999999921
40
0.312499999999921
40
0.343749999999914
40
0.343749999999914
40
0.374999999999907
40
0.374999999999907
40
0.382812499999906
40
0.382812499999906
40
0.390624999999905
40
0.390624999999905
40
0.394531249999904
40
0.394531249999904
40
0.398437499999904
40
0.398437499999904
40
0.402343749999903
40
0.402343749999903
40
0.406249999999903
40
0.437499999999907
40
0.437499999999907
40
0.499999999999916
40
0.499999999999916
40
0.624999999999937
40
0.624999999999937
40
0.749999999999958
40
0.749999999999958
40
0.874999999999979
40
0.874999999999979
40
1
40
1
40
1
40
1
41
1
10
4.00322925517256
20
-4.07057865704903
30
0
41
1
10
3.7587701008224
20
-4.03186715006208
30
0
41
1
10
3.5194450395756
20
-3.98262627172559
30
0
41
1
10
3.17289765690475
20
-3.88632950920262
30
0
41
1
10
3.05916259699987
20
-3.85031193296081
30
0
41
1
10
2.83978963522711
20
-3.76936939308706
30
0
41
1
10
2.73400624587046
20
-3.72446575597289
30
0
41
1
10
2.53329858154595
20
-3.62294737295414
30
0
41
1
10
2.43828543891087
20
-3.56641380667122
30
0
41
1
10
2.2648337115329
20
-3.4362907265284
30
0
41
1
10
2.18600815045997
20
-3.36200798754715
30
0
41
1
10
2.09459271839427
20
-3.23630372696232
30
0
41
1
10
2.06825735558607
20
-3.19146928692106
30
0
41
1
10
2.02752846890439
20
-3.09730300489088
30
0
41
1
10
2.01320390158096
20
-3.0483412907908
30
0
41
1
10
2.00208423025617
20
-2.97180525128499
30
0
41
1
10
2.00010906559817
20
-2.94577685159072
30
0
41
1
10
1.99989027029579
20
-2.89262983507356
30
0
41
1
10
2.00168565369734
20
-2.86535818356697
30
0
41
1
10
2.01273804088572
20
-2.78392207127575
30
0
41
1
10
2.02754919906724
20
-2.72963335943535
30
0
41
1
10
2.07108204625121
20
-2.62123056018464
30
0
41
1
10
2.10019056624424
20
-2.56666668842547
30
0
41
1
10
2.16855478274198
20
-2.46190129700773
30
0
41
1
10
2.20787115874924
20
-2.41125323633986
30
0
41
1
10
2.29480827412013
20
-2.31286969063655
30
0
41
1
10
2.34275787090297
20
-2.26486703496585
30
0
41
1
10
2.44365141057085
20
-2.17309631646816
30
0
41
1
10
2.49660622448198
20
-2.1292385765064
30
0
41
1
10
2.66142333998474
20
-2.00258021417068
30
0
41
1
10
2.7791236714441
20
-1.92459858841579
30
0
41
1
10
3.02540093336629
20
-1.77800747478582
30
0
41
1
10
3.15322623153764
20
-1.70991452510987
30
0
41
1
10
3.31641447716811
20
-1.63016608389958
30
0
41
1
10
3.34924177664732
20
-1.61447916860891
30
0
41
1
10
3.41525126772797
20
-1.58360089082106
30
0
41
1
10
3.44852995835362
20
-1.56868037005353
30
0
41
1
10
3.49824937827566
20
-1.54584246441598
30
0
41
1
10
3.51515149942421
20
-1.5389257378132
30
0
41
1
10
3.55151152046176
20
-1.53058055051855
30
0
41
1
10
3.5704302056873
20
-1.52834603003302
30
0
41
1
10
3.60760557206459
20
-1.5264732524258
30
0
41
1
10
3.62614955159319
20
-1.52712990475612
30
0
41
1
10
3.66325104236091
20
-1.52794994973351
30
0
41
1
10
3.83020166972489
20
-1.53186155878498
30
0
41
1
10
3.99709770252727
20
-1.53776095889319
30
0
41
1
10
4.44202600518372
20
-1.55812449333212
30
0
41
1
10
4.73803530525743
20
-1.5778670264661
30
0
41
1
10
5.62358752841294
20
-1.65459833384452
30
0
41
1
10
6.2109990064169
20
-1.72925605085044
30
0
41
1
10
7.38001919656335
20
-1.91905475772222
30
0
41
1
10
7.95757616081784
20
-2.03346223562173
30
0
41
1
10
9.10035119854695
20
-2.28940863484667
30
0
41
1
10
9.66558213274772
20
-2.430853678587
30
0
41
1
10
10.7863290759603
20
-2.72542685754965
30
0
41
1
10
11.3418639103383
20
-2.8784514285596
30
0
41
1
10
11.8944061007555
20
-3.02862132546261
30
0
0
SPLINE
5
CB
100
AcDbEntity
8
1
62
256
6
ByLayer
370
18
48
1
60
0
100
AcDbSpline
70
4
71
3
72
8
73
4
40
0
40
0
40
0
40
0
40
1
40
1
40
1
40
1
41
1
10
47.6781536002953
20
-2.31473651589735
30
0
41
1
10
47.5310581247038
20
-2.59449847810617
30
0
41
1
10
47.3867592049653
20
-2.87680000579843
30
0
41
1
10
47.2452800884384
20
-3.16166221000944
30
0
0
SPLINE
5
CC
100
AcDbEntity
8
1
62
256
6
ByLayer
370
18
48
1
60
0
100
AcDbSpline
70
4
71
3
72
90
73
86
40
0
40
0
40
0
40
0
40
0.0105174846597053
40
0.0105174846597053
40
0.0471649852278634
40
0.0471649852278634
40
0.0654887355119425
40
0.0654887355119425
40
0.0838124857960216
40
0.0838124857960216
40
0.102136236080101
40
0.102136236080101
40
0.12045998636418
40
0.12045998636418
40
0.157107486932338
40
0.157107486932338
40
0.175431237216418
40
0.175431237216418
40
0.193754987500497
40
0.193754987500497
40
0.230402488068657
40
0.230402488068657
40
0.267049988636816
40
0.267049988636816
40
0.285373738920895
40
0.285373738920895
40
0.303697489204974
40
0.303697489204974
40
0.322021239489053
40
0.322021239489053
40
0.340344989773132
40
0.340344989773132
40
0.376992490341291
40
0.376992490341291
40
0.39531624062537
40
0.39531624062537
40
0.41363999090945
40
0.41363999090945
40
0.450287491477609
40
0.450287491477609
40
0.486934992045769
40
0.486934992045769
40
0.505258742329849
40
0.505258742329849
40
0.523582492613928
40
0.523582492613928
40
0.541906242898008
40
0.541906242898008
40
0.560229993182088
40
0.560229993182088
40
0.596877493750246
40
0.596877493750246
40
0.615201244034326
40
0.615201244034326
40
0.633524994318405
40
0.633524994318405
40
0.651848744602485
40
0.651848744602485
40
0.670172494886565
40
0.670172494886565
40
0.706819995454725
40
0.706819995454725
40
0.743467496022885
40
0.743467496022885
40
0.761791246306965
40
0.761791246306965
40
0.780114996591044
40
0.780114996591044
40
0.798438746875124
40
0.798438746875124
40
0.816762497159204
40
0.816762497159204
40
0.835086247443284
40
0.835086247443284
40
0.853409997727363
40
0.853409997727363
40
0.890057498295523
40
0.890057498295523
40
0.926704998863682
40
0.926704998863682
40
0.945028749147762
40
0.945028749147762
40
0.963352499431841
40
0.963352499431841
40
1
40
1
40
1
40
1
41
1
10
38.9073027144496
20
-2.97898699465733
30
0
41
1
10
38.812677873257
20
-3.00811698152265
30
0
41
1
10
38.7180404212837
20
-3.03667747253789
30
0
41
1
10
38.2935530829977
20
-3.16204893250955
30
0
41
1
10
37.9626162344363
20
-3.25240764577126
30
0
41
1
10
37.4669864204937
20
-3.37877125496726
30
0
41
1
10
37.3017628529672
20
-3.41886166577746
30
0
41
1
10
36.9718063864986
20
-3.49550521107122
30
0
41
1
10
36.807033699072
20
-3.53202825943029
30
0
41
1
10
36.4772918138993
20
-3.60084810510776
30
0
41
1
10
36.3124120824428
20
-3.6332014143363
30
0
41
1
10
35.9827522178832
20
-3.69337485761804
30
0
41
1
10
35.8179573667705
20
-3.72106946227439
30
0
41
1
10
35.3231219485892
20
-3.79882406320613
30
0
41
1
10
34.9934480747452
20
-3.84383739908199
30
0
41
1
10
34.4977255257477
20
-3.89880597801638
30
0
41
1
10
34.3323744397254
20
-3.91512990112045
30
0
41
1
10
34.002087420858
20
-3.94334137753117
30
0
41
1
10
33.83693719779
20
-3.95525745051512
30
0
41
1
10
33.3423650912967
20
-3.98374096393494
30
0
41
1
10
33.0125770640556
20
-3.99154793714877
30
0
41
1
10
32.3534597462456
20
-3.9942197689
30
0
41
1
10
32.0238915873825
20
-3.98753086335355
30
0
41
1
10
31.5290410763442
20
-3.96472952156552
30
0
41
1
10
31.363914336438
20
-3.95504243723158
30
0
41
1
10
31.0334378049336
20
-3.93130758495175
30
0
41
1
10
30.868205787702
20
-3.91717145394747
30
0
41
1
10
30.5380105721806
20
-3.88405225678045
30
0
41
1
10
30.3729691189246
20
-3.86496827338439
30
0
41
1
10
30.0433853941114
20
-3.82319479459178
30
0
41
1
10
29.8785861622976
20
-3.80040455028387
30
0
41
1
10
29.3841280298297
20
-3.72560372382054
30
0
41
1
10
29.0546684329067
20
-3.66713581631151
30
0
41
1
10
28.5600736421313
20
-3.56863134970863
30
0
41
1
10
28.3953531205602
20
-3.53386765775701
30
0
41
1
10
28.0654053466267
20
-3.46095140381382
30
0
41
1
10
27.9002627420824
20
-3.42269229164896
30
0
41
1
10
27.4045109722016
20
-3.30188063099394
30
0
41
1
10
27.074463390127
20
-3.21417160821352
30
0
41
1
10
26.4154729273698
20
-3.02251378946659
30
0
41
1
10
26.0857714564738
20
-2.9203622518767
30
0
41
1
10
25.5916798385012
20
-2.75858176624129
30
0
41
1
10
25.4268077578068
20
-2.7034609194732
30
0
41
1
10
25.0972401268452
20
-2.58985704827239
30
0
41
1
10
24.9325006466103
20
-2.53142869157992
30
0
41
1
10
24.6024936521777
20
-2.4122495637873
30
0
41
1
10
24.4372751215176
20
-2.35136953312971
30
0
41
1
10
24.1067921915495
20
-2.22652290376652
30
0
41
1
10
23.9417806580218
20
-2.16256008037442
30
0
41
1
10
23.4466849070238
20
-1.96826491831405
30
0
41
1
10
23.1173808590312
20
-1.8342879490522
30
0
41
1
10
22.623116788873
20
-1.62866693958955
30
0
41
1
10
22.4584665857666
20
-1.55904526787398
30
0
41
1
10
22.1290574434488
20
-1.41820958828126
30
0
41
1
10
21.9641721405945
20
-1.34726067561638
30
0
41
1
10
21.6346496983104
20
-1.20299811992643
30
0
41
1
10
21.4697828082605
20
-1.13008825639895
30
0
41
1
10
21.1394248379196
20
-0.983268810368571
30
0
41
1
10
20.9739832383373
20
-0.909351552122018
30
0
41
1
10
20.4782610085738
20
-0.685956301735217
30
0
41
1
10
20.1483325546371
20
-0.535597648193971
30
0
41
1
10
19.489053180292
20
-0.23310026201159
30
0
41
1
10
19.1595943676261
20
-0.0812073219811396
30
0
41
1
10
18.6650905067761
20
0.146386848988925
30
0
41
1
10
18.5000800002753
20
0.22195698712008
30
0
41
1
10
18.1702709941014
20
0.37366953982314
30
0
41
1
10
18.0052163570556
20
0.449252631845042
30
0
41
1
10
17.674764758071
20
0.599796251140532
30
0
41
1
10
17.5092985675488
20
0.67487906009373
30
0
41
1
10
17.178856245444
20
0.824215172201775
30
0
41
1
10
17.0136281639386
20
0.898089436924039
30
0
41
1
10
16.6834082948146
20
1.04529658203549
30
0
41
1
10
16.5185559511544
20
1.11884831431792
30
0
41
1
10
16.1885861520385
20
1.2640434961364
30
0
41
1
10
16.0235571555718
20
1.33587702844309
30
0
41
1
10
15.5285528564626
20
1.54939714987563
30
0
41
1
10
15.1984781509253
20
1.68877400341179
30
0
41
1
10
14.5373727652523
20
1.95903069038593
30
0
41
1
10
14.2064270794276
20
2.08872434386726
30
0
41
1
10
13.711179689337
20
2.27818543895964
30
0
41
1
10
13.5459941566606
20
2.33998500999189
30
0
41
1
10
13.2159812047533
20
2.46168426082531
30
0
41
1
10
13.0511090572421
20
2.52147339670418
30
0
41
1
10
12.5559524184479
20
2.69563754129709
30
0
41
1
10
12.2253774610011
20
2.80508459702332
30
0
41
1
10
11.8944061007555
20
2.90829864207078
30
0
0
SPLINE
5
CD
100
AcDbEntity
8
1
62
256
6
ByLayer
370
18
48
1
60
0
100
AcDbSpline
70
4
71
3
72
35
73
31
40
0
40
0
40
0
40
0
40
0.249999999999999
40
0.249999999999999
40
0.312499999999996
40
0.312499999999996
40
0.374999999999993
40
0.374999999999993
40
0.499999999999986
40
0.499999999999986
40
0.562499999999986
40
0.562499999999986
40
0.624999999999986
40
0.624999999999986
40
0.74999999999998
40
0.74999999999998
40
0.812499999999977
40
0.812499999999977
40
0.843749999999975
40
0.843749999999975
40
0.851562499999976
40
0.851562499999976
40
0.859374999999977
40
0.859374999999977
40
0.867187499999978
40
0.867187499999978
40
0.871093749999978
40
0.871093749999978
40
0.874999999999979
40
1
40
1
40
1
40
1
41
1
10
43.5709971940872
20
1.19014405553264
30
0
41
1
10
43.9198334711286
20
0.9247014784915
30
0
41
1
10
44.2821131660829
20
0.69641716719272
30
0
41
1
10
44.7535670987092
20
0.462485013260505
30
0
41
1
10
44.8488052960037
20
0.418369994945607
30
0
41
1
10
45.0389725405791
20
0.336524376682007
30
0
41
1
10
45.1341799429466
20
0.298650514241416
30
0
41
1
10
45.4201793198088
20
0.194319359540088
30
0
41
1
10
45.6113423621412
20
0.137002197570013
30
0
41
1
10
45.8989838452874
20
0.0731193487039548
30
0
41
1
10
45.9950073256834
20
0.0553470923528607
30
0
41
1
10
46.1873531576921
20
0.0271643652405089
30
0
41
1
10
46.2839948808829
20
0.0168387065126581
30
0
41
1
10
46.5714144954536
20
-0.0010214928971095
30
0
41
1
10
46.7599279039736
20
0.0039967545843922
30
0
41
1
10
47.0372821612726
20
0.0410962003541897
30
0
41
1
10
47.1287246739143
20
0.0584046952592416
30
0
41
1
10
47.2631095169103
20
0.0925796035744213
30
0
41
1
10
47.3074713291855
20
0.105365914218879
30
0
41
1
10
47.3622435156009
20
0.123156653428595
30
0
41
1
10
47.3731644683275
20
0.126804465299927
30
0
41
1
10
47.394938546667
20
0.134279780368274
30
0
41
1
10
47.4061800733185
20
0.137274415627473
30
0
41
1
10
47.426047691104
20
0.148745760820219
30
0
41
1
10
47.4348531830635
20
0.157781065126983
30
0
41
1
10
47.4421495059524
20
0.17646259132556
30
0
41
1
10
47.4432871214353
20
0.183346105734671
30
0
41
1
10
47.444555505385
20
0.19762363048369
30
0
41
1
10
47.4647841159775
20
0.433443279342356
30
0
41
1
10
47.4623658650043
20
0.677089953819461
30
0
41
1
10
47.4457287428661
20
0.913203692830848
30
0
0
SPLINE
5
CE
100
AcDbEntity
8
1
62
256
6
ByLayer
370
18
48
1
60
0
100
AcDbSpline
70
4
71
3
72
18
73
14
40
0
40
0
40
0
40
0
40
0.169377220214236
40
0.169377220214236
40
0.338754440428471
40
0.338754440428471
40
0.508131660642707
40
0.508131660642707
40
0.677508880856943
40
0.677508880856943
40
0.846886101071178
40
0.846886101071178
40
1
40
1
40
1
40
1
41
1
10
11.8944061007555
20
-3.02862132546261
30
0
41
1
10
12.2680300381869
20
-3.15521059629413
30
0
41
1
10
12.6419271021486
20
-3.27129951076574
30
0
41
1
10
13.3886216860062
20
-3.48548117606725
30
0
41
1
10
13.7609540344453
20
-3.58393992395133
30
0
41
1
10
14.5073797074165
20
-3.75923268798641
30
0
41
1
10
14.881280547865
20
-3.83660473346657
30
0
41
1
10
15.6293157519634
20
-3.97037677194345
30
0
41
1
10
16.002698545574
20
-4.02598288046067
30
0
41
1
10
16.7491763782313
20
-4.11446219884346
30
0
41
1
10
17.1215292808103
20
-4.1476026776769
30
0
41
1
10
17.8320590040389
20
-4.18821925281242
30
0
41
1
10
18.170163998792
20
-4.19802871106734
30
0
41
1
10
18.5081913133303
20
-4.19823728104942
30
0
0
SPLINE
5
CF
100
AcDbEntity
8
1
62
256
6
ByLayer
370
18
48
1
60
0
100
AcDbSpline
70
4
71
3
72
22
73
18
40
0
40
0
40
0
40
0
40
0.109867725278947
40
0.109867725278947
40
0.237029478810526
40
0.237029478810526
40
0.364191232342105
40
0.364191232342105
40
0.491352985873684
40
0.491352985873684
40
0.618514739405263
40
0.618514739405263
40
0.745676492936842
40
0.745676492936842
40
0.872838246468421
40
0.872838246468421
40
1
40
1
40
1
40
1
41
1
10
38.9247468118744
20
2.98366764664235
30
0
41
1
10
39.2470930329297
20
3.09467494135106
30
0
41
1
10
39.56899851634
20
3.19934949289811
30
0
41
1
10
40.2641450576028
20
3.40948107535328
30
0
41
1
10
40.6366684619439
20
3.5135406973024
30
0
41
1
10
41.3827886738309
20
3.70175832163875
30
0
41
1
10
41.7575654343494
20
3.78538314843266
30
0
41
1
10
42.503934481021
20
3.93184937897112
30
0
41
1
10
42.8763463665968
20
3.99426296210927
30
0
41
1
10
43.6221194321061
20
4.09604066988436
30
0
41
1
10
43.994687262196
20
4.13589982901351
30
0
41
1
10
44.7408308589286
20
4.19241148217671
30
0
41
1
10
45.115486990466
20
4.20893775686466
30
0
41
1
10
45.8623563188553
20
4.21858206215751
30
0
41
1
10
46.2353063820557
20
4.21155293159489
30
0
41
1
10
46.982928434942
20
4.17422123354436
30
0
41
1
10
47.356875487516
20
4.14377397724022
30
0
41
1
10
47.7301365535982
20
4.10178128869077
30
0
0
SPLINE
5
D0
100
AcDbEntity
8
1
62
256
6
ByLayer
370
18
48
1
60
0
100
AcDbSpline
70
4
71
3
72
10
73
6
40
0
40
0
40
0
40
0
40
0.5
40
0.5
40
1
40
1
40
1
40
1
41
1
10
47.7301365535962
20
4.10178128869228
30
0
41
1
10
47.6913121466931
20
4.13071378025353
30
0
41
1
10
47.6539992536861
20
4.15457114701937
30
0
41
1
10
47.5830100590455
20
4.19109576197763
30
0
41
1
10
47.5497363881604
20
4.2035786542715
30
0
41
1
10
47.5185450267693
20
4.21034477240622
30
0
0
SPLINE
5
D1
100
AcDbEntity
8
1
62
256
6
ByLayer
370
18
48
1
60
0
100
AcDbSpline
70
4
71
3
72
10
73
6
40
0
40
0
40
0
40
0
40
0.5
40
0.5
40
1
40
1
40
1
40
1
41
1
10
4.14111976535574
20
1.01282957744178
30
0
41
1
10
4.10849233470856
20
1.02814196023129
30
0
41
1
10
4.07982412725517
20
1.05009268021178
30
0
41
1
10
4.03426259987174
20
1.10354033501693
30
0
41
1
10
4.01746357324348
20
1.13517363014589
30
0
41
1
10
4.00832440746433
20
1.16835047501905
30
0
0
SPLINE
5
D2
100
AcDbEntity
8
1
62
256
6
ByLayer
370
18
48
1
60
0
100
AcDbSpline
70
4
71
3
72
12
73
8
40
0
40
0
40
0
40
0
40
0.203070131144933
40
0.203070131144933
40
0.601535065572467
40
0.601535065572467
40
1
40
1
40
1
40
1
41
1
10
4.00321336627667
20
-4.18919465354725
30
0
41
1
10
4.00321446589223
20
-4.18916566542072
30
0
41
1
10
4.00321556823636
20
-4.18752043107804
30
0
41
1
10
4.00321883405212
20
-4.17787453192022
30
0
41
1
10
4.00322099591011
20
-4.16524118245223
30
0
41
1
10
4.0032252489323
20
-4.12704953331641
30
0
41
1
10
4.00322730658488
20
-4.10178284838051
30
0
41
1
10
4.0032292551719
20
-4.07057865704954
30
0
0
SPLINE
5
D3
100
AcDbEntity
8
1
62
256
6
ByLayer
370
18
48
1
60
0
100
AcDbSpline
70
4
71
3
72
18
73
14
40
0
40
0
40
0
40
0
40
0.271863763448136
40
0.271863763448136
40
0.407795645172205
40
0.407795645172205
40
0.543727526896273
40
0.543727526896273
40
0.815591290344412
40
0.815591290344412
40
0.951523172068481
40
0.951523172068481
40
1
40
1
40
1
40
1
41
1
10
47.2452800884384
20
-3.16166221000944
30
0
41
1
10
47.245019132845
20
-3.30524317635428
30
0
41
1
10
47.2514217147749
20
-3.43123417449601
30
0
41
1
10
47.2713154136263
20
-3.59432705801103
30
0
41
1
10
47.2796746013496
20
-3.64435136466858
30
0
41
1
10
47.300062535172
20
-3.73550212463979
30
0
41
1
10
47.3120279697005
20
-3.77624451502035
30
0
41
1
10
47.3528808240472
20
-3.88303781735004
30
0
41
1
10
47.3868244181321
20
-3.93442083834256
30
0
41
1
10
47.4485575056847
20
-3.98247615865077
30
0
41
1
10
47.4710135561999
20
-3.99364502112172
30
0
41
1
10
47.5039066498672
20
-4.00202067812469
30
0
41
1
10
47.5127676082777
20
-4.00358773170012
30
0
41
1
10
47.5218453059036
20
-4.00452437491731
30
0
0
SPLINE
5
D4
100
AcDbEntity
8
1
62
256
6
ByLayer
370
18
48
1
60
0
100
AcDbSpline
70
4
71
3
72
10
73
6
40
0
40
0
40
0
40
0
40
0.5
40
0.5
40
1
40
1
40
1
40
1
41
1
10
47.5801637715958
20
1.00991587753595
30
0
41
1
10
47.8081991101155
20
1.00117743159782
30
0
41
1
10
48.0362179739292
20
0.992638420186722
30
0
41
1
10
48.4922803982884
20
0.975261431118128
30
0
41
1
10
48.7203156130365
20
0.966524483498318
30
0
41
1
10
48.9482872164295
20
0.958557583030512
30
0
0
SPLINE
5
D5
100
AcDbEntity
8
1
62
256
6
ByLayer
370
18
48
1
60
0
100
AcDbSpline
70
4
71
3
72
38
73
34
40
0
40
0
40
0
40
0
40
0.0014070714035373
40
0.0014070714035373
40
0.0921882467304883
40
0.0921882467304883
40
0.137578834393964
40
0.137578834393964
40
0.182969422057439
40
0.182969422057439
40
0.273750597384391
40
0.273750597384391
40
0.319141185047866
40
0.319141185047866
40
0.364531772711342
40
0.364531772711342
40
0.409922360374818
40
0.409922360374818
40
0.455312948038293
40
0.455312948038293
40
0.546094123365244
40
0.546094123365244
40
0.636875298692195
40
0.636875298692195
40
0.682265886355671
40
0.682265886355671
40
0.727656474019146
40
0.727656474019146
40
0.818437649346098
40
0.818437649346098
40
0.909218824673049
40
0.909218824673049
40
1
40
1
40
1
40
1
41
1
10
32.66931610092
20
3.99293473715392
30
0
41
1
10
32.6744334720999
20
3.99291746719223
30
0
41
1
10
32.6795506779157
20
3.99289825464607
30
0
41
1
10
33.0148076278614
20
3.99151231897938
30
0
41
1
10
33.3448494421392
20
3.98364150033737
30
0
41
1
10
33.8389901069087
20
3.95511719212007
30
0
41
1
10
34.0038746225903
20
3.94320140269196
30
0
41
1
10
34.3334128830575
20
3.91502841420217
30
0
41
1
10
34.4981912064096
20
3.8987557026831
30
0
41
1
10
34.9930134818792
20
3.84388286314092
30
0
41
1
10
35.3230768189759
20
3.79884196727036
30
0
41
1
10
35.8191033686134
20
3.72088396366945
30
0
41
1
10
35.9842060914951
20
3.69312432303681
30
0
41
1
10
36.3142227390092
20
3.63285592043133
30
0
41
1
10
36.479156065119
20
3.60047396267868
30
0
41
1
10
36.8087852248271
20
3.53164759462393
30
0
41
1
10
36.9733930895282
20
3.49514530291358
30
0
41
1
10
37.3028095551108
20
3.41860980707216
30
0
41
1
10
37.4676532446247
20
3.37860257284527
30
0
41
1
10
37.9618215406392
20
3.25260759836817
30
0
41
1
10
38.2917777223473
20
3.1625478923691
30
0
41
1
10
38.9518161803569
20
2.96765755178521
30
0
41
1
10
39.282531078316
20
2.86256611360255
30
0
41
1
10
39.7773603935825
20
2.6965088815642
30
0
41
1
10
39.9422623964572
20
2.63979586593652
30
0
41
1
10
40.2718343021289
20
2.5235020483955
30
0
41
1
10
40.4364166730168
20
2.46376358939986
30
0
41
1
10
40.9307300719228
20
2.28196258372776
30
0
41
1
10
41.2602123692475
20
2.15627242285663
30
0
41
1
10
41.9199479092115
20
1.89411441746057
30
0
41
1
10
42.2502867036521
20
1.75710685262885
30
0
41
1
10
42.911054666907
20
1.47772907517137
30
0
41
1
10
43.2410891933957
20
1.33502927170935
30
0
41
1
10
43.5709971940873
20
1.19014405553256
30
0
0
SPLINE
5
D6
100
AcDbEntity
8
1
62
256
6
ByLayer
370
18
48
1
60
0
100
AcDbSpline
70
4
71
3
72
16
73
12
40
0
40
0
40
0
40
0
40
0.110448527494137
40
0.110448527494137
40
0.220897054988273
40
0.220897054988273
40
0.441794109976546
40
0.441794109976546
40
0.883588219953087
40
0.883588219953087
40
1
40
1
40
1
40
1
41
1
10
47.5731070225927
20
-4.00346367314492
30
0
41
1
10
47.3461551422608
20
-4.00682495293589
30
0
41
1
10
47.119235256213
20
-4.00601715013434
30
0
41
1
10
46.6652325047749
20
-3.99611445195586
30
0
41
1
10
46.4380064707804
20
-3.98700308006448
30
0
41
1
10
45.7585527915788
20
-3.94751119670173
30
0
41
1
10
45.3077062807603
20
-3.90498878949245
30
0
41
1
10
43.958762337089
20
-3.73129343545969
30
0
41
1
10
43.0640759587386
20
-3.5538653509991
30
0
41
1
10
41.930324837871
20
-3.26082310119796
30
0
41
1
10
41.6936822002517
20
-3.19597571058105
30
0
41
1
10
41.456701373264
20
-3.12754116458302
30
0
0
SPLINE
5
D7
100
AcDbEntity
8
1
62
256
6
ByLayer
370
13
48
1
60
0
100
AcDbSpline
70
4
71
3
72
26
73
22
40
0
40
0
40
0
40
0
40
0.053086341803028
40
0.053086341803028
40
0.109202494166259
40
0.109202494166259
40
0.16531864652949
40
0.16531864652949
40
0.389783255982424
40
0.389783255982424
40
0.614247865435357
40
0.614247865435357
40
0.67036401779859
40
0.67036401779859
40
0.726480170161825
40
0.726480170161825
40
0.83871247488829
40
0.83871247488829
40
0.950944779614755
40
0.950944779614755
40
1
40
1
40
1
40
1
41
1
10
41.4567010112806
20
-3.12754106005062
30
0
41
1
10
41.243999231072
20
-3.06611773436472
30
0
41
1
10
41.0310250077304
20
-3.00180462052293
30
0
41
1
10
40.5921599463925
20
-2.86378250093452
30
0
41
1
10
40.3662361384937
20
-2.78972859779285
30
0
41
1
10
39.9133434054875
20
-2.6356847320645
30
0
41
1
10
39.6859838157979
20
-2.55554810065348
30
0
41
1
10
38.5525848843788
20
-2.14328533571725
30
0
41
1
10
37.6545449961244
20
-1.77637128695415
30
0
41
1
10
35.8610075377125
20
-0.99919671003056
30
0
41
1
10
34.9656123044876
20
-0.588619108866936
30
0
41
1
10
33.8384469167585
20
-0.0688017005446113
30
0
41
1
10
33.6126154319148
20
0.0354888553090689
30
0
41
1
10
33.1599441745521
20
0.24427295159748
30
0
41
1
10
32.932835356824
20
0.348903524507676
30
0
41
1
10
32.2517187042508
20
0.6613334842624
30
0
41
1
10
31.7987286074837
20
0.867166878313952
30
0
41
1
10
30.8929696431487
20
1.26976081259988
30
0
41
1
10
30.4401874716045
20
1.46650045164
30
0
41
1
10
29.7883763128629
20
1.74004984832726
30
0
41
1
10
29.5899096677227
20
1.82201722257739
30
0
41
1
10
29.3914383494168
20
1.90247506361914
30
0
0
SPLINE
5
D8
100
AcDbEntity
8
1
62
256
6
ByLayer
370
18
48
1
60
0
100
AcDbSpline
70
4
71
3
72
10
73
6
40
0
40
0
40
0
40
0
40
0.5
40
0.5
40
1
40
1
40
1
40
1
41
1
10
48.9999610253896
20
0.0417746680838604
30
0
41
1
10
48.9962276420318
20
0.0264325757468384
30
0
41
1
10
48.9911253184327
20
0.0099844767283344
30
0
41
1
10
48.9788212992428
20
-0.0212425406925263
30
0
41
1
10
48.9715819577518
20
-0.0360470670379698
30
0
41
1
10
48.9642476161251
20
-0.0480551269083662
30
0
0
SPLINE
5
D9
100
AcDbEntity
8
1
62
256
6
ByLayer
370
18
48
1
60
0
100
AcDbSpline
70
4
71
3
72
14
73
10
40
0
40
0
40
0
40
0
40
0.25
40
0.25
40
0.5
40
0.5
40
0.75
40
0.75
40
1
40
1
40
1
40
1
41
1
10
47.4457287428659
20
0.91320369283082
30
0
41
1
10
47.4446456418411
20
0.928575043151056
30
0
41
1
10
47.4476593535392
20
0.944198285167289
30
0
41
1
10
47.4627818981215
20
0.971350613973698
30
0
41
1
10
47.4748638317552
20
0.982677279623914
30
0
41
1
10
47.5021111673016
20
0.998636260595646
30
0
41
1
10
47.5175015260777
20
1.00373434280885
30
0
41
1
10
47.5484296856218
20
1.00962325149652
30
0
41
1
10
47.5643347836955
20
1.01052245349879
30
0
41
1
10
47.5801637715958
20
1.00991587753597
30
0
0
SPLINE
5
DA
100
AcDbEntity
8
1
62
256
6
ByLayer
370
18
48
1
60
0
100
AcDbSpline
70
4
71
3
72
8
73
4
40
0
40
0
40
0
40
0
40
1
40
1
40
1
40
1
41
1
10
48.9482872164295
20
0.958557583030483
30
0
41
1
10
48.967129146005
20
0.677971256871643
30
0
41
1
10
48.9808707330399
20
0.39770715678813
30
0
41
1
10
48.989510963906
20
0.117765346818374
30
0
0
SPLINE
5
DB
100
AcDbEntity
8
1
62
256
6
ByLayer
370
18
48
1
60
0
100
AcDbSpline
70
4
71
3
72
8
73
4
40
0
40
0
40
0
40
0
40
1
40
1
40
1
40
1
41
1
10
48.9642476161251
20
-0.0480551269083378
30
0
41
1
10
48.6996125267192
20
-0.4813256451325
30
0
41
1
10
48.4422118960311
20
-0.921165809241302
30
0
41
1
10
48.1921628570557
20
-1.36768198825672
30
0
0
SPLINE
5
DC
100
AcDbEntity
8
1
62
256
6
ByLayer
370
18
48
1
60
0
100
AcDbSpline
70
4
71
3
72
18
73
14
40
0
40
0
40
0
40
0
40
0.0948891662810863
40
0.0948891662810863
40
0.480617341473946
40
0.480617341473946
40
0.577049385272162
40
0.577049385272162
40
0.673481429070378
40
0.673481429070378
40
0.866345516666808
40
0.866345516666808
40
1
40
1
40
1
40
1
41
1
10
6.25378395776741
20
0.0008384265210566
30
0
41
1
10
6.47556250503683
20
-0.103654104928154
30
0
41
1
10
6.69721937240917
20
-0.208096790641349
30
0
41
1
10
7.81992153912862
20
-0.73551478850186
30
0
41
1
10
8.72075523570376
20
-1.15407972421471
30
0
41
1
10
9.85678843481458
20
-1.64934057290651
30
0
41
1
10
10.0845703480829
20
-1.74706535620049
30
0
41
1
10
10.538237079406
20
-1.93799767963671
30
0
41
1
10
10.7645046375678
20
-2.03137554767306
30
0
41
1
10
11.4419824883572
20
-2.30461633492649
30
0
41
1
10
11.8920234843785
20
-2.47737910917135
30
0
41
1
10
12.6527695157704
20
-2.75123290944342
30
0
41
1
10
12.9637996715936
20
-2.85813923728597
30
0
41
1
10
13.2747983962451
20
-2.95934805357933
30
0
0
SPLINE
5
DD
100
AcDbEntity
8
1
62
256
6
ByLayer
370
13
48
1
60
0
100
AcDbSpline
70
4
71
3
72
18
73
14
40
0
40
0
40
0
40
0
40
0.210960460126871
40
0.210960460126871
40
0.372368405402295
40
0.372368405402295
40
0.453072378040008
40
0.453072378040008
40
0.533776350677721
40
0.533776350677721
40
0.856592241228574
40
0.856592241228574
40
1
40
1
40
1
40
1
41
1
10
13.274798396235
20
-2.95934805357604
30
0
41
1
10
13.8613451003329
20
-3.15022889300431
30
0
41
1
10
14.4477800026932
20
-3.32084349177168
30
0
41
1
10
15.4866842754842
20
-3.58022447928425
30
0
41
1
10
15.9382859195661
20
-3.67884975711058
30
0
41
1
10
16.6188969694721
20
-3.80434957642905
30
0
41
1
10
16.8466735626865
20
-3.84248593803193
30
0
41
1
10
17.3006382847624
20
-3.91048244484216
30
0
41
1
10
17.5270803769265
20
-3.94040011212974
30
0
41
1
10
18.6568977569488
20
-4.06933514743005
30
0
41
1
10
19.5538112838155
20
-4.10665138012766
30
0
41
1
10
20.8497173114258
20
-4.06529944751983
30
0
41
1
10
21.2484981972693
20
-4.03961547303393
30
0
41
1
10
21.648104679213
20
-4.00108095424284
30
0
0
SPLINE
5
DE
100
AcDbEntity
8
1
62
256
6
ByLayer
370
13
48
1
60
0
100
AcDbSpline
70
4
71
3
72
12
73
8
40
0
40
0
40
0
40
0
40
0.500000000000003
40
0.500000000000003
40
0.750000000000001
40
0.750000000000001
40
1
40
1
40
1
40
1
41
1
10
4.00313326234269
20
1.20630931011831
30
0
41
1
10
4.009273927962
20
1.17428936410127
30
0
41
1
10
4.02449577926973
20
1.14348927006623
30
0
41
1
10
4.05979330034072
20
1.10362540621563
30
0
41
1
10
4.07392716337512
20
1.09111728544647
30
0
41
1
10
4.1058445887418
20
1.06929920497407
30
0
41
1
10
4.12353175073056
20
1.05994667408865
30
0
41
1
10
4.14320514016489
20
1.05235758033621
30
0
0
SPLINE
5
DF
100
AcDbEntity
8
1
62
256
6
ByLayer
370
18
48
1
60
0
100
AcDbSpline
70
4
71
3
72
8
73
4
40
0
40
0
40
0
40
0
40
1
40
1
40
1
40
1
41
1
10
4.00832440746501
20
1.16835047501667
30
0
41
1
10
4.0048931475113
20
1.18080657680426
30
0
41
1
10
4.003132930975
20
1.19345636709224
30
0
41
1
10
4.00313326234519
20
1.20630931012403
30
0
0
SPLINE
5
E0
100
AcDbEntity
8
1
62
256
6
ByLayer
370
18
48
1
60
0
100
AcDbSpline
70
4
71
3
72
16
73
12
40
0
40
0
40
0
40
0
40
0.432204210843155
40
0.432204210843155
40
0.559999704745148
40
0.559999704745148
40
0.687795198647142
40
0.687795198647142
40
0.943386186451129
40
0.943386186451129
40
1
40
1
40
1
40
1
41
1
10
20.06604930273
20
-3.98842176715092
30
0
41
1
10
19.3077021133902
20
-3.98703635500573
30
0
41
1
10
18.5488193528905
20
-3.93967712266695
30
0
41
1
10
17.5593349428588
20
-3.8191353157753
30
0
41
1
10
17.3330636952142
20
-3.78762187084945
30
0
41
1
10
16.8794813767501
20
-3.71673249304919
30
0
41
1
10
16.6519583915181
20
-3.67729305194945
30
0
41
1
10
15.9720285547902
20
-3.54829977880738
30
0
41
1
10
15.5207946113995
20
-3.44789279179329
30
0
41
1
10
14.9710806798425
20
-3.30902449953544
30
0
41
1
10
14.8714567438458
20
-3.28319051023777
30
0
41
1
10
14.7718809975875
20
-3.25672080459648
30
0
0
SPLINE
5
E1
100
AcDbEntity
8
1
62
256
6
ByLayer
370
13
48
1
60
0
100
AcDbSpline
70
4
71
3
72
18
73
14
40
0
40
0
40
0
40
0
40
0.228642895632645
40
0.228642895632645
40
0.357202413027204
40
0.357202413027204
40
0.421482171724484
40
0.421482171724484
40
0.485761930421763
40
0.485761930421763
40
0.742880965210882
40
0.742880965210882
40
1
40
1
40
1
40
1
41
1
10
14.7718809980744
20
-3.25672080472586
30
0
41
1
10
13.9723594478708
20
-3.04418812602316
30
0
41
1
10
13.1759446581972
20
-2.79067123568737
30
0
41
1
10
11.9280704966318
20
-2.34394156415166
30
0
41
1
10
11.4782641329985
20
-2.17274077110693
30
0
41
1
10
10.8012695929936
20
-1.90267565756005
30
0
41
1
10
10.5751825777099
20
-1.81049582177124
30
0
41
1
10
10.1219198729993
20
-1.6222483315307
30
0
41
1
10
9.89437842110712
20
-1.52601944813196
30
0
41
1
10
8.75950937364576
20
-1.03886223943164
30
0
41
1
10
7.85931300090758
20
-0.628679145702591
30
0
41
1
10
6.05862502979292
20
0.197939994273185
30
0
41
1
10
5.15835525731922
20
0.614857855073353
30
0
41
1
10
4.25026001556336
20
1.01786613600081
30
0
0
SPLINE
5
E2
100
AcDbEntity
8
1
62
256
6
ByLayer
370
18
48
1
60
0
100
AcDbSpline
70
4
71
3
72
30
73
26
40
0
40
0
40
0
40
0
40
0.0625000000000003
40
0.0625000000000003
40
0.125000000000001
40
0.125000000000001
40
0.187500000000001
40
0.187500000000001
40
0.250000000000001
40
0.250000000000001
40
0.312500000000002
40
0.312500000000002
40
0.375000000000002
40
0.375000000000002
40
0.500000000000003
40
0.500000000000003
40
0.625000000000004
40
0.625000000000004
40
0.750000000000005
40
0.750000000000005
40
0.875000000000006
40
0.875000000000006
40
0.937500000000003
40
0.937500000000003
40
1
40
1
40
1
40
1
41
1
10
48.1921628570539
20
-1.36768198825956
30
0
41
1
10
48.1889192340603
20
-1.39431442886601
30
0
41
1
10
48.184321840543
20
-1.42319196668507
30
0
41
1
10
48.1727864200575
20
-1.4827143501951
30
0
41
1
10
48.1658688319088
20
-1.51342123197875
30
0
41
1
10
48.1497762958733
20
-1.57671571472199
30
0
41
1
10
48.1405077702046
20
-1.60956200309315
30
0
41
1
10
48.1204640214866
20
-1.67458907995675
30
0
41
1
10
48.1096332512017
20
-1.70703685008201
30
0
41
1
10
48.0864409167735
20
-1.77181488345283
30
0
41
1
10
48.0741053276133
20
-1.80402754244142
30
0
41
1
10
48.0488421053926
20
-1.86615871302953
30
0
41
1
10
48.0358120806394
20
-1.89636801159742
30
0
41
1
10
47.9956062947962
20
-1.98454304944559
30
0
41
1
10
47.9681932067511
20
-2.03817651813097
30
0
41
1
10
47.9133836045761
20
-2.13433033104971
30
0
41
1
10
47.8860143510195
20
-2.17662775700487
30
0
41
1
10
47.8346586047684
20
-2.24562736613575
30
0
41
1
10
47.8102704321527
20
-2.27306818642768
30
0
41
1
10
47.7643790840904
20
-2.31320851945958
30
0
41
1
10
47.7437209545482
20
-2.32519674071952
30
0
41
1
10
47.7160830427765
20
-2.33093408711662
30
0
41
1
10
47.7073783978839
20
-2.33074347080029
30
0
41
1
10
47.6915938859089
20
-2.32598218279233
30
0
41
1
10
47.6844816061245
20
-2.32145429070468
30
0
41
1
10
47.6781536002952
20
-2.31473651589752
30
0
0
SPLINE
5
E3
100
AcDbEntity
8
1
62
256
6
ByLayer
370
18
48
1
60
0
100
AcDbSpline
70
4
71
3
72
8
73
4
40
0
40
0
40
0
40
0
40
1
40
1
40
1
40
1
41
1
10
48.9482872164295
20
-0.958557583030512
30
0
41
1
10
48.9671249150064
20
-0.678034263176244
30
0
41
1
10
48.9808687918559
20
-0.397770050776103
30
0
41
1
10
48.989510963906
20
-0.117765346818317
30
0
0
SPLINE
5
E4
100
AcDbEntity
8
1
62
256
6
ByLayer
370
18
48
1
60
0
100
AcDbSpline
70
4
71
3
72
18
73
14
40
0
40
0
40
0
40
0
40
0.128604749455039
40
0.128604749455039
40
0.257209498910078
40
0.257209498910078
40
0.514418997820155
40
0.514418997820155
40
0.643023747275193
40
0.643023747275193
40
0.771628496730231
40
0.771628496730231
40
1
40
1
40
1
40
1
41
1
10
4.25074231830288
20
-3.86672564882389
30
0
41
1
10
4.54760369873992
20
-3.91541332236639
30
0
41
1
10
4.8512980564613
20
-3.9457686908774
30
0
41
1
10
5.46708455589413
20
-3.98007837886553
30
0
41
1
10
5.77979293523958
20
-3.98377246216063
30
0
41
1
10
6.72382350000981
20
-3.96308081365777
30
0
41
1
10
7.35818729584176
20
-3.90565561126579
30
0
41
1
10
8.31784305749645
20
-3.76564451802193
30
0
41
1
10
8.63947003954621
20
-3.7096995172524
30
0
41
1
10
9.28494335785248
20
-3.58356477446526
30
0
41
1
10
9.60807429611251
20
-3.51313050789054
30
0
41
1
10
10.5076802822911
20
-3.29799722977481
30
0
41
1
10
11.0863567637548
20
-3.13896346345427
30
0
41
1
10
11.6721441315357
20
-2.97193114038009
30
0
0
SPLINE
5
E5
100
AcDbEntity
8
1
62
256
6
ByLayer
370
18
48
1
60
0
100
AcDbSpline
70
4
71
3
72
10
73
6
40
0
40
0
40
0
40
0
40
0.5
40
0.5
40
1
40
1
40
1
40
1
41
1
10
47.7301365535911
20
4.10178128871067
30
0
41
1
10
47.9195250709312
20
3.57339539128182
30
0
41
1
10
48.1163897581093
20
3.04716852298412
30
0
41
1
10
48.5231341546111
20
1.99882368728166
30
0
41
1
10
48.7332585235894
20
1.47633991947131
30
0
41
1
10
48.9482872164295
20
0.958557583030512
30
0
0
SPLINE
5
E6
100
AcDbEntity
8
1
62
256
6
ByLayer
370
18
48
1
60
0
100
AcDbSpline
70
4
71
3
72
68
73
64
40
0
40
0
40
0
40
0
40
0.0331224570161701
40
0.0331224570161701
40
0.0662449140323403
40
0.0662449140323403
40
0.0993673710485104
40
0.0993673710485104
40
0.13248982806468
40
0.13248982806468
40
0.165612285080851
40
0.165612285080851
40
0.198734742097021
40
0.198734742097021
40
0.231857199113191
40
0.231857199113191
40
0.264979656129361
40
0.264979656129361
40
0.298102113145531
40
0.298102113145531
40
0.331224570161701
40
0.331224570161701
40
0.364347027177871
40
0.364347027177871
40
0.397469484194041
40
0.397469484194041
40
0.430591941210212
40
0.430591941210212
40
0.463714398226382
40
0.463714398226382
40
0.496836855242552
40
0.496836855242552
40
0.529959312258722
40
0.529959312258722
40
0.563081769274892
40
0.563081769274892
40
0.596204226291062
40
0.596204226291062
40
0.629326683307232
40
0.629326683307232
40
0.662449140323403
40
0.662449140323403
40
0.695571597339573
40
0.695571597339573
40
0.728694054355743
40
0.728694054355743
40
0.761816511371913
40
0.761816511371913
40
0.794938968388083
40
0.794938968388083
40
0.828061425404253
40
0.828061425404253
40
0.861183882420423
40
0.861183882420423
40
0.894306339436594
40
0.894306339436594
40
0.927428796452764
40
0.927428796452764
40
0.960551253468934
40
0.960551253468934
40
0.993673710485104
40
0.993673710485104
40
1
40
1
40
1
40
1
41
1
10
11.8944061007555
20
3.02862132546258
30
0
41
1
10
12.268030038187
20
3.15521059629413
30
0
41
1
10
12.6419271021486
20
3.27129951076572
30
0
41
1
10
13.3886216860062
20
3.48548117606725
30
0
41
1
10
13.7609540344452
20
3.58393992395133
30
0
41
1
10
14.5073797074166
20
3.75923268798641
30
0
41
1
10
14.881280547865
20
3.83660473346657
30
0
41
1
10
15.6293157519634
20
3.97037677194342
30
0
41
1
10
16.002698545574
20
4.02598288046067
30
0
41
1
10
16.7491763782313
20
4.11446219884346
30
0
41
1
10
17.1215292808103
20
4.1476026776769
30
0
41
1
10
17.8678912254111
20
4.19026755855395
30
0
41
1
10
18.2419976256621
20
4.20000568230085
30
0
41
1
10
18.989803522736
20
4.19595159150188
30
0
41
1
10
19.3630457952377
20
4.1821323345419
30
0
41
1
10
20.1094394109767
20
4.13156060819588
30
0
41
1
10
20.4817882721771
20
4.09448035473065
30
0
41
1
10
21.228091684701
20
3.99795380986345
30
0
41
1
10
21.6023799313978
20
3.93855187809882
30
0
41
1
10
22.3499595095163
20
3.79725379841912
30
0
41
1
10
22.7230664317695
20
3.71595810735471
30
0
41
1
10
23.4693749019403
20
3.53382483061554
30
0
41
1
10
23.8417329949536
20
3.43203908842662
30
0
41
1
10
24.5879794408223
20
3.21045999239894
30
0
41
1
10
24.9624255136213
20
3.09071523785479
30
0
41
1
10
25.7097831883934
20
2.83316310090766
30
0
41
1
10
26.0827609278556
20
2.696391682962
30
0
41
1
10
26.8289833614383
20
2.40973943349897
30
0
41
1
10
27.2013634360742
20
2.25840217635869
30
0
41
1
10
27.9475548597766
20
1.94453267841177
30
0
41
1
10
28.3221339220407
20
1.78223571811355
30
0
41
1
10
29.069274384271
20
1.44670512363419
30
0
41
1
10
29.4421293130081
20
1.27473496479865
30
0
41
1
10
30.1882645801986
20
0.926142249285419
30
0
41
1
10
30.5606737856064
20
0.747769175152769
30
0
41
1
10
31.3068228960264
20
0.388170933187467
30
0
41
1
10
31.6815045619434
20
0.207443954071834
30
0
41
1
10
32.4284328465396
20
-0.156194787665299
30
0
41
1
10
32.8011715970081
20
-0.337821449295717
30
0
41
1
10
33.5472184332689
20
-0.696561779848167
30
0
41
1
10
33.9196616577736
20
-0.875450011453836
30
0
41
1
10
34.6657847248135
20
-1.22733176358236
30
0
41
1
10
35.0405363563467
20
-1.39962364664004
30
0
41
1
10
35.7872595485383
20
-1.73731434165413
30
0
41
1
10
36.1598881398917
20
-1.90158993920929
30
0
41
1
10
36.9058451047747
20
-2.21715818621593
30
0
41
1
10
37.2783266124418
20
-2.36997926819183
30
0
41
1
10
38.0244400130408
20
-2.66177487898418
30
0
41
1
10
38.3992237001393
20
-2.80001922819028
30
0
41
1
10
39.1457598550922
20
-3.06154153398833
30
0
41
1
10
39.5182795762964
20
-3.18401797572992
30
0
41
1
10
40.2641450576028
20
-3.40948107535328
30
0
41
1
10
40.6366684619439
20
-3.51354069730243
30
0
41
1
10
41.382788673831
20
-3.70175832163872
30
0
41
1
10
41.7575654343494
20
-3.78538314843263
30
0
41
1
10
42.503934481021
20
-3.93184937897112
30
0
41
1
10
42.8763463665968
20
-3.99426296210927
30
0
41
1
10
43.6221194321061
20
-4.09604066988436
30
0
41
1
10
43.9946872621961
20
-4.13589982901351
30
0
41
1
10
44.7408308589286
20
-4.19241148217674
30
0
41
1
10
45.115486990466
20
-4.20893775686466
30
0
41
1
10
45.5602465506199
20
-4.21468092614072
30
0
41
1
10
45.6315537684079
20
-4.21516960974481
30
0
41
1
10
45.7028526832991
20
-4.21522745531209
30
0
0
SPLINE
5
E7
100
AcDbEntity
8
1
62
256
6
ByLayer
370
18
48
1
60
0
100
AcDbSpline
70
4
71
3
72
48
73
44
40
0
40
0
40
0
40
0
40
0.0489919902721035
40
0.0489919902721035
40
0.097983980544207
40
0.097983980544207
40
0.146975970816311
40
0.146975970816311
40
0.195967961088414
40
0.195967961088414
40
0.244959951360518
40
0.244959951360518
40
0.293951941632621
40
0.293951941632621
40
0.342943931904725
40
0.342943931904725
40
0.391935922176828
40
0.391935922176828
40
0.440927912448931
40
0.440927912448931
40
0.489919902721035
40
0.489919902721035
40
0.538911892993138
40
0.538911892993138
40
0.587903883265242
40
0.587903883265242
40
0.636895873537345
40
0.636895873537345
40
0.685887863809449
40
0.685887863809449
40
0.734879854081552
40
0.734879854081552
40
0.783871844353656
40
0.783871844353656
40
0.881855824897863
40
0.881855824897863
40
0.906351820033916
40
0.906351820033916
40
0.930847815169968
40
0.930847815169968
40
0.979839805442074
40
0.979839805442074
40
1
40
1
40
1
40
1
41
1
10
47.5185450267693
20
-4.21034477240622
30
0
41
1
10
47.0667070467207
20
-4.22183967692814
30
0
41
1
10
46.6151985646267
20
-4.2160494524621
30
0
41
1
10
45.7109193977066
20
-4.1701516836317
30
0
41
1
10
45.2584585209827
20
-4.1300060602336
30
0
41
1
10
44.3548179652397
20
-4.01646997960071
30
0
41
1
10
43.9026849538076
20
-3.94301406094769
30
0
41
1
10
42.9980912722489
20
-3.76437691764443
30
0
41
1
10
42.5464716886767
20
-3.65946268196854
30
0
41
1
10
41.6426178723689
20
-3.42044889449983
30
0
41
1
10
41.189917412127
20
-3.28625546377953
30
0
41
1
10
40.2859675870178
20
-2.99272492507822
30
0
41
1
10
39.8343027054369
20
-2.8332445146531
30
0
41
1
10
38.929527903175
20
-2.49184251600946
30
0
41
1
10
38.4776795106407
20
-2.3105473999845
30
0
41
1
10
37.5753949491134
20
-1.93128331074078
30
0
41
1
10
37.1245980569645
20
-1.73316011476646
30
0
41
1
10
36.2215269909061
20
-1.32394351394689
30
0
41
1
10
35.7685675091087
20
-1.11237194588432
30
0
41
1
10
34.8652957462676
20
-0.683086591979617
30
0
41
1
10
34.4143997589098
20
-0.46530777639768
30
0
41
1
10
33.5120545447718
20
-0.0276705361108327
30
0
41
1
10
33.0606016468131
20
0.192392077819932
30
0
41
1
10
32.1554397598467
20
0.630227615289556
30
0
41
1
10
31.7040608326371
20
0.846686948910303
30
0
41
1
10
30.801692632177
20
1.27067347888672
30
0
41
1
10
30.3507132530246
20
1.47822080572325
30
0
41
1
10
29.4471794954645
20
1.88048318251606
30
0
41
1
10
28.9941759873128
20
2.0752169740631
30
0
41
1
10
28.0909632653857
20
2.4446596911628
30
0
41
1
10
27.6400153319827
20
2.61984455289877
30
0
41
1
10
26.737380904921
20
2.94778289559537
30
0
41
1
10
26.2851846946415
20
3.10079181763356
30
0
41
1
10
24.9280825180896
20
3.51982481179166
30
0
41
1
10
24.0276183577691
20
3.7442058819274
30
0
41
1
10
22.8973961201194
20
3.94570532882051
30
0
41
1
10
22.6708949797275
20
3.98206803810464
30
0
41
1
10
22.2185705631409
20
4.04644292868056
30
0
41
1
10
21.9926661351451
20
4.07447743183445
30
0
41
1
10
21.3153388572273
20
4.14599375004775
30
0
41
1
10
20.8644403894281
20
4.17692801047616
30
0
41
1
10
20.2272226399423
20
4.19641686446002
30
0
41
1
10
20.0413474094584
20
4.19920098481126
30
0
41
1
10
19.8552996735632
20
4.19907819577881
30
0
0
SPLINE
5
E8
100
AcDbEntity
8
1
62
256
6
ByLayer
370
18
48
1
60
0
100
AcDbSpline
70
4
71
3
72
14
73
10
40
0
40
0
40
0
40
0
40
0.25
40
0.25
40
0.5
40
0.5
40
0.75
40
0.75
40
1
40
1
40
1
40
1
41
1
10
47.5731070225795
20
-4.00346367314512
30
0
41
1
10
47.5764311239501
20
-4.00301770589397
30
0
41
1
10
47.5790880910752
20
-4.00431245339465
30
0
41
1
10
47.5826729369609
20
-4.01138925410325
30
0
41
1
10
47.5835430138358
20
-4.01727136716704
30
0
41
1
10
47.582406867071
20
-4.03441461826529
30
0
41
1
10
47.5803469333616
20
-4.04562826345753
30
0
41
1
10
47.5735258071083
20
-4.0707148461845
30
0
41
1
10
47.5688067381328
20
-4.08446664657146
30
0
41
1
10
47.5635779491415
20
-4.09759162264891
30
0
0
SPLINE
5
E9
100
AcDbEntity
8
1
62
256
6
ByLayer
370
18
48
1
60
0
100
AcDbSpline
70
4
71
3
72
10
73
6
40
0
40
0
40
0
40
0
40
0.5
40
0.5
40
1
40
1
40
1
40
1
41
1
10
47.7301365535913
20
-4.10178128871016
30
0
41
1
10
47.9206218104651
20
-3.57033553469148
30
0
41
1
10
48.1178580198857
20
-3.04330441611103
30
0
41
1
10
48.5242487203702
20
-1.99603131168934
30
0
41
1
10
48.7334659564829
20
-1.47584042758112
30
0
41
1
10
48.9482872164295
20
-0.958557583030512
30
0
0
SPLINE
5
EA
100
AcDbEntity
8
1
62
256
6
ByLayer
370
18
48
1
60
0
100
AcDbSpline
70
4
71
3
72
14
73
10
40
0
40
0
40
0
40
0
40
0.0879365028088099
40
0.0879365028088099
40
0.509694185695245
40
0.509694185695245
40
0.931451868581679
40
0.931451868581679
40
1
40
1
40
1
40
1
41
1
10
33.4798263995944
20
-0.0114731394165517
30
0
41
1
10
33.6685822852175
20
-0.100743673246797
30
0
41
1
10
33.8569940464746
20
-0.189825417663172
30
0
41
1
10
34.9474026992123
20
-0.704379008902521
30
0
41
1
10
35.8431091451806
20
-1.12308621003271
30
0
41
1
10
37.6375949900375
20
-1.91227913944937
30
0
41
1
10
38.5362056521488
20
-2.28320331448808
30
0
41
1
10
39.591529979
20
-2.66861060819861
30
0
41
1
10
39.7393347419192
20
-2.72144241973916
30
0
41
1
10
39.8869677752469
20
-2.77300593032896
30
0
0
SPLINE
5
EB
100
AcDbEntity
8
1
62
256
6
ByLayer
370
13
48
1
60
0
100
AcDbSpline
70
4
71
3
72
20
73
16
40
0
40
0
40
0
40
0
40
0.0308268749611977
40
0.0308268749611977
40
0.118933522691999
40
0.118933522691999
40
0.2951468181536
40
0.2951468181536
40
0.647573409076798
40
0.647573409076798
40
0.823786704538399
40
0.823786704538399
40
0.911893352269199
40
0.911893352269199
40
1
40
1
40
1
40
1
41
1
10
39.8869677746906
20
-2.77300593013464
30
0
41
1
10
39.966421041224
20
-2.80075642240715
30
0
41
1
10
40.0458245682404
20
-2.828139565778
30
0
41
1
10
40.3517187990372
20
-2.9322387011938
30
0
41
1
10
40.5777850805469
20
-3.00623464064299
30
0
41
1
10
41.2547248406851
20
-3.21838562457276
30
0
41
1
10
41.7043053077778
20
-3.34677616217311
30
0
41
1
10
43.0509079904762
20
-3.68984396698465
30
0
41
1
10
43.9459224830318
20
-3.86179505629767
30
0
41
1
10
45.2958908960591
20
-4.02413299118095
30
0
41
1
10
45.747155418179
20
-4.06236672418271
30
0
41
1
10
46.4273859032793
20
-4.0946540050864
30
0
41
1
10
46.6548753039004
20
-4.10123042893136
30
0
41
1
10
47.1092974921706
20
-4.1058210911653
30
0
41
1
10
47.336421860613
20
-4.10385164408655
30
0
41
1
10
47.5635779491329
20
-4.09759162264916
30
0
0
SPLINE
5
EC
100
AcDbEntity
8
1
62
256
6
ByLayer
370
18
48
1
60
0
100
AcDbSpline
70
4
71
3
72
8
73
4
40
0
40
0
40
0
40
0
40
1
40
1
40
1
40
1
41
1
10
48.9895109639061
20
-0.11776534681826
30
0
41
1
10
48.9901801582257
20
-0.0960835802142697
30
0
41
1
10
48.9941471176288
20
-0.069634082860631
30
0
41
1
10
48.9999610253875
20
-0.041774668052966
30
0
0
SPLINE
5
ED
100
AcDbEntity
8
1
62
256
6
ByLayer
370
13
48
1
60
0
100
AcDbSpline
70
4
71
3
72
27
73
23
40
0
40
0
40
0
40
0
40
0.148134331633449
40
0.148134331633449
40
0.222201497450174
40
0.222201497450174
40
0.296268663266899
40
0.370335829083624
40
0.370335829083624
40
0.444402994900348
40
0.444402994900348
40
0.592537326533798
40
0.592537326533798
40
0.666604492350522
40
0.666604492350522
40
0.740671658167247
40
0.740671658167247
40
0.814738823983971
40
0.814738823983971
40
0.888805989800696
40
0.888805989800696
40
1
40
1
40
1
40
1
41
1
10
4.25026001556336
20
1.01786613600081
30
0
41
1
10
4.25029405855111
20
1.26817522646931
30
0
41
1
10
4.25032149180794
20
1.50933499914322
30
0
41
1
10
4.25035637151484
20
1.85747824238049
30
0
41
1
10
4.2503669346321
20
1.97117614898104
30
0
41
1
10
4.25038621924426
20
2.18991135100231
30
0
41
1
10
4.25040377518874
20
2.40108042046816
30
0
41
1
10
4.25041914362481
20
2.59735618764438
30
0
41
1
10
4.25043399518572
20
2.7860955301191
30
0
41
1
10
4.25044119369284
20
2.8770786483837
30
0
41
1
10
4.2504625969533
20
3.13552397575495
30
0
41
1
10
4.25047650206267
20
3.28676736647981
30
0
41
1
10
4.25049937720504
20
3.4830309468206
30
0
41
1
10
4.25050732665648
20
3.54331587907493
30
0
41
1
10
4.25052418188542
20
3.65333835782786
30
0
41
1
10
4.25053308697946
20
3.70297621382531
30
0
41
1
10
4.25055175569807
20
3.78992254128283
30
0
41
1
10
4.25056155267376
20
3.82746920800145
30
0
41
1
10
4.25058213694757
20
3.89059326605184
30
0
41
1
10
4.25059289385138
20
3.91603297184713
30
0
41
1
10
4.25062062980416
20
3.96390337033478
30
0
41
1
10
4.25063794189404
20
3.97844102913305
30
0
41
1
10
4.25065550190376
20
3.97912504876731
30
0
0
SPLINE
5
EE
100
AcDbEntity
8
1
62
256
6
ByLayer
370
18
48
1
60
0
100
AcDbSpline
70
4
71
3
72
27
73
23
40
0
40
0
40
0
40
0
40
0.0759338749978085
40
0.146651691317982
40
0.199709277237946
40
0.248336962436585
40
0.313387961396045
40
0.395257859847721
40
0.460240431714796
40
0.506309469851022
40
0.555851856427227
40
0.606170683089091
40
0.653138930260052
40
0.698876790211328
40
0.749790150197888
40
0.801186613536389
40
0.852634616145257
40
0.890217309702232
40
0.903880032536447
40
0.92205710000879
40
0.9491200017574
40
1
40
1
40
1
40
1
41
1
10
20.0262672845878
20
-3.9884315911637
30
0
41
1
10
20.3425353365549
20
-3.98796124186541
30
0
41
1
10
20.9534957497597
20
-3.98747810675306
30
0
41
1
10
21.7840741545095
20
-3.9900552631145
30
0
41
1
10
22.5041185978861
20
-3.98989677884873
30
0
41
1
10
23.1999880971213
20
-3.98966715364131
30
0
41
1
10
24.0167032264733
20
-3.99064092513686
30
0
41
1
10
24.9015492081725
20
-3.99106342070874
30
0
41
1
10
25.7071478190334
20
-3.99040627975327
30
0
41
1
10
26.3777620763021
20
-3.99114508431961
30
0
41
1
10
26.9871473579779
20
-3.99338623265604
30
0
41
1
10
27.6002896536693
20
-3.99262767075123
30
0
41
1
10
28.1975417973385
20
-3.99182634697317
30
0
41
1
10
28.7972791772754
20
-3.99123217782088
30
0
41
1
10
29.4155059164149
20
-3.9927793701641
30
0
41
1
10
30.0575789640388
20
-3.99319580487378
30
0
41
1
10
30.6439742633505
20
-3.99490530530346
30
0
41
1
10
31.0728201460176
20
-3.9944078699958
30
0
41
1
10
31.3626440892178
20
-3.99386365897175
30
0
41
1
10
31.6085884187277
20
-3.99347304996266
30
0
41
1
10
32.0099698165552
20
-3.99293880096727
30
0
41
1
10
32.3354459232161
20
-3.99292157547635
30
0
41
1
10
32.547917714726
20
-3.99305773970156
30
0
0
SPLINE
5
EF
100
AcDbEntity
8
1
62
256
6
ByLayer
370
18
48
1
60
0
100
AcDbSpline
70
4
71
2
72
6
73
3
40
0
40
0
40
0
40
1
40
1
40
1
41
1
10
5.78432822426063
20
3.9803637534483
30
0
41
1
10
5.01759034683553
20
3.9804576494179
30
0
41
1
10
4.2506596508922
20
3.97851483853833
30
0
0
SPLINE
5
F0
100
AcDbEntity
8
1
62
256
6
ByLayer
370
18
48
1
60
0
100
AcDbSpline
70
4
71
3
72
27
73
23
40
0
40
0
40
0
40
0
40
0.0116206150940964
40
0.0925315960671702
40
0.153065851001297
40
0.195316928151864
40
0.234520744751891
40
0.283547010544176
40
0.329552620657731
40
0.382924148492525
40
0.443564999339606
40
0.497239022001303
40
0.534310428346203
40
0.572233079344325
40
0.635413305148409
40
0.696417244180322
40
0.737881339495506
40
0.776574984461053
40
0.822818098223931
40
0.883170100820377
40
0.944428082809968
40
1
40
1
40
1
40
1
41
1
10
32.6693571120999
20
3.99315298305373
30
0
41
1
10
32.6302550812251
20
3.99300551208071
30
0
41
1
10
32.3189573781956
20
3.9919350679256
30
0
41
1
10
31.8025074429221
20
3.99357127964811
30
0
41
1
10
31.1889897873815
20
3.99376516010892
30
0
41
1
10
30.7095100285808
20
3.99465336836508
30
0
41
1
10
30.2723203753802
20
3.99351162743821
30
0
41
1
10
29.8196976011853
20
3.99332122365411
30
0
41
1
10
29.3200253541617
20
3.99243254677108
30
0
41
1
10
28.7810451046181
20
3.991296291244
30
0
41
1
10
28.2162966511467
20
3.9917636004667
30
0
41
1
10
27.7064284096084
20
3.99258629531167
30
0
41
1
10
27.2730796207118
20
3.99283873157296
30
0
41
1
10
26.8077108078114
20
3.9930537554884
30
0
41
1
10
26.2617457417268
20
3.99066823631171
30
0
41
1
10
25.7038448503149
20
3.99059165408079
30
0
41
1
10
25.2284172427816
20
3.99074887590103
30
0
41
1
10
24.8027034731708
20
3.99091871114652
30
0
41
1
10
24.3133800310614
20
3.99117077157317
30
0
41
1
10
23.7480766637932
20
3.98994430614545
30
0
41
1
10
23.1513341170977
20
3.98973379267025
30
0
41
1
10
22.7578537668541
20
3.98988714331756
30
0
41
1
10
22.5706915503291
20
3.98991496486664
30
0
0
SPLINE
5
F1
100
AcDbEntity
8
1
62
256
6
ByLayer
370
18
48
1
60
0
100
AcDbSpline
70
4
71
2
72
6
73
3
40
0
40
0
40
0
40
1
40
1
40
1
41
1
10
47.2391005981711
20
-4.00533388324607
30
0
41
1
10
47.3821571105357
20
-4.00540081112214
30
0
41
1
10
47.5239917623178
20
-4.00454782801921
30
0
0
SPLINE
5
F2
100
AcDbEntity
8
1
62
256
6
ByLayer
370
18
48
1
60
0
100
AcDbSpline
70
4
71
2
72
6
73
3
40
0
40
0
40
0
40
1
40
1
40
1
41
1
10
4.25065965089217
20
-3.97851483853839
30
0
41
1
10
5.01638492316698
20
-3.98045558728313
30
0
41
1
10
5.78191768000974
20
-3.98036283062353
30
0
0
LINE
5
7B
100
AcDbEntity
8
SK1
62
256
6
ByLayer
370
18
48
1
60
0
100
AcDbLine
10
-39.25
20
-1.562809
30
0
11
-39.25
21
0.21513
31
0
39
0
210
0
220
0
230
1
0
LINE
5
7D
100
AcDbEntity
8
SK1
62
256
6
ByLayer
370
18
48
1
60
0
100
AcDbLine
10
-40
20
-3.66
30
0
11
-40
21
-1.537271
31
0
39
0
210
0
220
0
230
1
0
LINE
5
7E
100
AcDbEntity
8
SK1
62
256
6
ByLayer
370
18
48
1
60
0
100
AcDbLine
10
-40
20
3.66
30
0
11
-40
21
0.438217
31
0
39
0
210
0
220
0
230
1
0
LINE
5
7F
100
AcDbEntity
8
SK1
62
256
6
ByLayer
370
18
48
1
60
0
100
AcDbLine
10
-40
20
-0.438217
30
0
11
-40
21
-1.537271
31
0
39
0
210
0
220
0
230
1
0
LINE
5
80
100
AcDbEntity
8
SK1
62
256
6
ByLayer
370
18
48
1
60
0
100
AcDbLine
10
0
20
-5
30
0
11
0
21
5
31
0
39
0
210
0
220
0
230
1
0
LINE
5
81
100
AcDbEntity
8
SK1
62
256
6
ByLayer
370
18
48
1
60
0
100
AcDbLine
10
-38.66
20
5
30
0
11
-38.66
21
-5
31
0
39
0
210
0
220
0
230
1
0
LINE
5
82
100
AcDbEntity
8
SK1
62
256
6
ByLayer
370
13
48
1
60
0
100
AcDbLine
10
-39.35
20
-0.333384
30
0
11
-39.35
21
-1.642104
31
0
39
0
210
0
220
0
230
1
0
LINE
5
83
100
AcDbEntity
8
1
62
256
6
ByLayer
370
18
48
1
60
0
100
AcDbLine
10
4.250656
20
-3.979126
30
0
11
4.250661
21
-3.978934
31
0
39
0
210
0
220
0
230
1
0
LINE
5
84
100
AcDbEntity
8
1
62
256
6
ByLayer
370
13
48
1
60
0
100
AcDbLine
10
1.393261
20
4.187539
30
0
11
1.393261
21
-4.187539
31
0
39
0
210
0
220
0
230
1
0
LINE
5
85
100
AcDbEntity
8
1
62
256
6
ByLayer
370
18
48
1
60
0
100
AcDbLine
10
0
20
-5
30
0
11
0
21
5
31
0
39
0
210
0
220
0
230
1
0
LINE
5
86
100
AcDbEntity
8
1
62
256
6
ByLayer
370
13
48
1
60
0
100
AcDbLine
10
0.69638
20
4.59377
30
0
11
0.69638
21
-4.59377
31
0
39
0
210
0
220
0
230
1
0
LINE
5
87
100
AcDbEntity
8
1
62
256
6
ByLayer
370
13
48
1
60
0
100
AcDbLine
10
47.580164
20
1.009916
30
0
11
48.989511
21
0.117765
31
0
39
0
210
0
220
0
230
1
0
LINE
5
88
100
AcDbEntity
8
1
62
256
6
ByLayer
370
13
48
1
60
0
100
AcDbLine
10
47.445729
20
0.913204
30
0
11
48.964248
21
-0.048055
31
0
39
0
210
0
220
0
230
1
0
LINE
5
89
100
AcDbEntity
8
1
62
256
6
ByLayer
370
18
48
1
60
0
100
AcDbLine
10
4.250656
20
3.979125
30
0
11
4.250661
21
3.978934
31
0
39
0
210
0
220
0
230
1
0
LINE
5
8A
100
AcDbEntity
8
80
62
256
6
ByLayer
370
18
48
1
60
0
100
AcDbLine
10
0
20
0
30
0
11
-5
21
0
31
0
39
0
210
0
220
0
230
1
0
LINE
5
8B
100
AcDbEntity
8
SK4
62
256
6
ByLayer
370
18
48
0.05
60
0
100
AcDbLine
10
54
20
0
30
0
11
-45
21
0
31
0
39
0
210
0
220
0
230
1
0
LINE
5
8D
100
AcDbEntity
8
4
62
256
6
ByLayer
370
18
48
0.05
60
0
100
AcDbLine
10
49
20
0
30
0
11
0
21
0
31
0
39
0
210
0
220
0
230
1
0
LINE
5
8F
100
AcDbEntity
8
SK1
62
256
6
ByLayer
370
18
48
1
60
0
100
AcDbLine
10
-38.66
20
-5
30
0
11
0
21
-5
31
0
39
0
210
0
220
0
230
1
0
LINE
5
90
100
AcDbEntity
8
SK1
62
256
6
ByLayer
370
18
48
1
60
0
100
AcDbLine
10
0
20
5
30
0
11
-38.66
21
5
31
0
39
0
210
0
220
0
230
1
0
LINE
5
91
100
AcDbEntity
8
SK1
62
256
6
ByLayer
370
18
48
1
60
0
100
AcDbLine
10
-40
20
-3.66
30
0
11
-38.66
21
-5
31
0
39
0
210
0
220
0
230
1
0
LINE
5
92
100
AcDbEntity
8
SK1
62
256
6
ByLayer
370
18
48
1
60
0
100
AcDbLine
10
-38.66
20
5
30
0
11
-40
21
3.66
31
0
39
0
210
0
220
0
230
1
0
LINE
5
93
100
AcDbEntity
8
1
62
256
6
ByLayer
370
18
48
1
60
0
100
AcDbLine
10
1.393261
20
-4.187539
30
0
11
4.003208
21
-4.189171
31
0
39
0
210
0
220
0
230
1
0
LINE
5
94
100
AcDbEntity
8
1
62
256
6
ByLayer
370
18
48
1
60
0
100
AcDbLine
10
18.508397
20
-4.198236
30
0
11
19.855405
21
-4.199078
31
0
39
0
210
0
220
0
230
1
0
LINE
5
95
100
AcDbEntity
8
1
62
256
6
ByLayer
370
18
48
1
60
0
100
AcDbLine
10
45.705759
20
-4.215235
30
0
11
47.056267
21
-4.216079
31
0
39
0
210
0
220
0
230
1
0
LINE
5
96
100
AcDbEntity
8
1
62
256
6
ByLayer
370
18
48
1
60
0
100
AcDbLine
10
47.056154
20
4.216079
30
0
11
45.705759
21
4.215235
31
0
39
0
210
0
220
0
230
1
0
LINE
5
97
100
AcDbEntity
8
1
62
256
6
ByLayer
370
18
48
1
60
0
100
AcDbLine
10
19.855043
20
4.199078
30
0
11
18.508397
21
4.198236
31
0
39
0
210
0
220
0
230
1
0
LINE
5
98
100
AcDbEntity
8
1
62
256
6
ByLayer
370
18
48
1
60
0
100
AcDbLine
10
4.003208
20
4.189171
30
0
11
1.393261
21
4.187539
31
0
39
0
210
0
220
0
230
1
0
LINE
5
99
100
AcDbEntity
8
81
62
256
6
ByLayer
370
18
48
1
60
0
100
AcDbLine
10
49
20
0
30
0
11
54
21
0
31
0
39
0
210
0
220
0
230
1
0
LINE
5
9A
100
AcDbEntity
8
SK2
62
256
6
ByLayer
370
13
48
1
60
0
100
AcDbLine
10
-48.625163
20
-5
30
0
11
-48.625163
21
35.857173
31
0
39
0
210
0
220
0
230
1
0
LINE
5
9C
100
AcDbEntity
8
SK2
62
256
6
ByLayer
370
13
48
1
60
0
100
AcDbLine
10
-41.5875
20
5
30
0
11
-50.625163
21
5
31
0
39
0
210
0
220
0
230
1
0
LINE
5
9D
100
AcDbEntity
8
SK2
62
256
6
ByLayer
370
13
48
1
60
0
100
AcDbLine
10
-41.5875
20
-5
30
0
11
-50.625163
21
-5
31
0
39
0
210
0
220
0
230
1
0
LINE
5
9E
100
AcDbEntity
8
1
62
256
6
ByLayer
370
18
48
1
60
1
100
AcDbLine
10
-48.625163
20
5
30
0
11
-48.164379
21
1.500002
31
0
39
0
210
0
220
0
230
1
0
LINE
5
9F
100
AcDbEntity
8
1
62
256
6
ByLayer
370
18
48
1
60
1
100
AcDbLine
10
-48.164379
20
1.500002
30
0
11
-49.085946
21
1.499998
31
0
39
0
210
0
220
0
230
1
0
LINE
5
A0
100
AcDbEntity
8
1
62
256
6
ByLayer
370
18
48
1
60
1
100
AcDbLine
10
-49.085946
20
1.499998
30
0
11
-48.625163
21
5
31
0
39
0
210
0
220
0
230
1
0
LINE
5
A1
100
AcDbEntity
8
1
62
256
6
ByLayer
370
18
48
1
60
1
100
AcDbLine
10
-48.625163
20
-5
30
0
11
-49.085946
21
-1.500002
31
0
39
0
210
0
220
0
230
1
0
LINE
5
A2
100
AcDbEntity
8
1
62
256
6
ByLayer
370
18
48
1
60
1
100
AcDbLine
10
-49.085946
20
-1.500002
30
0
11
-48.164379
21
-1.499998
31
0
39
0
210
0
220
0
230
1
0
LINE
5
A3
100
AcDbEntity
8
1
62
256
6
ByLayer
370
18
48
1
60
1
100
AcDbLine
10
-48.164379
20
-1.499998
30
0
11
-48.625163
21
-5
31
0
39
0
210
0
220
0
230
1
0
LINE
5
A4
100
AcDbEntity
8
2
62
256
6
ByLayer
370
13
48
1
60
0
100
AcDbLine
10
61.083343
20
-4.2165
30
0
11
61.083343
21
32.295227
31
0
39
0
210
0
220
0
230
1
0
LINE
5
A6
100
AcDbEntity
8
2
62
256
6
ByLayer
370
13
48
1
60
0
100
AcDbLine
10
49.3401
20
4.2165
30
0
11
63.083343
21
4.2165
31
0
39
0
210
0
220
0
230
1
0
LINE
5
A7
100
AcDbEntity
8
2
62
256
6
ByLayer
370
13
48
1
60
0
100
AcDbLine
10
49.3401
20
-4.2165
30
0
11
63.083343
21
-4.2165
31
0
39
0
210
0
220
0
230
1
0
LINE
5
A8
100
AcDbEntity
8
1
62
256
6
ByLayer
370
18
48
1
60
1
100
AcDbLine
10
61.083343
20
4.2165
30
0
11
61.544126
21
0.716502
31
0
39
0
210
0
220
0
230
1
0
LINE
5
A9
100
AcDbEntity
8
1
62
256
6
ByLayer
370
18
48
1
60
1
100
AcDbLine
10
61.544126
20
0.716502
30
0
11
60.622559
21
0.716498
31
0
39
0
210
0
220
0
230
1
0
LINE
5
AA
100
AcDbEntity
8
1
62
256
6
ByLayer
370
18
48
1
60
1
100
AcDbLine
10
60.622559
20
0.716498
30
0
11
61.083343
21
4.2165
31
0
39
0
210
0
220
0
230
1
0
LINE
5
AB
100
AcDbEntity
8
1
62
256
6
ByLayer
370
18
48
1
60
1
100
AcDbLine
10
61.083343
20
-4.2165
30
0
11
60.622559
21
-0.716502
31
0
39
0
210
0
220
0
230
1
0
LINE
5
AC
100
AcDbEntity
8
1
62
256
6
ByLayer
370
18
48
1
60
1
100
AcDbLine
10
60.622559
20
-0.716502
30
0
11
61.544126
21
-0.716498
31
0
39
0
210
0
220
0
230
1
0
LINE
5
AD
100
AcDbEntity
8
1
62
256
6
ByLayer
370
18
48
1
60
1
100
AcDbLine
10
61.544126
20
-0.716498
30
0
11
61.083343
21
-4.2165
31
0
39
0
210
0
220
0
230
1
0
LINE
5
F9
100
AcDbEntity
8
1
62
256
6
ByLayer
370
18
48
1
60
1
100
AcDbLine
10
-48.625163
20
5
30
0
11
-48.164379
21
1.500002
31
0
39
0
210
0
220
0
230
1
0
LINE
5
FA
100
AcDbEntity
8
1
62
256
6
ByLayer
370
18
48
1
60
1
100
AcDbLine
10
-48.164379
20
1.500002
30
0
11
-49.085946
21
1.499998
31
0
39
0
210
0
220
0
230
1
0
LINE
5
FB
100
AcDbEntity
8
1
62
256
6
ByLayer
370
18
48
1
60
1
100
AcDbLine
10
-49.085946
20
1.499998
30
0
11
-48.625163
21
5
31
0
39
0
210
0
220
0
230
1
0
LINE
5
FD
100
AcDbEntity
8
1
62
256
6
ByLayer
370
18
48
1
60
1
100
AcDbLine
10
-48.625163
20
-5
30
0
11
-49.085946
21
-1.500002
31
0
39
0
210
0
220
0
230
1
0
LINE
5
FE
100
AcDbEntity
8
1
62
256
6
ByLayer
370
18
48
1
60
1
100
AcDbLine
10
-49.085946
20
-1.500002
30
0
11
-48.164379
21
-1.499998
31
0
39
0
210
0
220
0
230
1
0
LINE
5
FF
100
AcDbEntity
8
1
62
256
6
ByLayer
370
18
48
1
60
1
100
AcDbLine
10
-48.164379
20
-1.499998
30
0
11
-48.625163
21
-5
31
0
39
0
210
0
220
0
230
1
0
LINE
5
103
100
AcDbEntity
8
1
62
256
6
ByLayer
370
18
48
1
60
1
100
AcDbLine
10
61.083343
20
4.2165
30
0
11
61.544126
21
0.716502
31
0
39
0
210
0
220
0
230
1
0
LINE
5
104
100
AcDbEntity
8
1
62
256
6
ByLayer
370
18
48
1
60
1
100
AcDbLine
10
61.544126
20
0.716502
30
0
11
60.622559
21
0.716498
31
0
39
0
210
0
220
0
230
1
0
LINE
5
105
100
AcDbEntity
8
1
62
256
6
ByLayer
370
18
48
1
60
1
100
AcDbLine
10
60.622559
20
0.716498
30
0
11
61.083343
21
4.2165
31
0
39
0
210
0
220
0
230
1
0
LINE
5
107
100
AcDbEntity
8
1
62
256
6
ByLayer
370
18
48
1
60
1
100
AcDbLine
10
61.083343
20
-4.2165
30
0
11
60.622559
21
-0.716502
31
0
39
0
210
0
220
0
230
1
0
LINE
5
108
100
AcDbEntity
8
1
62
256
6
ByLayer
370
18
48
1
60
1
100
AcDbLine
10
60.622559
20
-0.716502
30
0
11
61.544126
21
-0.716498
31
0
39
0
210
0
220
0
230
1
0
LINE
5
109
100
AcDbEntity
8
1
62
256
6
ByLayer
370
18
48
1
60
1
100
AcDbLine
10
61.544126
20
-0.716498
30
0
11
61.083343
21
-4.2165
31
0
39
0
210
0
220
0
230
1
0
MTEXT
5
F3
100
AcDbEntity
8
SK6
62
256
6
ByLayer
370
13
48
1
60
0
100
AcDbMText
10
-24.82946
20
36.756828
30
0
210
0
220
0
230
1
1
\W0.7716;462.1-0843-025A1-XM X2BM
40
3.5
41
0
44
1.084337
50
0
71
7
72
5
7
iso_b_vert
0
MTEXT
5
F7
100
AcDbEntity
8
SK2
62
256
6
ByLayer
370
18
48
1
60
0
100
AcDbMText
10
-50.189796
20
18.409024
30
0
210
0
220
0
230
1
1
%%c
40
3.5
41
0
44
1.084337
50
90
71
7
72
5
7
iso_b_vert
0
MTEXT
5
F8
100
AcDbEntity
8
SK2
62
256
6
ByLayer
370
18
48
1
60
0
100
AcDbMText
10
-50.189796
20
23.63168
30
0
210
0
220
0
230
1
1
\W0.6930;10,000
40
3.5
41
0
44
1.084337
50
90
71
7
72
5
7
iso_b_vert
0
MTEXT
5
101
100
AcDbEntity
8
2
62
256
6
ByLayer
370
18
48
1
60
0
100
AcDbMText
10
59.518709
20
16.21861
30
0
210
0
220
0
230
1
1
%%c
40
3.5
41
0
44
1.084337
50
90
71
7
72
5
7
iso_b_vert
0
MTEXT
5
102
100
AcDbEntity
8
2
62
256
6
ByLayer
370
18
48
1
60
0
100
AcDbMText
10
59.518709
20
21.441266
30
0
210
0
220
0
230
1
1
\W0.7581;8,433
40
3.5
41
0
44
1.084337
50
90
71
7
72
5
7
iso_b_vert
0
HATCH
5
FC
100
AcDbEntity
8
SK2
62
256
6
ByLayer
370
13
48
1
60
0
100
AcDbHatch
10
0
20
0
30
0
210
0
220
0
230
1
2
ANSI31
70
0
71
0
91
1
92
5
93
3
72
1
10
-48.6251625675374
20
5
11
-48.1643788259847
21
1.50000169255318
72
1
10
-48.1643788259847
20
1.50000169255318
11
-49.0859463090902
21
1.49999830744682
72
1
10
-49.0859463090902
20
1.49999830744682
11
-48.6251625675374
21
5
97
0
75
0
76
1
52
0
41
0.0062
77
0
78
1
53
45
43
0
44
0
45
-0.0139193969876572
46
0.0139193969876572
79
0
47
0
98
1
10
0
20
0
0
HATCH
5
100
100
AcDbEntity
8
SK2
62
256
6
ByLayer
370
13
48
1
60
0
100
AcDbHatch
10
0
20
0
30
0
210
0
220
0
230
1
2
ANSI31
70
0
71
0
91
1
92
5
93
3
72
1
10
-48.6251625675374
20
-5
11
-49.0859463090902
21
-1.50000169255318
72
1
10
-49.0859463090902
20
-1.50000169255318
11
-48.1643788259847
21
-1.49999830744682
72
1
10
-48.1643788259847
20
-1.49999830744682
11
-48.6251625675374
21
-5
97
0
75
0
76
1
52
0
41
0.0062
77
0
78
1
53
45
43
0
44
0
45
-0.0139193969876572
46
0.0139193969876572
79
0
47
0
98
1
10
0
20
0
0
HATCH
5
106
100
AcDbEntity
8
2
62
256
6
ByLayer
370
13
48
1
60
0
100
AcDbHatch
10
0
20
0
30
0
210
0
220
0
230
1
2
ANSI31
70
0
71
0
91
1
92
5
93
3
72
1
10
61.083342615295
20
4.2165
11
61.5441263568478
21
0.71650169255318
72
1
10
61.5441263568478
20
0.71650169255318
11
60.6225588737423
21
0.716498307446813
72
1
10
60.6225588737423
20
0.716498307446813
11
61.083342615295
21
4.2165
97
0
75
0
76
1
52
0
41
0.0062
77
0
78
1
53
45
43
0
44
0
45
-0.0139193969876572
46
0.0139193969876572
79
0
47
0
98
1
10
0
20
0
0
HATCH
5
10A
100
AcDbEntity
8
2
62
256
6
ByLayer
370
13
48
1
60
0
100
AcDbHatch
10
0
20
0
30
0
210
0
220
0
230
1
2
ANSI31
70
0
71
0
91
1
92
5
93
3
72
1
10
61.083342615295
20
-4.2165
11
60.6225588737423
21
-0.71650169255318
72
1
10
60.6225588737423
20
-0.71650169255318
11
61.5441263568478
21
-0.716498307446813
72
1
10
61.5441263568478
20
-0.716498307446813
11
61.083342615295
21
-4.2165
97
0
75
0
76
1
52
0
41
0.0062
77
0
78
1
53
45
43
0
44
0
45
-0.0139193969876572
46
0.0139193969876572
79
0
47
0
98
1
10
0
20
0
0
DIMENSION
5
10C
100
AcDbEntity
8
SK2
62
256
6
ByLayer
370
13
48
1
60
0
100
AcDbDimension
2
_U0
10
47.7526
20
-14.429898
30
0
11
23.8763
21
-14.429898
31
0
70
32
71
1
72
1
41
1
210
0
220
0
230
1
3
Standard
100
AcDbAlignedDimension
13
0
23
0
33
0
14
47.7526
24
-4.2165
34
0
50
0
100
AcDbRotatedDimension
1001
ACAD
1000
DSTYLE
1002
{
1070
   371
1070
    13
1070
   372
1070
    13
1070
   170
1070
     0
1070
   144
1040
1.0
1070
   277
1070
     2
1070
   278
1070
    44
1070
   146
1040
1.0
1070
   345
1005
16
1070
   347
1005
16
1070
   346
1005
16
1070
   344
1005
0
1070
   343
1005
0
1070
   172
1070
     1
1070
    76
1070
     0
1070
    75
1070
     0
1070
   282
1070
     0
1070
   281
1070
     0
1070
    71
1070
     0
1070
    74
1070
     0
1070
   279
1070
     0
1070
   173
1070
     1
1070
   340
1005
F4
1070
   271
1070
     2
1070
   272
1070
     2
1070
    77
1070
     1
1070
    73
1070
     1
1070
   171
1070
     3
1070
   274
1070
     4
1070
   177
1070
    35
1070
   176
1070
    35
1070
   178
1070
    35
1070
    48
1040
-0.1
1070
    41
1040
3.5
1070
   147
1040
1.75
1070
    42
1040
1.5875
1070
    44
1040
2.0
1070
   140
1040
3.5
1002
}
1001
ACAD_DSTYLE_DIM_LINETYPE
1070
   380
1005
16
1001
ACAD_DSTYLE_DIM_EXT1_LINETYPE
1070
   381
1005
16
1001
ACAD_DSTYLE_DIM_EXT2_LINETYPE
1070
   382
1005
16
0
DIMENSION
5
125
100
AcDbEntity
8
SK2
62
256
6
ByLayer
370
13
48
1
60
0
100
AcDbDimension
2
_U1
10
49
20
-33.692985
30
0
11
4.5
21
-33.692985
31
0
70
32
71
1
72
1
41
1
210
0
220
0
230
1
3
Standard
100
AcDbAlignedDimension
13
-40
23
-5
33
0
14
49
24
0
34
0
50
0
100
AcDbRotatedDimension
1001
ACAD
1000
DSTYLE
1002
{
1070
   371
1070
    13
1070
   372
1070
    13
1070
   170
1070
     0
1070
   144
1040
1.0
1070
   277
1070
     2
1070
   278
1070
    44
1070
   146
1040
1.0
1070
   345
1005
16
1070
   347
1005
16
1070
   346
1005
16
1070
   344
1005
0
1070
   343
1005
0
1070
   172
1070
     1
1070
    76
1070
     0
1070
    75
1070
     0
1070
   282
1070
     0
1070
   281
1070
     0
1070
    71
1070
     0
1070
    74
1070
     0
1070
   279
1070
     0
1070
   173
1070
     1
1070
   340
1005
F4
1070
   271
1070
     2
1070
   272
1070
     2
1070
    77
1070
     1
1070
    73
1070
     1
1070
   171
1070
     3
1070
   274
1070
     4
1070
   177
1070
    35
1070
   176
1070
    35
1070
   178
1070
    35
1070
    48
1040
-0.1
1070
    41
1040
3.5
1070
   147
1040
1.75
1070
    42
1040
1.5875
1070
    44
1040
2.0
1070
   140
1040
3.5
1002
}
1001
ACAD_DSTYLE_DIM_LINETYPE
1070
   380
1005
16
1001
ACAD_DSTYLE_DIM_EXT1_LINETYPE
1070
   381
1005
16
1001
ACAD_DSTYLE_DIM_EXT2_LINETYPE
1070
   382
1005
16
0
DIMENSION
5
13D
100
AcDbEntity
8
SK2
62
256
6
ByLayer
370
13
48
1
60
0
100
AcDbDimension
2
_U2
10
49
20
15.825619
30
0
11
35.73
21
15.825619
31
0
70
32
71
1
72
1
41
1
210
0
220
0
230
1
3
Standard
100
AcDbAlignedDimension
13
22.46
23
4.2165
33
0
14
49
24
0
34
0
50
0
100
AcDbRotatedDimension
1001
ACAD
1000
DSTYLE
1002
{
1070
   371
1070
    13
1070
   372
1070
    13
1070
   170
1070
     0
1070
   144
1040
1.0
1070
   277
1070
     2
1070
   278
1070
    44
1070
   146
1040
1.0
1070
   345
1005
16
1070
   347
1005
16
1070
   346
1005
16
1070
   344
1005
0
1070
   343
1005
0
1070
   172
1070
     1
1070
    76
1070
     0
1070
    75
1070
     0
1070
   282
1070
     0
1070
   281
1070
     0
1070
    71
1070
     0
1070
    74
1070
     0
1070
   279
1070
     0
1070
   173
1070
     1
1070
   340
1005
F4
1070
   271
1070
     2
1070
   272
1070
     2
1070
    77
1070
     1
1070
    73
1070
     1
1070
   171
1070
     3
1070
   274
1070
     4
1070
   177
1070
    35
1070
   176
1070
    35
1070
   178
1070
    35
1070
    48
1040
-0.1
1070
    41
1040
3.5
1070
   147
1040
1.75
1070
    42
1040
1.5875
1070
    44
1040
2.0
1070
   140
1040
3.5
1002
}
1001
ACAD_DSTYLE_DIM_LINETYPE
1070
   380
1005
16
1001
ACAD_DSTYLE_DIM_EXT1_LINETYPE
1070
   381
1005
16
1001
ACAD_DSTYLE_DIM_EXT2_LINETYPE
1070
   382
1005
16
0
DIMENSION
5
155
100
AcDbEntity
8
SK2
62
256
6
ByLayer
370
13
48
1
60
0
100
AcDbDimension
2
_U3
10
47.7526
20
-17.019003
30
0
11
66.333333
21
-17.019003
31
0
70
32
71
1
72
1
41
1
210
0
220
0
230
1
3
Standard
100
AcDbAlignedDimension
13
49
23
0
33
0
14
47.7526
24
-4.2165
34
0
50
0
100
AcDbRotatedDimension
1001
ACAD
1000
DSTYLE
1002
{
1070
   371
1070
    13
1070
   372
1070
    13
1070
   170
1070
     0
1070
   144
1040
1.0
1070
   277
1070
     2
1070
   278
1070
    44
1070
   146
1040
1.0
1070
   345
1005
16
1070
   347
1005
16
1070
   346
1005
16
1070
   344
1005
0
1070
   343
1005
0
1070
   172
1070
     1
1070
    76
1070
     0
1070
    75
1070
     0
1070
   282
1070
     0
1070
   281
1070
     0
1070
    71
1070
     0
1070
    74
1070
     0
1070
   279
1070
     0
1070
   173
1070
     1
1070
   340
1005
F4
1070
   271
1070
     2
1070
   272
1070
     2
1070
    77
1070
     1
1070
    73
1070
     1
1070
   171
1070
     3
1070
   274
1070
     4
1070
   177
1070
    35
1070
   176
1070
    35
1070
   178
1070
    35
1070
    48
1040
-0.1
1070
    41
1040
3.5
1070
   147
1040
1.75
1070
    42
1040
1.5875
1070
    44
1040
2.0
1070
   140
1040
3.5
1002
}
1001
ACAD_DSTYLE_DIM_LINETYPE
1070
   380
1005
16
1001
ACAD_DSTYLE_DIM_EXT1_LINETYPE
1070
   381
1005
16
1001
ACAD_DSTYLE_DIM_EXT2_LINETYPE
1070
   382
1005
16
0
DIMENSION
5
16F
100
AcDbEntity
8
SK2
62
256
6
ByLayer
370
13
48
1
60
0
100
AcDbDimension
2
_U4
10
47.7526
20
-23.343428
30
0
11
3.8763
21
-23.343428
31
0
70
32
71
1
72
1
41
1
210
0
220
0
230
1
3
Standard
100
AcDbAlignedDimension
13
-40
23
-5
33
0
14
47.7526
24
-4.2165
34
0
50
0
100
AcDbRotatedDimension
1001
ACAD
1000
DSTYLE
1002
{
1070
   371
1070
    13
1070
   372
1070
    13
1070
   170
1070
     0
1070
   144
1040
1.0
1070
   277
1070
     2
1070
   278
1070
    44
1070
   146
1040
1.0
1070
   345
1005
16
1070
   347
1005
16
1070
   346
1005
16
1070
   344
1005
0
1070
   343
1005
0
1070
   172
1070
     1
1070
    76
1070
     0
1070
    75
1070
     0
1070
   282
1070
     0
1070
   281
1070
     0
1070
    71
1070
     0
1070
    74
1070
     0
1070
   279
1070
     0
1070
   173
1070
     1
1070
   340
1005
F4
1070
   271
1070
     2
1070
   272
1070
     2
1070
    77
1070
     1
1070
    73
1070
     1
1070
   171
1070
     3
1070
   274
1070
     4
1070
   177
1070
    35
1070
   176
1070
    35
1070
   178
1070
    35
1070
    48
1040
-0.1
1070
    41
1040
3.5
1070
   147
1040
1.75
1070
    42
1040
1.5875
1070
    44
1040
2.0
1070
   140
1040
3.5
1002
}
1001
ACAD_DSTYLE_DIM_LINETYPE
1070
   380
1005
16
1001
ACAD_DSTYLE_DIM_EXT1_LINETYPE
1070
   381
1005
16
1001
ACAD_DSTYLE_DIM_EXT2_LINETYPE
1070
   382
1005
16
0
ENDSEC
0
SECTION
2
OBJECTS
0
DICTIONARY
5
1f7
330
0
100
AcDbDictionary
280
0
281
1
3
ACAD_GROUP
350
1f8
3
ACAD_MLINESTYLE
350
1f9
0
DICTIONARY
5
1f8
330
0
100
AcDbDictionary
280
0
281
1
0
DICTIONARY
5
1f9
330
0
100
AcDbDictionary
280
0
281
1
3
Standard
350
18
0
MLINESTYLE
5
18
330
1f9
100
AcDbMlineStyle
2
Standard
70
0
3

62
256
51
90
52
90
71
2
49
-0.5
62
256
6
ByLayer
49
0.5
62
256
6
ByLayer
0
RASTERVARIABLES
5
1e5
330

100
AcDbRasterVariables
90
0
70
1
71
1
72
1
0
ENDSEC
0
EOF
